<?xml version="1.0" encoding="UTF-8"?>
<!DOCTYPE svg  PUBLIC '-//W3C//DTD SVG 1.1//EN'  'http://www.w3.org/Graphics/SVG/1.1/DTD/svg11.dtd'>
<svg version="1.1" xmlns="http://www.w3.org/2000/svg">
<defs>
<font id="ArrowMedium" horiz-adv-x="500">
<font-face font-family="ArrowMedium" font-weight="400" ascent="767" bbox="-121 -237 816 842" cap-height="680" descent="-233" panose-1="0 0 4 0 0 0 0 0 0 0" underline-position="-143" underline-thickness="20" unicode-range="U+0020-00FE" units-per-em="1000" x-height="459"/>
<missing-glyph/>
<glyph glyph-name="space" horiz-adv-x="212" unicode=" "/>
<glyph d="M112 92q20 0 34.5 -14t14.5 -35q0 -20 -14.5 -34t-34.5 -14q-21 0 -36 14t-15 34q0 21 15 35t36 14zM54 590q0 99 58 99q55 0 55 -99q0 -26 -22 -210q-23 -191 -33 -241q-12 49 -36 241q-22 182 -22 210z" glyph-name="exclam" horiz-adv-x="232" unicode="!"/>
<glyph d="M115 640q0 -17 -21.5 -72.5t-27.5 -55.5t-28 55t-22 73q0 21 14 35t36 14q20 0 34.5 -14t14.5 -35zM237 640q0 -18 -21 -73t-28 -55t-28.5 55t-21.5 73q0 21 14.5 35t35.5 14t35 -14t14 -35z" glyph-name="quotedbl" horiz-adv-x="277" unicode='"'/>
<glyph d="M144 503l30 177h54l-32 -177h79l31 177h52l-31 -177h82l-9 -51h-82l-40 -226h82l-10 -50h-80l-32 -176h-52l30 176h-77l-31 -176h-52l29 176h-83l8 50h84l40 226h-84l11 51h83zM188 452l-40 -226h76l40 226h-76z" glyph-name="numbersign" horiz-adv-x="435" unicode="#"/>
<glyph d="M362 652l5 -132q-11 42 -45 78q-43 45 -99 51q0 -40 -1 -115t-1 -120q108 -52 138 -78q60 -53 60 -143q0 -83 -61 -141q-57 -54 -134 -61v-68h-40v67q-74 1 -168 55l-6 150q52 -159 174 -164q0 53 1 145t1 135q-86 41 -123 78q-51 51 -51 123q0 76 53 125q47 44 119 54 v62h40v-31q-1 -20 -1 -31q61 0 139 -39zM221 298q0 -41 1 -127.5t1 -133.5q55 7 83 53q21 34 21 77q0 51 -27 80q-21 22 -79 51zM186 430q0 35 -1 107t-1 110q-90 -6 -90 -102q0 -40 19.5 -64t72.5 -51z" glyph-name="dollar" horiz-adv-x="453" unicode="$"/>
<glyph d="M408 327q56 0 94 -47.5t38 -121.5q0 -79 -43 -126q-39 -41 -93 -41t-91 43q-41 47 -41 124q0 75 38.5 122t97.5 47zM145 689q56 0 94 -47t38 -120q0 -80 -43 -127q-38 -42 -92 -42t-92 43q-41 47 -41 126q0 74 39 120.5t97 46.5zM490 680q-54 -88 -193 -344 q-141 -260 -176 -336h-60q51 83 191.5 342t177.5 338h60zM142 378q28 -1 45.5 36t18.5 106q1 68 -16 109t-45 41t-46.5 -39t-19.5 -107q-1 -144 63 -146zM404 14q65 0 66 143q0 68 -17 108.5t-45 40.5q-29 0 -47 -37q-19 -40 -19 -107q0 -73 17 -110.5t45 -37.5z" glyph-name="percent" horiz-adv-x="572" unicode="%"/>
<glyph d="M391 555q0 -56 -46 -102q-27 -27 -88 -63l150 -193q32 53 32 124q0 69 -50 79h101q3 -19 3 -39q0 -87 -57 -199q38 -49 76 -99q43 -53 67 -63h-134q-19 28 -63 82q-82 -91 -183 -91q-77 0 -132 52t-55 126q0 129 142 200q-49 62 -59 77q-33 52 -33 93q0 66 47 108t120 42 q72 0 117 -38.5t45 -95.5zM356 118l-174 220q-82 -53 -82 -141q0 -60 41 -103t97 -43q67 0 118 67zM224 652q-31 0 -54 -21q-26 -24 -26 -62q0 -31 22 -66q17 -27 67 -84q78 52 78 127q0 34 -19 65q-25 41 -68 41z" glyph-name="ampersand" horiz-adv-x="564" unicode="&amp;"/>
<glyph d="M54 692q52 0 52 -66q0 -40 -26.5 -71t-55.5 -35q-5 -2 -6 2q-2 4 6 5q12 2 26 22q17 24 15 47q-3 -1 -11 -1q-20 0 -34.5 14.5t-14.5 33.5q0 23 16 36t33 13z" glyph-name="quotesingle" horiz-adv-x="136" unicode="'"/>
<glyph d="M183 -129q-69 33 -125 185q-54 147 -54 282q0 131 57 272t122 170q-90 -214 -90 -442q0 -234 90 -467z" glyph-name="parenleft" horiz-adv-x="248" unicode="("/>
<glyph d="M42 -129q91 236 91 467q0 233 -91 442q65 -29 122 -170t57 -272q0 -135 -54 -282q-56 -152 -125 -185z" glyph-name="parenright" horiz-adv-x="248" unicode=")"/>
<glyph d="M107 663q0 26 26 26q28 0 28 -26q0 -34 -18 -77q11 -2 16 -10q42 28 70 36q13 4 24 -5t11 -20q0 -21 -18 -25q-36 -9 -78 -9q0 -11 -6 -19q45 -29 56 -54q10 -11 1 -27q-8 -15 -22 -15t-21 11q-15 20 -33 71q-5 -1 -19 -1q-4 -12 -33 -70q-17 -20 -38 -5q-9 6 -10 17 q-2 11 5 19q10 21 57 52q-5 10 -5 20q-38 0 -78 10q-19 5 -19 26q0 12 12.5 20t23.5 4q29 -9 66 -38q9 11 17 12q-15 49 -15 77z" glyph-name="asterisk" horiz-adv-x="292" unicode="*"/>
<glyph d="M174 536h56v-169h144v-56h-144v-168h-56v168h-145v56h145v169z" glyph-name="plus" horiz-adv-x="429" unicode="+"/>
<glyph d="M74 92q52 0 52 -66q0 -40 -27 -73q-26 -29 -55 -33q-5 -2 -6 2q-2 4 6 5q12 2 26 22q17 24 15 47q-3 -1 -11 -1q-20 0 -34.5 14.5t-14.5 33.5q0 23 16 36t33 13z" glyph-name="comma" horiz-adv-x="136" unicode=","/>
<glyph d="M4 294h186v-63h-186v63z" glyph-name="hyphen" horiz-adv-x="219" unicode="-"/>
<glyph d="M77 92q20 0 34 -14t14 -35q0 -20 -14 -34t-34 -14q-21 0 -36 14t-15 34q0 21 15 35t36 14z" glyph-name="period" horiz-adv-x="133" unicode="."/>
<glyph d="M-14 -117q40 82 168 398q125 309 156 399h68q-39 -84 -167 -400q-126 -309 -157 -397h-68z" glyph-name="slash" horiz-adv-x="401" unicode="/"/>
<glyph d="M278 689q109 0 185 -96q80 -99 80 -252q0 -168 -87 -265q-76 -85 -183 -85t-181 89q-83 97 -83 259q0 155 81 255q76 95 188 95zM271 35q73 0 116 76q47 80 48 225q1 144 -43 230q-43 82 -112 83q-71 1 -116 -79q-46 -83 -48 -225q-2 -154 43 -236q41 -74 112 -74z" glyph-name="zero" horiz-adv-x="578" unicode="0"/>
<glyph d="M153 689v-644q0 -28 30 -45h-155q31 16 31 45v501q0 64 -63 56z" glyph-name="one" horiz-adv-x="234" unicode="1"/>
<glyph d="M213 689q85 0 137 -64q45 -54 45 -122q0 -87 -74 -169l-228 -254h257q24 1 35 16q1 1 14 29l7 -125h-440q7 10 126 145t161.5 201t42.5 136q0 61 -34 101t-91 40q-83 0 -160 -92q6 55 59 103q60 55 143 55z" glyph-name="two" horiz-adv-x="428" unicode="2"/>
<glyph d="M164 689q59 0 104.5 -42t45.5 -102q0 -94 -131 -150q91 -10 140 -72q41 -52 41 -118q0 -83 -54 -143q-62 -71 -170 -71q-109 0 -167 84q76 -37 122 -37q77 0 124 48q44 45 44 114q0 136 -208 162q60 29 72 35q39 20 55 36q40 38 40 91q0 50 -40 83q-33 26 -66 26 q-54 0 -107 -45q12 33 51 64q48 37 104 37z" glyph-name="three" horiz-adv-x="385" unicode="3"/>
<glyph d="M377 705v-411h85v-64h-85v-185q0 -29 32 -45h-154q30 17 30 45v185h-322zM78 294h207v242z" glyph-name="four" horiz-adv-x="483" unicode="4"/>
<glyph d="M270 211q0 69 -46.5 116t-113.5 47q-50 0 -89 -21l54 324h223q40 0 61 21l-12 -105h-239l-29 -172q33 16 83 16q76 0 139 -53q72 -61 72 -156q0 -107 -74 -175q-67 -62 -154 -62q-127 0 -167 103q66 -54 122 -54q76 0 124 51q46 48 46 120z" glyph-name="five" horiz-adv-x="407" unicode="5"/>
<glyph d="M278 449q75 0 136 -57q69 -63 69 -162q0 -115 -79 -182q-67 -57 -152 -57q-120 0 -184 91q-58 84 -58 224q0 137 79 256q85 128 201 129q47 0 86 -19q36 -18 44 -39q-38 21 -92 21q-85 0 -147 -91q-55 -80 -65 -182q53 68 162 68zM248 398q-62 0 -99.5 -47.5 t-37.5 -119.5q0 -86 43 -141q39 -52 94 -52q88 0 121 79q18 41 18 99q0 57 -27 109q-38 73 -112 73z" glyph-name="six" horiz-adv-x="512" unicode="6"/>
<glyph d="M402 680q-6 -7 -124 -338q-120 -337 -116 -351h-93q65 117 234 606h-272q-32 0 -52 -38v121h423z" glyph-name="seven" horiz-adv-x="391" unicode="7"/>
<glyph d="M231 689q65 0 118 -37q61 -42 61 -109q0 -96 -116 -150q67 -28 107 -77q44 -54 44 -121q0 -96 -70 -153q-63 -51 -153 -51q-88 0 -148 49q-67 54 -67 146q0 116 137 172q-104 65 -104 166q0 70 52.5 117.5t138.5 47.5zM179 338q-90 -51 -90 -154q0 -71 44 -112 q40 -38 96 -38q52 0 87 33q39 36 39 98q0 51 -28 85q-21 26 -67 50q-40 19 -81 38zM228 651q-45 0 -76 -26q-32 -29 -32 -75q0 -87 136 -138q78 43 78 131q0 40 -24 71q-30 37 -82 37z" glyph-name="eight" horiz-adv-x="479" unicode="8"/>
<glyph d="M239 689q117 0 182 -96q58 -86 58 -217q0 -142 -80 -259q-85 -126 -204 -126q-49 0 -85 18q-32 16 -42 40q43 -23 89 -23q90 0 152 92q54 80 64 185q-52 -68 -162 -68q-76 0 -137 56q-68 62 -68 161q0 116 79 182q67 55 154 55zM240 644q-87 0 -120 -78q-17 -41 -17 -100 q0 -58 26 -110q37 -74 111 -74q63 0 101 50q37 47 37 119q0 87 -42 142q-39 51 -96 51z" glyph-name="nine" horiz-adv-x="514" unicode="9"/>
<glyph d="M32 416q0 21 14.5 35.5t35.5 14.5q20 0 34.5 -14.5t14.5 -35.5q0 -19 -14.5 -34t-34.5 -15q-21 0 -35.5 14.5t-14.5 34.5zM82 92q20 0 34 -14t14 -35q0 -20 -14 -34t-34 -14q-21 0 -36 14t-15 34q0 21 15 35t36 14z" glyph-name="colon" horiz-adv-x="145" unicode=":"/>
<glyph d="M32 416q0 21 14.5 35.5t35.5 14.5q20 0 34.5 -14.5t14.5 -35.5q0 -19 -14.5 -34t-34.5 -15q-21 0 -35.5 14.5t-14.5 34.5zM77 92q52 0 52 -66q0 -40 -27 -73q-26 -29 -55 -33q-5 -2 -6 2q-2 4 6 5q12 2 26 22q17 24 15 47q-3 -1 -11 -1q-20 0 -34.5 14.5t-14.5 33.5 q0 23 16 36t33 13z" glyph-name="semicolon" horiz-adv-x="145" unicode=";"/>
<glyph d="M374 565v-64l-282 -162l282 -158v-64l-343 198v50z" glyph-name="less" horiz-adv-x="429" unicode="&lt;"/>
<glyph d="M29 432h345v-56h-345v56zM29 303h345v-56h-345v56z" glyph-name="equal" horiz-adv-x="429" unicode="="/>
<glyph d="M33 181l282 158l-282 162v64l344 -200v-50l-344 -198v64z" glyph-name="greater" horiz-adv-x="429" unicode="&gt;"/>
<glyph d="M179 43q0 -20 -14.5 -34t-34.5 -14q-21 0 -36 14t-15 34q0 21 15 35t36 14q20 0 34.5 -14t14.5 -35zM29 639q53 54 146 54q61 0 103 -28q55 -36 55 -112q0 -77 -140 -259q-29 -38 -41 -63t-26 -76q-15 47 -15 103q0 45 28 88q102 157 102 213q0 41 -24 66.5t-58 25.5 q-99 0 -128 -143z" glyph-name="question" horiz-adv-x="371" unicode="?"/>
<glyph d="M11 343q0 128 90 219.5t218 91.5q119 0 202 -71q86 -74 86 -190q0 -113 -78 -178q-61 -51 -129 -51q-57 0 -65 47q-25 -26 -38 -34q-24 -13 -65 -13q-44 0 -72 35q-25 32 -25 78q0 85 50 159q55 83 136 83q71 0 84 -49l14 36h71l-90 -266q-2 -5 -2 -10q0 -21 24 -21 q55 0 99 55t44 129q0 93 -72.5 158t-167.5 65q-111 0 -189.5 -80t-78.5 -191q0 -115 77 -197t191 -82q68 0 129.5 38.5t92.5 97.5h46q-27 -76 -105.5 -126t-164.5 -50q-132 0 -222 92.5t-90 224.5zM203 244q0 -49 47 -49q30 0 58 35q22 27 34 64q45 128 45 138q0 21 -14 37 t-33 16q-56 0 -100 -96q-37 -82 -37 -145z" glyph-name="at" horiz-adv-x="645" unicode="@"/>
<glyph d="M267 696l274 -647q13 -32 50 -49h-181q28 13 28 33q0 7 -3 16q-17 35 -65 153h-259q-48 -109 -63 -153q-4 -11 -4 -19q0 -20 25 -30h-122q34 23 46 49q16 35 274 647zM128 245h225q-48 117 -113 280z" glyph-name="A" horiz-adv-x="559" unicode="A"/>
<glyph d="M220 680q80 0 141 -27q90 -40 90 -128q0 -110 -135 -158q58 -8 99 -28q99 -48 99 -151q0 -74 -54 -123q-70 -65 -214 -65h-216q28 14 28 45v590q0 33 -28 45h190zM356 519q0 60 -44 93q-38 27 -94 27q-40 0 -66 -2v-252q20 -2 42 -2q162 0 162 136zM408 198 q0 143 -176 143q-29 0 -80 -2v-296q20 -3 47 -3q209 0 209 158z" glyph-name="B" horiz-adv-x="544" unicode="B"/>
<glyph d="M628 632l9 -148q-42 96 -124 137q-53 26 -113 26q-138 0 -216 -87q-73 -81 -73 -209q0 -125 66 -212q78 -104 222 -104q166 0 243 162q-4 -69 -9 -138q-113 -68 -252 -68q-153 0 -260 95q-112 99 -112 252q0 139 96 239q108 112 287 112q105 0 236 -57z" glyph-name="C" horiz-adv-x="679" unicode="C"/>
<glyph d="M35 680h249q216 0 317 -132q67 -88 67 -197q0 -137 -95 -235q-111 -116 -308 -116h-230q26 15 26 45v590q0 32 -26 45zM564 351q0 110 -62 190q-76 96 -218 96q-116 0 -127 -2v-590q36 -2 113 -2q157 0 233 98q61 80 61 210z" glyph-name="D" horiz-adv-x="704" unicode="D"/>
<glyph d="M407 680l2 -78q-30 35 -84 35q-18 0 -172 2v-241h163q23 0 35 28v-97q-12 28 -35 28h-163v-308q69 -6 116 -6q91 1 118 8q39 11 65 55l-21 -106h-402q30 15 30 45v590q0 31 -28 45h376z" glyph-name="E" horiz-adv-x="455" unicode="E"/>
<glyph d="M153 45q0 -30 30 -45h-152q28 14 28 45v590q0 31 -28 45h399l1 -83q-21 36 -85 38q-22 1 -191 4v-241h165q23 0 35 28v-97q-12 28 -35 28h-165z" glyph-name="F" horiz-adv-x="432" unicode="F"/>
<glyph d="M393 689q103 0 237 -57l7 -150q-34 93 -120 136q-57 29 -115 29q-138 0 -216 -87q-73 -81 -73 -209q0 -125 64 -212q77 -104 221 -104q102 0 171 47v212q0 29 -26 45h148q-27 -15 -27 -45v-183q0 -15 14 -43q-58 -35 -151 -58q-83 -19 -146 -19q-153 0 -260 95 q-113 100 -113 252q0 139 97 239q107 112 288 112z" glyph-name="G" horiz-adv-x="726" unicode="G"/>
<glyph d="M501 635q0 32 -26 45h148q-26 -12 -26 -45v-590q0 -31 26 -45h-148q26 15 26 45v312h-348v-312q0 -29 26 -45h-148q26 15 26 45v590q0 32 -26 45h148q-26 -14 -26 -45v-237h348v237z" glyph-name="H" horiz-adv-x="681" unicode="H"/>
<glyph d="M33 680h148q-26 -14 -26 -45v-590q0 -29 26 -45h-148q27 15 27 45v590q0 32 -27 45z" glyph-name="I" horiz-adv-x="241" unicode="I"/>
<glyph d="M-121 -216q57 33 59 35q49 36 78 95q38 80 38 197v524q0 32 -27 45h149q-26 -14 -26 -45v-515q0 -87 -45 -174q-71 -138 -226 -162z" glyph-name="J" horiz-adv-x="227" unicode="J"/>
<glyph d="M242 390l324 -357q19 -20 52 -33h-190q18 9 14 26q-2 9 -138 157q-105 115 -151 163v-301q0 -28 28 -45h-149q27 16 27 45v590q0 31 -27 45h149q-28 -15 -28 -45v-266q24 20 149 141q134 131 137 141q3 19 -11 29h147q-52 -15 -77 -40z" glyph-name="K" horiz-adv-x="561" unicode="K"/>
<glyph d="M181 680q-27 -13 -27 -45v-585q54 -8 107 -7q98 1 126 9q38 11 62 54l-20 -106h-398q28 15 28 45v590q0 32 -28 45h150z" glyph-name="L" horiz-adv-x="451" unicode="L"/>
<glyph d="M380 167l217 513h129q-26 -13 -26 -45v-590q0 -30 26 -45h-148q26 15 26 45v519q0 9 2 21l-7 -23l-247 -576l-251 586q2 -18 2 -26v-501q0 -29 28 -45h-101q26 15 26 45v590q0 30 -31 45h135z" glyph-name="M" horiz-adv-x="784" unicode="M"/>
<glyph d="M533 193v442q0 31 -26 45h101q-27 -13 -27 -45v-654l-476 588v-524q0 -31 28 -45h-101q26 16 26 45v552q0 31 -12 47q-12 13 -18 19q-13 10 -28 17h138z" glyph-name="N" horiz-adv-x="659" unicode="N"/>
<glyph d="M740 334q-4 -160 -126 -259q-109 -87 -247 -84q-150 4 -255 104q-109 104 -105 255q4 133 103 232q110 111 277 107q137 -3 240 -94q117 -101 113 -261zM374 647q-114 0 -185 -77q-74 -81 -74 -215q0 -153 84 -241q74 -77 177 -77q112 0 182.5 80t71.5 214 q1 143 -70.5 229.5t-185.5 86.5z" glyph-name="O" horiz-adv-x="774" unicode="O"/>
<glyph d="M351 317q-47 -21 -113 -21q-48 0 -86 15v-266q0 -30 28 -45h-149q28 17 28 45v590q0 30 -28 45h191q135 0 200 -64q49 -49 49 -122q0 -71 -48 -124q-32 -35 -72 -53zM219 640q-43 0 -67 -1v-296q16 -7 49 -7q62 0 106 27q65 39 65 129q0 70 -39 109t-114 39z" glyph-name="P" horiz-adv-x="485" unicode="P"/>
<glyph d="M741 336q-3 -142 -103 -238q-88 -85 -210 -101q140 -99 388 -180q-53 -13 -107 -13q-218 0 -368 189q-141 13 -236 111q-100 101 -96 244q3 134 102 234q108 111 275 107q139 -3 242 -93q117 -102 113 -260zM376 647q-114 0 -185 -77q-74 -81 -74 -215q0 -153 84 -241 q73 -77 177 -77q112 0 183 80.5t71 213.5q0 143 -71.5 229.5t-184.5 86.5z" glyph-name="Q" horiz-adv-x="777" unicode="Q"/>
<glyph d="M463 513q0 -74 -56 -123q-46 -41 -102 -45q55 -11 97 -75q32 -54 59 -97q64 -104 91 -133q20 -22 64 -40l-102 -1q-51 0 -82.5 44.5t-67.5 103.5q-50 84 -54 90q-29 45 -40 57q-25 26 -59 26h-58v-275q0 -28 28 -45h-149q27 16 27 45v590q0 31 -27 45h188q133 0 197 -60 q46 -44 46 -107zM228 640q-42 0 -75 -3v-275q34 -2 58 -2q63 0 104 36q47 40 47 114q0 47 -27 83q-36 47 -107 47z" glyph-name="R" horiz-adv-x="563" unicode="R"/>
<glyph d="M235 409q105 -52 131 -75q58 -51 58 -139q0 -89 -70 -149q-66 -55 -151 -55q-87 0 -186 56l-3 150q19 -66 59 -109q50 -55 123 -55q72 0 109 49q27 36 27 85q0 63 -49 100q-13 10 -120 64q-76 38 -109 78q-37 43 -37 103q0 84 68 134q59 43 139 43q85 0 143 -38l5 -132 q-11 45 -50 83q-49 47 -112 47q-57 0 -88 -37q-24 -29 -24 -69q0 -44 32 -73q24 -21 105 -61z" glyph-name="S" horiz-adv-x="455" unicode="S"/>
<glyph d="M455 632q-95 7 -163 7v-594q0 -30 26 -45h-148q26 14 26 45v594q-70 0 -164 -7q-31 -1 -52 -39v87h526l1 -87q-24 38 -52 39z" glyph-name="T" horiz-adv-x="511" unicode="T"/>
<glyph d="M179 680q-33 -16 -33 -45v-423q0 -69 30 -113q41 -62 135 -62q93 0 139 54q38 45 37 121l-4 423q0 32 -26 45h105q-27 -13 -27 -45l-3 -419q-1 -116 -69 -174q-60 -51 -162 -51q-99 0 -167 48q-84 60 -84 175v421q0 28 -31 45h160z" glyph-name="U" horiz-adv-x="601" unicode="U"/>
<glyph d="M273 157l176 475q5 13 5 22q0 17 -22 26h102q-18 -11 -24 -21q-1 -3 -12 -27q-16 -36 -249 -658l-266 658q-17 35 -52 48h182q-23 -9 -23 -34q0 -11 4 -25q2 -3 179 -464z" glyph-name="V" horiz-adv-x="511" unicode="V"/>
<glyph d="M520 153l165 470q5 14 5 25q0 23 -24 32h120q-37 -24 -48 -54l-246 -652q-40 108 -129 337l-123 -337l-265 654q-16 38 -54 52h183q-24 -9 -24 -35q0 -13 7 -26l184 -466l70 214q-51 126 -108 265q-13 35 -49 48h176q-21 -9 -21 -35q0 -13 5 -26l53 -132l52 143 q5 14 5 23q0 20 -23 27h106q-32 -21 -43 -50l-75 -197z" glyph-name="W" horiz-adv-x="750" unicode="W"/>
<glyph d="M365 680h132q-36 -16 -57 -48l-160 -251l209 -332q17 -26 24 -32.5t33 -18.5h-197q29 13 29 32q0 13 -11 31l-146 235l-164 -247q-4 -10 -4 -20q0 -22 23 -31h-141q40 20 66 58q62 85 194 282l-183 290q-18 29 -68 52h202q-29 -11 -29 -29q0 -13 13 -33l124 -195l130 209 q5 8 5 18q0 21 -24 30z" glyph-name="X" horiz-adv-x="507" unicode="X"/>
<glyph d="M363 680h127q-38 -16 -59 -55l-162 -303v-277q0 -26 37 -45h-171q37 21 37 45v273l-191 314q-17 29 -56 48h193q-29 -13 -29 -27q0 -13 13 -35l146 -247l136 261q7 13 7 23q0 17 -28 25z" glyph-name="Y" horiz-adv-x="466" unicode="Y"/>
<glyph d="M341 639q-8 0 -106 1q-62 1 -96 -1q-46 -2 -69 -9q-49 -15 -70 -58v108h475l-363 -637q222 0 285 11q47 8 66 56l-1 -110h-488z" glyph-name="Z" horiz-adv-x="488" unicode="Z"/>
<glyph d="M44 -130v835h120v-26h-38v-785h38v-24h-120z" glyph-name="bracketleft" horiz-adv-x="220" unicode="["/>
<glyph d="M-1 680h66q27 -64 193 -339q197 -327 205 -341h-64q-28 62 -193 336q-199 330 -207 344z" glyph-name="backslash" horiz-adv-x="488" unicode="\"/>
<glyph d="M157 -130h-122v24h40v785h-38v26h120v-835z" glyph-name="bracketright" horiz-adv-x="220" unicode="]"/>
<glyph d="M293 338l-114 278l-117 -278h-56l147 342h50l143 -342h-53z" glyph-name="asciicircum" horiz-adv-x="381" unicode="^"/>
<glyph d="M414 -70h-341v56h341v-56z" glyph-name="underscore" horiz-adv-x="439" unicode="_"/>
<glyph d="M136 604q79 -94 75 -101q-8 -6 -123 57q-37 17 -37 42q0 16 10.5 26.5t24.5 10.5q24 0 50 -35z" glyph-name="grave" horiz-adv-x="292" unicode="`"/>
<glyph d="M47 423q77 50 158 50q157 0 157 -135v-268q0 -24 3 -30q5 -12 27 -16l-77 -34q-19 12 -25 25q-9 15 -10 49q-69 -73 -156 -73q-60 0 -93 45q-27 35 -27 77q0 72 67 113q24 14 110 40q77 22 94 40q4 4 4 42q0 36 -19 59q-23 28 -67 28q-99 0 -144 -136zM89 130 q0 -83 76 -83q64 0 114 52v162q-3 -1 -107 -38q-83 -29 -83 -93z" glyph-name="a" horiz-adv-x="432" unicode="a"/>
<glyph d="M136 689v-273q63 57 137 57q87 0 142 -76q49 -68 49 -155q0 -100 -60 -171q-67 -80 -180 -80q-50 0 -114 27q-3 1 -63 31v574q0 29 -35 40zM235 419q-65 0 -99 -41v-301q31 -47 102 -47q47 0 84 45q48 57 48 163q0 97 -46 144q-36 37 -89 37z" glyph-name="b" horiz-adv-x="498" unicode="b"/>
<glyph d="M255 49q80 0 139 62q-3 -36 -41 -72q-49 -48 -124 -48q-106 0 -166 78q-53 68 -53 162q0 88 54 158q66 84 179 84q57 0 130 -36v-136q-17 59 -52 96q-38 38 -83 38q-67 0 -105 -62q-33 -54 -33 -129q0 -81 39 -135q42 -60 116 -60z" glyph-name="c" horiz-adv-x="417" unicode="c"/>
<glyph d="M421 689v-625q0 -20 12 -29q3 -3 23 -11l-118 -33l-2 54q-59 -54 -130 -54q-97 0 -150 77q-47 68 -47 170q0 89 61 159q66 76 169 76q54 0 94 -33v185q0 20 -11 29q-5 4 -24 11zM246 43q45 0 87 37v306q-29 47 -80 47q-69 0 -110.5 -53.5t-41.5 -137.5q0 -106 55 -159 q40 -40 90 -40z" glyph-name="d" horiz-adv-x="494" unicode="d"/>
<glyph d="M424 153q-2 -64 -54 -112q-55 -50 -133 -50q-101 0 -166 75q-61 69 -61 164q0 92 58 162q65 81 172 81q73 0 126 -48q62 -57 62 -159h-324v-28q0 -80 40 -132q44 -57 120 -57q50 0 99 34q46 32 61 70zM228 437q-52 0 -84 -41q-29 -37 -36 -93h228q0 68 -33 103 q-29 31 -75 31z" glyph-name="e" horiz-adv-x="460" unicode="e"/>
<glyph d="M277 666v-95q-6 30 -24 55q-22 28 -46 28q-69 0 -69 -101v-94h132v-38h-132v-383q0 -22 28 -38h-140q27 15 27 38v383h-56v38h56v84q0 63 32 102q36 44 105 44q54 0 87 -23z" glyph-name="f" horiz-adv-x="236" unicode="f"/>
<glyph d="M179 -230q-75 0 -125 26q-58 31 -58 87q0 65 92 107q-49 15 -49 57q0 48 84 90q-106 45 -106 161q0 72 54 123.5t127 51.5q49 0 80 -10h151v-38h-94q58 -52 58 -127q0 -72 -52.5 -123t-135.5 -51q-20 0 -35 3q-58 -6 -58 -42q0 -27 80 -28l87 -1q147 -2 147 -106 q0 -74 -69 -126q-72 -54 -178 -54zM130 -16q-71 -27 -71 -81q0 -37 40.5 -64t110.5 -27q64 0 107.5 29.5t43.5 74.5q0 59 -98.5 61t-132.5 7zM205 440q-103 0 -103 -136q0 -77 33 -116q26 -30 64 -30q47 0 75 32q32 36 32 106q0 72 -30 110q-27 34 -71 34z" glyph-name="g" horiz-adv-x="441" unicode="g"/>
<glyph d="M289 473q62 0 104 -35q46 -38 46 -104v-296q0 -24 26 -38h-138q27 15 27 38v263q0 113 -107 113q-32 0 -63 -15.5t-46 -36.5v-324q0 -24 28 -38h-141q26 14 26 38v587q0 27 -35 40l122 24v-287q82 71 151 71z" glyph-name="h" horiz-adv-x="508" unicode="h"/>
<glyph d="M44 625q0 19 15 33.5t35 14.5t34.5 -14.5t14.5 -33.5q0 -21 -14.5 -36t-34.5 -15t-35 15t-15 36zM16 449l122 24v-435q0 -23 26 -38h-139q26 16 26 38v371q0 29 -35 40z" glyph-name="i" horiz-adv-x="212" unicode="i"/>
<glyph d="M136 473v-541q0 -57 -38 -98t-92 -41q-46 0 -87 26l-2 87q21 -78 73 -78q57 0 59 75v506q0 29 -34 40zM42 625q0 20 15 34t36 14q20 0 34.5 -14.5t14.5 -33.5q0 -21 -14.5 -36t-34.5 -15q-21 0 -36 15t-15 36z" glyph-name="j" horiz-adv-x="204" unicode="j"/>
<glyph d="M211 275l212 -230q28 -31 61 -45h-179q20 8 20 24q0 7 -5 13l-182 198v-197q0 -23 26 -38h-140q27 15 27 38v583q0 33 -37 40l124 28v-431q20 19 160 154q15 15 15 26q0 15 -24 23h146q-46 -21 -70 -43q-43 -39 -154 -143z" glyph-name="k" horiz-adv-x="446" unicode="k"/>
<glyph d="M14 665l124 24v-651q0 -23 26 -38h-139q26 16 26 38v587q0 20 -12 29q-5 4 -25 11z" glyph-name="l" horiz-adv-x="212" unicode="l"/>
<glyph d="M586 473q57 0 100 -33q48 -39 48 -104v-298q0 -23 26 -38h-139q28 17 28 38v268q0 110 -105 110q-63 0 -108 -63q2 -5 2 -15v-300q0 -23 26 -38h-139q26 15 26 38v272q0 106 -104 106q-59 0 -101 -51v-327q0 -22 28 -38h-140q26 15 26 38v371q0 29 -36 40l122 24v-69 q41 32 57 42q46 27 89 27q44 0 83 -23.5t53 -64.5q26 35 67 59q46 29 91 29z" glyph-name="m" horiz-adv-x="794" unicode="m"/>
<glyph d="M282 473q60 0 102 -36q46 -39 46 -103v-296q0 -22 26 -38h-137q26 14 26 38v260q0 116 -106 116q-60 0 -101 -52v-324q0 -23 26 -38h-138q25 14 25 38v371q0 30 -33 42l120 22v-71q65 71 144 71z" glyph-name="n" horiz-adv-x="498" unicode="n"/>
<glyph d="M230 473q106 0 166 -77q52 -67 52 -165q0 -94 -60 -164q-64 -76 -160 -76q-108 0 -169 80q-50 67 -50 160q0 95 58 166q64 76 163 76zM221 437q-62 -2 -95 -67q-29 -58 -26 -144q3 -85 38 -140q37 -58 97 -56q63 3 95 64q31 57 27 145q-4 84 -36 138q-37 62 -100 60z" glyph-name="o" horiz-adv-x="484" unicode="o"/>
<glyph d="M162 -228h-139q26 11 26 38v595q0 32 -33 42l119 26v-62q19 23 52 40q42 22 85 22q73 0 129 -57q66 -67 66 -181q0 -91 -58 -162q-65 -82 -170 -82q-57 0 -103 23v-204q0 -26 26 -38zM237 418q-62 0 -101 -49v-292q37 -47 91 -47q67 0 106.5 54t39.5 147q0 101 -49 151 q-36 36 -87 36z" glyph-name="p" horiz-adv-x="502" unicode="p"/>
<glyph d="M250 473q24 0 96 -24q8 3 76 16v-655q0 -26 27 -38h-140q26 11 26 38v228q-57 -47 -121 -47q-100 0 -156 73q-48 64 -48 157q0 96 60 169q68 83 180 83zM247 42q55 0 88 36v301q-20 54 -81 54q-59 0 -102 -51q-48 -56 -48 -147q0 -83 35 -135q38 -58 108 -58z" glyph-name="q" horiz-adv-x="490" unicode="q"/>
<glyph d="M138 473v-88q18 30 49 58q35 30 59 30q19 0 38 -8v-94q-24 31 -59 31q-44 0 -87 -54v-310q0 -22 26 -38h-139q26 15 26 38v371q0 29 -36 40z" glyph-name="r" horiz-adv-x="303" unicode="r"/>
<glyph d="M273 444v-120q-35 114 -110 114q-35 0 -57 -20q-18 -18 -18 -40q0 -29 23 -50q15 -14 62 -41q67 -38 91 -62q43 -41 43 -95q0 -64 -57 -104q-49 -35 -111 -35q-59 0 -133 47v129q13 -57 45 -94q35 -42 82 -42t73 31q18 23 18 49q0 33 -27 55q-11 10 -79 50 q-59 35 -81 63.5t-22 71.5q0 45 32 79q41 43 116 43q54 0 110 -29z" glyph-name="s" horiz-adv-x="338" unicode="s"/>
<glyph d="M132 553v-92h138v-42h-140v-282q0 -104 91 -104q34 0 64 26q-1 -22 -29 -44q-32 -24 -72 -24q-62 0 -99 37q-40 38 -40 108v283h-43z" glyph-name="t" horiz-adv-x="285" unicode="t"/>
<glyph d="M421 473v-393q0 -51 40 -57l-87 -32q-20 12 -27 23q-9 16 -9 47q-64 -70 -146 -70q-57 0 -98 38q-54 50 -54 150v230q0 29 -34 40l121 24v-294q0 -61 29 -95t74 -34q53 0 106 51v308q0 29 -35 40z" glyph-name="u" horiz-adv-x="498" unicode="u"/>
<glyph d="M195 137l110 270q5 11 5 20q0 20 -35 32h123q-27 -10 -43 -47l-184 -422l-181 421q-18 42 -47 48h168q-29 -9 -29 -32q0 -7 3 -15z" glyph-name="v" horiz-adv-x="368" unicode="v"/>
<glyph d="M188 144l94 244l-15 33q-14 31 -53 40h185q-35 -11 -35 -35q0 -6 2 -12l94 -266l108 256q3 7 3 15q0 31 -33 42h127q-33 -14 -50 -52l-186 -419l-126 342l-137 -342l-171 422q-14 35 -48 49h175q-34 -11 -34 -33q0 -7 3 -14z" glyph-name="w" horiz-adv-x="629" unicode="w"/>
<glyph d="M258 461h138q-36 -17 -56 -43l-123 -162l149 -213q12 -17 58 -43h-179q26 11 26 25q0 12 -13 31l-99 142l-113 -155q-8 -11 -8 -20q0 -16 24 -23h-138q45 11 70 45l137 186l-135 187q-21 29 -53 43h181q-28 -11 -28 -26q0 -12 13 -30l83 -118l89 124q7 9 7 19 q0 21 -30 31z" glyph-name="x" horiz-adv-x="383" unicode="x"/>
<glyph d="M207 120q70 155 120 285q4 11 4 19q0 27 -37 35h135q-39 -16 -52 -48q-97 -217 -282 -648h-90q29 14 44 34q8 9 25 41q32 60 89 181l-158 393q-10 25 -21 34q-5 4 -30 13h173q-33 -11 -33 -33q0 -9 5 -22z" glyph-name="y" horiz-adv-x="395" unicode="y"/>
<glyph d="M247 421q-100 4 -186 0q-39 -2 -54 -36l3 76h357l-259 -423q132 0 209 5q28 2 42 17q2 3 17 30l-5 -90h-385z" glyph-name="z" horiz-adv-x="394" unicode="z"/>
<glyph d="M122 428q0 -67 -4 -83q-9 -41 -48 -51q41 -10 50 -53q2 -12 2 -88v-170q0 -55 7 -76q11 -32 47 -39q-74 -3 -103 23t-29 102v178q0 67 -2 77q-8 36 -45 46q34 11 43 47q4 16 4 75v174q0 71 34 96q28 20 98 20q-37 -9 -47 -40q-7 -19 -7 -74v-164z" glyph-name="braceleft" horiz-adv-x="226" unicode="{"/>
<glyph d="M42 680h56v-680h-56v680z" glyph-name="bar" horiz-adv-x="168" unicode="|"/>
<glyph d="M75 428v164q0 56 -6 74q-10 31 -48 40q71 0 98 -20q33 -25 33 -96v-174q0 -59 4 -75q9 -36 43 -47q-37 -10 -44 -46q-3 -12 -3 -77v-178q0 -76 -28.5 -102t-102.5 -23q36 7 47 39q7 21 7 76v170q0 72 4 88q9 43 48 53q-39 10 -48 51q-4 16 -4 83z" glyph-name="braceright" horiz-adv-x="226" unicode="}"/>
<glyph d="M137 447q15 0 55 -13t54 -13q33 0 53 23l19 -25q-53 -59 -101 -59q-27 0 -65 16.5t-45 16.5q-29 0 -57 -33l-21 19q3 16 36 40q37 28 72 28z" glyph-name="asciitilde" horiz-adv-x="372" unicode="~"/>
<glyph glyph-name="nonbreakingspace" unicode=" "/>
<glyph d="M96 -226q-59 0 -59 99q0 27 23 210q24 192 36 241q11 -50 36 -241q23 -185 23 -210q0 -99 -59 -99zM46 419q0 21 14.5 36t35.5 15t35 -15t14 -36t-14 -34.5t-35 -13.5t-35.5 13.5t-14.5 34.5z" glyph-name="exclamdown" horiz-adv-x="232" unicode="¡"/>
<glyph d="M250 94q0 -28 1 -57q0 -28 0 -27h-41q0 -2 1 26v56q-99 5 -156 81q-49 66 -49 158q0 82 48 149q57 81 157 91v43q-1 26 -1 35h41v-44q-1 -31 -1 -33q55 -1 120 -38v-132q-36 119 -122 130q0 -58 1 -192t1 -190q76 0 141 62q-4 -32 -36 -66q-41 -45 -105 -52zM211 157v374 q-56 -8 -87 -68q-27 -51 -27 -118q0 -70 29 -120q30 -54 85 -68z" glyph-name="cent" horiz-adv-x="414" unicode="¢"/>
<glyph d="M116 205q0 62 -37 146h-41q-27 -1 -37 -1v43q8 0 28.5 -1t32.5 -1q-37 82 -37 133q0 63 51 111q57 54 148 54q70 0 144 -38l-3 -126q-11 44 -42 80q-41 46 -96 46q-56 0 -86 -38q-24 -31 -24 -72q0 -36 16 -78q17 -36 33 -72q40 0 89 1t45 1v-43q3 0 -38 1h-78 q17 -46 17 -90q0 -65 -40 -136l-56 -82q48 27 98 27q18 0 50.5 -4.5t48.5 -4.5q59 0 96 26q-22 -34 -51 -85q-29 -11 -60 -11q-23 0 -71 9t-76 9q-65 0 -115 -18q54 83 72.5 126t18.5 88z" glyph-name="sterling" horiz-adv-x="414" unicode="£"/>
<glyph glyph-name="currency" unicode="¤"/>
<glyph d="M474 680q-38 -16 -59 -55l-155 -291h98v-40h-105v-71h105v-40h-105v-138q0 -26 37 -45h-171q37 21 37 45v138h-103v40h103v71h-103v40h94l-182 298q-18 29 -56 48h193q-29 -13 -29 -27q0 -13 13 -35l146 -247l136 261q7 13 7 23q0 17 -28 25h127z" glyph-name="yen" horiz-adv-x="433" unicode="¥"/>
<glyph glyph-name="brokenbar" unicode="¦"/>
<glyph d="M318 632l-1 -120q-11 44 -39 76q-33 37 -75 38q-36 1 -58 -22q-18 -20 -18 -44q0 -52 82 -101q39 -22 77 -44q50 -30 75 -59q33 -39 32 -85q-1 -47 -35 -81.5t-83 -45.5q80 -62 80 -139q0 -43 -36 -79q-46 -46 -129 -46q-71 0 -122 31v119q12 -44 44 -77q36 -38 78 -38 q39 0 64 23q22 20 23 43q3 59 -84 111q-107 64 -116 71q-68 53 -67 119q1 46 35.5 81t83.5 46q-77 51 -77 127q0 44 34 81q42 46 117 46q57 0 115 -31zM96 298q-1 -36 36 -67q23 -20 82 -52q46 -1 73 26q20 23 21 51q1 35 -36 65q-21 17 -82 51q-47 3 -73 -25 q-20 -21 -21 -49z" glyph-name="section" horiz-adv-x="425" unicode="§"/>
<glyph d="M170 569q0 20 14 33.5t35 13.5q20 0 33.5 -13.5t13.5 -33.5q0 -21 -13.5 -35t-33.5 -14q-21 0 -35 14t-14 35zM28 569q0 20 14 33.5t34 13.5q19 0 33 -14t14 -33q0 -21 -14 -35t-34 -14t-33.5 14t-13.5 35z" glyph-name="dieresis" horiz-adv-x="314" unicode="¨"/>
<glyph d="M10 339q0 137 97 234t234 97q136 0 232.5 -97t96.5 -234q0 -136 -96.5 -233t-232.5 -97q-137 0 -234 96.5t-97 233.5zM341 626q-119 0 -203 -84t-84 -203q0 -118 84.5 -202.5t202.5 -84.5t201.5 84t83.5 203t-83.5 203t-201.5 84zM362 186q75 0 139 61q-3 -31 -42 -67 q-50 -46 -116 -46q-94 0 -152 63q-53 57 -53 135q0 82 50 139q60 67 167 67q55 0 129 -40l-4 -94q-38 97 -134 97q-66 0 -103 -47q-32 -43 -32 -108q0 -69 39 -113q42 -47 112 -47z" glyph-name="copyright" horiz-adv-x="704" unicode="©"/>
<glyph d="M30 663q32 26 78 26q36 0 62 -13q34 -17 34 -51v-131q0 -24 14 -26l-51 -17q-15 10 -15 41q-39 -41 -82 -41q-29 0 -44 24q-12 17 -12 37q0 37 33 57q11 6 56 20q40 12 49 22v19q0 40 -44 40q-32 0 -78 -71v64zM216 425v-34h-204v34h204zM66 525q0 -40 39 -40q17 0 47 28 v75q-12 -7 -39 -17q-47 -16 -47 -46z" glyph-name="ordfeminine" horiz-adv-x="255" unicode="ª"/>
<glyph d="M21 311l106 143v-61l-68 -108l68 -108v-60l-106 142v52zM112 311l107 143v-61l-67 -108l67 -108v-60l-107 142v52z" glyph-name="guillemotleft" horiz-adv-x="272" unicode="«"/>
<glyph glyph-name="logicalnot" unicode="¬"/>
<glyph glyph-name="minus" unicode="­"/>
<glyph d="M9 339q0 137 97 234t233 97q137 0 234 -97t97 -234t-97 -233.5t-234 -96.5q-136 0 -233 97t-97 233zM626 339q0 119 -84 203t-203 84t-203 -84t-84 -203q0 -118 84.5 -202.5t202.5 -84.5q119 0 203 84t84 203zM322 532q153 0 153 -94q0 -43 -40 -71q-31 -22 -70 -28 q27 -6 46 -36l64 -98q28 -44 63 -57l-77 -2q-29 -1 -50 42l-68 101q-19 36 -54 36h-21v-146q0 -24 17 -33h-99q16 9 16 33v326q0 18 -16 27h136zM405 437q0 62 -83 62h-33q-20 -1 -21 -1v-138h38q99 0 99 77z" glyph-name="registered" horiz-adv-x="704" unicode="®"/>
<glyph glyph-name="macron" unicode="¯"/>
<glyph d="M17 571q0 52 37 88.5t89 36.5t89.5 -36.5t37.5 -88.5t-37.5 -89t-89.5 -37t-89 37t-37 89zM143 652q-35 0 -59.5 -23.5t-24.5 -57.5t25 -59t59 -25t57.5 24.5t23.5 59.5q0 34 -23.5 57.5t-57.5 23.5z" glyph-name="degree" horiz-adv-x="309" unicode="°"/>
<glyph d="M174 583h54v-169h144v-56h-144v-168h-54v168h-145v56h145v169zM29 151h343v-55h-343v55z" glyph-name="plusminus" horiz-adv-x="429" unicode="±"/>
<glyph glyph-name="twosuperior" unicode="²"/>
<glyph glyph-name="threesuperior" unicode="³"/>
<glyph d="M138 503q-6 7 73 101q25 35 51 35q34 0 34 -37q0 -25 -36 -42q-115 -63 -122 -57z" glyph-name="acute" horiz-adv-x="432" unicode="´"/>
<glyph glyph-name="mu" unicode="µ"/>
<glyph d="M253 680h317q-37 -11 -50 -23t-13 -39v-675q0 -29 28 -46h-219q26 19 26 46v342q-127 0 -209 44q-120 64 -120 174q0 177 240 177zM401 640v-697q0 -21 24 -37q23 11 23 37v697h-47zM256 336q38 -11 86 -11v315h-23q-209 0 -209 -148q0 -58 48 -103q40 -36 98 -53z" glyph-name="paragraph" horiz-adv-x="595" unicode="¶"/>
<glyph glyph-name="cedilla" unicode="¸"/>
<glyph glyph-name="onesuperior" unicode="¹"/>
<glyph d="M221 567q-1 -44 -30 -80q-32 -40 -79 -40q-51 0 -81 41q-26 35 -26 81t29 81q31 39 79 39q53 0 83 -40q26 -34 25 -82zM216 425v-34h-204v34h204zM59 569q0 -40 13 -68q14 -34 40 -35q26 1 41 34q12 28 12 67q0 41 -12 70q-14 33 -40 33q-25 0 -40 -33q-14 -29 -14 -68z " glyph-name="ordmasculine" horiz-adv-x="255" unicode="º"/>
<glyph d="M28 393v61l108 -143v-52l-108 -142v60l70 108zM120 393v61l108 -143v-52l-108 -142v60l68 108z" glyph-name="guillemotright" horiz-adv-x="272" unicode="»"/>
<glyph glyph-name="onequarter" unicode="¼"/>
<glyph glyph-name="onehalf" unicode="½"/>
<glyph glyph-name="threequarters" unicode="¾"/>
<glyph d="M320 -174q-52 -56 -147 -56q-61 0 -102 27q-56 37 -56 113q0 75 141 259q30 39 42 68.5t24 91.5l14 -124q1 -32 -6 -50q-4 -11 -22 -38q-101 -150 -101 -213q0 -41 24 -66.5t58 -25.5q98 0 129 145zM170 419q0 21 14 36t35 15q20 0 35 -15t15 -36t-14.5 -34.5 t-35.5 -13.5t-35 13.5t-14 34.5z" glyph-name="questiondown" horiz-adv-x="371" unicode="¿"/>
<glyph d="M327 706q-6 -7 -123 58q-37 24 -37 42q0 15 10.5 25.5t26.5 10.5q19 0 50 -35q79 -95 73 -101zM590 0h-181q28 13 28 33q0 7 -3 16q-17 35 -65 153h-259q-48 -109 -63 -153q-4 -11 -4 -19q0 -20 25 -30h-122q34 23 46 49q16 35 274 647l274 -647q13 -32 50 -49zM127 245 h225q-48 117 -113 280z" glyph-name="Agrave" horiz-adv-x="558" unicode="À"/>
<glyph d="M191 706q-5 7 75 101q26 35 49 35q36 0 36 -36q0 -20 -36 -42q-116 -64 -124 -58zM430 49q-17 35 -65 153h-259q-48 -109 -63 -153q-4 -11 -4 -19q0 -20 25 -30h-122q34 23 46 49q16 35 274 647l274 -647q13 -32 50 -49h-181q28 13 28 33q0 7 -3 16zM123 245h225 q-48 117 -113 280z" glyph-name="Aacute" horiz-adv-x="557" unicode="Á"/>
<glyph d="M269 842q7 0 75 -65.5t64 -70.5q-7 -6 -139 63q-132 -69 -139 -63q-4 5 64 70.5t75 65.5zM267 696l274 -647q13 -32 50 -49h-181q28 13 28 33q0 7 -3 16q-17 35 -65 153h-259q-48 -109 -63 -153q-4 -11 -4 -19q0 -20 25 -30h-122q34 23 46 49q16 35 274 647zM128 245h225 q-48 117 -113 280z" glyph-name="Acircumflex" horiz-adv-x="557" unicode="Â"/>
<glyph d="M318 720q-29 0 -69 19.5t-47 19.5q-31 0 -59 -35l-23 12q4 16 38 43q39 30 75 30q16 0 58 -16.5t57 -16.5q34 0 56 24l21 -17q-57 -63 -107 -63zM264 696l274 -647q13 -32 50 -49h-181q28 13 28 33q0 7 -3 16q-17 35 -65 153h-259q-48 -109 -63 -153q-4 -11 -4 -19 q0 -20 25 -30h-122q34 23 46 49q16 35 274 647zM125 245h225q-48 117 -113 280z" glyph-name="Atilde" horiz-adv-x="557" unicode="Ã"/>
<glyph d="M337 720q-20 0 -34.5 14t-14.5 35q0 20 15 34.5t34 14.5q21 0 35 -14.5t14 -34.5q0 -21 -14 -35t-35 -14zM191 720q-20 0 -33.5 14t-13.5 35q0 20 14 34.5t34 14.5t34.5 -14.5t14.5 -34.5q0 -21 -14.5 -35t-35.5 -14zM589 0h-181q28 13 28 33q0 7 -3 16q-17 35 -65 153 h-259q-48 -109 -63 -153q-4 -11 -4 -19q0 -20 25 -30h-122q34 23 46 49q16 35 274 647l274 -647q13 -32 50 -49zM126 245h225q-48 117 -113 280z" glyph-name="Adieresis" horiz-adv-x="557" unicode="Ä"/>
<glyph d="M267 696l274 -647q13 -32 50 -49h-181q28 13 28 33q0 7 -3 16q-17 35 -65 153h-259q-48 -109 -63 -153q-4 -11 -4 -19q0 -20 25 -30h-122q34 23 46 49q16 35 274 647zM266 829q27 0 48 -20.5t21 -47.5t-21 -47.5t-48 -20.5q-26 0 -46 20t-20 48q0 27 20 47.5t46 20.5z M128 245h225q-48 117 -113 280zM266 715q19 0 32 13t13 33q0 18 -13 30.5t-32 12.5t-31.5 -12.5t-12.5 -30.5q0 -20 12.5 -33t31.5 -13z" glyph-name="Aring" horiz-adv-x="559" unicode="Å"/>
<glyph d="M366 680h338l1 -78q-20 34 -66 35q-91 2 -188 2v-241h164q21 0 35 28v-97q-14 28 -35 28h-164v-308q39 -8 117 -6q92 2 117 9q40 11 64 54l-19 -106h-402q28 15 28 45v178h-230q-19 -30 -124 -180q-8 -12 -8 -21q0 -14 21 -22h-121q23 16 46 49l374 534q32 46 52 97z M155 266h201v296z" glyph-name="AE" horiz-adv-x="760" unicode="Æ"/>
<glyph d="M113 351q0 -126 65 -213q78 -103 222 -103q60 0 119 27q90 42 125 135q0 3 -9 -138q-108 -65 -228 -68l-68 -99h-73l73 101q-139 13 -232 106q-97 97 -97 239q0 139 96 239q108 112 287 112q106 0 237 -57l9 -148q-35 92 -120 135q-57 28 -117 28q-137 0 -216 -88 q-73 -81 -73 -208z" glyph-name="Ccedilla" horiz-adv-x="679" unicode="Ç"/>
<glyph d="M299 706q-6 -6 -124 58q-36 22 -36 42q0 36 36 36q20 0 51 -35q78 -94 73 -101zM407 680l2 -78q-30 35 -84 35q-18 0 -171 2v-241h164q23 0 35 28v-97q-12 28 -35 28h-164v-308q66 -6 117 -6q91 1 117 8q38 11 64 55l-19 -106h-402q28 15 28 45v590q0 31 -28 45h376z" glyph-name="Egrave" horiz-adv-x="460" unicode="È"/>
<glyph d="M174 706q-6 7 74 101q26 35 51 35q35 0 35 -36q0 -25 -37 -42q-116 -64 -123 -58zM271 43q91 1 117 8q38 11 64 55l-19 -106h-402q28 15 28 45v590q0 31 -28 45h376l2 -78q-30 35 -84 35q-18 0 -171 2v-241h164q23 0 35 28v-97q-12 28 -35 28h-164v-308q66 -6 117 -6z " glyph-name="Eacute" horiz-adv-x="460" unicode="É"/>
<glyph d="M226 842q7 0 74.5 -65.5t62.5 -70.5q-6 -6 -137 63q-133 -70 -139 -63q-4 5 64 70.5t75 65.5zM271 43q91 1 117 8q38 11 64 55l-19 -106h-402q28 15 28 45v590q0 31 -28 45h376l2 -78q-30 35 -84 35q-18 0 -171 2v-241h164q23 0 35 28v-97q-12 28 -35 28h-164v-308 q66 -6 117 -6z" glyph-name="Ecircumflex" horiz-adv-x="460" unicode="Ê"/>
<glyph d="M353 426v-97q-12 28 -35 28h-164v-308q66 -6 117 -6q91 1 117 8q38 11 64 55l-19 -106h-402q28 15 28 45v590q0 31 -28 45h376l2 -78q-30 35 -84 35q-18 0 -171 2v-241h164q23 0 35 28zM302 720q-20 0 -33.5 14t-13.5 35q0 20 14 34.5t33 14.5q21 0 35 -14.5t14 -34.5 q0 -21 -14 -35t-35 -14zM158 720q-21 0 -35 14t-14 35q0 20 14 34.5t35 14.5q20 0 34.5 -14.5t14.5 -34.5q0 -21 -14.5 -35t-34.5 -14z" glyph-name="Edieresis" horiz-adv-x="460" unicode="Ë"/>
<glyph d="M65 842q19 0 50 -35q79 -95 73 -101q-6 -7 -121 58q-39 19 -39 42q0 15 10.5 25.5t26.5 10.5zM155 635v-590q0 -29 26 -45h-148q27 15 27 45v590q0 32 -27 45h148q-26 -14 -26 -45z" glyph-name="Igrave" horiz-adv-x="243" unicode="Ì"/>
<glyph d="M159 842q14 0 24.5 -10.5t10.5 -25.5q0 -25 -37 -42q-116 -64 -124 -58q-3 7 75 101q26 35 51 35zM155 635v-590q0 -31 26 -45h-148q27 15 27 45v590q0 32 -27 45h148q-26 -12 -26 -45z" glyph-name="Iacute" horiz-adv-x="241" unicode="Í"/>
<glyph d="M110 842q7 0 74.5 -65.5t63.5 -70.5q-6 -6 -138 63q-133 -69 -139 -63q-3 5 65 70.5t74 65.5zM34 0q27 14 27 45v590q0 32 -27 45h149q-26 -12 -26 -45v-590q0 -31 26 -45h-149z" glyph-name="Icircumflex" horiz-adv-x="241" unicode="Î"/>
<glyph d="M34 720q-20 0 -33.5 14t-13.5 35q0 20 14 34.5t33 14.5q21 0 36 -14.5t15 -34.5q0 -21 -15 -35t-36 -14zM180 720q-20 0 -34 14t-14 35q0 20 14.5 34.5t33.5 14.5q21 0 35 -14.5t14 -34.5q0 -21 -14 -35t-35 -14zM152 635v-590q0 -30 27 -45h-148q26 16 26 45v590 q0 31 -26 45h148q-27 -13 -27 -45z" glyph-name="Idieresis" horiz-adv-x="238" unicode="Ï"/>
<glyph glyph-name="Eth" unicode="Ð"/>
<glyph d="M374 720q-28 0 -68 19.5t-48 19.5q-31 0 -59 -35l-23 12q4 16 38 43q39 30 75 30q16 0 58 -16.5t57 -16.5q34 0 56 24l21 -17q-55 -63 -107 -63zM533 193v442q0 31 -26 45h101q-27 -13 -27 -45v-654l-476 588v-524q0 -31 28 -45h-101q26 16 26 45v552q0 31 -12 47 q-12 13 -18 19q-13 10 -28 17h138z" glyph-name="Ntilde" horiz-adv-x="659" unicode="Ñ"/>
<glyph d="M436 706q-6 -6 -124 58q-36 22 -36 42q0 15 10.5 25.5t25.5 10.5q23 0 49 -35q80 -94 75 -101zM739 334q-4 -160 -126 -259q-109 -87 -247 -84q-150 4 -255 104q-109 104 -105 255q4 133 103 232q110 111 277 107q137 -3 240 -94q117 -101 113 -261zM373 647 q-114 0 -185 -77q-74 -81 -74 -215q0 -153 84 -241q74 -77 177 -77q112 0 182.5 80t71.5 214q1 143 -70.5 229.5t-185.5 86.5z" glyph-name="Ograve" horiz-adv-x="774" unicode="Ò"/>
<glyph d="M312 706q-6 6 74 101q26 35 50 35q16 0 26.5 -10.5t10.5 -25.5q0 -23 -39 -42q-116 -65 -122 -58zM739 334q-4 -160 -126 -259q-109 -87 -247 -84q-150 4 -255 104q-109 104 -105 255q4 133 103 232q110 111 277 107q137 -3 240 -94q117 -101 113 -261zM373 647 q-114 0 -185 -77q-74 -81 -74 -215q0 -153 84 -241q74 -77 177 -77q112 0 182.5 80t71.5 214q1 143 -70.5 229.5t-185.5 86.5z" glyph-name="Oacute" horiz-adv-x="774" unicode="Ó"/>
<glyph d="M375 842q7 0 75 -65.5t64 -70.5q-7 -6 -139 63q-131 -69 -139 -63q-3 5 65 70.5t74 65.5zM739 334q-4 -160 -126 -259q-109 -87 -247 -84q-150 4 -255 104q-109 104 -105 255q4 133 103 232q110 111 277 107q137 -3 240 -94q117 -101 113 -261zM373 647q-114 0 -185 -77 q-74 -81 -74 -215q0 -153 84 -241q74 -77 177 -77q112 0 182.5 80t71.5 214q1 143 -70.5 229.5t-185.5 86.5z" glyph-name="Ocircumflex" horiz-adv-x="774" unicode="Ô"/>
<glyph d="M453 776q34 0 54 24l23 -17q-56 -63 -108 -63q-28 0 -68 19.5t-48 19.5q-30 0 -60 -35l-21 12q4 16 38 43q40 30 76 30q16 0 57.5 -16.5t56.5 -16.5zM739 334q-4 -160 -126 -259q-109 -87 -247 -84q-150 4 -255 104q-109 104 -105 255q4 133 103 232q110 111 277 107 q137 -3 240 -94q117 -101 113 -261zM373 647q-114 0 -185 -77q-74 -81 -74 -215q0 -153 84 -241q74 -77 177 -77q112 0 182.5 80t71.5 214q1 143 -70.5 229.5t-185.5 86.5z" glyph-name="Otilde" horiz-adv-x="774" unicode="Õ"/>
<glyph d="M740 334q-4 -160 -126 -259q-109 -87 -247 -84q-150 4 -255 104q-109 104 -105 255q4 133 103 232q110 111 277 107q137 -3 240 -94q117 -101 113 -261zM451 720q-20 0 -34.5 14t-14.5 35q0 20 15 34.5t34 14.5q21 0 35 -14.5t14 -34.5q0 -21 -14 -35t-35 -14zM305 720 q-20 0 -33.5 14t-13.5 35q0 20 14 34.5t34 14.5t34.5 -14.5t14.5 -34.5q0 -21 -14.5 -35t-35.5 -14zM374 647q-114 0 -185 -77q-74 -81 -74 -215q0 -153 84 -241q74 -77 177 -77q112 0 182.5 80t71.5 214q1 143 -70.5 229.5t-185.5 86.5z" glyph-name="Odieresis" horiz-adv-x="774" unicode="Ö"/>
<glyph glyph-name="multiply" unicode="×"/>
<glyph d="M694 686q-5 -7 -74 -84q125 -103 121 -268q-4 -160 -127 -258q-109 -88 -248 -85q-114 2 -207 66q-23 -27 -50 -62h-73q21 24 82 94q-114 104 -110 261q3 133 102 232q109 111 276 107q104 -2 193 -57q20 24 43 54h72zM568 539l-365 -431q76 -71 172 -71 q113 0 184.5 80.5t71.5 213.5q0 126 -63 208zM172 153q140 162 365 428q-66 66 -162 66q-114 0 -186 -77q-75 -81 -75 -215q0 -118 58 -202z" glyph-name="Oslash" horiz-adv-x="774" unicode="Ø"/>
<glyph d="M364 706q-6 -6 -121 58q-39 19 -39 42q0 15 11 25.5t26 10.5q25 0 50 -35q79 -94 73 -101zM185 680q-33 -16 -33 -45v-423q0 -69 30 -113q42 -62 136 -62q92 0 137 54q37 45 37 121l-2 423q0 31 -26 45h104q-26 -12 -26 -45l-5 -419q-1 -116 -69 -174q-60 -51 -163 -51 q-97 0 -164 48q-84 60 -84 175v421q0 29 -32 45h160z" glyph-name="Ugrave" horiz-adv-x="601" unicode="Ù"/>
<glyph d="M247 706q-4 7 74 101q26 35 51 35q14 0 24.5 -10.5t10.5 -25.5q0 -25 -37 -42q-116 -64 -123 -58zM565 680q-26 -12 -26 -45l-5 -419q-1 -116 -69 -174q-60 -51 -163 -51q-97 0 -164 48q-84 60 -84 175v421q0 29 -32 45h159q-32 -16 -32 -45v-423q0 -69 30 -113 q42 -62 136 -62q92 0 137 54q37 45 37 121l-2 423q0 31 -26 45h104z" glyph-name="Uacute" horiz-adv-x="601" unicode="Ú"/>
<glyph d="M311 842q7 0 75 -65.5t64 -70.5q-6 -6 -139 63q-131 -69 -139 -63q-3 5 65 70.5t74 65.5zM489 212l-2 423q0 31 -26 45h104q-26 -13 -26 -45l-5 -419q-1 -116 -69 -174q-59 -51 -161 -51q-98 0 -166 48q-84 60 -84 175v421q0 29 -32 45h160q-33 -16 -33 -45v-423 q0 -69 30 -113q42 -62 136 -62q92 0 137 54q37 45 37 121z" glyph-name="Ucircumflex" horiz-adv-x="606" unicode="Û"/>
<glyph d="M181 680q-32 -16 -32 -45v-423q0 -69 30 -113q42 -62 136 -62q92 0 137 54q37 45 37 121l-2 423q0 31 -26 45h104q-26 -12 -26 -45l-5 -419q-1 -116 -69 -174q-60 -51 -163 -51q-97 0 -164 48q-84 60 -84 175v421q0 29 -32 45h159zM393 720q-20 0 -34.5 14t-14.5 35 q0 20 15 34.5t34 14.5q21 0 35 -14.5t14 -34.5q0 -21 -14 -35t-35 -14zM247 720q-20 0 -33.5 14t-13.5 35q0 20 14 34.5t34 14.5t34.5 -14.5t14.5 -34.5q0 -21 -14.5 -35t-35.5 -14z" glyph-name="Udieresis" horiz-adv-x="601" unicode="Ü"/>
<glyph glyph-name="Yacute" unicode="Ý"/>
<glyph glyph-name="Thorn" unicode="Þ"/>
<glyph d="M416 538q0 -56 -39.5 -99.5t-99.5 -59.5q78 -4 138 -51q68 -54 68 -138q0 -77 -55 -132q-65 -66 -182 -66q-15 0 -30 1q-24 0 -57 4v40q12 -1 25 -1q77 0 131 31q74 43 74 131q0 85 -68 125q-57 33 -145 28v46q69 4 110.5 40.5t41.5 96.5q0 45 -29 81t-72 36 q-98 0 -98 -145v-506h-111q24 14 24 37v452q0 77 38 129q51 71 161 71q73 0 122 -39q53 -42 53 -112z" glyph-name="germandbls" horiz-adv-x="518" unicode="ß"/>
<glyph d="M49 299l-2 124q77 50 158 50q157 0 157 -135v-268q0 -24 3 -30q5 -12 27 -16l-77 -34q-19 12 -25 25q-9 15 -10 49q-69 -73 -156 -73q-60 0 -93 45q-27 35 -27 77q0 72 67 113q24 14 110 40q77 22 94 40q4 4 4 42q0 36 -19 59q-23 28 -67 28q-99 0 -144 -136zM256 503 q-6 -6 -124 57q-36 17 -36 42q0 37 36 37q18 0 51 -35q78 -94 73 -101zM279 99v162q-3 -1 -107 -38q-83 -29 -83 -93q0 -83 76 -83q64 0 114 52z" glyph-name="agrave" horiz-adv-x="432" unicode="à"/>
<glyph d="M363 338v-268q0 -24 3 -30q5 -12 26 -16l-76 -34q-19 13 -26.5 26.5t-8.5 47.5q-71 -73 -157 -73q-60 0 -93 45q-27 35 -27 77q0 71 68 113q23 14 110 40q77 22 94 40q3 4 3 42q0 36 -19 59q-23 28 -66 28q-59 0 -95 -41q-28 -30 -50 -95l-1 124q75 50 158 50 q157 0 157 -135zM138 503q-6 7 73 101q25 35 51 35q34 0 34 -37q0 -25 -36 -42q-115 -63 -122 -57zM279 99v162q-5 -2 -106 -38q-85 -30 -85 -93q0 -83 78 -83q63 0 113 52z" glyph-name="aacute" horiz-adv-x="432" unicode="á"/>
<glyph d="M48 299l-2 124q77 50 158 50q157 0 157 -135v-268q0 -22 4 -30q6 -12 26 -16l-77 -34q-19 12 -25 25q-9 15 -10 49q-69 -73 -156 -73q-60 0 -93 45q-26 35 -26 77q0 73 66 113q24 14 110 40q77 22 94 40q3 3 4 21q1 16 0 21q0 36 -19 59q-23 28 -67 28q-99 0 -144 -136z M199 639q7 0 75 -65.5t64 -70.5q-6 -7 -139 62q-130 -68 -137 -62q-3 5 64 70.5t73 65.5zM173 223q-85 -30 -85 -93q0 -83 76 -83q64 0 114 52v162q-6 -3 -105 -38z" glyph-name="acircumflex" horiz-adv-x="432" unicode="â"/>
<glyph d="M48 299l-2 124q77 50 158 50q157 0 157 -135v-268q0 -22 4 -30q6 -12 26 -16l-77 -34q-19 12 -25 25q-9 15 -10 49q-69 -73 -156 -73q-60 0 -93 45q-26 35 -26 77q0 73 66 113q24 14 110 40q77 22 94 40q3 3 4 21q1 16 0 21q0 36 -19 59q-23 28 -67 28q-99 0 -144 -136z M243 522q-28 0 -66 17.5t-46 17.5q-27 0 -55 -33l-21 12q3 16 35 40q38 28 73 28q15 0 55 -16t54 -16q33 0 53 23l20 -16q-54 -57 -102 -57zM164 47q64 0 114 52v162q-6 -3 -105 -38q-85 -30 -85 -93q0 -83 76 -83z" glyph-name="atilde" horiz-adv-x="432" unicode="ã"/>
<glyph d="M48 299l-2 124q77 50 158 50q157 0 157 -135v-268q0 -22 4 -30q6 -12 26 -16l-77 -34q-19 12 -25 25q-9 15 -10 49q-69 -73 -156 -73q-60 0 -93 45q-26 35 -26 77q0 73 66 113q24 14 110 40q77 22 94 40q3 3 4 21q1 16 0 21q0 36 -19 59q-23 28 -67 28q-99 0 -144 -136z M130 616q20 0 33.5 -13.5t13.5 -33.5q0 -21 -13.5 -35t-33.5 -14t-33.5 14t-13.5 35q0 20 14 33.5t33 13.5zM272 616q20 0 34.5 -14t14.5 -33q0 -21 -14.5 -35t-34.5 -14t-33.5 14t-13.5 35q0 20 14 33.5t33 13.5zM164 47q64 0 114 52v162q-6 -3 -105 -38q-85 -30 -85 -93 q0 -83 76 -83z" glyph-name="adieresis" horiz-adv-x="432" unicode="ä"/>
<glyph d="M48 299v124q71 50 156 50q157 0 157 -135v-268q0 -22 4 -30q5 -12 25 -16l-76 -34q-19 12 -25 25q-9 15 -10 49q-69 -73 -155 -73q-60 0 -94 45q-26 35 -26 77q0 73 66 113q24 15 110 40q77 22 94 40q3 3 4 21q1 16 -1 21q0 36 -19 59q-22 28 -66 28q-99 0 -144 -136z M201 639q27 0 48 -20.5t21 -47.5t-21 -47.5t-48 -20.5q-26 0 -46 20t-20 48q0 27 20 47.5t46 20.5zM201 525q19 0 32 13t13 33q0 18 -13 30.5t-32 12.5t-31.5 -12.5t-12.5 -30.5q0 -20 12.5 -33t31.5 -13zM173 223q-85 -30 -85 -93q0 -83 76 -83q63 0 113 52v162 q-7 -4 -104 -38z" glyph-name="aring" horiz-adv-x="432" unicode="å"/>
<glyph d="M496 470q74 0 126 -48q60 -56 60 -159h-322q0 -5 -1 -13.5t-1 -12.5q0 -81 40 -134q44 -58 120 -58q49 0 99 35q46 32 63 70q-4 -63 -56 -111q-55 -51 -134 -51q-59 0 -101 23q-25 13 -53 41q-22 23 -32 23q-9 0 -33 -22q-31 -27 -55 -40q-43 -22 -96 -22q-60 0 -93 45 q-27 35 -27 77q0 72 68 113q24 14 109 40q75 22 92 40q6 3 6 39q0 34 -20 58q-24 27 -67 27q-57 0 -94 -40q-28 -30 -51 -94v123q71 51 157 51q45 0 86.5 -23.5t49.5 -23.5q6 0 52 23.5t108 23.5zM264 110q12 20 9 151q-8 -4 -104 -38q-86 -30 -86 -93q0 -39 21.5 -61 t57.5 -22q65 0 102 63zM480 432q-103 0 -118 -133h229q0 68 -34 103q-30 30 -77 30z" glyph-name="ae" horiz-adv-x="703" unicode="æ"/>
<glyph d="M98 244q0 -81 40 -135q43 -60 117 -60q80 0 137 62q-3 -31 -33 -65q-39 -44 -99 -53l-59 -85h-57l60 83q-94 8 -149 84q-47 67 -47 156q0 88 55 158q65 84 178 84q57 0 132 -36l-2 -136q-17 59 -52 96q-38 38 -83 38q-67 0 -105 -63q-33 -54 -33 -128z" glyph-name="ccedilla" horiz-adv-x="417" unicode="ç"/>
<glyph d="M424 153q-4 -64 -55 -112q-55 -50 -134 -50q-101 0 -165 75q-60 69 -60 164q0 92 58 162q65 81 172 81q73 0 125 -48q61 -57 61 -159h-322v-28q0 -80 40 -132q44 -57 119 -57q50 0 100 34q45 32 61 70zM304 503q-7 -6 -123 57q-37 17 -37 42q0 37 37 37q23 0 49 -35 q80 -94 74 -101zM228 437q-53 0 -85 -41q-29 -36 -37 -93h230q0 68 -33 103q-29 31 -75 31z" glyph-name="egrave" horiz-adv-x="458" unicode="è"/>
<glyph d="M426 266h-322v-28q0 -80 40 -132q44 -57 119 -57q49 0 99 34q46 32 62 70q-4 -64 -55 -112q-55 -50 -134 -50q-101 0 -165 75q-60 69 -60 164q0 91 57 162q66 81 171 81q74 0 127 -48q61 -56 61 -159zM155 503q-5 7 73 101q33 35 50 35q37 0 37 -37q0 -24 -38 -42 q-115 -63 -122 -57zM228 437q-53 0 -86 -41q-29 -36 -36 -93h230q0 68 -33 103q-29 31 -75 31z" glyph-name="eacute" horiz-adv-x="460" unicode="é"/>
<glyph d="M423 153q-3 -64 -56 -113t-132 -49q-101 0 -165 75q-60 69 -60 164q0 91 57 162q66 81 171 81q74 0 127 -48q61 -56 61 -159h-322v-28q0 -80 40 -132q44 -57 119 -57q49 0 99 34q46 32 61 70zM230 639q7 0 75 -65.5t64 -70.5q-6 -6 -139 62q-133 -68 -140 -62 q-3 5 65.5 70.5t74.5 65.5zM228 437q-53 0 -86 -41q-29 -36 -36 -93h230q0 68 -33 103q-29 31 -75 31z" glyph-name="ecircumflex" horiz-adv-x="458" unicode="ê"/>
<glyph d="M263 49q49 0 99 34q46 32 61 70q-3 -64 -56 -113t-132 -49q-101 0 -165 75q-60 69 -60 164q0 91 57 162q66 81 171 81q74 0 127 -48q61 -56 61 -159h-322v-28q0 -80 40 -132q44 -57 119 -57zM156 616q20 0 33.5 -13.5t13.5 -33.5q0 -21 -14 -35t-34 -14t-33.5 14 t-13.5 35q0 20 14 33.5t34 13.5zM299 616q20 0 33.5 -13.5t13.5 -33.5q0 -21 -13.5 -35t-33.5 -14t-34.5 14t-14.5 35q0 19 14.5 33t34.5 14zM228 437q-53 0 -86 -41q-29 -36 -36 -93h230q0 68 -33 103q-29 31 -75 31z" glyph-name="edieresis" horiz-adv-x="458" unicode="ë"/>
<glyph d="M87 604q79 -94 74 -101q-8 -6 -124 57q-37 17 -37 42q0 37 37 37q24 0 50 -35zM51 38v371q0 29 -35 40l122 24v-435q0 -23 26 -38h-139q26 16 26 38z" glyph-name="igrave" horiz-adv-x="212" unicode="ì"/>
<glyph d="M86 604q33 35 50 35q15 0 26 -11t11 -26q0 -24 -39 -42q-115 -64 -121 -57q-6 6 73 101zM16 449l122 24v-435q0 -23 26 -38h-139q26 16 26 38v371q0 29 -35 40z" glyph-name="iacute" horiz-adv-x="212" unicode="í"/>
<glyph d="M96 639q7 0 75 -65.5t63 -70.5q-6 -6 -138 62q-133 -68 -139 -62q-3 5 65 70.5t74 65.5zM16 449l122 24v-435q0 -23 26 -38h-139q26 14 26 38v371q0 29 -35 40z" glyph-name="icircumflex" horiz-adv-x="212" unicode="î"/>
<glyph d="M162 616q20 0 33.5 -13.5t13.5 -33.5q0 -21 -13.5 -35t-33.5 -14t-33.5 14t-13.5 35q0 20 14 33.5t33 13.5zM19 616q20 0 33.5 -13.5t13.5 -33.5q0 -21 -14 -35t-33 -14q-21 0 -34 14t-13 35q0 20 13.5 33.5t33.5 13.5zM16 449l121 24v-435q0 -23 27 -38h-140 q26 13 26 38v371q0 29 -34 40z" glyph-name="idieresis" horiz-adv-x="212" unicode="ï"/>
<glyph glyph-name="eth" unicode="ð"/>
<glyph d="M388 579q-52 -57 -101 -57q-27 0 -65.5 17.5t-45.5 17.5q-29 0 -57 -33l-19 12q1 15 34 40q38 28 72 28q15 0 55 -16t54 -16q33 0 52 23zM282 473q60 0 102 -36q46 -39 46 -103v-296q0 -22 26 -38h-137q26 14 26 38v260q0 116 -106 116q-60 0 -101 -52v-324q0 -23 26 -38 h-138q25 14 25 38v371q0 30 -33 42l120 22v-71q65 71 144 71z" glyph-name="ntilde" horiz-adv-x="498" unicode="ñ"/>
<glyph d="M449 231q0 -94 -60 -164q-64 -76 -160 -76q-108 0 -169 80q-50 67 -50 160q0 95 58 166q64 76 163 76q106 0 166 -77q52 -67 52 -165zM297 503q-8 -6 -123 57q-37 17 -37 42q0 37 37 37q22 0 48 -35q80 -94 75 -101zM222 437q-62 -2 -95 -67q-29 -58 -26 -144 q3 -85 38 -140q37 -58 97 -56q63 3 95 64q31 57 27 145q-4 84 -36 138q-37 62 -100 60z" glyph-name="ograve" horiz-adv-x="484" unicode="ò"/>
<glyph d="M448 231q0 -94 -60 -164q-64 -76 -161 -76q-108 0 -169 80q-52 68 -51 160q1 96 59 166q63 76 162 76q107 0 167 -77q53 -66 53 -165zM155 503q-5 7 75 101q26 35 50 35q37 0 37 -37q0 -25 -38 -42q-116 -63 -124 -57zM220 437q-62 -2 -94 -67q-29 -58 -26 -144t37 -140 q37 -58 98 -56q62 3 94 64q30 56 26 145q-4 83 -36 138q-37 62 -99 60z" glyph-name="oacute" horiz-adv-x="483" unicode="ó"/>
<glyph d="M449 231q0 -94 -60 -164q-64 -76 -160 -76q-108 0 -169 80q-50 67 -50 160q0 95 58 166q64 76 163 76q106 0 166 -77q52 -67 52 -165zM229 639q7 0 74.5 -65.5t63.5 -70.5q-6 -6 -138 62q-132 -68 -139 -62q-4 5 64 70.5t75 65.5zM222 437q-62 -2 -95 -67 q-29 -58 -26 -144q3 -85 38 -140q37 -58 97 -56q63 3 95 64q31 57 27 145q-4 84 -36 138q-37 62 -100 60z" glyph-name="ocircumflex" horiz-adv-x="484" unicode="ô"/>
<glyph d="M449 231q0 -94 -60 -164q-64 -76 -160 -76q-108 0 -169 80q-50 67 -50 160q0 95 58 166q64 76 163 76q106 0 166 -77q52 -67 52 -165zM193 604q15 0 55 -16t54 -16q33 0 53 23l20 -16q-52 -57 -102 -57q-27 0 -65 17.5t-45 17.5q-29 0 -57 -33l-21 12q3 15 36 40 q38 28 72 28zM222 437q-62 -2 -95 -67q-29 -58 -26 -144q3 -85 38 -140q37 -58 97 -56q63 3 95 64q31 57 27 145q-4 84 -36 138q-37 62 -100 60z" glyph-name="otilde" horiz-adv-x="484" unicode="õ"/>
<glyph d="M231 473q106 0 166 -77q52 -67 52 -165q0 -94 -60 -164q-64 -76 -160 -76q-108 0 -169 80q-50 67 -50 160q0 95 58 166q64 76 163 76zM156 616q20 0 33.5 -13.5t13.5 -33.5q0 -21 -14 -35t-35 -14q-18 0 -31.5 14t-13.5 35q0 20 14 33.5t33 13.5zM299 616 q20 0 33.5 -13.5t13.5 -33.5q0 -21 -13.5 -35t-33.5 -14t-33.5 14t-13.5 35q0 20 14 33.5t33 13.5zM222 437q-62 -2 -95 -67q-29 -58 -26 -144q3 -85 38 -140q37 -58 97 -56q63 3 95 64q31 57 27 145q-4 84 -36 138q-37 62 -100 60z" glyph-name="odieresis" horiz-adv-x="484" unicode="ö"/>
<glyph d="M158 432q0 17 12.5 29t29.5 12q18 0 30 -12t12 -29t-12 -29.5t-30 -12.5q-17 0 -29.5 12.5t-12.5 29.5zM29 367h345v-56h-345v56zM242 247q0 -17 -12 -29.5t-30 -12.5q-17 0 -29.5 12.5t-12.5 29.5t12.5 29.5t29.5 12.5q18 0 30 -12.5t12 -29.5z" glyph-name="divide" horiz-adv-x="429" unicode="÷"/>
<glyph d="M231 473q68 0 120 -35q12 17 28 37h57q-18 -20 -50 -63q63 -70 63 -181q0 -93 -60 -164q-64 -76 -160 -76q-77 0 -130 42q-24 -33 -26 -40h-59q14 18 52 70q-56 69 -56 168q0 95 58 166q64 76 163 76zM120 130q70 94 195 260q-39 49 -93 47q-61 -2 -94 -67 q-29 -57 -27 -142q2 -58 19 -98zM332 345q-4 -6 -193 -261q39 -55 97 -54q62 1 95 63q29 56 27 145q-2 58 -26 107z" glyph-name="oslash" horiz-adv-x="484" unicode="ø"/>
<glyph d="M421 473v-393q0 -51 40 -57l-87 -32q-21 11 -28.5 24.5t-7.5 45.5q-68 -70 -147 -70q-57 0 -98 38q-53 50 -53 150v230q0 29 -36 40l123 24v-294q0 -62 28 -95.5t73 -33.5q52 0 108 51v308q0 29 -35 40zM219 604q79 -95 73 -101q-6 -7 -123 57q-37 17 -37 42q0 37 37 37 q17 0 50 -35z" glyph-name="ugrave" horiz-adv-x="495" unicode="ù"/>
<glyph d="M421 473v-393q0 -51 42 -57l-89 -32q-19 11 -27 24.5t-9 45.5q-64 -70 -145 -70q-58 0 -99 38q-54 50 -54 150v230q0 29 -34 40l121 24v-294q0 -61 29 -95t74 -34q52 0 108 51v308q0 30 -37 40zM291 560q-115 -63 -122 -57q-6 7 73 101q25 35 51 35q15 0 25.5 -10.5 t10.5 -26.5q0 -24 -38 -42z" glyph-name="uacute" horiz-adv-x="495" unicode="ú"/>
<glyph d="M421 80q0 -51 42 -57l-89 -32q-19 11 -27 24.5t-9 45.5q-64 -70 -145 -70q-58 0 -99 38q-54 50 -54 150v230q0 29 -34 40l121 24v-294q0 -61 29 -95t74 -34q52 0 108 51v308q0 30 -37 40l120 24v-393zM93 503q-4 5 64.5 70.5t74.5 65.5q7 0 75 -65.5t64 -70.5 q-8 -6 -139 62q-132 -68 -139 -62z" glyph-name="ucircumflex" horiz-adv-x="495" unicode="û"/>
<glyph d="M423 473v-393q0 -51 40 -57l-87 -32q-21 11 -29 24.5t-8 45.5q-66 -70 -146 -70q-58 0 -99 38q-54 50 -54 150v230q0 30 -35 40l124 24v-294q0 -62 28 -95.5t73 -33.5q51 0 107 51v308q0 29 -34 40zM256 569q0 20 14 33.5t34 13.5q19 0 33 -14t14 -33q0 -21 -14 -35 t-33 -14q-20 0 -34 14t-14 35zM113 569q0 20 14 33.5t33 13.5q20 0 34.5 -14t14.5 -33q0 -21 -14.5 -35t-34.5 -14t-33.5 14t-13.5 35z" glyph-name="udieresis" horiz-adv-x="494" unicode="ü"/>
<glyph glyph-name="yacute" unicode="ý"/>
<glyph glyph-name="thorn" unicode="þ"/>
</font>
</defs>
</svg>
