<?xml version="1.0" encoding="UTF-8"?>
<!DOCTYPE svg  PUBLIC '-//W3C//DTD SVG 1.1//EN'  'http://www.w3.org/Graphics/SVG/1.1/DTD/svg11.dtd'>
<svg version="1.1" xmlns="http://www.w3.org/2000/svg">
<defs>
<font id="Assistant-Regular" horiz-adv-x="492">
<font-face font-family="Assistant" font-weight="400" ascent="800" bbox="-174 -250 788 878" cap-height="657" descent="-200" panose-1="0 0 5 0 0 0 0 0 0 0" underline-position="-100" underline-thickness="50" unicode-range="U+0020-2212" units-per-em="1000" x-height="485"/>
<missing-glyph/>
<glyph glyph-name="space" horiz-adv-x="200" unicode=" "/>
<glyph d="M106 582l-2 88h74l-2 -88l-10 -388h-50zM102 4.5q-16 16.5 -16 41.5q0 26 16 42.5t39 16.5t39 -16.5t16 -42.5q0 -25 -16 -41.5t-39 -16.5t-39 16.5z" glyph-name="exclam" horiz-adv-x="282" unicode="!"/>
<glyph d="M83 605l-2 86h78l-2 -86l-14 -162h-46zM251 605l-2 86h78l-2 -86l-14 -162h-46z" glyph-name="quotedbl" horiz-adv-x="409" unicode='"'/>
<glyph d="M116 207h-81v52h87l19 153h-86v52h92l24 186h48l-23 -186h137l24 186h48l-23 -186h80v-52h-86l-19 -153h85v-52h-91l-25 -207h-49l25 207h-137l-25 -207h-49zM308 259l19 153h-137l-19 -153h137z" glyph-name="numbersign" unicode="#"/>
<glyph d="M390 45q-42 -46 -112 -55v-100h-55v99q-47 4 -92 25.5t-77 51.5l34 50q78 -67 157 -67q56 0 86 29t30 79q0 39 -18 66t-44.5 44t-71.5 40q-48 24 -77.5 44.5t-50 53t-20.5 79.5q0 66 39.5 110.5t104.5 53.5v100h55v-99q44 -4 76.5 -23t63.5 -51l-39 -44 q-32 31 -58.5 44.5t-65.5 13.5q-47 0 -75.5 -28t-28.5 -73q0 -33 16 -56t40 -38t66 -35q52 -26 83.5 -47t53.5 -58t22 -92q0 -71 -42 -117z" glyph-name="dollar" unicode="$"/>
<glyph d="M75.5 316q-39.5 55 -39.5 153q0 97 39.5 151.5t107.5 54.5t107.5 -54.5t39.5 -151.5q0 -98 -39.5 -153t-107.5 -55t-107.5 55zM563 669h51l-363 -681h-51zM249.5 349q24.5 42 24.5 120t-24.5 119t-66.5 41t-66.5 -41t-24.5 -119t24.5 -120t66.5 -42t66.5 42zM526.5 43 q-39.5 55 -39.5 153q0 97 39.5 151.5t107.5 54.5t107.5 -54.5t39.5 -151.5q0 -98 -39.5 -153t-107.5 -55t-107.5 55zM699.5 76q24.5 42 24.5 120t-24 119t-66 41t-66.5 -41t-24.5 -119t24.5 -120t66.5 -42q41 0 65.5 42z" glyph-name="percent" horiz-adv-x="817" unicode="%"/>
<glyph d="M566 -12q-70 20 -148 77q-84 -77 -187 -77q-57 0 -102 23t-70.5 64.5t-25.5 93.5q0 60 34.5 103.5t96.5 87.5q-44 85 -44 155q0 66 41.5 110t106.5 44q58 0 91 -35t33 -92q0 -40 -20.5 -74t-50.5 -60.5t-78 -60.5q32 -53 76.5 -103.5t93.5 -91.5q64 82 96 200h68 q-42 -142 -115 -238q68 -48 124 -65zM216 396q57 39 86.5 71t29.5 73q0 32 -16 54t-48 22q-38 0 -61 -28t-23 -71q0 -54 32 -121zM143 82q39 -35 96 -35q66 0 131 57q-109 95 -177 205q-43 -34 -66 -66t-23 -70q0 -56 39 -91z" glyph-name="ampersand" horiz-adv-x="600" unicode="&amp;"/>
<glyph d="M83 605l-2 86h78l-2 -86l-14 -162h-46z" glyph-name="quotesingle" horiz-adv-x="242" unicode="'"/>
<glyph d="M116.5 40.5q-33.5 110.5 -33.5 237.5t33.5 237.5t98.5 216.5l45 -22q-57 -94 -86.5 -205t-29.5 -227t29.5 -227t86.5 -205l-45 -22q-65 106 -98.5 216.5z" glyph-name="parenleft" horiz-adv-x="297" unicode="("/>
<glyph d="M37 -154q57 94 86.5 205t29.5 227t-29.5 227t-86.5 205l45 22q65 -106 98.5 -216.5t33.5 -237.5t-33.5 -237.5t-98.5 -216.5z" glyph-name="parenright" horiz-adv-x="297" unicode=")"/>
<glyph d="M100 457l56 93l-95 39l14 42l100 -26l9 107h44l9 -105l100 24l14 -42l-95 -39l56 -93l-37 -26l-68 85l-70 -85z" glyph-name="asterisk" horiz-adv-x="412" unicode="*"/>
<glyph d="M216 302h-182v56h182v197h60v-197h182v-56h-182v-197h-60v197z" glyph-name="plus" unicode="+"/>
<glyph d="M172.5 81q17.5 -24 17.5 -66q0 -61 -33.5 -108.5t-90.5 -72.5l-19 44q41 18 63.5 49t23.5 72q-3 -1 -10 -1q-24 0 -40 14.5t-16 39.5q0 24 17 38.5t40 14.5q30 0 47.5 -24z" glyph-name="comma" horiz-adv-x="242" unicode=","/>
<glyph d="M41 279h227v-57h-227v57z" glyph-name="hyphen" horiz-adv-x="308" unicode="-"/>
<glyph d="M82 4.5q-16 16.5 -16 41.5q0 26 16 42.5t39 16.5t39 -16.5t16 -42.5q0 -25 -16 -41.5t-39 -16.5t-39 16.5z" glyph-name="period" horiz-adv-x="242" unicode="."/>
<glyph d="M287 710h54l-277 -870h-54z" glyph-name="slash" horiz-adv-x="352" unicode="/"/>
<glyph d="M98 75q-53 87 -53 246t53 244t148 85t148 -85t53 -244t-53 -246t-148 -87t-148 87zM341.5 115.5q34.5 68.5 34.5 205.5t-34.5 203.5t-95.5 66.5t-95.5 -66.5t-34.5 -203.5t34.5 -205.5t95.5 -68.5t95.5 68.5z" glyph-name="zero" unicode="0"/>
<glyph d="M49 61h147v485h-116v47q81 14 133 45h56v-577h133v-61h-353v61z" glyph-name="one" horiz-adv-x="451" unicode="1"/>
<glyph d="M40 43q113 114 175 183t95.5 127t33.5 109q0 58 -32 93t-94 35q-38 0 -73.5 -21t-65.5 -57l-43 42q42 46 88 71t103 25q87 0 138 -50.5t51 -134.5q0 -58 -32.5 -119t-85.5 -123t-151 -165l24 1q56 4 83 4h193v-63h-407v43z" glyph-name="two" unicode="2"/>
<glyph d="M27 78l37 48q35 -36 74.5 -56.5t92.5 -20.5q61 0 99 33.5t38 89.5q0 132 -209 132v57q98 0 142 34t44 90q0 48 -31 76.5t-84 28.5q-76 0 -139 -66l-40 47q84 79 181 79q83 0 135 -42.5t52 -117.5q0 -56 -31.5 -94.5t-86.5 -58.5v-4q62 -14 101.5 -57t39.5 -106 q0 -55 -27.5 -96.5t-74.5 -63.5t-105 -22q-126 0 -208 90z" glyph-name="three" unicode="3"/>
<glyph d="M463 180h-89v-180h-69v180h-288v47l279 411h78v-400h89v-58zM305 238v198q0 38 5 120h-4q-20 -36 -31 -53l-21 -35l-159 -230h210z" glyph-name="four" unicode="4"/>
<glyph d="M113.5 12q-49.5 24 -88.5 63l37 48q34 -34 72.5 -54t91.5 -20q40 0 73 19t52 53.5t19 79.5q0 68 -38 107t-102 39q-32 0 -56.5 -9t-55.5 -30l-40 25l21 305h313v-63h-249l-18 -199q25 14 49 21t53 7q87 0 142 -50.5t55 -149.5q0 -66 -29.5 -115t-78 -75t-104.5 -26 q-69 0 -118.5 24z" glyph-name="five" unicode="5"/>
<glyph d="M403 338q48 -51 48 -147q0 -59 -25 -105t-67.5 -72t-92.5 -26q-64 0 -113 34.5t-76.5 103.5t-27.5 167q0 124 33 204t87 116.5t121 36.5q88 0 149 -66l-41 -46q-20 24 -47.5 37.5t-58.5 13.5q-76 0 -124 -67.5t-50 -216.5q31 39 72 61.5t81 22.5q84 0 132 -51zM349 87 q33 41 33 104q0 67 -31 104.5t-92 37.5q-34 0 -70.5 -21.5t-68.5 -66.5q8 -96 45 -147.5t102 -51.5q49 0 82 41z" glyph-name="six" unicode="6"/>
<glyph d="M230 313.5q42 129.5 136 261.5h-322v63h406v-44q-74 -96 -114.5 -184t-57.5 -182t-23 -228h-75q8 184 50 313.5z" glyph-name="seven" unicode="7"/>
<glyph d="M142 10.5q-47 22.5 -74 62.5t-27 90q0 58 35 102t87 72v4q-90 63 -90 147q0 48 23 84.5t63.5 57t90.5 20.5q82 0 130.5 -47t48.5 -122q0 -46 -27 -87.5t-62 -68.5v-4q52 -31 81.5 -68t29.5 -95q0 -47 -25.5 -86t-71.5 -61.5t-106 -22.5q-59 0 -106 22.5zM365 478 q0 51 -31 84t-85 33q-47 0 -77.5 -29.5t-30.5 -77.5q0 -53 39 -84t113 -60q72 63 72 134zM344.5 75.5q36.5 32.5 36.5 83.5q0 41 -23.5 68.5t-57.5 44.5t-98 42q-43 -27 -69 -64t-26 -81q0 -54 41 -90t102 -36q58 0 94.5 32.5z" glyph-name="eight" unicode="8"/>
<glyph d="M338.5 615.5q49.5 -34.5 77 -103t27.5 -167.5q0 -124 -33 -204t-87 -116.5t-121 -36.5q-90 0 -149 66l41 46q20 -24 47.5 -37.5t57.5 -13.5q76 0 124 67t50 216q-31 -39 -71.5 -61t-80.5 -22q-85 0 -133 50.5t-48 147.5q0 58 25 104.5t67.5 72.5t92.5 26 q64 0 113.5 -34.5zM302.5 326q36.5 21 68.5 66q-7 96 -44 148t-102 52q-49 0 -82 -40.5t-33 -104.5q0 -67 31 -104.5t92 -37.5q33 0 69.5 21z" glyph-name="nine" unicode="9"/>
<glyph d="M82 370.5q-16 16.5 -16 41.5q0 26 16 42.5t39 16.5t39 -16.5t16 -42.5q0 -25 -16 -41.5t-39 -16.5t-39 16.5zM82 4.5q-16 16.5 -16 41.5q0 26 16 42.5t39 16.5t39 -16.5t16 -42.5q0 -25 -16 -41.5t-39 -16.5t-39 16.5z" glyph-name="colon" horiz-adv-x="242" unicode=":"/>
<glyph d="M82 370.5q-16 16.5 -16 41.5q0 26 16 42.5t39 16.5t39 -16.5t16 -42.5q0 -25 -16 -41.5t-39 -16.5t-39 16.5zM172.5 81q17.5 -24 17.5 -66q0 -61 -33.5 -108.5t-90.5 -72.5l-19 44q41 18 63.5 49t23.5 72q-3 -1 -10 -1q-24 0 -40 14.5t-16 39.5q0 24 17 38.5t40 14.5 q30 0 47.5 -24z" glyph-name="semicolon" horiz-adv-x="242" unicode=";"/>
<glyph d="M34 302v60l424 167v-64l-349 -131v-4l349 -131v-64z" glyph-name="less" unicode="&lt;"/>
<glyph d="M34 464h424v-56h-424v56zM34 252h424v-56h-424v56z" glyph-name="equal" unicode="="/>
<glyph d="M34 199l350 131v4l-350 131v64l424 -167v-60l-424 -167v64z" glyph-name="greater" unicode="&gt;"/>
<glyph d="M158 222q0 49 20 86.5t58 84.5q32 38 47.5 66t15.5 60q0 44 -26 73t-75 29q-33 0 -63.5 -15.5t-54.5 -43.5l-42 39q72 81 168 81q75 0 120 -43t45 -115q0 -41 -18 -74t-55 -79q-36 -44 -55 -78.5t-19 -77.5q0 -14 1 -21h-65q-2 20 -2 28zM156 4.5q-16 16.5 -16 41.5 q0 26 16 42.5t39 16.5t39 -16.5t16 -42.5q0 -25 -16 -41.5t-39 -16.5t-39 16.5z" glyph-name="question" horiz-adv-x="419" unicode="?"/>
<glyph d="M221 -111.5q-79 41.5 -124.5 122t-45.5 192.5q0 129 56.5 229.5t151 155.5t204.5 55q99 0 172.5 -41t113 -115t39.5 -172q0 -82 -29.5 -142t-74.5 -91t-92 -31q-42 0 -70 19.5t-32 56.5h-2q-26 -31 -57.5 -50t-63.5 -19q-52 0 -86 37t-34 103q0 53 24 107t67.5 88.5 t99.5 34.5q53 0 81 -48h2l10 40h50l-38 -197q-8 -34 -8 -55q0 -66 64 -66q32 0 63.5 25.5t52 73.5t20.5 111q0 83 -32.5 146.5t-95 99t-150.5 35.5q-90 0 -171 -48.5t-130.5 -137t-49.5 -201.5q0 -95 38 -165t106 -107t154 -37t164 46l20 -44q-85 -52 -189 -52 q-99 0 -178 41.5zM476 170l29 163q-15 24 -30.5 33.5t-36.5 9.5q-38 0 -68 -26.5t-46.5 -67t-16.5 -80.5q0 -48 19.5 -70.5t52.5 -22.5q45 0 97 61z" glyph-name="at" horiz-adv-x="839" unicode="@"/>
<glyph d="M391 207h-245l-67 -207h-75l225 657h82l224 -657h-78zM372 266l-34 106q-40 125 -68 223h-4q-33 -121 -67 -223l-34 -106h207z" glyph-name="A" horiz-adv-x="539" unicode="A"/>
<glyph d="M92 657h190q105 0 164.5 -39.5t59.5 -121.5q0 -50 -26 -88.5t-72 -53.5v-4q63 -12 99.5 -52.5t36.5 -105.5q0 -94 -66.5 -143t-180.5 -49h-205v657zM267 375q166 0 166 112q0 59 -40 85t-122 26h-105v-223h101zM285 59q90 0 138 33.5t48 101.5q0 124 -186 124h-119v-259 h119z" glyph-name="B" horiz-adv-x="585" unicode="B"/>
<glyph d="M189.5 29q-64.5 41 -101 118t-36.5 181q0 103 37 180.5t103 119t149 41.5q55 0 101 -23t77 -57l-41 -49q-57 64 -136 64q-64 0 -112 -33.5t-74.5 -95t-26.5 -145.5t25.5 -146.5t73 -96.5t111.5 -34q46 0 83.5 19t72.5 57l41 -46q-40 -47 -89 -71t-111 -24 q-82 0 -146.5 41z" glyph-name="C" horiz-adv-x="569" unicode="C"/>
<glyph d="M92 657h161q150 0 228.5 -85t78.5 -241t-78.5 -243.5t-225.5 -87.5h-164v657zM247 61q118 0 177.5 70.5t59.5 199.5q0 127 -59.5 196t-177.5 69h-81v-535h81z" glyph-name="D" horiz-adv-x="613" unicode="D"/>
<glyph d="M92 657h373v-63h-299v-217h252v-62h-252v-252h309v-63h-383v657z" glyph-name="E" horiz-adv-x="524" unicode="E"/>
<glyph d="M92 657h373v-63h-299v-232h253v-62h-253v-300h-74v657z" glyph-name="F" horiz-adv-x="490" unicode="F"/>
<glyph d="M192.5 29q-66.5 41 -103.5 118t-37 181t38 181t106 118.5t155 41.5q109 0 187 -80l-41 -49q-60 64 -144 64q-68 0 -118.5 -33.5t-78 -95t-27.5 -145.5q0 -128 59 -202.5t164 -74.5q37 0 71 11.5t55 30.5v179h-144v62h212v-272q-33 -35 -85 -55.5t-116 -20.5 q-86 0 -152.5 41z" glyph-name="G" horiz-adv-x="614" unicode="G"/>
<glyph d="M92 657h74v-278h317v278h74v-657h-74v314h-317v-314h-74v657z" glyph-name="H" horiz-adv-x="648" unicode="H"/>
<glyph d="M92 657h74v-657h-74v657z" glyph-name="I" horiz-adv-x="257" unicode="I"/>
<glyph d="M34 91l53 37q22 -39 51 -57t66 -18q55 0 81.5 34.5t26.5 109.5v460h74v-467q0 -90 -43 -146t-133 -56q-119 0 -176 103z" glyph-name="J" horiz-adv-x="475" unicode="J"/>
<glyph d="M92 657h74v-339h2l285 339h84l-207 -249l238 -408h-83l-201 351l-118 -139v-212h-74v657z" glyph-name="K" horiz-adv-x="573" unicode="K"/>
<glyph d="M92 657h74v-594h290v-63h-364v657z" glyph-name="L" horiz-adv-x="481" unicode="L"/>
<glyph d="M92 657h91l129 -360l48 -139h4q7 19 19 57q16 48 28 82l127 360h92v-657h-69v380q0 60 9 190h-4l-52 -149l-128 -353h-52l-129 353l-52 149h-4l2 -25q8 -106 8 -165v-380h-67v657z" glyph-name="M" horiz-adv-x="721" unicode="M"/>
<glyph d="M92 657h76l248 -426l72 -135h4l-3 44q-1 16 -4 67.5t-3 93.5v356h70v-657h-76l-248 426l-72 135h-4l3 -48q7 -87 7 -153v-360h-70v657z" glyph-name="N" horiz-adv-x="644" unicode="N"/>
<glyph d="M186 30q-63 42 -98.5 120t-35.5 181t35.5 179.5t98.5 117.5t145 41q81 0 144 -41t98.5 -117.5t35.5 -179.5t-35.5 -181t-98.5 -120t-144 -42q-82 0 -145 42zM436.5 87.5q45.5 34.5 70.5 97t25 146.5q0 83 -25 144.5t-70.5 95t-105.5 33.5q-61 0 -106.5 -33.5t-70.5 -95 t-25 -144.5q0 -84 25 -147t71 -97t106 -34t105.5 34.5z" glyph-name="O" horiz-adv-x="661" unicode="O"/>
<glyph d="M92 657h182q117 0 180.5 -44.5t63.5 -146.5q0 -99 -64 -149.5t-176 -50.5h-112v-266h-74v657zM267 327q91 0 134 33.5t43 105.5t-44 101.5t-137 29.5h-97v-270h101z" glyph-name="P" horiz-adv-x="562" unicode="P"/>
<glyph d="M620 -149q-38 -14 -90 -14q-86 0 -147 42t-90 111q-71 9 -126 53.5t-85 118.5t-30 169q0 103 35.5 179.5t98.5 117.5t145 41q81 0 144 -41t98.5 -117.5t35.5 -179.5q0 -94 -29.5 -167t-82.5 -117.5t-123 -55.5q21 -44 64 -67.5t99 -23.5q34 0 68 10zM154 182.5 q25 -63.5 70.5 -98t106.5 -34.5q60 0 105.5 34.5t70.5 98t25 148.5q0 83 -25 144.5t-70.5 95t-105.5 33.5q-61 0 -106.5 -33.5t-70.5 -95t-25 -144.5q0 -85 25 -148.5z" glyph-name="Q" horiz-adv-x="661" unicode="Q"/>
<glyph d="M453 0l-163 284h-124v-284h-74v657h201q226 0 226 -182q0 -75 -40.5 -122t-112.5 -62l171 -291h-84zM166 344h115q80 0 122 33t42 98t-41 93.5t-123 28.5h-115v-253z" glyph-name="R" horiz-adv-x="563" unicode="R"/>
<glyph d="M144.5 14q-58.5 26 -101.5 72l45 51q36 -39 84 -61.5t100 -22.5q67 0 105.5 31t38.5 83q0 33 -14 55t-36 35t-62 31l-95 42q-58 25 -95.5 64t-37.5 104q0 49 26 88t72.5 61t103.5 22t106.5 -22t84.5 -59l-40 -47q-65 63 -151 63q-58 0 -93 -28t-35 -74q0 -31 16 -52 t37 -33t57 -28l95 -42q65 -27 100.5 -67t35.5 -108q0 -52 -27 -94t-77 -66t-116 -24q-68 0 -126.5 26z" glyph-name="S" horiz-adv-x="530" unicode="S"/>
<glyph d="M230 594h-202v63h477v-63h-201v-594h-74v594z" glyph-name="T" horiz-adv-x="533" unicode="T"/>
<glyph d="M152 53.5q-63 65.5 -63 212.5v391h74v-391q0 -114 43 -163.5t115 -49.5q74 0 118 49.5t44 163.5v391h71v-391q0 -147 -63.5 -212.5t-169.5 -65.5t-169 65.5z" glyph-name="U" horiz-adv-x="643" unicode="U"/>
<glyph d="M1 657h79l110 -362q16 -57 23 -78q17 -64 41 -140h4q11 33 46 152l19 66l110 362h75l-210 -657h-85z" glyph-name="V" horiz-adv-x="509" unicode="V"/>
<glyph d="M24 657h77l72 -365l40 -213h4q15 71 47 213l95 365h68l94 -365q12 -54 19 -81l30 -132h4l11 59q17 95 28 154l72 365h72l-139 -657h-88l-105 409q-4 19 -7.5 34t-5.5 26q-8 36 -19 89h-4l-34 -149l-102 -409h-87z" glyph-name="W" horiz-adv-x="782" unicode="W"/>
<glyph d="M208 340l-180 317h82l94 -175l52 -94h4q25 53 47 94l92 175h78l-180 -321l193 -336h-82l-101 183q-14 28 -44 81q-2 4 -5.5 10.5t-7.5 13.5h-4q-15 -32 -43 -86l-10 -19l-100 -183h-77z" glyph-name="X" horiz-adv-x="505" unicode="X"/>
<glyph d="M197 258l-197 399h79l88 -191l17 -37q40 -87 49 -105h4l17 35q42 88 50 107l88 191h77l-198 -399v-258h-74v258z" glyph-name="Y" horiz-adv-x="468" unicode="Y"/>
<glyph d="M46 44l354 550h-322v63h414v-44l-354 -550h357v-63h-449v44z" glyph-name="Z" horiz-adv-x="539" unicode="Z"/>
<glyph d="M95 708h174v-42h-119v-776h119v-42h-174v860z" glyph-name="bracketleft" horiz-adv-x="297" unicode="["/>
<glyph d="M12 710h54l276 -870h-54z" glyph-name="backslash" horiz-adv-x="352" unicode="\"/>
<glyph d="M28 -110h119v776h-119v42h174v-860h-174v42z" glyph-name="bracketright" horiz-adv-x="297" unicode="]"/>
<glyph d="M213 670h66l152 -385h-64l-119 316h-4l-49 -133l-69 -183h-65z" glyph-name="asciicircum" unicode="^"/>
<glyph d="M12 -73h476v-51h-476v51z" glyph-name="underscore" horiz-adv-x="500" unicode="_"/>
<glyph d="M134 726l52 48l140 -164l-38 -37z" glyph-name="grave" horiz-adv-x="540" unicode="`"/>
<glyph d="M93 24q-40 36 -40 101q0 79 72 121.5t230 59.5q0 57 -23.5 93.5t-80.5 36.5q-69 0 -147 -53l-29 50q96 64 188 64q84 0 124 -52.5t40 -144.5v-300h-60l-6 59h-3q-86 -71 -163 -71q-62 0 -102 36zM282.5 63.5q33.5 16.5 72.5 51.5v142q-125 -15 -177.5 -46t-52.5 -82 q0 -41 25 -61.5t64 -20.5q35 0 68.5 16.5z" glyph-name="a" horiz-adv-x="501" unicode="a"/>
<glyph d="M222 4.5q-37 16.5 -69 45.5h-3l-7 -50h-58v714h72v-198l-2 -89q81 70 156 70q93 0 142.5 -66.5t49.5 -180.5q0 -80 -29 -139.5t-77 -91t-104 -31.5q-34 0 -71 16.5zM356.5 74.5q33.5 24.5 52.5 69.5t19 105q0 87 -32.5 136.5t-101.5 49.5q-62 0 -137 -70v-262 q32 -27 64.5 -40t59.5 -13q42 0 75.5 24.5z" glyph-name="b" horiz-adv-x="551" unicode="b"/>
<glyph d="M157.5 18.5q-51.5 30.5 -81 87.5t-29.5 136q0 78 31.5 136t84.5 88.5t115 30.5q79 0 141 -58l-38 -48q-24 22 -48 33.5t-52 11.5q-45 0 -81 -24.5t-56.5 -68.5t-20.5 -101q0 -87 43 -140t113 -53q63 0 118 50l32 -49q-33 -29 -73 -45.5t-83 -16.5q-64 0 -115.5 30.5z" glyph-name="c" horiz-adv-x="454" unicode="c"/>
<glyph d="M102.5 55q-53.5 67 -53.5 187q0 76 29 134t77.5 89.5t104.5 31.5q39 0 70 -14t68 -43l-3 84v190h72v-714h-60l-6 59h-3q-31 -32 -69.5 -51.5t-80.5 -19.5q-92 0 -145.5 67zM330.5 67q31.5 17 64.5 52v263q-32 28 -62 40.5t-62 12.5q-41 0 -74.5 -25t-53 -69t-19.5 -99 q0 -90 36.5 -141t103.5 -51q35 0 66.5 17z" glyph-name="d" horiz-adv-x="552" unicode="d"/>
<glyph d="M452 226h-335q5 -85 52.5 -132t116.5 -47q64 0 123 39l27 -48q-36 -23 -74 -36.5t-85 -13.5q-64 0 -116.5 30.5t-83 88.5t-30.5 135q0 76 30.5 134t80.5 89.5t106 31.5q90 0 140.5 -60.5t50.5 -166.5q0 -26 -3 -44zM390 279q0 77 -33 118t-92 41q-54 0 -96 -41t-50 -118 h271z" glyph-name="e" unicode="e"/>
<glyph d="M169 568v-83h105v-60h-105v-425h-73v425h-66v55l66 5v84q0 75 34.5 116t102.5 41q39 0 78 -16l-16 -56q-28 12 -56 12q-70 0 -70 -98z" glyph-name="f" horiz-adv-x="284" unicode="f"/>
<glyph d="M101.5 -191q-54.5 35 -54.5 96q0 31 18.5 60t52.5 52v4q-19 12 -31 32t-12 47q0 28 15.5 51.5t37.5 38.5v4q-26 21 -44 55t-18 75q0 51 24 90.5t65 61t90 21.5q33 0 67 -12h168v-57h-103q19 -18 31 -46t12 -59q0 -50 -23 -88.5t-63 -59.5t-89 -21q-40 0 -74 17 q-16 -13 -24.5 -26.5t-8.5 -33.5q0 -26 19.5 -40.5t66.5 -14.5h97q85 0 126 -28t41 -87q0 -44 -30 -82.5t-85 -61.5t-126 -23q-91 0 -145.5 35zM321.5 237.5q31.5 33.5 31.5 86.5q0 54 -31 86.5t-77 32.5t-77.5 -32.5t-31.5 -86.5q0 -53 31.5 -86.5t77.5 -33.5 q45 0 76.5 33.5zM339.5 -159.5q36.5 14.5 56.5 39t20 51.5q0 34 -25 48.5t-76 14.5h-89q-31 0 -62 8q-53 -37 -53 -87q0 -41 39 -65t107 -24q46 0 82.5 14.5z" glyph-name="g" horiz-adv-x="500" unicode="g"/>
<glyph d="M85 714h72v-198l-2 -102q40 40 78 61.5t84 21.5q76 0 112 -47.5t36 -141.5v-308h-73v299q0 70 -22.5 102t-73.5 32q-36 0 -67 -18.5t-72 -59.5v-355h-72v714z" glyph-name="h" horiz-adv-x="540" unicode="h"/>
<glyph d="M85 485h72v-485h-72v485zM86 603q-14 14 -14 37q0 22 14 35.5t36 13.5t36 -13.5t14 -35.5q0 -23 -14 -37t-36 -14t-36 14z" glyph-name="i" horiz-adv-x="242" unicode="i"/>
<glyph d="M86 603q-14 14 -14 37q0 22 14 35.5t36 13.5t36 -13.5t14 -35.5q0 -23 -14 -37t-36 -14t-36 14zM88 485h72v-549q0 -76 -30.5 -116t-96.5 -40q-37 0 -69 12l15 56q24 -8 47 -8q35 0 48 24t13 73z" glyph-name="j" horiz-adv-x="242" unicode="j"/>
<glyph d="M85 714h71v-494h3l215 265h81l-162 -194l184 -291h-79l-147 240l-95 -112v-128h-71v714z" glyph-name="k" horiz-adv-x="487" unicode="k"/>
<glyph d="M104 13.5q-19 25.5 -19 75.5v625h72v-631q0 -17 6.5 -25.5t16.5 -8.5q8 0 18 2l10 -56q-19 -7 -44 -7q-41 0 -60 25.5z" glyph-name="l" horiz-adv-x="250" unicode="l"/>
<glyph d="M85 485h60l6 -72h3q77 84 151 84q103 0 134 -94q42 46 81 70t80 24q147 0 147 -189v-308h-73v299q0 70 -23 102t-72 32q-57 0 -127 -78v-355h-73v299q0 69 -23 101.5t-71 32.5q-57 0 -128 -78v-355h-72v485z" glyph-name="m" horiz-adv-x="825" unicode="m"/>
<glyph d="M85 485h60l6 -72h3q40 40 78.5 62t84.5 22q76 0 112 -47.5t36 -141.5v-308h-73v299q0 70 -22.5 102t-73.5 32q-36 0 -67 -18.5t-72 -59.5v-355h-72v485z" glyph-name="n" horiz-adv-x="543" unicode="n"/>
<glyph d="M159 18.5q-51 30.5 -81.5 88t-30.5 135.5t30.5 136t81.5 88.5t111 30.5t111 -30.5t81.5 -88.5t30.5 -136t-30.5 -135.5t-81.5 -88t-111 -30.5t-111 30.5zM346.5 73q33.5 24 52.5 68t19 101t-19 101t-52.5 68.5t-76.5 24.5t-76.5 -24.5t-52 -68.5t-18.5 -101 q0 -87 41 -140t106 -53q43 0 76.5 24z" glyph-name="o" horiz-adv-x="540" unicode="o"/>
<glyph d="M85 485h60l6 -58h3q85 70 157 70q93 0 142.5 -66.5t49.5 -180.5q0 -80 -29 -139.5t-77 -91t-104 -31.5q-65 0 -138 57l2 -86v-167h-72v693zM356.5 74.5q33.5 24.5 52.5 69.5t19 105q0 87 -32.5 136.5t-101.5 49.5q-61 0 -137 -70v-262q33 -28 65 -40.5t59 -12.5 q42 0 75.5 24.5z" glyph-name="p" horiz-adv-x="552" unicode="p"/>
<glyph d="M395 -32l3 90q-72 -70 -150 -70q-92 0 -145.5 67t-53.5 187q0 76 29 134t77.5 89.5t104.5 31.5q40 0 72.5 -14.5t66.5 -43.5h3l7 46h58v-693h-72v176zM330.5 67q31.5 17 64.5 52v263q-32 28 -62 40.5t-62 12.5q-41 0 -74.5 -25t-53 -69t-19.5 -99q0 -90 36.5 -141 t103.5 -51q35 0 66.5 17z" glyph-name="q" horiz-adv-x="552" unicode="q"/>
<glyph d="M85 485h60l6 -89h3q25 47 61 74t77 27q29 0 50 -10l-14 -64q-26 8 -46 8q-34 0 -67.5 -28t-57.5 -87v-316h-72v485z" glyph-name="r" horiz-adv-x="340" unicode="r"/>
<glyph d="M112 6.5q-47 18.5 -83 48.5l37 49q36 -29 70 -44t76 -15q48 0 74 23t26 58t-29.5 56t-83.5 40q-69 25 -108 54.5t-39 84.5q0 59 44.5 97.5t120.5 38.5q41 0 79 -15t68 -39l-35 -47q-29 21 -55 32t-57 11q-46 0 -70 -21.5t-24 -52.5q0 -22 14.5 -38t35.5 -25.5t59 -24.5 q51 -19 80 -34t50 -42.5t21 -70.5q0 -39 -20.5 -71.5t-60 -51.5t-93.5 -19q-50 0 -97 18.5z" glyph-name="s" horiz-adv-x="416" unicode="s"/>
<glyph d="M129 29q-31 41 -31 117v279h-73v55l76 5l9 137h61v-137h133v-60h-133v-281q0 -48 17.5 -72t59.5 -24q21 0 56 13l15 -55q-54 -18 -87 -18q-72 0 -103 41z" glyph-name="t" horiz-adv-x="331" unicode="t"/>
<glyph d="M114 35.5q-36 47.5 -36 141.5v308h72v-299q0 -70 23 -102.5t74 -32.5q37 0 67.5 20t68.5 66v348h73v-485h-61l-6 77h-3q-37 -43 -75.5 -66t-85.5 -23q-75 0 -111 47.5z" glyph-name="u" horiz-adv-x="540" unicode="u"/>
<glyph d="M12 485h75l96 -283l46 -142h4l46 142l96 283h72l-174 -485h-84z" glyph-name="v" horiz-adv-x="459" unicode="v"/>
<glyph d="M24 485h75l76 -289l9 -43q14 -60 20 -91h4q19 78 34 134l78 289h73l79 -289l34 -134h4l32 134l74 289h70l-132 -485h-90l-74 271l-19 79q-2 8 -14 60h-4q-22 -99 -35 -141l-72 -269h-85z" glyph-name="w" horiz-adv-x="710" unicode="w"/>
<glyph d="M174 253l-148 232h79l68 -111q32 -54 49 -80h4l45 80l63 111h76l-147 -239l159 -246h-79l-75 118q-30 52 -53 87h-4q-16 -26 -34 -58l-17 -29l-70 -118h-76z" glyph-name="x" horiz-adv-x="436" unicode="x"/>
<glyph d="M31 -202l14 59q20 -8 38 -8q40 0 68 30t45 81l12 37l-196 488h75l104 -278l48 -136h4q14 42 29 92l13 44l91 278h71l-184 -530q-28 -78 -69.5 -122.5t-107.5 -44.5q-30 0 -55 10z" glyph-name="y" horiz-adv-x="459" unicode="y"/>
<glyph d="M30 39l263 386h-234v60h326v-39l-263 -386h272v-60h-364v39z" glyph-name="z" horiz-adv-x="419" unicode="z"/>
<glyph d="M139 -123.5q-27 28.5 -27 103.5q0 38 4 102q4 60 4 94t-19.5 56t-66.5 23v46q47 1 66.5 23t19.5 55q0 34 -4 96q-4 64 -4 101q0 75 27 103.5t88 28.5h42v-42h-27q-41 0 -56 -22t-15 -73q0 -42 3 -86q0 -13 1.5 -43t1.5 -55q0 -48 -13 -73t-45 -34v-4q31 -9 44.5 -34.5 t13.5 -72.5q0 -25 -1.5 -55t-1.5 -43q-3 -43 -3 -86q0 -51 15 -73t56 -22h27v-42h-42q-61 0 -88 28.5z" glyph-name="braceleft" horiz-adv-x="297" unicode="{"/>
<glyph d="M92 750h53v-1000h-53v1000z" glyph-name="bar" horiz-adv-x="237" unicode="|"/>
<glyph d="M28 -110h27q41 0 56 22t15 73q0 43 -3 86q0 13 -1.5 43t-1.5 55q0 47 13.5 72.5t44.5 34.5v4q-31 9 -44.5 34t-13.5 73q0 25 1.5 55t1.5 43q3 44 3 86q0 51 -15 73t-56 22h-27v42h42q61 0 88 -28.5t27 -103.5q0 -37 -4 -101q-4 -62 -4 -96q0 -33 19.5 -55t66.5 -23v-46 q-47 -1 -66.5 -23t-19.5 -56t4 -94q4 -64 4 -102q0 -75 -27 -103.5t-88 -28.5h-42v42z" glyph-name="braceright" horiz-adv-x="297" unicode="}"/>
<glyph d="M283 271.5q-23 12.5 -52 35.5q-23 19 -40 28.5t-35 9.5q-44 0 -77 -61l-42 28q25 45 56.5 67t64.5 22q28 0 50.5 -12t53.5 -36q24 -19 40.5 -28.5t33.5 -9.5q46 0 77 61l42 -30q-25 -44 -56.5 -65.5t-64.5 -21.5q-28 0 -51 12.5z" glyph-name="asciitilde" unicode="~"/>
<glyph glyph-name="uni00A0" horiz-adv-x="202" unicode=" "/>
<glyph d="M102 396.5q-16 16.5 -16 42.5q0 25 16 41.5t39 16.5t39 -16.5t16 -41.5q0 -26 -16 -42.5t-39 -16.5t-39 16.5zM106 -98l10 389h50l10 -389l2 -87h-74z" glyph-name="exclamdown" horiz-adv-x="282" unicode="¡"/>
<glyph d="M383.5 91.5q-36.5 -16.5 -75.5 -18.5v-104h-48v105q-91 10 -145 72t-54 164q0 100 55.5 161.5t143.5 73.5v108h48v-105q75 -4 131 -58l-36 -46q-45 40 -95 43v-354q57 4 109 49l33 -47q-30 -27 -66.5 -43.5zM167.5 194.5q33.5 -45.5 92.5 -57.5v346q-58 -13 -92 -59 t-34 -114q0 -70 33.5 -115.5z" glyph-name="cent" unicode="¢"/>
<glyph d="M447 63v-63h-393v44q51 28 78.5 77t27.5 107q0 26 -7 59h-100v48l67 3h19q-2 8 -10.5 36t-13 52t-4.5 44q0 83 50 131.5t132 48.5q92 0 152 -74l-43 -42q-45 55 -105 55q-54 0 -84 -33t-30 -88q0 -25 5.5 -50t15.5 -60q1 -5 5 -20h160v-51h-149q6 -28 6 -60 q0 -53 -15.5 -90t-48.5 -70v-4h285z" glyph-name="sterling" unicode="£"/>
<glyph d="M28 146l64 66q-37 50 -37 117t36 118l-63 66l39 41l67 -69q23 19 52 29t60 10t60 -10t52 -29l67 69l40 -41l-65 -66q37 -50 37 -118q0 -67 -37 -117l65 -66l-40 -41l-67 69q-23 -19 -52 -29t-60 -10q-62 0 -112 39l-67 -69zM333 229q36 39 36 100q0 40 -16.5 72t-45 50 t-61.5 18t-61.5 -18t-45 -50t-16.5 -72q0 -61 36 -100t87 -39t87 39z" glyph-name="currency" unicode="¤"/>
<glyph d="M209 160h-162v44h162v67h-162v43h143l-165 324h76l82 -177l62 -135h4q9 18 15.5 32.5t11.5 25.5q24 53 36 77l82 177h74l-167 -324h145v-43h-164v-67h164v-44h-164v-160h-73v160z" glyph-name="yen" unicode="¥"/>
<glyph d="M145 585v-468v-196h-53v459v205h53z" glyph-name="brokenbar" horiz-adv-x="237" unicode="¦"/>
<glyph d="M424 209q-22 -30 -63 -54q30 -35 30 -82q0 -58 -44 -96t-112 -38q-52 0 -95.5 18t-74.5 51l45 41q26 -26 56 -39.5t69 -13.5q41 0 65 21t24 52q0 36 -28.5 57.5t-87.5 46.5q-52 22 -84 41t-54.5 51.5t-22.5 79.5q0 42 23 75t63 55q-32 34 -32 82q0 52 38.5 89.5 t108.5 37.5q81 0 151 -57l-36 -47q-27 22 -53.5 34t-58.5 12q-42 0 -62.5 -19t-20.5 -47q0 -33 27.5 -54t86.5 -47q53 -23 85.5 -42.5t55.5 -52t23 -80.5q0 -45 -22 -75zM366.5 225.5q15.5 19.5 15.5 52.5q0 32 -17.5 55t-43.5 37.5t-71 34.5q-54 24 -74 36 q-32 -17 -48.5 -38.5t-16.5 -52.5t17.5 -53t43 -36.5t69.5 -33.5q50 -21 76 -37q34 16 49.5 35.5z" glyph-name="section" unicode="§"/>
<glyph d="M142.5 603q-13.5 13 -13.5 33t13.5 33.5t33.5 13.5t33 -13.5t13 -33.5q0 -19 -13.5 -32.5t-32.5 -13.5q-20 0 -33.5 13zM331.5 603.5q-13.5 13.5 -13.5 32.5q0 20 13 33.5t33 13.5t33.5 -13.5t13.5 -33.5t-13.5 -33t-33.5 -13q-19 0 -32.5 13.5z" glyph-name="dieresis" horiz-adv-x="540" unicode="¨"/>
<glyph d="M211 30.5q-74 41.5 -117.5 117.5t-43.5 175t43.5 174t117 115.5t161.5 40.5q87 0 161 -41t117.5 -116t43.5 -173q0 -99 -43.5 -175t-117.5 -117.5t-161 -41.5t-161 41.5zM511.5 65q63.5 37 101 104.5t37.5 153.5t-37.5 152.5t-101 103t-139.5 36.5t-140 -36.5 t-101.5 -103t-37.5 -152.5t37.5 -153.5t101.5 -104.5t140 -37t139.5 37zM288 149q-41 24 -65 68.5t-24 105.5q0 56 25.5 99t67 66t90.5 23q39 0 68 -14.5t56 -41.5l-32 -36q-22 22 -42.5 32t-46.5 10q-56 0 -91 -38.5t-35 -99.5q0 -68 33.5 -107.5t88.5 -39.5q31 0 56 11.5 t50 33.5l27 -39q-31 -28 -62 -42.5t-73 -14.5q-50 0 -91 24z" glyph-name="copyright" horiz-adv-x="744" unicode="©"/>
<glyph d="M65.5 414.5q-26.5 25.5 -26.5 68.5q0 52 47.5 80t152.5 39q-1 37 -15.5 57.5t-48.5 20.5q-25 0 -52.5 -10.5t-50.5 -24.5l-21 39q71 42 132 42q111 0 111 -131v-198h-44l-7 38h-4q-52 -46 -103 -46q-44 0 -70.5 25.5zM239 477v89q-78 -9 -111.5 -28.5t-33.5 -50.5 q0 -52 59 -52q43 0 86 42z" glyph-name="ordfeminine" horiz-adv-x="343" unicode="ª"/>
<glyph d="M44 224v56l137 157l33 -28l-119 -157l119 -158l-33 -27zM198 224v56l137 157l33 -28l-119 -157l119 -158l-33 -27z" glyph-name="guillemotleft" horiz-adv-x="422" unicode="«"/>
<glyph d="M399 302h-365v56h424v-253h-59v197z" glyph-name="logicalnot" unicode="¬"/>
<glyph d="M41 279h227v-57h-227v57z" glyph-name="uni00AD" horiz-adv-x="308" unicode="­"/>
<glyph d="M115 345.5q-43 24.5 -68 69t-25 101.5t25 102t68 70t94 25t93.5 -25t67.5 -70t25 -102t-25 -101.5t-67.5 -69t-93.5 -24.5t-94 24.5zM285 375.5q34 20.5 53.5 57t19.5 83.5t-19.5 84t-53.5 58t-76 21t-76 -21t-53.5 -58t-19.5 -84t19.5 -83.5t53.5 -57t76 -20.5t76 20.5z M137 621h75q34 0 55.5 -15t21.5 -49q0 -19 -10.5 -34.5t-27.5 -21.5l47 -84h-43l-37 72h-42v-72h-39v204zM202 520q22 0 34 8.5t12 25.5q0 35 -43 35h-29v-69h26z" glyph-name="registered" horiz-adv-x="418" unicode="®"/>
<glyph d="M140 654h260v-52h-260v52z" glyph-name="macron" horiz-adv-x="540" unicode="¯"/>
<glyph d="M76.5 468.5q-35.5 34.5 -35.5 89.5q0 57 35.5 92t86.5 35t87 -35t36 -92q0 -55 -36 -89.5t-87 -34.5t-86.5 34.5zM218.5 499.5q21.5 23.5 21.5 58.5q0 37 -21.5 60.5t-55.5 23.5t-55 -23.5t-21 -60.5q0 -36 21.5 -59t54.5 -23q34 0 55.5 23.5z" glyph-name="degree" horiz-adv-x="326" unicode="°"/>
<glyph d="M216 305h-182v56h182v194h60v-194h182v-56h-182v-183h-60v183zM34 56h424v-56h-424v56z" glyph-name="plusminus" unicode="±"/>
<glyph d="M214 610l140 164l52 -48l-154 -153z" glyph-name="acute" horiz-adv-x="540" unicode="´"/>
<glyph d="M109 284q-68 53 -68 161q0 110 64.5 161t174.5 51h44v-426h-32q-115 0 -183 53zM378 657h74v-737h-74v737z" glyph-name="paragraph" horiz-adv-x="548" unicode="¶"/>
<glyph d="M82 280.5q-16 16.5 -16 41.5q0 26 16 42.5t39 16.5t39 -16.5t16 -42.5q0 -25 -16 -41.5t-39 -16.5t-39 16.5z" glyph-name="periodcentered" horiz-adv-x="242" unicode="·"/>
<glyph d="M178 -186q61 4 85.5 15.5t24.5 34.5q0 20 -18 31t-60 17l43 91h49l-29 -67q36 -9 54 -25.5t18 -45.5q0 -81 -159 -89z" glyph-name="cedilla" horiz-adv-x="540" unicode="¸"/>
<glyph d="M105.5 409.5q-34.5 20.5 -55 59t-20.5 89.5q0 52 20.5 90t54.5 58t76 20t76 -20t54.5 -58t20.5 -90q0 -51 -20.5 -89.5t-55 -59t-75.5 -20.5t-75.5 20.5zM249 469.5q25 33.5 25 88.5t-25 88.5t-68 33.5t-68 -33.5t-25 -88.5t25.5 -88.5t67.5 -33.5q43 0 68 33.5z" glyph-name="ordmasculine" horiz-adv-x="363" unicode="º"/>
<glyph d="M54 94l119 158l-119 157l33 28l136 -157v-56l-136 -157zM208 94l119 158l-119 157l33 28l136 -157v-56l-136 -157z" glyph-name="guillemotright" horiz-adv-x="422" unicode="»"/>
<glyph d="M159 279v312h-84v38q31 6 52.5 15.5t41.5 24.5h48v-390h-58zM600 669l-363 -681h-51l363 681h51zM754 107h-58v-107h-53v107h-177v29l167 254h63v-241h58v-42zM643 149v75l5 107h-4l-52 -82l-65 -100h116z" glyph-name="onequarter" horiz-adv-x="789" unicode="¼"/>
<glyph d="M159 591h-84v38q31 6 52.5 15.5t41.5 24.5h48v-390h-58v312zM532 669h51l-363 -681h-51zM490 34q104 94 145.5 143t41.5 91q0 39 -21 62t-57 23q-24 0 -46 -16t-40 -42l-35 32q23 34 56.5 54.5t71.5 20.5q59 0 93.5 -32.5t34.5 -93.5q0 -36 -18.5 -70t-46 -65t-86.5 -92 h171v-49h-264v34z" glyph-name="onehalf" horiz-adv-x="803" unicode="½"/>
<glyph d="M277 298.5q-39 -31.5 -97 -31.5q-45 0 -82.5 21t-60.5 55l39 30q19 -28 45 -44t56 -16q34 0 57.5 20t23.5 53q0 35 -32.5 53.5t-92.5 18.5v38q51 0 80.5 21t29.5 53q0 29 -20 47t-54 18q-21 0 -42 -13.5t-39 -35.5l-35 31q54 64 124 64q52 0 88 -28.5t36 -75.5 q0 -34 -19 -58.5t-52 -38.5q37 -9 61.5 -34t24.5 -63q0 -53 -39 -84.5zM635 669l-363 -681h-51l363 681h51zM768 107h-58v-107h-53v107h-177v29l167 254h63v-241h58v-42zM657 149v75l5 107h-4l-52 -82l-65 -100h116z" glyph-name="threequarters" horiz-adv-x="803" unicode="¾"/>
<glyph d="M185 396.5q-16 16.5 -16 42.5q0 25 16 41.5t39 16.5t39 -16.5t16 -41.5q0 -26 -16 -42.5t-39 -16.5t-39 16.5zM93 -154q-45 43 -45 114q0 42 18 75t55 79t55.5 79.5t18.5 76.5q0 14 -1 21h65q2 -20 2 -28q0 -49 -20 -87t-58 -83q-32 -41 -47.5 -68.5t-15.5 -59.5 q0 -44 26 -72.5t75 -28.5q33 0 63.5 15.5t54.5 42.5l42 -38q-72 -81 -168 -81q-75 0 -120 43z" glyph-name="questiondown" horiz-adv-x="419" unicode="¿"/>
<glyph d="M391 207h-245l-67 -207h-75l225 657h82l224 -657h-78zM372 266l-34 106q-40 125 -68 223h-4q-33 -121 -67 -223l-34 -106h207zM139 814l42 49l137 -127l-32 -37z" glyph-name="Agrave" horiz-adv-x="539" unicode="À"/>
<glyph d="M391 207h-245l-67 -207h-75l225 657h82l224 -657h-78zM372 266l-34 106q-40 125 -68 223h-4q-33 -121 -67 -223l-34 -106h207zM218 736l137 127l42 -49l-147 -115z" glyph-name="Aacute" horiz-adv-x="539" unicode="Á"/>
<glyph d="M391 207h-245l-67 -207h-75l225 657h82l224 -657h-78zM372 266l-34 106q-40 125 -68 223h-4q-33 -121 -67 -223l-34 -106h207zM124 725l106 113h76l106 -113l-32 -24l-110 94h-4l-110 -94z" glyph-name="Acircumflex" horiz-adv-x="539" unicode="Â"/>
<glyph d="M391 207h-245l-67 -207h-75l225 657h82l224 -657h-78zM372 266l-34 106q-40 125 -68 223h-4q-33 -121 -67 -223l-34 -106h207zM295.5 722q-20.5 11 -43.5 31q-17 16 -30 23.5t-28 7.5q-20 0 -33.5 -18t-16.5 -50l-50 3q2 55 28.5 87.5t69.5 32.5q28 0 48.5 -11t43.5 -31 q17 -16 30 -23.5t28 -7.5q20 0 33 18t17 51l50 -4q-2 -55 -28.5 -87.5t-69.5 -32.5q-28 0 -48.5 11z" glyph-name="Atilde" horiz-adv-x="539" unicode="Ã"/>
<glyph d="M391 207h-245l-67 -207h-75l225 657h82l224 -657h-78zM372 266l-34 106q-40 125 -68 223h-4q-33 -121 -67 -223l-34 -106h207zM134 730.5q-13 12.5 -13 33.5q0 20 13 32.5t33 12.5t32.5 -12.5t12.5 -32.5q0 -21 -12.5 -33.5t-32.5 -12.5t-33 12.5zM336.5 730.5 q-12.5 12.5 -12.5 33.5q0 20 12.5 32.5t32.5 12.5t33 -12.5t13 -32.5q0 -21 -13 -33.5t-33 -12.5t-32.5 12.5z" glyph-name="Adieresis" horiz-adv-x="539" unicode="Ä"/>
<glyph d="M391 207h-245l-67 -207h-75l225 657h82l224 -657h-78zM372 266l-34 106q-40 125 -68 223h-4q-33 -121 -67 -223l-34 -106h207zM199.5 724q-26.5 25 -26.5 64q0 41 26.5 65.5t68.5 24.5q41 0 68 -25t27 -65q0 -39 -27.5 -64t-67.5 -25q-42 0 -68.5 25zM305 747.5 q15 14.5 15 40.5q0 25 -15 40.5t-37 15.5q-23 0 -38 -15t-15 -41t15 -40.5t38 -14.5q22 0 37 14.5z" glyph-name="Aring" horiz-adv-x="539" unicode="Å"/>
<glyph d="M771 63v-63h-367v198h-211l-104 -198h-77l349 657h400v-63h-283v-217h235v-62h-235v-252h293zM404 257v341h-4l-45 -88l-67 -131l-64 -122h180z" glyph-name="AE" horiz-adv-x="819" unicode="Æ"/>
<glyph d="M189.5 29q-64.5 41 -101 118t-36.5 181q0 103 37 180.5t103 119t149 41.5q55 0 101 -23t77 -57l-41 -49q-57 64 -136 64q-64 0 -112 -33.5t-74.5 -95t-26.5 -145.5t25.5 -146.5t73 -96.5t111.5 -34q46 0 83.5 19t72.5 57l41 -46q-40 -47 -89 -71t-111 -24 q-82 0 -146.5 41z" glyph-name="Ccedilla" horiz-adv-x="569" unicode="Ç"/>
<glyph d="M92 657h373v-63h-299v-217h252v-62h-252v-252h309v-63h-383v657zM155 814l42 49l137 -127l-32 -37z" glyph-name="Egrave" horiz-adv-x="524" unicode="È"/>
<glyph d="M92 657h373v-63h-299v-217h252v-62h-252v-252h309v-63h-383v657zM234 736l137 127l42 -49l-147 -115z" glyph-name="Eacute" horiz-adv-x="524" unicode="É"/>
<glyph d="M92 657h373v-63h-299v-217h252v-62h-252v-252h309v-63h-383v657zM140 725l106 113h76l106 -113l-32 -24l-110 94h-4l-110 -94z" glyph-name="Ecircumflex" horiz-adv-x="524" unicode="Ê"/>
<glyph d="M92 657h373v-63h-299v-217h252v-62h-252v-252h309v-63h-383v657zM150 730.5q-13 12.5 -13 33.5q0 20 13 32.5t33 12.5t32.5 -12.5t12.5 -32.5q0 -21 -12.5 -33.5t-32.5 -12.5t-33 12.5zM352.5 730.5q-12.5 12.5 -12.5 33.5q0 20 12.5 32.5t32.5 12.5t33 -12.5t13 -32.5 q0 -21 -13 -33.5t-33 -12.5t-32.5 12.5z" glyph-name="Edieresis" horiz-adv-x="524" unicode="Ë"/>
<glyph d="M92 657h74v-657h-74v657zM0 814l42 49l137 -127l-32 -37z" glyph-name="Igrave" horiz-adv-x="257" unicode="Ì"/>
<glyph d="M92 657h74v-657h-74v657zM79 736l137 127l42 -49l-147 -115z" glyph-name="Iacute" horiz-adv-x="257" unicode="Í"/>
<glyph d="M92 657h74v-657h-74v657zM-15 725l106 113h76l106 -113l-32 -24l-110 94h-4l-110 -94z" glyph-name="Icircumflex" horiz-adv-x="257" unicode="Î"/>
<glyph d="M92 657h74v-657h-74v657zM-5 730.5q-13 12.5 -13 33.5q0 20 13 32.5t33 12.5t32.5 -12.5t12.5 -32.5q0 -21 -12.5 -33.5t-32.5 -12.5t-33 12.5zM197.5 730.5q-12.5 12.5 -12.5 33.5q0 20 12.5 32.5t32.5 12.5t33 -12.5t13 -32.5q0 -21 -13 -33.5t-33 -12.5t-32.5 12.5z " glyph-name="Idieresis" horiz-adv-x="257" unicode="Ï"/>
<glyph d="M503.5 572q78.5 -85 78.5 -241t-78.5 -243.5t-225.5 -87.5h-164v323h-80v41l80 3v290h161q150 0 228.5 -85zM446.5 131.5q59.5 70.5 59.5 199.5q0 127 -59.5 196t-177.5 69h-81v-229h152v-44h-152v-262h81q118 0 177.5 70.5z" glyph-name="Eth" horiz-adv-x="634" unicode="Ð"/>
<glyph d="M92 657h76l248 -426l72 -135h4l-3 44q-1 16 -4 67.5t-3 93.5v356h70v-657h-76l-248 426l-72 135h-4l3 -48q7 -87 7 -153v-360h-70v657zM353.5 722q-20.5 11 -43.5 31q-17 16 -30 23.5t-28 7.5q-20 0 -33.5 -18t-16.5 -50l-50 3q2 55 28.5 87.5t69.5 32.5q28 0 48.5 -11 t43.5 -31q17 -16 30 -23.5t28 -7.5q20 0 33 18t17 51l50 -4q-2 -55 -28.5 -87.5t-69.5 -32.5q-28 0 -48.5 11z" glyph-name="Ntilde" horiz-adv-x="644" unicode="Ñ"/>
<glyph d="M186 30q-63 42 -98.5 120t-35.5 181t35.5 179.5t98.5 117.5t145 41q81 0 144 -41t98.5 -117.5t35.5 -179.5t-35.5 -181t-98.5 -120t-144 -42q-82 0 -145 42zM436.5 87.5q45.5 34.5 70.5 97t25 146.5q0 83 -25 144.5t-70.5 95t-105.5 33.5q-61 0 -106.5 -33.5t-70.5 -95 t-25 -144.5q0 -84 25 -147t71 -97t106 -34t105.5 34.5zM202 814l42 49l137 -127l-32 -37z" glyph-name="Ograve" horiz-adv-x="661" unicode="Ò"/>
<glyph d="M186 30q-63 42 -98.5 120t-35.5 181t35.5 179.5t98.5 117.5t145 41q81 0 144 -41t98.5 -117.5t35.5 -179.5t-35.5 -181t-98.5 -120t-144 -42q-82 0 -145 42zM436.5 87.5q45.5 34.5 70.5 97t25 146.5q0 83 -25 144.5t-70.5 95t-105.5 33.5q-61 0 -106.5 -33.5t-70.5 -95 t-25 -144.5q0 -84 25 -147t71 -97t106 -34t105.5 34.5zM281 736l137 127l42 -49l-147 -115z" glyph-name="Oacute" horiz-adv-x="661" unicode="Ó"/>
<glyph d="M186 30q-63 42 -98.5 120t-35.5 181t35.5 179.5t98.5 117.5t145 41q81 0 144 -41t98.5 -117.5t35.5 -179.5t-35.5 -181t-98.5 -120t-144 -42q-82 0 -145 42zM436.5 87.5q45.5 34.5 70.5 97t25 146.5q0 83 -25 144.5t-70.5 95t-105.5 33.5q-61 0 -106.5 -33.5t-70.5 -95 t-25 -144.5q0 -84 25 -147t71 -97t106 -34t105.5 34.5zM187 725l106 113h76l106 -113l-32 -24l-110 94h-4l-110 -94z" glyph-name="Ocircumflex" horiz-adv-x="661" unicode="Ô"/>
<glyph d="M186 30q-63 42 -98.5 120t-35.5 181t35.5 179.5t98.5 117.5t145 41q81 0 144 -41t98.5 -117.5t35.5 -179.5t-35.5 -181t-98.5 -120t-144 -42q-82 0 -145 42zM436.5 87.5q45.5 34.5 70.5 97t25 146.5q0 83 -25 144.5t-70.5 95t-105.5 33.5q-61 0 -106.5 -33.5t-70.5 -95 t-25 -144.5q0 -84 25 -147t71 -97t106 -34t105.5 34.5zM358.5 722q-20.5 11 -43.5 31q-17 16 -30 23.5t-28 7.5q-20 0 -33.5 -18t-16.5 -50l-50 3q2 55 28.5 87.5t69.5 32.5q28 0 48.5 -11t43.5 -31q17 -16 30 -23.5t28 -7.5q20 0 33 18t17 51l50 -4q-2 -55 -28.5 -87.5 t-69.5 -32.5q-28 0 -48.5 11z" glyph-name="Otilde" horiz-adv-x="661" unicode="Õ"/>
<glyph d="M186 30q-63 42 -98.5 120t-35.5 181t35.5 179.5t98.5 117.5t145 41q81 0 144 -41t98.5 -117.5t35.5 -179.5t-35.5 -181t-98.5 -120t-144 -42q-82 0 -145 42zM436.5 87.5q45.5 34.5 70.5 97t25 146.5q0 83 -25 144.5t-70.5 95t-105.5 33.5q-61 0 -106.5 -33.5t-70.5 -95 t-25 -144.5q0 -84 25 -147t71 -97t106 -34t105.5 34.5zM197 730.5q-13 12.5 -13 33.5q0 20 13 32.5t33 12.5t32.5 -12.5t12.5 -32.5q0 -21 -12.5 -33.5t-32.5 -12.5t-33 12.5zM399.5 730.5q-12.5 12.5 -12.5 33.5q0 20 12.5 32.5t32.5 12.5t33 -12.5t13 -32.5 q0 -21 -13 -33.5t-33 -12.5t-32.5 12.5z" glyph-name="Odieresis" horiz-adv-x="661" unicode="Ö"/>
<glyph d="M51 169l156 161l-156 160l39 41l156 -162l156 162l40 -41l-156 -160l156 -161l-40 -41l-156 162l-156 -162z" glyph-name="multiply" unicode="×"/>
<glyph d="M545 564q33 -43 50 -102.5t17 -130.5q0 -103 -35.5 -181t-98.5 -120t-144 -42q-104 0 -177 68l-64 -84l-42 32l70 92q-66 93 -66 235q0 103 35.5 179.5t98.5 117.5t145 41q104 0 175 -65l62 81l42 -32zM169 158l297 389q-52 57 -132 57q-61 0 -106.5 -33.5t-70.5 -95 t-25 -144.5q0 -102 37 -173zM498 502l-298 -390q53 -59 134 -59q60 0 105.5 34.5t70.5 97t25 146.5q0 102 -37 171z" glyph-name="Oslash" horiz-adv-x="661" unicode="Ø"/>
<glyph d="M152 53.5q-63 65.5 -63 212.5v391h74v-391q0 -114 43 -163.5t115 -49.5q74 0 118 49.5t44 163.5v391h71v-391q0 -147 -63.5 -212.5t-169.5 -65.5t-169 65.5zM192 814l42 49l137 -127l-32 -37z" glyph-name="Ugrave" horiz-adv-x="643" unicode="Ù"/>
<glyph d="M152 53.5q-63 65.5 -63 212.5v391h74v-391q0 -114 43 -163.5t115 -49.5q74 0 118 49.5t44 163.5v391h71v-391q0 -147 -63.5 -212.5t-169.5 -65.5t-169 65.5zM271 736l137 127l42 -49l-147 -115z" glyph-name="Uacute" horiz-adv-x="643" unicode="Ú"/>
<glyph d="M152 53.5q-63 65.5 -63 212.5v391h74v-391q0 -114 43 -163.5t115 -49.5q74 0 118 49.5t44 163.5v391h71v-391q0 -147 -63.5 -212.5t-169.5 -65.5t-169 65.5zM177 725l106 113h76l106 -113l-32 -24l-110 94h-4l-110 -94z" glyph-name="Ucircumflex" horiz-adv-x="643" unicode="Û"/>
<glyph d="M152 53.5q-63 65.5 -63 212.5v391h74v-391q0 -114 43 -163.5t115 -49.5q74 0 118 49.5t44 163.5v391h71v-391q0 -147 -63.5 -212.5t-169.5 -65.5t-169 65.5zM187 730.5q-13 12.5 -13 33.5q0 20 13 32.5t33 12.5t32.5 -12.5t12.5 -32.5q0 -21 -12.5 -33.5t-32.5 -12.5 t-33 12.5zM389.5 730.5q-12.5 12.5 -12.5 33.5q0 20 12.5 32.5t32.5 12.5t33 -12.5t13 -32.5q0 -21 -13 -33.5t-33 -12.5t-32.5 12.5z" glyph-name="Udieresis" horiz-adv-x="643" unicode="Ü"/>
<glyph d="M197 258l-197 399h79l88 -191l17 -37q40 -87 49 -105h4l17 35q42 88 50 107l88 191h77l-198 -399v-258h-74v258zM184 736l137 127l42 -49l-147 -115z" glyph-name="Yacute" horiz-adv-x="468" unicode="Ý"/>
<glyph d="M92 657h74v-112h122q115 0 177.5 -44.5t62.5 -146.5q0 -99 -64 -149.5t-176 -50.5h-122v-154h-74v657zM277 214q91 0 134 34t43 106t-42.5 101t-134.5 29h-111v-270h111z" glyph-name="Thorn" horiz-adv-x="578" unicode="Þ"/>
<glyph d="M242 38l30 51q28 -22 53.5 -33t54.5 -11q42 0 65.5 25t23.5 60q0 28 -13 47t-31 31.5t-51 30.5q-34 18 -55 32.5t-35.5 37.5t-14.5 57q0 31 12 54.5t35 53.5q22 29 33 50.5t11 49.5q0 40 -22.5 65t-64.5 25q-55 0 -85.5 -40.5t-30.5 -119.5v-504h-72v519q0 94 50 149.5 t139 55.5q73 0 115 -41t42 -102q0 -37 -13.5 -63.5t-38.5 -58.5q-21 -25 -31 -44t-10 -41q0 -29 19.5 -46.5t62.5 -40.5q38 -20 61.5 -36.5t40 -45t16.5 -71.5q0 -63 -43 -104.5t-113 -41.5q-75 0 -140 50z" glyph-name="germandbls" horiz-adv-x="567" unicode="ß"/>
<glyph d="M93 24q-40 36 -40 101q0 79 72 121.5t230 59.5q0 57 -23.5 93.5t-80.5 36.5q-69 0 -147 -53l-29 50q96 64 188 64q84 0 124 -52.5t40 -144.5v-300h-60l-6 59h-3q-86 -71 -163 -71q-62 0 -102 36zM282.5 63.5q33.5 16.5 72.5 51.5v142q-125 -15 -177.5 -46t-52.5 -82 q0 -41 25 -61.5t64 -20.5q35 0 68.5 16.5zM133 726l52 48l140 -164l-38 -37z" glyph-name="agrave" horiz-adv-x="501" unicode="à"/>
<glyph d="M93 24q-40 36 -40 101q0 79 72 121.5t230 59.5q0 57 -23.5 93.5t-80.5 36.5q-69 0 -147 -53l-29 50q96 64 188 64q84 0 124 -52.5t40 -144.5v-300h-60l-6 59h-3q-86 -71 -163 -71q-62 0 -102 36zM282.5 63.5q33.5 16.5 72.5 51.5v142q-125 -15 -177.5 -46t-52.5 -82 q0 -41 25 -61.5t64 -20.5q35 0 68.5 16.5zM213 610l140 164l52 -48l-154 -153z" glyph-name="aacute" horiz-adv-x="501" unicode="á"/>
<glyph d="M93 24q-40 36 -40 101q0 79 72 121.5t230 59.5q0 57 -23.5 93.5t-80.5 36.5q-69 0 -147 -53l-29 50q96 64 188 64q84 0 124 -52.5t40 -144.5v-300h-60l-6 59h-3q-86 -71 -163 -71q-62 0 -102 36zM282.5 63.5q33.5 16.5 72.5 51.5v142q-125 -15 -177.5 -46t-52.5 -82 q0 -41 25 -61.5t64 -20.5q35 0 68.5 16.5zM118 598l115 141h72l115 -141l-32 -29l-117 116h-4l-117 -116z" glyph-name="acircumflex" horiz-adv-x="501" unicode="â"/>
<glyph d="M93 24q-40 36 -40 101q0 79 72 121.5t230 59.5q0 57 -23.5 93.5t-80.5 36.5q-69 0 -147 -53l-29 50q96 64 188 64q84 0 124 -52.5t40 -144.5v-300h-60l-6 59h-3q-86 -71 -163 -71q-62 0 -102 36zM282.5 63.5q33.5 16.5 72.5 51.5v142q-125 -15 -177.5 -46t-52.5 -82 q0 -41 25 -61.5t64 -20.5q35 0 68.5 16.5zM297 590.5q-19 12.5 -43 36.5q-19 19 -31 28t-27 9q-43 0 -48 -82l-50 3q3 61 26.5 97t72.5 36q26 0 45 -13t42 -37q17 -18 30 -27.5t28 -9.5q22 0 34 22.5t14 60.5l50 -4q-3 -60 -26.5 -96t-71.5 -36q-26 0 -45 12.5z" glyph-name="atilde" horiz-adv-x="501" unicode="ã"/>
<glyph d="M93 24q-40 36 -40 101q0 79 72 121.5t230 59.5q0 57 -23.5 93.5t-80.5 36.5q-69 0 -147 -53l-29 50q96 64 188 64q84 0 124 -52.5t40 -144.5v-300h-60l-6 59h-3q-86 -71 -163 -71q-62 0 -102 36zM282.5 63.5q33.5 16.5 72.5 51.5v142q-125 -15 -177.5 -46t-52.5 -82 q0 -41 25 -61.5t64 -20.5q35 0 68.5 16.5zM141.5 603q-13.5 13 -13.5 33t13.5 33.5t33.5 13.5t33 -13.5t13 -33.5q0 -19 -13.5 -32.5t-32.5 -13.5q-20 0 -33.5 13zM330.5 603.5q-13.5 13.5 -13.5 32.5q0 20 13 33.5t33 13.5t33.5 -13.5t13.5 -33.5t-13.5 -33t-33.5 -13 q-19 0 -32.5 13.5z" glyph-name="adieresis" horiz-adv-x="501" unicode="ä"/>
<glyph d="M93 24q-40 36 -40 101q0 79 72 121.5t230 59.5q0 57 -23.5 93.5t-80.5 36.5q-69 0 -147 -53l-29 50q96 64 188 64q84 0 124 -52.5t40 -144.5v-300h-60l-6 59h-3q-86 -71 -163 -71q-62 0 -102 36zM282.5 63.5q33.5 16.5 72.5 51.5v142q-125 -15 -177.5 -46t-52.5 -82 q0 -41 25 -61.5t64 -20.5q35 0 68.5 16.5zM192 580q-29 27 -29 70t29 70.5t77 27.5t77 -27.5t29 -70.5t-29 -70t-77 -27t-77 27zM311 604.5q17 17.5 17 45.5q0 29 -17 46.5t-42 17.5t-42 -17.5t-17 -46.5q0 -28 17 -45.5t42 -17.5t42 17.5z" glyph-name="aring" horiz-adv-x="501" unicode="å"/>
<glyph d="M100 24q-40 36 -40 100q0 79 71.5 122t225.5 60q0 130 -103 130q-65 0 -143 -53l-29 50q96 64 180 64q54 0 89 -28.5t51 -79.5q28 51 70 79.5t91 28.5q87 0 135.5 -61t48.5 -167q0 -25 -3 -43h-319q1 -52 21.5 -92.5t56 -63t78.5 -22.5q34 0 62 10.5t58 30.5l27 -51 q-37 -24 -73 -37t-83 -13q-56 0 -97.5 25.5t-73.5 67.5q-48 -45 -100 -69t-99 -24q-62 0 -102 36zM682 275q0 79 -31.5 121t-88.5 42q-54 0 -92 -45t-45 -118h257zM299 68q42 21 77 58q-19 43 -19 106l-1 25q-119 -15 -171.5 -46t-52.5 -82q0 -41 25 -61.5t64 -20.5 q36 0 78 21z" glyph-name="ae" horiz-adv-x="785" unicode="æ"/>
<glyph d="M327 -89.5q18 -16.5 18 -45.5q0 -81 -159 -89l-8 38q61 4 85.5 15.5t24.5 34.5q0 20 -18 31t-60 17l37 77q-58 6 -103.5 38t-71 87t-25.5 128q0 78 31.5 136t84.5 88.5t115 30.5q79 0 141 -58l-38 -48q-24 22 -48 33.5t-52 11.5q-45 0 -81 -24.5t-56.5 -68.5t-20.5 -101 q0 -87 43 -140t113 -53q63 0 118 50l32 -49q-58 -52 -133 -61l-23 -53q36 -9 54 -25.5z" glyph-name="ccedilla" horiz-adv-x="454" unicode="ç"/>
<glyph d="M452 226h-335q5 -85 52.5 -132t116.5 -47q64 0 123 39l27 -48q-36 -23 -74 -36.5t-85 -13.5q-64 0 -116.5 30.5t-83 88.5t-30.5 135q0 76 30.5 134t80.5 89.5t106 31.5q90 0 140.5 -60.5t50.5 -166.5q0 -26 -3 -44zM390 279q0 77 -33 118t-92 41q-54 0 -96 -41t-50 -118 h271zM130 726l52 48l140 -164l-38 -37z" glyph-name="egrave" unicode="è"/>
<glyph d="M452 226h-335q5 -85 52.5 -132t116.5 -47q64 0 123 39l27 -48q-36 -23 -74 -36.5t-85 -13.5q-64 0 -116.5 30.5t-83 88.5t-30.5 135q0 76 30.5 134t80.5 89.5t106 31.5q90 0 140.5 -60.5t50.5 -166.5q0 -26 -3 -44zM390 279q0 77 -33 118t-92 41q-54 0 -96 -41t-50 -118 h271zM210 610l140 164l52 -48l-154 -153z" glyph-name="eacute" unicode="é"/>
<glyph d="M452 226h-335q5 -85 52.5 -132t116.5 -47q64 0 123 39l27 -48q-36 -23 -74 -36.5t-85 -13.5q-64 0 -116.5 30.5t-83 88.5t-30.5 135q0 76 30.5 134t80.5 89.5t106 31.5q90 0 140.5 -60.5t50.5 -166.5q0 -26 -3 -44zM390 279q0 77 -33 118t-92 41q-54 0 -96 -41t-50 -118 h271zM115 598l115 141h72l115 -141l-32 -29l-117 116h-4l-117 -116z" glyph-name="ecircumflex" unicode="ê"/>
<glyph d="M452 226h-335q5 -85 52.5 -132t116.5 -47q64 0 123 39l27 -48q-36 -23 -74 -36.5t-85 -13.5q-64 0 -116.5 30.5t-83 88.5t-30.5 135q0 76 30.5 134t80.5 89.5t106 31.5q90 0 140.5 -60.5t50.5 -166.5q0 -26 -3 -44zM390 279q0 77 -33 118t-92 41q-54 0 -96 -41t-50 -118 h271zM138.5 603q-13.5 13 -13.5 33t13.5 33.5t33.5 13.5t33 -13.5t13 -33.5q0 -19 -13.5 -32.5t-32.5 -13.5q-20 0 -33.5 13zM327.5 603.5q-13.5 13.5 -13.5 32.5q0 20 13 33.5t33 13.5t33.5 -13.5t13.5 -33.5t-13.5 -33t-33.5 -13q-19 0 -32.5 13.5z" glyph-name="edieresis" unicode="ë"/>
<glyph d="M85 485h72v-485h-72v485zM-14 726l52 48l140 -164l-38 -37z" glyph-name="igrave" horiz-adv-x="242" unicode="ì"/>
<glyph d="M85 485h72v-485h-72v485zM66 610l140 164l52 -48l-154 -153z" glyph-name="iacute" horiz-adv-x="242" unicode="í"/>
<glyph d="M85 485h72v-485h-72v485zM-29 598l115 141h72l115 -141l-32 -29l-117 116h-4l-117 -116z" glyph-name="icircumflex" horiz-adv-x="242" unicode="î"/>
<glyph d="M85 485h72v-485h-72v485zM-5.5 603q-13.5 13 -13.5 33t13.5 33.5t33.5 13.5t33 -13.5t13 -33.5q0 -19 -13.5 -32.5t-32.5 -13.5q-20 0 -33.5 13zM183.5 603.5q-13.5 13.5 -13.5 32.5q0 20 13 33.5t33 13.5t33.5 -13.5t13.5 -33.5t-13.5 -33t-33.5 -13q-19 0 -32.5 13.5z " glyph-name="idieresis" horiz-adv-x="242" unicode="ï"/>
<glyph d="M481 256q0 -80 -26.5 -140.5t-75 -94t-111.5 -33.5q-56 0 -105 28.5t-78.5 82t-29.5 123.5q0 66 26.5 116.5t73.5 78.5t106 28q40 0 75 -16.5t61 -49.5q-25 116 -108 198l-141 -73l-21 37l128 66q-48 38 -115 75l34 47q83 -45 138 -92l142 73l21 -38l-129 -66 q135 -138 135 -350zM374.5 104.5q35.5 55.5 35.5 148.5q0 21 -2 59q-31 43 -65 59.5t-72 16.5q-69 0 -108 -46.5t-39 -119.5q0 -51 20 -90t53 -61t73 -22q69 0 104.5 55.5z" glyph-name="eth" horiz-adv-x="542" unicode="ð"/>
<glyph d="M85 485h60l6 -72h3q40 40 78.5 62t84.5 22q76 0 112 -47.5t36 -141.5v-308h-73v299q0 70 -22.5 102t-73.5 32q-36 0 -67 -18.5t-72 -59.5v-355h-72v485zM319 590.5q-19 12.5 -43 36.5q-19 19 -31 28t-27 9q-43 0 -48 -82l-50 3q3 61 26.5 97t72.5 36q26 0 45 -13t42 -37 q17 -18 30 -27.5t28 -9.5q22 0 34 22.5t14 60.5l50 -4q-3 -60 -26.5 -96t-71.5 -36q-26 0 -45 12.5z" glyph-name="ntilde" horiz-adv-x="543" unicode="ñ"/>
<glyph d="M159 18.5q-51 30.5 -81.5 88t-30.5 135.5t30.5 136t81.5 88.5t111 30.5t111 -30.5t81.5 -88.5t30.5 -136t-30.5 -135.5t-81.5 -88t-111 -30.5t-111 30.5zM346.5 73q33.5 24 52.5 68t19 101t-19 101t-52.5 68.5t-76.5 24.5t-76.5 -24.5t-52 -68.5t-18.5 -101 q0 -87 41 -140t106 -53q43 0 76.5 24zM134 726l52 48l140 -164l-38 -37z" glyph-name="ograve" horiz-adv-x="540" unicode="ò"/>
<glyph d="M159 18.5q-51 30.5 -81.5 88t-30.5 135.5t30.5 136t81.5 88.5t111 30.5t111 -30.5t81.5 -88.5t30.5 -136t-30.5 -135.5t-81.5 -88t-111 -30.5t-111 30.5zM346.5 73q33.5 24 52.5 68t19 101t-19 101t-52.5 68.5t-76.5 24.5t-76.5 -24.5t-52 -68.5t-18.5 -101 q0 -87 41 -140t106 -53q43 0 76.5 24zM214 610l140 164l52 -48l-154 -153z" glyph-name="oacute" horiz-adv-x="540" unicode="ó"/>
<glyph d="M159 18.5q-51 30.5 -81.5 88t-30.5 135.5t30.5 136t81.5 88.5t111 30.5t111 -30.5t81.5 -88.5t30.5 -136t-30.5 -135.5t-81.5 -88t-111 -30.5t-111 30.5zM346.5 73q33.5 24 52.5 68t19 101t-19 101t-52.5 68.5t-76.5 24.5t-76.5 -24.5t-52 -68.5t-18.5 -101 q0 -87 41 -140t106 -53q43 0 76.5 24zM119 598l115 141h72l115 -141l-32 -29l-117 116h-4l-117 -116z" glyph-name="ocircumflex" horiz-adv-x="540" unicode="ô"/>
<glyph d="M159 18.5q-51 30.5 -81.5 88t-30.5 135.5t30.5 136t81.5 88.5t111 30.5t111 -30.5t81.5 -88.5t30.5 -136t-30.5 -135.5t-81.5 -88t-111 -30.5t-111 30.5zM346.5 73q33.5 24 52.5 68t19 101t-19 101t-52.5 68.5t-76.5 24.5t-76.5 -24.5t-52 -68.5t-18.5 -101 q0 -87 41 -140t106 -53q43 0 76.5 24zM298 590.5q-19 12.5 -43 36.5q-19 19 -31 28t-27 9q-43 0 -48 -82l-50 3q3 61 26.5 97t72.5 36q26 0 45 -13t42 -37q17 -18 30 -27.5t28 -9.5q22 0 34 22.5t14 60.5l50 -4q-3 -60 -26.5 -96t-71.5 -36q-26 0 -45 12.5z" glyph-name="otilde" horiz-adv-x="540" unicode="õ"/>
<glyph d="M159 18.5q-51 30.5 -81.5 88t-30.5 135.5t30.5 136t81.5 88.5t111 30.5t111 -30.5t81.5 -88.5t30.5 -136t-30.5 -135.5t-81.5 -88t-111 -30.5t-111 30.5zM346.5 73q33.5 24 52.5 68t19 101t-19 101t-52.5 68.5t-76.5 24.5t-76.5 -24.5t-52 -68.5t-18.5 -101 q0 -87 41 -140t106 -53q43 0 76.5 24zM142.5 603q-13.5 13 -13.5 33t13.5 33.5t33.5 13.5t33 -13.5t13 -33.5q0 -19 -13.5 -32.5t-32.5 -13.5q-20 0 -33.5 13zM331.5 603.5q-13.5 13.5 -13.5 32.5q0 20 13 33.5t33 13.5t33.5 -13.5t13.5 -33.5t-13.5 -33t-33.5 -13 q-19 0 -32.5 13.5z" glyph-name="odieresis" horiz-adv-x="540" unicode="ö"/>
<glyph d="M210.5 473.5q-14.5 14.5 -14.5 36.5t14.5 36t35.5 14t35.5 -14t14.5 -36t-14.5 -36.5t-35.5 -14.5t-35.5 14.5zM34 358h424v-56h-424v56zM210.5 113.5q-14.5 14.5 -14.5 36.5t14.5 36t35.5 14t35.5 -14t14.5 -36t-14.5 -36.5t-35.5 -14.5t-35.5 14.5z" glyph-name="divide" unicode="÷"/>
<glyph d="M439 414q54 -68 54 -172q0 -78 -30.5 -135.5t-81.5 -88t-111 -30.5q-38 0 -74 13t-65 38l-51 -62l-34 27l55 66q-54 70 -54 172q0 78 30.5 136t81.5 88.5t111 30.5q38 0 74.5 -13t64.5 -38l51 61l34 -27zM146 126l222 269q-40 42 -98 42q-43 0 -77 -24.5t-53.5 -68 t-19.5 -99.5q0 -72 26 -119zM394 359l-222 -270q40 -42 98 -42q43 0 77.5 24.5t54 68t19.5 99.5q0 69 -27 120z" glyph-name="oslash" horiz-adv-x="540" unicode="ø"/>
<glyph d="M114 35.5q-36 47.5 -36 141.5v308h72v-299q0 -70 23 -102.5t74 -32.5q37 0 67.5 20t68.5 66v348h73v-485h-61l-6 77h-3q-37 -43 -75.5 -66t-85.5 -23q-75 0 -111 47.5zM137 726l52 48l140 -164l-38 -37z" glyph-name="ugrave" horiz-adv-x="540" unicode="ù"/>
<glyph d="M114 35.5q-36 47.5 -36 141.5v308h72v-299q0 -70 23 -102.5t74 -32.5q37 0 67.5 20t68.5 66v348h73v-485h-61l-6 77h-3q-37 -43 -75.5 -66t-85.5 -23q-75 0 -111 47.5zM217 610l140 164l52 -48l-154 -153z" glyph-name="uacute" horiz-adv-x="540" unicode="ú"/>
<glyph d="M114 35.5q-36 47.5 -36 141.5v308h72v-299q0 -70 23 -102.5t74 -32.5q37 0 67.5 20t68.5 66v348h73v-485h-61l-6 77h-3q-37 -43 -75.5 -66t-85.5 -23q-75 0 -111 47.5zM122 598l115 141h72l115 -141l-32 -29l-117 116h-4l-117 -116z" glyph-name="ucircumflex" horiz-adv-x="540" unicode="û"/>
<glyph d="M114 35.5q-36 47.5 -36 141.5v308h72v-299q0 -70 23 -102.5t74 -32.5q37 0 67.5 20t68.5 66v348h73v-485h-61l-6 77h-3q-37 -43 -75.5 -66t-85.5 -23q-75 0 -111 47.5zM145.5 603q-13.5 13 -13.5 33t13.5 33.5t33.5 13.5t33 -13.5t13 -33.5q0 -19 -13.5 -32.5 t-32.5 -13.5q-20 0 -33.5 13zM334.5 603.5q-13.5 13.5 -13.5 32.5q0 20 13 33.5t33 13.5t33.5 -13.5t13.5 -33.5t-13.5 -33t-33.5 -13q-19 0 -32.5 13.5z" glyph-name="udieresis" horiz-adv-x="540" unicode="ü"/>
<glyph d="M31 -202l14 59q20 -8 38 -8q40 0 68 30t45 81l12 37l-196 488h75l104 -278l48 -136h4q14 42 29 92l13 44l91 278h71l-184 -530q-28 -78 -69.5 -122.5t-107.5 -44.5q-30 0 -55 10zM185 610l140 164l52 -48l-154 -153z" glyph-name="yacute" horiz-adv-x="459" unicode="ý"/>
<glyph d="M85 714h72v-197l-1 -85q82 65 152 65q94 0 144.5 -66.5t50.5 -180.5q0 -80 -29 -139.5t-77 -91t-104 -31.5q-66 0 -137 55l1 -84v-167h-72v922zM356.5 74.5q33.5 24.5 52.5 69.5t19 105q0 87 -32.5 136.5t-101.5 49.5q-61 0 -137 -70v-262q33 -28 65 -40.5t59 -12.5 q42 0 75.5 24.5z" glyph-name="thorn" horiz-adv-x="552" unicode="þ"/>
<glyph d="M85 485h72v-485h-72v485z" glyph-name="dotlessi" horiz-adv-x="242" unicode="ı"/>
<glyph d="M-136 726l52 48l140 -164l-38 -37z" glyph-name="gravecomb" horiz-adv-x="0" unicode="̀"/>
<glyph d="M-56 610l140 164l52 -48l-154 -153z" glyph-name="acutecomb" horiz-adv-x="0" unicode="́"/>
<glyph d="M-151 598l115 141h72l115 -141l-32 -29l-117 116h-4l-117 -116z" glyph-name="uni0302" horiz-adv-x="0" unicode="̂"/>
<glyph d="M28 590.5q-19 12.5 -43 36.5q-19 19 -31 28t-27 9q-43 0 -48 -82l-50 3q3 61 26.5 97t72.5 36q26 0 45 -13t42 -37q17 -18 30 -27.5t28 -9.5q22 0 34 22.5t14 60.5l50 -4q-3 -60 -26.5 -96t-71.5 -36q-26 0 -45 12.5z" glyph-name="tildecomb" horiz-adv-x="0" unicode="̃"/>
<glyph d="M-130 654h260v-52h-260v52z" glyph-name="uni0304" horiz-adv-x="0" unicode="̄"/>
<glyph d="M-36 603q-14 14 -14 37q0 22 14 35.5t36 13.5t36 -13.5t14 -35.5q0 -23 -14 -37t-36 -14t-36 14z" glyph-name="uni0307" horiz-adv-x="0" unicode="̇"/>
<glyph d="M-127.5 603q-13.5 13 -13.5 33t13.5 33.5t33.5 13.5t33 -13.5t13 -33.5q0 -19 -13.5 -32.5t-32.5 -13.5q-20 0 -33.5 13zM61.5 603.5q-13.5 13.5 -13.5 32.5q0 20 13 33.5t33 13.5t33.5 -13.5t13.5 -33.5t-13.5 -33t-33.5 -13q-19 0 -32.5 13.5z" glyph-name="uni0308" horiz-adv-x="0" unicode="̈"/>
<glyph d="M-77 580q-29 27 -29 70t29 70.5t77 27.5t77 -27.5t29 -70.5t-29 -70t-77 -27t-77 27zM42 604.5q17 17.5 17 45.5q0 29 -17 46.5t-42 17.5t-42 -17.5t-17 -46.5q0 -28 17 -45.5t42 -17.5t42 17.5z" glyph-name="uni030A" horiz-adv-x="0" unicode="̊"/>
<glyph d="M-92 -186q61 4 85.5 15.5t24.5 34.5q0 20 -18 31t-60 17l43 91h49l-29 -67q36 -9 54 -25.5t18 -45.5q0 -81 -159 -89z" glyph-name="uni0327" horiz-adv-x="0" unicode="̧"/>
<glyph d="M44 224v56l137 157l33 -28l-119 -157l119 -158l-33 -27z" glyph-name="guilsinglleft" horiz-adv-x="268" unicode="‹"/>
<glyph d="M54 94l119 158l-119 157l33 28l136 -157v-56l-136 -157z" glyph-name="guilsinglright" horiz-adv-x="268" unicode="›"/>
<glyph d="M34 358h424v-56h-424v56z" glyph-name="minus" unicode="−"/>
<glyph d="M65.5 414.5q-26.5 25.5 -26.5 68.5q0 52 47.5 80t152.5 39q-1 37 -15.5 57.5t-48.5 20.5q-25 0 -52.5 -10.5t-50.5 -24.5l-21 39q71 42 132 42q111 0 111 -131v-198h-44l-7 38h-4q-52 -46 -103 -46q-44 0 -70.5 25.5zM239 477v89q-78 -9 -111.5 -28.5t-33.5 -50.5 q0 -52 59 -52q43 0 86 42z" glyph-name="a.sups" horiz-adv-x="343"/>
<glyph d="M105.5 409.5q-34.5 20.5 -55 59t-20.5 89.5q0 52 20.5 90t54.5 58t76 20t76 -20t54.5 -58t20.5 -90q0 -51 -20.5 -89.5t-55 -59t-75.5 -20.5t-75.5 20.5zM249 469.5q25 33.5 25 88.5t-25 88.5t-68 33.5t-68 -33.5t-25 -88.5t25.5 -88.5t67.5 -33.5q43 0 68 33.5z" glyph-name="o.sups" horiz-adv-x="363"/>
<glyph d="M-134 730.5q-13 12.5 -13 33.5q0 20 13 32.5t33 12.5t32.5 -12.5t12.5 -32.5q0 -21 -12.5 -33.5t-32.5 -12.5t-33 12.5zM68.5 730.5q-12.5 12.5 -12.5 33.5q0 20 12.5 32.5t32.5 12.5t33 -12.5t13 -32.5q0 -21 -13 -33.5t-33 -12.5t-32.5 12.5z" glyph-name="uni0308.cap" horiz-adv-x="0"/>
<glyph d="M-129 814l42 49l137 -127l-32 -37z" glyph-name="gravecomb.cap" horiz-adv-x="0"/>
<glyph d="M-50 736l137 127l42 -49l-147 -115z" glyph-name="acutecomb.cap" horiz-adv-x="0"/>
<glyph d="M-144 725l106 113h76l106 -113l-32 -24l-110 94h-4l-110 -94z" glyph-name="uni0302.cap" horiz-adv-x="0"/>
<glyph d="M-68.5 724q-26.5 25 -26.5 64q0 41 26.5 65.5t68.5 24.5q41 0 68 -25t27 -65q0 -39 -27.5 -64t-67.5 -25q-42 0 -68.5 25zM37 747.5q15 14.5 15 40.5q0 25 -15 40.5t-37 15.5q-23 0 -38 -15t-15 -41t15 -40.5t38 -14.5q22 0 37 14.5z" glyph-name="uni030A.cap" horiz-adv-x="0"/>
<glyph d="M27.5 722q-20.5 11 -43.5 31q-17 16 -30 23.5t-28 7.5q-20 0 -33.5 -18t-16.5 -50l-50 3q2 55 28.5 87.5t69.5 32.5q28 0 48.5 -11t43.5 -31q17 -16 30 -23.5t28 -7.5q20 0 33 18t17 51l50 -4q-2 -55 -28.5 -87.5t-69.5 -32.5q-28 0 -48.5 11z" glyph-name="tildecomb.cap" horiz-adv-x="0"/>
</font>
</defs>
</svg>
