<?xml version="1.0" standalone="no"?>
<!DOCTYPE svg PUBLIC "-//W3C//DTD SVG 1.1//EN" "http://www.w3.org/Graphics/SVG/1.1/DTD/svg11.dtd" >
<svg>
<metadata>
Created by FontForge 20090914 at Tue Dec 10 21:09:22 2019
 By www-data
Copyright(c) 1993 Brother Industries,Ltd.
</metadata>
<defs>
<font id="Atlanta-Book" horiz-adv-x="1135" >
  <font-face 
    font-family="Atlanta"
    font-weight="400"
    font-stretch="normal"
    units-per-em="2048"
    panose-1="2 11 5 2 2 2 2 2 2 4"
    ascent="1638"
    descent="-410"
    x-height="1106"
    cap-height="1516"
    bbox="-231 -533.004 2369 2212"
    underline-thickness="123"
    underline-position="-72"
    unicode-range="U+0020-U+F002"
  />
<missing-glyph horiz-adv-x="1651" 
d="M1466 1569h-1282v-1487h1282v1487zM1548 1651v-1651h-1446v1651h1446z" />
    <glyph glyph-name=".notdef" horiz-adv-x="1651" 
d="M1466 1569h-1282v-1487h1282v1487zM1548 1651v-1651h-1446v1651h1446z" />
    <glyph glyph-name="space" unicode=" " horiz-adv-x="567" 
 />
    <glyph glyph-name="space" unicode="&#xa0;" horiz-adv-x="567" 
 />
    <glyph glyph-name="exclam" unicode="!" horiz-adv-x="604" 
d="M383 1516v-1065h-164v1065h164zM383 0h-164v246h164v-246z" />
    <glyph glyph-name="quotedbl" unicode="&#x22;" horiz-adv-x="633" 
d="M377 1556h164v-573h-164v573zM254 983h-164v573h164v-573z" />
    <glyph glyph-name="numbersign" unicode="#" horiz-adv-x="1475" 
d="M860 1516h164v-349h307v-143h-307v-471h307v-143h-307v-410h-164v410h-245v-410h-164v410h-307v143h307v471h-307v143h307v349h164v-349h245v349zM860 553v471h-245v-471h245z" />
    <glyph glyph-name="dollar" unicode="$" 
d="M813 1147c0 73.333 -23.832 136 -71.499 188s-105.5 78 -173.5 78c-68.667 0 -126.834 -26 -174.501 -78s-71.5 -114.667 -71.5 -188c0 -100.667 51.333 -177.334 154 -230.001l286 -145c72 -36.667 129.333 -90 172 -160s64 -144.333 64 -223
c0 -106 -34.167 -198.833 -102.5 -278.5s-153.833 -128.167 -256.5 -145.5v-211h-143v211c-104 17.333 -189.833 66 -257.5 146s-101.5 172.667 -101.5 278v61h164v-61c0 -77.333 26 -144.5 78 -201.5s115 -85.5 189 -85.5s136.833 28.5 188.5 85.5s77.5 124.167 77.5 201.5
c0 107.333 -55.333 189.333 -166 246l-287 145c-70.667 36 -125.5 86.167 -164.5 150.5s-58.5 136.5 -58.5 216.5c0 100 32.333 188 97 264s145 122.333 241 139v170h143v-170c97.333 -16.667 178 -63.167 242 -139.5s96 -164.166 96 -263.499v-41h-164v41z" />
    <glyph glyph-name="percent" unicode="%" horiz-adv-x="1587" 
d="M752 1208c0 -96 -34 -177.834 -102 -245.501s-150 -101.5 -246 -101.5c-96.667 0 -179 33.833 -247 101.5s-102 149.5 -102 245.5c0 96.667 34 178.834 102 246.501s150.333 101.5 247 101.5c96 0 178 -34 246 -102s102 -150 102 -246zM404 1413
c-52 0 -95.833 -20.333 -131.5 -61s-53.5 -88.667 -53.5 -144c0 -54.667 17.833 -102.334 53.5 -143.001s79.5 -61 131.5 -61c51.333 0 94.833 20.333 130.5 61s53.5 88.334 53.5 143.001c0 55.333 -17.833 103.333 -53.5 144s-79.167 61 -130.5 61zM1202 1516h144
l-963 -1516h-143zM1532 306.999c0 -96 -34 -178 -102 -246s-150 -102 -246 -102s-178 34 -246 102s-102 150 -102 246s34 178 102 246s150 102 246 102s178 -34 246 -102s102 -150 102 -246zM1184 511.999c-52 0 -95.667 -20.333 -131 -61s-53 -88.667 -53 -144
s17.667 -103.333 53 -144s79 -61 131 -61s95.667 20.333 131 61s53 88.667 53 144s-17.667 103.333 -53 144s-79 61 -131 61z" />
    <glyph glyph-name="ampersand" unicode="&#x26;" horiz-adv-x="1550" 
d="M1204 0l-179.998 221l-31 -49c-41.333 -66.667 -95.5 -118.834 -162.5 -156.501s-137.5 -56.5 -211.5 -56.5c-130 0 -239.333 45 -328 135c-86 86.667 -129 190 -129 310c0 78.667 17.5 151.167 52.5 217.5s85.167 121.5 150.5 165.5l129 86l-94 114
c-52 62.667 -78 137 -78 223c0 96 34.167 177.667 102.5 245s152.166 101 251.499 101c97.333 0 179.666 -34.167 246.999 -102.5s101 -152.166 101 -251.499c0 -112 -45.667 -202.667 -137 -272l-148 -94l269 -330l155 252h193l-238 -385l303 -373h-217zM455.002 649
c-38.667 -26 -69.833 -61.001 -93.5 -105.001s-35.5 -88.667 -35.5 -134c0 -86 28 -158.833 84 -218.5s123 -89.5 201 -89.5c47.333 0 92.333 13.833 135 41.5s78.667 65.834 108 114.501l59 99l-315 387zM635.003 964.999l137 90.001c26.667 18 48 42.167 64 72.5
s24 62.166 24 95.499c0 51.333 -17.833 95.833 -53.5 133.5s-79.167 56.5 -130.5 56.5s-95.833 -19.5 -133.5 -58.5s-56.5 -83.5 -56.5 -133.5c0 -50.667 15 -93.667 45 -129z" />
    <glyph glyph-name="quotesingle" unicode="'" horiz-adv-x="406" 
d="M121 1556h164v-573h-164v573z" />
    <glyph glyph-name="parenleft" unicode="(" horiz-adv-x="756" 
d="M705 1552c-131.333 -89.333 -235 -215.668 -311 -379.001c-66 -141.333 -99 -279.666 -99 -414.999s33 -274 99 -416c76 -162.667 179.667 -289 311 -379l-82 -127c-154 103.333 -274.5 236.5 -361.5 399.5s-130.5 337.167 -130.5 522.5s43.5 359.333 130.5 522
s207.5 295.667 361.5 399z" />
    <glyph glyph-name="parenright" unicode=")" horiz-adv-x="756" 
d="M131 1679c154 -103.333 274.5 -236.331 361.5 -398.998s130.5 -336.667 130.5 -522s-43.5 -359.5 -130.5 -522.5s-207.5 -296.167 -361.5 -399.5l-82 127c131.333 90 235 216.333 311 379c66 142 99 280.667 99 416s-33 273.666 -99 414.999
c-76 163.333 -179.667 289.666 -311 378.999z" />
    <glyph glyph-name="asterisk" unicode="*" horiz-adv-x="870" 
d="M106 1291l246 -31v-62l-246 -30v123zM762 1291v-123l-246 30v62zM651 1483l-149 -199l-53 31l96 229zM324 1544l96 -229l-53 -31l-150 199zM545 913l-96 230l53 31l149 -199zM420 1143l-96 -230l-107 62l150 199z" />
    <glyph glyph-name="plus" unicode="+" horiz-adv-x="1241" 
d="M105 697h440v440h154v-440h440v-154h-440v-441h-154v441h-440v154z" />
    <glyph glyph-name="comma" unicode="," horiz-adv-x="567" 
d="M385 246l-0.000976562 -144.001c0 -78.667 -28.167 -146 -84.5 -202s-123.833 -84 -202.5 -84h-20v184c28.667 0 52.834 9.83301 72.501 29.5s29.5 43.834 29.5 72.501v144h205z" />
    <glyph glyph-name="hyphen" unicode="-" horiz-adv-x="680" 
d="M66 543v133h548v-133h-548z" />
    <glyph glyph-name="period" unicode="." horiz-adv-x="567" 
d="M180 0v246h205v-246h-205z" />
    <glyph glyph-name="slash" unicode="/" horiz-adv-x="895" 
d="M80 -266l600 1782h133l-600 -1782h-133z" />
    <glyph glyph-name="zero" unicode="0" 
d="M76 1065c0 135.333 48 251 144 347s212 144 348 144s251.833 -47.833 347.5 -143.5s143.5 -211.5 143.5 -347.5v-615c0 -136 -47.833 -251.833 -143.5 -347.5s-211.5 -143.5 -347.5 -143.5s-252 48 -348 144s-144 211.667 -144 347v615zM895 1086
c0 102.667 -36.333 184.667 -109 246c-63.333 54 -136 81 -218 81c-82.667 0 -155.667 -27 -219 -81c-72.667 -61.333 -109 -143.333 -109 -246v-656c0 -102.667 36.333 -185 109 -247c63.333 -54 136.333 -81 219 -81c82 0 154.667 27 218 81
c72.667 62 109 144.333 109 247v656z" />
    <glyph glyph-name="one" unicode="1" 
d="M711 1516v-1516h-164v1250l-225 -226l-123 123l369 369h143z" />
    <glyph glyph-name="two" unicode="2" 
d="M76 0l0.000976562 143l702 770c50.667 56 76 120.333 76 193c0 83.333 -27.5 155.333 -82.5 216s-122.833 91 -203.5 91c-81.333 0 -149.5 -30.333 -204.5 -91s-82.5 -132.667 -82.5 -216v-102h-164v102c0 128 43.333 235 130 321s193.667 129 321 129
c121.333 0 226.666 -43.833 315.999 -131.5s134 -191.167 134 -310.5c0 -124 -39.667 -227.667 -119 -311l-622 -660h741v-143h-942z" />
    <glyph glyph-name="three" unicode="3" 
d="M137 1106l0.000976562 40.999c0 116 40.833 213.167 122.5 291.5s184.5 117.5 308.5 117.5c125.333 0 229.666 -41.667 312.999 -125c78 -76.667 117 -165.334 117 -266.001c0 -82 -20.167 -153.5 -60.5 -214.5s-95.166 -104.5 -164.499 -130.5
c86.667 -28.667 156 -77.667 208 -147s78 -149.666 78 -240.999c0 -140 -49.667 -255 -149 -345c-94 -85.333 -208 -128 -342 -128c-136 0 -250.333 43 -343 129c-99.333 92 -149 213 -149 363h164c0 -104.667 30.167 -189 90.5 -253s139.5 -96 237.5 -96
c95.333 0 173.666 30.667 234.999 92s92 140 92 236c0 96.667 -29.667 173.834 -89 231.501s-138.666 86.5 -237.999 86.5h-62v143h62c80.667 0 145.167 23.167 193.5 69.5s72.5 108.5 72.5 186.5c0 74.667 -24.833 137.667 -74.5 189s-113.5 77 -191.5 77
c-78.667 0 -142.834 -25.667 -192.501 -77s-74.5 -114.333 -74.5 -189v-41h-164z" />
    <glyph glyph-name="four" unicode="4" 
d="M690 0v348h-655v184l655 984h164v-1025h246v-143h-246v-348h-164zM690 491v730l-485 -730h485z" />
    <glyph glyph-name="five" unicode="5" 
d="M242 307c25.333 -57.333 68.665 -105.833 129.998 -145.5s126.333 -59.5 195 -59.5c102.667 0 189.834 37.5 261.501 112.5s107.5 167.5 107.5 277.5c0 108.667 -36.167 200.667 -108.5 276s-159.166 113 -260.499 113c-60 0 -118.667 -16.333 -176 -49
s-101 -74.334 -131 -125.001h-123v809h881v-143h-717v-443c30 26 70.333 48.167 121 66.5s99 27.5 145 27.5c71.333 0 139.5 -13.333 204.5 -40s122.167 -64.667 171.5 -114c104.667 -103.333 157 -229.333 157 -378c0 -71.333 -13.833 -139.833 -41.5 -205.5
s-67.167 -123.5 -118.5 -173.5c-50 -49.333 -107.333 -87.333 -172 -114s-131.667 -40 -201 -40c-110 0 -210.833 31.333 -302.5 94s-157.5 147.334 -197.5 254.001h175z" />
    <glyph glyph-name="six" unicode="6" 
d="M710 1516l-314.999 -586.001c56.667 28.667 123.667 43 201 43c135.333 0 249.666 -48.333 342.999 -145s140 -215.667 140 -357c0 -143.333 -49.5 -264.5 -148.5 -363.5s-220.833 -148.5 -365.5 -148.5c-142 0 -263.333 52.667 -364 158
c-46.667 48.667 -82.667 103.834 -108 165.501s-38 124.5 -38 188.5c0 77.333 18.333 154 55 230l408 815h192zM565.001 839.999c-98 0 -180.167 -35.6689 -246.5 -107.002s-99.5 -158.666 -99.5 -261.999c0 -102.667 33.333 -189.834 100 -261.501
s148.667 -107.5 246 -107.5c98 0 180.833 35.833 248.5 107.5s101.5 158.834 101.5 261.501s-33.667 189.834 -101 261.501s-150.333 107.5 -249 107.5z" />
    <glyph glyph-name="seven" unicode="7" 
d="M281 0l624 1373h-870v143h1024v-143l-594 -1373h-184z" />
    <glyph glyph-name="eight" unicode="8" 
d="M96 430c0 89.333 21.999 169.002 65.999 239.002s104 122.333 180 157c-58 30 -103.167 73 -135.5 129s-48.5 120 -48.5 192c0 113.333 39.667 209.833 119 289.5s175.333 119.5 288 119.5c114 0 211.167 -40 291.5 -120s120.5 -176.333 120.5 -289
c0 -71.333 -16.167 -135 -48.5 -191s-77.5 -99.333 -135.5 -130c75.333 -35.333 135 -88 179 -158s66 -149.333 66 -238c0 -58.667 -11.333 -116.334 -34 -173.001s-54.667 -107 -96 -151c-92 -98 -206.333 -147 -343 -147c-136 0 -249.333 49 -340 147
c-41.333 44 -73.166 94.167 -95.499 150.5s-33.5 114.166 -33.5 173.499zM567.999 758.002c-84.667 0 -157.167 -31.833 -217.5 -95.5s-90.5 -141.167 -90.5 -232.5s30.167 -168.833 90.5 -232.5s132.833 -95.5 217.5 -95.5c84 0 156 31.833 216 95.5s90 141.167 90 232.5
s-30 168.833 -90 232.5s-132 95.5 -216 95.5zM567.999 1413c-66 0 -123.501 -26 -172.501 -78s-73.5 -114.667 -73.5 -188c0 -74.667 24.333 -137.667 73 -189s106.334 -77 173.001 -77s124.167 25.833 172.5 77.5s72.5 114.5 72.5 188.5c0 73.333 -24.5 136 -73.5 188
s-106.167 78 -171.5 78z" />
    <glyph glyph-name="nine" unicode="9" 
d="M424 0l315 585.998c-56.667 -28.667 -114 -43 -172 -43c-146.667 0 -268.667 47.667 -366 143s-146 215 -146 359c0 142 51.333 263.333 154 364c48 46.667 103.167 82.834 165.5 108.501s126.5 38.5 192.5 38.5s130.167 -12.667 192.5 -38s117.5 -61.333 165.5 -108
c102.667 -100 154 -221 154 -363c0 -32.667 -5.33301 -71.667 -16 -117s-23.667 -83.666 -39 -114.999l-408 -815h-192zM567 675.998c98.667 0 181.334 35.333 248.001 106s100 158.334 100 263.001s-33.333 192.167 -100 262.5s-149.334 105.5 -248.001 105.5
s-181.334 -35.167 -248.001 -105.5s-100 -157.833 -100 -262.5s33.333 -192.334 100 -263.001s149.334 -106 248.001 -106z" />
    <glyph glyph-name="colon" unicode=":" horiz-adv-x="567" 
d="M180 0v246h205v-246h-205zM180 860v246h205v-246h-205z" />
    <glyph glyph-name="semicolon" unicode=";" horiz-adv-x="567" 
d="M385 246l-0.000976562 -144.001c0 -78.667 -28.167 -146 -84.5 -202s-123.833 -84 -202.5 -84h-20v184c28.667 0 52.834 9.83301 72.501 29.5s29.5 43.834 29.5 72.501v144h205zM384.999 859.999h-205v246h205v-246z" />
    <glyph glyph-name="less" unicode="&#x3c;" horiz-adv-x="1241" 
d="M102 682l1041 475v-153l-850 -390l850 -389v-153l-1041 477v133z" />
    <glyph glyph-name="equal" unicode="=" horiz-adv-x="1241" 
d="M1139 891v-154h-1035v154h1035zM104 338v154h1035v-154h-1035z" />
    <glyph glyph-name="greater" unicode="&#x3e;" horiz-adv-x="1241" 
d="M1139 549l-1041 -477v153l850 389l-850 390v153l1041 -475v-133z" />
    <glyph glyph-name="question" unicode="?" horiz-adv-x="1210" 
d="M440 676l102.998 -0.000976562c96.667 0 178.834 36.5 246.501 109.5s101.5 159.5 101.5 259.5c0 95.333 -32 179.333 -96 252c-67.333 77.333 -151.333 116 -252 116c-63.333 0 -121.666 -17 -174.999 -51l-71 131c42.667 22.667 82.667 38.834 120 48.501
s79.333 14.5 126 14.5c66 0 130 -12.5 192 -37.5s117 -60.5 165 -106.5c103.333 -100 155 -222.333 155 -367c0 -136 -46.333 -253 -139 -351c-87.333 -92 -191.333 -144.333 -312 -157v-86h-164v225zM603.998 245.999v-246h-164v246h164z" />
    <glyph glyph-name="at" unicode="@" horiz-adv-x="1776" 
d="M1317 615c0 -38 7.5 -68.4971 22.5 -91.4971s35.5 -34.5 61.5 -34.5c41.333 0 75.166 25.667 101.499 77s39.5 120.666 39.5 207.999c0 191.333 -57.667 345.666 -173 462.999s-269 176 -461 176c-80.667 0 -159.334 -16 -236.001 -48s-144.667 -77 -204 -135
c-63.333 -62 -111.833 -133.5 -145.5 -214.5s-50.5 -166.833 -50.5 -257.5c0 -91.333 16.833 -177.5 50.5 -258.5s81.834 -152.5 144.501 -214.5c59.333 -58 127.333 -103 204 -135s155.667 -48 237 -48h204v-143h-204c-106 0 -207.833 20.333 -305.5 61
s-184.167 98.667 -259.5 174c-75.333 74.667 -133.333 160.834 -174 258.501s-61 199.5 -61 305.5s20.333 207.667 61 305s98.667 183.666 174 258.999s161.666 133.166 258.999 173.499s199.333 60.5 306 60.5c110 0 212.833 -18.167 308.5 -54.5
s179.167 -88.833 250.5 -157.5c150 -145.333 225 -336.666 225 -573.999c0 -128.667 -25.667 -229.834 -77 -303.501s-120.666 -110.5 -207.999 -110.5c-41.333 0 -81.5 13 -120.5 39s-62.833 56 -71.5 90c-36 -41.333 -82.167 -74.333 -138.5 -99s-112.5 -37 -168.5 -37
c-112.667 0 -209.167 39.833 -289.5 119.5s-120.5 176.167 -120.5 289.5c0 114 41.667 211.333 125 292c80.667 78 174.667 117 282 117c90.667 0 173.334 -27 248.001 -81v41h164v-512zM908 1024c-67.333 0 -125.166 -25.667 -173.499 -77s-72.5 -114.333 -72.5 -189
s24.167 -137.667 72.5 -189s106.166 -77 173.499 -77s125 25.667 173 77s72 114.333 72 189s-24 137.667 -72 189s-105.667 77 -173 77z" />
    <glyph glyph-name="A" unicode="A" horiz-adv-x="1516" 
d="M41 0l635 1516h164l635 -1516h-185l-192 471h-680l-193 -471h-184zM758 1305l-281 -691h563z" />
    <glyph glyph-name="B" unicode="B" horiz-adv-x="1176" 
d="M158 0v1516h481c104.667 0 194 -37 268 -111s111 -163.333 111 -268c0 -114 -54.667 -213 -164 -297c55.333 -24 107 -67.333 155 -130c60.667 -79.333 91 -165.666 91 -258.999c0 -125.333 -43.833 -231.833 -131.5 -319.5s-194.167 -131.5 -319.5 -131.5h-491z
M649 142.999c79.333 0 147 30 203 90s84 132.667 84 218c0 84.667 -28 157 -84 217s-123.667 90 -203 90h-327v-615h327zM322 1373v-472h317c60.667 0 111.667 22.833 153 68.5s62 101.5 62 167.5s-20.667 121.833 -62 167.5s-92.333 68.5 -153 68.5h-317z" />
    <glyph glyph-name="C" unicode="C" horiz-adv-x="1665" 
d="M1612 409c-78.667 -147.333 -179.168 -259.17 -301.501 -335.503s-261.5 -114.5 -417.5 -114.5c-106 0 -207.667 20.5 -305 61.5s-183.666 99.167 -258.999 174.5c-75.333 76 -133.333 162.5 -174 259.5s-61 198.167 -61 303.5s20 206.5 60 303.5s97 183.167 171 258.5
c75.333 76 161.833 134.333 259.5 175s200.5 61 308.5 61c154 0 295.667 -40 425 -120s227.333 -190 294 -330h-180c-44 85.333 -117.333 157.833 -220 217.5s-209 89.5 -319 89.5c-84 0 -164.667 -16.5 -242 -49.5s-146 -80.167 -206 -141.5
s-106.167 -132.166 -138.5 -212.499s-48.5 -164.166 -48.5 -251.499s16.333 -171.166 49 -251.499s79.334 -151.5 140.001 -213.5c59.333 -61.333 127.666 -108.5 204.999 -141.5s157.666 -49.5 240.999 -49.5c105.333 0 208.833 28.833 310.5 86.5
s177.834 131.167 228.501 220.5h180z" />
    <glyph glyph-name="D" unicode="D" horiz-adv-x="1524" 
d="M168 0v1516h512c100.667 0 197.334 -19.167 290.001 -57.5s174.667 -93.166 246 -164.499s126.166 -153.333 164.499 -246s57.5 -189.334 57.5 -290.001s-19.167 -197.334 -57.5 -290.001s-93.166 -174.667 -164.499 -246s-153.333 -126.166 -246 -164.499
s-189.334 -57.5 -290.001 -57.5h-512zM680 143c81.333 0 158.5 15.833 231.5 47.5s137.5 77.5 193.5 137.5c54 57.333 95.667 123.333 125 198s44 152 44 232s-14.667 157.333 -44 232s-71 141 -125 199c-56 59.333 -120.5 104.833 -193.5 136.5s-150.167 47.5 -231.5 47.5
h-348v-1230h348z" />
    <glyph glyph-name="E" unicode="E" horiz-adv-x="1098" 
d="M160 0v1516h860v-143h-696v-513h573v-143h-573v-574h696v-143h-860z" />
    <glyph glyph-name="F" unicode="F" horiz-adv-x="993" 
d="M168 0v1516h819v-143h-655v-513h532v-143h-532v-717h-164z" />
    <glyph glyph-name="G" unicode="G" horiz-adv-x="1786" 
d="M1692 737c0 -104 -20.5 -203.668 -61.5 -299.001s-99.167 -179.666 -174.5 -252.999c-75.333 -72.667 -161.666 -128.5 -258.999 -167.5s-198.666 -58.5 -303.999 -58.5c-106 0 -207.333 19.833 -304 59.5s-182.334 96.167 -257.001 169.5
c-76 74.667 -134.333 161.167 -175 259.5s-61 201.833 -61 310.5c0 108 20.667 211 62 309s100.666 184.667 177.999 260c75.333 73.333 161.166 129.833 257.499 169.5s196.166 59.5 299.499 59.5c161.333 0 311.333 -46 450 -138
c128.667 -85.333 218.334 -189.333 269.001 -312h-180c-52.667 88.667 -128.834 162 -228.501 220s-203.167 87 -310.5 87c-81.333 0 -160.166 -15.833 -236.499 -47.5s-143.833 -76.834 -202.5 -135.501c-62.667 -61.333 -110.667 -132.666 -144 -213.999
s-50 -167.333 -50 -258c0 -90 17.333 -175.5 52 -256.5s84.334 -152.833 149.001 -215.5c60.667 -58.667 128.667 -104 204 -136s151.333 -48 228 -48c135.333 0 259 40.667 371 122c124 90 205.333 213.333 244 370h-615v143h799z" />
    <glyph glyph-name="H" unicode="H" horiz-adv-x="1399" 
d="M166 0v1516h164v-656h737v656h164v-1516h-164v717h-737v-717h-164z" />
    <glyph glyph-name="I" unicode="I" horiz-adv-x="463" 
d="M150 0v1516h164v-1516h-164z" />
    <glyph glyph-name="J" unicode="J" horiz-adv-x="987" 
d="M166 369c0 -73.333 24.332 -136.166 72.999 -188.499s106.334 -78.5 173.001 -78.5s124.167 26.167 172.5 78.5s72.5 115.166 72.5 188.499v1147h164v-1147c0 -112.667 -40 -209.167 -120 -289.5s-176.333 -120.5 -289 -120.5s-209.167 40.167 -289.5 120.5
s-120.5 176.833 -120.5 289.5v41h164v-41z" />
    <glyph glyph-name="K" unicode="K" horiz-adv-x="1210" 
d="M174 0v1516h164v-676l582 676h217l-619 -719l660 -797h-213l-627 758v-758h-164z" />
    <glyph glyph-name="L" unicode="L" horiz-adv-x="946" 
d="M166 0v1516h164v-1373h614v-143h-778z" />
    <glyph glyph-name="M" unicode="M" horiz-adv-x="1882" 
d="M162 0v1516h246l532 -1309l532 1309h246v-1516h-164v1309l-532 -1309h-164l-532 1309v-1309h-164z" />
    <glyph glyph-name="N" unicode="N" horiz-adv-x="1516" 
d="M164 0v1516h246l778 -1342v1342h164v-1516h-246l-778 1342v-1342h-164z" />
    <glyph glyph-name="O" unicode="O" horiz-adv-x="1780" 
d="M1688 758c0 -106 -20.333 -207.833 -61 -305.5s-98.334 -184.167 -173.001 -259.5c-75.333 -75.333 -161.833 -133.166 -259.5 -173.499s-199.5 -60.5 -305.5 -60.5s-207.833 20.167 -305.5 60.5s-183.834 98.166 -258.501 173.499
c-75.333 75.333 -133.333 161.833 -174 259.5s-61 199.5 -61 305.5s20.333 207.667 61 305s98.667 183.666 174 258.999c74.667 75.333 160.834 133.166 258.501 173.499s199.5 60.5 305.5 60.5s207.833 -20.167 305.5 -60.5s184.167 -98.166 259.5 -173.499
c74.667 -75.333 132.334 -161.666 173.001 -258.999s61 -199 61 -305zM889 1413c-78.667 0 -156 -15.667 -232 -47s-144 -75.333 -204 -132c-64 -62 -113.167 -133.833 -147.5 -215.5s-51.5 -168.5 -51.5 -260.5c0 -92.667 17.167 -179.834 51.5 -261.501
s83.5 -153.167 147.5 -214.5c60 -57.333 128 -101.666 204 -132.999s153.333 -47 232 -47s156 15.667 232 47s144 75.666 204 132.999c64 61.333 113.167 132.833 147.5 214.5s51.5 168.834 51.5 261.501c0 92 -17.167 178.833 -51.5 260.5s-83.5 153.5 -147.5 215.5
c-60 56.667 -128 100.667 -204 132s-153.333 47 -232 47z" />
    <glyph glyph-name="P" unicode="P" horiz-adv-x="1212" 
d="M176 0v1516h532c125.333 0 231.833 -43.833 319.5 -131.5s131.5 -194.167 131.5 -319.5c0 -124.667 -43.833 -230.834 -131.5 -318.501s-194.167 -131.5 -319.5 -131.5h-368v-615h-164zM708 758.001c80 0 147.833 29.5 203.5 88.5s83.5 131.833 83.5 218.5
c0 87.333 -27.833 160.5 -83.5 219.5s-123.5 88.5 -203.5 88.5h-368v-615h368z" />
    <glyph glyph-name="Q" unicode="Q" horiz-adv-x="1784" 
d="M1446 0c-71.333 0 -137.665 14.332 -198.998 42.999c-50 -25.333 -107.333 -45.666 -172 -60.999s-126 -23 -184 -23c-100.667 0 -199.167 19.5 -295.5 58.5s-181.833 94.5 -256.5 166.5c-80 75.333 -141.167 162.5 -183.5 261.5s-63.5 203.833 -63.5 314.5
s21.167 215.167 63.5 313.5s103.5 185.166 183.5 260.499c74.667 70.667 160 125.334 256 164.001s194.667 58 296 58s200 -19.333 296 -58s181.667 -93.667 257 -165c79.333 -75.333 140.166 -162.333 182.499 -261s63.5 -203.334 63.5 -314.001
c0 -102.667 -27.833 -214.167 -83.5 -334.5s-122.834 -213.166 -201.501 -278.499l31 -2h10h244v-143h-244zM1247 216.999c90 64 159.001 142.333 207.001 235s72 194.667 72 306c0 90 -16.833 175.5 -50.5 256.5s-81.834 152.167 -144.501 213.5
c-60 59.333 -128.167 105 -204.5 137s-154.833 48 -235.5 48s-159.167 -16 -235.5 -48s-144.5 -77.667 -204.5 -137c-62.667 -61.333 -110.834 -132.5 -144.501 -213.5s-50.5 -166.5 -50.5 -256.5c0 -112.667 32.667 -230.334 98 -353.001
c40 44.667 96.667 83.834 170 117.501s141 50.5 203 50.5c157.333 0 293.333 -74.333 408 -223l53 -70c20.667 -26.667 40.334 -47.667 59.001 -63zM444.002 292.999c59.333 -59.333 128.667 -105.999 208 -139.999s159 -51 239 -51c74 0 147.667 14.333 221 43l-24 26
c-12 13.333 -21 24.666 -27 33.999c-62 88 -116.5 147.5 -163.5 178.5s-103.833 46.5 -170.5 46.5c-46 0 -95.167 -12.833 -147.5 -38.5s-97.5 -58.5 -135.5 -98.5z" />
    <glyph glyph-name="R" unicode="R" horiz-adv-x="1243" 
d="M170 0v1516h553c118.667 0 220 -42 304 -126s126 -185.333 126 -304s-42 -220 -126 -304s-185.333 -126 -304 -126h-80l543 -656h-211l-641 789v-789h-164zM334 1373v-574h389c70 0 131.833 28.333 185.5 85s80.5 124 80.5 202s-26.833 145.333 -80.5 202
s-115.5 85 -185.5 85h-389z" />
    <glyph glyph-name="S" unicode="S" horiz-adv-x="1020" 
d="M756 1147c0 72.667 -24.1689 135.165 -72.502 187.498s-106.166 78.5 -173.499 78.5s-125.166 -26.167 -173.499 -78.5s-72.5 -114.833 -72.5 -187.5c0 -101.333 51.333 -178 154 -230l287 -145c72.667 -37.333 130 -90.166 172 -158.499s63 -143.166 63 -224.499
c0 -118.667 -42.167 -220 -126.5 -304s-185.5 -126 -303.5 -126s-219.167 42 -303.5 126s-126.5 185.333 -126.5 304v61h164v-61c0 -78 26.5 -145.333 79.5 -202s115.167 -85 186.5 -85c72.667 0 135.167 27.833 187.5 83.5s78.5 123.5 78.5 203.5
c0 107.333 -55.333 189.333 -166 246l-287 145c-69.333 35.333 -123.833 85.5 -163.5 150.5s-59.5 137.167 -59.5 216.5c0 112.667 39.833 209 119.5 289s176.5 120 290.5 120s210.833 -40 290.5 -120s119.5 -176.333 119.5 -289v-41h-164v41z" />
    <glyph glyph-name="T" unicode="T" horiz-adv-x="872" 
d="M354 0v1373h-328v143h820v-143h-328v-1373h-164z" />
    <glyph glyph-name="U" unicode="U" horiz-adv-x="1341" 
d="M322 1516l0.00195312 -1044c0 -101.333 33.667 -188.333 101 -261s149.666 -109 246.999 -109s179.666 36.333 246.999 109s101 159.667 101 261v1044h164v-1044c0 -142 -50 -263 -150 -363s-220.667 -150 -362 -150s-262 50 -362 150s-150 221 -150 363v1044h164z" />
    <glyph glyph-name="V" unicode="V" horiz-adv-x="1438" 
d="M637 0l-594 1516h176l500 -1276l500 1276h176l-594 -1516h-164z" />
    <glyph glyph-name="W" unicode="W" horiz-adv-x="1966" 
d="M451 0l-431 1516h170l347 -1221l364 1221h164l365 -1221l346 1221h170l-430 -1516h-164l-369 1241l-369 -1241h-163z" />
    <glyph glyph-name="X" unicode="X" horiz-adv-x="1247" 
d="M49 0l461 793l-420 723h186l347 -594l346 594h186l-420 -723l461 -793h-186l-387 666l-387 -666h-187z" />
    <glyph glyph-name="Y" unicode="Y" horiz-adv-x="1212" 
d="M524 0v614l-471 902h184l369 -705l369 705h184l-471 -902v-614h-164z" />
    <glyph glyph-name="Z" unicode="Z" horiz-adv-x="983" 
d="M41 0v143l704 1230h-663v143h819v-143l-704 -1230h745v-143h-901z" />
    <glyph glyph-name="bracketleft" unicode="[" horiz-adv-x="719" 
d="M666 1679v-143h-205v-1557h205v-143h-369v1843h369z" />
    <glyph glyph-name="backslash" unicode="\" horiz-adv-x="1239" 
d="M809 0l-635 1516h143l635 -1516h-143z" />
    <glyph glyph-name="bracketright" unicode="]" horiz-adv-x="719" 
d="M420 1679v-1843h-369v143h205v1557h-205v143h369z" />
    <glyph glyph-name="asciicircum" unicode="^" horiz-adv-x="1376" 
d="M340 1065l297 451h102l297 -451h-196l-152 250l-151 -250h-197z" />
    <glyph glyph-name="underscore" unicode="_" horiz-adv-x="1024" 
d="M1024 -133v-123h-1024v123h1024z" />
    <glyph glyph-name="grave" unicode="`" horiz-adv-x="774" 
d="M182 1556l471 -163l-61 -164l-471 164z" />
    <glyph glyph-name="a" unicode="a" horiz-adv-x="1399" 
d="M1087 0v159.002c-46.667 -58.667 -110 -106.667 -190 -144s-160 -56 -240 -56c-79.333 0 -155.166 15 -227.499 45s-136.5 73 -192.5 129s-99 120.167 -129 192.5s-45 148.166 -45 227.499s15 155.166 45 227.499s73 136.5 129 192.5s120.167 99 192.5 129
s148.166 45 227.499 45s158.833 -18.5 238.5 -55.5s143.5 -85.167 191.5 -144.5v159h164v-1106h-164zM657 1004c-114 0 -213.333 -42 -298 -126c-88 -88 -132 -196.333 -132 -325s44 -236.667 132 -324c84.667 -84.667 184 -127 298 -127s213.333 42.333 298 127
c88 87.333 132 195.333 132 324s-44 237 -132 325c-84.667 84 -184 126 -298 126z" />
    <glyph glyph-name="b" unicode="b" horiz-adv-x="1397" 
d="M309 1516v-569.002c43.333 54 106.833 100.833 190.5 140.5s163.5 59.5 239.5 59.5c79.333 0 155.166 -15 227.499 -45s136.5 -73 192.5 -129s99 -120.167 129 -192.5s45 -148.166 45 -227.499s-15 -155.166 -45 -227.499s-73 -136.5 -129 -192.5
s-120.167 -99 -192.5 -129s-148.166 -45 -227.499 -45c-76 0 -155.833 19.833 -239.5 59.5s-147.167 86.5 -190.5 140.5v-159h-164v1516h164zM739 1004c-113.333 0 -212.666 -42.667 -297.999 -128c-88 -88.667 -132 -196.334 -132 -323.001s44 -234.334 132 -323.001
c85.333 -85.333 184.666 -128 297.999 -128s212.666 42.667 297.999 128c88 88.667 132 196.334 132 323.001s-44 234.334 -132 323.001c-85.333 85.333 -184.666 128 -297.999 128z" />
    <glyph glyph-name="c" unicode="c" horiz-adv-x="1325" 
d="M1254 287c-69.333 -116.667 -149.333 -200.497 -240 -251.497s-204.667 -76.5 -342 -76.5c-80.667 0 -158 15 -232 45s-139.333 73 -196 129s-100.167 120.167 -130.5 192.5s-45.5 148.166 -45.5 227.499s15.167 155.166 45.5 227.499s73.833 136.5 130.5 192.5
s122 99 196 129s151.333 45 232 45c137.333 0 251.333 -25.333 342 -76s170.667 -134.334 240 -251.001h-182c-49.333 64.667 -105.5 111.5 -168.5 140.5s-140.167 43.5 -231.5 43.5c-127.333 0 -233.333 -45.333 -318 -136c-81.333 -87.333 -122 -192.333 -122 -315
s40.667 -227.667 122 -315c84.667 -90.667 190.667 -136 318 -136c91.333 0 168.5 14.667 231.5 44s119.167 76.333 168.5 141h182z" />
    <glyph glyph-name="d" unicode="d" horiz-adv-x="1403" 
d="M1254 1516v-1516h-164v159c-46.667 -57.333 -110.667 -105 -192 -143s-160.666 -57 -237.999 -57c-79.333 0 -155.333 15 -228 45s-136.667 73 -192 129c-56 56 -99.167 120.167 -129.5 192.5s-45.5 148.166 -45.5 227.499s15.167 155.166 45.5 227.499
s73.5 136.5 129.5 192.5c55.333 56 119.333 99 192 129s148.667 45 228 45c77.333 0 156.666 -19 237.999 -57s145.333 -85.667 192 -143v569h164zM660 1004c-113.333 0 -212 -41.333 -296 -124c-90 -87.333 -135 -196.333 -135 -327s45 -239.667 135 -327
c84 -82.667 182.667 -124 296 -124c112.667 0 211.334 41.333 296.001 124c89.333 87.333 134 196.333 134 327s-44.667 239.667 -134 327c-84.667 82.667 -183.334 124 -296.001 124z" />
    <glyph glyph-name="e" unicode="e" horiz-adv-x="1331" 
d="M1239 368c-40 -122 -112.67 -220.666 -218.003 -295.999s-223.666 -113 -354.999 -113c-79.333 0 -155.5 15.167 -228.5 45.5s-137.5 73.833 -193.5 130.5s-98.833 121.667 -128.5 195s-44.167 149.666 -43.5 228.999c0.666992 80 16.834 156.333 48.501 229
s75.834 137 132.501 193c57.333 55.333 122.833 97.333 196.5 126s150.5 42 230.5 40c79.333 -2 155 -19.167 227 -51.5s135.333 -77.5 190 -135.5s96 -124 124 -198s40.667 -150.667 38 -230h-1023c0 -51.333 10.667 -102.5 32 -153.5s51 -97.167 89 -138.5
c86 -92 189 -138 309 -138c84.667 0 163.167 24.833 235.5 74.5s124.833 113.5 157.5 191.5h180zM1079 675.001c-17.333 81.333 -62 154.333 -134 219c-81.333 73.333 -174.333 110 -279 110s-198 -36.667 -280 -110c-72 -64.667 -116.667 -137.667 -134 -219h827z" />
    <glyph glyph-name="f" unicode="f" horiz-adv-x="643" 
d="M199 0l0.000976562 963h-164v143h164v41c0 112.667 40.167 209 120.5 289s176.833 120 289.5 120v-143c-66.667 0 -124.334 -26.333 -173.001 -79s-73 -115 -73 -187v-41h246v-143h-246v-963h-164z" />
    <glyph glyph-name="g" unicode="g" horiz-adv-x="1378" 
d="M280 -82c30.667 -63.333 81.333 -116.831 152 -160.498s142.334 -65.5 215.001 -65.5c122.667 0 226 32.333 310 97c80 61.333 120 131.666 120 210.999v159c-38.667 -54 -100 -100.833 -184 -140.5s-166 -59.5 -246 -59.5c-79.333 0 -155.166 15 -227.499 45
s-136.5 73 -192.5 129s-99 120.167 -129 192.5s-45 148.166 -45 227.499c0 78.667 15 154.334 45 227.001s73 137 129 193s120.167 99 192.5 129s148.166 45 227.499 45s161.333 -20 246 -60s146 -87 184 -141v160h164v-1106c0 -54.667 -13.833 -108.834 -41.5 -162.501
s-66.834 -101.5 -117.501 -143.5c-114.667 -96.667 -259.667 -145 -435 -145c-121.333 0 -232 33.5 -332 100.5s-172.333 156.5 -217 268.5h182zM646.999 1004c-48.667 0 -98.167 -10.167 -148.5 -30.5s-95.5 -48.5 -135.5 -84.5c-97.333 -87.333 -146 -199.333 -146 -336
s48.667 -248.667 146 -336c40 -36 85.167 -64.167 135.5 -84.5s99.833 -30.5 148.5 -30.5s98.167 10.167 148.5 30.5s95.5 48.5 135.5 84.5c97.333 87.333 146 199.333 146 336s-48.667 248.667 -146 336c-40 36 -85.167 64.167 -135.5 84.5s-99.833 30.5 -148.5 30.5z" />
    <glyph glyph-name="h" unicode="h" horiz-adv-x="1249" 
d="M154 0l0.000976562 1516h164v-522c96 102 212 153 348 153c130 0 241 -46 333 -138s138 -203 138 -333v-676h-164v676c0 93.333 -29.167 171.333 -87.5 234s-131.5 94 -219.5 94c-102.667 0 -186.334 -30.333 -251.001 -91s-97 -139.667 -97 -237v-676h-164z" />
    <glyph glyph-name="i" unicode="i" horiz-adv-x="410" 
d="M123 0v1106h164v-1106h-164zM123 1516h164v-205h-164v205z" />
    <glyph glyph-name="j" unicode="j" horiz-adv-x="416" 
d="M-121 -308c68 0 126 25.832 174 77.499s72 114.834 72 189.501v1147h164v-1147c0 -113.333 -40 -210 -120 -290s-176.667 -120 -290 -120v143zM125 1311v205h164v-205h-164z" />
    <glyph glyph-name="k" unicode="k" horiz-adv-x="1028" 
d="M145 0v1516h164v-961l426 551h209l-461 -563l502 -543h-217l-459 516v-516h-164z" />
    <glyph glyph-name="l" unicode="l" horiz-adv-x="410" 
d="M123 0v1516h164v-1516h-164z" />
    <glyph glyph-name="m" unicode="m" horiz-adv-x="1921" 
d="M1657 697c0 85.333 -28.3281 157.832 -84.9951 217.499s-127.334 89.5 -212.001 89.5s-155.334 -29.833 -212.001 -89.5s-85 -132.167 -85 -217.5v-697h-164v697c0 85.333 -28.333 157.833 -85 217.5s-127.334 89.5 -212.001 89.5s-155.334 -29.667 -212.001 -89
s-85 -132 -85 -218v-697h-164v1106h164v-102c32 43.333 75.333 78 130 104s110.334 39 167.001 39c77.333 -0.666992 149.166 -18.5 215.499 -53.5s120.833 -83.167 163.5 -144.5c46.667 64 102.667 113 168 147s135.666 51 210.999 51c56.667 0 112.5 -10.833 167.5 -32.5
s104.167 -52.167 147.5 -91.5c97.333 -89.333 146 -201.666 146 -336.999v-686h-164v697z" />
    <glyph glyph-name="n" unicode="n" horiz-adv-x="1204" 
d="M111 0l-0.000976562 1106h164v-112c87.333 102 203.333 153 348 153c130 0 241 -46 333 -138s138 -203 138 -333v-676h-164v676c0 97.333 -30.167 176.333 -90.5 237s-137.166 91 -230.499 91c-95.333 0 -174.833 -30.667 -238.5 -92s-95.5 -140 -95.5 -236v-676h-164z
" />
    <glyph glyph-name="o" unicode="o" horiz-adv-x="1341" 
d="M1264 553c0 -79.333 -15 -155.166 -45 -227.499s-73 -136.5 -129 -192.5s-120.167 -99 -192.5 -129s-148.166 -45 -227.499 -45s-155.166 15 -227.499 45s-136.5 73 -192.5 129s-99 120.167 -129 192.5s-45 148.166 -45 227.499s15 155.166 45 227.499
s73 136.5 129 192.5s120.167 99 192.5 129s148.166 45 227.499 45s155.166 -15 227.499 -45s136.5 -73 192.5 -129s99 -120.167 129 -192.5s45 -148.166 45 -227.499zM670 1004c-118.667 0 -220 -43.833 -304 -131.5s-126 -194.167 -126 -319.5s42 -231.833 126 -319.5
s185.333 -131.5 304 -131.5s220 43.833 304 131.5s126 194.167 126 319.5s-42 231.833 -126 319.5s-185.333 131.5 -304 131.5z" />
    <glyph glyph-name="p" unicode="p" horiz-adv-x="1397" 
d="M145 1106l164 -0.00195312v-159c51.333 59.333 115.833 107.5 193.5 144.5s156.5 55.5 236.5 55.5c79.333 0 155.166 -15 227.499 -45s136.5 -73 192.5 -129s99 -120.167 129 -192.5s45 -148.166 45 -227.499s-15 -155.166 -45 -227.499s-73 -136.5 -129 -192.5
s-120.167 -99 -192.5 -129s-148.166 -45 -227.499 -45c-80 0 -158.833 18.5 -236.5 55.5s-142.167 85.167 -193.5 144.5v-569h-164v1516zM739 1004c-118.667 0 -220 -43.833 -304 -131.5s-126 -194.167 -126 -319.5s42 -231.833 126 -319.5s185.333 -131.5 304 -131.5
s220 43.833 304 131.5s126 194.167 126 319.5s-42 231.833 -126 319.5s-185.333 131.5 -304 131.5z" />
    <glyph glyph-name="q" unicode="q" horiz-adv-x="1397" 
d="M1251 -410l-164 0.00195312v569c-49.333 -58.667 -113.333 -106.667 -192 -144s-158 -56 -238 -56c-79.333 0 -155.166 15 -227.499 45s-136.5 73 -192.5 129s-99 120.167 -129 192.5s-45 148.166 -45 227.499s15 155.166 45 227.499s73 136.5 129 192.5
s120.167 99 192.5 129s148.166 45 227.499 45c80 0 159.333 -18.667 238 -56s142.667 -85.333 192 -144v159h164v-1516zM657 1004c-118 0 -219.167 -44 -303.5 -132s-126.5 -194.333 -126.5 -319s42.167 -231 126.5 -319s185.5 -132 303.5 -132s219.167 44 303.5 132
s126.5 194.333 126.5 319s-42.167 231 -126.5 319s-185.5 132 -303.5 132z" />
    <glyph glyph-name="r" unicode="r" horiz-adv-x="616" 
d="M143 0l-0.000976562 1106h164v-82c25.333 36 64.333 65.5 117 88.5s109.334 34.5 170.001 34.5v-143c-80 0 -147.833 -29.5 -203.5 -88.5s-83.5 -131.833 -83.5 -218.5v-697h-164z" />
    <glyph glyph-name="s" unicode="s" horiz-adv-x="795" 
d="M233 287c0 -46.667 15.332 -87.334 45.999 -122.001s69 -52 115 -52c119.333 0 179 58.667 179 176c0 54.667 -29.667 100.334 -89 137.001l-246 152c-46.667 28.667 -83 65.834 -109 111.501s-39 95.834 -39 150.501c0 84 30 156.167 90 216.5s131.333 90.5 214 90.5
c84 0 156.833 -30 218.5 -90s92.5 -132.333 92.5 -217v-41h-164v41c0 41.333 -14.667 77.166 -44 107.499s-65.333 45.5 -108 45.5c-45.333 0 -81.166 -13.5 -107.499 -40.5s-39.5 -63.833 -39.5 -110.5c0 -20.667 8 -43.334 24 -68.001s34.667 -43.667 56 -57l247 -152
c50 -30 88.5 -69.333 115.5 -118s40.5 -102 40.5 -160c0 -92 -31.667 -169.667 -95 -233s-142 -95 -236 -95c-95.333 0 -174.333 35.333 -237 106c-58.667 64.667 -88 138.667 -88 222v61h164v-61z" />
    <glyph glyph-name="t" unicode="t" horiz-adv-x="694" 
d="M264 0v963h-246v143h246v328h164v-328h246v-143h-246v-963h-164z" />
    <glyph glyph-name="u" unicode="u" horiz-adv-x="1245" 
d="M1094 1106l0.000976562 -1106h-164v112c-98 -102 -214 -153 -348 -153c-130 0 -241 46 -333 138s-138 203 -138 333v676h164v-676c0 -96.667 30.333 -175.5 91 -236.5s139.667 -91.5 237 -91.5c95.333 0 173.666 30.833 234.999 92.5s92 140.167 92 235.5v676h164z" />
    <glyph glyph-name="v" unicode="v" 
d="M485 0l-471 1106h179l374 -924l375 924h178l-471 -1106h-164z" />
    <glyph glyph-name="w" unicode="w" horiz-adv-x="1702" 
d="M399 0l-368 1106h174l276 -883l279 883h182l277 -883l276 883h174l-369 -1106h-163l-287 860l-287 -860h-164z" />
    <glyph glyph-name="x" unicode="x" horiz-adv-x="983" 
d="M768 0l-276 446l-277 -446h-195l375 602l-313 504h192l218 -348l217 348h192l-313 -504l375 -602h-195z" />
    <glyph glyph-name="y" unicode="y" horiz-adv-x="1098" 
d="M193 1106l356.001 -871.999l356 872h176l-557 -1366c-24 -58.667 -61.667 -105.167 -113 -139.5s-109 -51.5 -173 -51.5c-42 0 -82.833 8.66699 -122.5 26s-72.834 41.666 -99.501 72.999l121 110c10 -15.333 25 -28.333 45 -39s40 -16 60 -16
c59.333 0 103 33.333 131 100l88 213l-445 1090h177z" />
    <glyph glyph-name="z" unicode="z" horiz-adv-x="870" 
d="M45 0v143l573 820h-532v143h737v-143l-573 -820h573v-143h-778z" />
    <glyph glyph-name="braceleft" unicode="{" horiz-adv-x="719" 
d="M666 1536h-120.999c-24 0 -44 -8 -60 -24s-24 -36 -24 -60v-561c0 -36.667 -12.833 -68 -38.5 -94s-56.5 -39 -92.5 -39c36 0 66.833 -13 92.5 -39s38.5 -57.333 38.5 -94v-562c0 -23.333 8.16699 -43 24.5 -59s36.166 -24 59.499 -24h121v-143h-201
c-46 0 -85.5 16.333 -118.5 49s-49.5 72 -49.5 118v635c0 12.667 -4.66699 23.667 -14 33s-20.333 14 -33 14h-96v143h96c12.667 0 23.667 4.66699 33 14s14 20.333 14 33v636c0 45.333 16.5 84.5 49.5 117.5s72.5 49.5 118.5 49.5h201v-143z" />
    <glyph glyph-name="bar" unicode="|" horiz-adv-x="1376" 
d="M625 0v1516h133v-1516h-133z" />
    <glyph glyph-name="braceright" unicode="}" horiz-adv-x="719" 
d="M51 1679h201.001c46 0 85.5 -16.5 118.5 -49.5s49.5 -72.167 49.5 -117.5v-636c0 -12.667 4.83301 -23.667 14.5 -33s21.167 -14 34.5 -14h94v-143h-94c-13.333 0 -24.833 -4.66699 -34.5 -14s-14.5 -20.333 -14.5 -33v-635c0 -46 -16.5 -85.333 -49.5 -118
s-72.5 -49 -118.5 -49h-201v143h121c23.333 0 43.166 8 59.499 24s24.5 35.667 24.5 59v562c0 36.667 13 68 39 94s57.333 39 94 39c-36.667 0 -68 13 -94 39s-39 57.333 -39 94v561c0 24 -8 44 -24 60s-36 24 -60 24h-121v143z" />
    <glyph glyph-name="asciitilde" unicode="~" horiz-adv-x="1241" 
d="M1049 750c-33.333 -42 -74.5 -75.499 -123.5 -100.499s-99.5 -37.5 -151.5 -37.5c-46 0 -93.667 11 -143 33l-80 35c-24 10.667 -50.667 16 -80 16c-62.667 0 -116 -25.333 -160 -76l-118 95c32 41.333 72.833 74.166 122.5 98.499s101.5 36.5 155.5 36.5
c50 0 97 -10.333 141 -31l78 -35c26.667 -12 54.667 -18 84 -18c60 0 112 26 156 78z" />
    <glyph glyph-name="exclamdown" unicode="&#xa1;" horiz-adv-x="604" 
d="M219 -410v1065h164v-1065h-164zM219 1106h164v-246h-164v246z" />
    <glyph glyph-name="cent" unicode="&#xa2;" 
d="M516 0v230.004c-132 18.667 -241.833 78.167 -329.5 178.5s-131.5 216.833 -131.5 349.5s43.833 249.167 131.5 349.5s197.5 159.833 329.5 178.5v230h143v-230c105.333 -14.667 197.833 -56.834 277.5 -126.501s133.834 -155.834 162.501 -258.501h-168
c-12.667 51.333 -48 102.333 -106 153c-71.333 62 -150.333 93 -237 93c-100 0 -186.5 -38.333 -259.5 -115s-109.5 -168 -109.5 -274s36.5 -197.333 109.5 -274s159.5 -115 259.5 -115c87.333 0 165.333 29.667 234 89c55.333 48 91 100.333 107 157h170
c-28.667 -102.667 -82.834 -188.834 -162.501 -258.501s-172.167 -111.834 -277.5 -126.501v-230h-143z" />
    <glyph glyph-name="sterling" unicode="&#xa3;" 
d="M56 0l0.00292969 142.999h143v635h-143v143h143v123c0 140.667 50.667 261.334 152 362.001c48 48 103.167 85 165.5 111s127.166 39 194.499 39c64 0 128.667 -12.667 194 -38v-166c-58.667 40.667 -123.334 61 -194.001 61c-94.667 0 -176.334 -36.5 -245.001 -109.5
s-103 -159.5 -103 -259.5v-123h450v-143h-450v-635h450c40 0 73.833 15.667 101.5 47s41.5 70.333 41.5 117h164c0 -84.667 -29.833 -157 -89.5 -217s-132.167 -90 -217.5 -90h-757z" />
    <glyph glyph-name="currency" unicode="&#xa4;" 
d="M903 1034c49.333 -71.333 73.999 -149.666 73.999 -234.999s-24.667 -163.333 -74 -234l115 -115l-100 -102l-115 115c-71.333 -49.333 -149.666 -74 -234.999 -74s-163.333 24.667 -234 74l-115 -115l-102 102l115 115c-49.333 70.667 -74 148.667 -74 234
s24.667 163.666 74 234.999l-115 115l102 100l115 -114c69.333 48.667 147.333 73 234 73c86 0 164.333 -24.333 235 -73l115 114l100 -100zM833.999 799c0 73.333 -26 136 -78 188s-114.667 78 -188 78c-74 0 -137 -26 -189 -78s-78 -114.667 -78 -188
c0 -74 26 -137 78 -189s115 -78 189 -78c73.333 0 136 26 188 78s78 115 78 189z" />
    <glyph glyph-name="yen" unicode="&#xa5;" 
d="M485 0v369h-369v143h369v144h-369v143h308l-369 717h184l328 -666l328 666h184l-369 -717h308v-143h-369v-144h369v-143h-369v-369h-164z" />
    <glyph glyph-name="brokenbar" unicode="&#xa6;" horiz-adv-x="1376" 
d="M756 1516v-604h-133v604h133zM623 0v604h133v-604h-133z" />
    <glyph glyph-name="section" unicode="&#xa7;" horiz-adv-x="1260" 
d="M793 1229c0 49.333 -15.999 92.332 -47.999 128.999s-70.667 55 -116 55s-84 -17 -116 -51s-48 -73.667 -48 -119c0 -38 12.833 -74.333 38.5 -109s55.834 -56.334 90.501 -65.001l181 -41c74 -17.333 133 -54.333 177 -111s66 -124 66 -202
c0 -38.667 -8.5 -77.667 -25.5 -117s-40.5 -73.666 -70.5 -102.999c38 -57.333 57 -124.666 57 -201.999c0 -89.333 -34.833 -167.333 -104.5 -234s-152.167 -100 -247.5 -100c-96 0 -177.667 34.167 -245 102.5s-101 150.166 -101 245.499h164c0 -58 18 -106.667 54 -146
s79.333 -59 130 -59c47.333 0 90.166 19.333 128.499 58s57.5 83 57.5 133c0 42 -14.5 82.833 -43.5 122.5s-62.833 63.5 -101.5 71.5l-187 41c-70.667 16 -128.834 52.667 -174.501 110s-68.5 121.666 -68.5 192.999c0 46.667 9.16699 90.834 27.5 132.501
s43.833 76.167 76.5 103.5c-28.667 49.333 -43 103.333 -43 162c0 90.667 32.167 167.834 96.5 231.501s141.5 95.5 231.5 95.5c90.667 0 168 -31.5 232 -94.5s96 -140.5 96 -232.5h-164zM557.001 908.999c-29.333 5.33301 -62 18.3311 -98 38.998
c-36.667 -29.333 -55 -68.333 -55 -117c0 -34 10.667 -64.333 32 -91s49.333 -44 84 -52l185 -41c32.667 -5.33301 64.667 -17.666 96 -36.999c35.333 30 53 68.333 53 115c0 32.667 -11 62.834 -33 90.501s-49.667 45.167 -83 52.5z" />
    <glyph glyph-name="dieresis" unicode="&#xa8;" horiz-adv-x="756" 
d="M459 1434h164v-164h-164v164zM295 1270h-164v164h164v-164z" />
    <glyph glyph-name="copyright" unicode="&#xa9;" horiz-adv-x="1530" 
d="M1563 758c0 -106 -20.334 -207.832 -61.001 -305.499s-98.334 -184.167 -173.001 -259.5c-75.333 -75.333 -161.833 -133.166 -259.5 -173.499s-199.5 -60.5 -305.5 -60.5c-106.667 0 -208.667 20.167 -306 60.5s-183.666 98.166 -258.999 173.499
s-133.166 161.666 -173.499 258.999s-60.5 199.333 -60.5 306c0 106 20.167 207.667 60.5 305s98.166 183.666 173.499 258.999s161.833 133.166 259.5 173.499s199.5 60.5 305.5 60.5s207.833 -20.167 305.5 -60.5s184.167 -98.166 259.5 -173.499
c74.667 -75.333 132.334 -161.666 173.001 -258.999s61 -199 61 -305zM1479 758.001c0 95.333 -18.167 186.666 -54.5 273.999s-87.833 164.333 -154.5 231c-67.333 67.333 -144.666 119 -231.999 155s-178.666 54 -273.999 54s-186.666 -18 -273.999 -54
s-164.666 -87.667 -231.999 -155c-67.333 -66.667 -119 -143.667 -155 -231s-54 -178.666 -54 -273.999s18 -186.666 54 -273.999s87.667 -164.666 155 -231.999s144.666 -119 231.999 -155s178.666 -54 273.999 -54s186.666 18 273.999 54s164.666 87.667 231.999 155
c66.667 67.333 118.167 144.666 154.5 231.999s54.5 178.666 54.5 273.999zM1114 924.001c-32 77.333 -77.833 136.501 -137.5 177.501s-130.5 61.5 -212.5 61.5c-110.667 0 -203.334 -38.5 -278.001 -115.5s-112 -173.5 -112 -289.5c0 -116.667 37.333 -213.5 112 -290.5
s167.334 -115.5 278.001 -115.5c82 0 152.833 20.5 212.5 61.5s105.5 100.5 137.5 178.5h156c-38 -112 -102.833 -201.167 -194.5 -267.5s-195.5 -99.5 -311.5 -99.5c-62 0 -124.167 11.667 -186.5 35s-117.833 56 -166.5 98c-120 101.333 -180 234.666 -180 399.999
c0 164.667 60 298 180 400c48.667 41.333 104.167 73.666 166.5 96.999s124.5 35 186.5 35c116 0 220.167 -33.167 312.5 -99.5s156.833 -155.166 193.5 -266.499h-156z" />
    <glyph glyph-name="ordfeminine" unicode="&#xaa;" horiz-adv-x="756" 
d="M561 1008c-24 -26 -54.333 -46.833 -91 -62.5s-74.334 -23.5 -113.001 -23.5c-90 0 -167.167 32.167 -231.5 96.5s-96.5 141.5 -96.5 231.5s32.167 167 96.5 231s141.5 96 231.5 96c38.667 0 76.334 -7.83301 113.001 -23.5s67 -36.5 91 -62.5v65h123v-614h-123v66z
M357 1475c-56 0 -104.167 -21.833 -144.5 -65.5s-60.5 -96.834 -60.5 -159.501c0 -63.333 20.167 -116.833 60.5 -160.5s88.5 -65.5 144.5 -65.5c55.333 0 103.166 21.833 143.499 65.5s60.5 97.167 60.5 160.5c0 62.667 -20.167 115.834 -60.5 159.501
s-88.166 65.5 -143.499 65.5zM29 717v102h696v-102h-696z" />
    <glyph glyph-name="guillemotleft" unicode="&#xab;" horiz-adv-x="870" 
d="M233 614l191 -346l-117 -63l-225 409l225 410l117 -63zM446 614l226 410l116 -63l-190 -347l190 -346l-116 -63z" />
    <glyph glyph-name="logicalnot" unicode="&#xac;" horiz-adv-x="1241" 
d="M985 338v399h-881v154h1035v-553h-154z" />
    <glyph glyph-name="sfthyphen" unicode="&#xad;" horiz-adv-x="680" 
d="M66 543v133h548v-133h-548z" />
    <glyph glyph-name="registered" unicode="&#xae;" horiz-adv-x="1530" 
d="M1563 758c0 -106 -20.333 -207.833 -61 -305.5s-98.334 -184.167 -173.001 -259.5c-75.333 -75.333 -161.833 -133.166 -259.5 -173.499s-199.5 -60.5 -305.5 -60.5s-207.833 20.167 -305.5 60.5s-183.834 98.166 -258.501 173.499
c-75.333 75.333 -133.333 161.833 -174 259.5s-61 199.5 -61 305.5s20.333 207.667 61 305s98.667 183.666 174 258.999c74.667 75.333 160.834 133.166 258.501 173.499s199.5 60.5 305.5 60.5s207.833 -20.167 305.5 -60.5s184.167 -98.166 259.5 -173.499
c74.667 -75.333 132.334 -161.666 173.001 -258.999s61 -199 61 -305zM1479 758c0 95.333 -18.167 186.666 -54.5 273.999s-87.833 164.333 -154.5 231c-67.333 67.333 -144.666 119 -231.999 155s-178.666 54 -273.999 54s-186.666 -18 -273.999 -54
s-164.666 -87.667 -231.999 -155c-66.667 -66.667 -118.167 -143.667 -154.5 -231s-54.5 -178.666 -54.5 -273.999s18.167 -186.666 54.5 -273.999s87.833 -164.666 154.5 -231.999c67.333 -67.333 144.666 -119 231.999 -155s178.666 -54 273.999 -54
s186.666 18 273.999 54s164.666 87.667 231.999 155c66.667 67.333 118.167 144.666 154.5 231.999s54.5 178.666 54.5 273.999zM792 696l381 -450h-174l-389 460v-460h-143v1024h379c78.667 0 146 -28.167 202 -84.5s84 -123.833 84 -202.5s-28 -146.167 -84 -202.5
s-123.333 -84.5 -202 -84.5h-54zM610 819h215c45.333 0 84 16.167 116 48.5s48 70.833 48 115.5c0 45.333 -16 84 -48 116s-70.667 48 -116 48h-215v-328z" />
    <glyph glyph-name="macron" unicode="&#xaf;" horiz-adv-x="993" 
d="M209 1270v143h573v-143h-573z" />
    <glyph glyph-name="degree" unicode="&#xb0;" horiz-adv-x="819" 
d="M758 1208c0 -96 -34 -178 -102 -246s-150 -102 -246 -102c-96.667 0 -179 34 -247 102s-102 150 -102 246s34 178 102 246s150.333 102 247 102c96 0 178 -34 246 -102s102 -150 102 -246zM635 1208c0 62.667 -21.833 115.834 -65.5 159.501s-96.834 65.5 -159.501 65.5
s-116 -21.833 -160 -65.5s-66 -96.834 -66 -159.501s22 -115.834 66 -159.501s97.333 -65.5 160 -65.5s115.834 21.833 159.501 65.5s65.5 96.834 65.5 159.501z" />
    <glyph glyph-name="plusminus" unicode="&#xb1;" horiz-adv-x="1241" 
d="M545 651h-440v154h440v332h154v-332h440v-154h-440v-333h-154v333zM105 0v154h1034v-154h-1034z" />
    <glyph glyph-name="twosuperior" unicode="&#xb2;" horiz-adv-x="680" 
d="M45 799l-0.00195312 72.001l422 384c30 25.333 45 57.666 45 96.999c0 42.667 -16.667 78.834 -50 108.501s-74 44.5 -122 44.5s-88.667 -14.833 -122 -44.5s-50 -65.834 -50 -108.501v-52h-98v52c0 61.333 26.333 114.166 79 158.499s116.334 66.5 191.001 66.5
s138.334 -22.167 191.001 -66.5s79 -97.166 79 -158.499c0 -26 -6.5 -52.833 -19.5 -80.5s-30.167 -51.5 -51.5 -71.5l-373 -329h444v-72h-565z" />
    <glyph glyph-name="threesuperior" unicode="&#xb3;" horiz-adv-x="680" 
d="M82 1351l0.000976562 21.002c0 56 24.667 104.167 74 144.5s110.666 60.5 183.999 60.5s134.666 -19.333 183.999 -58s74 -84.334 74 -137.001c0 -42.667 -12.167 -79.5 -36.5 -110.5s-57.166 -52.167 -98.499 -63.5c50 -12 91.167 -35.333 123.5 -70s48.5 -72 48.5 -112
c0 -72 -27.167 -131.333 -81.5 -178s-125.5 -70 -213.5 -70c-86.667 0 -157.5 23.5 -212.5 70.5s-82.5 105.5 -82.5 175.5h98c0 -50.667 18.333 -92.334 55 -125.001s84 -49 142 -49c57.333 0 104.5 15.5 141.5 46.5s55.5 70.167 55.5 117.5c0 48 -18 86.5 -54 115.5
s-83.667 43.5 -143 43.5h-37v72h37c50 0 89.167 11.333 117.5 34s42.5 53.667 42.5 93c0 38.667 -15 70.5 -45 95.5s-68.333 37.5 -115 37.5s-85 -12.667 -115 -38s-45 -57 -45 -95v-21h-98z" />
    <glyph glyph-name="acute" unicode="&#xb4;" horiz-adv-x="768" 
d="M649 1393l-471 -164l-61 164l471 163z" />
    <glyph glyph-name="mu" unicode="&#xb5;" horiz-adv-x="1245" 
d="M1094 1106v-1106h-164v96c-41.333 -42.667 -89.333 -76.167 -144 -100.5s-109 -36.5 -163 -36.5s-108.333 12.167 -163 36.5s-102.667 57.833 -144 100.5v-506h-164v1516h164v-676c0 -89.333 30 -166.333 90 -231s132.333 -97 217 -97s157 32.333 217 97
s90 141.667 90 231v676h164z" />
    <glyph glyph-name="paragraph" unicode="&#xb6;" horiz-adv-x="1155" 
d="M455 779c-101.333 0 -188.166 36.001 -260.499 108.001s-108.5 158.667 -108.5 260s36.167 188.166 108.5 260.499s159.166 108.5 260.499 108.5h164v-1680h-164v943zM987 1516v-1680h-164v1680h164z" />
    <glyph glyph-name="middot" unicode="&#xb7;" horiz-adv-x="567" 
d="M406 676c0 -34 -12 -63 -36 -87s-53 -36 -87 -36s-63 12 -87 36s-36 53 -36 87s12 63 36 87s53 36 87 36s63 -12 87 -36s36 -53 36 -87z" />
    <glyph glyph-name="cedilla" unicode="&#xb8;" horiz-adv-x="664" 
d="M169 -410l220.001 -0.000976562c57.333 0 86 31 86 93c0 61.333 -28.667 92 -86 92h-118v225h143v-102c58 -3.33301 106.667 -26.166 146 -68.499s58.666 -92.833 57.999 -151.5s-22 -108.5 -64 -149.5s-92 -61.5 -150 -61.5h-235v123z" />
    <glyph glyph-name="onesuperior" unicode="&#xb9;" horiz-adv-x="680" 
d="M426 1556v-758h-98v626l-135 -113l-74 62l221 183h86z" />
    <glyph glyph-name="ordmasculine" unicode="&#xba;" horiz-adv-x="756" 
d="M705 1250c0 -90 -32.167 -167.167 -96.5 -231.5s-141.5 -96.5 -231.5 -96.5s-167.167 32.167 -231.5 96.5s-96.5 141.5 -96.5 231.5s32.167 167 96.5 231s141.5 96 231.5 96s167.167 -32 231.5 -96s96.5 -141 96.5 -231zM377 1475c-56.667 0 -105 -22.167 -145 -66.5
s-60 -97.166 -60 -158.499c0 -62 20 -115.167 60 -159.5s88.333 -66.5 145 -66.5s105 22.167 145 66.5s60 97.5 60 159.5c0 61.333 -20 114.166 -60 158.499s-88.333 66.5 -145 66.5zM725 717h-696v102h696v-102z" />
    <glyph glyph-name="guillemotright" unicode="&#xbb;" horiz-adv-x="870" 
d="M446 961l117 63l225 -410l-225 -409l-117 63l189 346zM199 205l-117 63l188 346l-188 347l117 63l225 -410z" />
    <glyph glyph-name="onequarter" unicode="&#xbc;" horiz-adv-x="1702" 
d="M625 1516v-758h-113v567l-94 -94l-80 80l205 205h82zM379 0h-103l1045 1516h103zM1219 256v346l-256 -346h256zM1219 0v164h-348v123l348 471h113v-502h102v-92h-102v-164h-113z" />
    <glyph glyph-name="onehalf" unicode="&#xbd;" horiz-adv-x="1702" 
d="M625 1516v-758h-113v567l-94 -94l-80 80l205 205h82zM276 0l1045 1516h103l-1045 -1516h-103zM972 549c0 63.333 22.501 117.333 67.501 162s99.833 67 164.5 67c63.333 0 117.5 -22.833 162.5 -68.5s67.5 -99.167 67.5 -160.5c0 -63.333 -20.667 -116 -62 -158
l-287 -299h349v-92h-482v102l338 367c20.667 20 31 46.667 31 80c0 38.667 -11.333 71.167 -34 97.5s-50.334 39.5 -83.001 39.5c-34.667 0 -63.167 -13 -85.5 -39s-33.5 -58.667 -33.5 -98v-37h-113v37z" />
    <glyph glyph-name="threequarters" unicode="&#xbe;" horiz-adv-x="1702" 
d="M246 1311l-0.000976562 20.002c0 56.667 20 105 60 145s88.333 60 145 60c56 0 104.167 -20.167 144.5 -60.5s60.5 -88.5 60.5 -144.5c0 -68 -34.333 -122.667 -103 -164c37.333 -13.333 68.833 -38.333 94.5 -75s38.5 -76.334 38.5 -119.001
c0 -66 -22.833 -121.833 -68.5 -167.5s-101.167 -68.5 -166.5 -68.5s-121 23 -167 69s-69 101.667 -69 167v10h113v-10c0 -43.333 11.333 -78.166 34 -104.499s52.334 -39.5 89.001 -39.5s66.167 13.167 88.5 39.5s33.5 61.166 33.5 104.499c0 44 -11.333 79.833 -34 107.5
s-52 41.5 -88 41.5h-31v92h31c29.333 0 52 10.167 68 30.5s24 49.166 24 86.499c0 34.667 -8.5 62.167 -25.5 82.5s-39.167 30.5 -66.5 30.5s-49.5 -10.167 -66.5 -30.5s-25.5 -47.833 -25.5 -82.5v-20h-113zM378.999 0.00195312h-102l1044 1516h102zM962.999 256.002h256
v346zM870.999 164.002v123l348 471h113v-502h102v-92h-102v-164h-113v164h-348z" />
    <glyph glyph-name="questiondown" unicode="&#xbf;" horiz-adv-x="1210" 
d="M768 430h-101.997c-96 0 -178.167 -36.167 -246.5 -108.5s-102.5 -159.166 -102.5 -260.499c0 -102 34 -189 102 -261s150.333 -108 247 -108c62.667 0 120.667 17 174 51l71 -131c-74.667 -42 -156.334 -63 -245.001 -63c-65.333 0 -129 12.667 -191 38
s-117.333 61 -166 107c-104 100.667 -156 223 -156 367c0 140 49.667 259.333 149 358c41.333 41.333 88.666 75.166 141.999 101.499s106.666 42.5 159.999 48.5v86h164v-225zM604.003 860v246h164v-246h-164z" />
    <glyph glyph-name="Agrave" unicode="&#xc0;" horiz-adv-x="1516" 
d="M41 0l635 1516h164l635 -1516h-185l-192 471h-680l-193 -471h-184zM758 1305l-281 -691h563zM553 1966l471 -163l-61 -164l-471 164z" />
    <glyph glyph-name="Aacute" unicode="&#xc1;" horiz-adv-x="1516" 
d="M41 0l635 1516h164l635 -1516h-185l-192 471h-680l-193 -471h-184zM758 1305l-281 -691h563zM1022 1803l-471 -164l-61 164l471 163z" />
    <glyph glyph-name="Acircumflex" unicode="&#xc2;" horiz-adv-x="1516" 
d="M41 0l635 1516h164l635 -1516h-185l-192 471h-680l-193 -471h-184zM758 1305l-281 -691h563zM819 1926l295 -125l-69 -162l-287 123l-287 -123l-69 162l295 125h122z" />
    <glyph glyph-name="Atilde" unicode="&#xc3;" horiz-adv-x="1516" 
d="M41 0l635 1516h164l635 -1516h-185l-192 471h-680l-193 -471h-184zM758 1305l-281 -691h563zM848 1827c12 -4 23.3291 -5.99902 33.9961 -5.99902c18.667 0 36.834 6 54.501 18s29.834 27 36.501 45l131 -57c-20 -45.333 -50 -81.166 -90 -107.499
s-84.667 -39.5 -134 -39.5c-24 0 -49 4 -75 12l-142 45c-12 4 -23.333 6 -34 6c-17.333 0 -34.666 -5.83301 -51.999 -17.5s-30.333 -26.834 -39 -45.501l-131 57c18.667 43.333 48.834 78.666 90.501 105.999s87.5 41 137.5 41c18.667 0 43 -4 73 -12z" />
    <glyph glyph-name="Adieresis" unicode="&#xc4;" horiz-adv-x="1516" 
d="M41 0l635 1516h164l635 -1516h-185l-192 471h-680l-193 -471h-184zM758 1305l-281 -691h563zM838 1844h164v-164h-164v164zM674 1680h-164v164h164v-164z" />
    <glyph glyph-name="Aring" unicode="&#xc5;" horiz-adv-x="1516" 
d="M41 0l635 1516h164l635 -1516h-185l-192 471h-680l-193 -471h-184zM758 1305l-281 -691h563zM1024 1946c0 -74 -25.833 -136.833 -77.5 -188.5s-114.5 -77.5 -188.5 -77.5s-136.833 25.833 -188.5 77.5s-77.5 114.5 -77.5 188.5s25.833 136.833 77.5 188.5
s114.5 77.5 188.5 77.5s136.833 -25.833 188.5 -77.5s77.5 -114.5 77.5 -188.5zM881 1946c0 34 -12 63 -36 87s-53 36 -87 36s-63 -12 -87 -36s-36 -53 -36 -87s12 -63 36 -87s53 -36 87 -36s63 12 87 36s36 53 36 87z" />
    <glyph glyph-name="AE" unicode="&#xc6;" horiz-adv-x="2032" 
d="M1077 0v512h-524l-305 -512h-195l922 1516h962v-143h-696v-513h573v-143h-573v-574h696v-143h-860zM639 655h438v736z" />
    <glyph glyph-name="Ccedilla" unicode="&#xc7;" horiz-adv-x="1665" 
d="M1612 409c-78.667 -147.333 -179.168 -259.17 -301.501 -335.503s-261.5 -114.5 -417.5 -114.5c-106 0 -207.667 20.5 -305 61.5s-183.666 99.167 -258.999 174.5c-75.333 76 -133.333 162.5 -174 259.5s-61 198.167 -61 303.5s20 206.5 60 303.5s97 183.167 171 258.5
c75.333 76 161.833 134.333 259.5 175s200.5 61 308.5 61c154 0 295.667 -40 425 -120s227.333 -190 294 -330h-180c-44 85.333 -117.333 157.833 -220 217.5s-209 89.5 -319 89.5c-84 0 -164.667 -16.5 -242 -49.5s-146 -80.167 -206 -141.5
s-106.167 -132.166 -138.5 -212.499s-48.5 -164.166 -48.5 -251.499s16.333 -171.166 49 -251.499s79.334 -151.5 140.001 -213.5c59.333 -61.333 127.666 -108.5 204.999 -141.5s157.666 -49.5 240.999 -49.5c105.333 0 208.833 28.833 310.5 86.5
s177.834 131.167 228.501 220.5h180zM668.999 -410.004l220.001 -0.000976562c57.333 0 86 31 86 93c0 61.333 -28.667 92 -86 92h-118v225h143v-102c58 -3.33301 106.667 -26.166 146 -68.499s58.666 -92.833 57.999 -151.5s-22 -108.5 -64 -149.5s-92 -61.5 -150 -61.5
h-235v123z" />
    <glyph glyph-name="Egrave" unicode="&#xc8;" horiz-adv-x="1098" 
d="M160 0v1516h860v-143h-696v-513h573v-143h-573v-574h696v-143h-860zM344 1966l471 -163l-61 -164l-471 164z" />
    <glyph glyph-name="Eacute" unicode="&#xc9;" horiz-adv-x="1098" 
d="M160 0v1516h860v-143h-696v-513h573v-143h-573v-574h696v-143h-860zM813 1803l-471 -164l-61 164l471 163z" />
    <glyph glyph-name="Ecircumflex" unicode="&#xca;" horiz-adv-x="1098" 
d="M160 0v1516h860v-143h-696v-513h573v-143h-573v-574h696v-143h-860zM610 1926l295 -125l-69 -162l-287 123l-287 -123l-69 162l295 125h122z" />
    <glyph glyph-name="Edieresis" unicode="&#xcb;" horiz-adv-x="1098" 
d="M160 0v1516h860v-143h-696v-513h573v-143h-573v-574h696v-143h-860zM629 1844h164v-164h-164v164zM465 1680h-164v164h164v-164z" />
    <glyph glyph-name="Igrave" unicode="&#xcc;" horiz-adv-x="463" 
d="M150 0v1516h164v-1516h-164zM26 1966l471 -163l-61 -164l-471 164z" />
    <glyph glyph-name="Iacute" unicode="&#xcd;" horiz-adv-x="463" 
d="M150 0v1516h164v-1516h-164zM497 1803l-471 -164l-61 164l471 163z" />
    <glyph glyph-name="Icircumflex" unicode="&#xce;" horiz-adv-x="463" 
d="M150 0v1516h164v-1516h-164zM292 1926l295 -125l-69 -162l-287 123l-287 -123l-69 162l295 125h122z" />
    <glyph glyph-name="Idieresis" unicode="&#xcf;" horiz-adv-x="463" 
d="M150 0v1516h164v-1516h-164zM314 1844h164v-164h-164v164zM150 1680h-164v164h164v-164z" />
    <glyph glyph-name="Eth" unicode="&#xd0;" horiz-adv-x="1618" 
d="M236 0v717h-123v143h123v656h512c100.667 0 197.167 -19.167 289.5 -57.5s174.166 -93.166 245.499 -164.499s126.166 -153.333 164.499 -246s57.5 -189.334 57.5 -290.001s-19.167 -197.334 -57.5 -290.001s-93.166 -174.667 -164.499 -246
s-153.166 -126.166 -245.499 -164.499s-188.833 -57.5 -289.5 -57.5h-512zM400 717v-574h348c76.667 0 150.834 15 222.501 45s135.167 73 190.5 129c58 57.333 102.5 124 133.5 200s46.5 156.333 46.5 241s-15.5 164.834 -46.5 240.501s-75.5 142.5 -133.5 200.5
c-55.333 55.333 -118.833 98.166 -190.5 128.499s-145.834 45.5 -222.501 45.5h-348v-513h307v-143h-307z" />
    <glyph glyph-name="Ntilde" unicode="&#xd1;" horiz-adv-x="1516" 
d="M164 0v1516h246l778 -1342v1342h164v-1516h-246l-778 1342v-1342h-164zM848 1827c12 -4 23.3291 -5.99902 33.9961 -5.99902c18.667 0 36.834 6 54.501 18s29.834 27 36.501 45l131 -57c-20 -45.333 -50 -81.166 -90 -107.499s-84.667 -39.5 -134 -39.5
c-24 0 -49 4 -75 12l-142 45c-12 4 -23.333 6 -34 6c-17.333 0 -34.666 -5.83301 -51.999 -17.5s-30.333 -26.834 -39 -45.501l-131 57c18.667 43.333 48.834 78.666 90.501 105.999s87.5 41 137.5 41c18.667 0 43 -4 73 -12z" />
    <glyph glyph-name="Ograve" unicode="&#xd2;" horiz-adv-x="1780" 
d="M1688 758c0 -106 -20.333 -207.833 -61 -305.5s-98.334 -184.167 -173.001 -259.5c-75.333 -75.333 -161.833 -133.166 -259.5 -173.499s-199.5 -60.5 -305.5 -60.5s-207.833 20.167 -305.5 60.5s-183.834 98.166 -258.501 173.499
c-75.333 75.333 -133.333 161.833 -174 259.5s-61 199.5 -61 305.5s20.333 207.667 61 305s98.667 183.666 174 258.999c74.667 75.333 160.834 133.166 258.501 173.499s199.5 60.5 305.5 60.5s207.833 -20.167 305.5 -60.5s184.167 -98.166 259.5 -173.499
c74.667 -75.333 132.334 -161.666 173.001 -258.999s61 -199 61 -305zM889 1413c-78.667 0 -156 -15.667 -232 -47s-144 -75.333 -204 -132c-64 -62 -113.167 -133.833 -147.5 -215.5s-51.5 -168.5 -51.5 -260.5c0 -92.667 17.167 -179.834 51.5 -261.501
s83.5 -153.167 147.5 -214.5c60 -57.333 128 -101.666 204 -132.999s153.333 -47 232 -47s156 15.667 232 47s144 75.666 204 132.999c64 61.333 113.167 132.833 147.5 214.5s51.5 168.834 51.5 261.501c0 92 -17.167 178.833 -51.5 260.5s-83.5 153.5 -147.5 215.5
c-60 56.667 -128 100.667 -204 132s-153.333 47 -232 47zM684 1966l471 -163l-61 -164l-471 164z" />
    <glyph glyph-name="Oacute" unicode="&#xd3;" horiz-adv-x="1780" 
d="M1688 758c0 -106 -20.333 -207.833 -61 -305.5s-98.334 -184.167 -173.001 -259.5c-75.333 -75.333 -161.833 -133.166 -259.5 -173.499s-199.5 -60.5 -305.5 -60.5s-207.833 20.167 -305.5 60.5s-183.834 98.166 -258.501 173.499
c-75.333 75.333 -133.333 161.833 -174 259.5s-61 199.5 -61 305.5s20.333 207.667 61 305s98.667 183.666 174 258.999c74.667 75.333 160.834 133.166 258.501 173.499s199.5 60.5 305.5 60.5s207.833 -20.167 305.5 -60.5s184.167 -98.166 259.5 -173.499
c74.667 -75.333 132.334 -161.666 173.001 -258.999s61 -199 61 -305zM889 1413c-78.667 0 -156 -15.667 -232 -47s-144 -75.333 -204 -132c-64 -62 -113.167 -133.833 -147.5 -215.5s-51.5 -168.5 -51.5 -260.5c0 -92.667 17.167 -179.834 51.5 -261.501
s83.5 -153.167 147.5 -214.5c60 -57.333 128 -101.666 204 -132.999s153.333 -47 232 -47s156 15.667 232 47s144 75.666 204 132.999c64 61.333 113.167 132.833 147.5 214.5s51.5 168.834 51.5 261.501c0 92 -17.167 178.833 -51.5 260.5s-83.5 153.5 -147.5 215.5
c-60 56.667 -128 100.667 -204 132s-153.333 47 -232 47zM1155 1803l-471 -164l-61 164l471 163z" />
    <glyph glyph-name="Ocircumflex" unicode="&#xd4;" horiz-adv-x="1780" 
d="M1688 758c0 -106 -20.333 -207.833 -61 -305.5s-98.334 -184.167 -173.001 -259.5c-75.333 -75.333 -161.833 -133.166 -259.5 -173.499s-199.5 -60.5 -305.5 -60.5s-207.833 20.167 -305.5 60.5s-183.834 98.166 -258.501 173.499
c-75.333 75.333 -133.333 161.833 -174 259.5s-61 199.5 -61 305.5s20.333 207.667 61 305s98.667 183.666 174 258.999c74.667 75.333 160.834 133.166 258.501 173.499s199.5 60.5 305.5 60.5s207.833 -20.167 305.5 -60.5s184.167 -98.166 259.5 -173.499
c74.667 -75.333 132.334 -161.666 173.001 -258.999s61 -199 61 -305zM889 1413c-78.667 0 -156 -15.667 -232 -47s-144 -75.333 -204 -132c-64 -62 -113.167 -133.833 -147.5 -215.5s-51.5 -168.5 -51.5 -260.5c0 -92.667 17.167 -179.834 51.5 -261.501
s83.5 -153.167 147.5 -214.5c60 -57.333 128 -101.666 204 -132.999s153.333 -47 232 -47s156 15.667 232 47s144 75.666 204 132.999c64 61.333 113.167 132.833 147.5 214.5s51.5 168.834 51.5 261.501c0 92 -17.167 178.833 -51.5 260.5s-83.5 153.5 -147.5 215.5
c-60 56.667 -128 100.667 -204 132s-153.333 47 -232 47zM950 1926l295 -125l-69 -162l-287 123l-287 -123l-69 162l295 125h122z" />
    <glyph glyph-name="Otilde" unicode="&#xd5;" horiz-adv-x="1780" 
d="M1688 758c0 -106 -20.333 -207.833 -61 -305.5s-98.334 -184.167 -173.001 -259.5c-75.333 -75.333 -161.833 -133.166 -259.5 -173.499s-199.5 -60.5 -305.5 -60.5s-207.833 20.167 -305.5 60.5s-183.834 98.166 -258.501 173.499
c-75.333 75.333 -133.333 161.833 -174 259.5s-61 199.5 -61 305.5s20.333 207.667 61 305s98.667 183.666 174 258.999c74.667 75.333 160.834 133.166 258.501 173.499s199.5 60.5 305.5 60.5s207.833 -20.167 305.5 -60.5s184.167 -98.166 259.5 -173.499
c74.667 -75.333 132.334 -161.666 173.001 -258.999s61 -199 61 -305zM889 1413c-78.667 0 -156 -15.667 -232 -47s-144 -75.333 -204 -132c-64 -62 -113.167 -133.833 -147.5 -215.5s-51.5 -168.5 -51.5 -260.5c0 -92.667 17.167 -179.834 51.5 -261.501
s83.5 -153.167 147.5 -214.5c60 -57.333 128 -101.666 204 -132.999s153.333 -47 232 -47s156 15.667 232 47s144 75.666 204 132.999c64 61.333 113.167 132.833 147.5 214.5s51.5 168.834 51.5 261.501c0 92 -17.167 178.833 -51.5 260.5s-83.5 153.5 -147.5 215.5
c-60 56.667 -128 100.667 -204 132s-153.333 47 -232 47zM981 1827c12 -4 23.3291 -5.99902 33.9961 -5.99902c18.667 0 36.834 6 54.501 18s29.834 27 36.501 45l131 -57c-20 -45.333 -50 -81.166 -90 -107.499s-84.667 -39.5 -134 -39.5c-24 0 -49 4 -75 12l-142 45
c-12 4 -23.333 6 -34 6c-17.333 0 -34.666 -5.83301 -51.999 -17.5s-30.333 -26.834 -39 -45.501l-131 57c18.667 43.333 48.834 78.666 90.501 105.999s87.5 41 137.5 41c18.667 0 43 -4 73 -12z" />
    <glyph glyph-name="Odieresis" unicode="&#xd6;" horiz-adv-x="1780" 
d="M1688 758c0 -106 -20.333 -207.833 -61 -305.5s-98.334 -184.167 -173.001 -259.5c-75.333 -75.333 -161.833 -133.166 -259.5 -173.499s-199.5 -60.5 -305.5 -60.5s-207.833 20.167 -305.5 60.5s-183.834 98.166 -258.501 173.499
c-75.333 75.333 -133.333 161.833 -174 259.5s-61 199.5 -61 305.5s20.333 207.667 61 305s98.667 183.666 174 258.999c74.667 75.333 160.834 133.166 258.501 173.499s199.5 60.5 305.5 60.5s207.833 -20.167 305.5 -60.5s184.167 -98.166 259.5 -173.499
c74.667 -75.333 132.334 -161.666 173.001 -258.999s61 -199 61 -305zM889 1413c-78.667 0 -156 -15.667 -232 -47s-144 -75.333 -204 -132c-64 -62 -113.167 -133.833 -147.5 -215.5s-51.5 -168.5 -51.5 -260.5c0 -92.667 17.167 -179.834 51.5 -261.501
s83.5 -153.167 147.5 -214.5c60 -57.333 128 -101.666 204 -132.999s153.333 -47 232 -47s156 15.667 232 47s144 75.666 204 132.999c64 61.333 113.167 132.833 147.5 214.5s51.5 168.834 51.5 261.501c0 92 -17.167 178.833 -51.5 260.5s-83.5 153.5 -147.5 215.5
c-60 56.667 -128 100.667 -204 132s-153.333 47 -232 47zM971 1844h164v-164h-164v164zM807 1680h-164v164h164v-164z" />
    <glyph glyph-name="multiply" unicode="&#xd7;" horiz-adv-x="1241" 
d="M1139 211l-111 -109l-407 408l-408 -408l-109 109l408 410l-408 407l109 109l408 -408l407 408l111 -109l-410 -407z" />
    <glyph glyph-name="Oslash" unicode="&#xd8;" horiz-adv-x="1778" 
d="M1483 1516l164.001 -0.000976562l-182 -205c148.667 -156 223 -340.333 223 -553c0 -102 -19 -201 -57 -297s-91.667 -181 -161 -255c-74.667 -80 -161.834 -141.167 -261.501 -183.5s-206.167 -63.5 -319.5 -63.5c-86 0 -172 14.667 -258 44s-161 69 -225 119l-111 -122
h-164l182 204c-72 74 -127.167 158.333 -165.5 253s-57.5 195 -57.5 301c0 117.333 22.333 226.333 67 327s109.334 188.334 194.001 263.001c74.667 66 159.167 117.167 253.5 153.5s189.166 54.5 284.499 54.5c180 0 341.667 -54.333 485 -163zM506.001 234.999
c54 -42 114.668 -74.6641 182.001 -97.9971s134.333 -35 201 -35c90 0 174.5 17.667 253.5 53s148.5 86.666 208.5 153.999c54.667 61.333 97.167 131.166 127.5 209.499s45.5 158.166 45.5 239.499c0 80.667 -14.333 159.667 -43 237s-68.334 144.333 -119.001 201z
M1272 1280c-54 42 -114.667 74.6699 -182 98.0029s-134.333 35 -201 35c-84.667 0 -165.834 -16.833 -243.501 -50.5s-146.167 -81.834 -205.5 -144.501c-60 -62 -106 -132.833 -138 -212.5s-48 -162.167 -48 -247.5c0 -80.667 14.333 -159.834 43 -237.501
s68.334 -144.834 119.001 -201.501z" />
    <glyph glyph-name="Ugrave" unicode="&#xd9;" horiz-adv-x="1341" 
d="M322 1516l0.00195312 -1044c0 -101.333 33.667 -188.333 101 -261s149.666 -109 246.999 -109s179.666 36.333 246.999 109s101 159.667 101 261v1044h164v-1044c0 -142 -50 -263 -150 -363s-220.667 -150 -362 -150s-262 50 -362 150s-150 221 -150 363v1044h164z
M465.002 1966l471 -163l-61 -164l-471 164z" />
    <glyph glyph-name="Uacute" unicode="&#xda;" horiz-adv-x="1341" 
d="M322 1516l0.00195312 -1044c0 -101.333 33.667 -188.333 101 -261s149.666 -109 246.999 -109s179.666 36.333 246.999 109s101 159.667 101 261v1044h164v-1044c0 -142 -50 -263 -150 -363s-220.667 -150 -362 -150s-262 50 -362 150s-150 221 -150 363v1044h164z
M936.002 1803l-471 -164l-61 164l471 163z" />
    <glyph glyph-name="Ucircumflex" unicode="&#xdb;" horiz-adv-x="1341" 
d="M322 1516l0.00195312 -1044c0 -101.333 33.667 -188.333 101 -261s149.666 -109 246.999 -109s179.666 36.333 246.999 109s101 159.667 101 261v1044h164v-1044c0 -142 -50 -263 -150 -363s-220.667 -150 -362 -150s-262 50 -362 150s-150 221 -150 363v1044h164z
M731.002 1926l295 -125l-69 -162l-287 123l-287 -123l-69 162l295 125h122z" />
    <glyph glyph-name="Udieresis" unicode="&#xdc;" horiz-adv-x="1341" 
d="M322 1516l0.00195312 -1044c0 -101.333 33.667 -188.333 101 -261s149.666 -109 246.999 -109s179.666 36.333 246.999 109s101 159.667 101 261v1044h164v-1044c0 -142 -50 -263 -150 -363s-220.667 -150 -362 -150s-262 50 -362 150s-150 221 -150 363v1044h164z
M752.002 1844h164v-164h-164v164zM588.002 1680h-164v164h164v-164z" />
    <glyph glyph-name="Yacute" unicode="&#xdd;" horiz-adv-x="1212" 
d="M524 0v614l-471 902h184l369 -705l369 705h184l-471 -902v-614h-164zM870 1803l-471 -164l-61 164l471 163z" />
    <glyph glyph-name="Thorn" unicode="&#xde;" horiz-adv-x="1212" 
d="M176 0v1516h164v-267h368c125.333 0 231.833 -43.833 319.5 -131.5s131.5 -193.834 131.5 -318.501s-43.833 -230.834 -131.5 -318.501s-194.167 -131.5 -319.5 -131.5h-368v-349h-164zM340 1106v-614h368c78 0 145.333 30 202 90s85 132.333 85 217s-28.333 157 -85 217
s-124 90 -202 90h-368z" />
    <glyph glyph-name="germandbls" unicode="&#xdf;" 
d="M158 0l-0.00195312 1147c0 112.667 40.167 209 120.5 289s176.833 120 289.5 120s209 -40 289 -120s120 -176.333 120 -289c0 -68.667 -18.167 -132 -54.5 -190s-86.5 -104 -150.5 -138c86.667 -26.667 156.167 -76.334 208.5 -149.001s78.5 -156 78.5 -250
c0 -134.667 -48 -246.667 -144 -336c-90 -83.333 -195.667 -125 -317 -125c-74.667 0 -139.334 14.333 -194.001 43v178c61.333 -52 126 -78 194 -78c80.667 0 150.334 31 209.001 93s88 137 88 225s-29.167 162.833 -87.5 224.5s-128.166 92.5 -209.499 92.5h-174v143h144
c66 0 123.333 26 172 78s73 115 73 189c0 72.667 -24.667 135.167 -74 187.5s-106.333 78.5 -171 78.5c-65.333 0 -122.666 -26 -171.999 -78s-74 -114.667 -74 -188v-1147h-164z" />
    <glyph glyph-name="agrave" unicode="&#xe0;" horiz-adv-x="1399" 
d="M1087 0v159.002c-46.667 -58.667 -110 -106.667 -190 -144s-160 -56 -240 -56c-79.333 0 -155.166 15 -227.499 45s-136.5 73 -192.5 129s-99 120.167 -129 192.5s-45 148.166 -45 227.499s15 155.166 45 227.499s73 136.5 129 192.5s120.167 99 192.5 129
s148.166 45 227.499 45s158.833 -18.5 238.5 -55.5s143.5 -85.167 191.5 -144.5v159h164v-1106h-164zM657 1004c-114 0 -213.333 -42 -298 -126c-88 -88 -132 -196.333 -132 -325s44 -236.667 132 -324c84.667 -84.667 184 -127 298 -127s213.333 42.333 298 127
c88 87.333 132 195.333 132 324s-44 237 -132 325c-84.667 84 -184 126 -298 126zM493 1556l471 -163l-61 -164l-471 164z" />
    <glyph glyph-name="aacute" unicode="&#xe1;" horiz-adv-x="1399" 
d="M1087 0v159.002c-46.667 -58.667 -110 -106.667 -190 -144s-160 -56 -240 -56c-79.333 0 -155.166 15 -227.499 45s-136.5 73 -192.5 129s-99 120.167 -129 192.5s-45 148.166 -45 227.499s15 155.166 45 227.499s73 136.5 129 192.5s120.167 99 192.5 129
s148.166 45 227.499 45s158.833 -18.5 238.5 -55.5s143.5 -85.167 191.5 -144.5v159h164v-1106h-164zM657 1004c-114 0 -213.333 -42 -298 -126c-88 -88 -132 -196.333 -132 -325s44 -236.667 132 -324c84.667 -84.667 184 -127 298 -127s213.333 42.333 298 127
c88 87.333 132 195.333 132 324s-44 237 -132 325c-84.667 84 -184 126 -298 126zM964 1393l-471 -164l-61 164l471 163z" />
    <glyph glyph-name="acircumflex" unicode="&#xe2;" horiz-adv-x="1399" 
d="M1087 0v159.002c-46.667 -58.667 -110 -106.667 -190 -144s-160 -56 -240 -56c-79.333 0 -155.166 15 -227.499 45s-136.5 73 -192.5 129s-99 120.167 -129 192.5s-45 148.166 -45 227.499s15 155.166 45 227.499s73 136.5 129 192.5s120.167 99 192.5 129
s148.166 45 227.499 45s158.833 -18.5 238.5 -55.5s143.5 -85.167 191.5 -144.5v159h164v-1106h-164zM657 1004c-114 0 -213.333 -42 -298 -126c-88 -88 -132 -196.333 -132 -325s44 -236.667 132 -324c84.667 -84.667 184 -127 298 -127s213.333 42.333 298 127
c88 87.333 132 195.333 132 324s-44 237 -132 325c-84.667 84 -184 126 -298 126zM759 1516l295 -125l-69 -162l-287 123l-287 -123l-69 162l295 125h122z" />
    <glyph glyph-name="atilde" unicode="&#xe3;" horiz-adv-x="1399" 
d="M1087 0v159.002c-46.667 -58.667 -110 -106.667 -190 -144s-160 -56 -240 -56c-79.333 0 -155.166 15 -227.499 45s-136.5 73 -192.5 129s-99 120.167 -129 192.5s-45 148.166 -45 227.499s15 155.166 45 227.499s73 136.5 129 192.5s120.167 99 192.5 129
s148.166 45 227.499 45s158.833 -18.5 238.5 -55.5s143.5 -85.167 191.5 -144.5v159h164v-1106h-164zM657 1004c-114 0 -213.333 -42 -298 -126c-88 -88 -132 -196.333 -132 -325s44 -236.667 132 -324c84.667 -84.667 184 -127 298 -127s213.333 42.333 298 127
c88 87.333 132 195.333 132 324s-44 237 -132 325c-84.667 84 -184 126 -298 126zM791 1417c12 -4 23.3291 -5.99902 33.9961 -5.99902c18.667 0 36.834 6 54.501 18s29.834 27 36.501 45l131 -57c-20 -45.333 -50 -81.166 -90 -107.499s-84.667 -39.5 -134 -39.5
c-24 0 -49 4 -75 12l-142 45c-12 4 -23.333 6 -34 6c-17.333 0 -34.666 -5.83301 -51.999 -17.5s-30.333 -26.834 -39 -45.501l-131 57c18.667 43.333 48.834 78.666 90.501 105.999s87.5 41 137.5 41c18.667 0 43 -4 73 -12z" />
    <glyph glyph-name="adieresis" unicode="&#xe4;" horiz-adv-x="1399" 
d="M1087 0v159.002c-46.667 -58.667 -110 -106.667 -190 -144s-160 -56 -240 -56c-79.333 0 -155.166 15 -227.499 45s-136.5 73 -192.5 129s-99 120.167 -129 192.5s-45 148.166 -45 227.499s15 155.166 45 227.499s73 136.5 129 192.5s120.167 99 192.5 129
s148.166 45 227.499 45s158.833 -18.5 238.5 -55.5s143.5 -85.167 191.5 -144.5v159h164v-1106h-164zM657 1004c-114 0 -213.333 -42 -298 -126c-88 -88 -132 -196.333 -132 -325s44 -236.667 132 -324c84.667 -84.667 184 -127 298 -127s213.333 42.333 298 127
c88 87.333 132 195.333 132 324s-44 237 -132 325c-84.667 84 -184 126 -298 126zM781 1434h164v-164h-164v164zM617 1270h-164v164h164v-164z" />
    <glyph glyph-name="aring" unicode="&#xe5;" horiz-adv-x="1399" 
d="M1087 0v159.002c-46.667 -58.667 -110 -106.667 -190 -144s-160 -56 -240 -56c-79.333 0 -155.166 15 -227.499 45s-136.5 73 -192.5 129s-99 120.167 -129 192.5s-45 148.166 -45 227.499s15 155.166 45 227.499s73 136.5 129 192.5s120.167 99 192.5 129
s148.166 45 227.499 45s158.833 -18.5 238.5 -55.5s143.5 -85.167 191.5 -144.5v159h164v-1106h-164zM657 1004c-114 0 -213.333 -42 -298 -126c-88 -88 -132 -196.333 -132 -325s44 -236.667 132 -324c84.667 -84.667 184 -127 298 -127s213.333 42.333 298 127
c88 87.333 132 195.333 132 324s-44 237 -132 325c-84.667 84 -184 126 -298 126zM964 1536c0 -74 -25.833 -136.833 -77.5 -188.5s-114.5 -77.5 -188.5 -77.5s-136.833 25.833 -188.5 77.5s-77.5 114.5 -77.5 188.5s25.833 136.833 77.5 188.5s114.5 77.5 188.5 77.5
s136.833 -25.833 188.5 -77.5s77.5 -114.5 77.5 -188.5zM821 1536c0 34 -12 63 -36 87s-53 36 -87 36s-63 -12 -87 -36s-36 -53 -36 -87s12 -63 36 -87s53 -36 87 -36s63 12 87 36s36 53 36 87z" />
    <glyph glyph-name="ae" unicode="&#xe6;" horiz-adv-x="2370" 
d="M1266 946c48.667 60 113.003 108.501 193.003 145.501s159 55.5 237 55.5c81.333 0 158.833 -15.833 232.5 -47.5s138.5 -76.5 194.5 -134.5c56 -58.667 98.333 -125.334 127 -200.001s41.667 -152.334 39 -233.001h-1023c0 -117.333 44.333 -219 133 -305
c86 -83.333 185 -125 297 -125c83.333 0 161.666 25.167 234.999 75.5s126 113.833 158 190.5h180c-42.667 -123.333 -115.834 -222.333 -219.501 -297s-221.5 -112 -353.5 -112c-81.333 0 -161.333 18.5 -240 55.5s-142 85.167 -190 144.5v-159h-164v159
c-46 -57.333 -110 -105 -192 -143s-161.333 -57 -238 -57c-79.333 0 -155.166 15 -227.499 45s-136.5 73 -192.5 129s-99 120.167 -129 192.5s-45 147.833 -45 226.5c0 79.333 15 155.333 45 228s73 137 129 193s120.167 99 192.5 129s148.166 45 227.499 45
c78.667 0 158.667 -19.167 240 -57.5s144.666 -86.166 189.999 -143.499v160h164v-160zM672.003 1004c-114 0 -213.667 -44 -299 -132c-87.333 -90 -131 -196.667 -131 -320c0 -122.667 43.667 -228.667 131 -318c85.333 -88 185 -132 299 -132s213.667 44 299 132
c87.333 89.333 131 195.333 131 318c0 123.333 -43.667 230 -131 320c-85.333 88 -185 132 -299 132zM2109 675.001c-5.33301 33.333 -19.001 68.832 -41.001 106.499s-49 71.834 -81 102.501c-83.333 80 -180.333 120 -291 120c-110 0 -207 -41 -291 -123
c-31.333 -30.667 -58.166 -64.667 -80.499 -102s-36.5 -72 -42.5 -104h827z" />
    <glyph glyph-name="ccedilla" unicode="&#xe7;" horiz-adv-x="1325" 
d="M1254 287c-69.333 -116.667 -149.333 -200.497 -240 -251.497s-204.667 -76.5 -342 -76.5c-80.667 0 -158 15 -232 45s-139.333 73 -196 129s-100.167 120.167 -130.5 192.5s-45.5 148.166 -45.5 227.499s15.167 155.166 45.5 227.499s73.833 136.5 130.5 192.5
s122 99 196 129s151.333 45 232 45c137.333 0 251.333 -25.333 342 -76s170.667 -134.334 240 -251.001h-182c-49.333 64.667 -105.5 111.5 -168.5 140.5s-140.167 43.5 -231.5 43.5c-127.333 0 -233.333 -45.333 -318 -136c-81.333 -87.333 -122 -192.333 -122 -315
s40.667 -227.667 122 -315c84.667 -90.667 190.667 -136 318 -136c91.333 0 168.5 14.667 231.5 44s119.167 76.333 168.5 141h182zM499 -409.997l220.001 -0.000976562c57.333 0 86 31 86 93c0 61.333 -28.667 92 -86 92h-118v225h143v-102
c58 -3.33301 106.667 -26.166 146 -68.499s58.666 -92.833 57.999 -151.5s-22 -108.5 -64 -149.5s-92 -61.5 -150 -61.5h-235v123z" />
    <glyph glyph-name="egrave" unicode="&#xe8;" horiz-adv-x="1331" 
d="M1239 368c-40 -122 -112.67 -220.666 -218.003 -295.999s-223.666 -113 -354.999 -113c-79.333 0 -155.5 15.167 -228.5 45.5s-137.5 73.833 -193.5 130.5s-98.833 121.667 -128.5 195s-44.167 149.666 -43.5 228.999c0.666992 80 16.834 156.333 48.501 229
s75.834 137 132.501 193c57.333 55.333 122.833 97.333 196.5 126s150.5 42 230.5 40c79.333 -2 155 -19.167 227 -51.5s135.333 -77.5 190 -135.5s96 -124 124 -198s40.667 -150.667 38 -230h-1023c0 -51.333 10.667 -102.5 32 -153.5s51 -97.167 89 -138.5
c86 -92 189 -138 309 -138c84.667 0 163.167 24.833 235.5 74.5s124.833 113.5 157.5 191.5h180zM1079 675.001c-17.333 81.333 -62 154.333 -134 219c-81.333 73.333 -174.333 110 -279 110s-198 -36.667 -280 -110c-72 -64.667 -116.667 -137.667 -134 -219h827z
M460.997 1556l471 -163l-61 -164l-471 164z" />
    <glyph glyph-name="eacute" unicode="&#xe9;" horiz-adv-x="1331" 
d="M1239 368c-40 -122 -112.67 -220.666 -218.003 -295.999s-223.666 -113 -354.999 -113c-79.333 0 -155.5 15.167 -228.5 45.5s-137.5 73.833 -193.5 130.5s-98.833 121.667 -128.5 195s-44.167 149.666 -43.5 228.999c0.666992 80 16.834 156.333 48.501 229
s75.834 137 132.501 193c57.333 55.333 122.833 97.333 196.5 126s150.5 42 230.5 40c79.333 -2 155 -19.167 227 -51.5s135.333 -77.5 190 -135.5s96 -124 124 -198s40.667 -150.667 38 -230h-1023c0 -51.333 10.667 -102.5 32 -153.5s51 -97.167 89 -138.5
c86 -92 189 -138 309 -138c84.667 0 163.167 24.833 235.5 74.5s124.833 113.5 157.5 191.5h180zM1079 675.001c-17.333 81.333 -62 154.333 -134 219c-81.333 73.333 -174.333 110 -279 110s-198 -36.667 -280 -110c-72 -64.667 -116.667 -137.667 -134 -219h827z
M929.997 1393l-471 -164l-61 164l471 163z" />
    <glyph glyph-name="ecircumflex" unicode="&#xea;" horiz-adv-x="1331" 
d="M1239 368c-40 -122 -112.67 -220.666 -218.003 -295.999s-223.666 -113 -354.999 -113c-79.333 0 -155.5 15.167 -228.5 45.5s-137.5 73.833 -193.5 130.5s-98.833 121.667 -128.5 195s-44.167 149.666 -43.5 228.999c0.666992 80 16.834 156.333 48.501 229
s75.834 137 132.501 193c57.333 55.333 122.833 97.333 196.5 126s150.5 42 230.5 40c79.333 -2 155 -19.167 227 -51.5s135.333 -77.5 190 -135.5s96 -124 124 -198s40.667 -150.667 38 -230h-1023c0 -51.333 10.667 -102.5 32 -153.5s51 -97.167 89 -138.5
c86 -92 189 -138 309 -138c84.667 0 163.167 24.833 235.5 74.5s124.833 113.5 157.5 191.5h180zM1079 675.001c-17.333 81.333 -62 154.333 -134 219c-81.333 73.333 -174.333 110 -279 110s-198 -36.667 -280 -110c-72 -64.667 -116.667 -137.667 -134 -219h827z
M726.997 1516l295 -125l-69 -162l-287 123l-287 -123l-69 162l295 125h122z" />
    <glyph glyph-name="edieresis" unicode="&#xeb;" horiz-adv-x="1331" 
d="M1239 368c-40 -122 -112.67 -220.666 -218.003 -295.999s-223.666 -113 -354.999 -113c-79.333 0 -155.5 15.167 -228.5 45.5s-137.5 73.833 -193.5 130.5s-98.833 121.667 -128.5 195s-44.167 149.666 -43.5 228.999c0.666992 80 16.834 156.333 48.501 229
s75.834 137 132.501 193c57.333 55.333 122.833 97.333 196.5 126s150.5 42 230.5 40c79.333 -2 155 -19.167 227 -51.5s135.333 -77.5 190 -135.5s96 -124 124 -198s40.667 -150.667 38 -230h-1023c0 -51.333 10.667 -102.5 32 -153.5s51 -97.167 89 -138.5
c86 -92 189 -138 309 -138c84.667 0 163.167 24.833 235.5 74.5s124.833 113.5 157.5 191.5h180zM1079 675.001c-17.333 81.333 -62 154.333 -134 219c-81.333 73.333 -174.333 110 -279 110s-198 -36.667 -280 -110c-72 -64.667 -116.667 -137.667 -134 -219h827z
M745.997 1434h164v-164h-164v164zM581.997 1270h-164v164h164v-164z" />
    <glyph glyph-name="igrave" unicode="&#xec;" horiz-adv-x="410" 
d="M123 0v1106h164v-1106h-164zM0 1556l471 -163l-61 -164l-471 164z" />
    <glyph glyph-name="iacute" unicode="&#xed;" horiz-adv-x="410" 
d="M123 0v1106h164v-1106h-164zM471 1393l-471 -164l-61 164l471 163z" />
    <glyph glyph-name="icircumflex" unicode="&#xee;" horiz-adv-x="410" 
d="M123 0v1106h164v-1106h-164zM266 1516l295 -125l-69 -162l-287 123l-287 -123l-69 162l295 125h122z" />
    <glyph glyph-name="idieresis" unicode="&#xef;" horiz-adv-x="410" 
d="M123 0v1106h164v-1106h-164zM287 1434h164v-164h-164v164zM123 1270h-164v164h164v-164z" />
    <glyph glyph-name="eth" unicode="&#xf0;" horiz-adv-x="1341" 
d="M321 1229l-0.00292969 143h220l-117 144h205l112 -144h318v-143h-205l264 -338c83.333 -106.667 125 -226 125 -358c0 -165.333 -58 -303.333 -174 -414c-53.333 -51.333 -114.666 -90.833 -183.999 -118.5s-141 -41.5 -215 -41.5c-74.667 0 -146.667 13.833 -216 41.5
s-130.666 67.167 -183.999 118.5c-116 110.667 -174 248.667 -174 414c0 163.333 56 299.333 168 408c50.667 49.333 108.834 87.5 174.501 114.5s133.167 40.5 202.5 40.5c52.667 0 99.667 -7.33301 141 -22l-125 155h-336zM669.997 963
c-108.667 0 -203.334 -40.333 -284.001 -121c-84 -84 -126 -187 -126 -309s42 -225.333 126 -310c80.667 -80.667 175.334 -121 284.001 -121c108 0 202.333 40.333 283 121c84 84.667 126 188 126 310s-42 225 -126 309c-80.667 80.667 -175 121 -283 121z" />
    <glyph glyph-name="ntilde" unicode="&#xf1;" horiz-adv-x="1249" 
d="M111 0l-0.000976562 1106h164v-112c87.333 102 203.333 153 348 153c130 0 241 -46 333 -138s138 -203 138 -333v-676h-164v676c0 97.333 -30.167 176.333 -90.5 237s-137.166 91 -230.499 91c-95.333 0 -174.833 -30.667 -238.5 -92s-95.5 -140 -95.5 -236v-676h-164z
M714.999 1417c12 -4 23.3291 -5.99902 33.9961 -5.99902c18.667 0 36.834 6 54.501 18s29.834 27 36.501 45l131 -57c-20 -45.333 -50 -81.166 -90 -107.499s-84.667 -39.5 -134 -39.5c-24 0 -49 4 -75 12l-142 45c-12 4 -23.333 6 -34 6
c-17.333 0 -34.666 -5.83301 -51.999 -17.5s-30.333 -26.834 -39 -45.501l-131 57c18.667 43.333 48.834 78.666 90.501 105.999s87.5 41 137.5 41c18.667 0 43 -4 73 -12z" />
    <glyph glyph-name="ograve" unicode="&#xf2;" horiz-adv-x="1341" 
d="M1264 553c0 -79.333 -15 -155.166 -45 -227.499s-73 -136.5 -129 -192.5s-120.167 -99 -192.5 -129s-148.166 -45 -227.499 -45s-155.166 15 -227.499 45s-136.5 73 -192.5 129s-99 120.167 -129 192.5s-45 148.166 -45 227.499s15 155.166 45 227.499
s73 136.5 129 192.5s120.167 99 192.5 129s148.166 45 227.499 45s155.166 -15 227.499 -45s136.5 -73 192.5 -129s99 -120.167 129 -192.5s45 -148.166 45 -227.499zM670 1004c-118.667 0 -220 -43.833 -304 -131.5s-126 -194.167 -126 -319.5s42 -231.833 126 -319.5
s185.333 -131.5 304 -131.5s220 43.833 304 131.5s126 194.167 126 319.5s-42 231.833 -126 319.5s-185.333 131.5 -304 131.5zM465 1556l471 -163l-61 -164l-471 164z" />
    <glyph glyph-name="oacute" unicode="&#xf3;" horiz-adv-x="1341" 
d="M1264 553c0 -79.333 -15 -155.166 -45 -227.499s-73 -136.5 -129 -192.5s-120.167 -99 -192.5 -129s-148.166 -45 -227.499 -45s-155.166 15 -227.499 45s-136.5 73 -192.5 129s-99 120.167 -129 192.5s-45 148.166 -45 227.499s15 155.166 45 227.499
s73 136.5 129 192.5s120.167 99 192.5 129s148.166 45 227.499 45s155.166 -15 227.499 -45s136.5 -73 192.5 -129s99 -120.167 129 -192.5s45 -148.166 45 -227.499zM670 1004c-118.667 0 -220 -43.833 -304 -131.5s-126 -194.167 -126 -319.5s42 -231.833 126 -319.5
s185.333 -131.5 304 -131.5s220 43.833 304 131.5s126 194.167 126 319.5s-42 231.833 -126 319.5s-185.333 131.5 -304 131.5zM936 1393l-471 -164l-61 164l471 163z" />
    <glyph glyph-name="ocircumflex" unicode="&#xf4;" horiz-adv-x="1341" 
d="M1264 553c0 -79.333 -15 -155.166 -45 -227.499s-73 -136.5 -129 -192.5s-120.167 -99 -192.5 -129s-148.166 -45 -227.499 -45s-155.166 15 -227.499 45s-136.5 73 -192.5 129s-99 120.167 -129 192.5s-45 148.166 -45 227.499s15 155.166 45 227.499
s73 136.5 129 192.5s120.167 99 192.5 129s148.166 45 227.499 45s155.166 -15 227.499 -45s136.5 -73 192.5 -129s99 -120.167 129 -192.5s45 -148.166 45 -227.499zM670 1004c-118.667 0 -220 -43.833 -304 -131.5s-126 -194.167 -126 -319.5s42 -231.833 126 -319.5
s185.333 -131.5 304 -131.5s220 43.833 304 131.5s126 194.167 126 319.5s-42 231.833 -126 319.5s-185.333 131.5 -304 131.5zM731 1516l295 -125l-69 -162l-287 123l-287 -123l-69 162l295 125h122z" />
    <glyph glyph-name="otilde" unicode="&#xf5;" horiz-adv-x="1341" 
d="M1264 553c0 -79.333 -15 -155.166 -45 -227.499s-73 -136.5 -129 -192.5s-120.167 -99 -192.5 -129s-148.166 -45 -227.499 -45s-155.166 15 -227.499 45s-136.5 73 -192.5 129s-99 120.167 -129 192.5s-45 148.166 -45 227.499s15 155.166 45 227.499
s73 136.5 129 192.5s120.167 99 192.5 129s148.166 45 227.499 45s155.166 -15 227.499 -45s136.5 -73 192.5 -129s99 -120.167 129 -192.5s45 -148.166 45 -227.499zM670 1004c-118.667 0 -220 -43.833 -304 -131.5s-126 -194.167 -126 -319.5s42 -231.833 126 -319.5
s185.333 -131.5 304 -131.5s220 43.833 304 131.5s126 194.167 126 319.5s-42 231.833 -126 319.5s-185.333 131.5 -304 131.5zM762 1417c12 -4 23.3291 -5.99902 33.9961 -5.99902c18.667 0 36.834 6 54.501 18s29.834 27 36.501 45l131 -57
c-20 -45.333 -50 -81.166 -90 -107.499s-84.667 -39.5 -134 -39.5c-24 0 -49 4 -75 12l-142 45c-12 4 -23.333 6 -34 6c-17.333 0 -34.666 -5.83301 -51.999 -17.5s-30.333 -26.834 -39 -45.501l-131 57c18.667 43.333 48.834 78.666 90.501 105.999s87.5 41 137.5 41
c18.667 0 43 -4 73 -12z" />
    <glyph glyph-name="odieresis" unicode="&#xf6;" horiz-adv-x="1341" 
d="M1264 553c0 -79.333 -15 -155.166 -45 -227.499s-73 -136.5 -129 -192.5s-120.167 -99 -192.5 -129s-148.166 -45 -227.499 -45s-155.166 15 -227.499 45s-136.5 73 -192.5 129s-99 120.167 -129 192.5s-45 148.166 -45 227.499s15 155.166 45 227.499
s73 136.5 129 192.5s120.167 99 192.5 129s148.166 45 227.499 45s155.166 -15 227.499 -45s136.5 -73 192.5 -129s99 -120.167 129 -192.5s45 -148.166 45 -227.499zM670 1004c-118.667 0 -220 -43.833 -304 -131.5s-126 -194.167 -126 -319.5s42 -231.833 126 -319.5
s185.333 -131.5 304 -131.5s220 43.833 304 131.5s126 194.167 126 319.5s-42 231.833 -126 319.5s-185.333 131.5 -304 131.5zM752 1434h164v-164h-164v164zM588 1270h-164v164h164v-164z" />
    <glyph glyph-name="divide" unicode="&#xf7;" horiz-adv-x="1241" 
d="M105 697h1034v-154h-1034v154zM699 1137v-154h-154v154h154zM699 256v-154h-154v154h154z" />
    <glyph glyph-name="oslash" unicode="&#xf8;" horiz-adv-x="1337" 
d="M115 0l123 142.999c-50.667 54 -90.667 117.5 -120 190.5s-44 146.167 -44 219.5c0 79.333 15.5 155.5 46.5 228.5s75.167 137.5 132.5 193.5c56 55.333 120 97.833 192 127.5s146.333 44.5 223 44.5c119.333 0 231.333 -34.667 336 -104l53 63h164l-123 -143
c109.333 -115.333 164 -252 164 -410c0 -178 -63 -324 -189 -438c-55.333 -49.333 -118.333 -87.666 -189 -114.999s-142.667 -41 -216 -41c-123.333 0 -235.333 34.667 -336 104l-53 -63h-164zM430 177.999c73.333 -50.667 152.667 -76 238 -76
c118 0 219.167 43.833 303.5 131.5s126.5 194.167 126.5 319.5c0 53.333 -8.83301 105.833 -26.5 157.5s-42.167 96.167 -73.5 133.5zM906.001 927.999c-70 50.667 -149.333 76 -238 76c-51.333 0 -102.5 -10.333 -153.5 -31s-96.5 -49.667 -136.5 -87
c-93.333 -86.667 -140 -197.667 -140 -333c0 -53.333 8.83301 -105.833 26.5 -157.5s42.167 -96.167 73.5 -133.5z" />
    <glyph glyph-name="ugrave" unicode="&#xf9;" horiz-adv-x="1245" 
d="M1094 1106l0.000976562 -1106h-164v112c-98 -102 -214 -153 -348 -153c-130 0 -241 46 -333 138s-138 203 -138 333v676h164v-676c0 -96.667 30.333 -175.5 91 -236.5s139.667 -91.5 237 -91.5c95.333 0 173.666 30.833 234.999 92.5s92 140.167 92 235.5v676h164z
M418.001 1556l471 -163l-61 -164l-471 164z" />
    <glyph glyph-name="uacute" unicode="&#xfa;" horiz-adv-x="1245" 
d="M1094 1106l0.000976562 -1106h-164v112c-98 -102 -214 -153 -348 -153c-130 0 -241 46 -333 138s-138 203 -138 333v676h164v-676c0 -96.667 30.333 -175.5 91 -236.5s139.667 -91.5 237 -91.5c95.333 0 173.666 30.833 234.999 92.5s92 140.167 92 235.5v676h164z
M887.001 1393l-471 -164l-61 164l471 163z" />
    <glyph glyph-name="ucircumflex" unicode="&#xfb;" horiz-adv-x="1245" 
d="M1094 1106l0.000976562 -1106h-164v112c-98 -102 -214 -153 -348 -153c-130 0 -241 46 -333 138s-138 203 -138 333v676h164v-676c0 -96.667 30.333 -175.5 91 -236.5s139.667 -91.5 237 -91.5c95.333 0 173.666 30.833 234.999 92.5s92 140.167 92 235.5v676h164z
M684.001 1516l295 -125l-69 -162l-287 123l-287 -123l-69 162l295 125h122z" />
    <glyph glyph-name="udieresis" unicode="&#xfc;" horiz-adv-x="1245" 
d="M1094 1106l0.000976562 -1106h-164v112c-98 -102 -214 -153 -348 -153c-130 0 -241 46 -333 138s-138 203 -138 333v676h164v-676c0 -96.667 30.333 -175.5 91 -236.5s139.667 -91.5 237 -91.5c95.333 0 173.666 30.833 234.999 92.5s92 140.167 92 235.5v676h164z
M703.001 1434h164v-164h-164v164zM539.001 1270h-164v164h164v-164z" />
    <glyph glyph-name="yacute" unicode="&#xfd;" horiz-adv-x="1098" 
d="M193 1106l356.001 -871.999l356 872h176l-557 -1366c-24 -58.667 -61.667 -105.167 -113 -139.5s-109 -51.5 -173 -51.5c-42 0 -82.833 8.66699 -122.5 26s-72.834 41.666 -99.501 72.999l121 110c10 -15.333 25 -28.333 45 -39s40 -16 60 -16
c59.333 0 103 33.333 131 100l88 213l-445 1090h177zM813.001 1393l-471 -164l-61 164l471 163z" />
    <glyph glyph-name="thorn" unicode="&#xfe;" horiz-adv-x="1397" 
d="M145 1516l164.001 -0.00195312v-569c43.333 55.333 106.666 102.5 189.999 141.5s163.333 58.5 240 58.5c79.333 0 155.166 -15 227.499 -45s136.5 -73 192.5 -129s99 -120.167 129 -192.5s45 -148.166 45 -227.499s-15 -155.166 -45 -227.499s-73 -136.5 -129 -192.5
s-120.167 -99 -192.5 -129s-148.166 -45 -227.499 -45c-78 0 -158.667 19.5 -242 58.5s-146 86.167 -188 141.5v-569h-164v1926zM739.001 1004c-117.333 0 -218.333 -44.167 -303 -132.5s-127 -194.5 -127 -318.5s42.333 -230.167 127 -318.5s185.667 -132.5 303 -132.5
s218.333 44.167 303 132.5s127 194.5 127 318.5s-42.333 230.167 -127 318.5s-185.667 132.5 -303 132.5z" />
    <glyph glyph-name="ydieresis" unicode="&#xff;" horiz-adv-x="1098" 
d="M193 1106l356.001 -871.999l356 872h176l-557 -1366c-24 -58.667 -61.667 -105.167 -113 -139.5s-109 -51.5 -173 -51.5c-42 0 -82.833 8.66699 -122.5 26s-72.834 41.666 -99.501 72.999l121 110c10 -15.333 25 -28.333 45 -39s40 -16 60 -16
c59.333 0 103 33.333 131 100l88 213l-445 1090h177zM629.001 1434h164v-164h-164v164zM465.001 1270h-164v164h164v-164z" />
    <glyph glyph-name="Cacute" unicode="&#x106;" horiz-adv-x="1665" 
d="M1612 409c-78.667 -147.333 -179.168 -259.17 -301.501 -335.503s-261.5 -114.5 -417.5 -114.5c-106 0 -207.667 20.5 -305 61.5s-183.666 99.167 -258.999 174.5c-75.333 76 -133.333 162.5 -174 259.5s-61 198.167 -61 303.5s20 206.5 60 303.5s97 183.167 171 258.5
c75.333 76 161.833 134.333 259.5 175s200.5 61 308.5 61c154 0 295.667 -40 425 -120s227.333 -190 294 -330h-180c-44 85.333 -117.333 157.833 -220 217.5s-209 89.5 -319 89.5c-84 0 -164.667 -16.5 -242 -49.5s-146 -80.167 -206 -141.5
s-106.167 -132.166 -138.5 -212.499s-48.5 -164.166 -48.5 -251.499s16.333 -171.166 49 -251.499s79.334 -151.5 140.001 -213.5c59.333 -61.333 127.666 -108.5 204.999 -141.5s157.666 -49.5 240.999 -49.5c105.333 0 208.833 28.833 310.5 86.5
s177.834 131.167 228.501 220.5h180zM1098 1803l-471 -164l-61 164l471 163z" />
    <glyph glyph-name="cacute" unicode="&#x107;" horiz-adv-x="1325" 
d="M1254 287c-69.333 -116.667 -149.333 -200.497 -240 -251.497s-204.667 -76.5 -342 -76.5c-80.667 0 -158 15 -232 45s-139.333 73 -196 129s-100.167 120.167 -130.5 192.5s-45.5 148.166 -45.5 227.499s15.167 155.166 45.5 227.499s73.833 136.5 130.5 192.5
s122 99 196 129s151.333 45 232 45c137.333 0 251.333 -25.333 342 -76s170.667 -134.334 240 -251.001h-182c-49.333 64.667 -105.5 111.5 -168.5 140.5s-140.167 43.5 -231.5 43.5c-127.333 0 -233.333 -45.333 -318 -136c-81.333 -87.333 -122 -192.333 -122 -315
s40.667 -227.667 122 -315c84.667 -90.667 190.667 -136 318 -136c91.333 0 168.5 14.667 231.5 44s119.167 76.333 168.5 141h182zM928 1393l-471 -164l-61 164l471 163z" />
    <glyph glyph-name="Ccaron" unicode="&#x10c;" horiz-adv-x="1665" 
d="M1612 409c-78.667 -147.333 -179.168 -259.17 -301.501 -335.503s-261.5 -114.5 -417.5 -114.5c-106 0 -207.667 20.5 -305 61.5s-183.666 99.167 -258.999 174.5c-75.333 76 -133.333 162.5 -174 259.5s-61 198.167 -61 303.5s20 206.5 60 303.5s97 183.167 171 258.5
c75.333 76 161.833 134.333 259.5 175s200.5 61 308.5 61c154 0 295.667 -40 425 -120s227.333 -190 294 -330h-180c-44 85.333 -117.333 157.833 -220 217.5s-209 89.5 -319 89.5c-84 0 -164.667 -16.5 -242 -49.5s-146 -80.167 -206 -141.5
s-106.167 -132.166 -138.5 -212.499s-48.5 -164.166 -48.5 -251.499s16.333 -171.166 49 -251.499s79.334 -151.5 140.001 -213.5c59.333 -61.333 127.666 -108.5 204.999 -141.5s157.666 -49.5 240.999 -49.5c105.333 0 208.833 28.833 310.5 86.5
s177.834 131.167 228.501 220.5h180zM771.999 1639l-295 125l69 162l287 -123l287 123l69 -162l-295 -125h-122z" />
    <glyph glyph-name="ccaron" unicode="&#x10d;" horiz-adv-x="1325" 
d="M1254 287c-69.333 -116.667 -149.333 -200.497 -240 -251.497s-204.667 -76.5 -342 -76.5c-80.667 0 -158 15 -232 45s-139.333 73 -196 129s-100.167 120.167 -130.5 192.5s-45.5 148.166 -45.5 227.499s15.167 155.166 45.5 227.499s73.833 136.5 130.5 192.5
s122 99 196 129s151.333 45 232 45c137.333 0 251.333 -25.333 342 -76s170.667 -134.334 240 -251.001h-182c-49.333 64.667 -105.5 111.5 -168.5 140.5s-140.167 43.5 -231.5 43.5c-127.333 0 -233.333 -45.333 -318 -136c-81.333 -87.333 -122 -192.333 -122 -315
s40.667 -227.667 122 -315c84.667 -90.667 190.667 -136 318 -136c91.333 0 168.5 14.667 231.5 44s119.167 76.333 168.5 141h182zM603 1229l-295 125l69 162l287 -123l287 123l69 -162l-295 -125h-122z" />
    <glyph glyph-name="dcroat" unicode="&#x111;" horiz-adv-x="1403" 
d="M660 1004c-112.667 0 -211.334 -41.333 -296.001 -124c-89.333 -87.333 -134 -196.333 -134 -327c0 -130 44.667 -239 134 -327c84.667 -82.667 183.334 -124 296.001 -124s211.334 41.333 296.001 124c89.333 88 134 197 134 327c0 130.667 -44.667 239.667 -134 327
c-84.667 82.667 -183.334 124 -296.001 124zM1254 1516v-165h150v-143h-150v-1208h-164v160c-46.667 -58 -110.5 -106 -191.5 -144s-160.5 -57 -238.5 -57c-79.333 0 -155.166 15 -227.499 45s-136.5 73 -192.5 129s-99 120.333 -129 193s-45 148.334 -45 227.001
c0 79.333 15 155.166 45 227.499s73 136.5 129 192.5s120.167 99 192.5 129s148.166 45 227.499 45c78 0 157.5 -18.833 238.5 -56.5s144.833 -85.5 191.5 -143.5v261h-266v143h266v165h164z" />
    <glyph glyph-name="Gbreve" unicode="&#x11e;" horiz-adv-x="1786" 
d="M1692 737c0 -104 -20.5 -203.668 -61.5 -299.001s-99.167 -179.666 -174.5 -252.999c-75.333 -72.667 -161.666 -128.5 -258.999 -167.5s-198.666 -58.5 -303.999 -58.5c-106 0 -207.333 19.833 -304 59.5s-182.334 96.167 -257.001 169.5
c-76 74.667 -134.333 161.167 -175 259.5s-61 201.833 -61 310.5c0 108 20.667 211 62 309s100.666 184.667 177.999 260c75.333 73.333 161.166 129.833 257.499 169.5s196.166 59.5 299.499 59.5c161.333 0 311.333 -46 450 -138
c128.667 -85.333 218.334 -189.333 269.001 -312h-180c-52.667 88.667 -128.834 162 -228.501 220s-203.167 87 -310.5 87c-81.333 0 -160.166 -15.833 -236.499 -47.5s-143.833 -76.834 -202.5 -135.501c-62.667 -61.333 -110.667 -132.666 -144 -213.999
s-50 -167.333 -50 -258c0 -90 17.333 -175.5 52 -256.5s84.334 -152.833 149.001 -215.5c60.667 -58.667 128.667 -104 204 -136s151.333 -48 228 -48c135.333 0 259 40.667 371 122c124 90 205.333 213.333 244 370h-615v143h799zM1241 1895
c-33.333 -66 -81.332 -118.333 -143.999 -157s-130.667 -58 -204 -58c-74 0 -142.333 19.333 -205 58s-110.334 91 -143.001 157l129 63c20.667 -40.667 51 -73.334 91 -98.001s82.667 -37 128 -37s88 12.333 128 37s70.333 57.334 91 98.001z" />
    <glyph glyph-name="gbreve" unicode="&#x11f;" horiz-adv-x="1378" 
d="M280 -82c30.667 -63.333 81.333 -116.831 152 -160.498s142.334 -65.5 215.001 -65.5c122.667 0 226 32.333 310 97c80 61.333 120 131.666 120 210.999v159c-38.667 -54 -100 -100.833 -184 -140.5s-166 -59.5 -246 -59.5c-79.333 0 -155.166 15 -227.499 45
s-136.5 73 -192.5 129s-99 120.167 -129 192.5s-45 148.166 -45 227.499c0 78.667 15 154.334 45 227.001s73 137 129 193s120.167 99 192.5 129s148.166 45 227.499 45s161.333 -20 246 -60s146 -87 184 -141v160h164v-1106c0 -54.667 -13.833 -108.834 -41.5 -162.501
s-66.834 -101.5 -117.501 -143.5c-114.667 -96.667 -259.667 -145 -435 -145c-121.333 0 -232 33.5 -332 100.5s-172.333 156.5 -217 268.5h182zM646.999 1004c-48.667 0 -98.167 -10.167 -148.5 -30.5s-95.5 -48.5 -135.5 -84.5c-97.333 -87.333 -146 -199.333 -146 -336
s48.667 -248.667 146 -336c40 -36 85.167 -64.167 135.5 -84.5s99.833 -30.5 148.5 -30.5s98.167 10.167 148.5 30.5s95.5 48.5 135.5 84.5c97.333 87.333 146 199.333 146 336s-48.667 248.667 -146 336c-40 36 -85.167 64.167 -135.5 84.5s-99.833 30.5 -148.5 30.5z
M1036 1485c-33.333 -66 -81.332 -118.333 -143.999 -157s-130.667 -58 -204 -58c-74 0 -142.333 19.333 -205 58s-110.334 91 -143.001 157l129 63c20.667 -40.667 51 -73.334 91 -98.001s82.667 -37 128 -37s88 12.333 128 37s70.333 57.334 91 98.001z" />
    <glyph glyph-name="Idotaccent" unicode="&#x130;" horiz-adv-x="463" 
d="M150 0v1516h164v-1516h-164zM371 1783c0 -40 -14 -74 -42 -102s-61.667 -42 -101 -42c-40 0 -74 14 -102 42s-42 62 -42 102c0 39.333 14 73 42 101s62 42 102 42c39.333 0 73 -14 101 -42s42 -61.667 42 -101z" />
    <glyph glyph-name="dotlessi" unicode="&#x131;" horiz-adv-x="410" 
d="M123 0v1106h164v-1106h-164z" />
    <glyph glyph-name="Lslash" unicode="&#x141;" horiz-adv-x="1059" 
d="M221 0v741l-143 -55v133l143 55v642h164v-578l225 86v-133l-225 -86v-662h614v-143h-778z" />
    <glyph glyph-name="lslash" unicode="&#x142;" horiz-adv-x="614" 
d="M61 819l164 68v629h164v-560l164 68v-133l-164 -68v-823h-164v754l-164 -68v133z" />
    <glyph glyph-name="OE" unicode="&#x152;" horiz-adv-x="2445" 
d="M1509 0v272.001c-72.667 -98.667 -165.167 -175.5 -277.5 -230.5s-231.166 -82.5 -356.499 -82.5c-97.333 0 -193.5 18.833 -288.5 56.5s-179.833 90.5 -254.5 158.5c-82.667 75.333 -146 163 -190 263s-66 207 -66 321s22 221 66 321s107.667 187.667 191 263
c74.667 67.333 159.5 119.833 254.5 157.5s190.833 56.5 287.5 56.5c125.333 0 242.666 -26.833 351.999 -80.5s203.333 -130.834 282 -231.501v272h860v-143h-696v-513h573v-143h-573v-574h696v-143h-860zM875 1413c-89.333 0 -173.333 -17.167 -252 -51.5
s-148 -84.166 -208 -149.499c-56 -60.667 -99.167 -130.5 -129.5 -209.5s-45.5 -160.5 -45.5 -244.5s15.167 -165.5 45.5 -244.5s73.5 -149.167 129.5 -210.5c60 -64.667 129.333 -114.334 208 -149.001s162.667 -52 252 -52s173.333 17.333 252 52
s147.667 84.334 207 149.001c56 61.333 99.167 131.5 129.5 210.5s45.5 160.5 45.5 244.5s-15.167 165.5 -45.5 244.5s-73.5 148.833 -129.5 209.5c-59.333 65.333 -128.333 115.166 -207 149.499s-162.667 51.5 -252 51.5z" />
    <glyph glyph-name="oe" unicode="&#x153;" horiz-adv-x="2329" 
d="M2249 368c-43.333 -126 -116.67 -225.668 -220.003 -299.001s-221.333 -110 -354 -110c-106 0 -204.5 26 -295.5 78s-163.167 123.333 -216.5 214c-50 -90 -121.167 -161.167 -213.5 -213.5s-191.833 -78.5 -298.5 -78.5c-78 0 -153.167 15.167 -225.5 45.5
s-136.5 73.5 -192.5 129.5c-56.667 56.667 -100.167 121 -130.5 193s-45.5 147 -45.5 225s15.167 153.333 45.5 226s73.833 137 130.5 193c56 56.667 120.167 100.167 192.5 130.5s147.5 45.5 225.5 45.5c107.333 0 204.5 -24.833 291.5 -74.5s160.5 -122.5 220.5 -218.5
c56 92 129.333 163.833 220 215.5s188 77.5 292 77.5c82 0 159.333 -15 232 -45s136.334 -73 191.001 -129c114 -116.667 171 -263.667 171 -441h-1024c0 -121.333 46.667 -224.666 140 -309.999c40.667 -38 86.5 -67.5 137.5 -88.5s101.833 -31.5 152.5 -31.5
c86.667 0 164.834 23.833 234.501 71.5s122.834 112.5 159.501 194.5h180zM650.996 1004c-118.667 0 -220 -44 -304 -132s-126 -194.667 -126 -320c0 -124.667 42 -230.834 126 -318.501s185.333 -131.5 304 -131.5s220 43.833 304 131.5s126 193.834 126 318.501
c0 125.333 -42 232 -126 320s-185.333 132 -304 132zM2089 674.999c-15.333 80.667 -61.668 154.334 -139.001 221.001c-83.333 72 -175 108 -275 108s-191.667 -36 -275 -108c-77.333 -66.667 -123.666 -140.334 -138.999 -221.001h828z" />
    <glyph glyph-name="Scedilla" unicode="&#x15e;" horiz-adv-x="1020" 
d="M756 1147c0 72.667 -24.1689 135.165 -72.502 187.498s-106.166 78.5 -173.499 78.5s-125.166 -26.167 -173.499 -78.5s-72.5 -114.833 -72.5 -187.5c0 -101.333 51.333 -178 154 -230l287 -145c72.667 -37.333 130 -90.166 172 -158.499s63 -143.166 63 -224.499
c0 -118.667 -42.167 -220 -126.5 -304s-185.5 -126 -303.5 -126s-219.167 42 -303.5 126s-126.5 185.333 -126.5 304v61h164v-61c0 -78 26.5 -145.333 79.5 -202s115.167 -85 186.5 -85c72.667 0 135.167 27.833 187.5 83.5s78.5 123.5 78.5 203.5
c0 107.333 -55.333 189.333 -166 246l-287 145c-69.333 35.333 -123.833 85.5 -163.5 150.5s-59.5 137.167 -59.5 216.5c0 112.667 39.833 209 119.5 289s176.5 120 290.5 120s210.833 -40 290.5 -120s119.5 -176.333 119.5 -289v-41h-164v41zM346.998 -410.002
l220.001 -0.000976562c57.333 0 86 31 86 93c0 61.333 -28.667 92 -86 92h-118v225h143v-102c58 -3.33301 106.667 -26.166 146 -68.499s58.666 -92.833 57.999 -151.5s-22 -108.5 -64 -149.5s-92 -61.5 -150 -61.5h-235v123z" />
    <glyph glyph-name="scedilla" unicode="&#x15f;" horiz-adv-x="795" 
d="M233 287c0 -46.667 15.332 -87.334 45.999 -122.001s69 -52 115 -52c119.333 0 179 58.667 179 176c0 54.667 -29.667 100.334 -89 137.001l-246 152c-46.667 28.667 -83 65.834 -109 111.501s-39 95.834 -39 150.501c0 84 30 156.167 90 216.5s131.333 90.5 214 90.5
c84 0 156.833 -30 218.5 -90s92.5 -132.333 92.5 -217v-41h-164v41c0 41.333 -14.667 77.166 -44 107.499s-65.333 45.5 -108 45.5c-45.333 0 -81.166 -13.5 -107.499 -40.5s-39.5 -63.833 -39.5 -110.5c0 -20.667 8 -43.334 24 -68.001s34.667 -43.667 56 -57l247 -152
c50 -30 88.5 -69.333 115.5 -118s40.5 -102 40.5 -160c0 -92 -31.667 -169.667 -95 -233s-142 -95 -236 -95c-95.333 0 -174.333 35.333 -237 106c-58.667 64.667 -88 138.667 -88 222v61h164v-61zM234.999 -410l220.001 -0.000976562c57.333 0 86 31 86 93
c0 61.333 -28.667 92 -86 92h-118v225h143v-102c58 -3.33301 106.667 -26.166 146 -68.499s58.666 -92.833 57.999 -151.5s-22 -108.5 -64 -149.5s-92 -61.5 -150 -61.5h-235v123z" />
    <glyph glyph-name="Scaron" unicode="&#x160;" horiz-adv-x="1020" 
d="M756 1147c0 72.667 -24.1689 135.165 -72.502 187.498s-106.166 78.5 -173.499 78.5s-125.166 -26.167 -173.499 -78.5s-72.5 -114.833 -72.5 -187.5c0 -101.333 51.333 -178 154 -230l287 -145c72.667 -37.333 130 -90.166 172 -158.499s63 -143.166 63 -224.499
c0 -118.667 -42.167 -220 -126.5 -304s-185.5 -126 -303.5 -126s-219.167 42 -303.5 126s-126.5 185.333 -126.5 304v61h164v-61c0 -78 26.5 -145.333 79.5 -202s115.167 -85 186.5 -85c72.667 0 135.167 27.833 187.5 83.5s78.5 123.5 78.5 203.5
c0 107.333 -55.333 189.333 -166 246l-287 145c-69.333 35.333 -123.833 85.5 -163.5 150.5s-59.5 137.167 -59.5 216.5c0 112.667 39.833 209 119.5 289s176.5 120 290.5 120s210.833 -40 290.5 -120s119.5 -176.333 119.5 -289v-41h-164v41zM448.998 1639l-295 125l69 162
l287 -123l287 123l69 -162l-295 -125h-122z" />
    <glyph glyph-name="scaron" unicode="&#x161;" horiz-adv-x="795" 
d="M233 287c0 -46.667 15.332 -87.334 45.999 -122.001s69 -52 115 -52c119.333 0 179 58.667 179 176c0 54.667 -29.667 100.334 -89 137.001l-246 152c-46.667 28.667 -83 65.834 -109 111.501s-39 95.834 -39 150.501c0 84 30 156.167 90 216.5s131.333 90.5 214 90.5
c84 0 156.833 -30 218.5 -90s92.5 -132.333 92.5 -217v-41h-164v41c0 41.333 -14.667 77.166 -44 107.499s-65.333 45.5 -108 45.5c-45.333 0 -81.166 -13.5 -107.499 -40.5s-39.5 -63.833 -39.5 -110.5c0 -20.667 8 -43.334 24 -68.001s34.667 -43.667 56 -57l247 -152
c50 -30 88.5 -69.333 115.5 -118s40.5 -102 40.5 -160c0 -92 -31.667 -169.667 -95 -233s-142 -95 -236 -95c-95.333 0 -174.333 35.333 -237 106c-58.667 64.667 -88 138.667 -88 222v61h164v-61zM335.999 1229l-295 125l69 162l287 -123l287 123l69 -162l-295 -125h-122z
" />
    <glyph glyph-name="Ydieresis" unicode="&#x178;" horiz-adv-x="1212" 
d="M524 0v614l-471 902h184l369 -705l369 705h184l-471 -902v-614h-164zM686 1844h164v-164h-164v164zM522 1680h-164v164h164v-164z" />
    <glyph glyph-name="Zcaron" unicode="&#x17d;" horiz-adv-x="983" 
d="M41 0v143l704 1230h-663v143h819v-143l-704 -1230h745v-143h-901zM430 1639l-295 125l69 162l287 -123l287 123l69 -162l-295 -125h-122z" />
    <glyph glyph-name="zcaron" unicode="&#x17e;" horiz-adv-x="870" 
d="M45 0v143l573 820h-532v143h737v-143l-573 -820h573v-143h-778zM375 1229l-295 125l69 162l287 -123l287 123l69 -162l-295 -125h-122z" />
    <glyph glyph-name="florin" unicode="&#x192;" 
d="M178 860l309.001 -0.000976562v443c0 59.333 23.667 114.333 71 165c54.667 58.667 124.667 88 210 88c60 0 114 -16.167 162 -48.5s82 -74.166 102 -125.499l-148 -67c-12 65.333 -50.667 98 -116 98c-34.667 0 -62.834 -10.333 -84.501 -31
s-32.5 -46.334 -32.5 -77.001v-445h305v-143h-305v-906c0 -71.333 -27.5 -132.833 -82.5 -184.5s-119.833 -77.5 -194.5 -77.5c-59.333 0 -113 15.333 -161 46s-83.667 73.334 -107 128.001l148 68c13.333 -66 53.333 -99 120 -99c34 0 61.333 11 82 33s31 50.667 31 86v906
h-309v143z" />
    <glyph glyph-name="circumflex" unicode="&#x2c6;" horiz-adv-x="1028" 
d="M575 1516l295 -125l-69 -162l-287 123l-287 -123l-69 162l295 125h122z" />
    <glyph glyph-name="caron" unicode="&#x2c7;" horiz-adv-x="1028" 
d="M453 1229l-295 125l69 162l287 -123l287 123l69 -162l-295 -125h-122z" />
    <glyph glyph-name="breve" unicode="&#x2d8;" horiz-adv-x="928" 
d="M811 1485c-33.333 -66 -81.332 -118.333 -143.999 -157s-130.667 -58 -204 -58c-74 0 -142.333 19.333 -205 58s-110.334 91 -143.001 157l129 63c20.667 -40.667 51 -73.334 91 -98.001s82.667 -37 128 -37s88 12.333 128 37s70.333 57.334 91 98.001z" />
    <glyph glyph-name="dotaccent" unicode="&#x2d9;" horiz-adv-x="455" 
d="M371 1373c0 -40 -14 -74 -42 -102s-61.667 -42 -101 -42c-40 0 -74 14 -102 42s-42 62 -42 102c0 39.333 14 73 42 101s62 42 102 42c39.333 0 73 -14 101 -42s42 -61.667 42 -101z" />
    <glyph glyph-name="ring" unicode="&#x2da;" horiz-adv-x="680" 
d="M606 1536c0 -74 -25.833 -136.833 -77.5 -188.5s-114.5 -77.5 -188.5 -77.5s-136.833 25.833 -188.5 77.5s-77.5 114.5 -77.5 188.5s25.833 136.833 77.5 188.5s114.5 77.5 188.5 77.5s136.833 -25.833 188.5 -77.5s77.5 -114.5 77.5 -188.5zM463 1536
c0 34 -12 63 -36 87s-53 36 -87 36s-63 -12 -87 -36s-36 -53 -36 -87s12 -63 36 -87s53 -36 87 -36s63 12 87 36s36 53 36 87z" />
    <glyph glyph-name="ogonek" unicode="&#x2db;" horiz-adv-x="618" 
d="M473 -492h-189.999c-55.333 0 -102.333 19.333 -141 58s-58 84.334 -58 137.001c0 47.333 12.333 87.666 37 120.999l127 176h164l-183 -254c-8 -10 -12 -23 -12 -39c0 -20.667 6.66699 -38.5 20 -53.5s28.666 -22.5 45.999 -22.5h190v-123z" />
    <glyph glyph-name="tilde" unicode="&#x2dc;" horiz-adv-x="899" 
d="M541 1417c12 -4 23.3291 -5.99902 33.9961 -5.99902c18.667 0 36.834 6 54.501 18s29.834 27 36.501 45l131 -57c-20 -45.333 -50 -81.166 -90 -107.499s-84.667 -39.5 -134 -39.5c-24 0 -49 4 -75 12l-142 45c-12 4 -23.333 6 -34 6
c-17.333 0 -34.666 -5.83301 -51.999 -17.5s-30.333 -26.834 -39 -45.501l-131 57c18.667 43.333 48.834 78.666 90.501 105.999s87.5 41 137.5 41c18.667 0 43 -4 73 -12z" />
    <glyph glyph-name="hungarumlaut" unicode="&#x2dd;" horiz-adv-x="1130" 
d="M668 1229l-113 96l266 331l113 -96zM340 1229l-113 96l267 331l112 -96z" />
    <glyph glyph-name="pi" unicode="&#x3c0;" horiz-adv-x="1229" 
d="M199 0v963h-164v143h1157v-143h-164v-963h-164v963h-501v-963h-164z" />
    <glyph glyph-name="endash" unicode="&#x2013;" horiz-adv-x="1024" 
d="M16 543v133h994v-133h-994z" />
    <glyph glyph-name="emdash" unicode="&#x2014;" horiz-adv-x="2048" 
d="M184 543v133h1680v-133h-1680z" />
    <glyph glyph-name="quoteleft" unicode="&#x2018;" horiz-adv-x="719" 
d="M256 1126l0.000976562 143c0 79.333 28 147 84 203s123.667 84 203 84h20v-184c-28.667 0 -52.834 -10 -72.501 -30s-29.5 -44.333 -29.5 -73v-143h-205z" />
    <glyph glyph-name="quoteright" unicode="&#x2019;" horiz-adv-x="719" 
d="M461 1516l-0.000976562 -143c0 -78.667 -28 -146.167 -84 -202.5s-123.667 -84.5 -203 -84.5h-20v184c28.667 0 52.834 10 72.501 30s29.5 44.333 29.5 73v143h205z" />
    <glyph glyph-name="quotesinglbase" unicode="&#x201a;" horiz-adv-x="725" 
d="M465 246l-0.000976562 -144.001c0 -82.667 -28.833 -151 -86.5 -205s-131.167 -81 -220.5 -81v184c28.667 0 52.834 9.83301 72.501 29.5s29.5 43.834 29.5 72.501v144h205z" />
    <glyph glyph-name="quotedblleft" unicode="&#x201c;" horiz-adv-x="1028" 
d="M575 1269c0 82.667 29.001 151.167 87.001 205.5s131.333 81.5 220 81.5v-184c-28.667 0 -52.834 -10 -72.501 -30s-29.5 -44.333 -29.5 -73v-143h-205v143zM371.001 1126h-205v143c0 82.667 29 151.167 87 205.5s131.333 81.5 220 81.5v-184c-28 0 -52 -10 -72 -30
s-30 -44.333 -30 -73v-143z" />
    <glyph glyph-name="quotedblright" unicode="&#x201d;" horiz-adv-x="991" 
d="M434 1373c0 -82.667 -28.834 -151.167 -86.501 -205.5s-131.167 -81.5 -220.5 -81.5v184c28.667 0 52.834 10 72.501 30s29.5 44.333 29.5 73v143h205v-143zM843.999 1373c0 -82.667 -28.834 -151.167 -86.501 -205.5s-131.167 -81.5 -220.5 -81.5v184
c28.667 0 52.834 10 72.501 30s29.5 44.333 29.5 73v143h205v-143z" />
    <glyph glyph-name="quotedblbase" unicode="&#x201e;" horiz-adv-x="1028" 
d="M146 -184l-0.000976562 183.999c28.667 0 52.834 9.83301 72.501 29.5s29.5 43.834 29.5 72.501v144h205v-144c0 -83.333 -28.667 -151.833 -86 -205.5s-131 -80.5 -221 -80.5zM554.999 -184.001l-0.000976562 183.999c28.667 0 52.834 9.83301 72.501 29.5
s29.5 43.834 29.5 72.501v144h205v-144c0 -83.333 -28.667 -151.833 -86 -205.5s-131 -80.5 -221 -80.5z" />
    <glyph glyph-name="dagger" unicode="&#x2020;" horiz-adv-x="1133" 
d="M483 0v963h-348v143h348v410h164v-410h348v-143h-348v-963h-164z" />
    <glyph glyph-name="daggerdbl" unicode="&#x2021;" horiz-adv-x="1133" 
d="M483 0v328h-287v143h287v573h-287v143h287v329h164v-329h287v-143h-287v-573h287v-143h-287v-328h-164z" />
    <glyph glyph-name="bullet" unicode="&#x2022;" horiz-adv-x="1241" 
d="M621 963c80 0 148.5 -28.5 205.5 -85.5s85.5 -125.5 85.5 -205.5s-28.5 -148.5 -85.5 -205.5s-125.5 -85.5 -205.5 -85.5s-148.5 28.5 -205.5 85.5s-85.5 125.5 -85.5 205.5s28.5 148.5 85.5 205.5s125.5 85.5 205.5 85.5z" />
    <glyph glyph-name="ellipsis" unicode="&#x2026;" horiz-adv-x="2048" 
d="M1597 246h205v-246h-205v246zM246 246h205v-246h-205v246zM1127 0h-205v246h205v-246z" />
    <glyph glyph-name="perthousand" unicode="&#x2030;" horiz-adv-x="2404" 
d="M772 1208c0 -96 -34 -177.833 -102 -245.5s-150 -101.5 -246 -101.5s-178 33.833 -246 101.5s-102 149.5 -102 245.5s34 178 102 246s150 102 246 102s178 -34 246 -102s102 -150 102 -246zM424 1413c-50.667 0 -94 -20 -130 -60s-54 -88.333 -54 -145
c0 -56 18 -104 54 -144s79.333 -60 130 -60s94 20 130 60s54 88 54 144c0 56.667 -18 105 -54 145s-79.333 60 -130 60zM1202 1516h144l-963 -1516h-143zM1512 307c0 -96 -34 -178.002 -102 -246.002s-150 -102 -246 -102c-96.667 0 -179 33.833 -247 101.5
s-102 149.834 -102 246.501s34 178.834 102 246.501s150.333 101.5 247 101.5c96 0 178 -34 246 -102s102 -150 102 -246zM1164 511.998c-51.333 0 -95 -20 -131 -60s-54 -88.333 -54 -145s18 -105 54 -145s79.667 -60 131 -60c50.667 0 94 20 130 60s54 88.333 54 145
s-18 105 -54 145s-79.333 60 -130 60zM2327 306.998c0 -96 -34 -178.002 -102 -246.002s-150 -102 -246 -102c-96.667 0 -179 33.833 -247 101.5s-102 149.834 -102 246.501s34 178.834 102 246.501s150.333 101.5 247 101.5c96 0 178 -34 246 -102s102 -150 102 -246z
M1979 511.996c-51.333 0 -95 -20 -131 -60s-54 -88.333 -54 -145s18 -105 54 -145s79.667 -60 131 -60c50.667 0 94 20 130 60s54 88.333 54 145s-18 105 -54 145s-79.333 60 -130 60z" />
    <glyph glyph-name="guilsinglleft" unicode="&#x2039;" horiz-adv-x="514" 
d="M86 614l225 410l115 -63l-188 -347l188 -346l-115 -63z" />
    <glyph glyph-name="guilsinglright" unicode="&#x203a;" horiz-adv-x="514" 
d="M203 205l-117 63l188 346l-188 347l117 63l223 -410z" />
    <glyph glyph-name="franc" unicode="&#x20a3;" horiz-adv-x="993" 
d="M168 0v355h-139v143h139v1018h819v-143h-655v-513h532v-143h-532v-219h291v-143h-291v-355h-164z" />
    <glyph glyph-name="trademark" unicode="&#x2122;" horiz-adv-x="2048" 
d="M942 1516h202l269 -728l267 728h204v-943h-143v754l-277 -754h-104l-275 748v-748h-143v943zM501 1393v-820h-143v820h-276v123h696v-123h-277z" />
    <glyph glyph-name="Omega" unicode="&#x2126;" horiz-adv-x="1794" 
d="M61 143h347.996c-77.333 46 -144.666 116.667 -201.999 212c-72.667 120.667 -109 255 -109 403c0 106.667 20.333 208.667 61 306s98.667 183.666 174 258.999c74.667 74.667 160.834 132.167 258.501 172.5s199.5 60.5 305.5 60.5s207.833 -20.167 305.5 -60.5
s184.167 -98.166 259.5 -173.499c74.667 -75.333 132.334 -161.666 173.001 -258.999s61 -199 61 -305c0 -148 -36.333 -282.333 -109 -403c-57.333 -95.333 -124.666 -166 -201.999 -212h348v-143h-625v143c125.333 43.333 227.333 121.333 306 234s118 239.667 118 381
c0 92 -17.167 178.833 -51.5 260.5s-83.5 153.5 -147.5 215.5c-60 56.667 -128 100.667 -204 132s-153.333 47 -232 47s-156 -15.667 -232 -47s-144 -75.333 -204 -132c-64 -62 -113.167 -133.833 -147.5 -215.5s-51.5 -168.5 -51.5 -260.5
c0 -142.667 39 -270.334 117 -383.001s179 -190 303 -232v-143h-621v143z" />
    <glyph glyph-name="partialdiff" unicode="&#x2202;" 
d="M273 1077h-164.002c0 126.667 40.333 235.667 121 327c90.667 101.333 211.334 152 362.001 152c142.667 0 258.834 -43 348.501 -129s134.5 -196.333 134.5 -331v-625c0 -64.667 -12.667 -127.834 -38 -189.501s-61 -116.5 -107 -164.5
c-100 -105.333 -221 -158 -363 -158c-144 0 -265.333 49.5 -364 148.5s-148 220.167 -148 363.5c0 140.667 49.5 259.5 148.5 356.5s219.5 145.5 361.5 145.5c71.333 0 137.833 -12 199.5 -36s110.5 -57 146.5 -99v237c0 99.333 -29.667 180.5 -89 243.5
s-136 94.5 -230 94.5c-88 0 -163.167 -33.167 -225.5 -99.5s-93.5 -145.166 -93.5 -236.499zM566.998 830c-98.667 0 -181.332 -34.498 -247.999 -103.498s-100 -154.167 -100 -255.5c0 -102.667 33.667 -189.834 101 -261.501s149.666 -107.5 246.999 -107.5
s179 35.667 245 107s99 158.666 99 261.999c0 102 -32.833 187.333 -98.5 256s-147.5 103 -245.5 103z" />
    <glyph glyph-name="Delta" unicode="&#x2206;" horiz-adv-x="1516" 
d="M41 0l635 1516h164l635 -1516h-1434zM283 143h948l-473 1162z" />
    <glyph glyph-name="product" unicode="&#x220f;" horiz-adv-x="1399" 
d="M166 -336v1852h1065v-1852h-164v1709h-737v-1709h-164z" />
    <glyph glyph-name="summation" unicode="&#x2211;" horiz-adv-x="1368" 
d="M74 -336l510 952l-471 900h1104v-143h-832l381 -748l-436 -816h887v-145h-1143z" />
    <glyph glyph-name="minus" unicode="&#x2212;" horiz-adv-x="1241" 
d="M104 697h1035v-154h-1035v154z" />
    <glyph glyph-name="fraction" unicode="&#x2215;" horiz-adv-x="340" 
d="M-231 0l667 1516h133l-667 -1516h-133z" />
    <glyph glyph-name="periodcentered" unicode="&#x2219;" horiz-adv-x="567" 
d="M406 676c0 -34 -12 -63 -36 -87s-53 -36 -87 -36s-63 12 -87 36s-36 53 -36 87s12 63 36 87s53 36 87 36s63 -12 87 -36s36 -53 36 -87z" />
    <glyph glyph-name="radical" unicode="&#x221a;" horiz-adv-x="1124" 
d="M762 -205l-565 1153l-148 -74l-31 64l314 152l385 -783l246 1579l122 -18z" />
    <glyph glyph-name="infinity" unicode="&#x221e;" horiz-adv-x="1460" 
d="M907 889c55.333 49.333 120.666 74 195.999 74c78 0 144.333 -28 199 -84s82 -123.667 82 -203s-27.333 -147 -82 -203s-121 -84 -199 -84c-75.333 0 -140.666 24.667 -195.999 74l-178 158l-178 -158c-55.333 -49.333 -120.666 -74 -195.999 -74
c-78 0 -144.333 28 -199 84s-82 123.667 -82 203s27.333 147 82 203s121 84 199 84c75.333 0 140.666 -24.667 195.999 -74l178 -158zM498 830c-38 34 -85.667 51 -143 51c-52.667 0 -99 -20.167 -139 -60.5s-60 -88.5 -60 -144.5s20 -104.167 60 -144.5
s86.333 -60.5 139 -60.5c57.333 0 105 17 143 51l170 154zM790 676l170 -154c38 -34 85.667 -51 143 -51c52.667 0 99 20.167 139 60.5s60 88.5 60 144.5s-20 104.167 -60 144.5s-86.333 60.5 -139 60.5c-57.333 0 -105 -17 -143 -51z" />
    <glyph glyph-name="integral" unicode="&#x222b;" horiz-adv-x="1040" 
d="M438 -189v1733c0 59.333 23.667 114.666 71 165.999c54.667 58.667 124.667 88 210 88c60 0 114 -16.167 162 -48.5s82 -74.166 102 -125.499l-148 -68c-12 66 -50.667 99 -116 99c-34 0 -62 -10.5 -84 -31.5s-33 -46.833 -33 -77.5v-1735
c0 -71.333 -27.5 -132.833 -82.5 -184.5s-119.833 -77.5 -194.5 -77.5c-59.333 0 -113 15.333 -161 46s-83.667 73.334 -107 128.001l148 68c13.333 -66 53.333 -99 120 -99c34 0 61.333 11 82 33s31 50.667 31 86z" />
    <glyph glyph-name="approxequal" unicode="&#x2248;" horiz-adv-x="1241" 
d="M1155 848c-70 -108 -174.333 -162 -313 -162c-63.333 0 -123.333 11.667 -180 35l-123 46c-48 19.333 -97.333 29 -148 29c-68 0 -128 -34.667 -180 -104l-121 96c70 108 174.333 162 313 162c58 0 118.333 -11.667 181 -35l123 -46c46.667 -19.333 95.667 -29 147 -29
c68 0 128 34.667 180 104zM1155 438c-70 -108 -174.333 -162 -313 -162c-63.333 0 -123.333 11.667 -180 35l-123 47c-48 19.333 -97.333 29 -148 29c-68.667 0 -128.667 -35 -180 -105l-121 97c70 108 174.333 162 313 162c58 0 118.333 -11.667 181 -35l123 -47
c46.667 -19.333 95.667 -29 147 -29c68.667 0 128.667 35 180 105z" />
    <glyph glyph-name="notequal" unicode="&#x2260;" horiz-adv-x="1241" 
d="M1139 891v-154h-357l-143 -245h500v-154h-590l-187 -318l-133 78l142 240h-267v154h357l143 245h-500v154h590l187 318l133 -78l-142 -240h267z" />
    <glyph glyph-name="lessequal" unicode="&#x2264;" horiz-adv-x="1241" 
d="M104 756l1035 401v-153l-820 -314l820 -313v-153l-1035 401v131zM104 0v154h1035v-154h-1035z" />
    <glyph glyph-name="greaterequal" unicode="&#x2265;" horiz-adv-x="1241" 
d="M1139 756v-131l-1035 -401v153l820 313l-820 314v153zM104 0v154h1035v-154h-1035z" />
    <glyph glyph-name="lozenge" unicode="&#x25ca;" horiz-adv-x="1012" 
d="M813 676l-307 518l-307 -518l307 -518zM936 711v-70l-381 -641h-98l-381 641v70l381 641h98z" />
    <glyph glyph-name="apple" unicode="&#xf000;" horiz-adv-x="1618" 
d="M768 1395c0 12 4 21.833 12 29.5s17.667 11.5 29 11.5s21 -3.83301 29 -11.5s12 -17.5 12 -29.5v-246c0 -11.333 -4 -21 -12 -29s-17.667 -12 -29 -12s-21 3.83301 -29 11.5s-12 17.5 -12 29.5v246zM1301 1436c-21.333 -58 -63 -108.667 -125 -152s-126.333 -65 -193 -65
c-36 0 -66.667 4 -92 12c22 60.667 64.5 112 127.5 154s129.167 63 198.5 63c33.333 0 61.333 -4 84 -12zM809 1047c17.333 0 32.502 2.16699 45.502 6.5s35.833 16.833 68.5 37.5c48 29.333 103 44 165 44c106.667 0 196.167 -44.833 268.5 -134.5
s108.5 -200.5 108.5 -332.5c0 -85.333 -11.667 -170.666 -35 -255.999s-56 -162.666 -98 -231.999c-42.667 -70 -90.167 -124.333 -142.5 -163s-104.833 -58 -157.5 -58c-24.667 0 -61.334 10.667 -110.001 32c-48 21.333 -85.667 32 -113 32
c-26.667 0 -64.334 -10.667 -113.001 -32c-48 -21.333 -84.667 -32 -110 -32c-52.667 0 -105 19.333 -157 58s-99.333 93 -142 163c-42 69.333 -74.667 146.666 -98 231.999s-35 170.666 -35 255.999c0 132 36.167 242.833 108.5 332.5s161.833 134.5 268.5 134.5
c62 0 116.667 -14.667 164 -44c33.333 -20.667 56.5 -33.167 69.5 -37.5s27.833 -6.5 44.5 -6.5z" />
    <glyph glyph-name="fi" unicode="&#xf001;" horiz-adv-x="997" 
d="M190 0l0.000976562 963h-164v143h164v41c0 112.667 40.167 209 120.5 289s176.833 120 289.5 120v-143c-66.667 0 -124.334 -26.5 -173.001 -79.5s-73 -115.167 -73 -186.5v-41h246v-143h-246v-963h-164zM702.001 0v1106h164v-1106h-164zM702.001 1516h164v-205h-164v205
z" />
    <glyph glyph-name="fl" unicode="&#xf002;" horiz-adv-x="993" 
d="M188 0l-0.000976562 963h-164v143h164v41c0 112.667 40.167 209 120.5 289s176.833 120 289.5 120v-143c-67.333 0 -125.166 -25.833 -173.499 -77.5s-72.5 -114.5 -72.5 -188.5v-41h246v-143h-246v-963h-164zM863.999 0h-164v1516h164v-1516z" />
    <glyph glyph-name="glyph1" horiz-adv-x="1651" 
 />
    <glyph glyph-name="glyph2" horiz-adv-x="1651" 
 />
    <glyph glyph-name="glyph172" horiz-adv-x="2048" 
 />
  </font>
</defs>
</svg>
