<?xml version="1.0" encoding="UTF-8"?>
<!DOCTYPE svg  PUBLIC '-//W3C//DTD SVG 1.1//EN'  'http://www.w3.org/Graphics/SVG/1.1/DTD/svg11.dtd'>
<svg version="1.1" xmlns="http://www.w3.org/2000/svg">
<defs>
<font id="BDOxford" horiz-adv-x="889">
<font-face font-family="BD Oxford" font-weight="400" ascent="1638" bbox="-143 -506 1739 1789" cap-height="1225" descent="-410" panose-1="0 0 0 0 0 0 0 0 0 0" underline-position="-143" underline-thickness="20" unicode-range="U+0020-02DC" units-per-em="2048" x-height="838"/>
<missing-glyph/>
<glyph glyph-name="space" horiz-adv-x="348" unicode=" "/>
<glyph d="M170 154q-42 0 -71 -25.5t-29 -73.5q0 -46 29 -72t67 -26q42 0 69 24q31 27 31 74t-29 73t-67 26zM82 1120q7 -72 25.5 -257t26.5 -293q13 -181 13 -302q3 0 11 -1t12 -1h12q4 0 7.5 0.5t7.5 1.5q0 130 12 289.5t24.5 319.5t12.5 243v4q0 42 -23 64t-57 22 q-33 0 -58.5 -22.5t-25.5 -59.5v-8z" glyph-name="exclam" horiz-adv-x="319" unicode="!"/>
<glyph d="M61 1239q0 -35 25 -160q12 -60 12 -173q0 -3 13 -15q4 -4 14 -12q25 148 48 233q11 42 24 111q4 15 4 30q0 34 -19 54t-45 20q-30 0 -51 -21q-25 -25 -25 -67zM356 906q0 -3 13 -15q4 -4 14 -12q21 130 64 288q12 45 12 86q0 26 -19.5 50t-44.5 24q-30 0 -53 -20.5 t-23 -61.5q0 -19 25 -157q12 -66 12 -182z" glyph-name="quotedbl" horiz-adv-x="524" unicode='"'/>
<glyph d="M768 459h307l21 71h-310l74 273h309l17 71h-307l82 304h-72l-82 -304h-272l81 304h-71l-82 -304h-293l-16 -71h290l-73 -273h-291l-21 -71h291l-82 -307h74l82 307h270l-82 -307h74zM516 803h272l-73 -273h-273z" glyph-name="numbersign" horiz-adv-x="1245" unicode="#"/>
<glyph d="M367 551v-210v-167.5v-105.5q-82 0 -152 49q-58 40 -109 114l-26 -72q-8 -25 -25 -77q61 -35 129 -55q84 -25 158 -25q9 0 14.5 -0.5t10.5 -1.5l2 -45q0 -44 -2 -75t-5 -58q23 6 39 6q22 0 36 -3q3 0 7 -3q0 18 -2 71t-2 56l2 53q63 10 128 42q86 42 136 105 q64 81 64 187q0 131 -87 219q-62 62 -161 98q-44 12 -88 25l-2 235q2 197 2 205q27 -6 44 -12q103 -39 159 -133l70 119q-42 28 -126 47q-75 14 -149 28q-2 9 -2 25q0 28 6 68q2 13 6 34q-7 -1 -16 -1.5t-14 -0.5l-56 2h-4l8 -131q-136 -27 -218.5 -113.5t-82.5 -213.5 q0 -110 79 -182q56 -52 149 -82q40 -11 80 -21zM436 72q-1 20 -1 34q-3 104 -3 170q0 41 1 128t1 126q10 0 52 -19q62 -28 98 -67q53 -58 53 -135q0 -104 -72 -170q-53 -49 -129 -67zM362 1114q3 -28 4 -77t1 -97q0 -36 1 -116.5t1 -123.5q-66 0 -133 60q-58 52 -58 131 q0 117 92 182q30 21 92 41z" glyph-name="dollar" horiz-adv-x="842" unicode="$"/>
<glyph d="M1044 1335q-134 -250 -267 -499q-154 -286 -265 -481q-145 -254 -303 -511q6 -1 13 -3q17 -1 32 -1q14 0 25 1t20 3q142 251 277 493q168 302 265 477q63 115 277 505q5 9 -9.5 13.5t-35.5 4.5zM1024 14q103 0 175 66q79 73 79 199q0 127 -80 200q-72 66 -178 66 q-104 0 -175 -66q-79 -73 -79 -200q0 -126 80 -199q72 -66 178 -66zM1024 516q65 0 110 -59q50 -66 50 -178t-51 -177q-46 -59 -113 -59q-65 0 -110 59q-50 66 -50 177q0 113 51 178q46 59 113 59zM319 604q103 0 175 66q79 73 79 198q0 127 -80 200q-73 67 -178 67 q-104 0 -175 -66q-79 -73 -79 -201q0 -125 80 -198q73 -66 178 -66zM319 1106q65 0 110 -59q50 -66 50 -179q0 -111 -51 -176q-46 -59 -113 -59q-64 0 -109 59q-50 66 -50 176q0 113 51 179q46 59 112 59z" glyph-name="percent" horiz-adv-x="1339" unicode="%"/>
<glyph d="M999 4q35 0 69.5 -1.5t70.5 -2.5h4q-28 15 -99 86q-53 53 -116 123q-28 31 -56 63q52 62 113 149q47 67 87 130q17 27 34 55q-31 13 -58 41q-8 9 -20 25q-20 -75 -67 -167q-35 -69 -78 -133q-20 -27 -39 -53q-83 80 -167 182q-63 76 -116 150q-22 31 -43 62q80 52 119 85 q58 49 85 96q32 57 32 130q0 93 -58 149t-159 56q-116 0 -201.5 -75.5t-85.5 -186.5q0 -99 40 -168q56 -74 85 -117q-11 0 -81 -47q-93 -63 -151 -137q-82 -105 -82 -219q0 -137 102 -223q96 -81 234 -81q104 0 201 44q69 31 130 83q23 22 46 45q25 -19 63 -64 q34 -42 68 -83q15 0 47 2t47 2zM201 328q0 79 45 156q55 95 160 147l42 -62q53 -76 117 -156q86 -108 176 -202q3 -6 -28 -41q-39 -44 -92 -73q-74 -40 -158 -40q-109 0 -185.5 79.5t-76.5 191.5zM659 1022q0 -101 -59 -164q-23 -24 -113 -100q-32 40 -63 81q-62 94 -62 156 q0 74 51.5 133.5t114.5 59.5q60 0 95.5 -45.5t35.5 -120.5z" glyph-name="ampersand" horiz-adv-x="1206" unicode="&amp;"/>
<glyph d="M43 1335v-32q0 -34 22 -235q11 -101 11 -202q0 -2 15 -4t24 -2h8q13 98 27.5 198.5t17.5 127.5q8 65 14 137v14q0 43 -19.5 66.5t-47.5 23.5h-4q-27 0 -46 -22q-22 -26 -22 -70z" glyph-name="quotesingle" horiz-adv-x="385" unicode="'"/>
<glyph d="M367 1217l-41 32q-133 -144 -202 -336q-65 -181 -65 -383q0 -207 69.5 -402.5t201.5 -350.5l19 19q19 20 18 22q-94 104 -153.5 309.5t-59.5 429.5q0 199 49 362q54 181 164 298z" glyph-name="parenleft" horiz-adv-x="434" unicode="("/>
<glyph d="M371 530q0 204 -64 383q-68 190 -203 336l-41 -32q108 -115 163 -297q50 -166 50 -363q0 -227 -59 -430t-154 -309q-2 -4 24 -29q4 -4 13 -12q130 153 200.5 350.5t70.5 402.5z" glyph-name="parenright" horiz-adv-x="434" unicode=")"/>
<glyph d="M598 1147q-47 -45 -135 -105q-29 -20 -78 -51q2 35 3 57q10 126 30 209q-13 -3 -29 -5.5t-31 -2.5q-17 0 -43 5q-4 0 -12 3q16 -61 25 -171q2 -35 6 -95q-29 19 -47 31q-107 74 -166 129q-5 -12 -8 -19q-8 -19 -17 -34q-5 -9 -25 -35q-3 -3 -8 -10q65 -19 160 -63 q84 -39 84 -44q-52 -26 -84 -40q-99 -45 -160 -62q8 -11 13 -17q16 -22 22 -32q5 -13 10.5 -26t12.5 -26q47 45 135 106q29 20 78 52q-4 -58 -7 -93q-10 -105 -26 -171q13 2 29 4t30 2q12 0 32 -3t22 -3q-14 64 -23 170q-2 35 -6 94q48 -32 77 -52q86 -61 136 -108 q5 14 8 21q8 20 16 34t25 36q2 3 8 10q-83 23 -193 76q-50 24 -50 28q52 26 84 40q99 46 159 63q-9 11 -13 17q-14 19 -19 32q-3 5 -15 32q-8 18 -10 17z" glyph-name="asterisk" horiz-adv-x="719" unicode="*"/>
<glyph d="M262 735v-200h-201v-76h201v-203h76v203h203v76h-203v200h-76z" glyph-name="plus" horiz-adv-x="602" unicode="+"/>
<glyph d="M262 115v4q0 28 -16 48t-39 23l-17 3q-5 0 -12 -2t-12 -3q-27 -8 -40 -30q-4 -7 -7.5 -20t-3.5 -25q0 -16 6.5 -32.5t23.5 -35.5q9 -9 14 -21t5 -32q0 -24 -24 -65q-27 -46 -68 -85q-4 -4 -2 -6q0 -6 8.5 -11t15.5 -5q2 0 3.5 1.5l2.5 2.5q3 0 42 52q48 64 78 117 q42 75 42 122z" glyph-name="comma" horiz-adv-x="348" unicode=","/>
<glyph d="M559 535h-479v-76h479v76z" glyph-name="hyphen" horiz-adv-x="643" unicode="-"/>
<glyph d="M66 72v-6q0 -38 27.5 -64.5t64.5 -26.5q40 0 67 28t27 65q0 43 -27 69q-25 27 -65 27q-41 0 -68 -27q-13 -13 -19.5 -29.5t-6.5 -35.5z" glyph-name="period" horiz-adv-x="348" unicode="."/>
<glyph d="M719 1335q-134 -250 -268 -499q-139 -257 -266 -481q-156 -275 -302 -511q7 -1 13 -3q17 -1 32 -1q14 0 25 1t20 3q111 197 277 493q112 201 265.5 478.5t277.5 503.5q5 9 -9.5 13.5t-35.5 4.5z" glyph-name="slash" horiz-adv-x="717" unicode="/"/>
<glyph d="M477 1221q-172 0 -289 -149q-131 -166 -131 -451q0 -300 130 -476q117 -159 286 -159q171 0 289 158q131 176 131 477q0 283 -130 450q-117 150 -286 150zM473 1159q108 0 183 -134q83 -149 83 -404q0 -276 -82 -439q-74 -147 -180 -147q-108 0 -183 145q-83 161 -83 441 q0 253 82 403q74 135 180 135z" glyph-name="zero" horiz-adv-x="942" unicode="0"/>
<glyph d="M618 1221q-95 -57 -207 -111q-61 -29 -164 -73q-32 -15 -63 -29q19 -14 36 -37q14 -19 28 -37q11 7 154 97q57 36 110 67q4 -91 8 -210.5t4 -225.5q0 -117 -2.5 -226.5t-7.5 -205t-18 -238.5q20 5 43.5 8.5t44.5 3.5q27 0 41.5 -2.5t33.5 -9.5q3 8 3 14 q-6 131 -11.5 296.5t-5.5 313.5q0 85 3 183.5t7 220t4 201.5q0 10 -12 10z" glyph-name="one" horiz-adv-x="942" unicode="1"/>
<glyph d="M158 1040q35 -26 53 -64q6 -13 12 -34q40 79 87 129q70 76 143 76q123 0 177 -89q42 -69 42 -194q0 -126 -86 -273q-72 -123 -216 -279q-84 -91 -278 -279q-2 -9 -2 -15l2 -10l283 4q420 -12 448 -12h6q-6 35 -6 63q0 24 2 45.5t4 36.5q-45 -13 -143.5 -18.5t-216.5 -5.5 q-84 0 -121 2q-24 4 -47 8q51 81 201 226q158 153 217 236q102 144 102 292q0 139 -78 225q-85 94 -241 94q-106 0 -195 -41q-63 -29 -114 -79q-40 -39 -35 -44z" glyph-name="two" horiz-adv-x="942" unicode="2"/>
<glyph d="M156 1094q35 -33 59 -71q8 -12 18 -32q30 64 72 106q58 58 125 58q87 0 142 -75q51 -70 51 -167q0 -106 -48 -172q-56 -77 -167 -77h-14q-23 0 -42 4q0 -5 -1 -20t-1 -23l2 -39q29 5 53 6.5t37 1.5q125 0 186 -77q52 -66 52 -181q0 -120 -77.5 -209.5t-192.5 -89.5 q-82 0 -160 50.5t-86 100.5q-1 -22 -1 -35q-5 -79 -32 -112q38 -15 77 -30q97 -27 198 -27q176 0 293 88q132 99 132 276q0 121 -62 190q-69 76 -224 101q-3 6 -2 8l2 4q86 15 153 89q72 80 72 178q0 135 -94 213q-87 73 -217 73q-104 0 -214 -53q-45 -29 -89 -57z" glyph-name="three" horiz-adv-x="942" unicode="3"/>
<glyph d="M618 1196q-2 1 -106 -157q-137 -207 -228 -340q-144 -211 -231 -322v-20.5t2 -24.5q24 1 58 3t189 5.5t300 3.5q2 -27 3 -63.5t1 -85.5q0 -72 -2.5 -122.5t-9.5 -80.5q15 3 24 4q29 4 56 4q11 0 25 -0.5t34 -7.5q-6 41 -11 141.5t-5 210.5l33 2q44 0 84.5 -2.5t46.5 -7.5 q-2 5 -2 9q-5 24 -5 50q0 11 1.5 23t5.5 33q-8 -5 -29 -8t-61 -3l-74 2v12q3 126 5.5 255t2.5 196q0 60 -4 159t-4 132h-8q-30 -10 -45 -10q-18 0 -46 10zM602 1020q0 -63 4 -182t4 -168q0 -83 -1 -137t-3 -91q-169 0 -243.5 -1t-133.5 -2h-23q-3 1 -5 3q88 147 185 287 q67 97 153 210q61 81 63 81z" glyph-name="four" horiz-adv-x="942" unicode="4"/>
<glyph d="M502 1157q-65 0 -133.5 5t-147.5 18q5 -51 7 -88q8 -121 8 -226q0 -127 -15 -268l21 -20q52 30 104 44.5t94 14.5q110 0 174 -86q58 -78 58 -191q0 -163 -79 -245q-73 -76 -204 -76q-75 0 -134 37q-52 33 -99 100q0 -21 -1 -34q-6 -76 -32 -113q45 -14 91 -28 q105 -26 171 -26q176 0 305 103q137 109 137 274q0 152 -80 247q-89 106 -251 106q-85 0 -193 -33q-1 25 -1.5 59.5t-0.5 87.5q0 35 1 116.5t1 121.5h23q66 0 188.5 -2.5t263.5 -5.5v4q0 1 -3 27t-3 48q0 26 6 52q-43 -8 -74 -11q-101 -12 -202 -12z" glyph-name="five" horiz-adv-x="942" unicode="5"/>
<glyph d="M723 1161l2 25q-28 6 -44 8q-50 8 -79 8q-236 0 -385 -215q-137 -197 -137 -463q0 -150 31 -259q38 -133 121 -206q95 -84 247 -84q160 0 272.5 118.5t112.5 281.5q0 138 -100 237t-240 99q-82 0 -156 -37q-52 -26 -100 -71q-18 -19 -35 -38l-2 31q0 100 37 218 q43 137 115 222q87 103 197 103q31 0 60 -7q8 -2 87 -30v4q0 2 -2 21t-2 34zM489 641q91 0 150 -69q66 -78 66 -222q0 -148 -72 -234q-65 -77 -160 -77q-96 0 -163 78q-74 87 -74 233q0 131 80 214q74 77 173 77z" glyph-name="six" horiz-adv-x="942" unicode="6"/>
<glyph d="M453 1159q-130 0 -214 4.5t-102 14.5l5 -15q12 -39 12 -71v-9q0 -20 -3.5 -34t-13.5 -27q11 2 22 5q50 7 187 12t395 5l-64 -118q-88 -158 -200 -350q-150 -257 -346 -574q18 2 40.5 4t49.5 2q35 0 53 -6l30 82q52 122 162 328q147 274 398 694v53v19q-23 -9 -147 -14 t-264 -5z" glyph-name="seven" horiz-adv-x="942" unicode="7"/>
<glyph d="M797 942q0 116 -98 191q-92 71 -218 71q-139 0 -239 -66q-111 -74 -111 -196q0 -118 57 -182q47 -53 146 -80l2 -4l-2 -2q-126 -63 -186 -136q-70 -85 -70 -204q0 -159 93 -252q100 -100 288 -100q173 0 286 99t113 253q0 133 -54 211q-61 88 -202 127l-4 8 q104 36 151.5 100.5t47.5 161.5zM463 49q-93 0 -156 70q-71 79 -71 215q0 144 71 227q65 76 160 76q92 0 156 -75q71 -84 71 -228q0 -136 -71 -214q-65 -71 -160 -71zM463 696q-72 0 -122 61q-56 69 -56 185q0 96 56 152q51 51 126 51q71 0 122 -51q56 -57 56 -152 q0 -116 -56 -184q-51 -62 -126 -62z" glyph-name="eight" horiz-adv-x="942" unicode="8"/>
<glyph d="M188 68q0 -13 -2.5 -25.5t-7.5 -24.5q34 -14 54 -20q64 -21 102 -21q239 0 385 203q137 191 137 475q0 149 -32 260q-39 135 -120 206q-95 83 -247 83q-162 0 -273.5 -117.5t-111.5 -279.5q0 -139 98.5 -235.5t239.5 -96.5q81 0 156 42q55 31 101 79q17 21 35 43v-43 q0 -224 -82 -378q-94 -177 -264 -177q-44 0 -97 29q-39 21 -77 43q2 -7 4 -17.5t2 -27.5zM442 551q-92 0 -153 66q-70 76 -70 210q0 150 76 241q69 83 166 83q93 0 156 -79q71 -89 71 -245q0 -127 -77 -205q-70 -71 -169 -71z" glyph-name="nine" horiz-adv-x="942" unicode="9"/>
<glyph d="M61 152v-7q0 -12 5.5 -25.5t15.5 -23.5q20 -20 53 -20h6q29 0 49.5 20.5t20.5 53.5v6q0 30 -20.5 49.5t-53.5 19.5h-6q-29 0 -49.5 -21.5t-20.5 -51.5zM61 684v-6q0 -28 20.5 -49t53.5 -21h6q30 0 49 21q21 20 21 53v6q0 30 -21 49q-20 21 -53 21h-6q-30 0 -49 -21 q-21 -21 -21 -53z" glyph-name="colon" horiz-adv-x="274" unicode=":"/>
<glyph d="M209 115v4q0 27 -16.5 47.5t-38.5 23.5l-17 3q-5 0 -12 -2t-12 -3q-27 -7 -40 -30q-9 -23 -10.5 -28t-1.5 -17q0 -17 6.5 -32.5t24.5 -35.5q9 -9 14 -21t5 -32q0 -24 -24 -65q-27 -46 -69 -85q-4 -4 -2 -6q0 -6 9 -11t16 -5q2 0 3.5 1.5l2.5 2.5q3 0 42 52q48 64 78 117 q42 75 42 122zM63 684v-6q0 -28 20.5 -49t51.5 -21h6q30 0 49 21q21 20 21 53v6q0 30 -21 49q-20 21 -51 21h-6q-30 0 -49 -21q-21 -21 -21 -53z" glyph-name="semicolon" horiz-adv-x="279" unicode=";"/>
<glyph d="M455 823l-394 -276v-35l394 -274v96l-287 196l287 201v92z" glyph-name="less" horiz-adv-x="516" unicode="&lt;"/>
<glyph d="M541 354h-480v-75h480v75zM541 535h-480v-76h480v76z" glyph-name="equal" horiz-adv-x="602" unicode="="/>
<glyph d="M455 547l-394 276v-92l287 -201l-287 -196v-96l394 274v35z" glyph-name="greater" horiz-adv-x="516" unicode="&gt;"/>
<glyph d="M139 72q0 -44 27 -70.5t65 -26.5q41 0 68 27t27 66v6q0 18 -7 34t-20 29q-25 27 -66 27t-67.5 -28.5t-26.5 -63.5zM373 295q-11 23 -16 34q-9 15 -17 31q0 -28 -30.5 -48.5t-69.5 -20.5q-40 0 -64 23q-29 27 -29 81q0 86 103 183q96 85 193 171q104 107 104 212 q0 104 -63 169q-68 70 -185 70q-88 0 -160 -38q-49 -43 -98 -85q26 -21 40 -49q4 -9 9 -24q30 59 64 96q53 57 108 57q92 0 132 -67q32 -53 32 -146q0 -85 -87 -194q-81 -90 -161 -180q-88 -104 -88 -173q0 -64 42.5 -103.5t109.5 -39.5q34 0 65 9t66 32z" glyph-name="question" horiz-adv-x="608" unicode="?"/>
<glyph d="M1438 -82q-9 10 -17 20q-21 20 -37 29q-31 -19 -62 -39q-82 -47 -177 -75q-137 -41 -285 -41q-296 0 -489 153q-215 171 -215 477q0 299 220 510t525 211q257 0 444 -136q203 -148 203 -380q0 -199 -106 -341t-254 -142q-61 0 -83 29q-15 20 -15 69q0 27 25 134 q17 72 55 220q13 51 51 191l-74 2q-14 -39 -21 -58q-12 -28 -24 -55q-52 64 -78 87q-63 57 -152 57q-168 0 -286.5 -137.5t-118.5 -321.5q0 -123 63 -204q71 -91 199 -91q95 0 188 65q31 21 74 66q-1 -6 -1.5 -12.5t-0.5 -9.5q0 -66 60 -90q38 -15 118 -15q215 0 348 171 q123 158 123 386q0 265 -228 436q-213 160 -505 160q-343 0 -591 -229q-253 -234 -253 -568q0 -337 241 -531q220 -177 554 -177q173 0 330 51q143 46 252 129zM872 774q61 0 133 -66q64 -58 60 -73q-30 -169 -52 -241q-36 -118 -91 -173q-65 -65 -172 -65q-87 0 -136 68 q-45 62 -45 153q0 152 86 271q91 126 217 126z" glyph-name="at" horiz-adv-x="1696" unicode="@"/>
<glyph d="M612 1225l-76 -192q-96 -237 -198 -466q-141 -317 -272 -573q13 2 28 4t29 2q16 0 33 -2t32 -4q78 202 130 331q59 146 63 146q36 0 120 2t89 2q51 0 115.5 -1.5t105.5 -2.5q6 0 43 -83q34 -78 75 -189q47 -129 66 -205q20 2 43 4t45 2q24 0 50 -2t47 -4 q-153 308 -287 622q-91 214 -176 442q-30 83 -60 167q-9 -6 -22 -6q-9 0 -23 6zM567 559q-96 0 -122.5 -2t-34.5 -4q58 157 104 264q28 65 52 114q14 28 14 36v4q0 10 2 12.5t4 3.5q6 0 6 -16q2 -11 60 -141.5t120 -276.5q-17 2 -78.5 4t-126.5 2z" glyph-name="A" horiz-adv-x="1241" unicode="A"/>
<glyph d="M61 1225q5 -57 8 -204t3 -413q0 -312 -2 -418.5t-5 -153t-4 -46.5q22 5 111 6t130 1h86.5t68.5 -1q167 0 277 111q102 103 102 239q0 106 -67 183q-74 85 -214 110q-12 0 -12 4q0 3 12 8q133 53 198 128q58 67 58 147q0 109 -94 195.5t-205 86.5q-158 0 -286.5 4.5 t-164.5 12.5zM215 68q-3 31 -5.5 80t-2.5 126q0 26 2 131t2 191q20 4 34 5q42 5 85 5q85 0 152 -18q90 -24 138 -76q60 -64 60 -170q0 -113 -61 -182q-50 -56 -140 -82q-67 -19 -153 -19q-42 0 -67 2.5t-44 6.5zM207 678q0 293 3 378t3 91q17 3 29 4q36 4 73 4 q129 0 212 -42q118 -60 118 -195q0 -110 -73 -171q-89 -75 -269 -75q-49 0 -67.5 1.5t-28.5 4.5z" glyph-name="B" horiz-adv-x="887" unicode="B"/>
<glyph d="M674 1161q130 0 238 -59t139 -148q8 46 16 93q5 31 16 96q-106 39 -211.5 59.5t-195.5 20.5q-289 0 -462 -178q-165 -170 -165 -439q0 -236 94 -387q81 -131 228 -192q124 -52 284 -52q128 0 255 33q109 28 153 62q1 1 3.5 44t4.5 76q-51 -57 -162 -101 q-122 -48 -243 -48q-191 0 -305 119q-138 145 -138 446q0 286 143 432q120 123 308 123z" glyph-name="C" horiz-adv-x="1147" unicode="C"/>
<glyph d="M63 -10q22 5 147.5 6t183.5 1h119.5t90.5 -1q218 0 387 163q187 181 187 464q0 288 -182 451q-160 143 -392 143q-39 0 -92 -0.5t-119 -0.5q-214 0 -258.5 1.5t-71.5 7.5q5 -57 8 -204t3 -413q0 -317 -2 -424t-5 -150.5t-4 -43.5zM997 606q0 -207 -88 -336 q-99 -145 -311 -194q-34 -7 -79.5 -11t-86.5 -4q-72 0 -142.5 7.5t-70.5 11.5v33q-4 47 -7 176.5t-3 318.5q0 239 3 331.5t7 188.5q0 3 38.5 5t90.5 2q61 0 125.5 -2t118.5 -3q212 0 317 -165q88 -138 88 -359z" glyph-name="D" horiz-adv-x="1239" unicode="D"/>
<glyph d="M354 1219q-135 0 -202 1.5t-86 4.5q1 0 3 -39t4.5 -188t2.5 -390q0 -311 -2 -429t-4 -153.5t-4 -35.5q16 4 115 6t222 2q120 0 197.5 -2t99.5 -6v127q-51 -17 -159 -24t-213 -7l-111 2q0 1 -1.5 31.5t-3 156.5t-1.5 312q32 2 75 3t101 1q86 0 152.5 -2.5t93.5 -7.5 l-4 110q-33 -7 -129.5 -10.5t-202.5 -3.5q-31 0 -51.5 0.5t-34.5 1.5q0 219 2 303.5t4.5 114.5t3.5 30l105 2q124 0 222 -6.5t152 -25.5v127q-16 -2 -134 -4t-212 -2z" glyph-name="E" horiz-adv-x="762" unicode="E"/>
<glyph d="M139 -2q17 0 27.5 -1t48.5 -7q-4 51 -6 195t-2 403q34 2 79 3t107 1q89 0 158 -2.5t94 -7.5v26v84q-33 -7 -133.5 -10.5t-214.5 -3.5q-33 0 -54 0.5t-36 1.5q0 219 2 303.5t4.5 114.5t3.5 30l105 2q122 0 220 -6.5t152 -25.5v127q-21 -3 -140 -4.5t-204 -1.5 q-135 0 -202 1.5t-87 4.5q5 -53 8 -199.5t3 -417.5q0 -317 -2 -424t-5 -150.5t-4 -43.5q16 4 37 6t41 2z" glyph-name="F" horiz-adv-x="756" unicode="F"/>
<glyph d="M737 1161q145 0 265 -59t151 -148q19 58 39 116q6 20 18 56q-118 48 -236 71.5t-226 23.5q-306 0 -500.5 -170.5t-194.5 -444.5q0 -241 110 -394q95 -132 268 -195q143 -52 327 -52q142 0 274 30q116 26 158 58q-5 62 -8.5 122t-3.5 91q0 48 3.5 106t8.5 122v6 q-40 -15 -76 -15q-24 0 -43 5q-17 6 -33 12q6 -60 8.5 -115.5t2.5 -118.5q0 -168 -11 -174q-63 -26 -135.5 -40.5t-150.5 -14.5q-222 0 -358 120q-167 147 -167 447q0 285 162 432q136 123 348 123z" glyph-name="G" horiz-adv-x="1274" unicode="G"/>
<glyph d="M217 -10q-1 0 -3 39.5t-4.5 190t-2.5 396.5q2 0 66.5 3t160 6.5t139.5 3.5q97 0 237 -6q49 -2 130 -7q0 -304 -2 -422t-4.5 -161t-3.5 -43q14 4 36 6t42 2q22 0 34 -1.5t43 -6.5q-4 50 -6 198.5t-2 419.5q0 261 1.5 395t3.5 178t3 44q-17 -3 -33 -5.5t-32 -2.5h-14 q-25 0 -37 1t-39 7q4 -47 6 -178t2 -365q-33 5 -92 6q-123 4 -275 4q-163 0 -243 -3q-60 -5 -119 -9l-2 2q0 263 2 366t4.5 140t3.5 37q-17 -3 -33 -5.5t-32 -2.5h-15q-27 0 -39 1.5t-37 6.5q4 -32 7.5 -206t3.5 -411q0 -308 -2 -413.5t-5 -155t-4 -49.5q16 4 37 6t41 2 q18 0 30.5 -1t47.5 -7z" glyph-name="H" horiz-adv-x="1147" unicode="H"/>
<glyph d="M137 1217q-27 0 -39 1.5t-37 6.5q5 -57 8 -204t3 -413q0 -317 -2 -424t-5 -150.5t-4 -43.5q16 4 37 6t41 2q18 0 30.5 -1t47.5 -7q-1 12 -3 46t-4.5 182.5t-2.5 389.5q0 299 2 416t4.5 159t3.5 42q-17 -3 -33 -5.5t-32 -2.5h-15z" glyph-name="I" horiz-adv-x="279" unicode="I"/>
<glyph d="M-143 -207l4 -45q133 0 219 63q65 48 99 129q24 58 24 103v596q0 285 2 395t4.5 150.5t3.5 40.5q-47 -6 -80 -6q-32 0 -76 6q1 -16 2.5 -45.5t4 -186t2.5 -354.5q0 -309 -2 -444t-3.5 -167t-3.5 -32q0 -101 -49 -142q-34 -29 -151 -61z" glyph-name="J" horiz-adv-x="266" unicode="J"/>
<glyph d="M221 -10q-1 12 -3 46t-4.5 182.5t-2.5 389.5l4 2q5 0 10 -1t17 -5q97 -64 225 -222q90 -111 193 -264q42 -63 85 -126q17 4 39 5t47 1q32 0 72 -3t43 -3h6q-108 121 -260 299q-93 109 -220 261q-93 112 -93 114l82 80q164 160 208 204q108 107 275 275q-14 -3 -43 -7 t-47 -4q-29 0 -41 2t-33 9l-86 -110q-101 -125 -206 -237q-140 -150 -244 -225q-4 -4 -17 -4q-5 0 -9 1t-7 3q0 274 2 382t4.5 149t3.5 41q-17 -3 -33 -5.5t-32 -2.5h-15q-27 0 -39 1.5t-36 6.5q1 -14 3 -50.5t4.5 -185t2.5 -381.5q0 -295 -2 -412.5t-4.5 -161.5t-3.5 -44 q15 4 36 6t41 2q18 0 30.5 -1t47.5 -7z" glyph-name="K" horiz-adv-x="1012" unicode="K"/>
<glyph d="M135 1217q-37 0 -76 8q1 -16 2.5 -46t4 -194t2.5 -377q0 -298 -2 -427.5t-3.5 -160t-3.5 -30.5q17 4 115.5 6t222.5 2q119 0 196 -2t99 -6v127q-50 -17 -157 -24t-213 -7l-111 2q-2 70 -4 210t-2 310q0 290 2 407t4.5 163.5t3.5 46.5q-19 -3 -38.5 -5.5t-26.5 -2.5h-15z " glyph-name="L" horiz-adv-x="754" unicode="L"/>
<glyph d="M737 -20q9 0 15 14q6 19 58 131q73 158 156 322q112 221 230 425q9 17 18 17q7 0 12 -15.5t21 -131.5q22 -161 34 -315q17 -219 17 -431q19 2 41.5 4t42.5 2q19 0 39 -2t37 -4q-46 321 -81 634q-23 210 -43 434q-7 80 -13 161q-5 32 -14 32q-8 -1 -17 -16q-3 -5 -8 -16 q-97 -209 -228 -452q-99 -183 -201 -359q-85 -146 -87 -146q-106 192 -230 433q-88 172 -186 369q-38 77 -76 155q-22 30 -34 30q-5 0 -8 -7t-7 -23l-16 -190q-23 -241 -56 -464q-46 -316 -108 -577q13 2 27.5 4t27.5 2q22 0 46 -2t44 -4q0 276 21 492q15 150 41 285l22 106 q0 9 2 12t3 4q8 0 8 -16q0 -7 102 -190q129 -231 198 -370q112 -224 130 -321q4 -6 6 -8q7 -8 14 -8z" glyph-name="M" horiz-adv-x="1507" unicode="M"/>
<glyph d="M82 1221q0 -91 -4 -275q-7 -321 -8 -390q-4 -267 -4 -564q6 4 11 5q17 5 44 5q19 0 35 -2.5t37 -7.5v4q0 30 -5 247t-7 343q-5 273 -5 352q91 -96 182 -191q221 -235 375 -406q222 -246 307 -357q21 -29 33 -29q7 0 12 7.5t5 21.5q-3 67 -5 174t-2 245q0 97 4 237.5 t8.5 310.5t4.5 278q-15 -4 -31 -8t-29 -4q-13 1 -25.5 3t-31.5 9q2 -97 6.5 -247t9.5 -382t5 -305l-196 190q-220 220 -389 403q-223 241 -280 333q-5 10 -14.5 15t-18.5 5q-24 0 -24 -20z" glyph-name="N" horiz-adv-x="1163" unicode="N"/>
<glyph d="M711 -31q264 0 447 159q204 177 204 478q0 308 -205 490q-185 164 -450 164q-264 0 -448 -164q-204 -182 -204 -490q0 -301 205 -478q185 -159 451 -159zM711 1194q194 0 328 -147q149 -163 149 -441q0 -272 -150 -432q-134 -143 -329 -143t-329 144q-149 160 -149 431 q0 278 150 441q135 147 330 147z" glyph-name="O" horiz-adv-x="1425" unicode="O"/>
<glyph d="M848 915q0 124 -89 212q-95 94 -247 94q-151 0 -283.5 4.5t-167.5 11.5q4 -25 7.5 -202t3.5 -427q0 -312 -2 -418.5t-5 -153t-4 -46.5q17 6 39 8t47 2t43.5 -1t32.5 -3q-5 3 -7.5 62t-4.5 186t-2 184q0 47 0.5 78t1.5 53q18 0 59.5 -2t42.5 -2q262 0 408 114 q127 99 127 246zM207 625q0 279 1 371t2.5 127.5t2.5 35.5q21 4 36 6q46 6 93 6q135 0 219 -48q117 -67 117 -222q0 -113 -69 -182q-56 -56 -156 -82q-74 -19 -160 -19q-35 0 -53.5 2t-32.5 5z" glyph-name="P" horiz-adv-x="909" unicode="P"/>
<glyph d="M928 2q26 0 112 45q129 68 209 179q113 157 113 380q0 309 -204 490q-185 164 -453 164q-264 0 -447 -159q-203 -177 -203 -476v-19q0 -217 105 -370q91 -132 251 -204q141 -63 296 -63l73 2q114 -80 225 -176q65 -56 158 -146q61 -59 62 -59q45 20 69 36q31 21 54 55 q-16 8 -31 16q-51 27 -127 84q-112 84 -262 221zM711 1194q194 0 328 -147q149 -163 149 -441q0 -272 -150 -432q-134 -143 -329 -143t-329 144q-149 160 -149 431q0 278 150 441q135 147 330 147z" glyph-name="Q" horiz-adv-x="1425" unicode="Q"/>
<glyph d="M819 936q0 117 -77 197q-85 88 -230 88q-151 0 -283.5 4.5t-167.5 11.5q5 -51 8 -200t3 -429q0 -318 -2 -425t-5 -150t-4 -43q21 6 44.5 8t46.5 2q18 0 35 -1t34 -3q-3 3 -6.5 163t-3.5 437l10 2q12 0 28.5 -2t31.5 -4q97 -107 212 -262q93 -125 166 -234l66 -102 q21 4 49.5 6t52.5 2q41 0 84 -4q14 -1 35 -4q-160 181 -282 338q-84 108 -149 205q-22 34 -44 69q166 15 262 116q86 91 86 214zM207 653q0 270 1 357t2.5 118t2.5 31q18 4 31 5q40 5 82 5q132 0 214 -46q117 -65 117 -214q0 -105 -63 -169q-50 -51 -142 -75 q-69 -18 -151 -18q-35 0 -57 2t-37 4z" glyph-name="R" horiz-adv-x="993" unicode="R"/>
<glyph d="M418 1188q67 0 130 -38.5t105 -113.5l64 140q-141 75 -277 75q-164 0 -270.5 -100.5t-106.5 -251.5q0 -170 145 -259q135 -64 271 -127q146 -82 146 -234q0 -95 -76.5 -167.5t-179.5 -72.5h-4q-80 0 -151 50q-79 56 -138 171q-11 -44 -21 -87q-18 -91 -18 -107 q91 -49 177 -72t163 -23q177 0 283 108q102 104 102 263q0 179 -145 274l-270 128q-146 76 -146 206q0 109 66 176q61 62 151 62z" glyph-name="S" horiz-adv-x="778" unicode="S"/>
<glyph d="M461 1212q-179 0 -297.5 3.5t-124.5 9.5v-119q28 18 113.5 26.5t166.5 8.5h31q23 0 37 -0.5t23 -1.5q4 -47 6 -175t2 -356q0 -298 -2 -415t-4.5 -160t-3.5 -43q15 4 36 6t41 2q18 0 30.5 -1t47.5 -7q-4 56 -6 205t-2 413q0 220 0.5 327t1.5 155.5t8.5 49t28 1t51.5 0.5 q88 0 166.5 -5t130.5 -18v107q-4 -5 -157 -9t-324 -4z" glyph-name="T" horiz-adv-x="983" unicode="T"/>
<glyph d="M72 340q0 -169 157 -275q142 -96 332 -96q188 0 342 118q166 127 166 310q0 358 1.5 538t3.5 235t3 55q-15 -3 -31 -5.5t-20 -2.5h-8q-13 0 -21 1q-20 4 -34 7q1 -17 3 -63t4.5 -246t2.5 -523q0 -149 -121 -248q-115 -94 -279 -94q-52 0 -134 36q-95 42 -156 102 q-76 75 -76 159q0 426 2 591.5t4.5 225.5t3.5 60q-17 -3 -33 -5.5t-32 -2.5h-15q-27 0 -39 1.5t-37 6.5q4 -34 7.5 -283t3.5 -602z" glyph-name="U" horiz-adv-x="1139" unicode="U"/>
<glyph d="M1083 1208q-16 0 -34 1t-33 3q-48 -129 -144 -373q-119 -303 -172 -441q-84 -217 -84 -226v-8q0 -8 -4 -8q-7 0 -8 16q0 10 -92 241q-137 344 -180 455q-102 265 -121 344q-20 -2 -43 -4t-45 -2q-38 0 -61 1.5t-37 4.5q152 -305 279 -621q85 -212 161 -440 q26 -84 53 -167q5 3 25.5 4.5t36.5 1.5q22 0 34 -1t19 -5l66 192q83 232 179 465q130 316 261 571q-12 -2 -26.5 -3t-29.5 -1z" glyph-name="V" horiz-adv-x="1147" unicode="V"/>
<glyph d="M901 1206q-27 0 -51 6q-45 -132 -89 -263q-105 -316 -162 -495q-87 -271 -87 -282v-8q0 -8 -4 -8q-7 0 -8 16q0 14 -65.5 241t-130.5 455q-79 275 -95 344q-20 -2 -43 -4t-45 -2q-38 0 -61 1.5t-37 4.5q103 -255 205 -574q74 -232 137 -464q24 -95 49 -190q24 6 51 6 q31 0 52 -3q4 0 11 -3q57 205 148 470q72 210 137 381q59 156 61 156q101 -266 189 -529q64 -193 111 -351q18 -64 36 -127q11 6 62 6q22 0 34 -1t19 -5q25 94 51 188q67 233 144 462q106 315 219 578q-12 -2 -26.5 -3t-29.5 -1q-16 0 -34 1t-33 3q-41 -108 -121 -373 q-65 -214 -126.5 -435t-59.5 -232v-4q0 -12 -5 -12q-8 0 -8 16q-2 11 -77 241q-108 330 -148 455q-87 271 -104 344q-12 -2 -27.5 -4t-38.5 -2z" glyph-name="W" horiz-adv-x="1751" unicode="W"/>
<glyph d="M154 1214q-39 0 -95 15q1 0 61 -98q55 -89 143 -238q97 -164 165 -287q-1 0 -66 -94q-71 -103 -156 -230q-107 -161 -186 -288q14 4 23 6q28 6 53 6q30 0 56 -12q21 41 42 83q49 93 112 203q81 140 157 252q2 0 43 -64q53 -81 110 -184q81 -145 148 -290q10 3 18 4 q26 4 66 4q36 0 52 -1t63 -7q-16 24 -31 48q-40 62 -124 200q-119 196 -253 430l58 88q59 89 144 212q96 140 181 257q-16 -4 -26 -6q-31 -6 -56 -6q-18 0 -30 2.5t-23 9.5l-22 -48q-31 -64 -86 -157q-78 -132 -177 -281q-27 38 -53 76q-61 95 -112 188q-69 127 -103 222 q-22 -6 -47 -10.5t-49 -4.5z" glyph-name="X" horiz-adv-x="997" unicode="X"/>
<glyph d="M420 -2q18 0 29.5 -1t48.5 -7q-5 52 -7 165.5t-2 354.5q0 2 69 115q95 155 164 273q119 202 189 331q-11 -3 -33.5 -9t-39.5 -6q-27 0 -62 15q-25 -57 -50 -113q-61 -142 -118 -253q-84 -163 -155 -249q-4 -4 -11 -4l-6 4q-59 81 -148 245q-64 118 -131 253 q-29 58 -57 117q-39 -15 -82 -15q-29 0 -66 6t-40 9q67 -128 187 -327q98 -163 175 -285q39 -62 78 -123q0 -252 -2 -348t-4 -126t-4 -30q15 4 36.5 6t41.5 2z" glyph-name="Y" horiz-adv-x="856" unicode="Y"/>
<glyph d="M590 1214q-303 0 -471 15l-4 -131q33 9 167.5 16t290.5 11.5t218 4.5h20q-121 -179 -287 -416q-130 -184 -259 -368t-240 -346q36 -1 80.5 -1.5t68.5 -0.5h318t298 -0.5t242 -1.5q0 1 -4 26t-4 46q0 9 1.5 20t2.5 18h-10q-135 -7 -291 -12.5t-287 -5.5q-26 0 -81 1t-85 1 q58 87 116 175q143 213 290 425q208 299 377 527h-8.5h-12.5q-103 0 -221.5 -1t-224.5 -2z" glyph-name="Z" horiz-adv-x="1106" unicode="Z"/>
<glyph d="M119 1149q42 18 90 18q37 0 73.5 -8t77.5 -24l5 84h-304v-1422l299 -2l-4 84q-46 -16 -87.5 -24.5t-69.5 -8.5q-37 0 -62 10q-8 3 -18 11v1282z" glyph-name="bracketleft" horiz-adv-x="426" unicode="["/>
<glyph d="M719 -92h17h25q1 2 3 4q-149 241 -263 440q-93 162 -194 351q-115 215 -229 430l-29 2q-20 0 -35 -5t-10 -14q109 -199 240.5 -436.5t190.5 -343.5q93 -166 239 -424q9 -2 20 -3t25 -1z" glyph-name="backslash" horiz-adv-x="754" unicode="\"/>
<glyph d="M61 1219l5 -84q43 16 78 24t71 8q50 0 92 -18v-1282q-5 -4 -9 -6q-28 -15 -71 -15q-35 0 -70.5 7t-86.5 26l-4 -84l299 2v1422h-304z" glyph-name="bracketright" horiz-adv-x="426" unicode="]"/>
<glyph d="M438 1198q12 9 103 -63q30 -24 90 -74h26l-225 233l-244 -235h56z" glyph-name="asciicircum" unicode="^"/>
<glyph d="M801 -246h-781v-84h781v84z" glyph-name="underscore" horiz-adv-x="821" unicode="_"/>
<glyph d="M463 981l4 33v4q-70 91 -101 141q-73 119 -85 135q-15 19 -34 28t-36 9q-7 0 -25 -4q-39 -13 -39 -53q0 -8 2 -15.5t3 -11.5q5 -16 12.5 -27t23.5 -24q50 -41 89 -68q68 -48 186 -147z" glyph-name="grave" horiz-adv-x="610" unicode="`"/>
<glyph d="M582 541q0 -6 -2.5 -11t-8.5 -14q-15 -21 -95 -42t-130 -21q-114 0 -200.5 -72.5t-86.5 -181.5q0 -93 73 -155t171 -62q77 0 164 44q73 37 98 72q6 4 8 4q9 0 9 -4q0 -46 32.5 -72t79.5 -26q39 0 74 9t57 24q-3 12 -5 17q-6 18 -9 18q-20 -5 -27 -5q-28 0 -48.5 14 t-20.5 38q-1 25 -1.5 79t-1.5 233.5t-1 205.5q0 103 -89 169q-83 62 -196 62q-84 0 -160 -29q-67 -26 -127 -73v-27v-84q53 70 106 100q58 33 138 33q122 0 168 -81q31 -54 31 -162zM477 428q38 0 65 9q12 5 25 10q4 0 4 -21q-4 -190 -4 -229q0 -56 -64 -95 q-60 -36 -136 -36q-61 0 -106.5 40.5t-45.5 96.5q0 98 65 159q70 66 197 66z" glyph-name="a" unicode="a"/>
<glyph d="M135 1329q-18 0 -40 3t-36 5q1 -55 2 -109q6 -259 7.5 -356t1.5 -210q0 -176 -2.5 -307t-5 -225t-3.5 -150q28 13 77 61q16 16 44 47q17 -14 34 -27q45 -31 99 -51q76 -28 156 -28q165 0 277 135q106 128 106 305q0 188 -99 312q-104 130 -270 130q-60 0 -132 -37 q-54 -28 -103 -67q-41 -33 -41 -35q0 85 1 176t5 322l2 114q-19 -4 -40.5 -6t-39.5 -2zM694 424q0 -154 -53 -250q-66 -119 -201 -119q-147 0 -207 113q-47 89 -47 274q0 155 61 245q67 99 193 99q148 0 209 -116q45 -86 45 -246z" glyph-name="b" horiz-adv-x="913" unicode="b"/>
<glyph d="M496 -23q82 0 155 24.5t135 74.5v8q0 19 -3 54q-3 17 -5 34q-49 -59 -120.5 -92t-147.5 -33q-125 0 -206 87q-93 100 -93 284q0 199 86 305q75 92 190 92q81 0 151 -48t99 -128q19 47 28 70q28 72 26 73q-37 35 -115.5 57.5t-171.5 22.5q-185 0 -303 -93 q-146 -116 -146 -351q0 -210 137 -332q123 -109 304 -109z" glyph-name="c" horiz-adv-x="856" unicode="c"/>
<glyph d="M702 1337q1 -64 3 -163t5 -256t3 -213l-6 8q-46 71 -123 111t-164 40q-149 0 -250 -106q-115 -121 -115 -340t113 -336q98 -102 248 -102q86 0 163 37.5t121 103.5l7 8l-5 -139q17 4 38.5 6t41.5 2q17 0 28 -1t50 -7q-1 54 -2 109q-4 178 -6 322t-2 241q0 167 1.5 277 t4.5 254t4 144q-19 -4 -40.5 -6t-39.5 -2q-20 0 -42 3t-36 5zM451 788q103 0 180 -97q84 -106 84 -273q0 -168 -83 -272q-76 -95 -181 -95q-100 0 -166 89q-74 100 -74 278q0 181 74 281q66 89 166 89z" glyph-name="d" horiz-adv-x="926" unicode="d"/>
<glyph d="M508 57q-126 0 -204 83q-91 97 -91 284h614q0 220 -104 336q-94 104 -248 104q-180 0 -297 -121q-121 -125 -121 -325q0 -210 133 -332q119 -109 293 -109q87 0 166.5 31t141.5 92q0 2 1 8t1 11l-2 57q-53 -53 -130.5 -86t-152.5 -33zM469 803q97 0 158 -84.5t61 -214.5 q-62 -1 -139.5 -1.5t-161.5 -0.5l-168 2q0 98 65 191q76 108 185 108z" glyph-name="e" unicode="e"/>
<glyph d="M47 834v-58v-22q23 5 48 6.5t52 1.5h15q0 -216 -1.5 -346.5t-4.5 -278t-4 -147.5q15 4 36 6t41 2q18 0 30.5 -1t47.5 -7q-1 56 -2 113q-4 181 -6 351.5t-2 307.5h10q36 -3 81.5 -5.5t86.5 -2.5v80h-178q-12 0 -12 16q-6 37 -8.5 69t-2.5 68q0 125 48 181q38 44 102 44 q32 0 68 -11q27 -8 40 -17l19 151h-23q-160 0 -264 -141.5t-104 -345.5q0 -14 -10 -14h-5h-98z" glyph-name="f" horiz-adv-x="594" unicode="f"/>
<glyph d="M408 864q-138 0 -240 -84q-107 -89 -107 -219q0 -87 46 -149q32 -43 86 -71q37 -19 47 -19q-68 -29 -104 -79q-32 -45 -32 -96t32 -92t85 -53q-70 -29 -124 -93q-60 -71 -60 -157q0 -122 86 -190t239 -68q195 0 321 101q136 109 136 301q0 106 -89 170q-77 55 -177 55 h-266q-27 0 -43.5 26t-16.5 62q0 32 15 56.5t45 31.5l135 -2q129 0 218 72q99 80 99 215q0 68 -48 143q-16 24 -48 61q13 5 28.5 7t30.5 2q30 0 69 -6q17 -3 34 -5q2 2 2 25v18q0 18 -0.5 25t-1.5 12q-46 -9 -100 -14.5t-103 -5.5h-29q-43 8 -91 14t-74 6zM147 -203 q0 71 60 133q52 54 112 68l27 2q18 1 31 1.5t21 0.5h16q138 0 211 -43.5t73 -140.5q0 -124 -99 -199q-90 -68 -218 -68q-101 0 -166 65q-68 68 -68 181zM401 336q-75 0 -126 56q-58 63 -58 169q0 119 58 189q53 63 128 63t127 -63q58 -70 58 -189q0 -105 -57 -168 q-52 -57 -125 -57h-5z" glyph-name="g" horiz-adv-x="883" unicode="g"/>
<glyph d="M780 -10l-2 106q-4 182 -6 297t-2 176q0 150 -90 228q-77 67 -201 67q-79 0 -149 -42q-50 -30 -92 -79q-16 -22 -31 -43q0 134 1.5 231.5t4.5 251.5t4 154q-19 -4 -40.5 -6t-39.5 -2q-19 0 -40.5 3t-35.5 5v-8q0 -35 2 -129t4.5 -279.5t2.5 -258.5q0 -154 -2 -317 t-4 -259t-3 -96q16 4 37 6t41 2q21 0 43 -3t35 -5l-10 504q0 106 59 189q65 91 164 91q85 0 144 -61t59 -144q0 -119 -1.5 -204.5t-4.5 -230t-4 -144.5q15 4 36 6t41 2q18 0 29 -1t51 -7z" glyph-name="h" horiz-adv-x="834" unicode="h"/>
<glyph d="M135 842q-11 0 -36 2t-40 2q5 -41 7 -134.5t2 -295.5q0 -314 -6 -401q-1 -15 -3 -25q13 2 39 3t39 1q12 0 43 -2t35 -2q-5 37 -6 106q-4 143 -4 320q0 209 2 298.5t8 131.5q-16 -2 -41 -3t-39 -1zM45 1153v-6q0 -35 27 -62q23 -26 65 -26h6q34 0 62 26q26 28 26 66 q0 41 -26 68q-28 26 -66 26q-41 0 -67 -26q-27 -24 -27 -66z" glyph-name="i" horiz-adv-x="274" unicode="i"/>
<glyph d="M-123 -453q0 -8 1 -18.5t3 -20.5h17q126 0 202 60q60 47 86 124q17 50 17 99v469q0 116 1.5 201.5t4.5 235t4 149.5q-16 -2 -41 -3t-39 -1q-11 0 -36 2t-40 2v-8q0 -38 1.5 -114t4.5 -252.5t3 -211.5q0 -100 -2.5 -230.5t-4 -208t-2.5 -77.5q0 -103 -50 -149 q-44 -41 -130 -41v-7zM43 1153v-6q0 -35 27 -62q23 -26 65 -26h6q34 0 62 26q26 28 26 66q0 41 -26 68q-28 26 -66 26q-41 0 -67 -26q-27 -24 -27 -66z" glyph-name="j" horiz-adv-x="276" unicode="j"/>
<glyph d="M598 836q-15 -27 -71 -94q-60 -72 -130 -142q-82 -82 -137 -117q-18 -10 -31 -10q-17 0 -20.5 15.5t-3.5 46.5v127q0 328 2 456t4.5 173.5t3.5 45.5q-19 -4 -40.5 -6t-39.5 -2t-40 3t-36 5q5 -57 8 -217t3 -458q0 -339 -2 -454.5t-5 -166.5t-4 -51q16 4 37 6t41 2 q23 0 32.5 -1t45.5 -7q-5 36 -6 104q-4 141 -4 318q0 24 12 24q7 0 19 -8q73 -58 164 -171q70 -87 134 -182q27 -43 54 -85q36 12 86 12q34 0 64 -3.5t61 -8.5q-88 98 -212 242q-90 105 -158 187q-31 37 -62 75l68 62q52 47 156 138q108 95 167 142q-7 1 -25.5 1.5 t-40.5 0.5h-35q-19 0 -33.5 -0.5t-25.5 -1.5z" glyph-name="k" horiz-adv-x="821" unicode="k"/>
<glyph d="M135 1329q-18 0 -40 3t-36 5q5 -56 8 -216t3 -459q0 -342 -2 -458t-5 -165t-4 -49q16 4 37 6t41 2q23 0 32.5 -1t45.5 -7q-4 59 -6 221t-2 451q0 285 1.5 431t3.5 195t3 49q-19 -4 -40.5 -6t-39.5 -2z" glyph-name="l" horiz-adv-x="287" unicode="l"/>
<glyph d="M745 -10q-5 42 -6 135q-4 193 -4 444q0 87 56 146t139 59t143 -61t60 -144q0 -292 -2 -391.5t-5 -143.5t-4 -44q16 4 37 6t41 2q23 0 32.5 -1t45.5 -7q-5 53 -6 147q-4 195 -4 432q0 150 -90 228q-77 67 -199 67q-77 0 -145 -44q-49 -32 -87 -82l-28 -44q-22 76 -77 119 q-65 51 -167 51q-78 0 -149 -42q-50 -30 -93 -79q-16 -22 -32 -43q0 23 5 86q1 20 5 58l-35 -5t-31 -3h-14q-27 0 -39 1.5t-37 6.5q5 -32 8 -125.5t3 -269.5q0 -236 -2 -315t-5 -111.5t-4 -32.5q15 4 36.5 6t41.5 2q23 0 32.5 -1t45.5 -7q-5 42 -6 124q-4 169 -4 380 q0 106 60 189q66 91 165 91q81 0 128 -61q44 -57 44 -144q0 -250 -1.5 -375.5t-3.5 -164.5t-3 -39q14 4 36 6t42 2q17 0 27 -1t50 -7z" glyph-name="m" horiz-adv-x="1331" unicode="m"/>
<glyph d="M776 -10q-1 0 -3 35t-4.5 174t-2.5 370q0 151 -89 228q-77 67 -200 67q-78 0 -149 -42q-50 -30 -93 -79q-16 -22 -32 -43q0 38 5 95q1 18 5 49l-35 -5t-31 -3h-14q-27 0 -39 1.5t-37 6.5q5 -29 8 -111t3 -235q0 -262 -2 -350t-5 -123t-4 -35q16 4 37 6t41 2q23 0 32.5 -1 t45.5 -7q-5 38 -6 119q-4 168 -4 385q0 106 60 189q66 91 165 91q83 0 142 -61t59 -144q0 -255 -1.5 -380.5t-3.5 -162t-3 -36.5q15 4 36 6t41 2q18 0 30.5 -1t47.5 -7z" glyph-name="n" horiz-adv-x="827" unicode="n"/>
<glyph d="M483 -20q173 0 293 109q133 121 133 329q0 211 -134 335q-120 111 -294 111t-293 -111q-133 -124 -133 -335q0 -208 134 -329q120 -109 294 -109zM483 815q110 0 186 -99q85 -110 85 -298q0 -183 -86 -292q-77 -97 -187 -97t-186 97q-84 107 -84 292q0 188 85 298 q77 99 187 99z" glyph-name="o" horiz-adv-x="967" unicode="o"/>
<glyph d="M213 -504q-1 0 -3 38.5t-4.5 191.5t-2.5 403l6 -8q39 -69 115 -108.5t165 -39.5q151 0 253 105q118 121 118 338q0 227 -112 345q-96 101 -242 101q-94 0 -174 -40.5t-117 -108.5l-4 -8l2 139q-15 -4 -36.5 -6t-41.5 -2q-18 0 -29.5 1t-48.5 7q5 -56 8 -216t3 -458 q0 -348 -2 -464.5t-5 -163t-4 -46.5q19 4 40.5 6t39.5 2t40 -3t36 -5zM459 41q-103 0 -177 96q-81 105 -81 279q0 181 80 288q72 97 176 97q102 0 171 -95q77 -106 77 -290q0 -180 -77 -283q-69 -92 -169 -92z" glyph-name="p" horiz-adv-x="922" unicode="p"/>
<glyph d="M707 121l6 8q0 -323 -2 -433t-5 -155t-4 -45q10 1 38.5 4.5t39.5 3.5q29 0 40.5 -1.5t39.5 -6.5q-1 0 -3 43.5t-4.5 205.5t-2.5 425q0 334 2 462t4 170t4 42q-14 -2 -39.5 -5t-38.5 -3q-31 0 -44 1.5t-36 6.5l5 -139l-7 8q-37 67 -117.5 108t-172.5 41q-146 0 -242 -100 q-113 -118 -113 -346q0 -217 118 -338q102 -105 253 -105q90 0 165 38.5t116 109.5zM459 801q104 0 176 -97q80 -107 80 -288q0 -174 -80 -279q-73 -96 -178 -96q-100 0 -169 92q-77 103 -77 283q0 183 77 289q70 96 171 96z" glyph-name="q" horiz-adv-x="918" unicode="q"/>
<glyph d="M395 721q25 0 46.5 -5.5t45.5 -19.5v168q-92 0 -164 -54q-51 -38 -90 -102q-14 -28 -28 -55q0 40 5 119q1 26 5 72q-19 -3 -38.5 -5.5t-26.5 -2.5h-15q-27 0 -39 1.5t-37 6.5q5 -39 8 -143t3 -293q0 -323 -7 -399q-1 -13 -4 -19q16 4 37 6t41 2q23 0 32.5 -1t45.5 -7 q-5 44 -6 126q-4 169 -4 378q0 83 52 152q57 75 138 75z" glyph-name="r" horiz-adv-x="494" unicode="r"/>
<glyph d="M518 680l26 58q8 20 25 61q-50 34 -105.5 50.5t-109.5 16.5q-121 0 -207 -71t-86 -179q0 -146 109 -204q101 -34 203 -68q110 -44 110 -156q0 -57 -51 -104t-123 -47q-57 0 -108 31q-58 36 -107 112q-11 -34 -22 -67q-7 -23 -23 -70q58 -39 116 -57.5t116 -18.5 q131 0 222 82t91 203q0 133 -110 190q-103 34 -205 69q-111 42 -111 136q0 64 44 113t110 49q48 0 95 -29q53 -33 101 -100z" glyph-name="s" horiz-adv-x="653" unicode="s"/>
<glyph d="M160 762l-10 -563q0 -101 51 -161q55 -65 157 -65q50 0 102.5 14t121.5 48l-29 45q-43 -24 -77.5 -34.5t-63.5 -10.5q-68 0 -97 63q-18 39 -18 90v11v563h18q58 -3 115.5 -5.5t95.5 -2.5v90q-7 -7 -38 -9t-78 -2h-16h-14h-12h-37.5t-33.5 1l-2 100q0 60 2.5 105t7.5 57 q-9 -9 -16 -14q-48 -33 -125 -33h-14q1 4 3 8q7 -6 7 -209q0 -14 -10 -14h-7h-27q-24 0 -37 1.5t-34 8.5v-66v-24q23 5 48 6.5t52 1.5h15z" glyph-name="t" horiz-adv-x="635" unicode="t"/>
<glyph d="M59 844q1 0 2.5 -31t4 -185t2.5 -364q0 -150 90 -228q77 -67 200 -67q79 0 149 42q52 31 93 79q15 21 31 43q0 -38 -5 -94q-1 -18 -5 -49q17 3 25 4q24 4 40 4h14q29 0 42 -1.5t36 -6.5q-5 41 -6 109q-4 141 -4 309q0 209 2 300t8 136q-14 -4 -36 -6t-42 -2q-18 0 -29 1 t-50 7q5 -48 7.5 -174t2.5 -332q0 -105 -59 -188q-65 -91 -164 -91q-84 0 -143.5 60.5t-59.5 144.5q0 283 2 392.5t4.5 148.5t3.5 39q-15 -4 -36.5 -6t-41.5 -2q-18 0 -29.5 1t-48.5 7z" glyph-name="u" horiz-adv-x="838" unicode="u"/>
<glyph d="M119 836q-28 0 -56 6q-9 2 -22 6q95 -226 191 -472q71 -182 110 -288q17 -49 35 -98q23 10 59 10q29 0 49 -10q19 50 38 101q50 130 118 293q94 225 201 464q-11 -4 -18 -6q-23 -6 -46 -6q-16 0 -30 2.5t-29 9.5q-6 -34 -11 -68q-20 -92 -67 -218q-65 -175 -172 -388 q-5 -5 -10 -2q-3 0 -5 0.5t-3 1.5q-92 212 -158 386q-47 124 -76 218l-20 70q-41 -12 -78 -12z" glyph-name="v" unicode="v"/>
<glyph d="M754 848q-9 -7 -20 -9.5t-27 -2.5t-25.5 2.5t-28.5 9.5l-24 -94q-32 -117 -73 -244q-53 -165 -120 -336q-8 -3 -10 -2q-3 0 -5 0.5t-3 1.5q-61 154 -120 335q-47 145 -76 245q-13 47 -25 94q-41 -12 -78 -12q-28 0 -56 6q-9 2 -22 6q103 -246 186 -472q63 -173 100 -288 q14 -49 29 -98q16 6 30 8t28 2q19 0 37 -5q5 -1 14 -5q22 104 77 265q39 114 95 260q45 118 47 118q1 0 44 -117q47 -127 90 -261q57 -174 75 -265q9 4 16 5q21 5 43 5q12 0 25.5 -2.5t26.5 -7.5q18 50 37 101q56 147 116 293q84 204 201 464q-11 -4 -18 -6q-23 -6 -46 -6 q-16 0 -30 2.5t-29 9.5q-10 -42 -19 -84q-28 -110 -74 -234q-64 -174 -155 -356q-5 -1 -6 0q-70 154 -129 339q-32 99 -69 245q-15 45 -29 90z" glyph-name="w" horiz-adv-x="1401" unicode="w"/>
<glyph d="M143 838q-35 0 -73 5q-12 1 -31 5q26 -17 109 -133q66 -92 145 -210l72 -110q-44 -66 -135 -174q-58 -69 -140 -160q-32 -36 -63 -71q4 1 27 4.5t30 3.5h10q25 0 45 -4q6 -1 15 -4q46 86 112 176q48 66 101 127q42 49 45 49q42 -59 99 -147q29 -45 87 -141q19 -32 39 -64 q26 6 50 8t48 2q36 0 69 -5q10 -1 25 -5q-19 6 -106 123q-62 84 -153 219q-78 117 -76 119q57 73 144 180q63 76 126 153q25 32 51 64q-17 -6 -41 -8t-26 -2q-25 0 -47 5q-7 1 -17 5q0 -35 -62 -122q-47 -66 -115 -144q-32 -34 -63 -68q-49 64 -102 148q-36 57 -78 130 q-16 28 -31 56q-20 -6 -42 -8t-48 -2z" glyph-name="x" horiz-adv-x="860" unicode="x"/>
<glyph d="M119 836q-28 0 -56 6q-9 2 -22 6q95 -226 191 -472q71 -182 110 -288q17 -49 35 -98q4 -4 4 -6q0 -31 -60 -162q-65 -142 -167 -324q11 4 19 6q27 7 50 7q29 0 66 -13l28 100q52 161 150 400q133 325 375 850q-11 -4 -18 -6q-23 -6 -46 -6q-16 0 -30 2.5t-29 9.5 q-6 -34 -11 -68q-20 -92 -67 -218q-65 -175 -172 -388q-5 -5 -10 -2q-3 0 -5 0.5t-3 1.5q-92 212 -158 386q-47 124 -76 218l-20 70q-41 -12 -78 -12z" glyph-name="y" horiz-adv-x="887" unicode="y"/>
<glyph d="M713 836h-160.5t-221 0.5t-237.5 1.5q-1 -11 -1.5 -25.5t-0.5 -30.5l2 -49q51 18 147.5 25.5t186.5 7.5q46 0 76.5 -1t52.5 -3l-80 -114q-88 -117 -210 -269q-135 -169 -267 -322v-32v-25q6 0 72 2t131 2q57 0 134 -3t176.5 -7t174.5 -4q1 0 3.5 16t2.5 45q0 55 -6 55 q-36 -13 -198 -18.5t-289 -5.5h-51l76 96q74 93 202.5 253t284.5 351v54z" glyph-name="z" horiz-adv-x="774" unicode="z"/>
<glyph d="M305 1057q0 190 54 320q38 93 100 149q27 21 55 43q-6 2 -11 2h-9q-102 0 -185 -150q-86 -156 -86 -364q0 -196 -42 -327q-30 -92 -78 -145l-42 -38q10 0 42 -38q48 -57 78 -152q42 -133 42 -324q0 -241 82 -382q74 -128 182 -128h7h10h13t7 -1q-20 0 -57 26 q-65 45 -105 140q-57 133 -57 345q0 219 -48 350q-34 93 -89 136q-25 14 -49 28q13 0 48 32q54 50 89 145q49 134 49 333z" glyph-name="braceleft" horiz-adv-x="575" unicode="{"/>
<glyph d="M109 -449h90v2010h-90v-2010z" glyph-name="bar" horiz-adv-x="309" unicode="|"/>
<glyph d="M352 1057q0 207 -84.5 360.5t-185.5 153.5q-20 0 -20 -2l54 -42q62 -57 100 -148q54 -131 54 -322q0 -201 48 -332q35 -95 90 -146q35 -32 49 -32l-48 -28q-56 -43 -90 -135q-49 -133 -49 -351q0 -213 -56 -344q-40 -93 -106 -140q-38 -27 -57 -27q10 1 19 1h12h4 q110 0 184 126q82 140 82 384q0 190 42 323q30 96 78 153q32 38 42 38q-21 18 -42 37q-48 53 -78 145q-42 131 -42 328z" glyph-name="braceright" horiz-adv-x="575" unicode="}"/>
<glyph d="M129 1270q4 0 11 3.5t22 14.5q43 32 82.5 48t70.5 16q37 0 137 -46q48 -22 83 -22l22 2q48 5 120 63l48 58q-10 0 -39 -14q-43 -23 -76.5 -33t-58.5 -10q-38 0 -98 35.5t-119 35.5l-29 -2q-48 -4 -115 -65q-63 -57 -63 -80z" glyph-name="asciitilde" horiz-adv-x="834" unicode="~"/>
<glyph glyph-name="nonbreakingspace" horiz-adv-x="348" unicode=" "/>
<glyph d="M156 901q-7 0 -13 -0.5t-10 -1.5q0 -134 -12 -301q-8 -108 -27 -297l-26 -254v-6q0 -38 25 -61t59 -23q32 0 55.5 21.5t23.5 62.5v6q0 95 -12 248t-24.5 320t-12.5 284q-9 2 -14 2h-12zM152 1210q-39 0 -68 -25.5t-29 -72.5q0 -46 29.5 -72t71.5 -26q39 0 67.5 25.5 t28.5 72.5t-29 72.5t-71 25.5z" glyph-name="exclamdown" horiz-adv-x="299" unicode="¡"/>
<glyph d="M535 45q-5 71 -9 174t-4 268q0 210 3 268l10 56q64 -8 122.5 -54.5t83.5 -117.5q19 47 28 70q28 72 26 73q-34 33 -108 55.5t-152 22.5q-9 0 -9 47q0 39 4 91q1 18 5 49h-91q2 -31 4.5 -73.5t2.5 -66.5q0 -47 -7 -47q-152 0 -258 -101q-127 -120 -127 -341 q0 -199 119 -321q110 -113 266 -113q5 -1 7 -15.5t2 -36.5q0 -38 -2.5 -72.5t-6.5 -64.5h91q-2 30 -3 47q-4 64 -4 88q0 26 1.5 38t5.5 12q68 0 133.5 25t122.5 71v8q0 25 -3 54l-6 34q-49 -59 -115 -93t-132 -34zM444 809q5 -53 10 -105q3 -90 3 -243q0 -172 -2.5 -287 t-8.5 -119q-99 19 -160 104q-71 98 -71 259q0 179 71 285q62 93 158 106z" glyph-name="cent" horiz-adv-x="856" unicode="¢"/>
<glyph d="M506 225l-2 11q0 13 18 67q14 42 25 84q10 32 30 133q29 151 39 199q14 6 43 6q33 0 86 -5q17 -1 46 -5l20 67h-184q5 44 16 87t21 81q26 118 81 165q47 40 123 40h9q55 0 90 -50q29 -41 37 -99q4 9 7 14q21 33 60 57q-22 30 -43 60q-68 61 -176 61q-112 0 -191 -70 q-72 -63 -100 -167q-3 -10 -20 -99q-6 -31 -17 -76h-116l-27 -71q27 2 58 4t53 2h16q0 -38 -27 -177.5t-51 -215.5q-33 13 -64.5 19.5t-56.5 6.5q-32 0 -59 -8q-6 -2 -74 -33q-30 -26 -58 -72q-36 -61 -36 -114q0 -38 17.5 -68.5t60.5 -54.5q15 -8 31.5 -11t39.5 -3 q61 0 121 28.5t94 77.5l9 12q11 13 17 13q5 0 7 -8q34 -54 70 -85q44 -38 90 -38q99 0 193 68q31 22 75 69q39 46 54 72q10 18 10 28q-25 13 -44 35q-3 3 -7 10q2 -4 2 -14q0 -30 -17 -66q-5 -12 -18 -30q-40 -50 -49 -58q-57 -51 -127 -51q-19 0 -27 2q-62 8 -126 88 q-52 65 -52 82zM182 225q16 35 60.5 60.5t87.5 25.5q36 0 57 -17.5t21 -57.5v-15q-18 -66 -51 -114q-51 -74 -121 -74q-11 -2 -31 2q-24 7 -34.5 29.5t-10.5 56.5q0 54 22 104z" glyph-name="sterling" horiz-adv-x="1153" unicode="£"/>
<glyph d="M133 178l94 94q54 -48 125.5 -74t147.5 -26q154 0 272 92l94 -94l64 63l-92 93q54 53 83 130t29 160q0 80 -24.5 151t-75.5 128l92 92l-63 64l-93 -93q-56 50 -127.5 76.5t-148.5 26.5q-82 0 -158 -28.5t-137 -84.5l-92 94l-64 -63l95 -94q-95 -120 -95 -271 q0 -79 26.5 -150t78.5 -128l-94 -94zM156 614v15q0 80 18.5 141.5t68.5 111.5t119 77.5t140 27.5q73 0 140.5 -26.5t123.5 -79.5q47 -49 68 -116q18 -58 18 -134v-17q0 -78 -17 -136q-21 -72 -73 -123.5t-119 -79t-141 -27.5t-140.5 26.5t-119.5 81.5q-47 45 -66.5 105 t-19.5 129v24z" glyph-name="currency" horiz-adv-x="1012" unicode="¤"/>
<glyph d="M635 180q0 3 20 4.5t37 1.5q33 0 66 -1t61 -3l4 76q-34 -2 -73.5 -4t-73.5 -2q-21 0 -29 1t-12 3v123q0 1 13 3.5t42 2.5q34 0 68 -1t61 -3l4 76q-32 -4 -51 -5q-66 -6 -94 -6q-43 0 -43 9v55q0 2 69 115q95 155 164 273q119 202 189 331q-11 -3 -34.5 -9t-39.5 -6 q-28 0 -61 15q-25 -57 -50 -113q-63 -146 -118 -253q-84 -162 -156 -249q-4 -4 -10 -4l-6 4q-61 85 -149 245q-67 122 -131 253q-28 58 -56 117q-41 -15 -82 -15q-30 0 -67 6t-40 9q70 -133 187 -327q108 -180 175 -285q39 -62 79 -123v-39q-5 -2 -13 -3t-20 -1 q-48 0 -131 5q-15 0 -39 3l4 -74l107 2h49q43 -2 43 -8v-123q0 -2 -11.5 -3t-23.5 -1q-37 0 -83 2.5t-85 5.5l4 -74l107 2h49q43 -2 43 -8q0 -123 -5 -167q-1 -15 -6 -23q16 4 37 6t41 2q23 0 32.5 -1t45.5 -7q-4 20 -6 66t-2 124z" glyph-name="yen" horiz-adv-x="1122" unicode="¥"/>
<glyph glyph-name="brokenbar" horiz-adv-x="348" unicode="¦"/>
<glyph d="M201 825q5 -2 10.5 -4t5.5 -3q0 -3 -18 -9q-74 -38 -116 -102.5t-42 -145.5q0 -133 110 -190q102 -35 205 -69q111 -42 111 -136q0 -63 -44.5 -112.5t-109.5 -49.5q-48 0 -95 29q-53 33 -101 100l-26 -58q-8 -20 -25 -61q50 -34 105.5 -50.5t109.5 -16.5q122 0 207 70.5 t85 179.5q0 88 -37 142q-31 45 -90 71q-9 3 -9 5q0 4 18 9q73 38 115 102.5t42 145.5q0 133 -110 190q-103 34 -205 69q-111 42 -111 136q0 63 44.5 112.5t109.5 49.5q48 0 95 -29q53 -33 102 -100l26 58q8 20 25 61q-50 34 -106 50.5t-109 16.5q-121 0 -207 -71t-86 -179 q0 -82 32 -133q28 -44 89 -78zM502 608q-10 -81 -74 -122q-49 -31 -106 -31q-15 0 -21 1q-6 3 -8 3q-67 20 -98 50q-43 41 -43 116q0 53 52 101q56 52 128 52l22 -2q90 -27 122 -63q28 -32 28 -80q0 -17 -2 -25z" glyph-name="section" horiz-adv-x="655" unicode="§"/>
<glyph d="M242 1159v-6q0 -35 26 -61q24 -27 66 -27h6q36 0 61 27q27 25 27 65q0 41 -26.5 67.5t-65.5 26.5q-41 0 -67.5 -25.5t-26.5 -66.5zM580 1159v-6q0 -35 26 -61q24 -27 66 -27h6q36 0 61 27q27 25 27 65q0 41 -26.5 67.5t-65.5 26.5q-41 0 -67.5 -25.5t-26.5 -66.5z" glyph-name="dieresis" horiz-adv-x="967" unicode="¨"/>
<glyph d="M506 1059q-185 0 -316 -132t-131 -317q0 -184 131 -316t316 -132q186 0 317 132t131 316q0 185 -131 317t-317 132zM129 616q0 153 111 264t266 111q157 0 268 -110t111 -265q0 -157 -111.5 -268.5t-267.5 -111.5h-8q-154 0 -261.5 111.5t-107.5 268.5zM506 797 q38 0 70.5 -18t41.5 -44l11 60q-31 10 -63 15t-60 5q-87 0 -138 -52t-51 -132q0 -103 59 -150q46 -37 124 -37q41 0 73.5 7.5t49.5 17.5l2 37q-17 -15 -51.5 -29t-69.5 -14q-59 0 -92 34q-41 42 -41 134q0 83 38 127q34 39 87 39h10z" glyph-name="copyright" horiz-adv-x="1016" unicode="©"/>
<glyph d="M532 428h-419v-45h419v45zM403 846q0 -4 -2.5 -9t-3.5 -6q-10 -13 -57 -25.5t-78 -12.5q-68 0 -120 -44t-52 -108q0 -58 43 -94.5t103 -36.5q47 0 98 26q44 22 59 44l4 2q3 0 5 -1q0 -1 1 -1q0 -27 19.5 -43.5t48.5 -16.5q23 0 43 5.5t35 15.5l-8 20l-17 -2 q-17 0 -29 7.5t-12 23.5q-1 10 -1 19q-3 65 -3 136l2 156q0 62 -51.5 100.5t-120.5 38.5q-49 0 -96 -18q-40 -15 -76 -43v-68q31 43 64.5 61.5t83.5 18.5q73 0 100 -48q18 -32 18 -97zM340 778q19 0 32 3q11 4 23 8q2 0 2 -13l-2 -137q0 -34 -37.5 -56t-83.5 -22 q-36 0 -64 24t-28 58q0 58 41.5 96.5t116.5 38.5z" glyph-name="ordfeminine" horiz-adv-x="612" unicode="ª"/>
<glyph d="M162 582q-9 11 63 102q24 30 74 90v27l-233 -226l235 -243v55zM408 582q-9 11 63 102q24 30 74 90v27l-234 -226l236 -243v55z" glyph-name="guillemotleft" horiz-adv-x="606" unicode="«"/>
<glyph d="M1058 392h-48v144h-904v48h952v-192z" glyph-name="logicalnot" horiz-adv-x="1136" unicode="¬"/>
<glyph glyph-name="minus" horiz-adv-x="348" unicode="­"/>
<glyph d="M506 1085q-186 0 -316.5 -131.5t-130.5 -316.5q0 -186 130.5 -317.5t316.5 -131.5t316 132t130 317t-130.5 316.5t-315.5 131.5zM127 643q0 153 112 264t267 111t266 -110t111 -265q0 -158 -111.5 -269.5t-267.5 -111.5h-8q-153 0 -261 112t-108 269zM627 741 q0 36 -24 61t-68 25q-39 0 -79.5 1.5t-56.5 5.5q1 -3 2.5 -30t1.5 -161q0 -96 -0.5 -132.5t-3.5 -51.5q6 1 15 3t14 3q6 0 10.5 -1t7.5 -3q0 1 -1 33t-1 149q21 0 21 -4q43 -44 93 -116q17 -24 42 -64q10 6 31 6q16 0 28 -3q2 0 7 -3q-70 79 -113 138q-14 20 -31 46 q49 0 79 33q26 29 26 65zM471 655l-27 2q0 95 0.5 120t1.5 32q6 2 13 4t20 2q40 0 65 -14q36 -20 36 -66q0 -44 -39 -65q-29 -15 -70 -15z" glyph-name="registered" horiz-adv-x="1012" unicode="®"/>
<glyph d="M653 1192h-479v-76h479v76z" glyph-name="macron" horiz-adv-x="696" unicode="¯"/>
<glyph d="M174 1227q-50 0 -84.5 -34.5t-34.5 -84.5q0 -49 35 -83t84 -34q50 0 84.5 33.5t34.5 83.5t-34.5 84.5t-84.5 34.5zM98 1102q0 38 20 60t56 22q33 0 53.5 -21.5t20.5 -54.5q0 -32 -21 -53t-47 -21q-34 0 -58 18t-24 50z" glyph-name="degree" horiz-adv-x="348" unicode="°"/>
<glyph d="M66 76v-80h827v80h-827zM440 1075v-364h-362l-6 -103h368v-362h95v362h366v103h-360v364h-101z" glyph-name="plusminus" horiz-adv-x="952" unicode="±"/>
<glyph glyph-name="twosuperior" horiz-adv-x="348" unicode="²"/>
<glyph glyph-name="threesuperior" horiz-adv-x="348" unicode="³"/>
<glyph d="M324 1288q-14 -18 -86 -135q-32 -52 -101 -141q0 -12 1 -21.5t3 -15.5q116 98 185 146q41 28 90 69q14 12 22.5 24t14.5 27q4 16 4 25q0 42 -39 55q-12 4 -25 4q-20 0 -37 -8t-32 -29z" glyph-name="acute" horiz-adv-x="20" unicode="´"/>
<glyph d="M319 1090h-182v-1080q0 -27 -2 -40t-3 -27t-46 -155q-18 -57 -18 -114v-14q0 -50 29 -87.5t75 -37.5h4q47 0 76 42.5t29 96.5q0 83 -39 185t-39 170v73q43 -58 124 -94q69 -31 124 -31q58 0 132 42t142 110l55 55q0 -79 61 -143q57 -60 130 -70l16 -2q71 0 146 52 q84 58 100 139l12 67h-39l-16 -59q-11 -39 -33.5 -62.5t-60.5 -31.5l-15 -2q-53 0 -84.5 56t-31.5 122v840h-181v-746q0 -87 -94 -161q-87 -68 -174 -68q-86 0 -141.5 69.5t-55.5 161.5v744z" glyph-name="mu" horiz-adv-x="1315" unicode="µ"/>
<glyph d="M758 1139h106q-2 -118 -4 -284.5t-5.5 -476t-3.5 -355.5v-42t1 -18l29 -2h24q17 0 23 -2q-1 13 -3 46.5t-4.5 182t-2.5 390.5q0 287 2 404t4 161t4 63q-23 -5 -127 -8.5t-243.5 -5.5t-162.5 -2q-152 0 -247 -93q-89 -87 -89 -212q0 -146 126 -246q145 -115 407 -115 q17 0 57.5 2t46.5 2q1 -22 1.5 -52.5t0.5 -78.5q0 -155 -3.5 -291.5t-10.5 -140.5q13 2 31.5 3t44.5 1q3 0 3 258q0 186 -1.5 378t-2.5 323t-1 211zM565 1141q46 0 76.5 -0.5t52.5 -1.5q0 -13 1.5 -44.5t3 -171t1.5 -329.5q-13 -2 -33 -4t-53 -2q-89 0 -159 18 q-99 25 -156 82q-70 69 -70 182q0 155 116 222q84 49 220 49z" glyph-name="paragraph" horiz-adv-x="987" unicode="¶"/>
<glyph d="M254 -25h-41q-4 -23 -5 -34q-5 -35 -5 -43h20h4q32 0 52 -21t20 -49q0 -27 -18.5 -46.5t-53.5 -19.5q-29 0 -84 25v-20q58 -27 101 -27q47 0 73.5 26.5t26.5 63.5q0 34 -21 57q-24 27 -67 27h-4z" glyph-name="cedilla" horiz-adv-x="440" unicode="¸"/>
<glyph glyph-name="onesuperior" horiz-adv-x="348" unicode="¹"/>
<glyph d="M522 428h-420v-45h420v45zM319 512q104 0 175 65q79 72 79 197q0 127 -80 201q-73 67 -176 67q-104 0 -176 -67q-80 -74 -80 -201q0 -123 80 -196q73 -66 178 -66zM319 1014q65 0 111 -60q51 -67 51 -180q0 -110 -51 -175q-46 -58 -113 -58q-66 0 -111 58q-50 64 -50 175 q0 113 51 180q46 60 112 60z" glyph-name="ordmasculine" horiz-adv-x="635" unicode="º"/>
<glyph d="M63 801v-27q50 -59 74 -89q73 -92 64 -103l-140 -195v-55l236 243zM309 801v-27q50 -59 74 -89q73 -92 63 -103l-139 -195v-55l236 243z" glyph-name="guillemotright" horiz-adv-x="606" unicode="»"/>
<glyph glyph-name="onequarter" horiz-adv-x="348" unicode="¼"/>
<glyph glyph-name="threequarters" horiz-adv-x="348" unicode="¾"/>
<glyph d="M229 946q11 -23 17.5 -36.5t15.5 -28.5q0 28 30.5 48.5t69.5 20.5q40 0 64 -23q29 -28 29 -81q0 -86 -103 -183q-97 -85 -193 -170q-104 -106 -104 -212q0 -104 63 -170q67 -70 185 -70q110 0 196 61l62 62q-26 21 -40 49q-4 9 -9 25q-30 -60 -64 -97q-53 -57 -108 -57 q-92 0 -132 67q-32 53 -32 146q0 85 87 194q80 90 161 180q88 104 88 173q0 64 -42.5 103.5t-109.5 39.5q-34 0 -65 -9t-66 -32zM463 1169q0 44 -27 70.5t-65 26.5q-39 0 -67 -27t-28 -65v-7q0 -18 7 -34t20 -29q25 -27 66 -27t67.5 28t26.5 64z" glyph-name="questiondown" horiz-adv-x="623" unicode="¿"/>
<glyph d="M612 1225l-76 -192q-96 -237 -198 -466q-141 -317 -272 -573q13 2 28 4t29 2q16 0 33 -2t32 -4q78 202 130 331q59 146 63 146q36 0 120 2t89 2q51 0 115.5 -1.5t105.5 -2.5q6 0 43 -83q34 -78 75 -189q47 -129 66 -205q20 2 43 4t45 2q24 0 50 -2t47 -4 q-153 308 -287 622q-91 214 -176 442q-30 83 -60 167q-9 -6 -22 -6q-9 0 -23 6zM567 559q-96 0 -122.5 -2t-34.5 -4q58 157 104 264q28 65 52 114q14 28 14 36v4q0 10 2 12.5t4 3.5q6 0 6 -16q2 -11 60 -141.5t120 -276.5q-17 2 -78.5 4t-126.5 2zM858 1388l4 33v4 q-70 91 -101 141q-73 119 -85 135q-15 19 -34 28t-36 9q-7 0 -25 -4q-39 -13 -39 -53q0 -8 2 -15.5t3 -11.5q5 -16 12.5 -27t23.5 -24q50 -41 89 -68q68 -48 186 -147z" glyph-name="Agrave" horiz-adv-x="1241" unicode="À"/>
<glyph d="M612 1225l-76 -192q-96 -237 -198 -466q-141 -317 -272 -573q13 2 28 4t29 2q16 0 33 -2t32 -4q78 202 130 331q59 146 63 146q36 0 120 2t89 2q51 0 115.5 -1.5t105.5 -2.5q6 0 43 -83q34 -78 75 -189q47 -129 66 -205q20 2 43 4t45 2q24 0 50 -2t47 -4 q-153 308 -287 622q-91 214 -176 442q-30 83 -60 167q-9 -6 -22 -6q-9 0 -23 6zM567 559q-96 0 -122.5 -2t-34.5 -4q58 157 104 264q28 65 52 114q14 28 14 36v4q0 10 2 12.5t4 3.5q6 0 6 -16q2 -11 60 -141.5t120 -276.5q-17 2 -78.5 4t-126.5 2zM718 1695 q-14 -18 -86 -135q-32 -52 -101 -141q0 -12 1 -21.5t3 -15.5q116 98 185 146q41 28 90 69q14 12 22.5 24t14.5 27q4 16 4 25q0 42 -39 55q-12 4 -25 4q-20 0 -37 -8t-32 -29z" glyph-name="Aacute" horiz-adv-x="1241" unicode="Á"/>
<glyph d="M612 1225l-76 -192q-96 -237 -198 -466q-141 -317 -272 -573q13 2 28 4t29 2q16 0 33 -2t32 -4q78 202 130 331q59 146 63 146q36 0 120 2t89 2q51 0 115.5 -1.5t105.5 -2.5q6 0 43 -83q34 -78 75 -189q47 -129 66 -205q20 2 43 4t45 2q24 0 50 -2t47 -4 q-153 308 -287 622q-91 214 -176 442q-30 83 -60 167q-9 -6 -22 -6q-9 0 -23 6zM567 559q-96 0 -122.5 -2t-34.5 -4q58 157 104 264q28 65 52 114q14 28 14 36v4q0 10 2 12.5t4 3.5q6 0 6 -16q2 -11 60 -141.5t120 -276.5q-17 2 -78.5 4t-126.5 2zM630 1582q11 9 103 -63 q30 -24 90 -74h26l-225 233l-244 -235h55z" glyph-name="Acircumflex" horiz-adv-x="1241" unicode="Â"/>
<glyph d="M612 1225l-76 -192q-96 -237 -198 -466q-141 -317 -272 -573q13 2 28 4t29 2q16 0 33 -2t32 -4q78 202 130 331q59 146 63 146q36 0 120 2t89 2q51 0 115.5 -1.5t105.5 -2.5q6 0 43 -83q34 -78 75 -189q47 -129 66 -205q20 2 43 4t45 2q24 0 50 -2t47 -4 q-153 308 -287 622q-91 214 -176 442q-30 83 -60 167q-9 -6 -22 -6q-9 0 -23 6zM567 559q-96 0 -122.5 -2t-34.5 -4q58 157 104 264q28 65 52 114q14 28 14 36v4q0 10 2 12.5t4 3.5q6 0 6 -16q2 -11 60 -141.5t120 -276.5q-17 2 -78.5 4t-126.5 2zM370 1414q4 0 11 3.5 t22 14.5q43 32 82.5 48t70.5 16q37 0 136 -46q47 -22 83 -22l23 2q61 7 144 84q12 18 24 37q-11 0 -39 -14q-43 -22 -77 -32.5t-58 -10.5q-38 0 -98 35.5t-119 35.5l-29 -2q-48 -4 -115 -65q-63 -57 -63 -80z" glyph-name="Atilde" horiz-adv-x="1241" unicode="Ã"/>
<glyph d="M612 1225l-76 -192q-96 -237 -198 -466q-141 -317 -272 -573q13 2 28 4t29 2q16 0 33 -2t32 -4q78 202 130 331q59 146 63 146q36 0 120 2t89 2q51 0 115.5 -1.5t105.5 -2.5q6 0 43 -83q34 -78 75 -189q47 -129 66 -205q20 2 43 4t45 2q24 0 50 -2t47 -4 q-153 308 -287 622q-91 214 -176 442q-30 83 -60 167q-9 -6 -22 -6q-9 0 -23 6zM567 559q-96 0 -122.5 -2t-34.5 -4q58 157 104 264q28 65 52 114q14 28 14 36v4q0 10 2 12.5t4 3.5q6 0 6 -16q2 -11 60 -141.5t120 -276.5q-17 2 -78.5 4t-126.5 2zM395 1522v-6q0 -35 26 -61 q24 -27 66 -27h6q36 0 61 27q27 25 27 65q0 41 -26.5 67.5t-65.5 26.5q-41 0 -67.5 -25.5t-26.5 -66.5zM733 1522v-6q0 -35 26 -61q24 -27 66 -27h6q36 0 61 27q27 25 27 65q0 41 -26.5 67.5t-65.5 26.5q-41 0 -67.5 -25.5t-26.5 -66.5z" glyph-name="Adieresis" horiz-adv-x="1241" unicode="Ä"/>
<glyph d="M612 1225l-76 -192q-96 -237 -198 -466q-141 -317 -272 -573q13 2 28 4t29 2q16 0 33 -2t32 -4q78 202 130 331q59 146 63 146q36 0 120 2t89 2q51 0 115.5 -1.5t105.5 -2.5q6 0 43 -83q34 -78 75 -189q47 -129 66 -205q20 2 43 4t45 2q24 0 50 -2t47 -4 q-153 308 -287 622q-91 214 -176 442q-30 83 -60 167q-9 -6 -22 -6q-9 0 -23 6zM567 559q-96 0 -122.5 -2t-34.5 -4q58 157 104 264q28 65 52 114q14 28 14 36v4q0 10 2 12.5t4 3.5q6 0 6 -16q2 -11 60 -141.5t120 -276.5q-17 2 -78.5 4t-126.5 2zM631 1456 q-50 0 -84.5 -34.5t-34.5 -84.5t34.5 -83.5t84.5 -33.5t84.5 33.5t34.5 83.5t-34.5 84.5t-84.5 34.5zM629 1263q-19 0 -31 4.5t-22 16.5q-21 19 -21 47v8q0 18 4.5 29.5t16.5 23.5q20 21 55 21q30 0 52 -20.5t22 -55.5q0 -34 -21 -53q-19 -21 -47 -21h-8z" glyph-name="Aring" horiz-adv-x="1241" unicode="Å"/>
<glyph d="M668 1221q-14 0 -29 0.5t-27 3.5l-76 -192q-96 -237 -198 -466q-141 -317 -272 -573q13 2 28 4t29 2q16 0 33 -2t32 -4q78 202 130 331q59 146 63 146q32 0 116 4t119 4q20 0 38.5 -0.5t25.5 -3.5q0 -245 -2 -337t-4 -120t-4 -28q16 4 115 6t223 2q119 0 196.5 -2 t100.5 -6v127q-52 -17 -159.5 -24t-213.5 -7l-111 2q0 1 -1.5 31.5t-3 156.5t-1.5 312q32 2 75 3t101 1q86 0 152.5 -2.5t93.5 -7.5l-4 110q-33 -7 -129 -10.5t-203 -3.5q-31 0 -51.5 0.5t-34.5 1.5q0 219 2 303.5t4.5 114.5t3.5 30l105 2q124 0 222 -6.5t153 -25.5v127 q-23 -3 -142 -4.5t-205 -1.5q-50 0 -97 -0.5t-91 -0.5h-19h-16h-12q-43 0 -55 3zM678 1081v-189.5t0.5 -217t1.5 -115.5q-9 -2 -19 -2h-16l-78 2q-96 0 -122.5 -2t-34.5 -4q65 176 122 311q46 109 88 195q33 67 37 67q12 0 16.5 -12.5t4.5 -32.5z" glyph-name="AE" horiz-adv-x="1360" unicode="Æ"/>
<glyph d="M643 -25q-4 -23 -5 -34q-5 -35 -5 -43h20h4q32 0 52 -21t20 -49q0 -27 -18.5 -46.5t-53.5 -19.5q-29 0 -84 25v-20q58 -27 101 -27q47 0 73.5 26.5t26.5 63.5q0 34 -21 57q-24 27 -67 27h-4l-2 35q0 8 1 14.5t3 11.5q115 0 237 33q107 29 150 62q1 1 3.5 44t4.5 76 q-51 -57 -162 -101q-122 -48 -243 -48q-190 0 -304 119q-139 145 -139 446q0 286 143 432q120 123 308 123q130 0 238 -59t139 -148q8 46 17 93q5 31 16 96q-218 80 -408 80q-289 0 -462 -178q-165 -170 -165 -439q0 -231 88 -380q77 -130 219 -195q123 -56 279 -56z" glyph-name="Ccedilla" horiz-adv-x="1155" unicode="Ç"/>
<glyph d="M354 1219q-135 0 -202 1.5t-86 4.5q1 0 3 -39t4.5 -188t2.5 -390q0 -311 -2 -429t-4 -153.5t-4 -35.5q16 4 115 6t222 2q120 0 197.5 -2t99.5 -6v127q-51 -17 -159 -24t-213 -7l-111 2q0 1 -1.5 31.5t-3 156.5t-1.5 312q32 2 75 3t101 1q86 0 152.5 -2.5t93.5 -7.5 l-4 110q-33 -7 -129.5 -10.5t-202.5 -3.5q-31 0 -51.5 0.5t-34.5 1.5q0 219 2 303.5t4.5 114.5t3.5 30l105 2q124 0 222 -6.5t152 -25.5v127q-16 -2 -134 -4t-212 -2zM591 1388l4 33v4q-70 91 -101 141q-73 119 -85 135q-15 19 -34 28t-36 9q-7 0 -25 -4q-39 -13 -39 -53 q0 -8 2 -15.5t3 -11.5q5 -16 12.5 -27t23.5 -24q50 -41 89 -68q68 -48 186 -147z" glyph-name="Egrave" horiz-adv-x="762" unicode="È"/>
<glyph d="M354 1219q-135 0 -202 1.5t-86 4.5q1 0 3 -39t4.5 -188t2.5 -390q0 -311 -2 -429t-4 -153.5t-4 -35.5q16 4 115 6t222 2q120 0 197.5 -2t99.5 -6v127q-51 -17 -159 -24t-213 -7l-111 2q0 1 -1.5 31.5t-3 156.5t-1.5 312q32 2 75 3t101 1q86 0 152.5 -2.5t93.5 -7.5 l-4 110q-33 -7 -129.5 -10.5t-202.5 -3.5q-31 0 -51.5 0.5t-34.5 1.5q0 219 2 303.5t4.5 114.5t3.5 30l105 2q124 0 222 -6.5t152 -25.5v127q-16 -2 -134 -4t-212 -2zM476 1695q-14 -18 -86 -135q-32 -52 -101 -141q0 -12 1 -21.5t3 -15.5q116 98 185 146q41 28 90 69 q14 12 22.5 24t14.5 27q4 16 4 25q0 42 -39 55q-12 4 -25 4q-20 0 -37 -8t-32 -29z" glyph-name="Eacute" horiz-adv-x="762" unicode="É"/>
<glyph d="M354 1219q-135 0 -202 1.5t-86 4.5q1 0 3 -39t4.5 -188t2.5 -390q0 -311 -2 -429t-4 -153.5t-4 -35.5q16 4 115 6t222 2q120 0 197.5 -2t99.5 -6v127q-51 -17 -159 -24t-213 -7l-111 2q0 1 -1.5 31.5t-3 156.5t-1.5 312q32 2 75 3t101 1q86 0 152.5 -2.5t93.5 -7.5 l-4 110q-33 -7 -129.5 -10.5t-202.5 -3.5q-31 0 -51.5 0.5t-34.5 1.5q0 219 2 303.5t4.5 114.5t3.5 30l105 2q124 0 222 -6.5t152 -25.5v127q-16 -2 -134 -4t-212 -2zM396 1598q11 9 103 -63q30 -24 90 -74h26l-225 233l-244 -235h55z" glyph-name="Ecircumflex" horiz-adv-x="762" unicode="Ê"/>
<glyph d="M354 1219q-135 0 -202 1.5t-86 4.5q1 0 3 -39t4.5 -188t2.5 -390q0 -311 -2 -429t-4 -153.5t-4 -35.5q16 4 115 6t222 2q120 0 197.5 -2t99.5 -6v127q-51 -17 -159 -24t-213 -7l-111 2q0 1 -1.5 31.5t-3 156.5t-1.5 312q32 2 75 3t101 1q86 0 152.5 -2.5t93.5 -7.5 l-4 110q-33 -7 -129.5 -10.5t-202.5 -3.5q-31 0 -51.5 0.5t-34.5 1.5q0 219 2 303.5t4.5 114.5t3.5 30l105 2q124 0 222 -6.5t152 -25.5v127q-16 -2 -134 -4t-212 -2zM145 1522v-6q0 -35 26 -61q24 -27 66 -27h6q36 0 61 27q27 25 27 65q0 41 -26.5 67.5t-65.5 26.5 q-41 0 -67.5 -25.5t-26.5 -66.5zM483 1522v-6q0 -35 26 -61q24 -27 66 -27h6q36 0 61 27q27 25 27 65q0 41 -26.5 67.5t-65.5 26.5q-41 0 -67.5 -25.5t-26.5 -66.5z" glyph-name="Edieresis" horiz-adv-x="762" unicode="Ë"/>
<glyph d="M137 1217q-27 0 -39 1.5t-37 6.5q5 -57 8 -204t3 -413q0 -317 -2 -424t-5 -150.5t-4 -43.5q16 4 37 6t41 2q18 0 30.5 -1t47.5 -7q-1 12 -3 46t-4.5 182.5t-2.5 389.5q0 299 2 416t4.5 159t3.5 42q-17 -3 -33 -5.5t-32 -2.5h-15zM312 1404l4 33v4q-70 91 -101 141 q-73 119 -85 135q-15 19 -34 28t-36 9q-7 0 -25 -4q-39 -13 -39 -53q0 -8 2 -15.5t3 -11.5q5 -16 12.5 -27t23.5 -24q50 -41 89 -68q68 -48 186 -147z" glyph-name="Igrave" horiz-adv-x="279" unicode="Ì"/>
<glyph d="M137 1217q-27 0 -39 1.5t-37 6.5q5 -57 8 -204t3 -413q0 -317 -2 -424t-5 -150.5t-4 -43.5q16 4 37 6t41 2q18 0 30.5 -1t47.5 -7q-1 12 -3 46t-4.5 182.5t-2.5 389.5q0 299 2 416t4.5 159t3.5 42q-17 -3 -33 -5.5t-32 -2.5h-15zM196 1719q-14 -18 -86 -135 q-32 -52 -101 -141q0 -12 1 -21.5t3 -15.5q116 98 185 146q41 28 90 69q14 12 22.5 24t14.5 27q4 16 4 25q0 42 -39 55q-12 4 -25 4q-20 0 -37 -8t-32 -29z" glyph-name="Iacute" horiz-adv-x="279" unicode="Í"/>
<glyph d="M137 1217q-27 0 -39 1.5t-37 6.5q5 -57 8 -204t3 -413q0 -317 -2 -424t-5 -150.5t-4 -43.5q16 4 37 6t41 2q18 0 30.5 -1t47.5 -7q-1 12 -3 46t-4.5 182.5t-2.5 389.5q0 299 2 416t4.5 159t3.5 42q-17 -3 -33 -5.5t-32 -2.5h-15zM156 1606q11 9 103 -63q30 -24 90 -74h26 l-225 233l-244 -235h55z" glyph-name="Icircumflex" horiz-adv-x="279" unicode="Î"/>
<glyph d="M137 1217q-27 0 -39 1.5t-37 6.5q5 -57 8 -204t3 -413q0 -317 -2 -424t-5 -150.5t-4 -43.5q16 4 37 6t41 2q18 0 30.5 -1t47.5 -7q-1 12 -3 46t-4.5 182.5t-2.5 389.5q0 299 2 416t4.5 159t3.5 42q-17 -3 -33 -5.5t-32 -2.5h-15zM-111 1562v-6q0 -35 26 -61 q24 -27 66 -27h6q36 0 61 27q27 25 27 65q0 41 -26.5 67.5t-65.5 26.5q-41 0 -67.5 -25.5t-26.5 -66.5zM227 1562v-6q0 -35 26 -61q24 -27 66 -27h6q36 0 61 27q27 25 27 65q0 41 -26.5 67.5t-65.5 26.5q-41 0 -67.5 -25.5t-26.5 -66.5z" glyph-name="Idieresis" horiz-adv-x="279" unicode="Ï"/>
<glyph d="M-35 682q1 -7 3.5 -22t2.5 -25q0 -17 -4 -25q174 4 189 4h4q0 -304 -2 -422t-4.5 -160t-3.5 -42q22 5 147 6t183 1h119.5t90.5 -1q218 0 387 163q187 181 187 464q0 288 -182 451q-160 143 -392 143q-39 0 -92 -0.5t-119 -0.5q-214 0 -258 1.5t-71 7.5q4 -32 6 -161.5 t2 -383.5zM662 612q-1 2 -4 19t-3 26q0 15 4 23h-364q4 116 7 253t3 195q0 3 38.5 5t90.5 2q61 0 125.5 -2t118.5 -3q212 0 317 -165q88 -138 88 -359q0 -207 -88 -336q-99 -145 -311 -194q-34 -7 -79.5 -11t-86.5 -4q-72 0 -142.5 7.5t-70.5 11.5v29q-4 6 -7 139t-3 368 q80 -2 178 -3t189 -1z" glyph-name="Eth" horiz-adv-x="1309" unicode="Ð"/>
<glyph d="M82 1221q0 -91 -4 -275q-7 -321 -8 -390q-4 -267 -4 -564q6 4 11 5q17 5 44 5q19 0 35 -2.5t37 -7.5v4q0 30 -5 247t-7 343q-5 273 -5 352q91 -96 182 -191q221 -235 375 -406q222 -246 307 -357q21 -29 33 -29q7 0 12 7.5t5 21.5q-3 67 -5 174t-2 245q0 97 4 237.5 t8.5 310.5t4.5 278q-15 -4 -31 -8t-29 -4q-13 1 -25.5 3t-31.5 9q2 -97 6.5 -247t9.5 -382t5 -305l-196 190q-220 220 -389 403q-223 241 -280 333q-5 10 -14.5 15t-18.5 5q-24 0 -24 -20zM233 1502q4 0 11 3.5t22 14.5q43 32 82.5 48t70.5 16q37 0 136 -46q47 -22 83 -22 l23 2q61 7 144 84q12 18 24 37q-11 0 -39 -14q-43 -22 -77 -32.5t-58 -10.5q-38 0 -98 35.5t-119 35.5l-29 -2q-48 -4 -115 -65q-63 -57 -63 -80z" glyph-name="Ntilde" horiz-adv-x="1479" unicode="Ñ"/>
<glyph d="M711 -31q264 0 447 159q204 177 204 478q0 308 -205 490q-185 164 -450 164q-264 0 -448 -164q-204 -182 -204 -490q0 -301 205 -478q185 -159 451 -159zM711 1194q194 0 328 -147q149 -163 149 -441q0 -272 -150 -432q-134 -143 -329 -143t-329 144q-149 160 -149 431 q0 278 150 441q135 147 330 147zM856 1388l4 33v4q-70 91 -101 141q-73 119 -85 135q-15 19 -34 28t-36 9q-7 0 -25 -4q-39 -13 -39 -53q0 -8 2 -15.5t3 -11.5q5 -16 12.5 -27t23.5 -24q50 -41 89 -68q68 -48 186 -147z" glyph-name="Ograve" horiz-adv-x="1425" unicode="Ò"/>
<glyph d="M711 -31q264 0 447 159q204 177 204 478q0 308 -205 490q-185 164 -450 164q-264 0 -448 -164q-204 -182 -204 -490q0 -301 205 -478q185 -159 451 -159zM711 1194q194 0 328 -147q149 -163 149 -441q0 -272 -150 -432q-134 -143 -329 -143t-329 144q-149 160 -149 431 q0 278 150 441q135 147 330 147zM716 1695q-14 -18 -86 -135q-32 -52 -101 -141q0 -12 1 -21.5t3 -15.5q116 98 185 146q41 28 90 69q14 12 22.5 24t14.5 27q4 16 4 25q0 42 -39 55q-12 4 -25 4q-20 0 -37 -8t-32 -29z" glyph-name="Oacute" horiz-adv-x="1425" unicode="Ó"/>
<glyph d="M711 -31q264 0 447 159q204 177 204 478q0 308 -205 490q-185 164 -450 164q-264 0 -448 -164q-204 -182 -204 -490q0 -301 205 -478q185 -159 451 -159zM711 1194q194 0 328 -147q149 -163 149 -441q0 -272 -150 -432q-134 -143 -329 -143t-329 144q-149 160 -149 431 q0 278 150 441q135 147 330 147zM820 1606q11 9 103 -63q30 -24 90 -74h26l-225 233l-244 -235h55z" glyph-name="Ocircumflex" horiz-adv-x="1425" unicode="Ô"/>
<glyph d="M711 -31q264 0 447 159q204 177 204 478q0 308 -205 490q-185 164 -450 164q-264 0 -448 -164q-204 -182 -204 -490q0 -301 205 -478q185 -159 451 -159zM711 1194q194 0 328 -147q149 -163 149 -441q0 -272 -150 -432q-134 -143 -329 -143t-329 144q-149 160 -149 431 q0 278 150 441q135 147 330 147zM511 1638q4 0 11 3.5t22 14.5q43 32 82.5 48t70.5 16q37 0 136 -46q47 -22 83 -22l23 2q61 7 144 84q12 18 24 37q-11 0 -39 -14q-43 -22 -77 -32.5t-58 -10.5q-38 0 -98 35.5t-119 35.5l-29 -2q-48 -4 -115 -65q-63 -57 -63 -80z" glyph-name="Otilde" horiz-adv-x="1425" unicode="Õ"/>
<glyph d="M711 -31q264 0 447 159q204 177 204 478q0 308 -205 490q-185 164 -450 164q-264 0 -448 -164q-204 -182 -204 -490q0 -301 205 -478q185 -159 451 -159zM711 1194q194 0 328 -147q149 -163 149 -441q0 -272 -150 -432q-134 -143 -329 -143t-329 144q-149 160 -149 431 q0 278 150 441q135 147 330 147zM633 1530v-6q0 -35 26 -61q24 -27 66 -27h6q36 0 61 27q27 25 27 65q0 41 -26.5 67.5t-65.5 26.5q-41 0 -67.5 -25.5t-26.5 -66.5zM971 1530v-6q0 -35 26 -61q24 -27 66 -27h6q36 0 61 27q27 25 27 65q0 41 -26.5 67.5t-65.5 26.5 q-41 0 -67.5 -25.5t-26.5 -66.5z" glyph-name="Odieresis" horiz-adv-x="1425" unicode="Ö"/>
<glyph d="M165 328l353 353l-352 352l58 58l352 -352l352 352l56 -57l-352 -352l354 -354l-57 -58l-354 354l-353 -353z" glyph-name="multiply" horiz-adv-x="1155" unicode="×"/>
<glyph d="M438 20q129 -51 273 -51q264 0 447 159q204 177 204 478q0 193 -82 339q-75 133 -211 216l88 158q5 9 -9.5 13.5t-35.5 4.5l-29 -2l-75 -141q-146 66 -301 66q-264 0 -448 -164q-204 -182 -204 -490q0 -195 90 -342q82 -134 228 -213l-125 -207q6 -1 13 -3q17 -1 32 -1 q14 0 25 1t20 3zM709 31q-116 0 -230 63l541 973q80 -76 124 -192t44 -269q0 -272 -150 -432q-134 -143 -329 -143zM965 1112l-176 -326q-101 -187 -177 -322q-92 -165 -190 -329q-88 75 -137 187q-54 124 -54 284q0 278 150 441q135 147 330 147q70 0 133.5 -20t120.5 -62z " glyph-name="Oslash" horiz-adv-x="1425" unicode="Ø"/>
<glyph d="M72 340q0 -169 157 -275q142 -96 332 -96q188 0 342 118q166 127 166 310q0 358 1.5 538t3.5 235t3 55q-15 -3 -31 -5.5t-20 -2.5h-8q-13 0 -21 1q-20 4 -34 7q1 -17 3 -63t4.5 -246t2.5 -523q0 -149 -121 -248q-115 -94 -279 -94q-52 0 -134 36q-95 42 -156 102 q-76 75 -76 159q0 426 2 591.5t4.5 225.5t3.5 60q-17 -3 -33 -5.5t-32 -2.5h-15q-27 0 -39 1.5t-37 6.5q4 -34 7.5 -283t3.5 -602zM739 1388l4 33v4q-70 91 -101 141q-73 119 -85 135q-15 19 -34 28t-36 9q-7 0 -25 -4q-39 -13 -39 -53q0 -8 2 -15.5t3 -11.5q5 -16 12.5 -27 t23.5 -24q50 -41 89 -68q68 -48 186 -147z" glyph-name="Ugrave" horiz-adv-x="1139" unicode="Ù"/>
<glyph d="M72 340q0 -169 157 -275q142 -96 332 -96q188 0 342 118q166 127 166 310q0 358 1.5 538t3.5 235t3 55q-15 -3 -31 -5.5t-20 -2.5h-8q-13 0 -21 1q-20 4 -34 7q1 -17 3 -63t4.5 -246t2.5 -523q0 -149 -121 -248q-115 -94 -279 -94q-52 0 -134 36q-95 42 -156 102 q-76 75 -76 159q0 426 2 591.5t4.5 225.5t3.5 60q-17 -3 -33 -5.5t-32 -2.5h-15q-27 0 -39 1.5t-37 6.5q4 -34 7.5 -283t3.5 -602zM695 1695q-14 -18 -86 -135q-32 -52 -101 -141q0 -12 1 -21.5t3 -15.5q116 98 185 146q41 28 90 69q14 12 22.5 24t14.5 27q4 16 4 25 q0 42 -39 55q-12 4 -25 4q-20 0 -37 -8t-32 -29z" glyph-name="Uacute" horiz-adv-x="1139" unicode="Ú"/>
<glyph d="M72 340q0 -169 157 -275q142 -96 332 -96q188 0 342 118q166 127 166 310q0 358 1.5 538t3.5 235t3 55q-15 -3 -31 -5.5t-20 -2.5h-8q-13 0 -21 1q-20 4 -34 7q1 -17 3 -63t4.5 -246t2.5 -523q0 -149 -121 -248q-115 -94 -279 -94q-52 0 -134 36q-95 42 -156 102 q-76 75 -76 159q0 426 2 591.5t4.5 225.5t3.5 60q-17 -3 -33 -5.5t-32 -2.5h-15q-27 0 -39 1.5t-37 6.5q4 -34 7.5 -283t3.5 -602zM614 1614q11 9 103 -63q30 -24 90 -74h26l-225 233l-244 -235h55z" glyph-name="Ucircumflex" horiz-adv-x="1139" unicode="Û"/>
<glyph d="M72 340q0 -169 157 -275q142 -96 332 -96q188 0 342 118q166 127 166 310q0 358 1.5 538t3.5 235t3 55q-15 -3 -31 -5.5t-20 -2.5h-8q-13 0 -21 1q-20 4 -34 7q1 -17 3 -63t4.5 -246t2.5 -523q0 -149 -121 -248q-115 -94 -279 -94q-52 0 -134 36q-95 42 -156 102 q-76 75 -76 159q0 426 2 591.5t4.5 225.5t3.5 60q-17 -3 -33 -5.5t-32 -2.5h-15q-27 0 -39 1.5t-37 6.5q4 -34 7.5 -283t3.5 -602zM356 1554v-6q0 -35 26 -61q24 -27 66 -27h6q36 0 61 27q27 25 27 65q0 41 -26.5 67.5t-65.5 26.5q-41 0 -67.5 -25.5t-26.5 -66.5zM694 1554 v-6q0 -35 26 -61q24 -27 66 -27h6q36 0 61 27q27 25 27 65q0 41 -26.5 67.5t-65.5 26.5q-41 0 -67.5 -25.5t-26.5 -66.5z" glyph-name="Udieresis" horiz-adv-x="1139" unicode="Ü"/>
<glyph d="M420 -2q18 0 29.5 -1t48.5 -7q-5 52 -7 165.5t-2 354.5q0 2 69 115q95 155 164 273q119 202 189 331q-11 -3 -33.5 -9t-39.5 -6q-27 0 -62 15q-25 -57 -50 -113q-61 -142 -118 -253q-84 -163 -155 -249q-4 -4 -11 -4l-6 4q-59 81 -148 245q-64 118 -131 253 q-29 58 -57 117q-39 -15 -82 -15q-29 0 -66 6t-40 9q67 -128 187 -327q98 -163 175 -285q39 -62 78 -123q0 -252 -2 -348t-4 -126t-4 -30q15 4 36.5 6t41.5 2zM507 1719q-14 -18 -86 -135q-32 -52 -101 -141q0 -12 1 -21.5t3 -15.5q116 98 185 146q41 28 90 69 q14 12 22.5 24t14.5 27q4 16 4 25q0 42 -39 55q-12 4 -25 4q-20 0 -37 -8t-32 -29z" glyph-name="Yacute" horiz-adv-x="856" unicode="Ý"/>
<glyph d="M72 346q0 -122 -5 -246q-1 -44 -6 -110q18 6 40.5 8t48.5 2q24 0 41.5 -1t31.5 -3q-9 5 -11.5 28.5t-2.5 141.5q0 47 0.5 78t1.5 53q18 0 59.5 -2t42.5 -2q262 0 408 114q127 99 127 246q0 120 -86.5 200t-249.5 105q-18 3 -70 5t-98 2q-44 0 -77.5 -0.5t-59.5 -1.5 q0 37 5 154q1 39 5 110q-25 -4 -43.5 -6t-39.5 -2q-14 0 -28.5 1t-44.5 7l2 -100q5 -215 7 -381.5t2 -399.5zM207 362q0 280 1 372t2.5 127.5t2.5 35.5q21 4 36 6q46 6 93 6q135 0 219 -48q117 -67 117 -222q0 -113 -69 -182q-56 -56 -156 -82q-74 -19 -160 -19q-32 0 -52 2 t-34 4z" glyph-name="Thorn" horiz-adv-x="909" unicode="Þ"/>
<glyph d="M313 78q25 -28 42 -41q52 -41 102 -41q167 0 277 111q102 103 102 239q0 106 -67 183q-74 85 -214 110q-12 0 -12 4q0 3 12 8q133 53 198 128q58 67 58 147q0 109 -94 195.5t-205 86.5q-77 3 -133.5 5t-106.5 2q-79 0 -110 -7q-28 -9 -42 -20q-44 -35 -52 -107 q0 -29 0.5 -107t1.5 -169.5t2 -196.5q0 -312 -2 -418.5t-5 -153t-4 -46.5q22 4 58 7t67 3q9 0 13.5 153t5.5 295t2 230q0 120 0.5 211t1.5 153q3 27 12.5 50.5t22.5 35.5q8 9 35 16t63 7h10q163 0 234 -69q59 -57 59 -164q0 -110 -73 -171q-89 -75 -269 -75q-18 0 -18 -15 l2 -20v-6q6 -12 13 -16q13 -9 30 -9q85 0 152 -18q90 -24 138 -76q60 -64 60 -170q0 -140 -54 -223q-50 -76 -126 -76q-20 0 -42.5 7t-68.5 48.5t-67 69.5z" glyph-name="germandbls" horiz-adv-x="897" unicode="ß"/>
<glyph d="M582 541q0 -6 -2.5 -11t-8.5 -14q-15 -21 -95 -42t-130 -21q-114 0 -200.5 -72.5t-86.5 -181.5q0 -93 73 -155t171 -62q77 0 164 44q73 37 98 72q6 4 8 4q9 0 9 -4q0 -46 32.5 -72t79.5 -26q39 0 74 9t57 24q-3 12 -5 17q-6 18 -9 18q-20 -5 -27 -5q-28 0 -48.5 14 t-20.5 38q-1 25 -1.5 79t-1.5 233.5t-1 205.5q0 103 -89 169q-83 62 -196 62q-84 0 -160 -29q-67 -26 -127 -73v-27v-84q53 70 106 100q58 33 138 33q122 0 168 -81q31 -54 31 -162zM477 428q38 0 65 9q12 5 25 10q4 0 4 -21q-4 -190 -4 -229q0 -56 -64 -95 q-60 -36 -136 -36q-61 0 -106.5 40.5t-45.5 96.5q0 98 65 159q70 66 197 66zM605 981l4 33v4q-70 91 -101 141q-73 119 -85 135q-15 19 -34 28t-36 9q-7 0 -25 -4q-39 -13 -39 -53q0 -8 2 -15.5t3 -11.5q5 -16 12.5 -27t23.5 -24q50 -41 89 -68q68 -48 186 -147z" glyph-name="agrave" unicode="à"/>
<glyph d="M582 541q0 -6 -2.5 -11t-8.5 -14q-15 -21 -95 -42t-130 -21q-114 0 -200.5 -72.5t-86.5 -181.5q0 -93 73 -155t171 -62q77 0 164 44q73 37 98 72q6 4 8 4q9 0 9 -4q0 -46 32.5 -72t79.5 -26q39 0 74 9t57 24q-3 12 -5 17q-6 18 -9 18q-20 -5 -27 -5q-28 0 -48.5 14 t-20.5 38q-1 25 -1.5 79t-1.5 233.5t-1 205.5q0 103 -89 169q-83 62 -196 62q-84 0 -160 -29q-67 -26 -127 -73v-27v-84q53 70 106 100q58 33 138 33q122 0 168 -81q31 -54 31 -162zM477 428q38 0 65 9q12 5 25 10q4 0 4 -21q-4 -190 -4 -229q0 -56 -64 -95 q-60 -36 -136 -36q-61 0 -106.5 40.5t-45.5 96.5q0 98 65 159q70 66 197 66zM441 1288q-14 -18 -86 -135q-32 -52 -101 -141q0 -12 1 -21.5t3 -15.5q116 98 185 146q41 28 90 69q14 12 22.5 24t14.5 27q4 16 4 25q0 42 -39 55q-12 4 -25 4q-20 0 -37 -8t-32 -29z" glyph-name="aacute" unicode="á"/>
<glyph d="M582 541q0 -6 -2.5 -11t-8.5 -14q-15 -21 -95 -42t-130 -21q-114 0 -200.5 -72.5t-86.5 -181.5q0 -93 73 -155t171 -62q77 0 164 44q73 37 98 72q6 4 8 4q9 0 9 -4q0 -46 32.5 -72t79.5 -26q39 0 74 9t57 24q-3 12 -5 17q-6 18 -9 18q-20 -5 -27 -5q-28 0 -48.5 14 t-20.5 38q-1 25 -1.5 79t-1.5 233.5t-1 205.5q0 103 -89 169q-83 62 -196 62q-84 0 -160 -29q-67 -26 -127 -73v-27v-84q53 70 106 100q58 33 138 33q122 0 168 -81q31 -54 31 -162zM477 428q38 0 65 9q12 5 25 10q4 0 4 -21q-4 -190 -4 -229q0 -56 -64 -95 q-60 -36 -136 -36q-61 0 -106.5 40.5t-45.5 96.5q0 98 65 159q70 66 197 66zM473 1198q11 9 103 -63q30 -24 90 -74h26l-225 233l-244 -235h55z" glyph-name="acircumflex" unicode="â"/>
<glyph d="M582 541q0 -6 -2.5 -11t-8.5 -14q-15 -21 -95 -42t-130 -21q-114 0 -200.5 -72.5t-86.5 -181.5q0 -93 73 -155t171 -62q77 0 164 44q73 37 98 72q6 4 8 4q9 0 9 -4q0 -46 32.5 -72t79.5 -26q39 0 74 9t57 24q-3 12 -5 17q-6 18 -9 18q-20 -5 -27 -5q-28 0 -48.5 14 t-20.5 38q-1 25 -1.5 79t-1.5 233.5t-1 205.5q0 103 -89 169q-83 62 -196 62q-84 0 -160 -29q-67 -26 -127 -73v-27v-84q53 70 106 100q58 33 138 33q122 0 168 -81q31 -54 31 -162zM477 428q38 0 65 9q12 5 25 10q4 0 4 -21q-4 -190 -4 -229q0 -56 -64 -95 q-60 -36 -136 -36q-61 0 -106.5 40.5t-45.5 96.5q0 98 65 159q70 66 197 66zM132 1134q4 0 11 3.5t22 14.5q43 32 82.5 48t70.5 16q37 0 136 -46q47 -22 83 -22l23 2q61 7 144 84q12 18 24 37q-11 0 -39 -14q-43 -22 -77 -32.5t-58 -10.5q-38 0 -98 35.5t-119 35.5l-29 -2 q-48 -4 -115 -65q-63 -57 -63 -80z" glyph-name="atilde" unicode="ã"/>
<glyph d="M582 541q0 -6 -2.5 -11t-8.5 -14q-15 -21 -95 -42t-130 -21q-114 0 -200.5 -72.5t-86.5 -181.5q0 -93 73 -155t171 -62q77 0 164 44q73 37 98 72q6 4 8 4q9 0 9 -4q0 -46 32.5 -72t79.5 -26q39 0 74 9t57 24q-3 12 -5 17q-6 18 -9 18q-20 -5 -27 -5q-28 0 -48.5 14 t-20.5 38q-1 25 -1.5 79t-1.5 233.5t-1 205.5q0 103 -89 169q-83 62 -196 62q-84 0 -160 -29q-67 -26 -127 -73v-27v-84q53 70 106 100q58 33 138 33q122 0 168 -81q31 -54 31 -162zM477 428q38 0 65 9q12 5 25 10q4 0 4 -21q-4 -190 -4 -229q0 -56 -64 -95 q-60 -36 -136 -36q-61 0 -106.5 40.5t-45.5 96.5q0 98 65 159q70 66 197 66zM214 1159v-6q0 -35 26 -61q24 -27 66 -27h6q36 0 61 27q27 25 27 65q0 41 -26.5 67.5t-65.5 26.5q-41 0 -67.5 -25.5t-26.5 -66.5zM552 1159v-6q0 -35 26 -61q24 -27 66 -27h6q36 0 61 27 q27 25 27 65q0 41 -26.5 67.5t-65.5 26.5q-41 0 -67.5 -25.5t-26.5 -66.5z" glyph-name="adieresis" unicode="ä"/>
<glyph d="M582 541q0 -6 -2.5 -11t-8.5 -14q-15 -21 -95 -42t-130 -21q-114 0 -200.5 -72.5t-86.5 -181.5q0 -93 73 -155t171 -62q77 0 164 44q73 37 98 72q6 4 8 4q9 0 9 -4q0 -46 32.5 -72t79.5 -26q39 0 74 9t57 24q-3 12 -5 17q-6 18 -9 18q-20 -5 -27 -5q-28 0 -48.5 14 t-20.5 38q-1 25 -1.5 79t-1.5 233.5t-1 205.5q0 103 -89 169q-83 62 -196 62q-84 0 -160 -29q-67 -26 -127 -73v-27v-84q53 70 106 100q58 33 138 33q122 0 168 -81q31 -54 31 -162zM477 428q38 0 65 9q12 5 25 10q4 0 4 -21q-4 -190 -4 -229q0 -56 -64 -95 q-60 -36 -136 -36q-61 0 -106.5 40.5t-45.5 96.5q0 98 65 159q70 66 197 66zM430 1253q-50 0 -84.5 -34.5t-34.5 -84.5t34.5 -83.5t84.5 -33.5t84.5 33.5t34.5 83.5t-34.5 84.5t-84.5 34.5zM428 1060q-19 0 -31 4.5t-22 16.5q-21 19 -21 47v8q0 18 4.5 29.5t16.5 23.5 q20 21 55 21q30 0 52 -20.5t22 -55.5q0 -34 -21 -53q-19 -21 -47 -21h-8z" glyph-name="aring" unicode="å"/>
<glyph d="M625 160q46 -85 143 -134t207 -49q86 0 165.5 31t141.5 92q0 2 1 8t1 11l-2 57q-53 -53 -130 -86t-153 -33q-126 0 -204 83q-90 96 -90 284h614q0 220 -104 336q-94 104 -248 104q-84 0 -170 -36q-74 -31 -115 -72q-7 -7 -9 -7t-7 3q-22 45 -93.5 78.5t-146.5 33.5 q-84 0 -160 -29q-67 -26 -127 -73v-27v-84q53 70 106 100q58 33 138 33q122 0 168 -81q31 -54 31 -162q0 -6 -2.5 -11t-8.5 -14q-15 -21 -95 -42t-130 -21q-114 0 -200.5 -72.5t-86.5 -181.5q0 -93 73 -155t171 -62q77 0 164 44q73 37 98 72q6 8 10 12q27 32 35 44 q4 7 8 6.5t7 -0.5zM477 428q38 0 65 9q12 5 25 10q4 0 4 -21q-4 -190 -4 -229q0 -56 -64 -95q-60 -36 -136 -36q-61 0 -106.5 40.5t-45.5 96.5q0 98 65 159q70 66 197 66zM961 803q97 0 158 -84.5t61 -214.5q-62 -1 -139.5 -1.5t-161.5 -0.5l-168 2q0 98 65 191 q76 108 185 108z" glyph-name="ae" horiz-adv-x="1380" unicode="æ"/>
<glyph d="M496 -23q82 0 155 24.5t135 74.5v8q0 19 -3 54q-3 17 -5 34q-49 -59 -120.5 -92t-147.5 -33q-125 0 -206 87q-93 100 -93 284q0 199 86 305q75 92 190 92q81 0 151 -48t99 -128q19 47 28 70q28 72 26 73q-37 35 -115.5 57.5t-171.5 22.5q-185 0 -303 -93 q-146 -116 -146 -351q0 -210 137 -332q123 -109 304 -109zM363 -25h-41q-4 -23 -5 -34q-5 -35 -5 -43h20h4q32 0 52 -21t20 -49q0 -27 -18.5 -46.5t-53.5 -19.5q-29 0 -84 25v-20q58 -27 101 -27q47 0 73.5 26.5t26.5 63.5q0 34 -21 57q-24 27 -67 27h-4z" glyph-name="ccedilla" horiz-adv-x="909" unicode="ç"/>
<glyph d="M508 57q-126 0 -204 83q-91 97 -91 284h614q0 220 -104 336q-94 104 -248 104q-180 0 -297 -121q-121 -125 -121 -325q0 -210 133 -332q119 -109 293 -109q87 0 166.5 31t141.5 92q0 2 1 8t1 11l-2 57q-53 -53 -130.5 -86t-152.5 -33zM469 803q97 0 158 -84.5t61 -214.5 q-62 -1 -139.5 -1.5t-161.5 -0.5l-168 2q0 98 65 191q76 108 185 108zM630 981l4 33v4q-70 91 -101 141q-73 119 -85 135q-15 19 -34 28t-36 9q-7 0 -25 -4q-39 -13 -39 -53q0 -8 2 -15.5t3 -11.5q5 -16 12.5 -27t23.5 -24q50 -41 89 -68q68 -48 186 -147z" glyph-name="egrave" unicode="è"/>
<glyph d="M508 57q-126 0 -204 83q-91 97 -91 284h614q0 220 -104 336q-94 104 -248 104q-180 0 -297 -121q-121 -125 -121 -325q0 -210 133 -332q119 -109 293 -109q87 0 166.5 31t141.5 92q0 2 1 8t1 11l-2 57q-53 -53 -130.5 -86t-152.5 -33zM469 803q97 0 158 -84.5t61 -214.5 q-62 -1 -139.5 -1.5t-161.5 -0.5l-168 2q0 98 65 191q76 108 185 108zM454 1288q-14 -18 -86 -135q-32 -52 -101 -141q0 -12 1 -21.5t3 -15.5q116 98 185 146q41 28 90 69q14 12 22.5 24t14.5 27q4 16 4 25q0 42 -39 55q-12 4 -25 4q-20 0 -37 -8t-32 -29z" glyph-name="eacute" unicode="é"/>
<glyph d="M508 57q-126 0 -204 83q-91 97 -91 284h614q0 220 -104 336q-94 104 -248 104q-180 0 -297 -121q-121 -125 -121 -325q0 -210 133 -332q119 -109 293 -109q87 0 166.5 31t141.5 92q0 2 1 8t1 11l-2 57q-53 -53 -130.5 -86t-152.5 -33zM469 803q97 0 158 -84.5t61 -214.5 q-62 -1 -139.5 -1.5t-161.5 -0.5l-168 2q0 98 65 191q76 108 185 108zM582 1198q11 9 103 -63q30 -24 90 -74h26l-225 233l-244 -235h55z" glyph-name="ecircumflex" unicode="ê"/>
<glyph d="M508 57q-126 0 -204 83q-91 97 -91 284h614q0 220 -104 336q-94 104 -248 104q-180 0 -297 -121q-121 -125 -121 -325q0 -210 133 -332q119 -109 293 -109q87 0 166.5 31t141.5 92q0 2 1 8t1 11l-2 57q-53 -53 -130.5 -86t-152.5 -33zM469 803q97 0 158 -84.5t61 -214.5 q-62 -1 -139.5 -1.5t-161.5 -0.5l-168 2q0 98 65 191q76 108 185 108zM395 1158v-6q0 -35 26 -61q24 -27 66 -27h6q36 0 61 27q27 25 27 65q0 41 -26.5 67.5t-65.5 26.5q-41 0 -67.5 -25.5t-26.5 -66.5zM733 1158v-6q0 -35 26 -61q24 -27 66 -27h6q36 0 61 27q27 25 27 65 q0 41 -26.5 67.5t-65.5 26.5q-41 0 -67.5 -25.5t-26.5 -66.5z" glyph-name="edieresis" unicode="ë"/>
<glyph d="M135 842q-11 0 -36 2t-40 2q5 -41 7 -134.5t2 -295.5q0 -314 -6 -401q-1 -15 -3 -25q13 2 39 3t39 1q12 0 43 -2t35 -2q-5 37 -6 106q-4 143 -4 320q0 209 2 298.5t8 131.5q-16 -2 -41 -3t-39 -1zM294 1013l4 33v4q-70 91 -101 141q-73 119 -85 135q-15 19 -34 28t-36 9 q-7 0 -25 -4q-39 -13 -39 -53q0 -8 2 -15.5t3 -11.5q5 -16 12.5 -27t23.5 -24q50 -41 89 -68q68 -48 186 -147z" glyph-name="igrave" horiz-adv-x="274" unicode="ì"/>
<glyph d="M135 842q-11 0 -36 2t-40 2q5 -41 7 -134.5t2 -295.5q0 -314 -6 -401q-1 -15 -3 -25q13 2 39 3t39 1q12 0 43 -2t35 -2q-5 37 -6 106q-4 143 -4 320q0 209 2 298.5t8 131.5q-16 -2 -41 -3t-39 -1zM193 1320q-14 -18 -86 -135q-32 -52 -101 -141q0 -12 1 -21.5t3 -15.5 q116 98 185 146q41 28 90 69q14 12 22.5 24t14.5 27q4 16 4 25q0 42 -39 55q-12 4 -25 4q-20 0 -37 -8t-32 -29z" glyph-name="iacute" horiz-adv-x="274" unicode="í"/>
<glyph d="M135 842q-11 0 -36 2t-40 2q5 -41 7 -134.5t2 -295.5q0 -314 -6 -401q-1 -15 -3 -25q13 2 39 3t39 1q12 0 43 -2t35 -2q-5 37 -6 106q-4 143 -4 320q0 209 2 298.5t8 131.5q-16 -2 -41 -3t-39 -1zM173 1214q11 9 103 -63q30 -24 90 -74h26l-225 233l-244 -235h55z" glyph-name="icircumflex" horiz-adv-x="274" unicode="î"/>
<glyph d="M135 842q-11 0 -36 2t-40 2q5 -41 7 -134.5t2 -295.5q0 -314 -6 -401q-1 -15 -3 -25q13 2 39 3t39 1q12 0 43 -2t35 -2q-5 37 -6 106q-4 143 -4 320q0 209 2 298.5t8 131.5q-16 -2 -41 -3t-39 -1zM-103 1166v-6q0 -35 26 -61q24 -27 66 -27h6q36 0 61 27q27 25 27 65 q0 41 -26.5 67.5t-65.5 26.5q-41 0 -67.5 -25.5t-26.5 -66.5zM235 1166v-6q0 -35 26 -61q24 -27 66 -27h6q36 0 61 27q27 25 27 65q0 41 -26.5 67.5t-65.5 26.5q-41 0 -67.5 -25.5t-26.5 -66.5z" glyph-name="idieresis" horiz-adv-x="274" unicode="ï"/>
<glyph d="M469 1169l-247 -135l-30 55l233 132q-65 66 -98.5 93t-89.5 65l27 43q122 -61 247 -155l249 139l34 -55l-229 -130q188 -164 287 -364q47 -98 72 -195t25 -188q0 -139 -57.5 -255.5t-161.5 -181.5t-231 -65q-178 0 -304.5 133.5t-126.5 335.5q0 209 138 365 q117 129 282 129q49 0 88 -13q31 -9 81 -46q-80 165 -188 293zM479 874q-95 0 -160.5 -81.5t-65.5 -274.5q0 -135 40 -250t110 -170.5t144 -55.5q90 0 153.5 78.5t63.5 256.5q0 225 -79 361q-39 68 -90 102t-116 34z" glyph-name="eth" horiz-adv-x="1024" unicode="ð"/>
<glyph d="M776 -10q-1 0 -3 35t-4.5 174t-2.5 370q0 151 -89 228q-77 67 -200 67q-78 0 -149 -42q-50 -30 -93 -79q-16 -22 -32 -43q0 38 5 95q1 18 5 49l-35 -5t-31 -3h-14q-27 0 -39 1.5t-37 6.5q5 -29 8 -111t3 -235q0 -262 -2 -350t-5 -123t-4 -35q16 4 37 6t41 2q23 0 32.5 -1 t45.5 -7q-5 38 -6 119q-4 168 -4 385q0 106 60 189q66 91 165 91q83 0 142 -61t59 -144q0 -255 -1.5 -380.5t-3.5 -162t-3 -36.5q15 4 36 6t41 2q18 0 30.5 -1t47.5 -7zM106 1134q4 0 11 3.5t22 14.5q43 32 82.5 48t70.5 16q37 0 136 -46q47 -22 83 -22l23 2q61 7 144 84 q12 18 24 37q-11 0 -39 -14q-43 -22 -77 -32.5t-58 -10.5q-38 0 -98 35.5t-119 35.5l-29 -2q-48 -4 -115 -65q-63 -57 -63 -80z" glyph-name="ntilde" horiz-adv-x="827" unicode="ñ"/>
<glyph d="M483 -20q173 0 293 109q133 121 133 329q0 211 -134 335q-120 111 -294 111t-293 -111q-133 -124 -133 -335q0 -208 134 -329q120 -109 294 -109zM483 815q110 0 186 -99q85 -110 85 -298q0 -183 -86 -292q-77 -97 -187 -97t-186 97q-84 107 -84 292q0 188 85 298 q77 99 187 99zM646 981l4 33v4q-70 91 -101 141q-73 119 -85 135q-15 19 -34 28t-36 9q-7 0 -25 -4q-39 -13 -39 -53q0 -8 2 -15.5t3 -11.5q5 -16 12.5 -27t23.5 -24q50 -41 89 -68q68 -48 186 -147z" glyph-name="ograve" horiz-adv-x="967" unicode="ò"/>
<glyph d="M483 -20q173 0 293 109q133 121 133 329q0 211 -134 335q-120 111 -294 111t-293 -111q-133 -124 -133 -335q0 -208 134 -329q120 -109 294 -109zM483 815q110 0 186 -99q85 -110 85 -298q0 -183 -86 -292q-77 -97 -187 -97t-186 97q-84 107 -84 292q0 188 85 298 q77 99 187 99zM530 1288q-14 -18 -86 -135q-32 -52 -101 -141q0 -12 1 -21.5t3 -15.5q116 98 185 146q41 28 90 69q14 12 22.5 24t14.5 27q4 16 4 25q0 42 -39 55q-12 4 -25 4q-20 0 -37 -8t-32 -29z" glyph-name="oacute" horiz-adv-x="967" unicode="ó"/>
<glyph d="M483 -20q173 0 293 109q133 121 133 329q0 211 -134 335q-120 111 -294 111t-293 -111q-133 -124 -133 -335q0 -208 134 -329q120 -109 294 -109zM483 815q110 0 186 -99q85 -110 85 -298q0 -183 -86 -292q-77 -97 -187 -97t-186 97q-84 107 -84 292q0 188 85 298 q77 99 187 99zM506 1198q11 9 103 -63q30 -24 90 -74h26l-225 233l-244 -235h55z" glyph-name="ocircumflex" horiz-adv-x="967" unicode="ô"/>
<glyph d="M483 -20q173 0 293 109q133 121 133 329q0 211 -134 335q-120 111 -294 111t-293 -111q-133 -124 -133 -335q0 -208 134 -329q120 -109 294 -109zM483 815q110 0 186 -99q85 -110 85 -298q0 -183 -86 -292q-77 -97 -187 -97t-186 97q-84 107 -84 292q0 188 85 298 q77 99 187 99zM193 1030q4 0 11 3.5t22 14.5q43 32 82.5 48t70.5 16q37 0 136 -46q47 -22 83 -22l23 2q61 7 144 84q12 18 24 37q-11 0 -39 -14q-43 -22 -77 -32.5t-58 -10.5q-38 0 -98 35.5t-119 35.5l-29 -2q-48 -4 -115 -65q-63 -57 -63 -80z" glyph-name="otilde" horiz-adv-x="967" unicode="õ"/>
<glyph d="M483 -20q173 0 293 109q133 121 133 329q0 211 -134 335q-120 111 -294 111t-293 -111q-133 -124 -133 -335q0 -208 134 -329q120 -109 294 -109zM483 815q110 0 186 -99q85 -110 85 -298q0 -183 -86 -292q-77 -97 -187 -97t-186 97q-84 107 -84 292q0 188 85 298 q77 99 187 99zM259 1158v-6q0 -35 26 -61q24 -27 66 -27h6q36 0 61 27q27 25 27 65q0 41 -26.5 67.5t-65.5 26.5q-41 0 -67.5 -25.5t-26.5 -66.5zM597 1158v-6q0 -35 26 -61q24 -27 66 -27h6q36 0 61 27q27 25 27 65q0 41 -26.5 67.5t-65.5 26.5q-41 0 -67.5 -25.5 t-26.5 -66.5z" glyph-name="odieresis" horiz-adv-x="967" unicode="ö"/>
<glyph d="M562 1075q36 0 61 -26q26 -24 26 -61q0 -36 -25.5 -61.5t-62.5 -25.5q-36 0 -62 25q-25 27 -25 62q0 36 25.5 61.5t62.5 25.5zM1101 640h-1078v82h1078v-82zM562 455q36 0 62 -26t26 -62t-26 -62t-62 -26t-62 26t-26 62t25.5 62t62.5 26z" glyph-name="divide" horiz-adv-x="1124" unicode="÷"/>
<glyph d="M285 13q84 -33 177 -33q172 0 291 103q132 115 132 311q0 126 -53 220q-48 86 -137 141l57 102q3 6 -7 9t-22 3l-19 -1l-49 -92q-95 43 -195 43q-172 0 -291 -106q-133 -119 -133 -319q0 -128 58 -223q53 -87 148 -138l-81 -134q3 -2 14 -2.5t15 -0.5q12 0 18 0.5t12 2.5 zM461 20q-75 0 -150 41l352 633q52 -49 80.5 -124.5t28.5 -175.5q0 -177 -97 -281q-87 -93 -214 -93zM627 723l-114 -212q-60 -111 -115 -209q-59 -106 -124 -214q-58 49 -89 121q-35 81 -35 185q0 180 97 286q88 96 215 96q45 0 86.5 -12.5t78.5 -40.5z" glyph-name="oslash" horiz-adv-x="926" unicode="ø"/>
<glyph d="M59 844q1 0 2.5 -31t4 -185t2.5 -364q0 -150 90 -228q77 -67 200 -67q79 0 149 42q52 31 93 79q15 21 31 43q0 -38 -5 -94q-1 -18 -5 -49q17 3 25 4q24 4 40 4h14q29 0 42 -1.5t36 -6.5q-5 41 -6 109q-4 141 -4 309q0 209 2 300t8 136q-14 -4 -36 -6t-42 -2q-18 0 -29 1 t-50 7q5 -48 7.5 -174t2.5 -332q0 -105 -59 -188q-65 -91 -164 -91q-84 0 -143.5 60.5t-59.5 144.5q0 283 2 392.5t4.5 148.5t3.5 39q-15 -4 -36.5 -6t-41.5 -2q-18 0 -29.5 1t-48.5 7zM588 981l4 33v4q-70 91 -101 141q-73 119 -85 135q-15 19 -34 28t-36 9q-7 0 -25 -4 q-39 -13 -39 -53q0 -8 2 -15.5t3 -11.5q5 -16 12.5 -27t23.5 -24q50 -41 89 -68q68 -48 186 -147z" glyph-name="ugrave" horiz-adv-x="838" unicode="ù"/>
<glyph d="M59 844q1 0 2.5 -31t4 -185t2.5 -364q0 -150 90 -228q77 -67 200 -67q79 0 149 42q52 31 93 79q15 21 31 43q0 -38 -5 -94q-1 -18 -5 -49q17 3 25 4q24 4 40 4h14q29 0 42 -1.5t36 -6.5q-5 41 -6 109q-4 141 -4 309q0 209 2 300t8 136q-14 -4 -36 -6t-42 -2q-18 0 -29 1 t-50 7q5 -48 7.5 -174t2.5 -332q0 -105 -59 -188q-65 -91 -164 -91q-84 0 -143.5 60.5t-59.5 144.5q0 283 2 392.5t4.5 148.5t3.5 39q-15 -4 -36.5 -6t-41.5 -2q-18 0 -29.5 1t-48.5 7zM522 1296q-14 -18 -86 -135q-32 -52 -101 -141q0 -12 1 -21.5t3 -15.5q116 98 185 146 q41 28 90 69q14 12 22.5 24t14.5 27q4 16 4 25q0 42 -39 55q-12 4 -25 4q-20 0 -37 -8t-32 -29z" glyph-name="uacute" horiz-adv-x="838" unicode="ú"/>
<glyph d="M59 844q1 0 2.5 -31t4 -185t2.5 -364q0 -150 90 -228q77 -67 200 -67q79 0 149 42q52 31 93 79q15 21 31 43q0 -38 -5 -94q-1 -18 -5 -49q17 3 25 4q24 4 40 4h14q29 0 42 -1.5t36 -6.5q-5 41 -6 109q-4 141 -4 309q0 209 2 300t8 136q-14 -4 -36 -6t-42 -2q-18 0 -29 1 t-50 7q5 -48 7.5 -174t2.5 -332q0 -105 -59 -188q-65 -91 -164 -91q-84 0 -143.5 60.5t-59.5 144.5q0 283 2 392.5t4.5 148.5t3.5 39q-15 -4 -36.5 -6t-41.5 -2q-18 0 -29.5 1t-48.5 7zM474 1150q11 9 103 -63q30 -24 90 -74h26l-225 233l-244 -235h55z" glyph-name="ucircumflex" horiz-adv-x="838" unicode="û"/>
<glyph d="M59 844q1 0 2.5 -31t4 -185t2.5 -364q0 -150 90 -228q77 -67 200 -67q79 0 149 42q52 31 93 79q15 21 31 43q0 -38 -5 -94q-1 -18 -5 -49q17 3 25 4q24 4 40 4h14q29 0 42 -1.5t36 -6.5q-5 41 -6 109q-4 141 -4 309q0 209 2 300t8 136q-14 -4 -36 -6t-42 -2q-18 0 -29 1 t-50 7q5 -48 7.5 -174t2.5 -332q0 -105 -59 -188q-65 -91 -164 -91q-84 0 -143.5 60.5t-59.5 144.5q0 283 2 392.5t4.5 148.5t3.5 39q-15 -4 -36.5 -6t-41.5 -2q-18 0 -29.5 1t-48.5 7zM195 1094v-6q0 -35 26 -61q24 -27 66 -27h6q36 0 61 27q27 25 27 65q0 41 -26.5 67.5 t-65.5 26.5q-41 0 -67.5 -25.5t-26.5 -66.5zM533 1094v-6q0 -35 26 -61q24 -27 66 -27h6q36 0 61 27q27 25 27 65q0 41 -26.5 67.5t-65.5 26.5q-41 0 -67.5 -25.5t-26.5 -66.5z" glyph-name="udieresis" horiz-adv-x="838" unicode="ü"/>
<glyph d="M119 836q-28 0 -56 6q-9 2 -22 6q95 -226 191 -472q71 -182 110 -288q17 -49 35 -98q4 -4 4 -6q0 -31 -60 -162q-65 -142 -167 -324q11 4 19 6q27 7 50 7q29 0 66 -13l28 100q52 161 150 400q133 325 375 850q-11 -4 -18 -6q-23 -6 -46 -6q-16 0 -30 2.5t-29 9.5 q-6 -34 -11 -68q-20 -92 -67 -218q-65 -175 -172 -388q-5 -5 -10 -2q-3 0 -5 0.5t-3 1.5q-92 212 -158 386q-47 124 -76 218l-20 70q-41 -12 -78 -12zM547 1264q-14 -18 -86 -135q-32 -52 -101 -141q0 -12 1 -21.5t3 -15.5q116 98 185 146q41 28 90 69q14 12 22.5 24 t14.5 27q4 16 4 25q0 42 -39 55q-12 4 -25 4q-20 0 -37 -8t-32 -29z" glyph-name="yacute" horiz-adv-x="1024" unicode="ý"/>
<glyph d="M48 106l-3 -508q18 6 40.5 8t48.5 2q24 0 41.5 -1t31.5 -3q-8 5 -15 101t-7 221q0 47 0.5 78t1.5 53q18 0 59.5 -2t42.5 -2q262 0 408 114q127 99 127 246q0 120 -86.5 200t-249.5 105q-18 3 -70 5t-98 2q-44 0 -77.5 -0.5t-59.5 -1.5l10 504q-25 -4 -43.5 -6t-39.5 -2 q-14 0 -28.5 1t-44.5 7l2 -162q6 -364 7.5 -548t1.5 -411zM183 122q0 280 1 372t2.5 127.5t2.5 35.5q21 4 36 6q46 6 93 6q135 0 219 -48q117 -67 117 -222q0 -113 -69 -182q-56 -56 -156 -82q-74 -19 -160 -19q-32 0 -52 2t-34 4z" glyph-name="thorn" horiz-adv-x="909" unicode="þ"/>
<glyph d="M135 842q-11 0 -36 2t-40 2q5 -41 7 -134.5t2 -295.5q0 -314 -6 -401q-1 -15 -3 -25q13 2 39 3t39 1q12 0 43 -2t35 -2q-5 37 -6 106q-4 143 -4 320q0 209 2 298.5t8 131.5q-16 -2 -41 -3t-39 -1z" glyph-name="dotlessi" horiz-adv-x="20" unicode="ı"/>
<glyph d="M428 1198q11 9 103 -63q30 -24 90 -74h26l-225 233l-244 -235h55z" glyph-name="circumflex" horiz-adv-x="696" unicode="ˆ"/>
<glyph d="M129 1227q-50 0 -84.5 -34.5t-34.5 -84.5t34.5 -83.5t84.5 -33.5t84.5 33.5t34.5 83.5t-34.5 84.5t-84.5 34.5zM127 1034q-19 0 -31 4.5t-22 16.5q-21 19 -21 47v8q0 18 4.5 29.5t16.5 23.5q20 21 55 21q30 0 52 -20.5t22 -55.5q0 -34 -21 -53q-19 -21 -47 -21h-8z" glyph-name="ring" horiz-adv-x="297" unicode="˚"/>
<glyph d="M119 1270q4 0 11 3.5t22 14.5q43 32 82.5 48t70.5 16q37 0 136 -46q47 -22 83 -22l23 2q61 7 144 84q12 18 24 37q-11 0 -39 -14q-43 -22 -77 -32.5t-58 -10.5q-38 0 -98 35.5t-119 35.5l-29 -2q-48 -4 -115 -65q-63 -57 -63 -80z" glyph-name="tilde" horiz-adv-x="727" unicode="˜"/>
</font>
</defs>
</svg>
