<?xml version="1.0" encoding="UTF-8"?>
<!DOCTYPE svg  PUBLIC '-//W3C//DTD SVG 1.1//EN'  'http://www.w3.org/Graphics/SVG/1.1/DTD/svg11.dtd'>
<svg version="1.1" xmlns="http://www.w3.org/2000/svg">
<defs>
<font id="BookmanOldStyle-Bold" horiz-adv-x="1352">
<font-face font-family="Bookman Old Style" font-weight="600" ascent="1638" bbox="-198 -473 2325 1927" cap-height="1395" descent="-410" panose-1="2 5 8 4 4 5 5 2 2 4" underline-position="-316" underline-thickness="123" unicode-range="U+0020-F003" units-per-em="2048" x-height="998"/>
<missing-glyph/>
<glyph glyph-name="space" horiz-adv-x="696" unicode=" "/>
<glyph d="M468 425h-194q-16 240 -26 319l-62 405q-6 49 -6 79q0 50 25.5 94.5t70 70.5t92.5 26t93.5 -26.5t71 -71.5t25.5 -95q0 -39 -10 -100q-49 -290 -66 -442q-12 -114 -14 -259zM368 356q78 0 132.5 -54.5t54.5 -131.5t-54.5 -131.5t-132.5 -54.5q-77 0 -131.5 54.5 t-54.5 131.5t54.5 131.5t131.5 54.5z" glyph-name="exclam" horiz-adv-x="737" unicode="!"/>
<glyph d="M206 846l-63 335q-13 67 -13 93q0 63 34 104t82 41q47 0 81 -41.5t34 -104.5q0 -35 -8 -69q-3 -13 -5 -23l-63 -335h-79zM575 846l-64 335q-12 67 -12 93q0 63 34 104t81 41q48 0 82 -41.5t34 -104.5q0 -35 -8 -69q-3 -13 -5 -23l-64 -335h-78z" glyph-name="quotedbl" horiz-adv-x="860" unicode='"'/>
<glyph d="M1061 612v-180h-207l-64 -432h-182l63 432h-173l-63 -432h-180l64 432h-204v180h231l27 170h-201v181h226l60 403h176l-58 -403h173l60 403h181l-60 -403h182v-181h-207l-24 -170h180zM724 782h-174l-24 -170h171z" glyph-name="numbersign" horiz-adv-x="1229" unicode="#"/>
<glyph d="M603 1618h193v-248q43 -13 72.5 -26.5t79.5 -44.5l38 71h109l117 -453l-184 -53q-72 187 -232 274v-287q197 -56 287 -114.5t137.5 -144t47.5 -177.5q0 -99 -56.5 -190.5t-166.5 -153t-249 -71.5v-242h-193v259q-115 27 -240 118l-48 -118h-109l-98 527l191 46 q52 -114 100 -179.5t108 -113.5q44 -36 96 -54v333q-215 72 -295 125.5t-126 136.5t-46 168q0 97 57.5 187t159.5 143t250 59v223zM603 1174q-82 -11 -116 -35q-49 -35 -49 -84q0 -41 35.5 -79t129.5 -70v268zM796 218q78 10 124.5 44t46.5 92q0 51 -35 88q-48 49 -136 76 v-300z" glyph-name="dollar" unicode="$"/>
<glyph d="M437 1419q119 0 200.5 -44t125.5 -122.5t44 -196.5q0 -131 -43.5 -210t-125.5 -124t-205 -45q-121 0 -201.5 44t-125 124.5t-44.5 201.5t45 201.5t127 125.5t203 45zM578 1048q0 125 -40 180t-104 55t-102.5 -53.5t-38.5 -181.5q0 -129 38.5 -182.5t101.5 -53.5 q66 0 105.5 55t39.5 181zM1477 1419l-868 -1443h-160l862 1443h166zM1493 718q119 0 200.5 -44t126 -122.5t44.5 -195.5q0 -132 -43.5 -211t-125.5 -124t-205 -45q-121 0 -201.5 44t-125 124.5t-44.5 202.5q0 120 45 201t127 125.5t202 44.5zM1635 347q0 126 -40 180.5 t-104 54.5q-65 0 -103.5 -53t-38.5 -182q0 -128 38.5 -181.5t102.5 -53.5q65 0 105 55t40 180z" glyph-name="percent" horiz-adv-x="1925" unicode="%"/>
<glyph d="M1012 919h490v-192h-60q-51 0 -71 -10t-33 -34q-8 -13 -33 -112q-17 -63 -53 -140.5t-80 -140.5q44 -67 73.5 -88t59.5 -21q35 0 59 23.5t24 60.5q0 36 -30 87q-29 46 -29 80q0 51 40 89.5t96 38.5q73 0 122.5 -58.5t49.5 -165.5q0 -156 -110.5 -258t-292.5 -102 q-91 0 -151 23t-130 88q-160 -111 -372 -111q-226 0 -367 130t-141 318q0 157 90 273q71 92 238 185q-70 45 -105.5 104.5t-35.5 132.5q0 125 97.5 212.5t254.5 87.5q160 0 250 -80.5t90 -202.5q0 -102 -51 -174q-40 -56 -121 -97q56 -25 88 -53q44 -39 89 -107 q29 -43 113 -214q58 132 58 189q0 16 -10 28.5t-27 15.5q-12 3 -79 3v192zM610 1234q-46 0 -75 -36.5t-29 -106.5q0 -62 30 -98.5t71 -36.5q26 0 52 16.5t37 43.5q16 35 16 80q0 70 -30 104t-72 34zM607 761q-97 -50 -147 -124.5t-50 -159.5q0 -110 74.5 -186.5t179.5 -76.5 q81 0 163 37q-23 38 -38 83l-54 187q-29 98 -47 137t-35 60t-46 43z" glyph-name="ampersand" horiz-adv-x="1638" unicode="&amp;"/>
<glyph d="M206 846l-63 335q-13 67 -13 94q0 62 34.5 103t81.5 41t81 -41t34 -104q0 -31 -8 -70l-5 -23l-63 -335h-79z" glyph-name="quotesingle" horiz-adv-x="491" unicode="'"/>
<glyph d="M419 1455l143 -123q-71 -113 -99 -259q-42 -219 -42 -601q0 -357 40 -562q29 -146 101 -261l-143 -122q-58 51 -92 96q-78 104 -129.5 231.5t-70.5 272t-19 397.5q0 267 34.5 427.5t105.5 287.5t171 216z" glyph-name="parenleft" horiz-adv-x="655" unicode="("/>
<glyph d="M237 -473l-143 123q71 113 99 259q42 219 42 601q0 357 -41 562q-28 146 -100 261l143 122q57 -51 92 -96q77 -104 129 -231.5t71 -272t19 -397.5q0 -267 -35 -427.5t-106 -287.5t-170 -216z" glyph-name="parenright" horiz-adv-x="655" unicode=")"/>
<glyph d="M427 1087q-43 100 -54.5 139t-11.5 70q0 53 34 89t82 36q45 0 77.5 -34t32.5 -84q0 -30 -11 -65q-18 -60 -60 -151q24 -12 43 -31q9 7 39 33q71 62 110 81.5t74 19.5q49 0 82.5 -32.5t33.5 -77.5q0 -50 -40 -84t-115 -34q-35 0 -156 10q-5 -26 -16 -50q126 -70 164 -115 t38 -93q0 -47 -31.5 -79.5t-75.5 -32.5q-35 0 -67.5 22.5t-53 70t-45.5 175.5q-19 -3 -28 -3q-8 0 -26 2q-28 -128 -49 -173.5t-53.5 -67.5t-67.5 -22q-46 0 -77.5 31.5t-31.5 76.5q0 47 33.5 87t174.5 120q-12 24 -21 50q-100 -8 -130 -8q-91 0 -135.5 36t-44.5 89 q0 45 32.5 76.5t81.5 31.5q38 0 77.5 -21.5t149.5 -119.5q19 20 42 32z" glyph-name="asterisk" horiz-adv-x="942" unicode="*"/>
<glyph d="M1110 603h-395v-395h-201v395h-395v188h395v396h201v-396h395v-188z" glyph-name="plus" horiz-adv-x="1229" unicode="+"/>
<glyph d="M268 -377l-113 124q132 120 166.5 166.5t56.5 114.5q-19 -14 -39 -21t-40 -7q-57 0 -101 48t-44 116q0 80 55.5 134.5t135.5 54.5q59 0 114 -33.5t85 -92t30 -135.5q0 -127 -84 -247.5t-222 -221.5z" glyph-name="comma" horiz-adv-x="696" unicode=","/>
<glyph d="M98 628h542v-239h-542v239z" glyph-name="hyphen" horiz-adv-x="737" unicode="-"/>
<glyph d="M98 628h542v-239h-542v239z" glyph-name="hyphen" horiz-adv-x="737" unicode="­"/>
<glyph d="M349 356q77 0 131.5 -54.5t54.5 -131.5t-54.5 -131.5t-131.5 -54.5q-78 0 -132.5 54.5t-54.5 131.5t54.5 131.5t132.5 54.5z" glyph-name="period" horiz-adv-x="696" unicode="."/>
<glyph d="M1021 1475l-607 -1758h-268l607 1758h268z" glyph-name="slash" horiz-adv-x="1229" unicode="/"/>
<glyph d="M680 1419q186 0 320.5 -81.5t210.5 -234t76 -388.5q0 -266 -70 -410q-79 -163 -213.5 -246t-330.5 -83q-191 0 -322.5 80.5t-208.5 238t-77 401.5q0 245 76.5 400.5t212.5 239t326 83.5zM940 697q0 274 -81 397q-72 107 -189 107q-108 0 -181.5 -113t-73.5 -391 t74 -390.5t186 -112.5q113 0 189 115.5t76 387.5z" glyph-name="zero" unicode="0"/>
<glyph d="M888 1419v-1095q0 -71 6 -85q9 -25 32 -35.5t85 -10.5h141v-193h-862v193h142q75 0 96 9.5t31.5 31t10.5 90.5v781h-280v194q120 12 184 25q96 19 204 52q60 18 112 43h98z" glyph-name="one" unicode="1"/>
<glyph d="M299 842l-202 -18q-11 52 -11 99q0 144 68 250.5t209.5 176t314.5 69.5q159 0 287.5 -60.5t193.5 -156.5t65 -202q0 -107 -46 -200q-51 -104 -166.5 -201t-465.5 -311h336q82 0 104 8.5t38 33.5t27 86l8 46h194l-91 -511h-132l-12 49h-921v193q203 132 515 390 q160 132 213 228q39 70 39 147q0 89 -73.5 150.5t-196.5 61.5q-91 0 -158 -33.5t-105 -95.5t-38 -131q0 -25 6 -68z" glyph-name="two" unicode="2"/>
<glyph d="M357 946h-206q-1 23 -1 38q0 129 58.5 222.5t183 153t284.5 59.5q152 0 273 -53.5t180.5 -137.5t59.5 -173q0 -70 -37 -137.5t-100 -114.5q-42 -31 -125 -63q75 -8 134 -36.5t102.5 -72t65 -98.5t21.5 -119q0 -115 -68 -215t-202 -161.5t-311 -61.5q-173 0 -308 58 t-203 147t-68 177q0 67 48 115t116 48q65 0 115 -45q32 -29 55 -99q29 -91 52.5 -120.5t76.5 -52.5t108 -23q64 0 123.5 31t87.5 78.5t28 114.5q0 123 -95 181q-73 45 -227 45h-65v193h65q122 0 174.5 18t82.5 60.5t30 91.5q0 67 -50 115q-63 61 -192 61q-86 0 -141.5 -26 t-87 -73.5t-37.5 -124.5z" glyph-name="three" unicode="3"/>
<glyph d="M723 1395h317v-756h263v-254h-263v-385h-317v385h-658v312zM723 1073l-414 -434h414v434z" glyph-name="four" unicode="4"/>
<glyph d="M199 630l37 765h704q66 0 84.5 10.5t21.5 37.5h134v-348h-729l-9 -179q122 13 221 13q205 0 342 -60t203 -161t66 -236q0 -235 -190 -373q-170 -123 -413 -123q-162 0 -292 55.5t-193.5 138.5t-63.5 167q0 67 45.5 112.5t111.5 45.5q47 0 86 -26t68 -87q41 -84 76 -121.5 t82 -57.5t105 -20q77 0 138 30.5t92 83t31 120.5q0 115 -97 187t-306 72q-186 0 -355 -46z" glyph-name="five" unicode="5"/>
<glyph d="M1137 1419v-196q-191 -7 -305.5 -36t-190.5 -79t-123.5 -118.5t-65.5 -156.5q88 61 166.5 86.5t170.5 25.5q146 0 261 -60t175.5 -162t60.5 -236q0 -223 -157.5 -367t-425.5 -144q-277 0 -433 148q-183 172 -183 475q0 205 61.5 348.5t193.5 254t309.5 163t485.5 54.5z M698 718q-73 0 -129 -32.5t-87 -93t-31 -138.5q0 -114 68.5 -186.5t172.5 -72.5q107 0 176.5 72.5t69.5 189.5q0 118 -67.5 189.5t-172.5 71.5z" glyph-name="six" unicode="6"/>
<glyph d="M220 1438h132l14 -43h933v-193q-133 -129 -214.5 -243t-151 -266.5t-103.5 -286t-61 -406.5h-359q24 247 81 411.5t183 356t266 326.5h-455q-87 0 -114 -10t-43 -32t-36 -99l-21 -81l-191 45z" glyph-name="seven" unicode="7"/>
<glyph d="M951 775q155 -61 239 -166q66 -81 66 -201q0 -183 -144 -301q-161 -131 -432 -131q-181 0 -313 55t-197 141.5t-65 178.5q0 96 71.5 183t223.5 148q-127 57 -190.5 147t-63.5 198q0 107 59.5 194t185 142.5t288.5 55.5q206 0 353 -89.5t147 -243.5q0 -90 -50 -164.5 t-178 -146.5zM761 860l37 41q36 38 48 59q18 29 25.5 53.5t7.5 49.5q0 54 -56.5 95.5t-157.5 41.5q-97 0 -150.5 -38.5t-53.5 -89.5q0 -45 32 -77q43 -43 157 -90zM594 589q-96 -50 -141.5 -107.5t-45.5 -110.5q0 -42 31 -83.5t94 -67t148 -25.5q84 0 148 23.5t91 58 t27 74.5q0 50 -34 83q-49 48 -169 96z" glyph-name="eight" unicode="8"/>
<glyph d="M214 -24v195q192 8 306 36.5t190.5 78.5t123.5 118.5t66 157.5q-88 -62 -167 -87.5t-170 -25.5q-146 0 -261.5 60.5t-175.5 162t-60 236.5q0 223 157 367t426 144q277 0 433 -148q183 -173 183 -476q0 -204 -62 -348t-193.5 -254.5t-309 -163t-486.5 -53.5zM653 677 q73 0 129 32t87 93t31 139q0 114 -68.5 186t-172.5 72q-106 0 -175.5 -72t-69.5 -189q0 -118 67.5 -189.5t171.5 -71.5z" glyph-name="nine" unicode="9"/>
<glyph d="M349 1022q76 0 131 -55t55 -132q0 -78 -54.5 -133t-132.5 -55q-77 0 -131.5 55t-54.5 132t55.5 132.5t131.5 55.5zM349 356q77 0 131.5 -54.5t54.5 -131.5t-54.5 -131.5t-131.5 -54.5q-78 0 -132.5 54.5t-54.5 131.5t54.5 131.5t132.5 54.5z" glyph-name="colon" horiz-adv-x="696" unicode=":"/>
<glyph d="M1110 339v-192l-991 465v170l991 466v-193l-743 -358z" glyph-name="less" horiz-adv-x="1229" unicode="&lt;"/>
<glyph d="M1110 794h-991v188h991v-188zM1110 411h-991v190h991v-190z" glyph-name="equal" horiz-adv-x="1229" unicode="="/>
<glyph d="M119 1055v193l991 -466v-170l-991 -465v192l744 358z" glyph-name="greater" horiz-adv-x="1229" unicode="&gt;"/>
<glyph d="M609 424h-191v381h62q189 0 268 19t113.5 58.5t34.5 89.5q0 103 -103 170q-89 59 -193 59q-53 0 -96 -25t-92 -93q-43 -61 -73 -79q-40 -22 -84 -22q-64 0 -107.5 42.5t-43.5 105.5q0 127 149 208t346 81q182 0 333 -70t224 -177t73 -229q0 -132 -81.5 -229t-224.5 -141 q-94 -28 -314 -33v-116zM513 356q78 0 132.5 -54.5t54.5 -131.5t-54.5 -131.5t-132.5 -54.5q-77 0 -131.5 54.5t-54.5 131.5t54.5 131.5t131.5 54.5z" glyph-name="question" unicode="?"/>
<glyph d="M1069 925l244 10l-183 -628q-31 -103 -31 -154q0 -34 23.5 -57.5t58.5 -23.5q73 0 183 84t178.5 229.5t68.5 307.5q0 182 -82.5 328t-224.5 224.5t-333 78.5q-249 0 -447.5 -116t-317.5 -333.5t-119 -473.5q0 -360 235 -581q219 -206 547 -206q202 0 381 82.5t300 226.5 q85 100 139 242h61q-81 -200 -209.5 -332.5t-300 -203.5t-373.5 -71q-373 0 -622 236q-263 248 -263 642q0 269 125 487.5t344 341t498 122.5q220 0 380 -84.5t249.5 -240t89.5 -351.5q0 -200 -86 -369.5t-220 -255.5t-293 -86q-68 0 -111 21t-68 64t-25 94q0 49 24 137 q-78 -130 -119 -179q-59 -70 -126 -111q-44 -26 -100 -26q-73 0 -120.5 58t-47.5 168q0 131 49.5 267.5t137.5 248t201 179.5q68 42 128 42q66 0 105 -48q27 -31 38 -109zM921 890q-25 0 -58 -23.5t-88 -123t-98 -241t-43 -225.5q0 -45 18 -69.5t40 -24.5q18 0 50 23 q52 38 113 134t97.5 211t36.5 205q0 67 -21.5 100.5t-46.5 33.5z" glyph-name="at" horiz-adv-x="1679" unicode="@"/>
<glyph d="M583 1395h313l419 -1077q34 -86 60.5 -106t97.5 -19v-193h-660v193l40 1q55 0 77 14.5t22 35.5q0 18 -19 74l-41 127h-425l-52 -141q-16 -45 -16 -59q0 -16 11.5 -29t37.5 -19q17 -4 94 -4v-193h-540v193q52 0 76 9t39.5 27t34.5 67zM540 644h279l-136 384z" glyph-name="A" horiz-adv-x="1475" unicode="A"/>
<glyph d="M79 1202v193h793q182 0 286 -42.5t160 -122t56 -174.5q0 -69 -29.5 -131t-85 -109.5t-146.5 -78.5q98 -25 150 -55q75 -42 119 -117.5t44 -168.5q0 -111 -67 -204.5t-189.5 -142.5t-358.5 -49h-732v193h55q55 0 74.5 9.5t27.5 27t8 78.5v778q0 62 -8 79t-27.5 27 t-74.5 10h-55zM590 830h153q120 0 177.5 20t86.5 60.5t29 93.5q0 55 -27.5 94t-79.5 55.5t-186 16.5h-153v-340zM590 625v-302q1 -64 5 -75q5 -14 16.5 -19.5t62.5 -5.5h102q89 0 147.5 16.5t99.5 68.5t41 125q0 62 -29 105t-87 65t-177 22h-181z" glyph-name="B" horiz-adv-x="1475" unicode="B"/>
<glyph d="M1153 1395h142l137 -501l-186 -54q-93 179 -175 254q-114 103 -247 103q-97 0 -181.5 -54t-134 -159t-49.5 -246q0 -215 113.5 -370t297.5 -155q117 0 225 67q135 83 233 223l155 -115q-151 -206 -276 -287q-193 -125 -430 -125q-197 0 -356.5 94.5t-254.5 264.5t-95 371 q0 200 92.5 364.5t252 256.5t355.5 92q199 0 349 -84z" glyph-name="C" horiz-adv-x="1515" unicode="C"/>
<glyph d="M76 1395h731q249 0 396 -79t234.5 -234t87.5 -372q0 -151 -44.5 -270t-132.5 -214.5t-189 -143.5q-76 -36 -215.5 -59t-223.5 -23h-644v193h48q61 0 80 10t31 34q8 19 8 83v762q0 64 -8.5 82.5t-28 28t-82.5 9.5h-48v193zM586 1171v-867q0 -44 5 -54q8 -15 23.5 -20.5 t74.5 -5.5q164 0 256.5 50.5t149.5 162t57 265.5q0 152 -53.5 264.5t-132.5 158.5t-226 46h-154z" glyph-name="D" horiz-adv-x="1597" unicode="D"/>
<glyph d="M78 1395h1164l159 -441l-181 -65q-46 108 -107.5 174t-136 87.5t-173.5 21.5h-213v-348h70q79 0 106.5 11.5t39.5 36t12 97.5v53h178v-590h-178v60q0 61 -14.5 89t-39.5 38t-111 10h-63v-320q0 -51 5 -62t19.5 -17t62.5 -6h117q131 0 221 37.5t160.5 121t108.5 198.5 l183 -63l-183 -518h-1206v193h35q70 0 94 10t34 35q5 15 5 85v760q0 62 -8.5 81t-26.5 28.5t-71 9.5h-62v193z" glyph-name="E" horiz-adv-x="1475" unicode="E"/>
<glyph d="M80 1395h1153l158 -445l-181 -63q-44 97 -84 146.5t-95 82.5t-119 44q-43 7 -152 7h-172v-370h88q50 0 78.5 15t41 39t12.5 80v74h180v-624h-180v90q0 39 -7 57q-9 24 -25 39t-36.5 21t-74.5 6h-77v-293q0 -53 9 -71.5t29 -27.5t77 -9h57v-193h-680v193h45 q75 0 98.5 19.5t23.5 78.5v802q0 55 -9 73t-30 27t-83 9h-45v193z" glyph-name="F" horiz-adv-x="1393" unicode="F"/>
<glyph d="M899 744h681v-195h-51q-50 0 -68.5 -9t-27.5 -28.5t-9 -74.5v-437h-205l-53 100q-94 -62 -195 -93t-210 -31q-191 0 -348 93t-248.5 260t-91.5 374q0 205 90.5 367t253 255.5t352.5 93.5q92 0 183.5 -23.5t156.5 -62.5l37 62h140l126 -462l-184 -60q-94 152 -148.5 207 t-125 86t-137.5 31q-95 0 -177.5 -55t-130.5 -160.5t-48 -255.5q0 -165 52.5 -286t137.5 -179.5t187 -58.5q72 0 136.5 29t88.5 65t24 97v51q0 53 -7 67q-11 20 -29.5 29t-72.5 9h-79v195z" glyph-name="G" horiz-adv-x="1597" unicode="G"/>
<glyph d="M73 1395h681v-193h-63q-52 0 -71 -10.5t-27 -30t-8 -84.5v-243h508v261q0 48 -6 65q-8 24 -27 33t-84 9h-53v193h683v-193h-57q-58 0 -77 -9.5t-26.5 -28t-7.5 -87.5v-756q0 -70 9.5 -90.5t29 -29t89.5 -8.5h40v-193h-683v193h45q63 0 85.5 10t31 29t8.5 89v295h-508 v-295q0 -70 6 -87q10 -25 31 -33t85 -8h47v-193h-681v193h46q58 0 81 10t31.5 28t8.5 79v758q0 71 -8.5 92.5t-26.5 31.5t-70 10h-62v193z" glyph-name="H" horiz-adv-x="1679" unicode="H"/>
<glyph d="M70 1395h680v-193h-62q-54 0 -71.5 -9.5t-26 -30t-8.5 -78.5v-772q0 -63 7 -81t24 -26q21 -12 63 -12h74v-193h-680v193h55q59 0 77 8.5t26.5 27t8.5 73.5v775q0 65 -8.5 85.5t-28.5 31.5q-14 8 -68 8h-62v193z" glyph-name="I" horiz-adv-x="819" unicode="I"/>
<glyph d="M585 1395h679v-193h-57q-58 0 -76 -9.5t-26 -29.5t-8 -91v-559q0 -131 -14 -191q-19 -86 -91 -170t-184.5 -130t-268.5 -46q-167 0 -284.5 57t-184.5 157t-67 206q0 97 57 159t141 62q51 0 86.5 -19.5t57 -59t21.5 -84.5v-65q0 -55 26 -105q19 -37 62.5 -60t98.5 -23 q72 0 122 42t66 111q10 40 10 166v579q0 44 -4 57q-8 25 -27.5 35.5t-67.5 10.5h-67v193z" glyph-name="J" horiz-adv-x="1311" unicode="J"/>
<glyph d="M76 1395h680v-193h-45q-65 0 -80 -7q-24 -11 -34.5 -31t-10.5 -75v-371l435 403q29 27 35 36.5t6 16.5q0 14 -11.5 21t-58.5 7h-56v193h631v-193h-21q-44 0 -61 -4.5t-41.5 -19.5t-63.5 -49l-337 -292l402 -543q52 -70 76 -83q32 -18 92 -18h27v-193h-704v193h28 q77 0 93.5 7t16.5 18q0 12 -31 57l-245 349l-212 -181v-141q0 -52 10 -72t28.5 -28.5t74.5 -8.5h57v-193h-680v193h51q59 0 79 9.5t29 30.5q8 17 8 82v762q0 62 -9 83t-29 31.5t-72 10.5h-57v193z" glyph-name="K" horiz-adv-x="1638" unicode="K"/>
<glyph d="M82 1395h682v-193h-60q-50 0 -63 -5q-24 -10 -35 -30.5t-11 -65.5v-797q0 -48 4.5 -59t18.5 -17.5t54 -6.5q134 0 215.5 35t147 112.5t112.5 210.5l184 -63l-184 -516h-1065v193h67q41 0 62 11t30.5 29.5t9.5 64.5v790q0 50 -9.5 72t-27 32t-58.5 10h-74v193z" glyph-name="L" horiz-adv-x="1311" unicode="L"/>
<glyph d="M80 1395h631l242 -849l251 849h642v-193h-69q-56 0 -77.5 -23.5t-21.5 -88.5v-792q0 -52 6 -65q9 -20 25 -28q22 -12 58 -12h79v-193h-671v193h52q57 0 77 9t29.5 27.5t9.5 68.5v858l-340 -1156h-193l-329 1119v-848q0 -29 10.5 -45t30 -24.5t62.5 -8.5h67v-193h-571v193 h56q53 0 72.5 9.5t29 30t9.5 75.5v782q0 54 -7 70q-9 22 -27 32t-57 10h-76v193z" glyph-name="M" horiz-adv-x="1925" unicode="M"/>
<glyph d="M78 1395h567l409 -814v498q0 64 -7 80q-10 24 -27 33.5t-66 9.5h-68v193h576v-193h-64q-48 0 -68.5 -11t-28.5 -30t-8 -82v-1079h-287l-518 1028v-719q0 -62 7.5 -79t27 -27t67.5 -10h67v-193h-579v193h60q50 0 68.5 8.5t29.5 29.5t11 63v800q0 46 -10 67.5t-27 31 t-57 9.5h-75v193z" glyph-name="N" horiz-adv-x="1515" unicode="N"/>
<glyph d="M825 1419q332 0 537.5 -202t205.5 -519q0 -213 -94 -378t-259.5 -254.5t-399.5 -89.5q-309 0 -506 170q-238 205 -238 548q0 319 208.5 522t545.5 203zM829 1197q-159 0 -253 -119q-118 -150 -118 -387t110 -375q95 -118 251 -118q157 0 251 118q111 141 111 377 q0 166 -47.5 279t-128.5 169t-176 56z" glyph-name="O" horiz-adv-x="1638" unicode="O"/>
<glyph d="M82 1395h737q140 0 232.5 -28.5t159 -86.5t102.5 -137.5t36 -168.5q0 -179 -137.5 -300t-379.5 -121h-238v-261q0 -49 7 -62q9 -19 27.5 -28t62.5 -9h71v-193h-680v193h47q62 0 82 9t29 28.5t9 80.5v767q0 64 -8 84.5t-25.5 30t-66.5 9.5h-67v193zM594 1167v-396h119 q109 0 160 22.5t82 69t31 110.5q0 96 -74 152q-55 42 -163 42h-155z" glyph-name="P" unicode="P"/>
<glyph d="M642 -9q-226 36 -384 203q-187 198 -187 500q0 319 207.5 522t544.5 203q334 0 539.5 -202t205.5 -519q0 -186 -72 -335.5t-200 -244.5t-312 -128q3 -89 63 -134t146 -45q65 0 134.5 21t123.5 58l98 -170q-111 -70 -216 -101t-224 -31q-148 0 -256.5 51t-163.5 151 q-44 80 -47 201zM829 1197q-159 0 -253 -119q-118 -150 -118 -387t110 -375q95 -118 251 -118q157 0 251 118q111 141 111 377q0 166 -47.5 279t-128.5 169t-176 56z" glyph-name="Q" horiz-adv-x="1638" unicode="Q"/>
<glyph d="M74 1395h860q83 0 181.5 -15t178 -66t123.5 -129t44 -176q0 -159 -113.5 -257.5t-268.5 -128.5l287 -334l12 -15q28 -34 51 -50.5t46 -23.5t64 -7h60v-193h-447l-448 601h-116v-278q0 -72 8 -91.5t25.5 -29t70.5 -9.5h64v-193h-682v193h62q49 0 69.5 10.5t30.5 31.5 q5 12 5 75v785q0 46 -7.5 65.5t-24.5 25.5q-24 11 -55 11l-28 -1h-52v199zM588 1166v-361h207q122 0 182.5 22.5t91 64.5t30.5 102q0 55 -28.5 94.5t-81 58.5t-171.5 19h-230z" glyph-name="R" horiz-adv-x="1597" unicode="R"/>
<glyph d="M1129 1395l120 -468l-186 -53q-93 167 -211 244.5t-251 77.5q-86 0 -135.5 -35t-49.5 -78q0 -49 45 -91q44 -42 162 -75l268 -78q223 -64 318 -170q94 -107 94 -249q0 -181 -144 -306q-161 -138 -400 -138q-111 0 -204 28.5t-194 95.5l-44 -100h-149l-99 541l187 45 q66 -165 205.5 -275.5t306.5 -110.5q75 0 124.5 19t74.5 53t25 70q0 60 -58 103q-59 43 -206 85l-233 68q-53 15 -143.5 56.5t-139 86.5t-80.5 115.5t-32 148.5q0 111 61.5 204.5t185 151.5t273.5 58q181 0 327 -94l39 70h143z" glyph-name="S" unicode="S"/>
<glyph d="M175 1442h132l14 -47h787l17 47h133l173 -489l-186 -65q-62 122 -89 159q-53 73 -122 115q-52 32 -103 32q-24 0 -33 -11.5t-9 -52.5v-802q0 -71 5 -89t17 -28.5t33 -14t112 -3.5v-193h-680v193h41q68 0 87 8.5t29 30t10 89.5v820q0 35 -8 44t-34 9q-52 0 -116 -39 t-114 -110q-20 -28 -85 -157l-183 65z" glyph-name="T" horiz-adv-x="1434" unicode="T"/>
<glyph d="M37 1395h681v-193h-67q-46 0 -65.5 -11t-28.5 -31.5t-9 -83.5v-508q0 -142 28.5 -212t86 -106.5t139.5 -36.5t146 40t91.5 101.5t27.5 203.5v560q0 35 -9 50q-12 20 -32 28q-14 6 -71 6h-54v193h577v-193h-45q-67 0 -83 -8q-24 -12 -35 -35q-8 -15 -8 -83v-550 q0 -152 -44 -255q-61 -140 -194.5 -217.5t-316.5 -77.5q-129 0 -231 39.5t-178.5 113t-107 155.5t-30.5 242v539q0 74 -8 95.5t-26 31.5t-70 10h-64v193z" glyph-name="U" horiz-adv-x="1515" unicode="U"/>
<glyph d="M2 1395h663v-193h-21q-63 0 -80.5 -5t-29.5 -21t-12 -33q0 -21 23 -86l247 -695l263 713q19 53 19 73q0 28 -18.5 41t-79.5 13h-43v193h540v-193q-67 0 -90 -15q-35 -23 -70 -112l-418 -1075h-314l-425 1082q-26 65 -40 83t-39.5 28t-74.5 9v193z" glyph-name="V" horiz-adv-x="1475" unicode="V"/>
<glyph d="M16 1395h614v-193q-59 0 -73.5 -4t-25 -17.5t-10.5 -30.5q0 -15 13 -65l187 -724l163 515l-64 209q-3 7 -8 25q-13 49 -39 69.5t-75 22.5v193h583v-193h-47q-51 0 -66 -12q-21 -17 -21 -43q0 -19 15 -77l165 -643l170 643q19 70 19 83q0 24 -18 36.5t-68 12.5h-51v193 h530v-193q-57 0 -81.5 -11.5t-41 -35.5t-39.5 -101l-309 -1054h-302l-162 559l-174 -559h-314l-312 1070q-20 70 -35 90.5t-41.5 31.5t-81.5 10v193z" glyph-name="W" horiz-adv-x="1925" unicode="W"/>
<glyph d="M52 1395h751v-193h-58q-46 0 -58.5 -7.5t-12.5 -24.5q0 -9 5 -18.5t29 -38.5l148 -178l166 184q32 35 32 51t-13.5 24t-61.5 8h-51v193h626v-193q-69 -2 -97.5 -10t-65.5 -32q-27 -18 -59 -52l-371 -367l408 -435q67 -72 111 -92.5t120 -20.5v-193h-764v193h70q49 0 61 7 t12 21q0 19 -33 58l-201 229l-215 -229q-28 -31 -28 -55q0 -14 15 -22.5t61 -8.5h54v-193h-634v193q66 0 93.5 7t50.5 23q39 28 95 83l400 398l-381 409q-54 58 -88.5 73.5t-115.5 15.5v193z" glyph-name="X" horiz-adv-x="1597" unicode="X"/>
<glyph d="M1 1395h693v-193h-52q-55 0 -69 -8.5t-14 -27.5q0 -26 32 -78l183 -303l204 316q27 41 30 46q4 11 4 22q0 17 -11.5 25t-53.5 8h-71v193h556v-193q-73 -1 -102.5 -17t-70.5 -77l-372 -542v-249q0 -66 8.5 -85.5t29 -29t80.5 -9.5h49v-193h-680v193h37q72 0 92 9.5 t30.5 32t10.5 90.5v218l-371 565q-44 66 -77 83q-24 11 -95 11v193z" glyph-name="Y" horiz-adv-x="1434" unicode="Y"/>
<glyph d="M1215 1395v-193l-738 -985h87q180 0 269 33.5t164.5 118.5t117.5 209l183 -62l-183 -516h-1065v193l741 982h-116q-118 0 -190 -28t-125 -83t-152 -231l-176 78l212 484h971z" glyph-name="Z" horiz-adv-x="1311" unicode="Z"/>
<glyph d="M119 1455h475v-194h-195v-1540h195v-194h-475v1928z" glyph-name="bracketleft" horiz-adv-x="614" unicode="["/>
<glyph d="M146 1475h268l593 -1758h-254z" glyph-name="backslash" horiz-adv-x="1229" unicode="\"/>
<glyph d="M495 -473h-475v194h195v1540h-195v194h475v-1928z" glyph-name="bracketright" horiz-adv-x="614" unicode="]"/>
<glyph d="M324 579h-219l405 816h209l406 -816h-219l-291 566z" glyph-name="asciicircum" horiz-adv-x="1229" unicode="^"/>
<glyph d="M-12 -154h1048v-102h-1048v102z" glyph-name="underscore" horiz-adv-x="1024" unicode="_"/>
<glyph d="M634 1130l-326 70q-85 18 -124 59t-39 98q0 39 19 73.5t53.5 55t67.5 20.5q82 0 175 -83l215 -192z" glyph-name="grave" horiz-adv-x="819" unicode="`"/>
<glyph d="M681 605v74q0 66 -11 91t-40 41.5t-72 16.5q-33 0 -60 -11t-43 -28t-37 -66q-27 -62 -64.5 -89t-88.5 -27q-64 0 -105 40t-41 99q0 67 42 119q56 69 167 113t250 44t236.5 -45t136 -107.5t38.5 -190.5v-358q0 -66 7 -84.5t30 -32.5t51 -14t75 16v-195q-85 -27 -163 -27 q-92 0 -157 30t-109 90q-100 -65 -181.5 -92.5t-157.5 -27.5q-143 0 -231 80.5t-88 198.5q0 67 30.5 123t91 98t187 74.5t307.5 46.5zM681 439q-131 -19 -185 -38.5t-77 -49t-23 -60.5q0 -40 30 -67t81 -27q33 0 76.5 17t97.5 50v175z" glyph-name="a" horiz-adv-x="1188" unicode="a"/>
<glyph d="M464 1468v-539q83 52 147.5 72.5t129.5 20.5q170 0 281 -124q129 -144 129 -384q0 -243 -129.5 -390.5t-313.5 -147.5q-75 0 -144 25t-144 83l-54 -84h-220v1190h-146v194q197 14 366 84h98zM464 712v-304q0 -92 14.5 -126.5t51 -57.5t85.5 -23q83 0 132 68q62 85 62 235 q0 141 -53 218q-43 62 -113 62q-39 0 -83.5 -18t-95.5 -54z" glyph-name="b" horiz-adv-x="1229" unicode="b"/>
<glyph d="M988 378l147 -129q-118 -143 -245 -208t-272 -65q-232 0 -387.5 151t-155.5 368q0 147 72.5 269t199 190t298.5 68q206 0 336.5 -95.5t130.5 -201.5q0 -45 -20.5 -80.5t-62.5 -57.5t-89 -22q-38 0 -68 15t-50 38q-9 10 -35 62q-33 65 -51 86t-43 32.5t-57 11.5 q-52 0 -99.5 -33.5t-78 -101.5t-30.5 -152q0 -92 36 -165.5t96.5 -111.5t133.5 -38q70 0 141 38t153 132z" glyph-name="c" horiz-adv-x="1188" unicode="c"/>
<glyph d="M1113 1468v-1163q0 -69 6 -83.5t20.5 -21.5t76.5 -7h47v-193l-434 -15v103q-94 -63 -165 -87.5t-142 -24.5q-115 0 -211.5 62.5t-158 185.5t-61.5 273q0 152 62.5 275.5t163 186.5t224.5 63q64 0 122.5 -15.5t129.5 -54.5v237h-146v194q124 12 201.5 30.5t167.5 54.5h97z M793 286v335q0 63 -9 89q-12 37 -54.5 65t-94.5 28q-54 0 -100 -32.5t-73 -99.5t-27 -167q0 -139 61 -223q47 -66 125 -66q34 0 65 11.5t107 59.5z" glyph-name="d" horiz-adv-x="1311" unicode="d"/>
<glyph d="M981 370l137 -138q-118 -135 -240.5 -195.5t-264.5 -60.5q-228 0 -384 154.5t-156 373.5q0 144 70 263.5t194 187t281 67.5q100 0 182 -29t143.5 -83t99 -130.5t51.5 -158.5q6 -41 6 -130h-673q2 -127 74.5 -205.5t177.5 -78.5q67 0 146 40.5t156 122.5zM781 659 q-7 60 -28.5 94.5t-58 55t-76.5 20.5q-42 0 -81 -21t-62.5 -57t-30.5 -92h337z" glyph-name="e" horiz-adv-x="1188" unicode="e"/>
<glyph d="M712 998v-212h-162v-489q0 -59 5 -71q7 -17 23 -25t66 -8h56v-193h-618v193h49q60 0 73 6t19.5 21.5t6.5 76.5v489h-148v212h148v104q0 111 39 179q46 83 148 135t244 52q150 0 235 -63.5t85 -140.5q0 -61 -38.5 -99.5t-101.5 -38.5q-25 0 -48.5 7.5t-44.5 22.5 q-15 10 -51 50q-34 37 -46 44q-15 9 -28 9q-34 0 -53.5 -31.5t-19.5 -125.5v-104h162z" glyph-name="f" horiz-adv-x="778" unicode="f"/>
<glyph d="M847 940q53 75 106 106.5t112 31.5t93 -34.5t34 -88.5q0 -49 -32.5 -81.5t-80.5 -32.5l-33 1l-34 1q-27 0 -54 -20q55 -91 55 -174q0 -88 -54.5 -171t-151 -129t-231.5 -46q-39 0 -78.5 4.5t-79.5 13.5q-27 -17 -41 -33t-14 -30q0 -31 64 -40l414 -59q185 -26 267 -99 q82 -74 82 -176q0 -90 -62 -166.5t-202.5 -125.5t-354.5 -49q-188 0 -311 36.5t-174.5 92t-51.5 105.5q0 57 38.5 102.5t158.5 104.5q-74 27 -111 66q-50 52 -50 107q0 60 46.5 118t139.5 115q-52 32 -81.5 69.5t-48 91.5t-18.5 111q0 150 122.5 255t322.5 105 q89 0 162.5 -20.5t131.5 -61.5zM563 831q-64 0 -105.5 -47t-41.5 -127q0 -74 40 -118t103 -44q62 0 103.5 45.5t41.5 117.5q0 80 -39.5 126.5t-101.5 46.5zM418 -64q-53 -41 -67.5 -62.5t-14.5 -47.5q0 -49 80 -76.5t205 -27.5q91 0 161 16t93 39q15 15 15 41q0 29 -30 48.5 t-145 33.5z" glyph-name="g" horiz-adv-x="1188" unicode="g"/>
<glyph d="M551 1468v-555q99 60 175 84.5t147 24.5q95 0 169.5 -40.5t109.5 -101.5t35 -163v-417q0 -61 5 -74q8 -19 30 -28q13 -5 71 -5h47v-193h-588v193h30q43 0 59 8t22 22.5t6 70.5v345q0 68 -8.5 90.5t-30.5 37t-55 14.5q-47 0 -98.5 -19t-125.5 -70v-398q0 -57 6 -71t23 -22 t64 -8h22v-193h-582v193h56q49 0 62.5 6.5t20.5 22t7 61.5v906h-146v194q83 5 186.5 28.5t186.5 56.5h94z" glyph-name="h" horiz-adv-x="1393" unicode="h"/>
<glyph d="M384 1468q76 0 129.5 -53.5t53.5 -129.5q0 -77 -53.5 -130.5t-129.5 -53.5t-129.5 53.5t-53.5 129.5q0 75 55 129.5t128 54.5zM546 1022v-739q0 -53 6 -65t21.5 -18.5t69.5 -6.5h54v-193h-618v193h53q52 0 66.5 5.5t21.5 18.5t7 52v477h-148v188q79 4 151.5 17t129.5 31 q37 12 91 40h95z" glyph-name="i" horiz-adv-x="737" unicode="i"/>
<glyph d="M388 1468q76 0 129.5 -53.5t53.5 -129.5q0 -75 -53.5 -129t-129.5 -54q-75 0 -128.5 53.5t-53.5 129.5t53.5 129.5t128.5 53.5zM549 1022v-1065q0 -152 -44 -231.5t-145 -131t-241 -51.5q-102 0 -173.5 29.5t-107.5 78.5t-36 101q0 55 44 93.5t99 38.5q35 0 72.5 -21 t87.5 -79q30 -35 55 -35q33 0 52 27t19 97v873h-147v190q103 2 193 22.5t178 63.5h94z" glyph-name="j" horiz-adv-x="696" unicode="j"/>
<glyph d="M553 1468v-901l192 163q31 26 36.5 33.5t5.5 14.5q0 12 -13.5 19.5t-57.5 7.5h-38v193h611v-193q-66 0 -90 -9q-32 -13 -105 -66l-194 -142l276 -321q42 -50 68.5 -61.5t104.5 -12.5v-193h-619v193h34q37 0 49 7t12 18q0 14 -32 56l-115 148l-125 -94v-54q0 -38 6 -51.5 t20.5 -21.5t45.5 -8h35v-193h-574v193q30 1 46 1q56 0 72 7.5t23 25.5q5 13 5 87v876h-146v195q170 8 370 83h97z" glyph-name="k" unicode="k"/>
<glyph d="M524 1468v-1170q0 -59 5 -70q7 -20 31 -29q15 -6 81 -6h35v-193h-619v193h38q60 0 77 7.5t25 24t8 73.5v892h-148v194q179 12 370 84h97z" glyph-name="l" horiz-adv-x="696" unicode="l"/>
<glyph d="M531 1022v-133q87 67 177 100t183 33q59 0 113.5 -17.5t91 -45.5t66.5 -76q97 74 186 106.5t181 32.5q80 0 145 -29t105.5 -78.5t52.5 -107.5q8 -36 8 -105v-414q0 -51 7.5 -66t25.5 -23q13 -6 73 -6h44v-193h-585v193q65 0 82 6.5t25 21t8 63.5v363q0 63 -8.5 83.5 t-33 35t-58.5 14.5q-39 0 -84 -17.5t-133 -76.5v-391q0 -58 8 -73t28 -23q12 -5 79 -6v-193h-549v193q68 1 83 7t23 22t8 73v343q0 79 -14 105q-22 39 -78 39q-28 0 -59 -7t-61 -22q-16 -8 -82 -52l-23 -15v-391q0 -56 6 -70t23.5 -23t60.5 -9h27v-193h-584v193h39 q62 0 77.5 6.5t23.5 23t8 72.5v450h-148v193q183 17 338 84h94z" glyph-name="m" horiz-adv-x="2048" unicode="m"/>
<glyph d="M521 1022v-133q113 77 193.5 105t164.5 28q97 0 171.5 -41t108.5 -102.5t34 -174.5v-416q0 -53 7.5 -68t23.5 -22q12 -5 72 -5h49v-193h-587v193q67 1 75 3q25 7 33 23t8 69v367q0 71 -15 92q-24 35 -76 35q-43 0 -92 -19t-132 -78v-397q0 -65 14 -80t67 -15h32v-193 h-581v193h29q69 0 85.5 6t25 21t8.5 59v466h-148v193q180 22 337 84h93z" glyph-name="n" horiz-adv-x="1393" unicode="n"/>
<glyph d="M632 1022q171 0 298 -67t195.5 -182.5t68.5 -270.5q0 -234 -152 -380t-406 -146q-259 0 -412 147q-148 140 -148 379q0 157 67.5 270t195.5 181.5t293 68.5zM636 803q-57 0 -107 -34t-77.5 -100t-27.5 -168q0 -105 27 -174t74.5 -102t104.5 -33q88 0 151 74.5t63 231.5 q0 152 -58.5 228.5t-149.5 76.5z" glyph-name="o" horiz-adv-x="1270" unicode="o"/>
<glyph d="M508 1022v-111q114 70 174.5 90.5t129.5 20.5q175 0 285 -129q126 -148 126 -378q0 -220 -110 -368q-126 -171 -338 -171q-68 0 -119 15.5t-111 56.5v-201q0 -60 6 -72q7 -15 22.5 -21.5t77.5 -6.5h47v-193h-622v193h34q69 0 83.5 5.5t23 23t8.5 71.5v896h-149v194 q108 13 184 32t154 53h94zM545 710v-326q0 -77 14.5 -109.5t50 -53t81.5 -20.5q81 0 134.5 75t53.5 228q0 142 -46.5 210.5t-114.5 68.5q-78 0 -173 -73z" glyph-name="p" horiz-adv-x="1311" unicode="p"/>
<glyph d="M1104 998v-1143q0 -63 6 -76q8 -17 26 -26q13 -6 75 -6h47v-193h-622v193h46q62 0 75.5 5t20.5 19t7 63v229q-82 -49 -146 -68t-133 -19q-171 0 -287 136q-135 157 -135 380q0 152 62 276t165.5 189t223.5 65q69 0 136.5 -22t164.5 -82l52 80h216zM785 281v335 q0 80 -14 110t-55 53.5t-88 23.5q-55 0 -101.5 -32.5t-67.5 -89.5q-30 -79 -30 -178q0 -92 25.5 -158.5t68.5 -98.5t87 -32q38 0 84.5 16.5t90.5 50.5z" glyph-name="q" horiz-adv-x="1270" unicode="q"/>
<glyph d="M520 1022v-145q80 84 138.5 114.5t112.5 30.5q49 0 87.5 -22.5t61 -64.5t22.5 -90q0 -63 -41.5 -114t-116.5 -51q-20 0 -35.5 3t-65.5 20q-26 8 -43 8q-26 0 -86 -33v-391q0 -50 7.5 -65t24.5 -22t74 -7h44v-193h-617v193h51q55 0 68.5 6t20.5 21t7 67v459h-147v192 q163 10 339 84h94z" glyph-name="r" horiz-adv-x="942" unicode="r"/>
<glyph d="M755 998h131l81 -278l-189 -76q-54 87 -135.5 136.5t-161.5 49.5q-53 0 -79 -18t-26 -43q0 -21 18.5 -39t76.5 -38l275 -98q73 -26 140 -65t100.5 -95.5t33.5 -132.5q0 -136 -104 -223q-122 -102 -304 -102q-156 0 -272 79l-28 -55h-133l-123 328l189 80 q71 -111 175 -174.5t191 -63.5q54 0 91 25q28 20 28 47q0 23 -22 44t-97 47l-216 75q-179 63 -243.5 134.5t-64.5 169.5q0 126 101 212q115 98 284 98q150 0 257 -68z" glyph-name="s" horiz-adv-x="1065" unicode="s"/>
<glyph d="M526 1341v-343h322v-213h-322v-348q0 -118 12.5 -151.5t46.5 -53.5q45 -27 103 -27q103 0 205 67v-214q-87 -41 -157.5 -57.5t-152.5 -16.5q-93 0 -164.5 23.5t-122 67t-70 92.5t-19.5 142v476h-150v192q80 26 137 74.5t91.5 116.5t47.5 173h193z" glyph-name="t" horiz-adv-x="942" unicode="t"/>
<glyph d="M53 998l467 9v-649q0 -69 8.5 -92t31 -37.5t56.5 -14.5q50 0 106 24q22 10 117 71v390q0 51 -8 70t-23 27.5t-58 8.5h-58v193l468 9v-716q0 -56 6.5 -70.5t21 -21t69.5 -6.5h53v-193l-439 -12v118q-88 -65 -177 -97.5t-179 -32.5q-72 0 -132.5 23.5t-101.5 63t-61 92.5 t-20 136v412q0 57 -6.5 72t-21.5 22.5t-64 7.5h-55v193z" glyph-name="u" unicode="u"/>
<glyph d="M696 998h531v-193q-67 -1 -78 -4q-17 -5 -35.5 -24t-37.5 -59l-327 -718h-268l-341 740q-12 25 -31 43q-15 14 -33 18q-12 4 -73 4v193h613v-193h-32q-59 0 -73 -9q-19 -12 -19 -31q0 -15 13 -47l155 -389l161 389q14 33 14 49q0 20 -21 30q-16 8 -71 8h-47v193z" glyph-name="v" horiz-adv-x="1229" unicode="v"/>
<glyph d="M16 998h529v-193h-22q-38 0 -49 -8q-14 -10 -14 -27q0 -15 9 -43l140 -432l121 337l-32 95q-14 42 -34.5 59t-60.5 19v193h503v-193h-41q-34 0 -47 -10t-13 -29q0 -18 12 -52l121 -359l122 359q12 35 12 53q0 19 -14.5 28.5t-60.5 9.5h-23v193h449v-193q-48 0 -63 -6 t-26 -19q-14 -19 -31 -66l-269 -714h-265l-149 403l-152 -403h-267l-263 714q-14 38 -34 63q-12 17 -25.5 22t-62.5 6v193z" glyph-name="w" horiz-adv-x="1638" unicode="w"/>
<glyph d="M46 998h607v-193q-49 0 -62 -8t-13 -24t26 -53l87 -119l88 119q28 38 28 55q0 16 -12.5 23t-72.5 7v193h465v-193q-60 0 -88.5 -12.5t-63.5 -52.5l-195 -226l212 -230q55 -59 87 -75t95 -16v-193h-640v193h36q43 0 56 8t13 21t-30 52l-133 171l-119 -161q-37 -49 -37 -63 q0 -13 12 -20.5t52 -7.5h43v-193h-492v193q45 -1 70.5 6t45 21t52.5 54l226 258l-189 208q-36 39 -65.5 52t-88.5 13v193z" glyph-name="x" horiz-adv-x="1229" unicode="x"/>
<glyph d="M16 998h624v-193h-41q-56 0 -70.5 -7.5t-14.5 -21.5q0 -12 21 -63l150 -361l157 361q18 41 18 59q0 16 -15 24.5t-69 8.5h-57v193h539v-193q-71 -1 -83 -5q-17 -4 -28 -15t-36 -61l-452 -927q-71 -145 -155 -203q-85 -58 -202 -58q-114 0 -184.5 60.5t-70.5 136.5 q0 60 42 103.5t101 43.5q40 0 78 -20q25 -13 51 -44q16 -20 25.5 -25.5t18.5 -5.5q21 0 41 20q30 31 68 113l38 82l-340 713q-25 54 -38.5 68t-30.5 19t-85 5v193z" glyph-name="y" horiz-adv-x="1270" unicode="y"/>
<glyph d="M221 998h848v-193l-595 -593h135q108 0 165.5 23t101.5 72q30 33 69 119l181 -68l-132 -358h-941v193l590 593h-92q-88 0 -135.5 -17.5t-91.5 -65.5q-22 -23 -79 -119l-175 81z" glyph-name="z" horiz-adv-x="1147" unicode="z"/>
<glyph d="M642 1419v-46q-71 -13 -111 -39t-62 -66.5t-22 -82.5q0 -65 23 -162q25 -104 25 -175q0 -79 -46 -151t-121 -117q-51 -30 -159 -60q118 -37 171 -71q78 -51 117.5 -121.5t39.5 -139.5q0 -55 -24 -156q-25 -101 -25 -170q0 -49 22 -91.5t59.5 -67t112.5 -39.5v-46 q-88 0 -126 8q-75 17 -143 63t-106 113.5t-38 136.5q0 64 31 184q23 90 23 156q0 88 -57 146q-47 48 -139 63v61q68 11 107.5 38t64 76t24.5 104q0 65 -22 150q-31 119 -31 178q0 56 29 116.5t82 107t122 71.5t179 29z" glyph-name="braceleft" horiz-adv-x="655" unicode="{"/>
<glyph d="M487 1468h254v-1914h-254v1914z" glyph-name="bar" horiz-adv-x="1229" unicode="|"/>
<glyph d="M14 -382v45q71 14 110.5 40t62 66t22.5 83q0 65 -23 162q-25 104 -25 174q0 79 46 151t121 118q50 30 159 59q-118 37 -171 72q-78 50 -118 120.5t-40 139.5q0 55 25 156q24 101 24 171q0 49 -22 91t-59.5 66.5t-111.5 39.5v47q88 0 125 -9q76 -16 144 -62t106 -114 t38 -136q0 -65 -31 -185q-23 -89 -23 -155q0 -88 57 -147q47 -48 139 -63v-61q-69 -11 -108 -37.5t-63.5 -76t-24.5 -103.5q0 -66 22 -150q30 -120 30 -178q0 -57 -28.5 -117t-81.5 -107t-122 -71.5t-179 -28.5z" glyph-name="braceright" horiz-adv-x="655" unicode="}"/>
<glyph d="M1016 886l111 -125q-63 -103 -106 -147.5t-89 -65t-96 -20.5q-35 0 -72 10.5t-157 60.5q-132 55 -154.5 62t-49.5 7q-49 0 -89.5 -33.5t-99.5 -142.5l-111 127q60 106 104.5 153.5t93 70.5t96.5 23q43 0 86 -12q61 -17 166 -63q109 -47 137 -55.5t49 -8.5q43 0 83 30.5 t98 128.5z" glyph-name="asciitilde" horiz-adv-x="1229" unicode="~"/>
<glyph glyph-name="nbspace" horiz-adv-x="696" unicode=" "/>
<glyph d="M370 605q-78 0 -132.5 55t-54.5 131q0 77 54.5 131.5t132.5 54.5q77 0 131.5 -54.5t54.5 -131.5t-54.5 -131.5t-131.5 -54.5zM270 537h194q16 -240 26 -320l62 -405q6 -48 6 -79q0 -49 -25.5 -94t-70 -70.5t-92.5 -25.5q-49 0 -94.5 26t-70.5 71t-25 96q0 38 10 100 q49 289 66 442q12 114 14 259z" glyph-name="exclamdown" horiz-adv-x="737" unicode="¡"/>
<glyph d="M618 1419h192v-244q166 -29 247.5 -104t81.5 -161q0 -57 -40.5 -96.5t-97.5 -39.5q-31 0 -55 9.5t-42 26.5q-9 9 -36 58q-36 64 -55.5 84.5t-44.5 31t-60 10.5q-91 0 -146.5 -78t-55.5 -183q0 -110 63.5 -191.5t179.5 -81.5q70 0 133.5 34.5t130.5 114.5l145 -126 q-69 -91 -149.5 -145.5t-198.5 -89.5v-270h-192v259q-138 19 -230.5 82t-148.5 168t-56 221q0 117 52 218t141 161.5t242 87.5v244z" glyph-name="cent" unicode="¢"/>
<glyph d="M1037 972q-9 77 -35 119t-73.5 67t-108.5 25q-91 0 -151 -46t-60 -126q0 -79 36 -156h343v-156h-296q30 -108 30 -200q0 -47 -22 -114q163 -68 190 -76q50 -14 101 -14q77 0 120 54t43 167q0 14 -1 44l194 8q4 -58 4 -105q0 -253 -97.5 -370t-234.5 -117 q-61 0 -117.5 17.5t-121.5 57.5l-160 112q-53 -90 -136.5 -138.5t-183.5 -48.5q-127 0 -209.5 81t-82.5 202q0 117 80.5 195t201.5 78q48 0 88 -13t89 -47q-17 60 -30.5 94.5t-60.5 132.5h-278v156h212q-22 63 -29.5 103t-7.5 82q0 108 56.5 192t175 135.5t275.5 51.5 q142 0 244 -50.5t157 -142t62 -228.5zM467 272q-78 80 -158 80q-44 0 -76 -29t-32 -70q0 -42 31.5 -69.5t82.5 -27.5q39 0 82.5 32.5t69.5 83.5z" glyph-name="sterling" unicode="£"/>
<glyph d="M89 1105l140 142l136 -135q57 38 119 56.5t128 18.5t129 -18.5t123 -56.5l135 135l140 -142l-134 -135q74 -126 74 -253q0 -130 -74 -245l134 -133l-140 -141l-135 133q-61 -38 -125 -57.5t-130 -19.5t-127 19.5t-117 57.5l-133 -133l-143 141l135 133q-75 127 -75 255 q0 130 75 243zM615 988q-111 0 -189.5 -78t-78.5 -189t78.5 -189t189.5 -78q110 0 188.5 78t78.5 189t-78.5 189t-188.5 78z" glyph-name="currency" horiz-adv-x="1229" unicode="¤"/>
<glyph d="M728 793h10l199 308q27 41 30 46q4 11 4 22q0 17 -11.5 25t-53.5 8h-71v193h556v-193q-73 -1 -102.5 -17t-70.5 -77l-216 -315h245v-145h-345l-56 -82v-87h401v-145h-401q0 -81 7.5 -100.5t28 -30t82.5 -10.5h49v-193h-680v193h37q73 0 93 10t30 32.5t10 98.5h-398v145 h398v64l-69 105h-329v145h234l-207 315q-44 66 -77 83q-24 11 -95 11v193h693v-193h-52q-55 0 -69 -8.5t-14 -27.5q0 -26 32 -78z" glyph-name="yen" unicode="¥"/>
<glyph d="M488 1468h254v-827l-254 -96v923zM488 381l254 96v-923h-254v827z" glyph-name="brokenbar" horiz-adv-x="1229" unicode="¦"/>
<glyph d="M292 815q-70 46 -103 95q-46 70 -46 150q0 90 58.5 172t176 134.5t264.5 52.5q207 0 351 -104q117 -85 117 -191q0 -59 -40 -98.5t-105 -39.5q-62 0 -106 30q-24 17 -55 76q-35 67 -81.5 95.5t-111.5 28.5q-77 0 -121.5 -32t-44.5 -72q0 -38 33 -69q32 -31 141 -64 l165 -50q208 -63 286 -147q78 -85 78 -197q0 -69 -30.5 -130t-102.5 -126q73 -58 103.5 -117t30.5 -133q0 -107 -63.5 -200t-183.5 -147t-302 -54q-171 0 -287.5 45.5t-175 119t-58.5 144.5t46.5 118.5t117.5 47.5q39 0 69.5 -14t50.5 -36q10 -10 39 -62q45 -79 70 -103 t72 -40.5t100 -16.5q61 0 109 20t70.5 51.5t22.5 65.5q0 48 -40 89q-31 30 -165 73l-177 58q-184 59 -262 144t-78 183q0 70 42 136.5t126 113.5zM838 417q23 26 31 45t8 42q0 47 -35 78q-46 41 -166 75l-134 39q-44 12 -72 24q-57 -47 -57 -89q0 -38 33 -67q33 -30 140 -64 l145 -45q70 -22 107 -38z" glyph-name="section" horiz-adv-x="1229" unicode="§"/>
<glyph d="M268 1420q59 0 102.5 -44t43.5 -103q0 -56 -41.5 -97t-99.5 -41q-59 0 -101.5 42t-42.5 102q0 61 40 101t99 40zM750 1420q58 0 101.5 -44t43.5 -103q0 -56 -41.5 -97t-98.5 -41q-60 0 -102.5 42t-42.5 102q0 61 40 101t100 40z" glyph-name="dieresis" horiz-adv-x="1024" unicode="¨"/>
<glyph d="M758 1387q190 0 355 -95t260 -259.5t95 -354.5t-95 -354.5t-260 -259.5t-355 -95t-354.5 95t-259.5 259.5t-95 354.5t95 354.5t259.5 259.5t354.5 95zM758 1298q-166 0 -310 -83t-227 -227t-83 -310t83 -310t227 -227t310 -83t310 83t227 227t83 310t-83 310t-227 227 t-310 83zM1093 1106v-264h-38q-19 101 -86.5 158.5t-159.5 57.5q-114 0 -186 -90t-72 -274q0 -139 29 -214t91.5 -117.5t132.5 -42.5q46 0 93.5 15.5t85.5 42t82 80.5v-70q-54 -57 -118 -85q-92 -42 -200 -42q-121 0 -219 53t-150 144t-52 210q0 191 125 315t315 124 q47 0 89.5 -8t107.5 -32q32 -12 46 -12q39 0 46 51h38z" glyph-name="copyright" horiz-adv-x="1515" unicode="©"/>
<glyph d="M785 933v-146q-65 -19 -117 -19q-59 0 -100 16t-77 53q-116 -69 -219 -69q-101 0 -159.5 51.5t-58.5 125.5q0 81 77 132q96 65 324 84q0 65 -5.5 83t-21.5 29t-44 11q-26 0 -41 -10t-38 -46q-19 -33 -43.5 -45.5t-61.5 -12.5q-50 0 -76.5 24t-26.5 66q0 38 25 67 q34 40 110 66t170 26q93 0 159 -29.5t92 -70t26 -120.5v-215q0 -41 7 -50q13 -14 38 -14q16 0 61 13zM455 1053q-83 -13 -106 -22q-31 -13 -43.5 -29.5t-12.5 -40.5q0 -27 17 -43.5t47 -16.5q34 0 98 36v116z" glyph-name="ordfeminine" horiz-adv-x="819" unicode="ª"/>
<glyph d="M253 872l130 -45l-110 -330l110 -329l-130 -45l-198 374zM621 872l131 -45l-111 -330l111 -329l-131 -45l-197 374z" glyph-name="guillemotleft" horiz-adv-x="819" unicode="«"/>
<glyph d="M1110 396h-188v362h-803v188h991v-550z" glyph-name="logicalnot" horiz-adv-x="1229" unicode="¬"/>
<glyph d="M758 1387q190 0 355 -95t260 -259.5t95 -354.5t-95 -354.5t-260 -259.5t-355 -95t-354.5 95t-259.5 259.5t-95 354.5t95 354.5t259.5 259.5t354.5 95zM758 1298q-166 0 -310 -83t-227 -227t-83 -310t83 -310t227 -227t310 -83t310 83t227 227t83 310t-83 310t-227 227 t-310 83zM379 1090h362q149 0 213.5 -24t103 -77.5t38.5 -117.5q0 -80 -55 -139q-43 -46 -124 -68l137 -250q27 -50 57 -77q18 -16 48 -22v-34h-242l-205 368h-46v-198q0 -66 9.5 -88.5t31.5 -34t79 -13.5v-34h-423v34q57 0 76 17q29 26 29 119v472q0 81 -17.5 104t-71.5 29 v34zM666 700q34 -5 56 -5q67 0 113 49.5t46 130.5q0 84 -43.5 127.5t-133.5 43.5h-38v-346z" glyph-name="registered" horiz-adv-x="1515" unicode="®"/>
<glyph d="M-12 1596h1048v-102h-1048v102z" glyph-name="overscore" horiz-adv-x="1024" unicode="¯"/>
<glyph d="M409 1419q114 0 194 -80t80 -194q0 -113 -80 -193t-194 -80q-113 0 -193 80t-80 193q0 114 80 194t193 80zM409 1296q-61 0 -104.5 -44t-43.5 -107q0 -62 43.5 -106t104.5 -44q62 0 105.5 44t43.5 106q0 63 -43.5 107t-105.5 44z" glyph-name="degree" horiz-adv-x="819" unicode="°"/>
<glyph d="M1058 737h-395v-395h-201v395h-395v189h395v395h201v-395h395v-189zM1058 74h-991v189h991v-189z" glyph-name="plusminus" horiz-adv-x="1124" unicode="±"/>
<glyph d="M197 1107l-142 -11q-10 36 -10 64q0 125 108.5 192t252.5 67q102 0 181 -33.5t116.5 -84t37.5 -108.5q0 -87 -77.5 -157.5t-302.5 -176.5h166q48 0 59 4t17.5 14.5t15.5 55.5h139l-57 -269h-95l-8 24h-547v119q122 66 303 191q101 70 129 114q21 33 21 64q0 36 -39 64 t-108 28q-79 0 -122.5 -34t-43.5 -82q0 -11 6 -45z" glyph-name="twosuperior" horiz-adv-x="811" unicode="²"/>
<glyph d="M228 1157h-144v32q0 100 74 157q94 73 247 73q97 0 171.5 -29.5t109.5 -74.5t35 -90q0 -42 -29.5 -83.5t-83.5 -67.5q73 -22 111 -65.5t38 -100.5q0 -92 -87 -157q-99 -74 -268 -74q-165 0 -270 71q-84 57 -84 131q0 39 31 67t78 28q80 0 111 -80q16 -41 28 -54t41 -23.5 t60 -10.5q58 0 99 32q30 23 30 65q0 45 -39 71.5t-139 26.5h-51v123h51q94 0 125.5 19.5t31.5 51.5q0 29 -32.5 51t-97.5 22q-82 0 -120 -37q-24 -24 -27 -74z" glyph-name="threesuperior" horiz-adv-x="811" unicode="³"/>
<glyph d="M185 1130l-40 101l215 192q93 82 171 82q60 0 102 -43t42 -107q0 -47 -36 -91t-127 -64z" glyph-name="acute" horiz-adv-x="819" unicode="´"/>
<glyph d="M159 998h293v-595q0 -109 13.5 -147.5t48 -62.5t75.5 -24q25 0 48 8.5t89 47.5v773h295v-660q0 -90 6 -115q8 -34 24.5 -48.5t40.5 -14.5q27 0 65 20v-63q-117 -82 -183 -112q-46 -21 -80 -21q-41 0 -82 38.5t-67 115.5q-73 -85 -139.5 -126.5t-141.5 -41.5 q-76 0 -135 44q-41 30 -81 103q1 -45 6 -70q7 -34 26 -86q36 -97 44.5 -132.5t8.5 -67.5q0 -58 -38.5 -96.5t-97.5 -38.5q-56 0 -93 39t-37 99q0 39 13 99q42 187 51 244q12 80 18 171q10 140 10 246v474z" glyph-name="mu1" horiz-adv-x="1180" unicode="µ"/>
<glyph d="M921 1244v-1686h-136v871q-153 7 -248 40.5t-156.5 92t-97.5 147.5t-36 194q0 119 37.5 199t117.5 146t174 87t339 21h476v-80h-44q-59 0 -90 -18.5t-45 -54.5q-10 -24 -10 -130v-1515h-135v1686h-146z" glyph-name="paragraph" horiz-adv-x="1638" unicode="¶"/>
<glyph d="M324 876q59 0 102.5 -43.5t43.5 -103.5q0 -56 -41.5 -96.5t-99.5 -40.5q-59 0 -101.5 42t-42.5 101q0 61 40 101t99 40z" glyph-name="middot" horiz-adv-x="655" unicode="·"/>
<glyph d="M351 0v-91q44 5 68 5q75 0 123 -43t48 -110q0 -83 -65 -140t-176 -57q-95 0 -148.5 37t-53.5 85q0 33 19 51.5t53 18.5q28 0 61 -25q26 -21 41.5 -27.5t32.5 -6.5q30 0 45 16q21 23 21 50q0 35 -30.5 58.5t-90.5 23.5q-30 0 -74 -3l19 158h107z" glyph-name="cedilla" horiz-adv-x="737" unicode="¸"/>
<glyph d="M543 1419v-556q0 -37 7 -43q9 -8 54 -8h95v-124h-533v124h96q41 0 51 3.5t14 10.5t4 37v372h-165v124q109 8 175.5 21.5t129.5 38.5h72z" glyph-name="onesuperior" horiz-adv-x="811" unicode="¹"/>
<glyph d="M408 1419q173 0 275 -92t102 -234q0 -144 -101 -237t-274 -93q-176 0 -276 91.5t-100 238.5q0 141 97 228q109 98 277 98zM410 1260q-56 0 -90.5 -42t-34.5 -126q0 -90 34 -130.5t87 -40.5q56 0 91.5 42.5t35.5 126.5q0 85 -34 127.5t-89 42.5z" glyph-name="ordmasculine" horiz-adv-x="819" unicode="º"/>
<glyph d="M566 123l-130 45l110 330l-110 329l130 45l198 -374zM197 123l-130 45l110 330l-110 329l130 45l198 -374z" glyph-name="guillemotright" horiz-adv-x="819" unicode="»"/>
<glyph d="M1387 1419l-869 -1443h-160l862 1443h167zM617 1419v-556q0 -37 7 -43q9 -8 54 -8h95v-124h-533v124h96q41 0 51 3.5t14 10.5t4 37v372h-165v124q109 8 175.5 21.5t129.5 38.5h72zM1570 719h203v-374h156v-154h-156v-191h-211v191h-388v175zM1562 542l-220 -197h220v197z " glyph-name="onequarter" horiz-adv-x="2027" unicode="¼"/>
<glyph d="M1387 1419l-869 -1443h-160l862 1443h167zM617 1419v-556q0 -37 7 -43q9 -8 54 -8h95v-124h-533v124h96q41 0 51 3.5t14 10.5t4 37v372h-165v124q109 8 175.5 21.5t129.5 38.5h72zM1339 419l-142 -11q-10 36 -10 64q0 125 108.5 192t252.5 67q102 0 181 -33.5t116.5 -84 t37.5 -108.5q0 -87 -77.5 -157.5t-302.5 -176.5h166q48 0 59 4t17.5 14.5t15.5 55.5h139l-57 -269h-95l-8 24h-547v119q122 66 303 191q101 70 129 114q21 33 21 64q0 36 -39 64t-108 28q-79 0 -122.5 -34t-43.5 -82q0 -11 6 -45z" glyph-name="onehalf" horiz-adv-x="2027" unicode="½"/>
<glyph d="M1387 1419l-869 -1443h-160l862 1443h167zM303 1157h-144v32q0 100 74 157q94 73 247 73q97 0 171.5 -29.5t109.5 -74.5t35 -90q0 -42 -29.5 -83.5t-83.5 -67.5q73 -22 111 -65.5t38 -100.5q0 -92 -87 -157q-99 -74 -268 -74q-165 0 -270 71q-84 57 -84 131q0 39 31 67 t78 28q80 0 111 -80q16 -41 28 -54t41 -23.5t60 -10.5q58 0 99 32q30 23 30 65q0 45 -39 71.5t-139 26.5h-51v123h51q94 0 125.5 19.5t31.5 51.5q0 29 -32.5 51t-97.5 22q-82 0 -120 -37q-24 -24 -27 -74zM1571 719h203v-374h156v-154h-156v-191h-211v191h-388v175z M1563 542l-220 -197h220v197z" glyph-name="threequarters" horiz-adv-x="2027" unicode="¾"/>
<glyph d="M838 605q-77 0 -131.5 55t-54.5 131q0 77 54.5 131.5t131.5 54.5q78 0 132.5 -54.5t54.5 -131.5t-55 -131.5t-132 -54.5zM743 538h191v-381h-63q-188 0 -267 -19t-114 -59t-35 -89q0 -103 104 -171q88 -58 193 -58q53 0 96 25t91 93q44 61 74 78q40 23 84 23 q63 0 107 -43t44 -105q0 -127 -149 -208t-346 -81q-183 0 -334 69.5t-223.5 176.5t-72.5 229q0 133 81 230t225 141q93 28 314 33v116z" glyph-name="questiondown" unicode="¿"/>
<glyph d="M583 1395h313l419 -1077q34 -86 60.5 -106t97.5 -19v-193h-660v193l40 1q55 0 77 14.5t22 35.5q0 18 -19 74l-41 127h-425l-52 -141q-16 -45 -16 -59q0 -16 11.5 -29t37.5 -19q17 -4 94 -4v-193h-540v193q52 0 76 9t39.5 27t34.5 67zM540 644h279l-136 384zM901 1490 l-326 70q-85 18 -124 59t-39 98q0 39 19 73.5t53.5 55t67.5 20.5q82 0 175 -83l215 -192z" glyph-name="Agrave" horiz-adv-x="1475" unicode="À"/>
<glyph d="M583 1395h313l419 -1077q34 -86 60.5 -106t97.5 -19v-193h-660v193l40 1q55 0 77 14.5t22 35.5q0 18 -19 74l-41 127h-425l-52 -141q-16 -45 -16 -59q0 -16 11.5 -29t37.5 -19q17 -4 94 -4v-193h-540v193q52 0 76 9t39.5 27t34.5 67zM540 644h279l-136 384zM573 1490 l-40 101l215 192q93 82 171 82q60 0 102 -43t42 -107q0 -47 -36 -91t-127 -64z" glyph-name="Aacute" horiz-adv-x="1475" unicode="Á"/>
<glyph d="M583 1395h313l419 -1077q34 -86 60.5 -106t97.5 -19v-193h-660v193l40 1q55 0 77 14.5t22 35.5q0 18 -19 74l-41 127h-425l-52 -141q-16 -45 -16 -59q0 -16 11.5 -29t37.5 -19q17 -4 94 -4v-193h-540v193q52 0 76 9t39.5 27t34.5 67zM540 644h279l-136 384zM1110 1629 l-79 -135l-293 109l-293 -109l-79 135l372 225z" glyph-name="Acircumflex" horiz-adv-x="1475" unicode="Â"/>
<glyph d="M583 1395h313l419 -1077q34 -86 60.5 -106t97.5 -19v-193h-660v193l40 1q55 0 77 14.5t22 35.5q0 18 -19 74l-41 127h-425l-52 -141q-16 -45 -16 -59q0 -16 11.5 -29t37.5 -19q17 -4 94 -4v-193h-540v193q52 0 76 9t39.5 27t34.5 67zM540 644h279l-136 384zM996 1789 l103 -51q-18 -88 -101 -157q-70 -57 -173 -57q-73 0 -203 39q-54 16 -71 16q-13 0 -24 -5.5t-38 -30.5l-113 63q28 81 103 137.5t154 56.5q29 0 55 -4.5t89 -22.5q96 -28 135 -28q18 0 31.5 5.5t37.5 26.5z" glyph-name="Atilde" horiz-adv-x="1475" unicode="Ã"/>
<glyph d="M583 1395h313l419 -1077q34 -86 60.5 -106t97.5 -19v-193h-660v193l40 1q55 0 77 14.5t22 35.5q0 18 -19 74l-41 127h-425l-52 -141q-16 -45 -16 -59q0 -16 11.5 -29t37.5 -19q17 -4 94 -4v-193h-540v193q52 0 76 9t39.5 27t34.5 67zM540 644h279l-136 384zM494 1780 q59 0 102.5 -44t43.5 -103q0 -56 -41.5 -97t-99.5 -41q-59 0 -101.5 42t-42.5 102q0 61 40 101t99 40zM976 1780q58 0 101.5 -44t43.5 -103q0 -56 -41.5 -97t-98.5 -41q-60 0 -102.5 42t-42.5 102q0 61 40 101t100 40z" glyph-name="Adieresis" horiz-adv-x="1475" unicode="Ä"/>
<glyph d="M583 1395h313l419 -1077q34 -86 60.5 -106t97.5 -19v-193h-660v193l40 1q55 0 77 14.5t22 35.5q0 18 -19 74l-41 127h-425l-52 -141q-16 -45 -16 -59q0 -16 11.5 -29t37.5 -19q17 -4 94 -4v-193h-540v193q52 0 76 9t39.5 27t34.5 67zM540 644h279l-136 384zM949 1717 q0 -85 -61.5 -145.5t-149.5 -60.5q-87 0 -149 61t-62 147t62 147t149 61q88 0 149.5 -61.5t61.5 -148.5zM666 1721q0 -33 21 -55t50 -22t50 22t21 53t-21 53t-50 22q-30 0 -50.5 -21.5t-20.5 -51.5z" glyph-name="Aring" horiz-adv-x="1475" unicode="Å"/>
<glyph d="M417 1395h1685l159 -440l-182 -67q-57 123 -114 181.5t-130 79.5t-181 21h-225v-347h87q81 0 108.5 12t40.5 38t13 99v46h180v-587h-180v60q0 58 -12.5 87.5t-37.5 39.5t-104 10h-95v-317q0 -49 6.5 -63t19.5 -19.5t69 -5.5h120q192 0 312 84.5t188 270.5l181 -60 l-181 -518h-1226v193h33q70 0 91 9t31 31t10 88v226h-524l-113 -250q-15 -34 -15 -54q0 -27 23 -41q17 -9 67 -9h62v-193h-584v193q53 0 78.5 8.5t39.5 23.5q22 24 45 72l381 790q24 50 24 70q0 25 -27 36q-19 9 -78 9h-45v193zM1083 748v422h-247l-188 -422h435z" glyph-name="AE" horiz-adv-x="2335" unicode="Æ"/>
<glyph d="M1153 1395h142l137 -501l-186 -54q-93 179 -175 254q-114 103 -247 103q-97 0 -181.5 -54t-134 -159t-49.5 -246q0 -215 113.5 -370t297.5 -155q117 0 225 67q135 83 233 223l155 -115q-151 -206 -276 -287q-193 -125 -430 -125q-197 0 -356.5 94.5t-254.5 264.5t-95 371 q0 200 92.5 364.5t252 256.5t355.5 92q199 0 349 -84zM801 0v-91q44 5 68 5q75 0 123 -43t48 -110q0 -83 -65 -140t-176 -57q-95 0 -148.5 37t-53.5 85q0 33 19 51.5t53 18.5q28 0 61 -25q26 -21 41.5 -27.5t32.5 -6.5q30 0 45 16q21 23 21 50q0 35 -30.5 58.5t-90.5 23.5 q-30 0 -74 -3l19 158h107z" glyph-name="Ccedilla" horiz-adv-x="1515" unicode="Ç"/>
<glyph d="M78 1395h1164l159 -441l-181 -65q-46 108 -107.5 174t-136 87.5t-173.5 21.5h-213v-348h70q79 0 106.5 11.5t39.5 36t12 97.5v53h178v-590h-178v60q0 61 -14.5 89t-39.5 38t-111 10h-63v-320q0 -51 5 -62t19.5 -17t62.5 -6h117q131 0 221 37.5t160.5 121t108.5 198.5 l183 -63l-183 -518h-1206v193h35q70 0 94 10t34 35q5 15 5 85v760q0 62 -8.5 81t-26.5 28.5t-71 9.5h-62v193zM961 1490l-326 70q-85 18 -124 59t-39 98q0 39 19 73.5t53.5 55t67.5 20.5q82 0 175 -83l215 -192z" glyph-name="Egrave" horiz-adv-x="1475" unicode="È"/>
<glyph d="M78 1395h1164l159 -441l-181 -65q-46 108 -107.5 174t-136 87.5t-173.5 21.5h-213v-348h70q79 0 106.5 11.5t39.5 36t12 97.5v53h178v-590h-178v60q0 61 -14.5 89t-39.5 38t-111 10h-63v-320q0 -51 5 -62t19.5 -17t62.5 -6h117q131 0 221 37.5t160.5 121t108.5 198.5 l183 -63l-183 -518h-1206v193h35q70 0 94 10t34 35q5 15 5 85v760q0 62 -8.5 81t-26.5 28.5t-71 9.5h-62v193zM512 1490l-40 101l215 192q93 82 171 82q60 0 102 -43t42 -107q0 -47 -36 -91t-127 -64z" glyph-name="Eacute" horiz-adv-x="1475" unicode="É"/>
<glyph d="M78 1395h1164l159 -441l-181 -65q-46 108 -107.5 174t-136 87.5t-173.5 21.5h-213v-348h70q79 0 106.5 11.5t39.5 36t12 97.5v53h178v-590h-178v60q0 61 -14.5 89t-39.5 38t-111 10h-63v-320q0 -51 5 -62t19.5 -17t62.5 -6h117q131 0 221 37.5t160.5 121t108.5 198.5 l183 -63l-183 -518h-1206v193h35q70 0 94 10t34 35q5 15 5 85v760q0 62 -8.5 81t-26.5 28.5t-71 9.5h-62v193zM1109 1629l-79 -135l-293 109l-293 -109l-79 135l372 225z" glyph-name="Ecircumflex" horiz-adv-x="1475" unicode="Ê"/>
<glyph d="M78 1395h1164l159 -441l-181 -65q-46 108 -107.5 174t-136 87.5t-173.5 21.5h-213v-348h70q79 0 106.5 11.5t39.5 36t12 97.5v53h178v-590h-178v60q0 61 -14.5 89t-39.5 38t-111 10h-63v-320q0 -51 5 -62t19.5 -17t62.5 -6h117q131 0 221 37.5t160.5 121t108.5 198.5 l183 -63l-183 -518h-1206v193h35q70 0 94 10t34 35q5 15 5 85v760q0 62 -8.5 81t-26.5 28.5t-71 9.5h-62v193zM493 1780q59 0 102.5 -44t43.5 -103q0 -56 -41.5 -97t-99.5 -41q-59 0 -101.5 42t-42.5 102q0 61 40 101t99 40zM975 1780q58 0 101.5 -44t43.5 -103 q0 -56 -41.5 -97t-98.5 -41q-60 0 -102.5 42t-42.5 102q0 61 40 101t100 40z" glyph-name="Edieresis" horiz-adv-x="1475" unicode="Ë"/>
<glyph d="M70 1395h680v-193h-62q-54 0 -71.5 -9.5t-26 -30t-8.5 -78.5v-772q0 -63 7 -81t24 -26q21 -12 63 -12h74v-193h-680v193h55q59 0 77 8.5t26.5 27t8.5 73.5v775q0 65 -8.5 85.5t-28.5 31.5q-14 8 -68 8h-62v193zM574 1490l-326 70q-85 18 -124 59t-39 98q0 39 19 73.5 t53.5 55t67.5 20.5q82 0 175 -83l215 -192z" glyph-name="Igrave" horiz-adv-x="819" unicode="Ì"/>
<glyph d="M70 1395h680v-193h-62q-54 0 -71.5 -9.5t-26 -30t-8.5 -78.5v-772q0 -63 7 -81t24 -26q21 -12 63 -12h74v-193h-680v193h55q59 0 77 8.5t26.5 27t8.5 73.5v775q0 65 -8.5 85.5t-28.5 31.5q-14 8 -68 8h-62v193zM245 1490l-40 101l215 192q93 82 171 82q60 0 102 -43 t42 -107q0 -47 -36 -91t-127 -64z" glyph-name="Iacute" horiz-adv-x="819" unicode="Í"/>
<glyph d="M70 1395h680v-193h-62q-54 0 -71.5 -9.5t-26 -30t-8.5 -78.5v-772q0 -63 7 -81t24 -26q21 -12 63 -12h74v-193h-680v193h55q59 0 77 8.5t26.5 27t8.5 73.5v775q0 65 -8.5 85.5t-28.5 31.5q-14 8 -68 8h-62v193zM782 1629l-79 -135l-293 109l-293 -109l-79 135l372 225z " glyph-name="Icircumflex" horiz-adv-x="819" unicode="Î"/>
<glyph d="M70 1395h680v-193h-62q-54 0 -71.5 -9.5t-26 -30t-8.5 -78.5v-772q0 -63 7 -81t24 -26q21 -12 63 -12h74v-193h-680v193h55q59 0 77 8.5t26.5 27t8.5 73.5v775q0 65 -8.5 85.5t-28.5 31.5q-14 8 -68 8h-62v193zM166 1780q59 0 102.5 -44t43.5 -103q0 -56 -41.5 -97 t-99.5 -41q-59 0 -101.5 42t-42.5 102q0 61 40 101t99 40zM648 1780q58 0 101.5 -44t43.5 -103q0 -56 -41.5 -97t-98.5 -41q-60 0 -102.5 42t-42.5 102q0 61 40 101t100 40z" glyph-name="Idieresis" horiz-adv-x="819" unicode="Ï"/>
<glyph d="M243 625h-167v145h167v312q0 64 -8.5 82.5t-28 28t-82.5 9.5h-48v193h731q249 0 396 -79t234.5 -234t87.5 -372q0 -151 -44.5 -270t-132.5 -214.5t-189 -143.5q-76 -36 -215.5 -59t-223.5 -23h-644v193h48q61 0 80 10t31 34q8 19 8 83v305zM586 625v-321q0 -44 5 -54 q8 -15 23.5 -20.5t74.5 -5.5q164 0 256.5 50.5t149.5 162t57 265.5q0 152 -53.5 264.5t-132.5 158.5t-226 46h-154v-401h258v-145h-258z" glyph-name="Eth" horiz-adv-x="1597" unicode="Ð"/>
<glyph d="M78 1395h567l409 -814v498q0 64 -7 80q-10 24 -27 33.5t-66 9.5h-68v193h576v-193h-64q-48 0 -68.5 -11t-28.5 -30t-8 -82v-1079h-287l-518 1028v-719q0 -62 7.5 -79t27 -27t67.5 -10h67v-193h-579v193h60q50 0 68.5 8.5t29.5 29.5t11 63v800q0 46 -10 67.5t-27 31 t-57 9.5h-75v193zM1016 1789l103 -51q-18 -88 -101 -157q-70 -57 -173 -57q-73 0 -203 39q-54 16 -71 16q-13 0 -24 -5.5t-38 -30.5l-113 63q28 81 103 137.5t154 56.5q29 0 55 -4.5t89 -22.5q96 -28 135 -28q18 0 31.5 5.5t37.5 26.5z" glyph-name="Ntilde" horiz-adv-x="1515" unicode="Ñ"/>
<glyph d="M825 1419q332 0 537.5 -202t205.5 -519q0 -213 -94 -378t-259.5 -254.5t-399.5 -89.5q-309 0 -506 170q-238 205 -238 548q0 319 208.5 522t545.5 203zM829 1197q-159 0 -253 -119q-118 -150 -118 -387t110 -375q95 -118 251 -118q157 0 251 118q111 141 111 377 q0 166 -47.5 279t-128.5 169t-176 56zM983 1490l-326 70q-85 18 -124 59t-39 98q0 39 19 73.5t53.5 55t67.5 20.5q82 0 175 -83l215 -192z" glyph-name="Ograve" horiz-adv-x="1638" unicode="Ò"/>
<glyph d="M825 1419q332 0 537.5 -202t205.5 -519q0 -213 -94 -378t-259.5 -254.5t-399.5 -89.5q-309 0 -506 170q-238 205 -238 548q0 319 208.5 522t545.5 203zM829 1197q-159 0 -253 -119q-118 -150 -118 -387t110 -375q95 -118 251 -118q157 0 251 118q111 141 111 377 q0 166 -47.5 279t-128.5 169t-176 56zM655 1490l-40 101l215 192q93 82 171 82q60 0 102 -43t42 -107q0 -47 -36 -91t-127 -64z" glyph-name="Oacute" horiz-adv-x="1638" unicode="Ó"/>
<glyph d="M825 1419q332 0 537.5 -202t205.5 -519q0 -213 -94 -378t-259.5 -254.5t-399.5 -89.5q-309 0 -506 170q-238 205 -238 548q0 319 208.5 522t545.5 203zM829 1197q-159 0 -253 -119q-118 -150 -118 -387t110 -375q95 -118 251 -118q157 0 251 118q111 141 111 377 q0 166 -47.5 279t-128.5 169t-176 56zM1192 1629l-79 -135l-293 109l-293 -109l-79 135l372 225z" glyph-name="Ocircumflex" horiz-adv-x="1638" unicode="Ô"/>
<glyph d="M825 1419q332 0 537.5 -202t205.5 -519q0 -213 -94 -378t-259.5 -254.5t-399.5 -89.5q-309 0 -506 170q-238 205 -238 548q0 319 208.5 522t545.5 203zM829 1197q-159 0 -253 -119q-118 -150 -118 -387t110 -375q95 -118 251 -118q157 0 251 118q111 141 111 377 q0 166 -47.5 279t-128.5 169t-176 56zM1088 1789l103 -51q-18 -88 -101 -157q-70 -57 -173 -57q-73 0 -203 39q-54 16 -71 16q-13 0 -24 -5.5t-38 -30.5l-113 63q28 81 103 137.5t154 56.5q29 0 55 -4.5t89 -22.5q96 -28 135 -28q18 0 31.5 5.5t37.5 26.5z" glyph-name="Otilde" horiz-adv-x="1638" unicode="Õ"/>
<glyph d="M825 1419q332 0 537.5 -202t205.5 -519q0 -213 -94 -378t-259.5 -254.5t-399.5 -89.5q-309 0 -506 170q-238 205 -238 548q0 319 208.5 522t545.5 203zM829 1197q-159 0 -253 -119q-118 -150 -118 -387t110 -375q95 -118 251 -118q157 0 251 118q111 141 111 377 q0 166 -47.5 279t-128.5 169t-176 56zM575 1780q59 0 102.5 -44t43.5 -103q0 -56 -41.5 -97t-99.5 -41q-59 0 -101.5 42t-42.5 102q0 61 40 101t99 40zM1057 1780q58 0 101.5 -44t43.5 -103q0 -56 -41.5 -97t-98.5 -41q-60 0 -102.5 42t-42.5 102q0 61 40 101t100 40z" glyph-name="Odieresis" horiz-adv-x="1638" unicode="Ö"/>
<glyph d="M944 234l-326 326l-326 -326l-140 140l326 326l-326 326l134 134l326 -326l326 326l140 -140l-326 -326l325 -325z" glyph-name="multiply" horiz-adv-x="1229" unicode="×"/>
<glyph d="M1306 1267l157 152l101 -104l-154 -149q159 -188 159 -469q0 -213 -94 -377.5t-259.5 -254t-398.5 -89.5q-149 0 -267.5 37t-215.5 113l-156 -150l-101 104l153 147q-80 98 -119 211.5t-39 254.5q0 320 208.5 523t545.5 203q146 0 262 -37t218 -115zM1089 1057 q-45 66 -115.5 103.5t-150.5 37.5q-154 0 -249 -121q-116 -150 -116 -385q0 -124 29 -216zM1152 917l-600 -580q98 -139 266 -139q158 0 251 118q112 141 112 377q0 126 -29 224z" glyph-name="Oslash" horiz-adv-x="1638" unicode="Ø"/>
<glyph d="M37 1395h681v-193h-67q-46 0 -65.5 -11t-28.5 -31.5t-9 -83.5v-508q0 -142 28.5 -212t86 -106.5t139.5 -36.5t146 40t91.5 101.5t27.5 203.5v560q0 35 -9 50q-12 20 -32 28q-14 6 -71 6h-54v193h577v-193h-45q-67 0 -83 -8q-24 -12 -35 -35q-8 -15 -8 -83v-550 q0 -152 -44 -255q-61 -140 -194.5 -217.5t-316.5 -77.5q-129 0 -231 39.5t-178.5 113t-107 155.5t-30.5 242v539q0 74 -8 95.5t-26 31.5t-70 10h-64v193zM921 1490l-326 70q-85 18 -124 59t-39 98q0 39 19 73.5t53.5 55t67.5 20.5q82 0 175 -83l215 -192z" glyph-name="Ugrave" horiz-adv-x="1515" unicode="Ù"/>
<glyph d="M37 1395h681v-193h-67q-46 0 -65.5 -11t-28.5 -31.5t-9 -83.5v-508q0 -142 28.5 -212t86 -106.5t139.5 -36.5t146 40t91.5 101.5t27.5 203.5v560q0 35 -9 50q-12 20 -32 28q-14 6 -71 6h-54v193h577v-193h-45q-67 0 -83 -8q-24 -12 -35 -35q-8 -15 -8 -83v-550 q0 -152 -44 -255q-61 -140 -194.5 -217.5t-316.5 -77.5q-129 0 -231 39.5t-178.5 113t-107 155.5t-30.5 242v539q0 74 -8 95.5t-26 31.5t-70 10h-64v193zM643 1490l-40 101l215 192q93 82 171 82q60 0 102 -43t42 -107q0 -47 -36 -91t-127 -64z" glyph-name="Uacute" horiz-adv-x="1515" unicode="Ú"/>
<glyph d="M37 1395h681v-193h-67q-46 0 -65.5 -11t-28.5 -31.5t-9 -83.5v-508q0 -142 28.5 -212t86 -106.5t139.5 -36.5t146 40t91.5 101.5t27.5 203.5v560q0 35 -9 50q-12 20 -32 28q-14 6 -71 6h-54v193h577v-193h-45q-67 0 -83 -8q-24 -12 -35 -35q-8 -15 -8 -83v-550 q0 -152 -44 -255q-61 -140 -194.5 -217.5t-316.5 -77.5q-129 0 -231 39.5t-178.5 113t-107 155.5t-30.5 242v539q0 74 -8 95.5t-26 31.5t-70 10h-64v193zM1169 1629l-79 -135l-293 109l-293 -109l-79 135l372 225z" glyph-name="Ucircumflex" horiz-adv-x="1515" unicode="Û"/>
<glyph d="M37 1395h681v-193h-67q-46 0 -65.5 -11t-28.5 -31.5t-9 -83.5v-508q0 -142 28.5 -212t86 -106.5t139.5 -36.5t146 40t91.5 101.5t27.5 203.5v560q0 35 -9 50q-12 20 -32 28q-14 6 -71 6h-54v193h577v-193h-45q-67 0 -83 -8q-24 -12 -35 -35q-8 -15 -8 -83v-550 q0 -152 -44 -255q-61 -140 -194.5 -217.5t-316.5 -77.5q-129 0 -231 39.5t-178.5 113t-107 155.5t-30.5 242v539q0 74 -8 95.5t-26 31.5t-70 10h-64v193zM553 1780q59 0 102.5 -44t43.5 -103q0 -56 -41.5 -97t-99.5 -41q-59 0 -101.5 42t-42.5 102q0 61 40 101t99 40z M1035 1780q58 0 101.5 -44t43.5 -103q0 -56 -41.5 -97t-98.5 -41q-60 0 -102.5 42t-42.5 102q0 61 40 101t100 40z" glyph-name="Udieresis" horiz-adv-x="1515" unicode="Ü"/>
<glyph d="M1 1395h693v-193h-52q-55 0 -69 -8.5t-14 -27.5q0 -26 32 -78l183 -303l204 316q27 41 30 46q4 11 4 22q0 17 -11.5 25t-53.5 8h-71v193h556v-193q-73 -1 -102.5 -17t-70.5 -77l-372 -542v-249q0 -66 8.5 -85.5t29 -29t80.5 -9.5h49v-193h-680v193h37q72 0 92 9.5 t30.5 32t10.5 90.5v218l-371 565q-44 66 -77 83q-24 11 -95 11v193zM552 1490l-40 101l215 192q93 82 171 82q60 0 102 -43t42 -107q0 -47 -36 -91t-127 -64z" glyph-name="Yacute" horiz-adv-x="1434" unicode="Ý"/>
<glyph d="M762 1395v-169h-71q-47 0 -66 -10.5t-27 -32.5q-4 -11 -4 -89h225q141 0 234 -27t159.5 -82.5t101.5 -130t35 -156.5q0 -167 -136.5 -282t-380.5 -115h-238v-43q0 -42 10 -58.5t29 -23.5t82 -7h47v-169h-680v193h47q62 0 82 9t29 28.5t9 80.5v767q0 64 -8 84.5t-25.5 30 t-66.5 9.5h-67v193h680zM594 868v-349h119q111 0 162.5 21t81 62t29.5 95q0 83 -72 132q-56 39 -165 39h-155z" glyph-name="Thorn" unicode="Þ"/>
<glyph d="M74 998h149v56q0 185 131 299.5t374 114.5q218 0 334 -93.5t116 -236.5q0 -58 -18.5 -97.5t-48 -57.5t-97.5 -24q-76 -7 -99 -22q-23 -16 -23 -40q0 -25 19.5 -50.5t99.5 -83.5l131 -94q33 -24 80 -73t70.5 -107.5t23.5 -130.5q0 -159 -116 -266.5t-299 -107.5 q-148 0 -235 68.5t-87 155.5q0 58 40.5 98t100.5 40q40 0 73 -23q17 -12 66 -71t94 -59q38 0 63.5 24t25.5 58q0 31 -25 68.5t-98 91.5l-107 79q-199 148 -199 321q0 102 65 177.5t184 104.5q-3 51 -19 78.5t-47.5 43t-76.5 15.5q-52 0 -94.5 -24t-61.5 -63t-19 -113v-1054 h-470v193h44q58 0 74 6.5t23.5 22t7.5 67.5v498h-149v211z" glyph-name="germandbls" unicode="ß"/>
<glyph d="M681 605v74q0 66 -11 91t-40 41.5t-72 16.5q-33 0 -60 -11t-43 -28t-37 -66q-27 -62 -64.5 -89t-88.5 -27q-64 0 -105 40t-41 99q0 67 42 119q56 69 167 113t250 44t236.5 -45t136 -107.5t38.5 -190.5v-358q0 -66 7 -84.5t30 -32.5t51 -14t75 16v-195q-85 -27 -163 -27 q-92 0 -157 30t-109 90q-100 -65 -181.5 -92.5t-157.5 -27.5q-143 0 -231 80.5t-88 198.5q0 67 30.5 123t91 98t187 74.5t307.5 46.5zM681 439q-131 -19 -185 -38.5t-77 -49t-23 -60.5q0 -40 30 -67t81 -27q33 0 76.5 17t97.5 50v175zM778 1130l-326 70q-85 18 -124 59 t-39 98q0 39 19 73.5t53.5 55t67.5 20.5q82 0 175 -83l215 -192z" glyph-name="agrave" horiz-adv-x="1188" unicode="à"/>
<glyph d="M681 605v74q0 66 -11 91t-40 41.5t-72 16.5q-33 0 -60 -11t-43 -28t-37 -66q-27 -62 -64.5 -89t-88.5 -27q-64 0 -105 40t-41 99q0 67 42 119q56 69 167 113t250 44t236.5 -45t136 -107.5t38.5 -190.5v-358q0 -66 7 -84.5t30 -32.5t51 -14t75 16v-195q-85 -27 -163 -27 q-92 0 -157 30t-109 90q-100 -65 -181.5 -92.5t-157.5 -27.5q-143 0 -231 80.5t-88 198.5q0 67 30.5 123t91 98t187 74.5t307.5 46.5zM681 439q-131 -19 -185 -38.5t-77 -49t-23 -60.5q0 -40 30 -67t81 -27q33 0 76.5 17t97.5 50v175zM369 1130l-40 101l215 192 q93 82 171 82q60 0 102 -43t42 -107q0 -47 -36 -91t-127 -64z" glyph-name="aacute" horiz-adv-x="1188" unicode="á"/>
<glyph d="M681 605v74q0 66 -11 91t-40 41.5t-72 16.5q-33 0 -60 -11t-43 -28t-37 -66q-27 -62 -64.5 -89t-88.5 -27q-64 0 -105 40t-41 99q0 67 42 119q56 69 167 113t250 44t236.5 -45t136 -107.5t38.5 -190.5v-358q0 -66 7 -84.5t30 -32.5t51 -14t75 16v-195q-85 -27 -163 -27 q-92 0 -157 30t-109 90q-100 -65 -181.5 -92.5t-157.5 -27.5q-143 0 -231 80.5t-88 198.5q0 67 30.5 123t91 98t187 74.5t307.5 46.5zM681 439q-131 -19 -185 -38.5t-77 -49t-23 -60.5q0 -40 30 -67t81 -27q33 0 76.5 17t97.5 50v175zM924 1269l-79 -135l-293 109l-293 -109 l-79 135l372 225z" glyph-name="acircumflex" horiz-adv-x="1188" unicode="â"/>
<glyph d="M681 605v74q0 66 -11 91t-40 41.5t-72 16.5q-33 0 -60 -11t-43 -28t-37 -66q-27 -62 -64.5 -89t-88.5 -27q-64 0 -105 40t-41 99q0 67 42 119q56 69 167 113t250 44t236.5 -45t136 -107.5t38.5 -190.5v-358q0 -66 7 -84.5t30 -32.5t51 -14t75 16v-195q-85 -27 -163 -27 q-92 0 -157 30t-109 90q-100 -65 -181.5 -92.5t-157.5 -27.5q-143 0 -231 80.5t-88 198.5q0 67 30.5 123t91 98t187 74.5t307.5 46.5zM681 439q-131 -19 -185 -38.5t-77 -49t-23 -60.5q0 -40 30 -67t81 -27q33 0 76.5 17t97.5 50v175zM840 1429l103 -51q-18 -88 -101 -157 q-70 -57 -173 -57q-73 0 -203 39q-54 16 -71 16q-13 0 -24 -5.5t-38 -30.5l-113 63q28 81 103 137.5t154 56.5q29 0 55 -4.5t89 -22.5q96 -28 135 -28q18 0 31.5 5.5t37.5 26.5z" glyph-name="atilde" horiz-adv-x="1188" unicode="ã"/>
<glyph d="M681 605v74q0 66 -11 91t-40 41.5t-72 16.5q-33 0 -60 -11t-43 -28t-37 -66q-27 -62 -64.5 -89t-88.5 -27q-64 0 -105 40t-41 99q0 67 42 119q56 69 167 113t250 44t236.5 -45t136 -107.5t38.5 -190.5v-358q0 -66 7 -84.5t30 -32.5t51 -14t75 16v-195q-85 -27 -163 -27 q-92 0 -157 30t-109 90q-100 -65 -181.5 -92.5t-157.5 -27.5q-143 0 -231 80.5t-88 198.5q0 67 30.5 123t91 98t187 74.5t307.5 46.5zM681 439q-131 -19 -185 -38.5t-77 -49t-23 -60.5q0 -40 30 -67t81 -27q33 0 76.5 17t97.5 50v175zM310 1420q59 0 102.5 -44t43.5 -103 q0 -56 -41.5 -97t-99.5 -41q-59 0 -101.5 42t-42.5 102q0 61 40 101t99 40zM792 1420q58 0 101.5 -44t43.5 -103q0 -56 -41.5 -97t-98.5 -41q-60 0 -102.5 42t-42.5 102q0 61 40 101t100 40z" glyph-name="adieresis" horiz-adv-x="1188" unicode="ä"/>
<glyph d="M681 605v74q0 66 -11 91t-40 41.5t-72 16.5q-33 0 -60 -11t-43 -28t-37 -66q-27 -62 -64.5 -89t-88.5 -27q-64 0 -105 40t-41 99q0 67 42 119q56 69 167 113t250 44t236.5 -45t136 -107.5t38.5 -190.5v-358q0 -66 7 -84.5t30 -32.5t51 -14t75 16v-195q-85 -27 -163 -27 q-92 0 -157 30t-109 90q-100 -65 -181.5 -92.5t-157.5 -27.5q-143 0 -231 80.5t-88 198.5q0 67 30.5 123t91 98t187 74.5t307.5 46.5zM681 439q-131 -19 -185 -38.5t-77 -49t-23 -60.5q0 -40 30 -67t81 -27q33 0 76.5 17t97.5 50v175zM765 1357q0 -85 -61.5 -145.5 t-149.5 -60.5q-87 0 -149 61t-62 147t62 147t149 61q88 0 149.5 -61.5t61.5 -148.5zM482 1361q0 -33 21 -55t50 -22t50 22t21 53t-21 53t-50 22q-30 0 -50.5 -21.5t-20.5 -51.5z" glyph-name="aring" horiz-adv-x="1188" unicode="å"/>
<glyph d="M1712 483h-690v-17q0 -106 75 -182.5t181 -76.5q77 0 158 40.5t156 122.5l135 -138q-106 -122 -208 -180q-135 -76 -295 -76q-121 0 -206 39t-187 147q-133 -102 -228 -140t-200 -38q-149 0 -240 81t-91 199q0 77 37.5 136.5t116.5 103t208 72.5q82 18 266 39v71 q0 72 -33 106t-96 34q-58 0 -91 -25q-34 -26 -63 -97q-23 -57 -47 -75q-42 -31 -100 -31q-65 0 -107.5 42t-42.5 98q0 66 53.5 133.5t159 109t253.5 41.5q112 0 189 -24t139 -74q131 98 315 98q241 0 362 -147t121 -354v-38zM1393 653q-6 63 -28 99.5t-59 57.5t-82 21 q-72 0 -125.5 -49t-65.5 -129h360zM700 449q-198 -36 -249.5 -70.5t-51.5 -86.5q0 -43 32 -71.5t82 -28.5q30 0 74 16q58 22 113 57v184z" glyph-name="ae" horiz-adv-x="1802" unicode="æ"/>
<glyph d="M988 378l147 -129q-118 -143 -245 -208t-272 -65q-232 0 -387.5 151t-155.5 368q0 147 72.5 269t199 190t298.5 68q206 0 336.5 -95.5t130.5 -201.5q0 -45 -20.5 -80.5t-62.5 -57.5t-89 -22q-38 0 -68 15t-50 38q-9 10 -35 62q-33 65 -51 86t-43 32.5t-57 11.5 q-52 0 -99.5 -33.5t-78 -101.5t-30.5 -152q0 -92 36 -165.5t96.5 -111.5t133.5 -38q70 0 141 38t153 132zM637 0v-91q44 5 68 5q75 0 123 -43t48 -110q0 -83 -65 -140t-176 -57q-95 0 -148.5 37t-53.5 85q0 33 19 51.5t53 18.5q28 0 61 -25q26 -21 41.5 -27.5t32.5 -6.5 q30 0 45 16q21 23 21 50q0 35 -30.5 58.5t-90.5 23.5q-30 0 -74 -3l19 158h107z" glyph-name="ccedilla" horiz-adv-x="1188" unicode="ç"/>
<glyph d="M981 370l137 -138q-118 -135 -240.5 -195.5t-264.5 -60.5q-228 0 -384 154.5t-156 373.5q0 144 70 263.5t194 187t281 67.5q100 0 182 -29t143.5 -83t99 -130.5t51.5 -158.5q6 -41 6 -130h-673q2 -127 74.5 -205.5t177.5 -78.5q67 0 146 40.5t156 122.5zM781 659 q-7 60 -28.5 94.5t-58 55t-76.5 20.5q-42 0 -81 -21t-62.5 -57t-30.5 -92h337zM818 1130l-326 70q-85 18 -124 59t-39 98q0 39 19 73.5t53.5 55t67.5 20.5q82 0 175 -83l215 -192z" glyph-name="egrave" horiz-adv-x="1188" unicode="è"/>
<glyph d="M981 370l137 -138q-118 -135 -240.5 -195.5t-264.5 -60.5q-228 0 -384 154.5t-156 373.5q0 144 70 263.5t194 187t281 67.5q100 0 182 -29t143.5 -83t99 -130.5t51.5 -158.5q6 -41 6 -130h-673q2 -127 74.5 -205.5t177.5 -78.5q67 0 146 40.5t156 122.5zM781 659 q-7 60 -28.5 94.5t-58 55t-76.5 20.5q-42 0 -81 -21t-62.5 -57t-30.5 -92h337zM369 1130l-40 101l215 192q93 82 171 82q60 0 102 -43t42 -107q0 -47 -36 -91t-127 -64z" glyph-name="eacute" horiz-adv-x="1188" unicode="é"/>
<glyph d="M981 370l137 -138q-118 -135 -240.5 -195.5t-264.5 -60.5q-228 0 -384 154.5t-156 373.5q0 144 70 263.5t194 187t281 67.5q100 0 182 -29t143.5 -83t99 -130.5t51.5 -158.5q6 -41 6 -130h-673q2 -127 74.5 -205.5t177.5 -78.5q67 0 146 40.5t156 122.5zM781 659 q-7 60 -28.5 94.5t-58 55t-76.5 20.5q-42 0 -81 -21t-62.5 -57t-30.5 -92h337zM966 1269l-79 -135l-293 109l-293 -109l-79 135l372 225z" glyph-name="ecircumflex" horiz-adv-x="1188" unicode="ê"/>
<glyph d="M981 370l137 -138q-118 -135 -240.5 -195.5t-264.5 -60.5q-228 0 -384 154.5t-156 373.5q0 144 70 263.5t194 187t281 67.5q100 0 182 -29t143.5 -83t99 -130.5t51.5 -158.5q6 -41 6 -130h-673q2 -127 74.5 -205.5t177.5 -78.5q67 0 146 40.5t156 122.5zM781 659 q-7 60 -28.5 94.5t-58 55t-76.5 20.5q-42 0 -81 -21t-62.5 -57t-30.5 -92h337zM349 1420q59 0 102.5 -44t43.5 -103q0 -56 -41.5 -97t-99.5 -41q-59 0 -101.5 42t-42.5 102q0 61 40 101t99 40zM831 1420q58 0 101.5 -44t43.5 -103q0 -56 -41.5 -97t-98.5 -41 q-60 0 -102.5 42t-42.5 102q0 61 40 101t100 40z" glyph-name="edieresis" horiz-adv-x="1188" unicode="ë"/>
<glyph d="M546 1022v-739q0 -53 6 -65t21.5 -18.5t69.5 -6.5h54v-193h-618v193h53q52 0 66.5 5.5t21.5 18.5t7 52v477h-148v188q79 4 151.5 17t129.5 31q37 12 91 40h95zM593 1130l-326 70q-85 18 -124 59t-39 98q0 39 19 73.5t53.5 55t67.5 20.5q82 0 175 -83l215 -192z" glyph-name="igrave" horiz-adv-x="737" unicode="ì"/>
<glyph d="M546 1022v-739q0 -53 6 -65t21.5 -18.5t69.5 -6.5h54v-193h-618v193h53q52 0 66.5 5.5t21.5 18.5t7 52v477h-148v188q79 4 151.5 17t129.5 31q37 12 91 40h95zM144 1130l-40 101l215 192q93 82 171 82q60 0 102 -43t42 -107q0 -47 -36 -91t-127 -64z" glyph-name="iacute" horiz-adv-x="737" unicode="í"/>
<glyph d="M546 1022v-739q0 -53 6 -65t21.5 -18.5t69.5 -6.5h54v-193h-618v193h53q52 0 66.5 5.5t21.5 18.5t7 52v477h-148v188q79 4 151.5 17t129.5 31q37 12 91 40h95zM741 1269l-79 -135l-293 109l-293 -109l-79 135l372 225z" glyph-name="icircumflex" horiz-adv-x="737" unicode="î"/>
<glyph d="M546 1022v-739q0 -53 6 -65t21.5 -18.5t69.5 -6.5h54v-193h-618v193h53q52 0 66.5 5.5t21.5 18.5t7 52v477h-148v188q79 4 151.5 17t129.5 31q37 12 91 40h95zM125 1420q59 0 102.5 -44t43.5 -103q0 -56 -41.5 -97t-99.5 -41q-59 0 -101.5 42t-42.5 102q0 61 40 101 t99 40zM607 1420q58 0 101.5 -44t43.5 -103q0 -56 -41.5 -97t-98.5 -41q-60 0 -102.5 42t-42.5 102q0 61 40 101t100 40z" glyph-name="idieresis" horiz-adv-x="737" unicode="ï"/>
<glyph d="M457 1468h269q51 -47 97 -99l281 74l31 -118l-223 -58q130 -165 192 -306q81 -183 81 -375q0 -187 -72.5 -325t-200.5 -211.5t-302 -73.5q-235 0 -383.5 147.5t-148.5 374.5q0 156 65.5 271t191 184t279.5 69q83 0 152 -29q-24 95 -92 209l-277 -71l-32 117l236 62 q-27 36 -48 60q-6 7 -96 98zM833 506q0 109 -26 173t-69 95.5t-100 31.5q-91 0 -150 -76t-59 -227q0 -165 53 -237t143 -72q59 0 106.5 33.5t74.5 99t27 179.5z" glyph-name="eth" horiz-adv-x="1270" unicode="ð"/>
<glyph d="M521 1022v-133q113 77 193.5 105t164.5 28q97 0 171.5 -41t108.5 -102.5t34 -174.5v-416q0 -53 7.5 -68t23.5 -22q12 -5 72 -5h49v-193h-587v193q67 1 75 3q25 7 33 23t8 69v367q0 71 -15 92q-24 35 -76 35q-43 0 -92 -19t-132 -78v-397q0 -65 14 -80t67 -15h32v-193 h-581v193h29q69 0 85.5 6t25 21t8.5 59v466h-148v193q180 22 337 84h93zM955 1429l103 -51q-18 -88 -101 -157q-70 -57 -173 -57q-73 0 -203 39q-54 16 -71 16q-13 0 -24 -5.5t-38 -30.5l-113 63q28 81 103 137.5t154 56.5q29 0 55 -4.5t89 -22.5q96 -28 135 -28 q18 0 31.5 5.5t37.5 26.5z" glyph-name="ntilde" horiz-adv-x="1393" unicode="ñ"/>
<glyph d="M632 1022q171 0 298 -67t195.5 -182.5t68.5 -270.5q0 -234 -152 -380t-406 -146q-259 0 -412 147q-148 140 -148 379q0 157 67.5 270t195.5 181.5t293 68.5zM636 803q-57 0 -107 -34t-77.5 -100t-27.5 -168q0 -105 27 -174t74.5 -102t104.5 -33q88 0 151 74.5t63 231.5 q0 152 -58.5 228.5t-149.5 76.5zM859 1130l-326 70q-85 18 -124 59t-39 98q0 39 19 73.5t53.5 55t67.5 20.5q82 0 175 -83l215 -192z" glyph-name="ograve" horiz-adv-x="1270" unicode="ò"/>
<glyph d="M632 1022q171 0 298 -67t195.5 -182.5t68.5 -270.5q0 -234 -152 -380t-406 -146q-259 0 -412 147q-148 140 -148 379q0 157 67.5 270t195.5 181.5t293 68.5zM636 803q-57 0 -107 -34t-77.5 -100t-27.5 -168q0 -105 27 -174t74.5 -102t104.5 -33q88 0 151 74.5t63 231.5 q0 152 -58.5 228.5t-149.5 76.5zM410 1130l-40 101l215 192q93 82 171 82q60 0 102 -43t42 -107q0 -47 -36 -91t-127 -64z" glyph-name="oacute" horiz-adv-x="1270" unicode="ó"/>
<glyph d="M632 1022q171 0 298 -67t195.5 -182.5t68.5 -270.5q0 -234 -152 -380t-406 -146q-259 0 -412 147q-148 140 -148 379q0 157 67.5 270t195.5 181.5t293 68.5zM636 803q-57 0 -107 -34t-77.5 -100t-27.5 -168q0 -105 27 -174t74.5 -102t104.5 -33q88 0 151 74.5t63 231.5 q0 152 -58.5 228.5t-149.5 76.5zM1007 1269l-79 -135l-293 109l-293 -109l-79 135l372 225z" glyph-name="ocircumflex" horiz-adv-x="1270" unicode="ô"/>
<glyph d="M632 1022q171 0 298 -67t195.5 -182.5t68.5 -270.5q0 -234 -152 -380t-406 -146q-259 0 -412 147q-148 140 -148 379q0 157 67.5 270t195.5 181.5t293 68.5zM636 803q-57 0 -107 -34t-77.5 -100t-27.5 -168q0 -105 27 -174t74.5 -102t104.5 -33q88 0 151 74.5t63 231.5 q0 152 -58.5 228.5t-149.5 76.5zM894 1429l103 -51q-18 -88 -101 -157q-70 -57 -173 -57q-73 0 -203 39q-54 16 -71 16q-13 0 -24 -5.5t-38 -30.5l-113 63q28 81 103 137.5t154 56.5q29 0 55 -4.5t89 -22.5q96 -28 135 -28q18 0 31.5 5.5t37.5 26.5z" glyph-name="otilde" horiz-adv-x="1270" unicode="õ"/>
<glyph d="M632 1022q171 0 298 -67t195.5 -182.5t68.5 -270.5q0 -234 -152 -380t-406 -146q-259 0 -412 147q-148 140 -148 379q0 157 67.5 270t195.5 181.5t293 68.5zM636 803q-57 0 -107 -34t-77.5 -100t-27.5 -168q0 -105 27 -174t74.5 -102t104.5 -33q88 0 151 74.5t63 231.5 q0 152 -58.5 228.5t-149.5 76.5zM391 1420q59 0 102.5 -44t43.5 -103q0 -56 -41.5 -97t-99.5 -41q-59 0 -101.5 42t-42.5 102q0 61 40 101t99 40zM873 1420q58 0 101.5 -44t43.5 -103q0 -56 -41.5 -97t-98.5 -41q-60 0 -102.5 42t-42.5 102q0 61 40 101t100 40z" glyph-name="odieresis" horiz-adv-x="1270" unicode="ö"/>
<glyph d="M564 1167q55 0 94 -38.5t39 -94.5t-40 -95.5t-95 -39.5t-94.5 39.5t-39.5 95.5t39.5 94.5t96.5 38.5zM1058 603h-991v188h991v-188zM564 495q55 0 94 -38.5t39 -93.5q0 -57 -40 -96.5t-95 -39.5t-94.5 39.5t-39.5 95.5t39.5 94.5t96.5 38.5z" glyph-name="divide" horiz-adv-x="1124" unicode="÷"/>
<glyph d="M986 921l109 101l99 -105l-103 -95q103 -133 103 -320q0 -234 -152 -380t-406 -146q-210 0 -354 99l-107 -99l-99 106l100 92q-100 130 -100 329q0 156 67.5 269t195.5 181.5t293 68.5q208 0 354 -101zM781 732q-57 71 -143 71q-58 0 -108 -33.5t-78 -99.5t-28 -167 q0 -46 7 -93zM838 589l-353 -326q26 -33 65 -52t81 -19q85 0 149 73.5t64 230.5q0 50 -6 93z" glyph-name="oslash" horiz-adv-x="1270" unicode="ø"/>
<glyph d="M53 998l467 9v-649q0 -69 8.5 -92t31 -37.5t56.5 -14.5q50 0 106 24q22 10 117 71v390q0 51 -8 70t-23 27.5t-58 8.5h-58v193l468 9v-716q0 -56 6.5 -70.5t21 -21t69.5 -6.5h53v-193l-439 -12v118q-88 -65 -177 -97.5t-179 -32.5q-72 0 -132.5 23.5t-101.5 63t-61 92.5 t-20 136v412q0 57 -6.5 72t-21.5 22.5t-64 7.5h-55v193zM900 1130l-326 70q-85 18 -124 59t-39 98q0 39 19 73.5t53.5 55t67.5 20.5q82 0 175 -83l215 -192z" glyph-name="ugrave" unicode="ù"/>
<glyph d="M53 998l467 9v-649q0 -69 8.5 -92t31 -37.5t56.5 -14.5q50 0 106 24q22 10 117 71v390q0 51 -8 70t-23 27.5t-58 8.5h-58v193l468 9v-716q0 -56 6.5 -70.5t21 -21t69.5 -6.5h53v-193l-439 -12v118q-88 -65 -177 -97.5t-179 -32.5q-72 0 -132.5 23.5t-101.5 63t-61 92.5 t-20 136v412q0 57 -6.5 72t-21.5 22.5t-64 7.5h-55v193zM451 1130l-40 101l215 192q93 82 171 82q60 0 102 -43t42 -107q0 -47 -36 -91t-127 -64z" glyph-name="uacute" unicode="ú"/>
<glyph d="M53 998l467 9v-649q0 -69 8.5 -92t31 -37.5t56.5 -14.5q50 0 106 24q22 10 117 71v390q0 51 -8 70t-23 27.5t-58 8.5h-58v193l468 9v-716q0 -56 6.5 -70.5t21 -21t69.5 -6.5h53v-193l-439 -12v118q-88 -65 -177 -97.5t-179 -32.5q-72 0 -132.5 23.5t-101.5 63t-61 92.5 t-20 136v412q0 57 -6.5 72t-21.5 22.5t-64 7.5h-55v193zM1048 1269l-79 -135l-293 109l-293 -109l-79 135l372 225z" glyph-name="ucircumflex" unicode="û"/>
<glyph d="M53 998l467 9v-649q0 -69 8.5 -92t31 -37.5t56.5 -14.5q50 0 106 24q22 10 117 71v390q0 51 -8 70t-23 27.5t-58 8.5h-58v193l468 9v-716q0 -56 6.5 -70.5t21 -21t69.5 -6.5h53v-193l-439 -12v118q-88 -65 -177 -97.5t-179 -32.5q-72 0 -132.5 23.5t-101.5 63t-61 92.5 t-20 136v412q0 57 -6.5 72t-21.5 22.5t-64 7.5h-55v193zM412 1420q59 0 102.5 -44t43.5 -103q0 -56 -41.5 -97t-99.5 -41q-59 0 -101.5 42t-42.5 102q0 61 40 101t99 40zM894 1420q58 0 101.5 -44t43.5 -103q0 -56 -41.5 -97t-98.5 -41q-60 0 -102.5 42t-42.5 102 q0 61 40 101t100 40z" glyph-name="udieresis" unicode="ü"/>
<glyph d="M16 998h624v-193h-41q-56 0 -70.5 -7.5t-14.5 -21.5q0 -12 21 -63l150 -361l157 361q18 41 18 59q0 16 -15 24.5t-69 8.5h-57v193h539v-193q-71 -1 -83 -5q-17 -4 -28 -15t-36 -61l-452 -927q-71 -145 -155 -203q-85 -58 -202 -58q-114 0 -184.5 60.5t-70.5 136.5 q0 60 42 103.5t101 43.5q40 0 78 -20q25 -13 51 -44q16 -20 25.5 -25.5t18.5 -5.5q21 0 41 20q30 31 68 113l38 82l-340 713q-25 54 -38.5 68t-30.5 19t-85 5v193zM460 1130l-40 101l215 192q93 82 171 82q60 0 102 -43t42 -107q0 -47 -36 -91t-127 -64z" glyph-name="yacute" horiz-adv-x="1270" unicode="ý"/>
<glyph d="M545 1468v-557q68 62 127.5 86.5t134.5 24.5q179 0 289 -128q127 -148 127 -379q0 -220 -110 -368q-126 -171 -338 -171q-68 0 -119 15.5t-111 56.5v-201q0 -60 6 -72q7 -15 22.5 -21.5t77.5 -6.5h47v-193h-622v193h34q69 0 83.5 5.5t23 23t8.5 71.5v1343h-149v193 q108 13 184 32.5t154 52.5h131zM545 710v-326q0 -77 14.5 -109.5t50 -53t81.5 -20.5q81 0 134.5 75t53.5 228q0 142 -46.5 210.5t-114.5 68.5q-39 0 -82 -18t-91 -55z" glyph-name="thorn" horiz-adv-x="1311" unicode="þ"/>
<glyph d="M546 1022v-739q0 -53 6 -65t21.5 -18.5t69.5 -6.5h54v-193h-618v193h53q52 0 66.5 5.5t21.5 18.5t7 52v477h-148v188q79 4 151.5 17t129.5 31q37 12 91 40h95z" glyph-name="dotlessi" horiz-adv-x="737" unicode="ı"/>
<glyph d="M884 1269l-79 -135l-293 109l-293 -109l-79 135l372 225z" glyph-name="circumflex" horiz-adv-x="1024" unicode="ˆ"/>
<glyph d="M559 1357q0 -85 -61.5 -145.5t-149.5 -60.5q-87 0 -149 61t-62 147t62 147t149 61q88 0 149.5 -61.5t61.5 -148.5zM276 1361q0 -33 21 -55t50 -22t50 22t21 53t-21 53t-50 22q-30 0 -50.5 -21.5t-20.5 -51.5z" glyph-name="ring" horiz-adv-x="696" unicode="˚"/>
<glyph d="M750 1429l103 -51q-18 -88 -101 -157q-70 -57 -173 -57q-73 0 -203 39q-54 16 -71 16q-13 0 -24 -5.5t-38 -30.5l-113 63q28 81 103 137.5t154 56.5q29 0 55 -4.5t89 -22.5q96 -28 135 -28q18 0 31.5 5.5t37.5 26.5z" glyph-name="tilde" horiz-adv-x="983" unicode="˜"/>
<glyph d="M429 1407h203v-374h156v-154h-156v-191h-211v191h-388v175zM421 1230l-220 -197h220v197z" glyph-name="foursuperior" horiz-adv-x="811" unicode=""/>
</font>
</defs>
</svg>
