<?xml version="1.0" encoding="UTF-8"?>
<!DOCTYPE svg  PUBLIC '-//W3C//DTD SVG 1.1//EN'  'http://www.w3.org/Graphics/SVG/1.1/DTD/svg11.dtd'>
<svg version="1.1" xmlns="http://www.w3.org/2000/svg">
<defs>
<font id="BrintonCondensed" horiz-adv-x="616">
<font-face font-family="BrintonCondensed" font-weight="400" ascent="800" bbox="-118 -256 1024 958" cap-height="700" descent="-200" panose-1="0 0 4 0 0 0 0 0 0 0" underline-position="-134" underline-thickness="59" unicode-range="U+0020-00FC" units-per-em="1000" x-height="523"/>
<missing-glyph/>
<glyph glyph-name="space" horiz-adv-x="205" unicode=" "/>
<glyph d="M249 700q-41 -155 -41 -298q0 -27 5.5 -78.5t5.5 -77.5q-41 13 -68 13q-35 0 -93 -37q16 115 16 238q0 109 -36 240h211zM235 94q0 -47 -22 -74q-25 -30 -70 -30q-94 0 -94 103q0 45 24 73.5t67 28.5q44 0 69.5 -28.5t25.5 -72.5z" glyph-name="exclam" horiz-adv-x="252" unicode="!"/>
<glyph d="M344 734q0 -52 -17 -130q-14 -65 -29 -129h-29q-15 62 -29 125q-18 75 -18 124q0 76 65 76q26 0 41.5 -20t15.5 -46zM161 737q0 -53 -16 -132q-15 -65 -29 -130h-30q-15 62 -29 124q-18 75 -18 124q0 39 14 57.5t52 18.5q25 0 40.5 -18.5t15.5 -43.5z" glyph-name="quotedbl" horiz-adv-x="348" unicode='"'/>
<glyph d="M812 534l-32 -101h-149l-48 -136h146l-33 -98h-151l-81 -229h-116l76 228h-126l-80 -228h-118l74 228h-145l32 98h151l46 136h-146l31 102h150l82 225h119l-78 -225h127l80 225h116l-74 -225h147zM506 429q-6 5 -39 5q-14 0 -42.5 -1t-43.5 -1l-48 -135h126z" glyph-name="numbersign" horiz-adv-x="825" unicode="#"/>
<glyph d="M540 267q0 -179 -220 -231q-1 -6 -1 -42q0 -31 1 -36q4 -24 21 -24v-23h-153v16q10 3 26 20q4 32 4 49q0 5 -1 17t-1 18q-22 7 -44 15q-29 9 -44 9q-29 0 -56 -25l-36 251h9q32 -73 64 -108q42 -47 107 -63v219q-83 29 -118 59q-52 43 -52 115q0 125 166 168q2 7 2 45 q0 32 -1 37q-4 18 -22 26v12h150v-11q-27 -10 -27 -57q0 -8 1 -24t1 -24h13q14 0 39.5 -6t38.5 -6q24 0 50 14l9 -194h-8q-49 131 -179 131q-93 0 -93 -62q0 -38 92 -71q139 -49 170 -67q92 -55 92 -147zM399 211q0 52 -80 81v-179q4 -2 5 -2q33 0 55 35q20 30 20 65z" glyph-name="dollar" horiz-adv-x="546" unicode="$"/>
<glyph d="M876 197q0 -87 -49 -144q-52 -60 -137 -60q-83 0 -130 54t-47 138q0 89 48 147q52 62 139 62q86 0 133 -56q43 -53 43 -141zM711 700l-4 -15q-41 -22 -59 -55l-297 -550q-14 -26 -15 -47l17 -13v-20h-154l4 16q39 21 59 57l302 551q15 27 15 47l-16 11v18h148zM402 515 q0 -89 -48 -145q-52 -60 -139 -60q-83 0 -131 54q-46 51 -46 136q0 87 48 146q52 63 137 63q84 0 133 -56q46 -53 46 -138zM749 182q0 158 -54 158q-56 0 -56 -142q0 -146 52 -146q58 0 58 130zM277 516q0 47 -9 83q-15 55 -47 55q-56 0 -56 -141q0 -146 52 -146 q60 0 60 149z" glyph-name="percent" horiz-adv-x="888" unicode="%"/>
<glyph d="M778 502q0 -61 -43 -104.5t-104 -43.5q-32 0 -62 12q2 -22 2 -33q0 -32 -10 -94q62 -86 104 -171q11 -22 17 -26.5t31 -11.5v-25h-218q-7 44 -24 84q-110 -99 -214 -99q-94 0 -156 53q-65 56 -65 149q0 54 21 104q23 54 62 87q17 11 47 36q-56 64 -56 127q0 75 63 119 q57 40 134 40q66 0 114 -31q56 -36 56 -99q0 -11 -7 -58q69 -50 114 -50q28 0 52 16.5t24 43.5q0 11 -9 21.5t-20 10.5q-10 0 -32 -6l-5 8q40 54 83 54q48 0 76 -33q25 -31 25 -80zM381 565q0 31 -18 56q-20 29 -50 29q-56 0 -56 -67q0 -48 72 -109q31 25 40 38q12 19 12 53 zM509 357q0 85 -46 150q-35 -44 -86 -66l130 -130q2 30 2 46zM436 138q-37 49 -105 125q-79 89 -112 113q-26 -43 -26 -111q0 -70 41 -116q42 -49 111 -49q42 0 91 38z" glyph-name="ampersand" horiz-adv-x="784" unicode="&amp;"/>
<glyph d="M161 725q0 -52 -15 -127q-14 -62 -28 -125h-34q-14 61 -29 123q-17 74 -17 123q0 74 60 74q63 0 63 -68z" glyph-name="quotesingle" horiz-adv-x="167" unicode="'"/>
<glyph d="M277 -84l-63 -70q-91 84 -136 219q-39 118 -39 258q0 255 170 428l60 -70q-63 -30 -90 -180q-17 -95 -17 -215q0 -260 79 -354q15 -17 28 -17q4 0 8 1z" glyph-name="parenleft" horiz-adv-x="284" unicode="("/>
<glyph d="M278 323q0 -317 -175 -477l-64 70q1 0 4 -1h3q16 0 29 17q79 101 79 357q0 117 -18 214q-27 147 -88 178l59 70q171 -171 171 -428z" glyph-name="parenright" horiz-adv-x="284" unicode=")"/>
<glyph d="M412 435q0 -24 -17.5 -41.5t-41.5 -17.5q-30 0 -60.5 49t-49.5 49q-3 -4 -3 -14q0 -18 20.5 -54t20.5 -49q0 -25 -16 -41t-41 -16q-20 0 -36 16.5t-16 36.5q0 22 19.5 55t19.5 56q0 8 -5 13q-11 -3 -29 -19q-39 -85 -86 -85q-18 0 -33.5 17.5t-15.5 36.5q0 39 28 49 q4 2 61 9q19 2 59 17l-2 8q-14 6 -58 10t-61 12q-29 12 -29 40q0 26 16 43t42 17q29 0 59.5 -47.5t46.5 -49.5l8 5q-3 21 -22.5 59t-19.5 52q0 56 57 56q21 0 36.5 -14.5t15.5 -35.5q0 -23 -19.5 -56t-19.5 -55q0 -8 5 -13h7q3 3 47 62q30 39 62 39q20 0 34.5 -17.5 t14.5 -37.5q0 -37 -32 -48q-9 -3 -65 -8q-41 -3 -53 -21q11 -13 52 -16q54 -4 67 -8q33 -10 33 -43z" glyph-name="asterisk" horiz-adv-x="413" unicode="*"/>
<glyph d="M703 275h-271v-275h-123v273h-274v120h274v270h122v-269h272v-119z" glyph-name="plus" horiz-adv-x="711" unicode="+"/>
<glyph d="M234 183l-98 -238h-116q28 32 47 87q15 47 30 95q9 26 5 56h132z" glyph-name="comma" horiz-adv-x="226" unicode=","/>
<glyph d="M304 339l-31 -128h-185q-24 0 -51 -12l34 119l163 -1q38 0 70 22z" glyph-name="hyphen" horiz-adv-x="310" unicode="-"/>
<glyph d="M220 91q0 -44 -24 -72t-68 -28q-41 0 -67 26.5t-26 67.5q0 111 92 111q44 0 68.5 -29.5t24.5 -75.5z" glyph-name="period" horiz-adv-x="226" unicode="."/>
<glyph d="M385 727l-248 -728h-90l243 728h95z" glyph-name="slash" horiz-adv-x="383" unicode="/"/>
<glyph d="M589 346q0 -143 -62 -241q-73 -115 -207 -115q-136 0 -208 116q-60 97 -60 242q0 138 63 241q75 120 204 120q144 0 213 -115q57 -93 57 -248zM420 370q0 79 -15 154q-23 112 -71 112q-107 0 -107 -330q0 -71 17 -140q23 -102 70 -102q106 0 106 306z" glyph-name="zero" unicode="0"/>
<glyph d="M597 0h-531v31q80 7 96 11q65 13 76 46q7 21 7 314q0 64 -2 124q-1 44 -7 54q-10 18 -48 20q-17 1 -30 1q-43 0 -96 -5v17l359 88q0 -64 -1 -191.5t-1 -191.5q0 -227 15 -247t76 -30q11 -2 87 -10v-31z" glyph-name="one" unicode="1"/>
<glyph d="M594 202l-51 -214q-13 12 -47 12h-441q149 149 208 227q116 153 116 274q0 122 -97 122q-62 0 -97 -56q-21 -33 -42 -112l-38 176q126 82 250 82q93 0 152 -49q62 -53 62 -145q0 -71 -45 -145q-35 -56 -103 -125q-57 -53 -113 -107q16 0 50 -1t51 -1q144 0 174 62h11z " glyph-name="two" unicode="2"/>
<glyph d="M588 263q0 -123 -102 -200q-93 -69 -220 -69q-123 0 -233 67l78 175l13 -3q-3 -16 -3 -32q0 -58 36 -94t93 -36q71 0 112 52q37 47 37 120q0 145 -174 145q-22 0 -47 -3l189 183h-144q-37 0 -60 -10.5t-42 -40.5l-7 2l38 199q10 -8 33 -18q42 -6 108 -6q40 0 119.5 3 t111.5 3l-1 -5q0 -12 7 -31t15 -26l-139 -138q85 -24 133.5 -86.5t48.5 -150.5z" glyph-name="three" unicode="3"/>
<glyph d="M614 305l-27 -132q-10 20 -43 20h-35v-79q0 -56 2 -61q7 -21 49 -22v-31h-292v31q36 3 44.5 12t8.5 44v105h-264q-12 0 -25 -10q3 69 49 150l84 134q44 77 44 138q0 22 -11 41l151 106q0 -95 -37 -183q-29 -71 -93 -162q-23 -33 -47 -66q-26 -38 -39 -70h192v284 q89 36 130.5 81.5t62.5 137.5h8q-19 -118 -19 -282q0 -37 1 -111t1 -112h29q41 0 64 37h12z" glyph-name="four" unicode="4"/>
<glyph d="M594 262q0 -128 -95 -201q-87 -67 -219 -67q-111 0 -223 48l68 175l9 -3q-3 -21 -3 -41q0 -46 37 -77q34 -29 81 -29q67 0 112.5 49t45.5 116q0 65 -40.5 102t-106.5 37q-79 0 -171 -71q34 112 45 178q14 76 14 168q0 30 -1 66q12 -15 127 -15q36 0 106.5 1.5t105.5 1.5 q24 0 36 12l-41 -169q-16 21 -53 25h-62h-73q-49 -1 -73 -1l-12 -94q66 24 130 24q110 0 181 -62q75 -65 75 -173z" glyph-name="five" unicode="5"/>
<glyph d="M597 239q0 -112 -83 -181q-79 -65 -192 -65q-139 0 -208 106q-59 89 -59 236q0 162 82 264q89 110 248 110q64 0 183 -37l-35 -189l-12 1q-8 157 -123 157q-86 0 -133 -88q-38 -72 -38 -166q69 79 153 79q98 0 157.5 -64t59.5 -163zM430 240q0 143 -99 143q-52 0 -76 -62 q-17 -45 -17 -106q0 -148 97 -148q54 0 78 64q17 44 17 109z" glyph-name="six" unicode="6"/>
<glyph d="M556 702q1 -14 1 -29q0 -80 -38 -177q-38 -85 -75 -170q-57 -136 -71 -326h-206q12 179 168 364q38 43 76 87q43 52 63 97q-50 0 -151 1t-152 1q-30 0 -47 -16q-12 -12 -27 -43h-12l41 222q27 -16 76 -19h81q183 0 141 -1q94 2 131 22z" glyph-name="seven" unicode="7"/>
<glyph d="M600 206q0 -108 -88 -166q-75 -49 -188 -49q-109 0 -181 49q-84 57 -84 161q0 144 155 185q-121 47 -121 144q0 92 78 140q64 39 163 39q91 0 160 -38q84 -47 84 -132q0 -106 -129 -158q151 -42 151 -175zM411 530q0 41 -14 71q-18 38 -55 38q-44 0 -67 -38 q-19 -32 -19 -79q0 -39 16 -68q19 -35 56 -35q83 0 83 111zM422 222q0 46 -19 80q-23 41 -66 41q-103 0 -103 -147q0 -51 17 -86q22 -46 67 -46q104 0 104 158z" glyph-name="eight" unicode="8"/>
<glyph d="M595 364q0 -163 -80 -264q-88 -111 -246 -111q-87 0 -176 35l29 195l14 -1q2 -158 120 -158q155 0 172 260q-71 -84 -166 -84q-92 0 -149 67q-54 63 -54 157q0 114 71 181t186 67q143 0 216 -104q63 -91 63 -240zM412 475q0 59 -19 103q-25 59 -76 59q-94 0 -94 -157 q0 -160 85 -160q104 0 104 155z" glyph-name="nine" unicode="9"/>
<glyph d="M224 396q0 -47 -23 -75q-25 -31 -71 -31q-39 0 -65.5 25.5t-26.5 64.5q0 47 20 77q23 36 68 36q44 0 71 -26.5t27 -70.5zM223 100q0 -106 -93 -106q-40 0 -66 27t-26 67q0 48 23.5 79.5t70.5 31.5q42 0 66.5 -28t24.5 -71z" glyph-name="colon" horiz-adv-x="226" unicode=":"/>
<glyph d="M223 388q0 -47 -24 -76t-69 -29q-41 0 -68 27t-27 68q0 49 24.5 79.5t71.5 30.5q41 0 66.5 -29t25.5 -71zM198 176l-98 -236h-116q27 34 56 116q32 86 26 120h132z" glyph-name="semicolon" horiz-adv-x="226" unicode=";"/>
<glyph d="M758 13l-718 265v107l716 276v-128l-532 -198l534 -196v-126z" glyph-name="less" horiz-adv-x="762" unicode="&lt;"/>
<glyph d="M707 406h-666v117l666 -1v-116zM707 143h-666v117h666v-117z" glyph-name="equal" horiz-adv-x="710" unicode="="/>
<glyph d="M763 278l-718 -272q-3 18 -3 21v109l533 193l-530 199l1 128l717 -273v-105z" glyph-name="greater" horiz-adv-x="762" unicode="&gt;"/>
<glyph d="M492 536q0 -85 -65 -135q-59 -34 -118 -67q-61 -36 -55 -89q-22 2 -33 2q-34 0 -90 -25q-5 30 -5 37q0 47 45 93q42 38 85 76q45 47 45 97q0 47 -23.5 75.5t-69.5 28.5q-37 0 -76 -35q-35 -31 -44 -70q-6 -23 -6 -84h-17l-29 207q12 -3 14 -3q4 0 84.5 32t146.5 32 q90 0 146 -39q65 -45 65 -133zM297 92q0 -103 -92 -103q-42 0 -69 25.5t-27 67.5q0 48 25 78.5t73 30.5q42 0 66 -28t24 -71z" glyph-name="question" horiz-adv-x="500" unicode="?"/>
<glyph d="M1024 428q0 -131 -65 -233q-74 -117 -198 -117q-115 0 -132 104q-66 -104 -166 -104q-83 0 -131 50.5t-48 134.5q0 116 74 212q80 103 193 103q95 0 134 -85l20 65h140l-58 -186q-38 -129 -38 -180q0 -41 37 -41q85 0 136 100q41 82 41 177q0 149 -114 233 q-102 76 -256 76q-189 0 -315 -131.5t-126 -321.5q0 -180 116 -288q113 -105 294 -105q171 0 343 106l30 -47q-200 -126 -398 -126q-209 0 -349 131q-144 133 -144 341q0 225 164 366q156 134 385 134q185 0 301 -89q130 -99 130 -279zM650 438q0 27 -17 47t-44 20 q-63 0 -112 -119q-41 -100 -41 -176q0 -24 15 -43t39 -19q68 0 118 115q42 95 42 175z" glyph-name="at" horiz-adv-x="1023" unicode="@"/>
<glyph d="M640 0h-253v31q32 16 32 52q0 83 -59 140t-143 63q-15 -54 -31 -108q-22 -81 -22 -101q0 -26 37 -46v-31h-172v31q28 22 40 60l162 530q5 16 5 30q0 21 -16 25v24h272v-25q-21 -9 -21 -31q0 -27 58 -267q35 -144 70 -289q6 -24 12.5 -33t28.5 -24v-31zM372 301l-68 295 l-70 -247l11 1q55 5 127 -49z" glyph-name="A" horiz-adv-x="626" unicode="A"/>
<glyph d="M635 197q0 -197 -247 -197h-344v31q28 8 37 24q6 12 6 44q0 59 1 175.5t1 174.5q0 15 1 63q1 40 1 63q-1 33 -5 56q-6 28 -42 38v31q43 0 129.5 1t129.5 1q8 0 36 1h45q203 0 203 -91q0 -93 -132 -168q180 -87 180 -247zM418 578q0 57 -78 57q-39 0 -54 -21 q-12 -17 -12 -57l1 -129q65 32 94 57q49 42 49 93zM445 237q0 90 -64 167l-106 -48l-1 -132q0 -7 -1 -27t-1 -32q0 -90 58 -90q57 0 89 56q26 45 26 106z" glyph-name="B" horiz-adv-x="650" unicode="B"/>
<glyph d="M608 203l-58 -213q-15 11 -75 11q118 -1 -83 -1q-167 0 -255 98q-85 93 -85 263q0 149 75 243q81 102 225 102q26 0 75.5 -12.5t73.5 -12.5q23 0 51 24l22 -264h-10q-62 189 -168 189q-81 0 -121 -90q-29 -67 -29 -161q0 -113 44 -201q56 -111 158 -111q55 0 92 43 q25 28 52 93h16z" glyph-name="C" horiz-adv-x="605" unicode="C"/>
<glyph d="M684 330q0 -115 -48 -196q-50 -84 -125 -113q-56 -21 -169 -21h-295v31q27 8 35 21t8 43q0 60 1.5 179t1.5 178q0 126 -3 169q-3 36 -43 48v31q32 0 95 1h95q77 0 123 -3q161 -11 244 -109q80 -95 80 -259zM486 309q0 110 -28 195q-41 122 -127 122q-53 0 -53 -88v-124 q-1 -82 -1 -124q0 -8 -1 -33.5t-1 -40.5q0 -146 79 -146q132 0 132 239z" glyph-name="D" horiz-adv-x="702" unicode="D"/>
<glyph d="M589 247l-67 -258q-30 11 -61 11h-413v31q27 9 35 21.5t8 42.5q0 60 1.5 179t1.5 178q0 117 -3 169q-1 22 -10.5 31.5t-32.5 16.5v31h424q15 0 37 15l31 -236h-11q-29 85 -65 119q-44 42 -125 42q-62 0 -62 -75q0 -11 1 -32.5t1 -32.5q69 1 88 8q41 15 40 71h15l23 -248 h-14q-20 63 -46 85q-29 25 -91 21l-15 -1v-92q-1 -61 -1 -92q0 -8 -1 -34t-1 -41q0 -115 57 -115h13q78 0 139 60q44 43 88 130z" glyph-name="E" horiz-adv-x="564" unicode="E"/>
<glyph d="M542 479h-11q-29 85 -65 119q-44 42 -125 42q-61 0 -61 -74q0 -11 1 -33t1 -33q69 1 88 8q40 15 39 71h15l23 -248h-14q-18 63 -44 85q-30 25 -91 21l-16 -1q0 -41 -1 -123t-1 -124q0 -86 2 -114q2 -31 51 -44v-31h-283v31q27 9 35 21.5t8 42.5q0 60 1.5 179t1.5 178 q0 117 -3 169q-2 35 -43 48v31h424q15 0 37 15z" glyph-name="F" horiz-adv-x="521" unicode="F"/>
<glyph d="M719 0q-33 0 -100 -1t-101 -1q-75 0 -118 3q-163 11 -254.5 110.5t-91.5 263.5q0 162 104 250q97 82 262 82q25 0 74 -7.5t73 -7.5q21 0 33 15l21 -233h-9q-29 80 -68 117q-48 44 -126 44q-167 0 -167 -255q0 -103 38 -192q48 -117 136 -117q44 0 55 44q4 17 4 81v98 q0 56 -1 62q-7 30 -43 37v31h279v-30q-31 -3 -38 -21q-3 -8 -3 -49q0 -26 -1 -83.5t-1 -87.5q0 -48 3 -85q2 -22 10 -29t30 -9v-30z" glyph-name="G" horiz-adv-x="728" unicode="G"/>
<glyph d="M679 -1h-282v31q29 9 37 24q7 12 7 45v351h-164q0 -40 -1 -120t-1 -120q0 -86 2 -124q1 -25 14 -38q10 -10 36 -17v-31h-281v31q28 8 37 24q6 12 6 44q0 59 1 175.5t1 174.5q0 142 -2 171q-2 36 -43 49v31h281v-31q-36 -11 -43 -22.5t-7 -51.5v-83h164v63q0 51 -2 59 q-7 24 -42 35v31h282v-31q-36 -11 -43 -22t-7 -52q0 -56 -1 -168.5t-1 -169.5q0 -135 2 -172q1 -26 12.5 -37t37.5 -18v-31z" glyph-name="H" horiz-adv-x="677" unicode="H"/>
<glyph d="M325 0h-281v31q28 8 37 24q6 12 6 44q0 59 1 175.5t1 174.5q0 142 -2 171q-2 36 -43 49v31h281v-31q-36 -11 -43 -22.5t-7 -51.5q0 -56 -1 -168.5t-1 -168.5q0 -141 2 -172q2 -26 13 -37t37 -18v-31z" glyph-name="I" horiz-adv-x="325" unicode="I"/>
<glyph d="M482 669q-36 -11 -43 -22t-7 -52v-360q0 -122 -56 -182t-178 -60q-88 0 -174 38l32 214h15q0 -179 102 -179q47 0 62 43q8 25 8 84v428q0 35 -43 48v31h282v-31z" glyph-name="J" horiz-adv-x="487" unicode="J"/>
<glyph d="M667 0h-287v30q40 10 40 49q0 49 -40 158q-37 100 -69 152l-38 -47q0 -31 -1 -93.5t-1 -94.5q0 -10 -1 -27t-1 -25q0 -58 53 -71l-1 -31h-277v31q27 6 35 22q6 11 6 41q0 59 1 177.5t1 177.5q0 144 -2 173q-2 36 -41 47v31h277v-31q-32 -9 -40 -22.5t-8 -49.5v-149 q155 172 155 195q0 19 -24 26v31h224v-31q-119 -35 -205 -159q94 -121 168 -398q12 -43 22 -57q17 -23 54 -24v-31z" glyph-name="K" horiz-adv-x="662" unicode="K"/>
<glyph d="M545 283l-67 -293q-14 10 -52 10h-381v31q30 10 37 24q6 11 6 45q0 58 1 173t1 172q0 150 -2 174t-11 33.5t-32 16.5v31h281v-31q-33 -8 -41.5 -21.5t-8.5 -50.5q0 -48 -1 -144t-1 -144q0 -66 3 -156q1 -42 7 -58q11 -30 43 -30h10q61 0 121 81q46 62 71 137h16z" glyph-name="L" horiz-adv-x="514" unicode="L"/>
<glyph d="M757 0h-291v31q33 7 43 19t10 45v526l-175 -447l-168 424q0 -56 -1.5 -168t-1.5 -168q0 -109 3 -168q2 -32 13.5 -45.5t42.5 -17.5v-31h-195v31q31 8 39 22t8 48q0 58 1 174t1 174q0 140 -2 170q-2 24 -12 34t-35 16v31h323v-31q-24 2 -24 -24q0 -15 63 -167 q54 153 54 173t-17 18v31h321v-31q-35 -10 -42.5 -20t-7.5 -46q0 -58 -1.5 -174.5t-1.5 -175.5q0 -124 3 -170q2 -25 13 -35t37 -17v-31z" glyph-name="M" horiz-adv-x="756" unicode="M"/>
<glyph d="M627 668q-30 -11 -37 -18q-8 -10 -8 -39q0 -60 -1.5 -181.5t-1.5 -182.5q0 -134 3 -177q2 -29 36 -39v-31h-177v31q30 9 40 24t10 47q0 52 -19 93q-13 28 -53 80l-244 319q0 -56 -1.5 -169t-1.5 -170q0 -114 3 -169q1 -25 13 -37q9 -10 35 -18v-31h-184v31q28 7 37 21 q7 11 7 41v547q0 23 -34 29v31h319v-31q-21 -8 -21 -23q0 -14 71 -104q61 -77 72 -88l1 111q0 7 1 20v19q0 50 -43 65v31h178v-32z" glyph-name="N" horiz-adv-x="630" unicode="N"/>
<glyph d="M713 351q0 -157 -88 -256q-92 -104 -247 -104q-156 0 -242 106q-80 98 -80 258q0 149 90.5 250.5t237.5 101.5q154 0 244 -102q85 -98 85 -254zM519 278q0 127 -23 214q-36 141 -125 141q-116 0 -116 -223q0 -344 151 -344q113 0 113 212z" glyph-name="O" horiz-adv-x="736" unicode="O"/>
<glyph d="M592 584q0 -103 -112 -169q-71 -42 -205 -76v-87q-1 -58 -1 -87q0 -10 -1 -29.5t-1 -28.5q0 -61 53 -76v-31h-281v31q28 10 36 24q7 11 7 42q0 59 1 177.5t1 177.5q0 140 -2 169q-2 35 -42 48v31h388q159 0 159 -116zM412 556q0 82 -84 82q-54 0 -54 -67l1 -165 q57 15 95 53q42 42 42 97z" glyph-name="P" horiz-adv-x="599" unicode="P"/>
<glyph d="M728 1q-32 -155 -154 -155q-67 0 -102 43q-25 30 -48 104q-28 -3 -58 -3q-153 0 -237 103q-78 95 -78 252q0 154 82 254q87 106 237 106q162 0 252 -98q86 -95 86 -258q0 -201 -152 -309q41 -87 86 -87q28 0 43 10.5t29 37.5h14zM510 314q0 112 -25 195q-38 124 -122 124 q-111 0 -111 -242q0 -135 15 -172q42 13 81 13q84 0 151 -62q11 27 11 144zM409 66q-36 135 -121 135q-16 0 -16 -4q0 -27 25 -71q35 -63 104 -61z" glyph-name="Q" horiz-adv-x="736" unicode="Q"/>
<glyph d="M675 0h-256v31q28 9 28 42q0 80 -118 298l-54 -20v-87q-1 -58 -1 -87q0 -8 -1 -27.5t-1 -30.5q0 -79 48 -88v-31h-276v31q28 8 37 23q6 12 6 44q0 59 1 176t1 175q0 142 -2 171q-2 36 -43 49v31h420q146 0 146 -96q0 -53 -42 -99q-23 -26 -86 -71q65 -99 131 -283 q11 -35 36 -102q8 -18 26 -18v-31zM421 577q0 66 -85 66q-46 0 -58 -48q-5 -20 -5 -88q0 -13 1 -40t1 -41q61 18 99 53q47 42 47 98z" glyph-name="R" horiz-adv-x="676" unicode="R"/>
<glyph d="M571 236q0 -121 -101 -189q-88 -60 -214 -60q-65 0 -129 18q-32 9 -37 9q-11 0 -43 -17l-20 291h15q22 -95 73 -155q60 -72 148 -72q60 0 98.5 32t38.5 91q0 63 -92 102q-84 35 -169 70q-92 53 -92 152q0 98 80 153q71 48 173 48q28 0 81 -10.5t79 -10.5q20 0 46 14v-234 h-13q-17 75 -59 120q-48 52 -120 52q-40 0 -66 -18q-29 -20 -29 -59q0 -50 91 -88q149 -63 170 -76q91 -60 91 -163z" glyph-name="S" horiz-adv-x="592" unicode="S"/>
<glyph d="M557 492h-14q-39 118 -160 140q0 -61 -1.5 -181.5t-1.5 -180.5q0 -136 3 -185q2 -26 13 -37t37 -18v-31h-282v31q28 8 36 22q7 11 7 42v538q-64 -12 -99.5 -44.5t-55.5 -95.5h-14l38 225q27 -18 78 -20q-10 0 83 0q39 0 117 1.5t116 1.5t69 21z" glyph-name="T" horiz-adv-x="557" unicode="T"/>
<glyph d="M633 669q-35 -10 -46.5 -29.5t-11.5 -57.5q0 -57 3.5 -172t3.5 -173q0 -131 -66 -191q-63 -56 -197 -56q-136 0 -193 57.5t-57 192.5q0 57 5.5 169.5t5.5 168.5q0 7 1 19v18q0 42 -39 54v31h283v-31q-35 -11 -47 -32q-10 -17 -11 -57q-13 -373 -13 -371q0 -139 120 -139 q125 0 125 162q0 67 -7 167q-5 84 -11 167q-3 46 -10 63q-12 26 -49 40v31h211v-31z" glyph-name="U" horiz-adv-x="633" unicode="U"/>
<glyph d="M580 669q-26 -2 -39 -48l-150 -541q-5 -13 -5 -24q0 -18 20 -25v-31h-221v31q23 10 23 33q0 -1 -3 17l-138 533q-7 28 -11 35q-9 19 -27 20v31h255v-31q-36 -4 -36 -29q0 -21 42 -217q26 -118 51 -236l103 435q3 13 3 23q0 19 -32 24v31h165v-31z" glyph-name="V" horiz-adv-x="566" unicode="V"/>
<glyph d="M796 669q-24 -6 -32 -24q-2 -5 -10 -41l-109 -517q-3 -14 -3 -24q0 -25 27 -32v-31h-226v31q18 9 18 26q0 5 -3 28l-58 447l-79 -447q-4 -23 -4 -33q0 -15 19 -21v-31h-206v31q22 6 22 24q0 16 -2 24l-80 530q-4 29 -10 39q-9 16 -32 21v31h242v-31q-40 -7 -40 -35 q0 -4 6 -59l43 -391l68 421q4 25 4 33q0 26 -31 31v31h241v-31q-28 -6 -28 -35q0 -11 1 -19l52 -437l83 422q4 20 4 31q0 24 -28 38v31h151v-31z" glyph-name="W" horiz-adv-x="781" unicode="W"/>
<glyph d="M633 0h-279v30q34 4 34 28q0 14 -108 242q-101 -227 -101 -239q0 -25 42 -30v-31h-190v31q23 6 37 22q8 9 23 38l152 289l-122 245q-18 36 -48 44v31h278v-31q-36 0 -36 -22q0 -8 29 -71q17 -38 35 -77l42 78q29 57 29 74q0 18 -24 18v31h174v-31q-24 -3 -44 -25 q-9 -11 -28 -44l-107 -183l164 -336q11 -23 18 -32q12 -15 30 -18v-31z" glyph-name="X" horiz-adv-x="621" unicode="X"/>
<glyph d="M589 669q-19 -4 -42 -47l-149 -283v-83q-1 -55 -1 -83q0 -10 -1 -30.5t-1 -30.5q0 -66 53 -81v-31h-281v31q27 9 35 21.5t8 42.5v245l-138 284q-22 45 -43 45v31h282v-31q-35 0 -35 -34q0 -8 82 -210q31 57 62 113q46 89 46 108q0 18 -37 23v31h160v-31z" glyph-name="Y" horiz-adv-x="573" unicode="Y"/>
<glyph d="M542 234l-65 -252q-12 18 -56 18h-388l277 636q-26 2 -40 2q-77 0 -121 -38q-38 -32 -68 -109h-12l34 224q25 -15 52 -15h374l-278 -636q20 -2 31 -2q90 0 151 45q54 40 98 127h11z" glyph-name="Z" horiz-adv-x="527" unicode="Z"/>
<glyph d="M276 -149h-230v878h230v-67h-105v-746h105v-65z" glyph-name="bracketleft" horiz-adv-x="275" unicode="["/>
<glyph d="M441 -36h-108l-330 810h108z" glyph-name="backslash" horiz-adv-x="449" unicode="\"/>
<glyph d="M272 -148h-228v65h103v746h-106v67h231v-878z" glyph-name="bracketright" horiz-adv-x="275" unicode="]"/>
<glyph d="M405 596h-69l-114 105l-117 -105h-67l128 194h114z" glyph-name="asciicircum" horiz-adv-x="409" unicode="^"/>
<glyph d="M555 -163h-561v83h561v-83z" glyph-name="underscore" horiz-adv-x="550" unicode="_"/>
<glyph d="M300 609h-65l-108 62q-88 56 -88 84q0 55 64 55q36 0 110 -88q44 -57 87 -113z" glyph-name="grave" horiz-adv-x="303" unicode="`"/>
<glyph d="M535 0h-181q-18 37 -27 70q-62 -70 -143 -70q-64 0 -105.5 38t-41.5 101q0 72 49 117q37 35 112 60q62 19 125 38v18q0 48 -16 68q-19 23 -65 23q-91 0 -153 -122h-11l15 182q21 -21 32 -21q10 0 46 13q55 20 127 20q124 0 161 -47q31 -39 31 -167q0 -28 -1 -85.5 t-1 -86.5q0 -8 -1 -23v-24q0 -61 48 -71v-31zM325 223q0 11 -1 33.5t-1 33.5q-125 -28 -125 -127q0 -69 49 -69q78 0 78 129z" glyph-name="a" horiz-adv-x="534" unicode="a"/>
<glyph d="M590 242q0 -136 -86 -194q-70 -48 -210 -48h-247v31q30 5 40 18t10 43q0 58 1 174t1 174q0 123 -2 159q-3 60 -52 70v31l221 13v-178q159 0 238 -65q86 -71 86 -228zM416 246q0 225 -150 224q0 -37 -1 -111.5t-1 -112.5q0 -44 2 -115q1 -33 7 -46q9 -22 36 -22h9 q54 0 80 69q18 49 18 114z" glyph-name="b" horiz-adv-x="590" unicode="b"/>
<glyph d="M514 186l-55 -188q-13 11 -24 11q-18 0 -64 -10t-71 -10q-123 0 -193 84q-65 78 -65 204q0 116 66.5 187t181.5 71q20 0 57.5 -6t56.5 -6q24 0 46 27l35 -203h-19q-18 57 -39 84q-31 38 -80 38q-67 0 -99 -66q-24 -50 -24 -125q0 -76 29 -129q35 -67 104 -67q46 0 85 31 q37 28 54 73h18z" glyph-name="c" horiz-adv-x="512" unicode="c"/>
<glyph d="M584 0q-34 0 -102 -1t-102 -1q-180 0 -245 36q-95 52 -95 220q0 145 94 217q84 64 234 64l1 65q1 40 -4 49q-8 17 -43 20v31l214 13v-610q0 -35 7 -48q10 -19 41 -24v-31zM369 156l-1 317q-85 1 -123 -74q-30 -58 -30 -151q0 -69 18 -116q26 -69 83 -69q53 0 53 93z" glyph-name="d" horiz-adv-x="586" unicode="d"/>
<glyph d="M522 215l-51 -216q-18 9 -45 9q-22 0 -65 -7t-65 -7q-114 0 -187.5 79t-73.5 194t72.5 192.5t186.5 77.5q98 0 157 -57t70 -156l-306 -81q3 -60 38 -109q40 -56 96 -56q54 0 99 43q40 38 58 94h16zM353 359q0 38 -13 68q-17 40 -50 40q-83 0 -80 -148z" glyph-name="e" horiz-adv-x="530" unicode="e"/>
<glyph d="M438 712l-34 -136h-13q0 4 1 12v12q0 79 -68 79q-36 0 -48 -21q-9 -16 -9 -55v-81h31q54 0 87 13l-26 -98q-14 10 -68 10h-24q0 -42 -1 -124t-1 -123q0 -70 2 -119q1 -25 11 -35t36 -15v-31h-266v31q30 5 40 18t10 43v355h-62v28q37 13 42 16q19 12 20 39q2 72 12 98 q15 42 65 74t128 32q66 0 135 -22z" glyph-name="f" horiz-adv-x="410" unicode="f"/>
<glyph d="M611 -33q0 -106 -121 -161q-93 -43 -214 -43q-133 0 -249 72l94 141l8 -7q-3 -12 -3 -25q0 -50 58 -78q47 -22 102 -22q59 0 101 19q55 26 55 78q0 60 -120 60h-34q-20 -1 -26 -1q-108 0 -165.5 64t-57.5 174q0 284 329 284h223v-30q-32 -8 -41.5 -21t-9.5 -48.5 t-1 -107.5t-1 -108q0 -73 2 -109q1 -24 36 -58t35 -73zM374 153l-1 299q-86 0 -123 -51q-32 -44 -32 -133q0 -74 17 -125q25 -78 83 -78q35 0 48 28q8 19 8 60z" glyph-name="g" horiz-adv-x="617" unicode="g"/>
<glyph d="M601 0h-266v31q31 5 42 24q9 14 9 47l1 172q0 68 -2 86q-8 61 -42 61q-80 0 -80 -181q0 -19 1 -48t1 -37q0 -9 -1 -26t-1 -25q0 -60 50 -73v-31h-266v31q30 5 40 18t10 43q0 60 1.5 181.5t1.5 182.5q0 119 -3 164q-2 25 -13.5 35t-38.5 14v31l221 13v-267q85 89 165 89 q84 0 109 -60q14 -35 14 -133q0 -37 -1.5 -113t-1.5 -119q0 -71 50 -79v-31z" glyph-name="h" horiz-adv-x="599" unicode="h"/>
<glyph d="M265 689q0 -42 -22 -70q-25 -31 -66 -31q-42 0 -68 24.5t-26 66.5q0 97 92 97q38 0 64 -24.5t26 -62.5zM307 0h-267v31q30 4 40.5 19t10.5 47l1 234q0 7 1 28t1 34q0 97 -56 99v31l221 13q0 -49 -1 -147.5t-1 -148.5q0 -117 2 -151q2 -28 11.5 -41t36.5 -17v-31z" glyph-name="i" horiz-adv-x="306" unicode="i"/>
<glyph d="M268 687q0 -42 -22 -69q-23 -30 -65 -30q-41 0 -67.5 24.5t-26.5 65.5t23 70t64 29q39 0 66.5 -25t27.5 -65zM272 10q0 -247 -216 -247q-85 0 -174 41l70 157l9 -6q-6 -17 -6 -35q0 -93 78 -93q69 0 69 87v24q-1 16 -1 24v172q0 33 1 98t1 97q0 7 1 28.5t1 33.5 q0 97 -56 101v31l221 12q0 -87 1 -262t1 -263z" glyph-name="j" horiz-adv-x="306" unicode="j"/>
<glyph d="M632 0h-281v31q24 8 33.5 19.5t9.5 36.5q0 38 -87 190l-45 -51l-1 -91q-1 -54 3 -66q8 -33 46 -38v-31h-266v31q50 6 50 66l1 352q0 119 -2 155q-3 60 -52 65v30l221 13v-403q119 123 119 158q0 20 -39 25v30h245v-30q-52 -3 -95 -32q-24 -16 -76 -67q79 -113 154 -297 q23 -58 62 -65v-31z" glyph-name="k" horiz-adv-x="630" unicode="k"/>
<glyph d="M310 0h-266v31q52 6 50 69l-1 33v430q0 52 -4 68q-10 35 -48 38v31l221 13v-615q0 -32 8 -46q11 -18 40 -21v-31z" glyph-name="l" horiz-adv-x="306" unicode="l"/>
<glyph d="M898 0h-266v31q51 4 51 68v160q0 82 -2 95q-8 68 -44 68q-86 0 -86 -204q0 -20 1 -51t1 -39q0 -53 2 -61q7 -33 40 -36v-31h-250v31q27 2 36.5 13t9.5 38l1 180q0 4 1 24v30q0 105 -45 105q-66 0 -82 -119q-5 -35 -5 -172q0 -52 3 -64q9 -32 45 -35v-31h-265v31 q50 4 50 66q0 41 1 122v122q0 7 1 27.5t1 32.5q0 89 -48 91v31l189 13q17 -53 24 -122q86 121 180 121q102 0 115 -110q83 111 176 111q81 0 106 -71q13 -39 13 -139q0 -29 -1 -85.5t-1 -84.5q0 -7 -1 -23v-25q0 -74 49 -77v-31z" glyph-name="m" horiz-adv-x="893" unicode="m"/>
<glyph d="M262 123v-22q0 -34 8 -48q10 -20 40 -22v-31h-266v31q50 4 50 66l1 234q0 7 1 28t1 34q0 97 -56 99v31l198 13q17 -52 22 -110q83 110 182 110q111 0 115 -120q2 -50 0 -131q-2 -107 -2 -131q0 -6 -1 -21v-24q0 -75 49 -78v-31h-264v31q49 2 49 68l1 184q0 4 1 22v29 q0 95 -39 95q-68 0 -85 -125q-5 -36 -5 -180v-1z" glyph-name="n" horiz-adv-x="601" unicode="n"/>
<glyph d="M585 262q0 -124 -75 -196.5t-200 -72.5q-121 0 -194 72t-73 194q0 120 79 198.5t199 78.5q124 0 194 -74.5t70 -199.5zM400 234q0 236 -94 236q-83 0 -83 -161q0 -87 15 -149q24 -101 83 -101q79 0 79 175z" glyph-name="o" horiz-adv-x="586" unicode="o"/>
<glyph d="M583 256q0 -264 -246 -264q-33 0 -71 5l-1 -96q-1 -53 2 -65q9 -34 46 -38v-31h-266v31q51 7 51 71.5t1 196t1 197.5q0 132 -3 180q-2 27 -13.5 37t-39.5 12v31q31 0 92 1h92q179 0 253 -42q102 -59 102 -226zM418 258q0 91 -21 136q-31 65 -110 65h-21v-374 q16 -25 59 -25q54 0 77 77q16 51 16 121z" glyph-name="p" horiz-adv-x="592" unicode="p"/>
<glyph d="M593 -233h-263v26q50 4 49 84l-1 116q-38 -5 -71 -5q-264 0 -264 250q0 90 37 153q49 84 125 111q54 20 168 20h219v-30q-30 -4 -39 -15.5t-9 -42.5v-567q0 -70 49 -75v-25zM378 139v315q-88 0 -125 -60q-29 -47 -29 -141q0 -196 93 -196q61 0 61 82z" glyph-name="q" horiz-adv-x="594" unicode="q"/>
<glyph d="M442 529l-24 -172q-39 55 -80 55q-75 0 -75 -178q0 -20 1 -50.5t1 -37.5q0 -62 2 -72q9 -40 49 -43v-31h-269v31q51 5 51 68l1 229q0 7 1 28t1 34q0 99 -56 102v31l190 6q19 -42 31 -102q47 108 122 108q18 0 54 -6z" glyph-name="r" horiz-adv-x="443" unicode="r"/>
<glyph d="M481 197q0 -96 -77 -153q-70 -52 -170 -52q-22 0 -63.5 8.5t-61.5 8.5q-31 0 -52 -10l-8 215h13q9 -68 52.5 -111t110.5 -43q42 0 72 21.5t30 61.5q0 42 -69 67q-64 23 -129 46q-69 36 -69 107q0 86 68 132q59 40 149 40q19 0 56.5 -7t55.5 -7q17 0 39 10l8 -169h-13 q-15 48 -50 79q-39 33 -87 33q-27 0 -46 -14.5t-19 -40.5q0 -31 67 -60q110 -46 126 -56q67 -42 67 -106z" glyph-name="s" horiz-adv-x="482" unicode="s"/>
<glyph d="M393 170l-30 -158q-66 -20 -134 -20q-67 0 -100 24q-36 28 -39 93q-3 70 -2 174l2 175h-55v30q47 7 65 34q14 21 14 62q0 12 -1.5 39.5t-1.5 42.5q78 4 148 72v-209l14 -1q59 -4 103 14l-23 -91q-15 6 -61 6h-33q0 -35 -1 -105.5t-1 -106.5q0 -5 -1 -27t-1 -36 q0 -109 47 -109q31 0 51 35q3 6 25 62h15z" glyph-name="t" horiz-adv-x="390" unicode="t"/>
<glyph d="M599 0h-192q-1 2 -18 92v0q-87 -99 -184 -99h-12q-57 0 -80 38q-18 29 -20 92q-2 51 -1 129q2 113 2 129q0 9 1 26.5t1 25.5q0 56 -55 59v31l221 6v-104q-1 -70 -1 -104q0 -4 -1 -28v-39q0 -147 49 -147q81 0 81 193q0 22 -1 55.5t-1 41.5q0 58 -2 64q-7 29 -47 31v30 l212 7q0 -49 -1 -145t-1 -144q0 -135 3 -159q6 -43 47 -50v-31z" glyph-name="u" horiz-adv-x="596" unicode="u"/>
<glyph d="M518 492q-26 -3 -43 -38q-4 -9 -20 -60l-98 -316q-7 -23 -7 -27q0 -16 22 -20v-31h-203v31q20 2 20 23q0 16 -50 182q-29 99 -59 197q-9 30 -15 40q-12 18 -36 19v31l248 -1v-30q-24 -4 -30 -7q-10 -7 -10 -29q0 -34 30 -137q21 -71 43 -143q24 76 49 153q36 117 36 140 q0 21 -35 23v30h158v-30z" glyph-name="v" horiz-adv-x="502" unicode="v"/>
<glyph d="M691 492q-26 -4 -41 -69l-78 -335q-4 -17 -4 -24q0 -30 24 -33v-31h-193v31q23 4 23 32q0 30 -58 262l-54 -244q-5 -23 -5 -28q0 -20 19 -22v-31h-201v31q23 4 23 30q0 5 -3 20l-69 348q-6 31 -11 41q-11 22 -33 22v31l239 -1v-30q-40 -8 -40 -42q0 -16 8 -65l37 -226 l80 363h95l75 -355l48 240q7 35 7 51q0 28 -33 34v30h145v-30z" glyph-name="w" horiz-adv-x="677" unicode="w"/>
<glyph d="M578 0h-267v31q24 -2 24 16l-63 147q-84 -136 -84 -144q0 -19 34 -19v-31h-181v31q32 3 65 44q1 2 46 68l83 123l-68 122q-32 58 -37 64q-26 37 -57 40v31l268 -1v-30q-33 -3 -33 -21q0 -9 44 -103q17 27 33 53q25 41 25 52q0 17 -24 19v30h170v-30q-31 -2 -93 -84 q-38 -54 -75 -107l99 -174q28 -49 36 -60q27 -35 55 -36v-31z" glyph-name="x" horiz-adv-x="579" unicode="x"/>
<glyph d="M522 492q-35 -6 -51 -55l-171 -517q-52 -157 -148 -157q-60 0 -106 35l40 137h10l-1 -14q-2 -25 11.5 -43.5t38.5 -18.5q66 0 66 109q0 69 -20 127l-121 348q-9 27 -13 33q-10 14 -30 16v31l252 -1v-30q-21 -3 -28 -7q-10 -8 -10 -26q0 -33 32 -141q22 -75 45 -149 q22 74 43 147q28 101 28 144q0 30 -32 32v30h165v-30z" glyph-name="y" horiz-adv-x="506" unicode="y"/>
<glyph d="M492 199l-44 -208q-13 9 -48 9h-356l223 458q-8 1 -23 1q-128 0 -164 -120h-10l32 196q39 -18 166 -18q43 0 115.5 2.5t90.5 2.5l-228 -453h21q97 0 133 20q42 24 79 110h13z" glyph-name="z" horiz-adv-x="492" unicode="z"/>
<glyph d="M515 770q-89 -13 -127 -43q-33 -26 -41 -79q-3 -23 -3 -129q0 -124 -59 -175q-47 -39 -179 -61q111 -17 159.5 -45.5t64.5 -89.5q12 -48 12 -167q0 -91 40 -132t132 -53v-52q-280 9 -289 194v120q0 105 -42 145q-37 34 -144 49v63q109 17 146 53q40 41 40 149v52 q0 83 12 121q19 57 77 90q75 43 201 43v-53z" glyph-name="braceleft" horiz-adv-x="518" unicode="{"/>
<glyph d="M130 -214h-85v1129h85v-1129z" glyph-name="bar" horiz-adv-x="130" unicode="|"/>
<glyph d="M512 285q1 -19 -3 -30q-93 -9 -134 -43q-36 -29 -44 -90q-3 -25 -3 -135q0 -134 -82 -192q-68 -48 -209 -50v52q89 10 126 43q34 28 41 87q2 21 2 135q0 121 62 168q41 31 173 58q-118 18 -166 50.5t-60 98.5q-8 42 -8 175q0 81 -47 120q-40 34 -125 44v53 q130 -7 194 -42q90 -48 95 -162v-102q0 -109 41 -151q36 -37 146 -55z" glyph-name="braceright" horiz-adv-x="518" unicode="}"/>
<glyph d="M424 754q-31 -147 -121 -147q-32 0 -83.5 29t-76.5 29q-26 0 -37 -15q-3 -4 -19 -37q-9 -3 -28 -3q-14 0 -21 2q34 142 115 142q36 0 95 -26.5t72 -26.5q23 0 36 16q8 10 19 37h49z" glyph-name="asciitilde" horiz-adv-x="428" unicode="~"/>
<glyph glyph-name="nonbreakingspace" horiz-adv-x="512" unicode=" "/>
<glyph d="M240 437q0 -48 -22 -77q-25 -33 -72 -33q-42 0 -66.5 28.5t-24.5 71.5q0 103 89 103q42 0 69 -25.5t27 -67.5zM249 -177h-207q39 139 39 282q0 29 -5 86t-5 86q33 -12 61 -12q42 0 97 36v-7q0 -41 -6.5 -124.5t-6.5 -125.5q0 -76 20 -158q13 -53 13 -63z" glyph-name="exclamdown" horiz-adv-x="252" unicode="¡"/>
<glyph d="M461 245l-49 -141q-10 5 -13 5q-12 0 -37 -8.5t-39 -8.5q-21 0 -53 7q-16 -69 -16 -79q0 -16 29 -21v-15h-137v15q26 4 32 15q2 4 7 35l10 61q-76 19 -119 87q-41 62 -41 144q0 113 77 186.5t191 73.5l12 48q7 28 7 48q0 15 -20 15v15h136v-15q-37 -8 -48 -43 q-7 -36 -14 -73q21 -3 61 -17l19 8l-19 -155h-11q-7 61 -63 96l-77 -359l25 -1q84 -3 142 77h8zM286 533q-110 -48 -110 -203q0 -78 42 -114z" glyph-name="cent" horiz-adv-x="459" unicode="¢"/>
<glyph d="M595 226l-71 -226q-91 7 -160 66q-69 -75 -177 -75q-56 0 -101 26q-53 31 -53 84q0 109 135 109q47 0 97 -16q0 151 -93 151q-32 0 -59 -25q-13 -14 -26 -27v3l39 130q12 -11 31 -11h16q-18 49 -18 92q0 90 70 148q66 54 158 54q161 0 161 -150l-99 -92l-6 7q29 44 29 84 q0 37 -23 61t-59 24q-39 0 -60 -41q-16 -32 -16 -75q0 -53 23 -89q27 -43 77 -43q48 0 96 63h12l-34 -135q-12 7 -32 7q-37 0 -49 -8q22 -59 22 -99q0 -34 -15 -90q38 -18 65 -18q57 0 107 111h13zM249 117q-53 32 -81 32q-52 0 -52 -43t59 -43q31 0 74 54z" glyph-name="sterling" horiz-adv-x="596" unicode="£"/>
<glyph d="M297 495l-25 -106q-34 6 -79 7q-31 1 -83 -1q-59 -2 -80 -2q76 79 102 116q57 77 57 138q0 60 -45 60q-60 0 -72 -85l-19 89q73 43 127 43q45 0 75 -26.5t30 -70.5q0 -45 -31 -88q-18 -26 -59 -63q-35 -31 -39 -42l44 -1q65 -1 97 32z" glyph-name="currency" horiz-adv-x="319" unicode="¤"/>
<glyph d="M586 667q-21 -7 -40 -43l-149 -282v-20h154v-89h-156v-99h156v-89h-142q5 -6 31 -14v-31h-282v31q26 3 32 14h-140v91h154v98h-154v89h157v22q0 7 -62 132l-75 150l-14 30q-6 9 -27 18v23h279v-29q-24 -7 -29 -10q-13 -7 -13 -25q0 -24 88 -209q104 184 104 209 q0 32 -32 32v31h160v-30z" glyph-name="yen" horiz-adv-x="573" unicode="¥"/>
<glyph d="M520 307q0 -98 -100 -169q52 -59 52 -121q0 -74 -51 -122t-125 -48q-26 0 -74 16t-72 16q-23 0 -44 -12l-7 158h10q26 -65 63 -94q41 -34 106 -34q36 0 61.5 20.5t25.5 55.5q0 44 -86 90l-160 84q-86 58 -86 134q0 57 30 100q21 31 75 75q-48 61 -48 119q0 82 64 123 q53 33 140 33q18 0 52 -5.5t51 -5.5q25 0 49 15l5 -174h-12q-49 130 -166 130q-32 0 -54 -20t-22 -52q0 -47 84 -93q77 -42 155 -84q84 -59 84 -135zM433 238q0 33 -44 66q-11 9 -72 44l-152 88q-42 -50 -42 -83q0 -45 119 -117q74 -40 148 -79l28 38q15 23 15 43z" glyph-name="section" horiz-adv-x="523" unicode="§"/>
<glyph d="M190 681q0 -32 -21.5 -56t-52.5 -24t-55 20.5t-24 50.5q0 34 19.5 58t53.5 24q33 0 56.5 -20.5t23.5 -52.5zM415 681q0 -32 -21.5 -57t-52.5 -25q-32 0 -56 22t-24 54t21 55.5t53 23.5t56 -21t24 -52z" glyph-name="dieresis" horiz-adv-x="419" unicode="¨"/>
<glyph d="M786 359q0 -154 -110 -263.5t-263 -109.5q-154 0 -263 110t-109 265q0 154 109.5 263t263.5 109t263 -110t109 -264zM747 357q0 136 -96 235t-232 99q-138 0 -236.5 -96t-98.5 -234q0 -136 96 -234.5t232 -98.5q137 0 236 96t99 233zM597 257q-71 -121 -186 -121 q-97 0 -158 68t-61 166q0 96 62 165t157 69q36 0 81.5 -22t48.5 -22q22 0 33 41h9v-181h-19q-14 68 -47 109q-41 51 -102 51q-71 0 -106 -74q-27 -57 -27 -136q0 -82 30 -133q37 -65 112 -65q94 0 152 98z" glyph-name="copyright" horiz-adv-x="787" unicode="©"/>
<glyph d="M279 524h-88l-13 29q-42 -38 -73 -38t-51.5 20.5t-20.5 51.5q0 50 49 79q24 14 94 34q-2 54 -36 54q-33 0 -59 -31.5t-27 -31.5l8 90q12 -3 24 -3q16 0 45.5 7t44.5 7q84 0 84 -117q0 -16 -1.5 -46.5t-1.5 -42.5q0 -24 2 -31q4 -12 20 -22v-9zM176 648v15q-1 0 -2 1h-3 q-21 0 -40 -21t-19 -43q0 -34 22 -34q42 0 42 82z" glyph-name="ordfeminine" horiz-adv-x="287" unicode="ª"/>
<glyph d="M538 87h-130l-132 173l131 176h129l-127 -175zM305 88h-133l-131 174l130 172h130l-127 -174z" glyph-name="guillemotleft" horiz-adv-x="539" unicode="«"/>
<glyph d="M204 470h-34l-78 130q-56 98 -56 128q0 29 20 45.5t50 16.5q39 0 56 -53q7 -19 16 -85z" glyph-name="logicalnot" horiz-adv-x="207" unicode="¬"/>
<glyph d="M783 358q0 -153 -109 -261.5t-261 -108.5q-153 0 -261 109t-108 262t108.5 261.5t260.5 108.5q153 0 261.5 -109t108.5 -262zM744 357q0 137 -97 234t-234 97t-234 -96.5t-97 -233.5t96.5 -234t233.5 -97t234.5 96.5t97.5 233.5zM654 251q-6 -54 -22 -78q-22 -33 -70 -33 q-64 0 -77 57q-6 52 -13 105q-16 55 -90 53l-33 -1l-1 -76q0 -9 -1 -26v-22q0 -34 14 -46t62 -13v-23h-219v23q43 0 52 3q21 7 21 40v234q0 10 1 27v24q0 33 -12 45q-16 16 -62 15v24q22 0 67 1h67q104 0 157 -13q101 -24 101 -94q0 -90 -147 -113q51 -23 74 -52.5t34.5 -84 t28.5 -54.5q37 0 43 78h25zM509 470q0 88 -94 88q-50 0 -62 -32q-6 -14 -6 -79q0 -12 1 -34t1 -33h41q119 0 119 90z" glyph-name="registered" horiz-adv-x="782" unicode="®"/>
<glyph d="M707 362h-283v-164h-98v164h-282v99h282v96q0 47 1 71h98v-168h282v-98zM707 31h-661v96h661v-96z" glyph-name="plusminus" horiz-adv-x="705" unicode="±"/>
<glyph d="M292 758q0 -33 -86 -87q-55 -32 -110 -63h-63l75 96q26 34 53 69q36 38 72 38q23 0 41 -15.5t18 -37.5z" glyph-name="acute" horiz-adv-x="296" unicode="´"/>
<glyph d="M719 141q0 -60 -32 -100q-35 -43 -93 -43q-55 0 -82 42q-19 29 -29 93q-30 -137 -139 -137q-47 0 -80 26q-24 18 -55 65q0 -32 1 -97.5t1 -97.5q0 -116 -74 -116q-51 0 -70 40q-14 28 -14 87q0 14 2 49l30 528h157v-102q-1 -68 -1 -103q0 -104 5 -129q15 -78 79 -78 q80 0 80 169v246h159q0 -35 -1 -105t-1 -105q0 -4 -1 -24v-34q0 -136 51 -136q34 0 53 27q11 15 24 57q5 7 13 7q17 0 17 -29z" glyph-name="mu" horiz-adv-x="710" unicode="µ"/>
<glyph d="M504 754h-78v-847h-30v847h-108v-849h-34v449q-214 8 -214 215q0 120 78 171q64 41 190 41h196v-27z" glyph-name="paragraph" horiz-adv-x="475" unicode="¶"/>
<glyph d="M296 -134q0 -54 -47 -80q-38 -21 -96 -21q-54 0 -112 21l17 41q34 -12 62 -12q63 0 63 43q0 26 -25 31q-3 1 -43 1q-9 0 -20 7l48 108h48l-28 -68q22 5 40 5q36 0 64.5 -20t28.5 -56z" glyph-name="cedilla" horiz-adv-x="296" unicode="¸"/>
<glyph d="M538 258l-131 -173h-132l130 171l-123 176h127zM304 258l-131 -173h-132l130 171l-127 176h133z" glyph-name="guillemotright" horiz-adv-x="538" unicode="»"/>
<glyph d="M417 438q0 -111 -94 -111q-44 0 -68 28t-24 74q0 103 91 103q41 0 68 -26.5t27 -67.5zM493 -132q-11 8 -15 8q-5 0 -85 -32.5t-136 -32.5q-96 0 -153 36q-69 44 -69 134q0 83 64 133q59 34 119.5 69t56.5 88q24 -2 37 -2q29 0 85 24q3 -16 3 -33q0 -45 -45 -93l-82 -80 q-45 -50 -45 -99q0 -44 23 -70.5t66 -26.5q39 0 75.5 29t47.5 71q6 25 6 89h16z" glyph-name="questiondown" horiz-adv-x="500" unicode="¿"/>
<glyph d="M480 754h-65q-54 31 -108 63q-87 55 -87 84q0 56 64 56q38 0 110 -89zM640 0h-253v31q32 16 32 52q0 83 -59 140t-143 63q-15 -54 -31 -108q-22 -81 -22 -101q0 -26 37 -46v-31h-172v31q28 22 40 60l162 530q5 16 5 30q0 21 -16 25v24h272v-25q-21 -9 -21 -31 q0 -27 58 -267q35 -144 70 -289q6 -24 12.5 -33t28.5 -24v-31zM372 301l-68 295l-70 -247l11 1q55 5 127 -49z" glyph-name="Agrave" horiz-adv-x="626" unicode="À"/>
<glyph d="M544 904q0 -32 -82 -85q-57 -32 -114 -65h-63l76 97l52 68q36 39 72 39q23 0 41 -15.5t18 -38.5zM640 0h-253v31q32 16 32 52q0 83 -59 140t-143 63q-15 -54 -31 -108q-22 -81 -22 -101q0 -26 37 -46v-31h-172v31q28 22 40 60l162 530q5 16 5 30q0 21 -16 25v24h272v-25 q-21 -9 -21 -31q0 -27 58 -267q35 -144 70 -289q6 -24 12.5 -33t28.5 -24v-31zM372 301l-68 295l-70 -247l11 1q55 5 127 -49z" glyph-name="Aacute" horiz-adv-x="626" unicode="Á"/>
<glyph d="M539 754h-69l-114 105l-117 -105h-67l128 195h114zM640 0h-253v31q32 16 32 52q0 83 -59 140t-143 63q-15 -54 -31 -108q-22 -81 -22 -101q0 -26 37 -46v-31h-172v31q28 22 40 60l162 530q5 16 5 30q0 21 -16 25v24h272v-25q-21 -9 -21 -31q0 -27 58 -267 q35 -144 70 -289q6 -24 12.5 -33t28.5 -24v-31zM372 301l-68 295l-70 -247l11 1q55 5 127 -49z" glyph-name="Acircumflex" horiz-adv-x="626" unicode="Â"/>
<glyph d="M557 897q-12 -58 -37 -96q-33 -52 -83 -52q-33 0 -85.5 29t-77.5 29q-26 0 -37 -14q-3 -4 -17 -38h-32q-12 0 -17 1q34 141 114 141q37 0 96.5 -27t71.5 -27q23 0 36 17q8 9 19 37h49zM640 0h-253v31q32 16 32 52q0 83 -59 140t-143 63q-15 -54 -31 -108 q-22 -81 -22 -101q0 -26 37 -46v-31h-172v31q28 22 40 60l162 530q5 16 5 30q0 21 -16 25v24h272v-25q-21 -9 -21 -31q0 -27 58 -267q35 -144 70 -289q6 -24 12.5 -33t28.5 -24v-31zM372 301l-68 295l-70 -247l11 1q55 5 127 -49z" glyph-name="Atilde" horiz-adv-x="626" unicode="Ã"/>
<glyph d="M550 835q0 -32 -21.5 -56.5t-52.5 -24.5q-32 0 -56 22t-24 54t21 55t53 23q33 0 56.5 -20.5t23.5 -52.5zM325 834q0 -36 -23 -58t-58 -22q-27 0 -49.5 22.5t-22.5 49.5q0 34 19.5 58t52.5 24q32 0 56.5 -21t24.5 -53zM640 0h-253v31q32 16 32 52q0 83 -59 140t-143 63 q-15 -54 -31 -108q-22 -81 -22 -101q0 -26 37 -46v-31h-172v31q28 22 40 60l162 530q5 16 5 30q0 21 -16 25v24h272v-25q-21 -9 -21 -31q0 -27 58 -267q35 -144 70 -289q6 -24 12.5 -33t28.5 -24v-31zM372 301l-68 295l-70 -247l11 1q55 5 127 -49z" glyph-name="Adieresis" horiz-adv-x="626" unicode="Ä"/>
<glyph d="M446 854q0 -39 -28 -69.5t-68 -30.5q-44 0 -75.5 28.5t-31.5 71.5q0 45 31 73.5t76 28.5q38 0 67 -31.5t29 -70.5zM640 0h-253v31q32 16 32 52q0 83 -59 140t-143 63q-15 -54 -31 -108q-22 -81 -22 -101q0 -26 37 -46v-31h-172v31q28 22 40 60l162 530q5 16 5 30 q0 21 -16 25v24h272v-25q-21 -9 -21 -31q0 -27 58 -267q35 -144 70 -289q6 -24 12.5 -33t28.5 -24v-31zM396 854q0 22 -14.5 36.5t-36.5 14.5q-21 0 -36 -14.5t-15 -36.5q0 -21 15 -36t36 -15t36 15t15 36zM372 301l-68 295l-70 -247l11 1q55 5 127 -49z" glyph-name="Aring" horiz-adv-x="626" unicode="Å"/>
<glyph d="M924 252l-65 -268q-23 16 -60 16h-394v30q32 11 39 27q5 10 5 51v234q-91 -22 -165 -98q-80 -81 -80 -170q0 -23 6.5 -31.5t27.5 -13.5v-29h-210v23q41 25 61 65l245 495q25 51 25 72q0 13 -28 24v25h463q34 0 56 13l32 -226h-13q-47 152 -182 152q-44 0 -53 -39 q-3 -11 -3 -78q0 -12 1 -35v-36q64 8 83 20q29 19 36 76h10l29 -261l-8 -2q-41 101 -123 101q-9 0 -27 -2q0 -35 -1.5 -108t-1.5 -118q0 -100 69 -100q128 0 213 192zM453 416v223l-146 -295q67 46 146 72z" glyph-name="AE" horiz-adv-x="904" unicode="Æ"/>
<glyph d="M608 203l-58 -213q-13 10 -68 10q-17 0 -51 -1t-51 -1l-25 -61q22 5 40 5q37 0 65.5 -21t28.5 -56q0 -53 -48 -79q-38 -21 -96 -21q-53 0 -111 21l18 41q30 -12 63 -12q60 0 60 47q0 19 -27 29q-6 0 -18 -1h-19q-10 0 -24 7l47 103q-138 12 -214 120q-68 97 -68 242 q0 149 75 243q82 101 227 101q26 0 75 -12.5t74 -12.5q22 0 49 24l22 -264h-10q-62 189 -168 189q-81 0 -121 -90q-29 -67 -29 -161q0 -113 44 -201q56 -111 158 -111q55 0 92 43q25 28 52 93h16z" glyph-name="Ccedilla" horiz-adv-x="605" unicode="Ç"/>
<glyph d="M441 754h-65q-55 31 -109 63q-86 54 -86 86q0 54 63 54q37 0 111 -89zM589 247l-67 -258q-30 11 -61 11h-413v31q27 9 35 21.5t8 42.5q0 60 1.5 179t1.5 178q0 117 -3 169q-1 22 -10.5 31.5t-32.5 16.5v31h424q15 0 37 15l31 -236h-11q-29 85 -65 119q-44 42 -125 42 q-62 0 -62 -75q0 -11 1 -32.5t1 -32.5q69 1 88 8q41 15 40 71h15l23 -248h-14q-20 63 -46 85q-29 25 -91 21l-15 -1v-92q-1 -61 -1 -92q0 -8 -1 -34t-1 -41q0 -115 57 -115h13q78 0 139 60q44 43 88 130z" glyph-name="Egrave" horiz-adv-x="564" unicode="È"/>
<glyph d="M442 910q0 -38 -83 -92l-114 -64h-62l76 97l52 68q36 39 72 39q20 0 39.5 -14.5t19.5 -33.5zM589 247l-67 -258q-30 11 -61 11h-413v31q27 9 35 21.5t8 42.5q0 60 1.5 179t1.5 178q0 117 -3 169q-1 22 -10.5 31.5t-32.5 16.5v31h424q15 0 37 15l31 -236h-11 q-29 85 -65 119q-44 42 -125 42q-62 0 -62 -75q0 -11 1 -32.5t1 -32.5q69 1 88 8q41 15 40 71h15l23 -248h-14q-20 63 -46 85q-29 25 -91 21l-15 -1v-92q-1 -61 -1 -92q0 -8 -1 -34t-1 -41q0 -115 57 -115h13q78 0 139 60q44 43 88 130z" glyph-name="Eacute" horiz-adv-x="564" unicode="É"/>
<glyph d="M496 754h-68l-115 105l-116 -105h-67l127 195h115zM589 247l-67 -258q-30 11 -61 11h-413v31q27 9 35 21.5t8 42.5q0 60 1.5 179t1.5 178q0 117 -3 169q-1 22 -10.5 31.5t-32.5 16.5v31h424q15 0 37 15l31 -236h-11q-29 85 -65 119q-44 42 -125 42q-62 0 -62 -75 q0 -11 1 -32.5t1 -32.5q69 1 88 8q41 15 40 71h15l23 -248h-14q-20 63 -46 85q-29 25 -91 21l-15 -1v-92q-1 -61 -1 -92q0 -8 -1 -34t-1 -41q0 -115 57 -115h13q78 0 139 60q44 43 88 130z" glyph-name="Ecircumflex" horiz-adv-x="564" unicode="Ê"/>
<glyph d="M501 835q0 -32 -21.5 -57t-53.5 -25q-33 0 -56 22t-23 55q0 32 21.5 54.5t52.5 22.5q32 0 56 -20.5t24 -51.5zM276 835q0 -36 -22 -58.5t-58 -22.5q-26 0 -49.5 22.5t-23.5 49.5q0 34 19.5 58t53.5 24q32 0 56 -20.5t24 -52.5zM589 247l-67 -258q-30 11 -61 11h-413v31 q27 9 35 21.5t8 42.5q0 60 1.5 179t1.5 178q0 117 -3 169q-1 22 -10.5 31.5t-32.5 16.5v31h424q15 0 37 15l31 -236h-11q-29 85 -65 119q-44 42 -125 42q-62 0 -62 -75q0 -11 1 -32.5t1 -32.5q69 1 88 8q41 15 40 71h15l23 -248h-14q-20 63 -46 85q-29 25 -91 21l-15 -1v-92 q-1 -61 -1 -92q0 -8 -1 -34t-1 -41q0 -115 57 -115h13q78 0 139 60q44 43 88 130z" glyph-name="Edieresis" horiz-adv-x="564" unicode="Ë"/>
<glyph d="M325 754h-64q-54 32 -108 63q-88 56 -88 84q0 56 65 56q37 0 110 -89q42 -57 85 -114zM325 0h-281v31q28 8 37 24q6 12 6 44q0 59 1 175.5t1 174.5q0 142 -2 171q-2 36 -43 49v31h281v-31q-36 -11 -43 -22.5t-7 -51.5q0 -56 -1 -168.5t-1 -168.5q0 -141 2 -172 q2 -26 13 -37t37 -18v-31z" glyph-name="Igrave" horiz-adv-x="325" unicode="Ì"/>
<glyph d="M324 904q0 -32 -82 -85q-56 -32 -113 -65h-64l76 97l52 68q36 39 73 39q23 0 40.5 -15.5t17.5 -38.5zM325 0h-281v31q28 8 37 24q6 12 6 44q0 59 1 175.5t1 174.5q0 142 -2 171q-2 36 -43 49v31h281v-31q-36 -11 -43 -22.5t-7 -51.5q0 -56 -1 -168.5t-1 -168.5 q0 -141 2 -172q2 -26 13 -37t37 -18v-31z" glyph-name="Iacute" horiz-adv-x="325" unicode="Í"/>
<glyph d="M373 754h-68l-115 105l-116 -105h-68l128 195h116zM325 0h-281v31q28 8 37 24q6 12 6 44q0 59 1 175.5t1 174.5q0 142 -2 171q-2 36 -43 49v31h281v-31q-36 -11 -43 -22.5t-7 -51.5q0 -56 -1 -168.5t-1 -168.5q0 -141 2 -172q2 -26 13 -37t37 -18v-31z" glyph-name="Icircumflex" horiz-adv-x="325" unicode="Î"/>
<glyph d="M367 836q0 -32 -21.5 -57t-52.5 -25q-32 0 -55.5 21t-23.5 53q0 33 20 56.5t53 23.5q32 0 56 -20.5t24 -51.5zM142 834q0 -35 -22.5 -57.5t-57.5 -22.5q-26 0 -49.5 22.5t-23.5 49.5q0 34 19.5 58t53.5 24q32 0 56 -21t24 -53zM325 0h-281v31q28 8 37 24q6 12 6 44 q0 59 1 175.5t1 174.5q0 142 -2 171q-2 36 -43 49v31h281v-31q-36 -11 -43 -22.5t-7 -51.5q0 -56 -1 -168.5t-1 -168.5q0 -141 2 -172q2 -26 13 -37t37 -18v-31z" glyph-name="Idieresis" horiz-adv-x="325" unicode="Ï"/>
<glyph d="M529 898q-32 -148 -121 -148q-33 0 -85 29t-77 29q-26 0 -37 -15q-9 -18 -18 -37q-8 -3 -27 -3q-8 0 -22 2q34 143 116 143q36 0 95.5 -26.5t72.5 -26.5q22 0 35 17q7 9 19 36h49zM627 668q-30 -11 -37 -18q-8 -10 -8 -39q0 -60 -1.5 -181.5t-1.5 -182.5q0 -134 3 -177 q2 -29 36 -39v-31h-177v31q30 9 40 24t10 47q0 52 -19 93q-13 28 -53 80l-244 319q0 -56 -1.5 -169t-1.5 -170q0 -114 3 -169q1 -25 13 -37q9 -10 35 -18v-31h-184v31q28 7 37 21q7 11 7 41v547q0 23 -34 29v31h319v-31q-21 -8 -21 -23q0 -14 71 -104q61 -77 72 -88l1 111 q0 7 1 20v19q0 50 -43 65v31h178v-32z" glyph-name="Ntilde" horiz-adv-x="630" unicode="Ñ"/>
<glyph d="M509 754h-64q-56 32 -113 65q-83 52 -83 82q0 56 64 56q36 0 109 -88q44 -58 87 -115zM713 351q0 -157 -88 -256q-92 -104 -247 -104q-156 0 -242 106q-80 98 -80 258q0 149 90.5 250.5t237.5 101.5q154 0 244 -102q85 -98 85 -254zM519 278q0 127 -23 214 q-36 141 -125 141q-116 0 -116 -223q0 -344 151 -344q113 0 113 212z" glyph-name="Ograve" horiz-adv-x="736" unicode="Ò"/>
<glyph d="M514 904q0 -32 -82 -85q-57 -32 -114 -65h-63l75 97q27 34 53 69q36 38 72 38q23 0 41 -15.5t18 -38.5zM713 350q0 -157 -88 -256q-92 -104 -247 -104q-156 0 -242 106q-80 98 -80 258q0 149 90.5 250.5t237.5 101.5q154 0 244 -102q85 -98 85 -254zM519 276 q0 127 -23 215q-36 141 -125 141q-116 0 -116 -223q0 -344 152 -344q112 0 112 211z" glyph-name="Oacute" horiz-adv-x="736" unicode="Ó"/>
<glyph d="M566 754h-69l-114 105l-116 -105h-68l127 195h115zM713 351q0 -157 -88 -256q-92 -104 -247 -104q-156 0 -242 106q-80 98 -80 258q0 149 90.5 250.5t237.5 101.5q154 0 244 -102q85 -98 85 -254zM519 278q0 127 -23 214q-36 141 -125 141q-116 0 -116 -223 q0 -344 151 -344q113 0 113 212z" glyph-name="Ocircumflex" horiz-adv-x="736" unicode="Ô"/>
<glyph d="M578 898q-32 -148 -122 -148q-32 0 -85 29t-78 29q-23 0 -35 -15q-7 -8 -18 -37q-8 -3 -27 -3q-8 0 -22 2q36 143 116 143q36 0 95.5 -26.5t72.5 -26.5q22 0 35 17q7 9 19 36h49zM713 351q0 -157 -88 -256q-92 -104 -247 -104q-156 0 -242 106q-80 98 -80 258 q0 149 90.5 250.5t237.5 101.5q154 0 244 -102q85 -98 85 -254zM519 278q0 127 -23 214q-36 141 -125 141q-116 0 -116 -223q0 -344 151 -344q113 0 113 212z" glyph-name="Otilde" horiz-adv-x="736" unicode="Õ"/>
<glyph d="M573 834q0 -31 -21.5 -55.5t-52.5 -24.5q-32 0 -56 22t-24 54t21 55t52 23q33 0 57 -20.5t24 -53.5zM347 836q0 -32 -20.5 -57t-51.5 -25q-32 0 -56 21.5t-24 53.5q0 33 20 56t52 23t56 -20.5t24 -51.5zM713 351q0 -157 -88 -256q-92 -104 -247 -104q-156 0 -242 106 q-80 98 -80 258q0 149 90.5 250.5t237.5 101.5q154 0 244 -102q85 -98 85 -254zM519 278q0 127 -23 214q-36 141 -125 141q-116 0 -116 -223q0 -344 151 -344q113 0 113 212z" glyph-name="Odieresis" horiz-adv-x="736" unicode="Ö"/>
<glyph d="M710 357q0 -160 -87 -258q-92 -103 -250 -103q-87 0 -153 29l-66 -105h-72l84 142q-109 115 -109 291q0 152 87 252q91 104 241 104q80 0 150 -30l61 97h79l-81 -134q116 -106 116 -285zM470 569q-19 36 -37 51q-23 19 -59 19q-118 0 -118 -235q0 -84 13 -163zM512 315 q0 86 -13 164l-203 -327q38 -87 111 -87q105 0 105 250z" glyph-name="Oslash" horiz-adv-x="736" unicode="Ø"/>
<glyph d="M458 754h-64q-54 31 -109 63q-87 55 -87 84q0 56 64 56q37 0 110 -89zM633 669q-35 -10 -46.5 -29.5t-11.5 -57.5q0 -57 3.5 -172t3.5 -173q0 -131 -66 -191q-63 -56 -197 -56q-136 0 -193 57.5t-57 192.5q0 57 5.5 169.5t5.5 168.5q0 7 1 19v18q0 42 -39 54v31h283v-31 q-35 -11 -47 -32q-10 -17 -11 -57q-13 -373 -13 -371q0 -139 120 -139q125 0 125 162q0 67 -7 167q-5 84 -11 167q-3 46 -10 63q-12 26 -49 40v31h211v-31z" glyph-name="Ugrave" horiz-adv-x="633" unicode="Ù"/>
<glyph d="M489 904q0 -32 -86 -87q-55 -31 -110 -63h-64l77 97l52 68q36 39 72 39q22 0 40.5 -16t18.5 -38zM633 669q-35 -10 -46.5 -29.5t-11.5 -57.5q0 -57 3.5 -172t3.5 -173q0 -131 -66 -191q-63 -56 -197 -56q-136 0 -193 57.5t-57 192.5q0 57 5.5 169.5t5.5 168.5q0 7 1 19 v18q0 42 -39 54v31h283v-31q-35 -11 -47 -32q-10 -17 -11 -57q-13 -373 -13 -371q0 -139 120 -139q125 0 125 162q0 67 -7 167q-5 84 -11 167q-3 46 -10 63q-12 26 -49 40v31h211v-31z" glyph-name="Uacute" horiz-adv-x="633" unicode="Ú"/>
<glyph d="M550 754h-68l-114 105l-116 -105h-68l127 195h115zM633 669q-35 -10 -46.5 -29.5t-11.5 -57.5q0 -57 3.5 -172t3.5 -173q0 -131 -66 -191q-63 -56 -197 -56q-136 0 -193 57.5t-57 192.5q0 57 5.5 169.5t5.5 168.5q0 7 1 19v18q0 42 -39 54v31h283v-31q-35 -11 -47 -32 q-10 -17 -11 -57q-13 -373 -13 -371q0 -139 120 -139q125 0 125 162q0 67 -7 167q-5 84 -11 167q-3 46 -10 63q-12 26 -49 40v31h211v-31z" glyph-name="Ucircumflex" horiz-adv-x="633" unicode="Û"/>
<glyph d="M546 836q0 -32 -21.5 -57t-52.5 -25q-32 0 -56 22t-24 54t21 55t53 23t56 -20.5t24 -51.5zM321 834q0 -32 -21.5 -56t-52.5 -24q-30 0 -54.5 21t-24.5 51q0 34 19 58t53 24q32 0 56.5 -21t24.5 -53zM633 669q-35 -10 -46.5 -29.5t-11.5 -57.5q0 -57 3.5 -172t3.5 -173 q0 -131 -66 -191q-63 -56 -197 -56q-136 0 -193 57.5t-57 192.5q0 57 5.5 169.5t5.5 168.5q0 7 1 19v18q0 42 -39 54v31h283v-31q-35 -11 -47 -32q-10 -17 -11 -57q-13 -373 -13 -371q0 -139 120 -139q125 0 125 162q0 67 -7 167q-5 84 -11 167q-3 46 -10 63q-12 26 -49 40 v31h211v-31z" glyph-name="Udieresis" horiz-adv-x="633" unicode="Ü"/>
<glyph d="M630 230q0 -96 -60 -165q-62 -73 -157 -73q-37 0 -74 17l23 147h13q3 -88 46 -88q69 0 69 106q0 132 -126 201q-12 6 -25 13q-8 6 -8 25v47q0 9 20 30q26 29 37 47q20 34 20 73q0 74 -38 74q-42 0 -53 -56q-5 -22 -5 -89v-424q0 -97 -46 -156q-51 -65 -145 -65 q-45 0 -83 13v107h18q3 -25 5 -31q6 -17 24 -17q65 0 65 154v246q-35 0 -61 -14l10 102q12 -15 46 -15l9 1q3 154 38 219q50 93 188 93q155 0 155 -141q0 -57 -26 -94q-23 -32 -77 -61q198 -26 198 -226z" glyph-name="germandbls" horiz-adv-x="630" unicode="ß"/>
<glyph d="M415 595h-63q-57 32 -113 65q-84 52 -84 82q0 56 65 56q37 0 109 -88q43 -57 86 -115zM536 0h-181q-15 28 -27 70q-71 -80 -150 -80q-64 0 -102 41t-38 105q0 72 49 117q37 35 113 60q62 20 124 39l1 22q4 88 -81 88q-90 0 -154 -123h-11l16 179q30 -15 36 -15 q11 0 71.5 14.5t97.5 14.5q121 0 158 -43q33 -38 33 -162q0 -29 -1 -87t-1 -87q0 -66 2 -74q7 -32 45 -54v-25zM325 264l-1 24q-126 -31 -126 -135q0 -23 13 -42q14 -22 36 -22q48 0 68 68q13 46 10 107z" glyph-name="agrave" horiz-adv-x="534" unicode="à"/>
<glyph d="M421 745q0 -31 -86 -86l-110 -64h-64l76 98l52 68q36 39 72 39q22 0 41 -16.5t19 -38.5zM540 0h-182q-15 28 -27 70q-71 -80 -149 -80q-60 0 -100 39.5t-40 99.5q0 74 47 120q37 37 111 63q64 20 127 40l1 22q4 88 -80 88q-91 0 -155 -123h-11l16 179q30 -15 36 -15 q11 0 71.5 14.5t97.5 14.5q121 0 158 -43q33 -39 33 -162q0 -29 -1 -87t-1 -87q0 -67 2 -75q7 -31 46 -53v-25zM328 260l-1 28q-125 -31 -125 -136q0 -27 14.5 -45.5t40.5 -18.5q43 0 61 69q12 47 10 103z" glyph-name="aacute" horiz-adv-x="534" unicode="á"/>
<glyph d="M467 595h-68l-114 105l-116 -105h-67l126 194h116zM535 1h-181q-15 28 -27 70q-70 -79 -149 -79q-65 0 -103 40.5t-38 105.5q0 72 49 117q37 34 112 59q63 20 125 39l1 21q4 88 -81 88q-91 0 -154 -122h-11l15 179q30 -15 37 -15q9 0 69.5 14.5t97.5 14.5q122 0 160 -43 q33 -40 33 -164q0 -28 -1 -85.5t-1 -86.5q0 -9 -1 -25v-21q0 -55 48 -81v-26zM324 265l-1 24q-126 -31 -126 -135q0 -23 13 -42q14 -22 36 -22q48 0 68 68q13 45 10 107z" glyph-name="acircumflex" horiz-adv-x="534" unicode="â"/>
<glyph d="M478 739q-34 -148 -122 -148q-32 0 -84 29t-77 29q-26 0 -37 -14l-18 -38q-8 -3 -27 -3q-8 0 -22 2q34 144 115 144q37 0 96 -27t71 -27q23 0 36 16q8 9 20 37h49zM534 0h-181q-18 33 -27 70q-71 -80 -150 -80q-64 0 -102 41t-38 105q0 72 49 117q37 35 113 60 q62 20 124 39l1 21q4 88 -81 88q-91 0 -154 -122h-12l16 179q30 -15 37 -15q11 0 71.5 14.5t96.5 14.5q122 0 159 -44q33 -39 33 -163q0 -28 -1 -85.5t-1 -86.5q0 -66 2 -74q7 -32 45 -54v-25zM323 263l-1 25q-126 -31 -126 -135q0 -23 13 -44t35 -21q49 0 68 68 q13 45 11 107z" glyph-name="atilde" horiz-adv-x="534" unicode="ã"/>
<glyph d="M476 676q0 -32 -21.5 -57t-52.5 -25q-33 0 -56.5 22.5t-23.5 55.5q0 31 21.5 54t53.5 23t55.5 -21t23.5 -52zM251 674q0 -32 -21 -55.5t-52 -23.5q-32 0 -55.5 20.5t-23.5 51.5q0 34 19 58t52 24q32 0 56.5 -21.5t24.5 -53.5zM536 0h-181q-15 28 -27 70q-71 -80 -150 -80 q-64 0 -102 41t-38 105q0 72 49 117q37 35 113 60q62 20 124 39l1 22q4 88 -81 88q-90 0 -154 -123h-11l16 179q30 -15 36 -15q11 0 71.5 14.5t97.5 14.5q121 0 158 -43q33 -38 33 -162q0 -29 -1 -87t-1 -87q0 -66 2 -74q7 -32 45 -54v-25zM325 264l-1 24 q-126 -31 -126 -135q0 -23 13 -42q14 -22 36 -22q48 0 68 68q13 46 10 107z" glyph-name="adieresis" horiz-adv-x="534" unicode="ä"/>
<glyph d="M393 697q0 -45 -31 -73.5t-76 -28.5q-38 0 -67 31.5t-29 70.5q0 44 31.5 72.5t75.5 28.5q38 0 67 -31.5t29 -69.5zM535 0h-181q-18 37 -27 70q-62 -70 -143 -70q-64 0 -105.5 38t-41.5 101q0 72 49 117q37 35 112 60q62 19 125 38v18q0 48 -16 68q-19 23 -65 23 q-91 0 -153 -122h-11l15 182q21 -21 32 -21q10 0 46 13q55 20 127 20q124 0 161 -47q31 -39 31 -167q0 -28 -1 -85.5t-1 -86.5q0 -8 -1 -23v-24q0 -61 48 -71v-31zM343 697q0 21 -15 36t-37 15q-21 0 -36 -15t-15 -36q0 -22 14.5 -36.5t36.5 -14.5t37 14.5t15 36.5zM325 223 q0 11 -1 33.5t-1 33.5q-125 -28 -125 -127q0 -69 49 -69q78 0 78 129z" glyph-name="aring" horiz-adv-x="534" unicode="å"/>
<glyph d="M830 330l-316 -78q2 -70 33 -124q38 -65 102 -65q100 0 151 129h15l-52 -203q-21 8 -52 8q-17 0 -52.5 -4.5t-53.5 -4.5q-137 0 -227 121q-54 -118 -180 -118q-64 0 -109 30q-52 34 -52 95q0 107 101 166q61 36 196 66l1 28q3 86 -76 86q-113 0 -164 -130h-14l12 192 q24 -18 33 -18q33 0 98 13.5t99 13.5q82 0 147 -33q63 34 133 34q189 0 227 -204zM660 355q-6 115 -61 115q-44 0 -66 -55q-17 -40 -19 -94q50 8 74 13q41 9 72 21zM336 286q-135 -33 -135 -145q0 -22 14 -41t35 -19q51 0 73 81q14 54 13 124z" glyph-name="ae" horiz-adv-x="836" unicode="æ"/>
<glyph d="M514 186l-55 -188q-16 11 -30 11q-17 0 -51 -9.5t-52 -9.5l-22 -53q22 5 40 5q37 0 65.5 -21t28.5 -56q0 -53 -48 -79q-38 -21 -96 -21q-54 0 -111 21l17 41q32 -12 64 -12q60 0 60 47q0 19 -27 29q-7 0 -19 -1h-19q-11 0 -23 7l41 93q-114 7 -177 92q-58 77 -58 195 q0 117 66.5 187.5t181.5 70.5q19 0 55 -5.5t54 -5.5q31 0 51 26l35 -203h-19q-18 57 -39 84q-31 38 -80 38q-67 0 -99 -66q-24 -50 -24 -125q0 -76 29 -129q35 -67 104 -67q46 0 85 31q37 28 54 73h18z" glyph-name="ccedilla" horiz-adv-x="512" unicode="ç"/>
<glyph d="M408 595h-64q-54 31 -109 63q-87 55 -87 84q0 56 64 56q37 0 110 -88q43 -58 86 -115zM522 215l-51 -216q-18 9 -45 9q-22 0 -65 -7t-65 -7q-114 0 -187.5 79t-73.5 194t72.5 192.5t186.5 77.5q98 0 157 -57t70 -156l-306 -81q3 -60 38 -109q40 -56 96 -56q54 0 99 43 q40 38 58 94h16zM353 359q0 38 -13 68q-17 40 -50 40q-83 0 -80 -148z" glyph-name="egrave" horiz-adv-x="530" unicode="è"/>
<glyph d="M466 745q0 -33 -86 -87q-55 -31 -110 -63h-63l76 98l52 68q36 39 72 39q22 0 40.5 -16.5t18.5 -38.5zM522 215l-51 -216q-18 9 -45 9q-22 0 -65 -7t-65 -7q-114 0 -187.5 79t-73.5 194t72.5 192.5t186.5 77.5q98 0 157 -57t70 -156l-306 -81q3 -60 38 -109q40 -56 96 -56 q54 0 99 43q40 38 58 94h16zM353 359q0 38 -13 68q-17 40 -50 40q-83 0 -80 -148z" glyph-name="eacute" horiz-adv-x="530" unicode="é"/>
<glyph d="M464 595h-68l-114 105l-116 -105h-68l127 194h116zM522 215l-51 -216q-18 9 -45 9q-22 0 -65 -7t-65 -7q-114 0 -187.5 79t-73.5 194t72.5 192.5t186.5 77.5q98 0 157 -57t70 -156l-306 -81q3 -60 38 -109q40 -56 96 -56q54 0 99 43q40 38 58 94h16zM353 359q0 38 -13 68 q-17 40 -50 40q-83 0 -80 -148z" glyph-name="ecircumflex" horiz-adv-x="530" unicode="ê"/>
<glyph d="M494 677q0 -33 -21 -57.5t-53 -24.5t-56 21.5t-24 53.5q0 33 21 56.5t53 23.5t56 -21t24 -52zM268 674q0 -31 -21 -55t-52 -24t-55 20.5t-24 51.5q0 34 19 58t53 24q32 0 56 -21.5t24 -53.5zM522 215l-51 -216q-18 9 -45 9q-22 0 -65 -7t-65 -7q-114 0 -187.5 79 t-73.5 194t72.5 192.5t186.5 77.5q98 0 157 -57t70 -156l-306 -81q3 -60 38 -109q40 -56 96 -56q54 0 99 43q40 38 58 94h16zM353 359q0 38 -13 68q-17 40 -50 40q-83 0 -80 -148z" glyph-name="edieresis" horiz-adv-x="530" unicode="ë"/>
<glyph d="M269 595h-64q-54 32 -109 63q-87 55 -87 84q0 56 64 56q36 0 110 -89zM307 0h-267v31q30 4 40.5 19t10.5 47l1 234q0 7 1 28t1 34q0 97 -56 99v31l221 13q0 -49 -1 -147.5t-1 -148.5q0 -117 2 -151q2 -28 11.5 -41t36.5 -17v-31z" glyph-name="igrave" horiz-adv-x="306" unicode="ì"/>
<glyph d="M292 745q0 -32 -86 -87q-55 -31 -110 -63h-63l75 98q52 67 53 69q36 38 72 38q22 0 40.5 -16t18.5 -39zM307 0h-267v31q30 4 40.5 19t10.5 47l1 234q0 7 1 28t1 34q0 97 -56 99v31l221 13q0 -49 -1 -147.5t-1 -148.5q0 -117 2 -151q2 -28 11.5 -41t36.5 -17v-31z" glyph-name="iacute" horiz-adv-x="306" unicode="í"/>
<glyph d="M339 595h-69l-115 105l-116 -105h-68l128 194h116zM307 0h-267v31q30 4 40.5 19t10.5 47l1 234q0 7 1 28t1 34q0 97 -56 99v31l221 13q0 -49 -1 -147.5t-1 -148.5q0 -117 2 -151q2 -28 11.5 -41t36.5 -17v-31z" glyph-name="icircumflex" horiz-adv-x="306" unicode="î"/>
<glyph d="M332 677q0 -33 -21 -57.5t-53 -24.5t-56 21.5t-24 53.5t21.5 56t53.5 24t55.5 -21t23.5 -52zM107 676q0 -36 -22.5 -58t-57.5 -22q-27 0 -50 22t-23 50q0 34 20 58t53 24q32 0 56 -21t24 -53zM307 0h-267v31q30 4 40.5 19t10.5 47l1 234q0 7 1 28t1 34q0 97 -56 99v31 l221 13q0 -49 -1 -147.5t-1 -148.5q0 -117 2 -151q2 -28 11.5 -41t36.5 -17v-31z" glyph-name="idieresis" horiz-adv-x="306" unicode="ï"/>
<glyph d="M538 739q-31 -147 -122 -147q-32 0 -83.5 28.5t-76.5 28.5q-27 0 -38 -14l-18 -38q-5 -2 -27 -2q-14 0 -22 1q34 143 115 143q36 0 95.5 -26.5t72.5 -26.5q34 0 55 53h49zM604 0h-264v31q49 2 49 68l1 184q0 4 1 22v29q0 95 -39 95q-93 0 -93 -248q0 -6 -1 -24v-29 q0 -94 52 -97v-31h-266v31q50 4 50 66l1 234q0 7 1 28t1 34q0 97 -56 99v31l198 13q17 -52 22 -110q83 110 182 110q111 0 115 -120q2 -50 0 -131q-2 -107 -2 -131q0 -6 -1 -21v-24q0 -75 49 -78v-31z" glyph-name="ntilde" horiz-adv-x="601" unicode="ñ"/>
<glyph d="M449 595h-63q-55 31 -109 62q-88 55 -88 85q0 56 65 56q36 0 110 -89q42 -57 85 -114zM585 262q0 -124 -75 -196.5t-200 -72.5q-121 0 -194 72t-73 194q0 120 79 198.5t199 78.5q124 0 194 -74.5t70 -199.5zM400 234q0 236 -94 236q-83 0 -83 -161q0 -87 15 -149 q24 -101 83 -101q79 0 79 175z" glyph-name="ograve" horiz-adv-x="586" unicode="ò"/>
<glyph d="M479 745q0 -32 -86 -87q-55 -31 -110 -63h-63l76 98l52 68q36 39 72 39q22 0 40.5 -16t18.5 -39zM585 262q0 -124 -75 -196.5t-200 -72.5q-121 0 -194 72t-73 194q0 120 79 198.5t199 78.5q124 0 194 -74.5t70 -199.5zM400 234q0 236 -94 236q-83 0 -83 -161 q0 -87 15 -149q24 -101 83 -101q79 0 79 175z" glyph-name="oacute" horiz-adv-x="586" unicode="ó"/>
<glyph d="M491 595h-69l-114 105l-117 -105h-67l128 194h115zM585 262q0 -124 -75 -196.5t-200 -72.5q-121 0 -194 72t-73 194q0 120 79 198.5t199 78.5q124 0 194 -74.5t70 -199.5zM400 234q0 236 -94 236q-83 0 -83 -161q0 -87 15 -149q24 -101 83 -101q79 0 79 175z" glyph-name="ocircumflex" horiz-adv-x="586" unicode="ô"/>
<glyph d="M507 739q-32 -148 -121 -148q-33 0 -85 29.5t-77 29.5q-26 0 -37 -14q-1 -2 -17 -39q-6 -2 -27 -2q-15 0 -22 1q34 143 115 143q36 0 95 -27t72 -27q23 0 36 17q8 9 19 37h49zM585 262q0 -124 -75 -196.5t-200 -72.5q-121 0 -194 72t-73 194q0 120 79 198.5t199 78.5 q124 0 194 -74.5t70 -199.5zM400 234q0 236 -94 236q-83 0 -83 -161q0 -87 15 -149q24 -101 83 -101q79 0 79 175z" glyph-name="otilde" horiz-adv-x="586" unicode="õ"/>
<glyph d="M480 676q0 -32 -21 -56.5t-53 -24.5t-56 22t-24 54t21.5 55.5t53.5 23.5t55.5 -21t23.5 -53zM255 674q0 -35 -23 -57t-58 -22q-27 0 -49.5 22t-22.5 50q0 34 19.5 58t52.5 24t57 -21t24 -54zM585 262q0 -124 -75 -196.5t-200 -72.5q-121 0 -194 72t-73 194 q0 120 79 198.5t199 78.5q124 0 194 -74.5t70 -199.5zM400 234q0 236 -94 236q-83 0 -83 -161q0 -87 15 -149q24 -101 83 -101q79 0 79 175z" glyph-name="odieresis" horiz-adv-x="586" unicode="ö"/>
<glyph d="M578 721l-449 -722h-93l451 722h91z" glyph-name="divide" horiz-adv-x="573" unicode="÷"/>
<glyph d="M583 262q0 -129 -72 -198.5t-201 -69.5q-73 0 -126 20l-64 -98h-59l75 126q-96 87 -96 209q0 124 77 204t200 80q57 0 111 -18l49 79h62l-62 -105q106 -85 106 -229zM369 420q-33 51 -70 51q-77 0 -77 -168q0 -44 7 -105zM402 231q0 47 -9 117l-144 -228q32 -61 75 -61 q78 0 78 172z" glyph-name="oslash" horiz-adv-x="586" unicode="ø"/>
<glyph d="M416 595h-63q-54 32 -109 63q-88 56 -88 84q0 56 65 56q36 0 110 -89q42 -57 85 -114zM599 0h-192q-1 2 -18 92v0q-87 -99 -184 -99h-12q-57 0 -80 38q-18 29 -20 92q-2 51 -1 129q2 113 2 129q0 9 1 26.5t1 25.5q0 56 -55 59v31l221 6v-104q-1 -70 -1 -104q0 -4 -1 -28 v-39q0 -147 49 -147q81 0 81 193q0 22 -1 55.5t-1 41.5q0 58 -2 64q-7 29 -47 31v30l212 7q0 -49 -1 -145t-1 -144q0 -135 3 -159q6 -43 47 -50v-31z" glyph-name="ugrave" horiz-adv-x="596" unicode="ù"/>
<glyph d="M459 745q0 -33 -86 -87q-55 -31 -110 -63h-63l76 98l52 68q36 39 72 39q22 0 40.5 -16t18.5 -39zM599 0h-192q-1 2 -18 92v0q-87 -99 -184 -99h-12q-57 0 -80 38q-18 29 -20 92q-2 51 -1 129q2 113 2 129q0 9 1 26.5t1 25.5q0 56 -55 59v31l221 6v-104q-1 -70 -1 -104 q0 -4 -1 -28v-39q0 -147 49 -147q81 0 81 193q0 22 -1 55.5t-1 41.5q0 58 -2 64q-7 29 -47 31v30l212 7q0 -49 -1 -145t-1 -144q0 -135 3 -159q6 -43 47 -50v-31z" glyph-name="uacute" horiz-adv-x="596" unicode="ú"/>
<glyph d="M478 595h-69l-114 105l-117 -105h-67l127 194h116zM599 0h-192q-1 2 -18 92v0q-87 -99 -184 -99h-12q-57 0 -80 38q-18 29 -20 92q-2 51 -1 129q2 113 2 129q0 9 1 26.5t1 25.5q0 56 -55 59v31l221 6v-104q-1 -70 -1 -104q0 -4 -1 -28v-39q0 -147 49 -147q81 0 81 193 q0 22 -1 55.5t-1 41.5q0 58 -2 64q-7 29 -47 31v30l212 7q0 -49 -1 -145t-1 -144q0 -135 3 -159q6 -43 47 -50v-31z" glyph-name="ucircumflex" horiz-adv-x="596" unicode="û"/>
<glyph d="M498 676q0 -32 -21.5 -56.5t-53.5 -24.5t-55.5 22t-23.5 54t21.5 55.5t53.5 23.5t55.5 -21t23.5 -53zM273 674q0 -35 -23 -57t-58 -22q-28 0 -50 22t-22 50q0 34 19 58t53 24q32 0 56.5 -21t24.5 -54zM599 0h-192q-1 2 -18 92v0q-87 -99 -184 -99h-12q-57 0 -80 38 q-18 29 -20 92q-2 51 -1 129q2 113 2 129q0 9 1 26.5t1 25.5q0 56 -55 59v31l221 6v-104q-1 -70 -1 -104q0 -4 -1 -28v-39q0 -147 49 -147q81 0 81 193q0 22 -1 55.5t-1 41.5q0 58 -2 64q-7 29 -47 31v30l212 7q0 -49 -1 -145t-1 -144q0 -135 3 -159q6 -43 47 -50v-31z" glyph-name="udieresis" horiz-adv-x="596" unicode="ü"/>
</font>
</defs>
</svg>
