<?xml version="1.0" standalone="no"?>
<!DOCTYPE svg PUBLIC "-//W3C//DTD SVG 1.1//EN" "http://www.w3.org/Graphics/SVG/1.1/DTD/svg11.dtd" >
<svg>
<metadata>
Created by FontForge 20110222 at Wed Sep 24 10:03:31 2014
 By Orthosie Webhosting
Copyright 1987, 1990, 1994, 2001 , 2002Adobe Systems Incorporated. All Rights Reserved. 
</metadata>
<defs>
<font id="BrushScriptStd" horiz-adv-x="565" >
  <font-face 
    font-family="Brush Script Std"
    font-weight="500"
    font-style="italic"
    font-stretch="normal"
    units-per-em="1000"
    panose-1="0 0 6 0 0 0 0 0 0 0"
    ascent="683"
    descent="-317"
    x-height="376"
    cap-height="693"
    bbox="-183.52 -279.316 1327.86 882"
    underline-thickness="50"
    underline-position="-50"
    slope="-14"
    stemh="88"
    stemv="88"
    unicode-range="U+0020-FB02"
  />
<missing-glyph horiz-adv-x="629" 
d="M129 0v700h500v-700h-500zM379 395l170 255h-340zM409 350l170 -255v510zM209 50h340l-170 255zM179 605v-510l170 255z" />
    <glyph glyph-name="fi" unicode="fi" horiz-adv-x="578" 
d="M22 -167c62 41 107 119 98 194c-32 -2 -48 -1 -72 8c-26 -44 -42 -80 -46 -113c-4 -32 5 -60 20 -89zM300 171c31 96 123 174 172 174c17 0 44 -6 44 -28c0 -50 -99 -139 -141 -168c-8 -41 7 -63 53 -63c53 0 105 53 145 82l9 -38c-45 -55 -133 -145 -209 -145
c-59 0 -86 68 -86 119c0 3 0 5 1 6l-2 2c-27 -25 -57 -49 -93 -66c4 -19 2 -37 1 -55c-8 -119 -148 -229 -221 -240c-46 -7 -59 86 -59 119c0 65 43 144 70 201c-16 17 -29 32 -29 57c0 40 27 51 56 67c59 32 91 79 122 136c26 49 155 287 206 287c22 0 24 -28 24 -44
c0 -39 -30 -109 -52 -140l-187 -261c29 -17 39 -50 52 -79zM526 365c-24 0 -40 19 -40 43c0 41 48 77 87 77c18 0 33 -13 33 -31c0 -40 -37 -89 -80 -89z" />
    <glyph glyph-name="fl" unicode="fl" horiz-adv-x="588" 
d="M22 -167c62 41 107 119 98 194c-32 -2 -48 -1 -72 8c-26 -44 -42 -80 -46 -113c-4 -32 5 -60 20 -89zM584 178l14 -30c-55 -57 -149 -158 -235 -158c-66 0 -85 57 -89 111c-23 -20 -50 -40 -81 -55c4 -19 2 -37 1 -55c-8 -119 -148 -229 -221 -240c-46 -7 -59 86 -59 119
c0 65 43 144 70 201c-16 17 -29 32 -29 57c0 40 27 51 56 67c59 32 91 79 122 136c26 49 155 287 206 287c22 0 24 -28 24 -44c0 -39 -30 -109 -52 -140l-187 -261c29 -17 39 -50 52 -79l98 62c11 93 53 191 110 262c88 109 183 202 215 202c17 0 21 -24 20 -37
c-7 -95 -33 -183 -250 -393c-9 -17 -12 -45 -7 -69c9 -23 23 -43 50 -43c55 0 132 64 172 100zM392 282c70 65 132 160 152 218l-1 -1l-2 2c-69 -56 -114 -137 -151 -217z" />
    <glyph glyph-name=".notdef" horiz-adv-x="629" 
d="M129 0v700h500v-700h-500zM379 395l170 255h-340zM409 350l170 -255v510zM209 50h340l-170 255zM179 605v-510l170 255z" />
    <glyph glyph-name="space" unicode=" " horiz-adv-x="340" 
 />
    <glyph glyph-name="exclam" unicode="!" horiz-adv-x="392" 
d="M125 -11c-26 0 -54 22 -54 48c0 35 22 122 58 122c35 0 62 -30 62 -64c0 -35 -20 -106 -66 -106zM159 316l141 322c9 20 18 51 44 51c11 0 32 -7 42 -9c10 -3 39 -7 39 -23c0 -17 -21 -56 -29 -72l-179 -349c3 -6 5 -11 5 -17c0 -18 -13 -44 -33 -44c-23 0 -60 30 -60 54
c0 23 21 66 30 87z" />
    <glyph glyph-name="quotedbl" unicode="&#x22;" horiz-adv-x="333" 
d="M81 712c25 0 43 -15 43 -59c0 -26 -12 -151 -19 -226c-2 -22 -14 -31 -24 -31s-22 9 -24 31c-7 75 -19 200 -19 226c0 44 18 59 43 59zM252 712c25 0 43 -15 43 -59c0 -26 -12 -151 -19 -226c-2 -22 -14 -31 -24 -31s-22 9 -24 31c-7 75 -19 200 -19 226
c0 44 18 59 43 59z" />
    <glyph glyph-name="numbersign" unicode="#" horiz-adv-x="563" 
d="M133 0h-64l79 188h-95l15 63h107l59 139h-103l16 63h112l79 185h64l-79 -185h122l78 185h65l-78 -185h95l-16 -63h-105l-59 -139h101l-16 -63h-111l-80 -188h-64l79 188h-122zM238 251h122l60 139h-122z" />
    <glyph glyph-name="dollar" unicode="$" 
d="M284 373l35 115c-26 -5 -128 -51 -128 -76s75 -36 93 -39zM348 289l-32 -121c27 9 133 38 133 70c0 30 -79 42 -101 51zM231 157l37 150c-81 16 -87 11 -133 28c-25 9 -32 28 -32 54s22 94 35 116c32 56 166 98 226 114c21 57 63 191 138 191c17 0 28 -17 28 -33
c0 -17 -8 -31 -19 -44c-31 -38 -39 -50 -56 -99l93 6c30 2 70 -2 99 -12c12 -3 19 -5 17 -19c-8 -74 -23 -88 -83 -109c-31 -11 -51 -18 -78 -38c-8 -6 -23 -15 -33 -15c-7 0 -12 5 -12 11c3 14 31 32 72 62l-2 2l-121 -16l-43 -151c53 -19 173 -44 173 -114
c0 -53 -39 -100 -82 -128c-52 -34 -105 -53 -166 -69l-23 -132c-23 7 -75 9 -75 43c0 26 11 53 11 69c-49 -4 -86 -2 -118 -1c-94 2 -116 25 -118 50c-1 16 31 82 73 82z" />
    <glyph glyph-name="percent" unicode="%" horiz-adv-x="643" 
d="M317 645c39 -1 51 -23 51 -60c0 -92 -92 -236 -192 -236c-57 0 -89 64 -89 114c0 127 137 222 204 230c16 2 36 -15 36 -31c0 -7 -6 -13 -10 -17zM244 600c-42 -27 -84 -87 -84 -137c0 -10 5 -30 8 -30c66 -10 150 138 150 167c0 7 -9 12 -17 12c-16 0 -23 -21 -38 -21
c-7 0 -14 5 -19 9zM597 289c39 -1 51 -23 51 -60c0 -92 -92 -236 -192 -236c-57 0 -89 64 -89 114c0 127 137 222 204 230c16 2 36 -15 36 -31c0 -7 -6 -13 -10 -17zM524 244c-42 -27 -84 -87 -84 -137c0 -10 5 -30 8 -30c66 -10 150 138 150 167c0 7 -9 12 -17 12
c-16 0 -23 -21 -38 -21c-7 0 -14 5 -19 9zM205 204l203 244c69 83 148 157 239 217c11 -49 2 -82 -113 -203c-105 -110 -236 -273 -317 -402c-12 -19 -27 -39 -35 -60c-5 -15 -10 -34 -30 -34c-28 0 -50 34 -50 60c0 51 70 138 103 178z" />
    <glyph glyph-name="ampersand" unicode="&#x26;" horiz-adv-x="582" 
d="M340 465c46 28 164 99 164 159c0 9 -9 13 -17 12c-108 -20 -128 -101 -147 -171zM293 181l-56 127c-46 -19 -139 -109 -141 -157c-1 -19 34 -18 47 -18c54 0 104 23 150 48zM502 463l-149 -87c7 -45 24 -86 49 -124l160 127c8 -24 19 -52 19 -77
c0 -61 -71 -107 -112 -144c5 -18 19 -27 31 -27c11 0 21 8 29 8s16 -10 16 -18c0 -28 -58 -122 -93 -122c-25 0 -70 56 -87 73c-63 -38 -136 -89 -213 -89c-90 0 -166 67 -157 157c15 158 114 204 220 260c-24 162 148 281 278 286c50 2 99 -41 99 -92
c0 -60 -43 -103 -90 -131z" />
    <glyph glyph-name="quoteright" unicode="&#x2019;" horiz-adv-x="301" 
d="M182 588c0 41 49 97 92 97c16 0 51 0 51 -23c0 -27 -30 -91 -47 -111c-60 -74 -81 -66 -103 -66c16 21 33 43 45 68c-18 6 -38 12 -38 35z" />
    <glyph glyph-name="parenleft" unicode="(" horiz-adv-x="326" 
d="M143 406c29 66 141 300 218 300c24 0 36 -15 36 -38c0 -14 -14 -37 -22 -48c-100 -141 -213 -407 -213 -581c0 -29 4 -58 8 -87c2 1 7 2 10 2c12 0 15 -32 15 -40c0 -35 -26 -73 -63 -73c-80 0 -83 146 -83 202c0 123 44 252 94 363z" />
    <glyph glyph-name="parenright" unicode=")" horiz-adv-x="326" 
d="M271 141c-29 -66 -141 -300 -218 -300c-24 0 -36 15 -36 38c0 14 14 37 22 48c100 141 213 407 213 581c0 29 -4 58 -8 87c-2 -1 -7 -2 -10 -2c-12 0 -15 32 -15 40c0 35 26 73 63 73c80 0 83 -146 83 -202c0 -123 -44 -252 -94 -363z" />
    <glyph glyph-name="asterisk" unicode="*" horiz-adv-x="548" 
d="M373 463l89 -70c9 -9 26 -20 26 -34c0 -15 -20 -46 -24 -62l-123 107l-9 -168c-40 14 -68 7 -68 58c0 38 8 74 13 111l-95 -65c-11 -7 -25 -22 -38 -22c-19 0 -29 19 -29 36c0 56 103 92 140 119c-21 20 -43 37 -68 51c-27 15 -39 21 -39 56c0 16 6 39 26 39
c26 0 39 -19 56 -36c18 -18 39 -33 57 -51l2 72c1 19 -2 33 11 48c9 10 31 32 46 32c14 0 24 -11 24 -25c0 -7 -4 -21 -6 -27c-4 -15 -5 -35 -7 -50l-6 -54c27 16 96 55 127 55c25 0 23 -23 51 -48z" />
    <glyph glyph-name="plus" unicode="+" horiz-adv-x="642" 
d="M594 230h-196v-219h-63v219h-197v60h197v201h63v-201h196v-60z" />
    <glyph glyph-name="comma" unicode="," horiz-adv-x="301" 
d="M56 43c0 41 49 97 92 97c16 0 51 0 51 -23c0 -27 -30 -91 -47 -111c-60 -74 -81 -66 -103 -66c16 21 33 43 45 68c-18 6 -38 12 -38 35z" />
    <glyph glyph-name="hyphen" unicode="-" horiz-adv-x="320" 
d="M0 320h300v-88h-300v88z" />
    <glyph glyph-name="period" unicode="." horiz-adv-x="301" 
d="M118 -5c-27 3 -63 8 -63 42c0 36 44 119 101 107c14 -3 49 -3 49 -32c0 -1 -25 -124 -87 -117z" />
    <glyph glyph-name="slash" unicode="/" horiz-adv-x="462" 
d="M495 628l-198 -322c-111 -181 -137 -251 -179 -377c-3 -9 -8 -22 -19 -22c-38 0 -65 32 -65 68c0 86 155 339 233 469c105 176 194 274 255 324c5 -18 9 -36 9 -55c0 -30 -21 -60 -36 -85z" />
    <glyph glyph-name="zero" unicode="0" 
d="M556 562c45 -14 50 -64 50 -104c0 -192 -174 -454 -415 -471c-92 -7 -146 84 -146 169c0 113 72 237 146 319c88 97 241 175 306 175c41 0 90 -48 90 -70c0 -11 -24 -11 -31 -18zM306 134l98 90c44 49 129 168 129 234c0 21 -10 59 -38 59c-26 0 -52 -37 -62 -37
c-8 0 -10 12 -10 18c-180 -101 -259 -243 -265 -346c-1 -19 3 -77 31 -77c30 0 94 38 117 59z" />
    <glyph glyph-name="one" unicode="1" 
d="M402 529l-95 -36c-4 -2 -23 -10 -27 -10c-11 0 -9 17 -8 23c2 29 22 38 46 52c33 19 146 86 174 86c26 0 46 -54 46 -69c0 -29 0 -26 -157 -293c-35 -59 -117 -200 -117 -267c0 -12 3 -23 3 -35c0 -9 -5 -14 -14 -14c-5 0 -16 6 -21 9c-38 21 -81 28 -81 80
c0 50 43 161 70 206c73 121 154 228 183 266z" />
    <glyph glyph-name="two" unicode="2" 
d="M304 404l-108 -21c-7 -1 -28 -5 -34 -5c-19 0 -23 25 -23 39c0 37 31 105 56 133c58 66 220 97 306 97c75 0 112 -20 112 -158c0 -54 0 -101 -246 -232c-85 -45 -170 -92 -245 -151l2 -2l389 68c-26 -74 -44 -143 -133 -160c-156 -29 -272 -34 -298 -14
c-30 24 -44 76 -44 112c0 91 285 237 361 279c42 23 141 76 141 131c0 20 -24 26 -38 26c-83 0 -196 -59 -270 -94v-2l59 -7c13 -2 38 -2 38 -21c0 -14 -14 -17 -25 -18z" />
    <glyph glyph-name="three" unicode="3" 
d="M247 511l21 -4c6 -1 37 -5 37 -17c0 -8 -12 -11 -18 -12c-23 -5 -70 -7 -93 -7c-32 0 -51 21 -51 54c0 50 57 73 96 88c61 24 131 30 196 30c90 0 203 -9 203 -125c0 -37 -28 -81 -60 -102c-34 -21 -80 -33 -119 -41l-151 -33v-2c79 -14 199 -23 207 -133
c5 -67 -111 -217 -366 -217c-135 0 -180 53 -180 81c0 25 62 97 87 97c7 0 15 -4 15 -12c0 -4 -15 -22 -23 -30c33 -13 61 -23 97 -23c147 0 297 85 297 120c-1 55 -149 59 -186 59c-34 0 -56 -2 -89 -8c-8 -2 -21 -4 -29 -4c-13 0 -17 9 -15 21c9 62 35 99 109 104
c56 4 333 51 333 119c0 43 -75 41 -103 41c-74 0 -146 -16 -215 -42v-2z" />
    <glyph glyph-name="four" unicode="4" 
d="M326 272l240 290l-2 2c-44 -20 -89 -40 -130 -64c-208 -122 -268 -198 -280 -226c0 -5 11 -9 37 -10c27 -2 70 0 135 8zM525 171l-140 -17c-11 -38 -17 -54 -17 -75c0 -19 10 -34 20 -49c-23 -10 -101 -56 -120 -56c-21 0 -24 35 -24 50c0 39 13 78 20 122
c-108 -5 -182 -17 -197 11c-14 26 -30 59 -30 89c0 52 79 135 117 168c127 110 371 229 434 229c17 0 38 -8 38 -28c0 -11 -13 -24 -21 -31c18 -9 24 -26 20 -45c-2 -18 -11 -39 -26 -58c-52 -64 -96 -128 -142 -201c25 0 51 5 76 5c19 0 37 -4 37 -25
c0 -22 -37 -73 -45 -89z" />
    <glyph glyph-name="five" unicode="5" 
d="M182 497l103 110c43 45 62 40 121 40h241c-66 -119 -67 -135 -158 -134l-170 2c-34 -27 -63 -62 -85 -102c46 12 92 21 139 21c86 0 164 -43 164 -136c0 -41 -12 -83 -36 -123c-61 -102 -198 -185 -399 -185c-98 0 -103 22 -103 86c0 73 142 111 157 111
c6 0 16 -2 16 -11s-15 -18 -21 -22l-61 -42l2 -2c238 26 372 130 372 185c0 27 -49 38 -69 38c-40 0 -86 -8 -124 -16c-38 -7 -69 -17 -81 -17c-40 0 -57 76 -57 107c0 32 28 68 49 90z" />
    <glyph glyph-name="six" unicode="6" 
d="M418 508l-137 -119l2 -2c40 18 81 42 127 42c74 0 120 -62 120 -133c0 -162 -214 -309 -282 -309c-55 0 -174 78 -174 204c0 175 191 336 328 420c49 30 59 35 114 35c9 0 80 5 80 -13c0 -10 -14 -18 -21 -21c-48 -22 -117 -69 -157 -104zM400 356
c-43 0 -123 -69 -155 -97c-43 -38 -58 -50 -58 -108c0 -16 0 -67 25 -63c72 12 214 109 217 230c0 21 -2 38 -29 38z" />
    <glyph glyph-name="seven" unicode="7" 
d="M267 292l212 222c-233 6 -254 -21 -297 -43c-8 -4 -21 -14 -32 -14s-26 10 -26 22c0 22 60 95 76 112c30 31 95 56 340 56c18 0 43 -1 55 -18c10 -15 25 -61 25 -79c0 -22 -35 -47 -50 -59c-128 -109 -234 -237 -284 -430c8 3 16 5 24 5c6 0 10 -3 11 -10
c2 -15 -103 -85 -145 -87c-38 -2 -51 29 -51 63c0 80 93 198 142 260z" />
    <glyph glyph-name="eight" unicode="8" 
d="M520 520l-77 6c-111 9 -171 -38 -171 -80c0 -21 31 -68 55 -92zM295 240l-84 -77c-20 -18 -54 -55 -54 -83c0 -22 17 -21 34 -21c58 0 137 34 137 100c0 34 -15 55 -33 81zM532 455l-166 -148c36 -44 49 -88 50 -145c1 -59 -40 -165 -231 -176c-47 -3 -116 25 -116 81
c0 81 128 178 183 228c-39 49 -81 95 -81 161c0 83 72 136 144 161c54 18 128 32 191 36c63 2 115 -8 127 -12c11 -3 16 -7 16 -19c0 -25 -17 -49 -30 -69c-21 -32 -29 -42 -55 -37c5 -24 3 -29 -32 -61z" />
    <glyph glyph-name="nine" unicode="9" 
d="M554 493l-37 -23c-11 -7 -19 -13 -32 -13c-6 0 -11 6 -11 12c0 2 -5 4 52 52l-2 2c-240 -61 -321 -154 -321 -218c0 -11 4 -16 16 -16c77 0 208 77 266 126c15 12 50 42 71 42c12 0 54 -9 54 -25s-23 -43 -33 -54l-263 -309c-59 -69 -93 -90 -134 -94
c-12 -1 -22 5 -22 18s20 41 26 51c17 27 22 46 57 44l189 225l-2 2c-41 -29 -153 -99 -202 -99c-34 0 -124 68 -124 152c0 123 238 282 411 279c39 -1 98 -78 98 -101s-40 -43 -57 -53z" />
    <glyph glyph-name="colon" unicode=":" horiz-adv-x="301" 
d="M111 -5c-27 3 -63 8 -63 42c0 36 44 119 101 107c14 -3 49 -3 49 -32c0 -1 -25 -124 -87 -117zM230 232c-27 3 -63 8 -63 42c0 36 44 119 101 107c14 -3 49 -3 49 -32c0 -1 -25 -124 -87 -117z" />
    <glyph glyph-name="semicolon" unicode=";" horiz-adv-x="301" 
d="M55 43c0 41 49 97 92 97c16 0 51 0 51 -23c0 -27 -30 -91 -47 -111c-60 -74 -81 -66 -103 -66c16 21 33 43 45 68c-18 6 -38 12 -38 35zM231 233c-27 3 -63 8 -63 42c0 36 44 119 101 107c14 -3 49 -3 49 -32c0 -1 -25 -124 -87 -117z" />
    <glyph glyph-name="less" unicode="&#x3c;" horiz-adv-x="648" 
d="M598 4l-450 225v61l450 224v-67l-388 -186v-2l388 -188v-67z" />
    <glyph glyph-name="equal" unicode="=" horiz-adv-x="617" 
d="M569 332h-455v60h455v-60zM569 129h-455v60h455v-60z" />
    <glyph glyph-name="greater" unicode="&#x3e;" horiz-adv-x="648" 
d="M148 514l450 -224v-62l-449 -224v67l387 187v2l-388 187v67z" />
    <glyph glyph-name="question" unicode="?" horiz-adv-x="467" 
d="M224 547l10 -4c11 -4 30 -10 30 -24c0 -12 -11 -18 -21 -18c-5 0 -13 2 -18 3l-39 6c-20 1 -48 -3 -48 26c0 20 16 64 26 81c28 47 160 68 211 68c75 0 122 -24 122 -106c0 -69 -26 -122 -70 -174l-130 -154c-13 -16 -26 -24 -26 -45c0 -9 6 -18 6 -27
c0 -14 -8 -23 -22 -23c-33 0 -57 43 -57 72c0 49 38 92 72 124l115 106c23 21 62 50 62 83c0 42 -39 43 -70 43c-58 0 -100 -17 -153 -37zM174 -11c-26 0 -54 22 -54 48c0 35 22 122 58 122c35 0 62 -30 62 -64c0 -35 -20 -106 -66 -106z" />
    <glyph glyph-name="at" unicode="@" horiz-adv-x="794" 
d="M496 -26l5 -45c-65 -30 -122 -41 -191 -41c-201 0 -293 131 -248 312c49 197 240 369 475 369c209 0 287 -134 249 -287c-37 -149 -156 -228 -250 -228c-45 0 -73 30 -61 88h-3c-44 -51 -103 -88 -164 -88c-63 0 -100 49 -80 129c31 127 155 228 291 228
c47 0 90 -10 115 -23l-78 -175c-32 -73 -25 -104 6 -105c44 0 133 47 164 170c34 138 -36 244 -211 244c-147 0 -344 -125 -391 -316c-43 -170 55 -269 208 -269c56 0 116 13 164 37zM499 246l46 101c-9 3 -31 8 -52 8c-77 0 -162 -71 -184 -157c-10 -40 0 -76 47 -76
c51 0 117 68 143 124z" />
    <glyph glyph-name="A" unicode="A" horiz-adv-x="779" 
d="M557 348l136 228l-2 2l-289 -239l2 -2zM604 230l-63 -123c0 -10 8 -16 18 -16c18 0 29 11 88 55l18 -26c-48 -48 -133 -129 -204 -129c-36 0 -51 28 -51 60c0 8 -15 7 73 169l-218 -7l-205 -204c-24 -24 -62 -66 -98 -66c-15 0 -35 3 -35 22c0 33 77 129 171 162l78 86
c-64 -2 -97 -6 -97 20c0 19 73 103 126 120c39 13 93 21 93 7c0 -18 -73 -9 -73 -27c0 -7 9 -9 14 -9c16 1 57 3 61 3l224 186c98 81 218 172 263 172c21 0 35 -25 35 -43c0 -21 -21 -55 -31 -73l-124 -217c74 0 29 10 92 -4c-29 -34 -53 -74 -75 -114z" />
    <glyph glyph-name="B" unicode="B" horiz-adv-x="710" 
d="M345 325c71 -13 316 -33 316 -129c0 -57 -123 -192 -392 -207c-72 -4 -172 20 -172 111c0 32 -5 37 111 190c-28 2 -92 5 -92 39c0 43 140 45 170 54c65 63 131 147 231 147c-7 -17 -14 -30 -97 -127c226 31 279 99 277 126c-1 22 -29 57 -145 49
c-23 -2 -129 -15 -281 -70c6 -3 14 -7 14 -15c0 -15 -23 -21 -36 -23c-62 -10 -81 -19 -139 -38c-9 -3 -20 -7 -31 -7c-17 0 -25 10 -25 27c0 7 15 43 46 84c21 28 50 66 84 79c97 37 284 76 388 76c172 0 213 -68 213 -122c0 -162 -303 -203 -420 -226zM301 275l-56 -61
c-13 -14 -35 -36 -35 -57c0 -43 79 -55 111 -55c89 1 227 66 227 106c0 52 -206 67 -247 67z" />
    <glyph glyph-name="C" unicode="C" horiz-adv-x="715" 
d="M348 317l74 65c7 7 40 39 51 39c10 0 15 -7 10 -23l2 -2c97 84 160 174 160 207c0 17 -11 24 -27 20c-18 -5 -132 -9 -356 -271c-70 -82 -121 -193 -121 -269c0 -71 34 -113 106 -113c126 0 346 164 441 248c3 -51 -13 -65 -51 -101c-195 -188 -361 -248 -455 -248
c-111 0 -191 69 -191 184c0 147 123 305 226 402c85 81 295 241 414 241c60 0 99 -32 102 -95c7 -135 -251 -391 -377 -410c-29 -4 -56 16 -56 48c0 30 27 60 48 78z" />
    <glyph glyph-name="D" unicode="D" horiz-adv-x="804" 
d="M446 476l-221 -288c-31 -41 -27 -55 -21 -68c4 -6 16 -17 57 -18c69 -1 160 19 230 43c210 74 283 180 283 268c0 129 -205 132 -295 137c-8 -32 -13 -48 -33 -74zM184 248l239 298c-73 -7 -147 -21 -215 -47v-2h27c5 0 54 4 54 -11c0 -12 -22 -17 -31 -18
c-49 -8 -119 -39 -166 -39c-23 0 -38 12 -38 35c0 17 10 52 14 69c13 53 46 75 95 97c95 41 236 70 340 70c75 0 175 -12 239 -53c73 -47 105 -137 105 -221c0 -144 -119 -258 -237 -325c-108 -61 -288 -112 -413 -112c-23 0 -66 0 -86 11c-19 10 -23 34 -23 53
c0 74 52 140 96 195z" />
    <glyph glyph-name="E" unicode="E" horiz-adv-x="702" 
d="M748 616c3 -57 1 -61 -55 -79c-65 -22 -123 -62 -140 -65c-4 -1 -11 4 -11 10c0 14 50 56 69 71c-237 2 -374 -95 -368 -130c3 -16 -3 -45 318 -38c10 0 67 1 67 -22c0 -18 -23 -54 -37 -65c-15 -13 -75 -23 -95 -26c-256 -42 -362 -155 -362 -191c0 -18 30 -30 84 -32
c55 -3 135 4 236 35c72 22 135 69 201 106c5 -72 0 -112 -58 -160c-34 -29 -164 -118 -369 -114c-47 1 -93 10 -137 22c-43 12 -70 73 -70 113c0 67 89 195 383 268v3c-227 7 -274 59 -274 115c0 98 145 251 475 251c32 0 126 3 141 -30z" />
    <glyph glyph-name="F" unicode="F" horiz-adv-x="695" 
d="M535 171l-171 -180c-34 -36 -156 -147 -202 -147c-14 0 -24 11 -24 25c0 28 42 80 61 100c31 35 60 51 104 63l117 124l-149 -12c-7 -1 -49 -1 -51 13c-4 28 0 52 26 69c31 20 97 41 135 48l153 29c33 44 114 182 114 231c0 20 -15 19 -32 19c-2 0 -7 4 -83 -8
c-115 -19 -230 -48 -336 -94l2 -2l52 1c7 0 19 1 19 -9c0 -12 -22 -15 -30 -17l-116 -36c-68 -21 -77 -9 -77 9c0 29 57 129 77 153c39 49 93 60 151 73c262 60 337 63 396 63c36 0 103 -4 103 -53c0 -74 -112 -270 -157 -336l67 -11l-40 -64c-8 -13 -14 -26 -27 -32
c-22 -10 -59 -14 -82 -19z" />
    <glyph glyph-name="G" unicode="G" horiz-adv-x="697" 
d="M451 230l-111 -81c-50 -37 -140 -109 -197 -102c-79 9 -112 70 -112 140c0 86 65 192 123 252c69 76 250 217 526 248c19 2 30 -2 41 -17s18 -45 18 -64c0 -26 -21 -41 -41 -54c-138 -90 -158 -91 -167 -91c-8 0 -13 6 -13 14c0 10 20 24 27 29l42 34l-2 2
c-299 -88 -477 -332 -466 -382c5 -21 13 -38 35 -38c21 0 51 18 68 31l366 278c6 6 14 13 23 13s29 -12 37 -17c11 -6 25 -14 25 -27c0 -10 -10 -27 -14 -35c-43 -87 -106 -174 -183 -295l2 -2l220 142c-2 -44 5 -52 -131 -144l-161 -109c-41 -56 -192 -220 -260 -220
c-25 0 -36 20 -37 42c-3 67 86 156 184 204c61 78 119 159 160 247z" />
    <glyph glyph-name="H" unicode="H" horiz-adv-x="901" 
d="M589 174l-184 -24l-104 -122c-12 -17 -34 -57 -58 -57c-22 0 -49 20 -49 43c0 28 71 97 85 124c-70 -6 -102 7 -102 41c0 23 29 76 56 76c7 0 15 -7 23 -7c11 0 12 7 164 36c38 37 110 115 198 215c13 14 42 49 42 69c0 18 -23 22 -35 22c-53 0 -179 -37 -343 -105
c7 -3 14 -6 14 -15c0 -14 -13 -20 -25 -24c-75 -26 -68 -27 -137 -62c-12 -6 -26 -14 -40 -14c-23 0 -30 28 -30 46c0 29 16 86 34 110c36 41 203 96 260 114c83 27 209 51 295 51c83 0 108 -49 108 -98c0 -62 -60 -122 -100 -165l-113 -120l154 18l181 227
c12 16 54 72 75 72c13 0 17 -12 17 -23c0 -32 -7 -51 -82 -143l-108 -133c46 -1 95 0 136 -25c-47 -37 -88 -82 -120 -134c-30 7 -61 10 -102 7c-15 -26 -52 -73 -52 -103c0 -18 7 -41 11 -60c-32 7 -83 -42 -109 -33c-17 6 -23 20 -18 50s21 76 58 146z" />
    <glyph glyph-name="I" unicode="I" horiz-adv-x="493" 
d="M184 372l25 5c11 2 27 6 38 6c5 0 9 -5 9 -10c0 -15 -20 -26 -30 -34c-15 -11 -65 -52 -84 -52s-93 46 -90 74c14 153 257 332 411 332c67 0 99 -50 99 -112c0 -129 -166 -387 -242 -497c17 -42 -41 -113 -72 -115c-23 -2 -57 22 -57 47c0 14 9 28 17 39
c174 249 266 433 266 484c0 16 -7 41 -27 41c-53 -7 -209 -106 -263 -208z" />
    <glyph glyph-name="J" unicode="J" horiz-adv-x="544" 
d="M345 94l-203 -235c-25 -29 -97 -108 -136 -108c-24 0 -39 26 -39 47c0 70 73 172 306 309l143 240c47 79 82 166 94 258c-150 -51 -275 -207 -304 -361c57 35 65 40 68 40c5 0 9 -3 9 -8c0 -12 -40 -51 -49 -61c-25 -28 -71 -84 -112 -84c-38 0 -39 47 -39 75
c0 68 38 163 70 223c105 198 302 264 373 264c37 0 72 -42 72 -64c0 -64 -27 -165 -207 -468l2 -2l116 51l13 -32z" />
    <glyph glyph-name="K" unicode="K" horiz-adv-x="840" 
d="M151 57l149 192c-10 14 -17 24 -17 42c0 40 32 62 63 78l106 55l97 152c-167 -40 -233 -75 -390 -152c-16 -8 -38 -19 -57 -19s-31 11 -31 30c0 20 18 74 25 94c13 39 22 41 55 66l55 41c9 6 20 15 31 15c7 0 10 -5 10 -11c0 -8 3 -6 -46 -48l2 -2c51 18 201 92 354 100
c26 2 31 -5 47 -24c11 -14 29 -37 29 -56c0 -18 -15 -38 -25 -53l-51 -74l2 -2l319 151c11 5 49 23 60 23c12 0 19 -8 19 -19c0 -13 -61 -120 -129 -101l-367 -183c-14 -10 -23 -20 -23 -37c0 -21 31 -33 46 -42l253 -147c45 -26 92 -57 92 -114c0 -15 -4 -49 -25 -49
c-12 0 -40 16 -50 22l-395 217l-80 -96c1 -48 -82 -116 -122 -116c-13 0 -27 7 -27 22c0 18 10 31 21 45z" />
    <glyph glyph-name="L" unicode="L" horiz-adv-x="700" 
d="M76 29l-22 -10c-24 -8 -52 -24 -79 -24c-14 0 -31 3 -31 21c0 23 47 79 62 99c9 12 16 24 31 28c42 10 87 11 129 19l291 346c36 43 183 192 236 192c34 0 50 -36 50 -65c0 -64 -82 -181 -114 -238c8 -1 18 -3 18 -14c0 -18 -42 -48 -56 -58c-17 -12 -68 -52 -87 -52
c-18 0 -23 15 -23 30c0 75 86 184 134 238c8 9 9 19 2 19c-13 0 -56 -40 -167 -167l-200 -229c166 -32 252 -49 402 -85l-53 -53c-64 -64 -60 -66 -256 -25c-88 19 -177 31 -267 28z" />
    <glyph glyph-name="M" unicode="M" horiz-adv-x="1143" 
d="M468 156l68 89c94 123 128 178 162 244c17 32 13 43 2 43c-12 0 -24 -13 -31 -21l-240 -260l-150 -202c-17 -23 -42 -61 -74 -61c-42 0 -62 79 -73 110l209 264c105 188 87 208 70 208c-8 0 -23 -8 -31 -12c-308 -144 -260 -146 -311 -146c-16 0 -29 13 -24 37
c10 54 18 109 26 118c9 12 3 10 92 73c5 4 18 14 25 14c5 0 12 -4 12 -10s-14 -24 -53 -58l2 -2l113 52c12 5 153 72 189 70c24 -1 28 -15 38 -32l24 -42c7 -13 12 -23 12 -38c0 -33 -51 -137 -62 -174l2 -2l159 154c37 35 122 110 163 111c22 1 73 -17 73 -69
c0 -74 -108 -222 -149 -285l2 -2c123 106 238 215 369 319c13 11 33 32 51 32c27 0 69 -65 69 -86c0 -20 -31 -55 -43 -70l-155 -189c-46 -56 -115 -151 -115 -227c0 -20 11 -49 35 -49c28 0 106 45 241 176l4 -38c-24 -69 -239 -239 -325 -239c-66 0 -88 63 -88 121
c0 120 127 270 197 361l-2 2c-170 -144 -225 -189 -382 -388c-15 -19 -63 -76 -88 -76c-39 0 -53 72 -53 101c0 28 24 58 40 79z" />
    <glyph glyph-name="N" unicode="N" horiz-adv-x="836" 
d="M550 191l170 313l-2 2c-84 -80 -167 -161 -238 -241c-29 -33 -135 -177 -188 -248c-7 -10 -19 -28 -32 -28c-22 0 -79 40 -79 63c0 6 7 17 10 22c41 63 233 398 233 453c0 13 -3 21 -16 21c-34 0 -144 -54 -312 -165c-8 -6 -21 -13 -30 -13c-19 0 -18 32 -18 44
c0 120 173 249 203 249c5 0 11 -3 11 -8c0 -1 -5 -17 -54 -64l2 -2c71 39 195 109 278 109c34 0 67 -19 64 -56c-6 -80 -45 -146 -174 -373l2 -2c192 231 277 314 302 331c30 20 105 77 128 77c17 0 82 -47 82 -95c0 -63 -128 -192 -224 -382c-29 -58 -31 -78 -31 -82
c0 -18 4 -41 26 -41c40 0 171 135 200 171c2 -24 4 -36 4 -45c0 -8 -3 -13 -11 -23c-144 -186 -249 -240 -292 -240c-50 0 -68 44 -68 87c0 55 28 118 54 166z" />
    <glyph glyph-name="O" unicode="O" horiz-adv-x="639" 
d="M553 550l1 -1c40 11 70 6 90 -9c20 -16 30 -43 31 -79c5 -199 -233 -468 -462 -466c-79 1 -169 49 -178 204c-12 216 321 461 514 488c47 7 97 -64 97 -80c0 -21 -34 -30 -49 -35c-16 -6 -30 -14 -44 -22zM292 350c-6 -8 -19 -27 -31 -27c-13 0 -13 19 -14 28
c-56 -56 -111 -136 -111 -218c0 -35 15 -65 53 -65c56 0 143 42 185 78c134 114 210 236 213 309c1 24 -13 49 -39 49c-88 0 -209 -83 -256 -154z" />
    <glyph glyph-name="P" unicode="P" horiz-adv-x="742" 
d="M212 166l-41 -68c9 -2 19 -7 19 -18c0 -13 -25 -46 -51 -81c-13 -18 -34 -47 -59 -47c-24 0 -34 14 -34 36c0 44 71 153 95 195c-24 15 -45 33 -45 64c0 58 118 85 160 98l159 210c-175 -3 -314 -67 -344 -67c-6 0 -16 1 -16 10c0 24 58 101 74 123c18 25 48 33 76 41
c87 25 179 35 269 35c248 0 317 -80 317 -204c0 -213 -259 -363 -579 -327zM451 503l-105 -145c37 0 78 14 78 -5c0 -20 -85 -25 -101 -36l-22 -33c37 -10 71 -12 103 -10c196 11 325 154 314 217c-11 61 -199 73 -245 73c-1 -27 -7 -40 -22 -61z" />
    <glyph glyph-name="Q" unicode="Q" horiz-adv-x="683" 
d="M462 -28l-334 52c-23 -15 -56 -43 -85 -43c-15 0 -24 5 -24 22c0 52 33 121 65 143c23 16 55 9 100 9c317 167 459 343 459 399c0 19 -27 22 -42 22c-39 0 -221 -52 -345 -142v-2c75 0 96 10 96 -15c0 -12 -11 -15 -20 -17c-54 -10 -110 -31 -158 -56
c-38 -15 -46 -11 -46 72c-1 40 -5 63 9 82c53 70 340 191 470 191c71 0 124 -53 124 -126c0 -159 -305 -341 -426 -420c177 -35 233 -45 278 -45c30 0 59 9 89 13c-20 -65 -43 -105 -55 -126c-15 -27 -60 -28 -155 -13z" />
    <glyph glyph-name="R" unicode="R" horiz-adv-x="805" 
d="M433 451l-74 -113l249 65c41 11 175 68 175 117c0 31 -108 32 -130 30l-185 -13c1 -35 -17 -58 -35 -86zM600 12l-370 137l-86 -125c12 -35 -47 -72 -74 -72c-12 0 -23 8 -23 21c0 19 7 33 17 49l93 153c-16 4 -52 17 -48 37c9 52 61 100 154 103l148 214
c-73 -12 -147 -25 -215 -52v-2c63 -6 83 -2 83 -17c0 -8 -14 -11 -19 -11l-78 -8c-28 -3 -64 -10 -93 -10c-15 0 -36 5 -36 24c0 32 31 96 51 121c47 56 263 109 465 109c92 0 287 -9 287 -137c0 -51 -32 -128 -72 -160c-82 -66 -132 -65 -492 -132v-2l270 -86
c172 -55 168 -81 173 -89c19 -35 23 -110 -11 -110c-26 0 -97 35 -124 45z" />
    <glyph glyph-name="S" unicode="S" horiz-adv-x="712" 
d="M246 428c0 -14 -13 -21 266 -86c101 -24 148 -77 148 -126c0 -199 -349 -231 -493 -231c-39 0 -161 0 -161 58c0 21 35 74 51 89c12 10 71 29 86 29c5 0 8 -1 8 -7c0 -10 -10 -15 -17 -19c-6 -4 -11 -9 -17 -15v-2c357 -13 455 90 455 106c0 51 -277 91 -325 99
c-50 8 -102 24 -102 84c0 33 16 106 32 133c31 51 212 146 431 146c42 0 84 -5 126 -14c23 -5 26 -13 26 -33c0 -74 -25 -91 -84 -114c-43 -16 -51 -21 -90 -49c-7 -4 -17 -10 -25 -10c-10 0 -16 5 -16 15c0 2 19 33 73 70l-2 2c-258 -9 -369 -102 -370 -125z" />
    <glyph glyph-name="T" unicode="T" horiz-adv-x="677" 
d="M161 428l-58 -1c-23 0 -45 0 -45 27c0 16 6 41 9 58c12 65 10 85 75 114c114 52 250 66 374 66c50 0 102 -2 151 -13c62 -14 57 -45 83 -114c9 -24 -23 -61 -37 -83l-235 -356l2 -2c10 4 23 1 23 -14c0 -20 -30 -56 -42 -71c-18 -23 -58 -82 -89 -82c-25 0 -54 14 -54 42
c0 99 184 332 249 415l100 128c-172 -3 -342 -26 -506 -77v-2c14 -3 80 -10 80 -30c0 -21 -40 -4 -80 -5z" />
    <glyph glyph-name="U" unicode="U" horiz-adv-x="874" 
d="M583 207l82 139l-2 2c-259 -252 -391 -358 -424 -352c-63 11 -94 49 -94 103c0 64 85 160 126 208c132 155 187 204 186 219c0 6 -4 10 -10 10s-24 -9 -29 -11c-80 -34 -61 -24 -242 -113c-26 -13 -73 -32 -102 -32c-17 0 -29 3 -26 21c14 85 104 227 279 254
c59 9 158 41 215 41c59 0 70 -72 56 -118c-15 -48 -43 -74 -79 -121c-35 -37 -230 -263 -230 -297c0 -12 8 -18 20 -18c41 0 229 170 266 207c225 221 284 290 313 290s41 -42 41 -64c7 -21 -19 -50 -190 -290c-79 -111 -90 -162 -90 -177c0 -23 17 -40 38 -40
c52 0 160 96 201 129c3 -17 5 -24 5 -33c0 -29 -196 -184 -283 -184c-47 0 -79 32 -79 79c0 57 24 101 52 148z" />
    <glyph glyph-name="V" unicode="V" horiz-adv-x="699" 
d="M189 390l56 3c8 0 40 5 40 -10s-36 -18 -44 -20c-91 -18 -152 -58 -168 -58c-19 0 -22 41 -22 53c0 47 16 96 51 128c54 50 354 203 426 205c36 1 67 -64 67 -78c0 -20 -27 -59 -38 -76c-179 -285 -213 -374 -215 -403c-2 -24 4 -65 26 -58c27 9 74 34 283 365
c-11 63 82 183 113 172c44 -15 24 -139 -231 -473c-32 -42 -125 -174 -179 -174c-40 0 -115 63 -113 138c1 40 17 126 207 440l-2 2c-90 -43 -182 -87 -259 -154z" />
    <glyph glyph-name="W" unicode="W" horiz-adv-x="978" 
d="M585 296l-140 -151c-105 -113 -163 -162 -209 -162c-40 0 -93 87 -87 121c6 28 -19 34 292 375c11 13 31 31 31 49c0 19 -18 25 -35 25c-57 0 -242 -81 -295 -113c-18 -11 -45 -24 -67 -24c-11 0 -47 14 5 130c14 32 32 42 60 64l69 54c5 5 14 11 22 11c4 0 12 -4 2 -20
l-28 -32l2 -2c82 29 164 64 255 65c30 0 60 -1 80 -27c16 -22 31 -74 31 -101c0 -33 -7 -82 -277 -394c-22 -26 -10 -34 -1 -37c12 -5 181 141 420 412c22 24 63 93 114 93c28 0 44 -49 44 -65c0 -14 -26 -51 -34 -62c-43 -60 -223 -329 -222 -389c-1 -9 7 -18 14 -15
c87 41 240 190 330 385c-4 12 -5 24 -5 37c0 34 60 103 75 103c20 0 27 -39 26 -53c-9 -221 -295 -569 -419 -587c-35 -5 -109 41 -109 99c0 62 38 152 58 209z" />
    <glyph glyph-name="X" unicode="X" horiz-adv-x="688" 
d="M549 462l163 153c11 10 32 31 48 31c14 0 18 -9 18 -21c0 -34 -44 -113 -86 -108l-151 -145l-20 -233c-2 -25 -11 -58 24 -58c36 0 89 45 118 63l18 -26c-41 -52 -152 -150 -219 -150c-64 0 -56 88 -54 132l8 152l-190 -179c-97 -92 -124 -97 -134 -97
c-17 0 -27 12 -27 29c0 60 107 149 166 161l192 182l10 226c-94 -32 -191 -60 -279 -108v-2c56 -4 73 0 73 -12s-32 -14 -135 -47c-15 -5 -46 -11 -46 14c0 27 44 117 66 136c79 69 279 129 382 129c71 0 73 -38 67 -98z" />
    <glyph glyph-name="Y" unicode="Y" horiz-adv-x="742" 
d="M598 332l-265 -229c-30 -26 -95 -84 -136 -84c-33 0 -75 33 -69 67c4 22 -7 53 178 274c85 102 132 156 132 180c1 7 -7 10 -13 11c-153 -76 -237 -126 -328 -174c-7 -5 -24 -12 -32 -12c-9 0 -15 2 -17 9s0 20 6 40l15 54c11 38 29 52 62 73c83 51 287 152 382 152
c35 0 70 -15 70 -55c0 -45 -76 -136 -105 -173c-158 -202 -193 -233 -195 -263c-1 -13 20 -26 53 2c142 118 38 19 352 305c11 10 40 40 56 40c25 0 47 -39 47 -60c0 -28 -44 -70 -188 -275c-82 -117 -145 -203 -118 -205c14 -1 17 12 134 72c67 34 96 29 96 13
s-47 -54 -61 -62c-64 -48 -186 -148 -235 -206c-21 -24 -57 -67 -91 -67c-28 0 -44 22 -44 49c0 100 245 434 316 522z" />
    <glyph glyph-name="Z" unicode="Z" horiz-adv-x="644" 
d="M338 213l-104 -46c-93 -41 -81 -46 -101 -46c-9 0 -16 5 -16 14c0 4 9 37 26 81c7 19 9 29 26 42c55 42 235 119 259 132c125 69 158 87 158 121c0 17 -22 27 -36 27c-98 0 -215 -52 -490 -210c5 134 24 197 145 267c85 49 236 93 335 93c82 0 159 -25 159 -120
c0 -134 -154 -180 -249 -236c75 -14 117 -38 128 -117c80 27 73 7 73 2c0 -13 -3 -19 -73 -45c-19 -102 -88 -188 -164 -255c-59 -53 -217 -143 -276 -143c-23 0 -84 35 -84 62c0 59 139 214 433 345c0 31 -27 86 -149 32zM473 120c-176 -87 -308 -223 -308 -248
c0 -6 8 -10 12 -10c63 0 259 151 296 258z" />
    <glyph glyph-name="bracketleft" unicode="[" horiz-adv-x="380" 
d="M351 -131h-296l217 837h292l-27 -88h-160l-171 -661h173z" />
    <glyph glyph-name="backslash" unicode="\" horiz-adv-x="334" 
d="M285 -39h-69l-75 712h68z" />
    <glyph glyph-name="bracketright" unicode="]" horiz-adv-x="380" 
d="M165 706h296l-217 -837h-292l27 88h160l171 661h-173z" />
    <glyph glyph-name="asciicircum" unicode="^" horiz-adv-x="646" 
d="M604 239h-68l-152 334l-152 -334h-65l188 397h61z" />
    <glyph glyph-name="underscore" unicode="_" horiz-adv-x="500" 
d="M0 -75h500v-50h-500v50z" />
    <glyph glyph-name="quoteleft" unicode="&#x2018;" horiz-adv-x="301" 
d="M250 586c0 -41 -49 -97 -92 -97c-16 0 -51 0 -51 23c0 27 30 91 47 111c60 74 81 66 103 66c-16 -21 -33 -43 -45 -68c18 -6 38 -12 38 -35z" />
    <glyph glyph-name="a" unicode="a" horiz-adv-x="487" 
d="M309 277c-238 -73 -267 -134 -267 -183c1 -5 5 -23 20 -20c20 4 51 1 249 201zM255 142l-92 -74c-19 -15 -83 -67 -106 -67c-28 0 -86 66 -88 118c-4 125 256 253 372 256c46 1 65 -36 65 -48s-26 -22 -35 -25c19 -8 29 -19 29 -41c0 -32 -87 -102 -87 -149
c0 -17 15 -24 31 -24c42 0 99 51 142 80l8 -37c-43 -49 -177 -156 -226 -156c-33 0 -48 24 -48 53c0 32 24 85 37 112z" />
    <glyph glyph-name="b" unicode="b" horiz-adv-x="400" 
d="M235 342l-156 -153c-18 -63 6 -115 44 -110c32 5 50 32 67 52c-8 13 -14 23 -14 39c0 58 80 156 139 156c24 0 30 -25 30 -44c0 -42 -31 -88 -48 -125c41 -8 74 14 106 37l10 -33c-45 -47 -96 -63 -160 -64c-43 -45 -113 -106 -179 -106c-65 0 -74 97 -74 145
c0 126 59 233 138 327c81 97 238 219 280 219c20 0 29 -18 29 -37c0 -91 -148 -241 -212 -303zM363 596c-99 -84 -189 -185 -248 -301l2 -2c209 208 231 265 248 301z" />
    <glyph glyph-name="c" unicode="c" horiz-adv-x="359" 
d="M194 251l-84 -63c-22 -16 -40 -31 -40 -59c0 -23 24 -54 76 -54c76 0 163 70 221 115l12 -39c-61 -65 -173 -164 -268 -164c-77 0 -114 72 -114 146c0 84 30 115 95 164c45 34 141 88 197 88c31 0 45 -16 45 -46c0 -55 -79 -132 -106 -132c-23 0 -33 25 -34 44z" />
    <glyph glyph-name="d" unicode="d" horiz-adv-x="501" 
d="M502 467l-102 -158c-33 -52 -81 -117 -81 -181c0 -16 1 -50 23 -50c34 0 126 81 158 102l7 -33c-47 -52 -150 -157 -223 -157c-38 0 -53 40 -53 72c0 25 4 51 8 76c-35 -30 -128 -127 -173 -127s-73 96 -73 131c0 118 199 218 284 223c21 1 29 -13 42 -28
c33 57 121 264 194 264c20 0 32 -20 32 -38c0 -30 -27 -71 -43 -96zM285 278c-176 -57 -198 -91 -204 -157c-1 -9 4 -17 15 -19c12 -3 173 117 189 176z" />
    <glyph glyph-name="e" unicode="e" horiz-adv-x="357" 
d="M362 187l9 -38c-61 -71 -171 -165 -270 -165c-73 0 -107 65 -109 131c-4 131 141 265 271 264c32 0 72 -8 72 -48c0 -49 -49 -123 -241 -186l-2 -22c-3 -38 30 -51 62 -51c71 0 155 73 208 115zM100 194c88 30 148 99 147 116c0 7 -5 13 -12 11
c-50 -13 -108 -61 -135 -127z" />
    <glyph glyph-name="f" unicode="f" horiz-adv-x="310" 
d="M22 -167c62 41 107 119 98 194c-32 -2 -48 -1 -72 8c-26 -44 -42 -80 -46 -113c-4 -32 5 -60 20 -89zM311 434l-187 -261c29 -17 39 -50 52 -79l135 84l11 -37c-40 -36 -80 -71 -129 -95c4 -19 2 -37 1 -55c-8 -119 -148 -229 -221 -240c-46 -7 -59 86 -59 119
c0 65 43 144 70 201c-16 17 -29 32 -29 57c0 40 27 51 56 67c59 32 91 79 122 136c26 49 155 287 206 287c22 0 24 -28 24 -44c0 -39 -30 -109 -52 -140z" />
    <glyph glyph-name="g" unicode="g" horiz-adv-x="443" 
d="M197 8l70 137l-2 2c-36 -40 -141 -131 -196 -131c-56 0 -75 73 -75 117c0 131 218 237 295 244c14 1 53 -3 53 -25c0 -18 -20 -32 -33 -41l-114 -62c-63 -34 -137 -62 -128 -135c1 -8 7 -10 16 -10c28 -3 89 21 127 62l107 118c10 11 22 28 38 28c20 0 38 -34 38 -51
c0 -15 -14 -38 -21 -51l-75 -140l2 -2l152 109l5 -42l-211 -158c-105 -167 -193 -231 -232 -231c-14 0 -23 11 -23 24c0 72 152 198 207 238z" />
    <glyph glyph-name="h" unicode="h" horiz-adv-x="442" 
d="M63 165v-39c49 39 231 199 286 199c24 0 48 -25 48 -48c0 -19 -40 -63 -52 -77c-62 -75 -59 -78 -59 -88c0 -13 10 -21 22 -21c33 0 106 54 135 73l5 -41c-46 -35 -167 -133 -222 -133c-30 0 -46 26 -46 53c0 63 69 139 105 186l-2 2c-171 -117 -221 -223 -253 -223
c-35 0 -40 78 -40 101c0 69 26 117 61 174c118 195 317 370 351 370c16 0 43 -7 43 -27c0 -68 -318 -398 -382 -461z" />
    <glyph glyph-name="i" unicode="i" horiz-adv-x="278" 
d="M273 168l9 -38c-45 -55 -133 -145 -209 -145c-59 0 -86 68 -86 119c0 122 125 241 185 241c17 0 44 -6 44 -28c0 -50 -99 -139 -141 -168c-8 -41 7 -63 53 -63c53 0 105 53 145 82zM226 365c-24 0 -40 19 -40 43c0 41 48 77 87 77c18 0 33 -13 33 -31
c0 -40 -37 -89 -80 -89z" />
    <glyph glyph-name="j" unicode="j" horiz-adv-x="359" 
d="M366 134l-213 -126c-33 -47 -127 -230 -186 -230c-21 0 -28 22 -28 40c0 72 100 164 155 204l128 248c-74 -21 -142 -60 -217 -74c24 58 25 82 35 98s49 30 86 43c34 12 116 47 152 46c24 -1 44 -11 44 -37c0 -17 -15 -46 -23 -61l-104 -201l2 -2l163 96zM291 411
c-24 0 -40 19 -40 43c0 41 48 77 87 77c18 0 33 -13 33 -31c0 -40 -37 -89 -80 -89z" />
    <glyph glyph-name="k" unicode="k" horiz-adv-x="485" 
d="M477 627c0 -69 -357 -400 -417 -466l-2 -27c54 49 266 232 334 232c34 0 52 -43 52 -72c0 -93 -135 -144 -202 -184c19 -26 30 -42 65 -44c19 -1 58 13 182 112l10 -41c-50 -44 -170 -159 -237 -159c-66 0 -112 76 -143 124c-22 -20 -38 -43 -53 -68
c-8 -15 -17 -30 -36 -30c-35 0 -44 97 -44 121c0 64 40 116 74 169c108 170 348 362 392 359c14 -1 25 -12 25 -26zM214 139l94 65c15 11 48 32 48 53c0 6 -8 8 -13 8c-37 0 -142 -70 -167 -104c14 -5 27 -12 38 -22z" />
    <glyph glyph-name="l" unicode="l" horiz-adv-x="300" 
d="M109 284l2 -2c71 66 133 162 151 219c-49 -24 -106 -114 -153 -217zM304 178l14 -30c-55 -57 -149 -158 -235 -158c-73 0 -89 71 -89 130c0 105 45 218 110 298c88 109 183 202 215 202c17 0 21 -24 20 -37c-7 -95 -33 -183 -250 -393c-9 -17 -12 -45 -7 -69
c9 -23 23 -43 50 -43c55 0 132 64 172 100z" />
    <glyph glyph-name="m" unicode="m" horiz-adv-x="710" 
d="M497 206l-159 -146c-23 -22 -59 -63 -93 -63c-24 0 -43 18 -44 42c-1 29 23 75 88 174c2 2 6 10 6 13c0 4 -3 7 -7 7c-10 0 -32 -24 -39 -31c-52 -55 -108 -115 -155 -173c-11 -13 -25 -28 -43 -28c-48 0 -62 78 -62 114c1 98 107 232 167 224c15 -2 45 -2 45 -23
c0 -20 -28 -50 -40 -64c-18 -21 -40 -39 -55 -61c-11 -15 -29 -31 -29 -52c0 -2 3 -9 7 -9c5 0 17 13 20 16c49 51 227 229 292 229c27 0 41 -20 41 -46c0 -44 -71 -125 -93 -164l2 -2l222 175c10 8 35 28 47 28c8 0 18 -24 21 -28c7 -11 18 -26 18 -40
c0 -17 -20 -39 -31 -51c-78 -86 -84 -102 -85 -125c-1 -12 12 -28 24 -25c21 5 32 5 155 89l6 -47c-47 -37 -191 -155 -247 -155c-30 0 -51 29 -51 58c0 50 49 121 74 162z" />
    <glyph glyph-name="n" unicode="n" horiz-adv-x="460" 
d="M408 148l60 50l8 -44c-53 -47 -156 -170 -229 -170c-38 0 -56 32 -56 66c0 60 54 126 86 172l-2 2c-58 -43 -109 -95 -154 -153c-15 -19 -52 -68 -79 -68c-44 0 -55 63 -56 97c-3 69 60 170 118 219c13 11 22 12 39 12c60 -2 55 -16 55 -22c0 -39 -126 -140 -126 -164
c0 -6 5 -11 11 -11c7 0 16 9 20 14c80 102 264 225 293 225c4 0 10 -5 16 -19c6 -15 12 -33 15 -54c0 -39 -123 -115 -123 -184c0 -9 8 -18 18 -18c24 0 68 35 86 50z" />
    <glyph glyph-name="o" unicode="o" horiz-adv-x="396" 
d="M398 192l10 -42c-45 -57 -89 -81 -162 -81c-42 -43 -91 -75 -154 -75c-52 0 -100 52 -104 143c-2 75 35 125 91 168c54 44 126 71 187 74c22 1 55 -9 55 -36c0 -15 -12 -21 -23 -27c30 -8 36 -29 36 -59c0 -44 -20 -79 -39 -118c44 -8 72 30 103 53zM214 270
c-34 -20 -81 -44 -111 -73c-22 -22 -41 -61 -41 -92c0 -29 19 -38 44 -38c33 0 54 19 77 40c-7 16 -12 29 -12 46c0 52 47 115 43 117z" />
    <glyph glyph-name="p" unicode="p" horiz-adv-x="488" 
d="M219 103l71 84c11 14 25 31 25 49c0 7 -3 14 -11 14c-16 0 -64 -31 -77 -40c-37 -27 -65 -61 -92 -97c29 2 57 -1 84 -10zM67 17l-94 -184c-8 -15 -26 -42 -45 -42c-23 0 -29 27 -29 45c-1 50 21 100 62 158c46 65 96 147 161 257l-2 2l-158 -151l-4 47l265 285
c24 26 42 55 80 55c14 0 46 -5 46 -24c0 -22 -52 -70 -68 -87c-34 -36 -65 -73 -85 -118l2 -2c43 31 144 97 198 97c27 0 42 -21 42 -47c0 -55 -50 -124 -162 -223c86 -6 106 10 213 102l7 -46c-74 -72 -164 -144 -272 -144c-27 0 -47 8 -71 20c-15 -3 -30 -6 -46 -6
c-14 0 -27 3 -40 6z" />
    <glyph glyph-name="q" unicode="q" horiz-adv-x="452" 
d="M230 12l-64 -89c-20 -28 -37 -60 -46 -94c55 23 149 104 149 160c0 7 -1 14 -2 21c-24 0 -17 0 -37 2zM447 182l12 -38l-117 -103c8 -70 -51 -142 -97 -190c-57 -59 -150 -120 -174 -120c-26 0 -41 45 -41 67c0 27 19 48 32 70c64 104 149 204 224 306l-2 2
c-43 -36 -167 -167 -223 -167c-28 0 -77 45 -77 108c0 62 30 99 75 140c70 64 197 121 299 121c13 0 25 1 35 -9c5 -5 11 -18 11 -25c0 -9 -10 -19 -16 -25c15 -5 24 -21 24 -36c0 -45 -97 -142 -121 -182c33 -13 67 11 156 81zM338 296l-1 1c-75 -20 -151 -49 -217 -94
c-45 -31 -59 -51 -63 -106c54 -3 160 56 281 199z" />
    <glyph glyph-name="r" unicode="r" horiz-adv-x="348" 
d="M174 240l-104 -23c-35 -55 -77 -81 -120 -124l-4 44c26 21 47 46 66 73c-21 2 -27 10 -27 31c0 72 102 144 126 144c10 0 18 -8 18 -17c0 -10 -3 -19 -7 -28c94 13 149 25 159 13c15 -19 22 -35 24 -53c0 -31 -19 -46 -42 -65c-29 -25 -78 -74 -78 -114
c0 -16 16 -28 31 -28c43 0 106 65 139 90l7 -37c-38 -43 -153 -154 -210 -154c-42 0 -68 39 -68 77c0 68 52 121 92 169z" />
    <glyph glyph-name="s" unicode="s" horiz-adv-x="359" 
d="M152 286l-144 -135c37 -2 59 -33 78 -59c60 37 76 54 79 112c-3 21 -7 48 -13 82zM288 126l60 46l10 -38c-61 -61 -170 -152 -250 -148c-67 3 -141 41 -159 114c-6 -6 -13 -13 -22 -13c-10 0 -17 10 -17 19c0 13 16 27 24 35l217 199c2 33 21 65 57 65c30 0 36 -9 39 -37
c4 -38 19 -72 19 -116c0 -82 -66 -143 -130 -182c64 -11 103 19 152 56z" />
    <glyph glyph-name="t" unicode="t" horiz-adv-x="292" 
d="M285 422l62 -5c-47 -95 -55 -132 -165 -125c-34 -44 -91 -126 -91 -186c0 -22 7 -35 30 -35c32 0 68 30 172 104l5 -44c-59 -54 -167 -161 -252 -161c-39 0 -63 27 -63 67c0 33 13 71 26 100l-2 2l-51 -41l-11 38c60 46 115 97 152 160c-61 0 -42 4 -95 -4l11 18
c54 88 62 104 169 108c30 41 52 88 110 88c13 0 32 -3 32 -19c0 -18 -29 -51 -39 -65z" />
    <glyph glyph-name="u" unicode="u" horiz-adv-x="478" 
d="M185 177l99 89c21 19 119 114 144 114c8 0 19 -3 23 -55c2 -24 -25 -47 -41 -61c-32 -29 -103 -108 -103 -153c0 -16 9 -22 25 -22c38 0 124 70 154 94l6 -43c-51 -49 -157 -164 -231 -164c-37 0 -59 31 -59 66c0 30 11 58 21 84l-2 2c-39 -34 -106 -124 -161 -124
c-49 0 -76 56 -76 99c0 97 75 197 139 239c14 9 27 11 44 11c14 0 65 9 61 -21c-2 -16 -29 -44 -40 -53c-31 -35 -37 -44 -76 -72c-31 -22 -55 -44 -55 -86c0 -5 1 -15 8 -15c18 0 73 29 120 71z" />
    <glyph glyph-name="v" unicode="v" horiz-adv-x="425" 
d="M267 290c19 25 63 83 98 83c20 0 30 -13 30 -33c0 -40 -58 -134 -83 -169c11 -10 18 -13 34 -13c26 0 63 25 85 40l7 -42c-35 -40 -72 -71 -128 -71c-21 0 -35 14 -52 26c-28 -32 -129 -120 -168 -120c-59 0 -99 75 -99 151c0 138 123 234 158 234c14 0 60 -2 60 -23
c0 -45 -94 -146 -130 -176c-5 -16 -15 -43 -15 -59s4 -39 24 -39c29 0 108 73 129 93c-4 46 23 84 50 118z" />
    <glyph glyph-name="w" unicode="w" horiz-adv-x="635" 
d="M187 161l142 146c8 10 43 55 57 55c10 0 48 -9 48 -21c0 -13 -16 -39 -23 -50c-22 -34 -90 -150 -90 -187c0 -11 7 -20 19 -20c28 0 76 56 97 74c-5 38 -6 56 46 123c16 21 56 70 85 70c24 0 32 -32 32 -50c0 -55 -35 -101 -68 -141c13 -8 20 -14 35 -14
c25 0 60 30 79 45l2 -44c-30 -31 -64 -60 -110 -60c-26 0 -38 7 -60 20c-43 -32 -121 -124 -176 -124c-15 0 -26 8 -36 19c-11 14 -24 22 -18 117c-37 -33 -104 -123 -153 -120c-56 3 -107 54 -105 134c2 74 33 117 83 167c85 86 103 90 124 89c45 -2 59 -16 59 -32
c0 -51 -129 -159 -170 -191c-3 -6 -8 -36 -8 -57c0 -8 2 -22 11 -22c16 0 84 60 98 74z" />
    <glyph glyph-name="x" unicode="x" horiz-adv-x="348" 
d="M262 255l-69 -69l-1 -42c-1 -25 6 -47 36 -47c39 0 98 58 127 82l6 -40c-50 -43 -141 -155 -209 -155c-58 0 -46 82 -46 120l-58 -56c-14 -13 -46 -43 -66 -43c-9 0 -16 5 -16 14c0 14 26 48 35 59c17 20 28 27 53 34l53 47l-1 120c-74 -38 -89 -48 -96 -47s-11 6 -11 13
c0 20 146 147 176 147c24 0 21 -36 20 -52l-3 -91l89 81c15 14 36 34 57 34c11 0 12 -11 13 -16c4 -21 -46 -102 -89 -93z" />
    <glyph glyph-name="y" unicode="y" horiz-adv-x="442" 
d="M465 165l-301 -331c-10 -11 -38 -50 -54 -50c-21 0 -30 49 -30 66c0 16 19 47 27 60l134 226l-2 2c-82 -69 -155 -123 -167 -122c-28 2 -76 44 -79 118c-4 120 167 247 195 248c15 0 43 -32 43 -46c0 -38 -113 -142 -146 -168c-12 -17 -18 -37 -19 -58
c53 6 101 49 143 88c103 95 167 164 186 167c17 3 27 -36 27 -50c0 -26 -27 -67 -41 -88l-148 -220l2 -2l222 197z" />
    <glyph glyph-name="z" unicode="z" horiz-adv-x="368" 
d="M381 166l-160 -139c-23 -160 -179 -262 -245 -269c-27 -3 -45 22 -45 48c-1 55 50 98 90 130l130 104c-10 42 -25 47 -64 58c-15 4 -39 6 -36 25c5 33 71 59 182 151l-2 2l-122 -21l-114 -124l-11 33l70 85c-15 3 -27 9 -27 27c0 37 77 107 109 107c19 0 25 -19 25 -35
c79 12 113 29 133 29c19 0 32 -68 32 -79c0 -16 -18 -31 -30 -39l-128 -93c27 -20 44 -46 52 -79l158 122zM150 -21l-115 -90c-28 -22 -50 -45 -54 -81c68 18 156 99 169 171z" />
    <glyph glyph-name="braceleft" unicode="{" horiz-adv-x="350" 
d="M254 163l-53 -184c-18 -64 -14 -92 20 -110l-1 -2c-82 -5 -128 -1 -146 19c-10 10 -17 24 -17 42c2 19 7 42 18 70l51 182c17 62 13 93 -21 107h1v2c46 15 63 43 81 107l44 161c28 102 48 163 226 146v-2c-44 -14 -66 -46 -83 -108l-47 -170c-24 -88 -47 -119 -95 -135
h-1v-2c25 -7 36 -21 38 -41c3 -21 -5 -48 -15 -82z" />
    <glyph glyph-name="bar" unicode="|" horiz-adv-x="405" 
d="M228 752h79v-1002h-79v1002z" />
    <glyph glyph-name="braceright" unicode="}" horiz-adv-x="350" 
d="M171 410l53 184c18 64 14 92 -20 110l1 2c82 5 128 1 146 -19c10 -10 17 -24 17 -42c-2 -19 -7 -42 -18 -70l-51 -182c-17 -62 -13 -93 21 -107h-1v-2c-46 -15 -63 -43 -81 -107l-44 -161c-28 -102 -48 -163 -226 -146v2c44 14 66 46 83 108l47 170c24 88 47 119 95 135
h1v2c-25 7 -36 21 -38 41c-3 21 5 48 15 82z" />
    <glyph glyph-name="asciitilde" unicode="~" horiz-adv-x="599" 
d="M521 316l36 -35c-31 -54 -74 -93 -131 -93c-41 0 -68 15 -115 40c-28 16 -56 32 -89 32c-44 0 -72 -34 -98 -70l-37 34c30 55 83 93 141 93c47 0 80 -23 108 -37c35 -20 57 -34 90 -34c40 0 66 24 95 70z" />
    <glyph glyph-name="exclamdown" unicode="&#xa1;" horiz-adv-x="392" 
d="M291 432c26 0 54 -22 54 -48c0 -35 -22 -122 -58 -122c-35 0 -62 30 -62 64c0 35 20 106 66 106zM257 104l-141 -322c-9 -20 -18 -51 -44 -51c-11 0 -32 7 -42 9c-10 3 -39 7 -39 23c0 17 21 56 29 72l179 349c-3 6 -5 11 -5 17c0 18 13 44 33 44c23 0 60 -30 60 -54
c0 -23 -21 -66 -30 -87z" />
    <glyph glyph-name="cent" unicode="&#xa2;" 
d="M259 282l53 124c-76 -16 -112 -50 -118 -89c-5 -35 39 -36 65 -35zM449 429l-56 -4l-55 -127c33 8 79 13 109 29c6 3 20 11 27 11c14 0 14 -41 14 -49c0 -88 -126 -104 -191 -121c-8 -37 -10 -57 -10 -116c-41 10 -73 8 -73 57c0 20 6 41 11 60c-75 6 -119 29 -119 110
c0 65 37 129 84 173c48 45 117 60 180 76c53 100 57 122 121 122c10 0 19 0 19 -12c0 -19 -20 -41 -32 -54c-17 -17 -20 -21 -29 -44c19 0 45 2 60 -11c16 -13 24 -44 24 -64c0 -30 -13 -34 -38 -45c-10 -5 -34 -20 -46 -20c-5 0 -10 3 -10 9c0 8 5 15 10 20z" />
    <glyph glyph-name="sterling" unicode="&#xa3;" horiz-adv-x="600" 
d="M-40 153l141 21l73 90c-40 9 -82 4 -121 -3c29 47 40 61 99 57l62 -4l46 61l210 265c80 101 143 126 171 123c34 -4 59 -37 59 -66c0 -77 -89 -194 -125 -263c10 -3 19 -4 19 -16c0 -27 -81 -80 -101 -95c-11 -8 -31 -25 -46 -25c-20 0 -24 22 -24 38c0 56 62 157 98 200
c63 77 44 76 40 76c-8 0 -18 -11 -24 -16c-88 -95 -163 -196 -245 -294c24 -3 84 -16 84 -47c0 -14 -11 -21 -24 -21c-12 0 -29 6 -41 8l-60 12l-67 -77c142 -9 275 -64 414 -91c-43 -40 -83 -116 -149 -116c-19 0 -41 4 -60 8c-124 29 -250 60 -379 57
c-26 -12 -78 -42 -106 -42c-14 0 -31 7 -31 23c0 34 66 108 87 137z" />
    <glyph glyph-name="fraction" unicode="&#x2044;" horiz-adv-x="172" 
d="M-105 -10h-64l539 659h65z" />
    <glyph glyph-name="yen" unicode="&#xa5;" horiz-adv-x="810" 
d="M691 337l54 5c37 3 132 11 144 -19c10 -35 -82 -31 -95 -32l-146 -12c-10 -13 -17 -28 -28 -44l49 5c37 4 132 11 144 -19c10 -35 -82 -31 -95 -32l-130 -12l-1 -1l-78 -138c-5 -36 -53 -75 -99 -74c-28 0 -48 19 -48 35c0 28 34 90 84 159c-42 -7 -85 -17 -124 -30
c26 54 39 67 128 84l36 7c11 15 20 28 30 41c-41 -6 -83 -18 -119 -29c27 54 39 70 129 85l35 6c70 89 138 142 171 168l-4 1l-317 -175c-36 -20 -113 -64 -164 -68c-41 -4 -96 11 -90 34c4 15 -12 33 206 195c100 74 156 112 155 129c0 4 -11 7 -17 5
c-187 -64 -310 -109 -399 -147c-7 -3 -29 -9 -38 -10c-12 -1 -18 -1 -22 3c-3 5 -2 14 6 26l15 37c10 25 33 36 73 52c102 41 348 130 467 140c43 4 88 -3 90 -27c2 -30 -96 -102 -122 -123c-158 -128 -227 -168 -227 -189c0 -8 26 -14 65 7c170 91 47 16 421 233
c14 8 48 30 68 32c31 3 59 -20 61 -34c2 -18 -48 -48 -202 -202c-26 -26 -48 -47 -66 -72z" />
    <glyph glyph-name="florin" unicode="&#x192;" horiz-adv-x="650" 
d="M310 312l162 301c22 40 40 66 58 88c22 26 60 62 91 62c20 0 69 -34 69 -90c0 -102 -21 -131 -49 -239c11 -3 21 -4 24 -16c8 -27 -60 -80 -77 -95c-8 -8 -24 -25 -39 -25c-20 0 -30 22 -34 38c-15 56 23 156 46 200c6 11 32 56 28 71c-1 3 -3 5 -6 5
c-8 0 -16 -10 -20 -16l-32 -48l-138 -246c25 -3 88 -16 96 -47c4 -14 -5 -21 -18 -21c-12 0 -31 6 -43 8l-64 12l-66 -117l-65 -117c-24 -44 -132 -193 -185 -193c-29 0 -73 35 -68 109c3 47 7 35 53 194c-8 1 -19 3 -22 14c-5 18 30 48 41 58c14 12 54 52 73 52
c18 0 27 -15 31 -30c20 -75 -37 -184 -72 -238c-4 -9 -4 -19 3 -19c13 0 55 48 95 118l103 181l-49 2l-71 -7c16 47 24 61 83 56z" />
    <glyph glyph-name="section" unicode="&#xa7;" horiz-adv-x="550" 
d="M577 639l-35 -66c-24 15 -68 29 -121 29c-66 0 -121 -26 -131 -68c-10 -41 27 -59 118 -88c98 -33 150 -73 130 -155c-12 -47 -48 -85 -101 -117c22 -19 29 -56 21 -86c-28 -111 -155 -150 -247 -150c-67 0 -124 12 -162 41l39 65c22 -16 74 -38 135 -38
c56 0 124 22 137 75c12 45 -24 65 -112 92c-105 32 -165 69 -143 155c10 40 47 88 110 113c-19 20 -28 53 -20 85c24 97 126 145 239 145c61 0 109 -13 143 -32zM194 343v-1c-10 -41 17 -63 94 -88c51 -16 86 -31 105 -43c26 14 49 39 56 66c11 43 -16 68 -80 89
c-37 12 -80 27 -110 41c-30 -14 -57 -33 -65 -64z" />
    <glyph glyph-name="currency" unicode="&#xa4;" horiz-adv-x="694" 
d="M613 126l-42 -41l-63 75c-33 -28 -74 -38 -108 -38s-76 8 -108 36l-62 -73l-42 41l66 68c-23 28 -45 72 -45 131c0 48 17 99 45 130l-66 66l43 41l61 -72c31 28 74 39 108 39c40 0 79 -10 110 -39l62 72l41 -41l-66 -66c29 -31 46 -82 46 -130c0 -46 -20 -99 -48 -130z
M401 469h-2c-67 0 -122 -59 -122 -144c0 -86 54 -143 124 -143c69 0 124 58 124 143s-55 144 -124 144z" />
    <glyph glyph-name="quotesingle" unicode="'" horiz-adv-x="222" 
d="M111 712c25 0 43 -15 43 -59c0 -26 -12 -151 -19 -226c-2 -22 -14 -31 -24 -31s-22 9 -24 31c-7 75 -19 200 -19 226c0 44 18 59 43 59z" />
    <glyph glyph-name="quotedblleft" unicode="&#x201c;" horiz-adv-x="470" 
d="M468 586c0 -41 -49 -97 -92 -97c-16 0 -51 0 -51 23c0 27 30 91 47 111c60 74 81 66 103 66c-16 -21 -33 -43 -45 -68c18 -6 38 -12 38 -35zM299 586c0 -41 -49 -97 -92 -97c-16 0 -51 0 -51 23c0 27 30 91 47 111c60 74 81 66 103 66c-16 -21 -33 -43 -45 -68
c18 -6 38 -12 38 -35z" />
    <glyph glyph-name="guillemotleft" unicode="&#xab;" horiz-adv-x="382" 
d="M172 113c-38 0 -143 91 -134 134c0 23 14 41 28 59c27 45 57 82 80 134c10 -23 32 -55 32 -82c0 -14 -14 -29 -22 -39c-11 -12 -45 -61 -45 -76c0 -7 14 -31 56 -43c23 -6 42 -21 42 -48c0 -23 -14 -39 -37 -39zM341 113c-38 0 -143 91 -134 134c0 23 14 41 28 59
c27 45 57 82 80 134c10 -23 32 -55 32 -82c0 -14 -14 -29 -22 -39c-11 -12 -45 -61 -45 -76c0 -7 14 -31 56 -43c23 -6 42 -21 42 -48c0 -23 -14 -39 -37 -39z" />
    <glyph glyph-name="guilsinglleft" unicode="&#x2039;" horiz-adv-x="213" 
d="M172 113c-38 0 -143 91 -134 134c0 23 14 41 28 59c27 45 57 82 80 134c10 -23 32 -55 32 -82c0 -14 -14 -29 -22 -39c-11 -12 -45 -61 -45 -76c0 -7 14 -31 56 -43c23 -6 42 -21 42 -48c0 -23 -14 -39 -37 -39z" />
    <glyph glyph-name="guilsinglright" unicode="&#x203a;" horiz-adv-x="213" 
d="M107 440c38 0 143 -91 134 -134c0 -23 -14 -41 -28 -59c-27 -45 -57 -82 -80 -134c-10 23 -32 55 -32 82c0 14 14 29 22 39c11 12 45 61 45 76c0 7 -14 31 -56 43c-23 6 -42 21 -42 48c0 23 14 39 37 39z" />
    <glyph glyph-name="endash" unicode="&#x2013;" horiz-adv-x="500" 
d="M0 232v88h500v-88h-500z" />
    <glyph glyph-name="dagger" unicode="&#x2020;" horiz-adv-x="524" 
d="M346 662h96l-61 -205l186 8l-22 -88l-182 8l-99 -433h-95l117 433l-185 -8l22 88l181 -8z" />
    <glyph glyph-name="daggerdbl" unicode="&#x2021;" horiz-adv-x="524" 
d="M347 662h92l-55 -191l187 8l-22 -86l-182 8l-47 -187l187 8l-22 -86l-182 8l-41 -192h-92l54 192l-183 -8l21 86l180 -8l47 187l-184 -8l21 86l180 -8z" />
    <glyph glyph-name="periodcentered" unicode="&#xb7;" horiz-adv-x="301" 
d="M187 148c-27 3 -63 8 -63 42c0 36 44 119 101 107c14 -3 49 -3 49 -32c0 -1 -25 -124 -87 -117z" />
    <glyph glyph-name="paragraph" unicode="&#xb6;" horiz-adv-x="657" 
d="M441 -48h-67v304h-12c-92 0 -193 56 -192 190c0 126 76 218 287 218c57 0 99 -4 124 -9v-703h-68v648h-72v-648z" />
    <glyph glyph-name="bullet" unicode="&#x2022;" horiz-adv-x="400" 
d="M432 422c0 -82 -74 -245 -190 -245c-67 0 -189 34 -189 118c0 48 62 254 225 235c71 0 154 -26 154 -108z" />
    <glyph glyph-name="quotesinglbase" unicode="&#x201a;" horiz-adv-x="301" 
d="M56 43c0 41 49 97 92 97c16 0 51 0 51 -23c0 -27 -30 -91 -47 -111c-60 -74 -81 -66 -103 -66c16 21 33 43 45 68c-18 6 -38 12 -38 35z" />
    <glyph glyph-name="quotedblbase" unicode="&#x201e;" horiz-adv-x="470" 
d="M56 43c0 41 49 97 92 97c16 0 51 0 51 -23c0 -27 -30 -91 -47 -111c-60 -74 -81 -66 -103 -66c16 21 33 43 45 68c-18 6 -38 12 -38 35zM225 43c0 41 49 97 92 97c16 0 51 0 51 -23c0 -27 -30 -91 -47 -111c-60 -74 -81 -66 -103 -66c16 21 33 43 45 68
c-18 6 -38 12 -38 35z" />
    <glyph glyph-name="quotedblright" unicode="&#x201d;" horiz-adv-x="470" 
d="M130 588c0 41 49 97 92 97c16 0 51 0 51 -23c0 -27 -30 -91 -47 -111c-60 -74 -81 -66 -103 -66c16 21 33 43 45 68c-18 6 -38 12 -38 35zM299 588c0 41 49 97 92 97c16 0 51 0 51 -23c0 -27 -30 -91 -47 -111c-60 -74 -81 -66 -103 -66c16 21 33 43 45 68
c-18 6 -38 12 -38 35z" />
    <glyph glyph-name="guillemotright" unicode="&#xbb;" horiz-adv-x="382" 
d="M271 440c38 0 143 -91 134 -134c0 -23 -14 -41 -28 -59c-27 -45 -57 -82 -80 -134c-10 23 -32 55 -32 82c0 14 14 29 22 39c11 12 45 61 45 76c0 7 -14 31 -56 43c-23 6 -42 21 -42 48c0 23 14 39 37 39zM102 440c38 0 143 -91 134 -134c0 -23 -14 -41 -28 -59
c-27 -45 -57 -82 -80 -134c-10 23 -32 55 -32 82c0 14 14 29 22 39c11 12 45 61 45 76c0 7 -14 31 -56 43c-23 6 -42 21 -42 48c0 23 14 39 37 39z" />
    <glyph glyph-name="ellipsis" unicode="&#x2026;" horiz-adv-x="1000" 
d="M155 -5c-27 3 -63 8 -63 42c0 36 44 119 101 107c14 -3 49 -3 49 -32c0 -1 -25 -124 -87 -117zM488 -5c-27 3 -63 8 -63 42c0 36 44 119 101 107c14 -3 49 -3 49 -32c0 -1 -25 -124 -87 -117zM821 -5c-27 3 -63 8 -63 42c0 36 44 119 101 107c14 -3 49 -3 49 -32
c0 -1 -25 -124 -87 -117z" />
    <glyph glyph-name="perthousand" unicode="&#x2030;" horiz-adv-x="1208" 
d="M324 649h1c87 0 143 -68 112 -190c-32 -130 -128 -204 -216 -204c-84 0 -146 70 -116 193c31 123 125 201 219 201zM307 591h-1c-56 0 -102 -61 -121 -139c-21 -85 0 -139 53 -139c51 0 97 50 119 140c21 81 10 138 -50 138zM1083 386h1c86 0 143 -68 112 -190
c-32 -130 -128 -203 -216 -203c-84 0 -146 69 -115 192c31 124 124 201 218 201zM1065 328h-1c-55 0 -100 -61 -120 -139c-21 -85 0 -138 52 -138s98 50 121 140c20 80 9 137 -52 137zM703 386h1c86 0 143 -68 112 -190c-32 -130 -128 -203 -216 -203
c-84 0 -146 69 -115 192c30 123 124 201 218 201zM685 328c-56 0 -101 -61 -121 -139c-21 -84 0 -138 52 -138s98 50 121 140c20 80 9 137 -52 137zM212 -10h-60l545 658h61z" />
    <glyph glyph-name="questiondown" unicode="&#xbf;" horiz-adv-x="467" 
d="M266 -131l-10 4c-11 4 -30 10 -30 24c0 12 11 18 21 18c5 0 13 -2 18 -3l39 -6c20 -1 48 3 48 -26c0 -20 -16 -64 -26 -81c-28 -47 -160 -68 -211 -68c-75 0 -122 24 -122 106c0 69 26 122 70 174l130 154c13 16 26 24 26 45c0 9 -6 18 -6 27c0 14 8 23 22 23
c33 0 57 -43 57 -72c0 -49 -38 -92 -72 -124l-115 -106c-23 -21 -62 -50 -62 -83c0 -42 39 -43 70 -43c58 0 100 17 153 37zM317 428c26 0 54 -22 54 -48c0 -35 -22 -122 -58 -122c-35 0 -62 30 -62 64c0 35 20 106 66 106z" />
    <glyph glyph-name="grave" unicode="`" horiz-adv-x="350" 
d="M99 517l59 -18c30 -9 96 -27 121 -43c12 -8 28 -26 28 -41c0 -8 -7 -9 -14 -9c-10 0 -23 4 -33 8c-26 10 -67 17 -95 21c-37 5 -49 6 -85 4c-41 -3 -38 0 -35 41c2 21 -2 43 23 43c11 0 21 -3 31 -6z" />
    <glyph glyph-name="acute" unicode="&#xb4;" horiz-adv-x="350" 
d="M262 500l59 18c10 3 20 6 31 6c25 0 21 -22 23 -43c3 -41 6 -44 -35 -41c-36 2 -48 1 -85 -4c-28 -4 -69 -11 -95 -21c-10 -4 -23 -8 -33 -8c-7 0 -14 1 -14 9c0 15 16 33 28 41c25 16 91 34 121 43z" />
    <glyph glyph-name="circumflex" unicode="&#x2c6;" horiz-adv-x="400" 
d="M206 451l-88 -37c-7 -3 -27 -13 -34 -13c-8 0 -9 9 -9 14c0 18 15 39 63 58l81 32c23 9 58 23 82 23c22 0 43 -26 57 -41c8 -8 34 -29 34 -43s-11 -21 -21 -28c-8 -5 -15 -9 -20 -15c-28 15 -65 67 -95 67c-11 0 -40 -13 -50 -17z" />
    <glyph glyph-name="tilde" unicode="&#x2dc;" horiz-adv-x="340" 
d="M151 498l130 -13l2 2c-33 23 -35 32 -35 35c0 7 7 14 13 14c19 0 76 -46 76 -84c0 -28 -16 -42 -43 -42c-41 0 -83 15 -124 14c21 -19 24 -19 24 -28c0 -5 -5 -10 -10 -10c-9 0 -20 9 -27 14c-19 13 -44 24 -44 51c0 29 7 47 38 47z" />
    <glyph glyph-name="macron" unicode="&#xaf;" horiz-adv-x="340" 
d="M112 488c96 -10 192 -3 298 -3v-2c-9 0 -18 -84 -40 -83c-79 4 -189 8 -302 0c4 29 7 92 44 88z" />
    <glyph glyph-name="breve" unicode="&#x2d8;" horiz-adv-x="340" 
d="M236 414c-80 0 -135 68 -135 82s11 21 21 28c8 5 13 9 20 15c54 -29 58 -75 128 -75c43 4 76 31 107 60c5 5 25 15 32 15c8 0 9 -9 9 -14c0 -42 -95 -111 -182 -111z" />
    <glyph glyph-name="dotaccent" unicode="&#x2d9;" horiz-adv-x="340" 
d="M262 420c-27 3 -63 8 -63 42c0 36 44 119 101 107c14 -3 49 -3 49 -32c0 -1 -25 -124 -87 -117z" />
    <glyph glyph-name="dieresis" unicode="&#xa8;" horiz-adv-x="448" 
d="M198 446c-23 0 -65 11 -63 39c1 17 23 84 74 76c22 -3 54 -7 51 -35c-3 -27 -24 -80 -62 -80zM388 446c-23 0 -65 11 -63 39c1 17 23 84 74 76c22 -3 54 -7 51 -35c-3 -27 -24 -80 -62 -80z" />
    <glyph glyph-name="ring" unicode="&#x2da;" horiz-adv-x="294" 
d="M331 566l36 -20c8 -8 10 -20 10 -31c0 -52 -25 -111 -86 -111c-38 0 -75 32 -75 72c0 52 66 104 85 104c11 0 21 -9 30 -14zM312 530c-30 -22 -46 -44 -46 -83c0 -3 5 -7 5 -10c24 21 44 36 44 68c0 8 -1 17 -3 25z" />
    <glyph glyph-name="cedilla" unicode="&#xb8;" horiz-adv-x="340" 
d="M152 0l-28 -55c39 3 94 -8 94 -56c0 -53 -56 -71 -103 -68c-23 1 -114 17 -114 47c0 5 4 11 9 11c15 0 39 -22 69 -22c21 0 51 11 51 36c0 29 -34 33 -57 33l38 74h41z" />
    <glyph glyph-name="hungarumlaut" unicode="&#x2dd;" horiz-adv-x="347" 
d="M83 619l27 54c16 33 20 38 31 38c12 0 21 -12 29 -18c34 -24 38 -23 9 -53c-24 -26 -31 -36 -52 -67c-15 -25 -35 -60 -44 -87c-4 -10 -9 -23 -15 -30c-5 -6 -10 -10 -16 -5c-12 10 -16 33 -14 48c3 29 31 92 45 120zM257 619l27 54c16 33 20 38 31 38
c12 0 21 -12 29 -18c34 -24 38 -23 9 -53c-24 -26 -31 -36 -52 -67c-15 -25 -35 -60 -44 -87c-4 -10 -9 -23 -15 -30c-5 -6 -10 -10 -16 -5c-12 10 -16 33 -14 48c3 29 31 92 45 120z" />
    <glyph glyph-name="ogonek" unicode="&#x2db;" horiz-adv-x="340" 
d="M336 -7l-17 -6c-22 -8 -52 -20 -52 -49c0 -28 23 -36 47 -36c33 0 65 17 74 17c5 0 7 -4 7 -8c0 -11 -19 -18 -27 -21c-29 -13 -59 -20 -90 -20c-37 0 -82 16 -82 60c0 43 51 55 85 65h55v-2z" />
    <glyph glyph-name="caron" unicode="&#x2c7;" horiz-adv-x="341" 
d="M276 491l88 37c7 3 27 13 34 13c8 0 9 -9 9 -14c0 -18 -15 -39 -63 -58l-81 -32c-23 -9 -58 -23 -82 -23c-22 0 -43 26 -57 41c-8 8 -34 29 -34 43s11 21 21 28c8 5 15 9 20 15c28 -15 65 -67 95 -67c11 0 40 13 50 17z" />
    <glyph glyph-name="emdash" unicode="&#x2014;" horiz-adv-x="1000" 
d="M0 320h1000v-88h-1000v88z" />
    <glyph glyph-name="AE" unicode="&#xc6;" horiz-adv-x="1281" 
d="M1325 683l2 -42c3 -57 1 -61 -55 -79c-65 -22 -123 -65 -140 -65c-6 0 -11 4 -11 10c0 16 65 67 67 71v-2h2v2c-237 2 -374 -95 -368 -130c3 -17 -3 -45 318 -39c10 0 67 2 67 -21c0 -18 -23 -54 -37 -65c-15 -13 -75 -23 -95 -26c-256 -42 -362 -155 -362 -191
c0 -18 30 -30 84 -32c55 -3 135 4 236 35c72 22 135 69 201 106c5 -72 0 -112 -58 -160c-95 -80 -248 -117 -369 -114c-47 1 -93 10 -137 22c-43 12 -70 73 -67 101c-37 -28 -93 -73 -142 -73c-36 0 -51 28 -51 60c0 8 -15 7 73 169l-218 -7l-205 -204
c-24 -24 -62 -66 -98 -66c-15 0 -35 3 -35 22c0 33 77 129 171 162l78 86c-64 -2 -97 -6 -97 20c0 19 73 103 126 120c39 13 93 21 93 7c0 -18 -73 -9 -73 -27c0 -7 9 -9 14 -9c16 1 57 3 61 3l224 186c98 81 218 172 263 172c18 0 45 -19 28 -65l2 -2c111 73 232 93 367 93
c32 0 126 5 141 -28zM403 339l2 -2l152 11l135 227l-2 2zM712 434l-46 -81c39 3 41 5 57 -8c-28 -34 -50 -71 -68 -111l-52 -3l-34 -65c-33 -64 -30 -74 -12 -74c17 0 42 18 54 29l8 7c53 120 221 184 365 212v2l-158 22c-50 12 -88 26 -114 70z" />
    <glyph glyph-name="ordfeminine" unicode="&#xaa;" horiz-adv-x="384" 
d="M272 544l-58 -44c-13 -10 -54 -44 -69 -44c-18 0 -56 43 -57 74c-3 75 166 152 242 154c29 1 42 -22 42 -29s-17 -13 -23 -15c12 -5 19 -11 19 -24c0 -20 -57 -62 -57 -90c0 -10 10 -14 20 -14c28 0 65 30 88 44l4 -23c-22 -25 -109 -89 -141 -89c-21 0 -31 14 -31 32
c0 19 15 51 24 67l-1 -1zM309 623l-2 2c-153 -44 -169 -80 -169 -110c0 -3 0 -9 10 -9s36 2 161 117zM88 404h335v-33h-335v33z" />
    <glyph glyph-name="Lslash" unicode="&#x141;" horiz-adv-x="700" 
d="M76 29l-22 -10c-24 -8 -52 -24 -79 -24c-14 0 -31 3 -31 21c0 23 47 79 62 99c9 12 16 24 31 28c42 10 87 11 129 19l53 61l-2 2c-27 -6 -54 -18 -80 -30c16 53 23 70 81 81l53 10l186 222c36 43 183 192 236 192c34 0 50 -36 50 -65c0 -64 -82 -181 -114 -238
c8 -1 18 -3 18 -14c0 -18 -42 -48 -56 -58c-17 -12 -68 -52 -87 -52c-18 0 -23 15 -23 30c0 75 86 184 134 238c8 9 9 19 2 19c-13 0 -57 -40 -167 -167l-83 -96c26 3 77 3 84 -24c4 -14 -6 -23 -18 -27c-12 -3 -30 -1 -42 -3l-61 -4l-16 -2l-64 -73
c166 -32 252 -49 402 -85l-53 -53c-64 -64 -60 -66 -256 -25c-88 19 -177 31 -267 28z" />
    <glyph glyph-name="Oslash" unicode="&#xd8;" horiz-adv-x="639" 
d="M20 11l51 59c-21 37 -33 82 -36 129c-13 216 322 461 515 488c47 7 97 -64 97 -80c0 -21 -34 -30 -49 -35c-16 -6 -30 -14 -44 -22l1 -1c40 11 70 6 90 -9c26 15 99 79 131 79c20 0 39 -25 52 -39l-157 -92c6 -16 4 -30 4 -46c-1 -102 -80 -232 -154 -304
c-76 -73 -184 -136 -288 -142c-46 -2 -78 8 -106 24c-24 -23 -53 -46 -65 -73c-9 -19 -14 -41 -39 -41c-24 0 -44 20 -44 44c0 25 23 45 41 61zM136 128l437 366c-10 11 -18 8 -24 10c-88 -1 -210 -83 -257 -154c-6 -8 -19 -27 -31 -27c-13 0 -12 19 -15 28
c-55 -56 -112 -136 -110 -223zM579 424l-407 -354c10 -3 23 -1 37 -1c38 0 150 55 190 99c62 54 102 106 146 168c14 28 26 58 36 86z" />
    <glyph glyph-name="OE" unicode="&#x152;" horiz-adv-x="1160" 
d="M1216 683l2 -42c3 -57 1 -61 -55 -79c-65 -22 -123 -65 -140 -65c-6 0 -11 4 -11 10c0 16 65 67 67 71v-2h2v2c-237 2 -374 -95 -368 -130c3 -17 -3 -45 318 -38c10 0 67 1 67 -22c0 -18 -23 -54 -37 -65c-15 -13 -75 -23 -95 -26c-256 -42 -362 -155 -362 -191
c0 -18 30 -30 84 -32c55 -3 135 4 236 35c72 22 135 69 201 106c5 -72 0 -112 -58 -160c-95 -80 -248 -117 -369 -114c-47 1 -93 10 -137 22c-43 12 -71 73 -70 113c0 19 10 40 18 58l-2 2c-80 -74 -186 -126 -282 -124c-79 2 -169 49 -178 204c-12 216 321 461 514 488
c47 7 97 -64 97 -80c0 -21 -34 -30 -49 -35c-16 -6 -31 -15 -45 -21l2 -2l38 4c16 0 26 -3 41 -8c60 74 134 100 190 118c73 24 164 30 240 31c32 1 126 5 141 -28zM304 367c-6 -8 -19 -27 -31 -27c-13 0 -13 19 -14 28c-56 -56 -111 -136 -111 -218c0 -35 15 -65 53 -65
c56 0 143 42 185 78c134 114 211 236 214 309c1 24 -14 48 -40 48c-88 0 -209 -82 -256 -153zM589 224l-3 -2l2 -2c91 74 185 94 286 124v2l-74 6c-45 4 -90 9 -131 28c-10 -58 -49 -112 -80 -156z" />
    <glyph glyph-name="ordmasculine" unicode="&#xba;" horiz-adv-x="335" 
d="M368 572l6 -25c-29 -35 -58 -49 -105 -49c-27 -26 -59 -48 -100 -48c-34 0 -65 34 -67 89c-1 45 22 74 58 101c35 26 82 42 122 44c14 1 36 -5 36 -22c0 -9 -8 -12 -15 -16c19 -5 23 -17 23 -35c0 -27 -13 -48 -25 -71c28 -5 47 18 67 32zM248 618l-2 1
c-20 -12 -51 -27 -70 -44c-14 -13 -24 -37 -24 -55s10 -20 26 -20c21 0 35 8 50 21c-5 9 -8 17 -8 28c0 25 24 61 28 69zM88 404h286v-33h-286v33z" />
    <glyph glyph-name="ae" unicode="&#xe6;" horiz-adv-x="628" 
d="M117 103l41 28c61 42 113 92 160 147l-2 2c-62 -17 -125 -37 -182 -72c-44 -27 -83 -53 -83 -109c0 -12 7 -18 21 -18s34 14 45 22zM371 194c88 30 146 99 145 116c0 7 -3 13 -10 11c-50 -13 -108 -61 -135 -127zM65 2c-26 0 -87 65 -87 114c0 82 80 147 145 183
c52 29 166 80 225 80c30 0 44 -12 61 -35c40 22 79 35 125 35c32 0 70 -8 70 -48c0 -49 -47 -123 -239 -186l-2 -22c0 -38 30 -51 62 -51c71 0 155 73 208 115l9 -38c-61 -71 -171 -165 -270 -165c-29 0 -77 24 -92 48c-22 35 -19 73 -18 112c-31 -21 -168 -142 -197 -142z
" />
    <glyph glyph-name="dotlessi" unicode="&#x131;" horiz-adv-x="278" 
d="M273 168l9 -38c-45 -55 -133 -145 -209 -145c-59 0 -86 68 -86 119c0 122 125 241 185 241c17 0 44 -6 44 -28c0 -50 -99 -139 -141 -168c-8 -41 7 -63 53 -63c53 0 105 53 145 82z" />
    <glyph glyph-name="lslash" unicode="&#x142;" horiz-adv-x="300" 
d="M46 343l16 10c13 23 26 46 42 65c90 107 183 202 215 202c17 0 21 -24 20 -37c-3 -36 -8 -70 -26 -111c18 4 35 4 43 -6c9 -11 0 -25 -16 -35c-14 -9 -38 -17 -54 -25l-12 -6c-36 -55 -93 -121 -185 -210c-9 -17 -12 -45 -7 -69c9 -23 23 -43 50 -43c55 0 132 64 172 100
l14 -30c-55 -57 -149 -158 -235 -158c-73 0 -89 71 -89 130c0 50 11 101 29 147l-2 2c-20 -16 -40 -32 -58 -47c5 59 12 76 83 121zM110 284l2 -2c71 66 133 162 151 219c-49 -24 -106 -114 -153 -217z" />
    <glyph glyph-name="oslash" unicode="&#xf8;" horiz-adv-x="396" 
d="M278 378l30 36c14 22 22 34 56 18l36 -4l-99 -113c27 -8 33 -29 33 -58c0 -44 -20 -79 -39 -118c44 -8 72 30 103 53l10 -42c-45 -57 -89 -81 -162 -81c-42 -43 -90 -74 -152 -75l-28 -58c-2 -20 -8 -32 -26 -36c-38 14 -39 47 -8 104l6 11c-28 23 -47 65 -50 122
c-2 75 35 125 91 168c54 44 126 71 187 74c4 0 8 0 12 -1zM214 270c-34 -20 -81 -44 -111 -73c-22 -22 -41 -61 -41 -92c0 -29 19 -38 44 -38c33 0 54 19 77 40c-7 16 -12 29 -12 46c0 52 47 115 43 117z" />
    <glyph glyph-name="oe" unicode="&#x153;" horiz-adv-x="566" 
d="M309 194c88 30 146 99 145 116c0 7 -3 13 -10 11c-50 -13 -108 -61 -135 -127zM571 187l9 -38c-61 -71 -171 -165 -270 -165c-52 0 -77 24 -99 66c-23 -28 -17 -25 -41 -40c-25 -15 -53 -29 -82 -29c-76 0 -99 115 -99 172c0 66 35 114 87 151c48 34 125 65 184 65
c35 0 49 -12 61 -43c43 32 97 53 151 53c32 0 70 -8 70 -48c0 -49 -47 -123 -241 -186l-2 -22c0 -38 32 -51 64 -51c71 0 155 73 208 115zM235 273c-74 -26 -173 -68 -173 -161c0 -19 12 -67 36 -67c16 0 52 19 65 27c10 5 16 10 35 42c0 48 15 93 43 131c1 10 -1 19 -6 28z
" />
    <glyph glyph-name="germandbls" unicode="&#xdf;" horiz-adv-x="556" 
d="M291 312l-85 -5l-125 -308c-11 -26 -30 -87 -66 -87c-27 0 -37 24 -37 48c0 61 109 280 139 345c-17 2 -32 9 -32 28c0 29 49 36 69 39c36 59 72 121 125 168c50 45 132 98 201 98c54 0 92 -30 92 -87c0 -98 -199 -152 -270 -187l2 -2c39 2 95 2 133 -10
c51 -17 82 -57 82 -111c0 -136 -184 -255 -308 -255c-42 0 -70 9 -70 56c0 27 10 53 34 67c10 6 48 15 60 15c5 0 10 -5 10 -10c0 -6 -3 -12 -7 -14l2 -2c72 13 166 45 166 135c0 63 -64 82 -115 79zM247 390l146 56c34 13 78 35 78 78c0 25 -20 41 -44 41
c-38 0 -86 -42 -110 -69c-29 -31 -50 -68 -70 -106z" />
    <glyph glyph-name="onesuperior" unicode="&#xb9;" horiz-adv-x="355" 
d="M326 621l-61 -21c-3 -1 -15 -6 -18 -6c-7 0 -5 10 -5 14c2 17 15 23 30 30c23 11 95 52 113 52c10 0 15 -7 19 -13c4 -7 11 -21 11 -28c0 -20 -37 -75 -49 -94l-53 -82c-23 -35 -76 -120 -76 -160c0 -7 2 -14 2 -21c0 -5 -3 -8 -9 -8c-3 0 -11 3 -14 5
c-24 13 -52 17 -52 48c0 30 29 95 45 124l82 114l37 44z" />
    <glyph glyph-name="logicalnot" unicode="&#xac;" horiz-adv-x="615" 
d="M567 105h-62v216h-394v60h456v-276z" />
    <glyph glyph-name="mu" unicode="&#xb5;" horiz-adv-x="478" 
d="M233 177l99 89c21 19 119 114 144 114c8 0 19 -3 23 -55c2 -24 -25 -47 -41 -61c-32 -29 -103 -108 -103 -153c0 -16 9 -22 25 -22c38 0 124 70 154 94l6 -43c-51 -49 -157 -164 -231 -164c-37 0 -59 31 -59 66c0 30 11 58 21 84l-2 2c-39 -34 -106 -124 -161 -124
c-24 0 -43 14 -66 43c-74 -149 -149 -219 -198 -193c-43 23 -38 57 32 108c39 28 100 106 172 244c20 38 59 94 123 136c14 9 27 11 44 11c14 0 65 9 61 -21c-2 -16 -29 -44 -40 -53c-31 -35 -37 -44 -76 -72c-26 -18 -55 -52 -55 -86c0 -5 1 -14 8 -16c18 1 73 30 120 72z
" />
    <glyph glyph-name="trademark" unicode="&#x2122;" horiz-adv-x="732" 
d="M345 684v-73h-94v-251h-88v251h-92v73h274zM514 684l56 -160h2l55 160h131v-324h-88v229h-2l-77 -229h-41l-78 229h-2v-229h-88v324h132z" />
    <glyph glyph-name="Eth" unicode="&#xd0;" horiz-adv-x="804" 
d="M303 291l-78 -103c-15 -20 -24 -31 -24 -55c0 -18 18 -31 60 -31c69 0 160 18 230 43c210 75 283 180 283 268c0 129 -205 132 -295 137c-8 -32 -13 -48 -33 -74l-98 -128c27 1 42 2 54 2c58 0 79 -9 80 -31c0 -16 -12 -25 -34 -25c-49 0 -102 0 -145 -3zM264 348
l159 198c-73 -7 -147 -21 -215 -47v-2h27c5 0 54 0 54 -11c0 -12 -22 -17 -31 -18c-49 -8 -119 -39 -166 -39c-23 0 -38 12 -38 35c0 17 10 52 14 69c12 53 46 75 95 97c94 42 236 70 340 70c75 0 175 -12 239 -53c73 -47 105 -137 105 -221c0 -144 -119 -258 -237 -325
c-108 -61 -288 -112 -413 -112c-23 0 -66 0 -86 11c-19 10 -23 34 -23 53c0 74 51 141 96 195l29 35l-2 2c-35 0 -97 -17 -104 -17c-4 0 -6 3 -6 9c0 9 12 52 38 57c41 7 85 12 125 14z" />
    <glyph glyph-name="onehalf" unicode="&#xbd;" horiz-adv-x="834" 
d="M159 -10h-65l541 658h64zM242 261h-82l79 315h-2l-79 -30l-3 55l110 43h72zM444 0l12 47l87 60c110 75 158 114 169 156c6 26 -2 61 -62 61c-36 0 -79 -16 -103 -30l-10 53c36 20 92 41 150 41c90 0 128 -50 112 -113c-19 -74 -90 -120 -188 -185l-42 -26l-1 -2h185
l-16 -62h-293z" />
    <glyph glyph-name="plusminus" unicode="&#xb1;" horiz-adv-x="658" 
d="M608 302h-196v-200h-62v200h-197v60h197v190h62v-190h196v-60zM609 -3h-455v58h455v-58z" />
    <glyph glyph-name="Thorn" unicode="&#xde;" horiz-adv-x="612" 
d="M220 292l138 176c-184 -10 -292 -55 -309 -55c-9 0 -12 5 -12 14c0 16 71 119 80 127c22 18 221 40 264 40c44 0 61 -1 76 -2l49 69c23 32 43 45 65 45c9 0 18 -8 18 -17c0 -13 -4 -24 -22 -48l-43 -57c97 -13 220 -86 220 -194s-172 -265 -471 -265c-41 0 -71 4 -87 6
l-43 -72c10 0 18 -6 18 -17c0 -23 -50 -90 -87 -90c-17 0 -28 16 -28 36c0 23 20 66 35 92l38 65c-37 7 -59 31 -59 52c0 49 75 95 160 95zM438 466l-176 -226c16 -5 40 -8 84 -8c168 0 318 110 318 150c0 64 -109 77 -226 84z" />
    <glyph glyph-name="onequarter" unicode="&#xbc;" horiz-adv-x="793" 
d="M646 0h-77l23 93h-202l11 44l260 249h81l-60 -239h64l-13 -54h-64zM606 147l26 106c5 21 11 41 18 59l-3 1c-16 -18 -32 -35 -45 -48l-129 -117l1 -1h132zM159 -10h-65l541 658h64zM242 261h-82l79 315h-2l-79 -30l-3 55l110 43h72z" />
    <glyph glyph-name="divide" unicode="&#xf7;" horiz-adv-x="639" 
d="M365 377h-1c-23 0 -46 22 -46 50c0 27 23 50 47 50c26 0 48 -23 48 -50c0 -28 -22 -50 -48 -50zM591 230h-456v60h456v-60zM365 143h1c22 0 45 -22 45 -50c0 -27 -23 -52 -46 -52c-28 0 -49 25 -49 52c0 28 21 50 49 50z" />
    <glyph glyph-name="brokenbar" unicode="&#xa6;" horiz-adv-x="405" 
d="M228 677h78v-351h-78v351zM228 175h78v-349h-78v349z" />
    <glyph glyph-name="degree" unicode="&#xb0;" horiz-adv-x="481" 
d="M301 654h1c80 0 135 -63 135 -142c0 -88 -62 -140 -136 -140c-72 0 -135 52 -135 140c0 86 63 142 135 142zM301 612h-1c-47 0 -81 -39 -81 -99c0 -57 34 -100 84 -100s81 40 81 98c0 56 -27 101 -83 101z" />
    <glyph glyph-name="thorn" unicode="&#xfe;" horiz-adv-x="488" 
d="M219 103l71 84c11 14 25 31 25 49c0 7 -3 14 -11 14c-16 0 -64 -31 -77 -40c-37 -27 -65 -61 -92 -97c29 2 57 -1 84 -10zM-38 102l-4 47l198 213c74 79 166 187 213 241c23 27 42 31 58 31c12 0 48 -9 48 -27c0 -6 -5 -10 -49 -61l-144 -165c-42 -49 -72 -90 -86 -121
l2 -2c43 31 144 97 198 97c27 0 42 -21 42 -47c0 -55 -50 -124 -162 -223c11 0 20 -1 29 -1c61 0 95 25 184 103l7 -46c-74 -72 -164 -144 -272 -144c-27 0 -47 8 -71 20c-15 -3 -30 -6 -46 -6c-14 0 -27 3 -40 6l-94 -184c-8 -15 -26 -42 -45 -42c-23 0 -29 27 -29 45
c-1 50 21 100 62 158c46 65 96 147 161 257l-2 2z" />
    <glyph glyph-name="threequarters" unicode="&#xbe;" horiz-adv-x="869" 
d="M722 0h-76l24 93h-203l11 44l259 249h81l-59 -239h63l-13 -54h-64zM683 147l27 106c5 21 11 41 17 59l-2 1c-17 -18 -33 -35 -46 -49l-129 -116l1 -1h132zM236 -10h-65l541 658h64zM180 566l-5 53c30 15 82 30 138 30c94 0 129 -42 116 -94c-10 -42 -53 -74 -106 -89
l-1 -2c58 -8 90 -46 78 -93c-15 -63 -91 -115 -203 -115c-55 0 -104 12 -126 26l32 56c15 -10 55 -24 97 -24c62 0 107 26 116 61c9 39 -33 63 -104 63h-32l12 51h33c58 0 111 23 119 55c5 23 -9 48 -66 48c-37 0 -79 -16 -98 -26z" />
    <glyph glyph-name="twosuperior" unicode="&#xb2;" horiz-adv-x="375" 
d="M257 544l-70 -12c-5 -1 -18 -3 -22 -3c-12 0 -15 15 -15 23c0 22 20 63 36 80c38 39 143 62 199 62c48 0 69 -14 69 -99c0 -38 -14 -51 -44 -75c-45 -35 -215 -110 -270 -154l2 -2l251 41c-28 -73 -24 -104 -231 -110c-13 0 -41 -2 -51 7c-17 15 -27 44 -27 66
c0 54 186 142 235 167c27 14 96 46 96 79c0 12 -20 7 -29 7c-54 0 -127 -27 -176 -48v-2l39 -3c8 -2 24 -2 24 -13c0 -8 -9 -10 -16 -11z" />
    <glyph glyph-name="registered" unicode="&#xae;" horiz-adv-x="870" 
d="M435 726c207 0 373 -166 373 -373c0 -206 -166 -373 -373 -373s-373 167 -373 373c0 207 166 373 373 373zM435 74c150 0 279 130 279 279c0 150 -129 279 -279 279s-279 -129 -279 -279c0 -149 129 -279 279 -279zM512 335l81 -155h-101l-75 155h-48v-155h-88v367h179
c32 0 73 1 100 -16c34 -21 44 -57 44 -96c0 -68 -35 -95 -92 -100zM369 399h88c34 0 59 7 59 45c0 39 -45 39 -74 39h-73v-84z" />
    <glyph glyph-name="minus" unicode="&#x2212;" horiz-adv-x="592" 
d="M544 230h-456v60h456v-60z" />
    <glyph glyph-name="eth" unicode="&#xf0;" horiz-adv-x="501" 
d="M398 192l10 -42c-45 -57 -89 -81 -162 -81c-42 -43 -91 -75 -154 -75c-52 0 -103 52 -103 143c0 75 34 125 90 169c54 44 137 73 187 73c21 0 27 -7 33 -18h2c8 27 12 55 12 87c0 22 -2 38 -4 50l-81 -29c-13 -5 -22 -8 -27 -8c-8 0 -21 27 -21 34c0 5 3 10 13 14l101 37
c-28 52 -68 73 -68 80c0 9 17 32 31 32c16 0 78 -43 105 -87l73 26c21 8 30 11 37 11c9 0 18 -31 18 -37c0 -8 -13 -12 -21 -15l-87 -31c8 -27 17 -59 17 -115c0 -90 -45 -190 -104 -271c6 -1 11 -1 16 -1c34 0 63 31 87 54zM62 105c0 -29 19 -38 44 -38c31 0 52 19 75 40
c39 43 79 133 96 183c-107 -12 -215 -91 -215 -185z" />
    <glyph glyph-name="multiply" unicode="&#xd7;" horiz-adv-x="641" 
d="M590 58l-45 -43l-182 193l-181 -192l-43 42l184 193l-183 193l44 42l182 -191l181 192l43 -41l-185 -194z" />
    <glyph glyph-name="threesuperior" unicode="&#xb3;" horiz-adv-x="407" 
d="M243 609l13 -2c4 0 24 -3 24 -10c0 -5 -8 -7 -11 -7c-15 -3 -46 -4 -61 -4c-21 0 -33 12 -33 32c0 30 37 44 62 53c40 14 86 16 128 16c58 0 133 -4 133 -73c0 -22 -19 -49 -40 -61c-22 -12 -11 -11 -176 -45v-2c52 -7 135 -14 135 -79c0 -50 -81 -131 -238 -131
c-81 0 -117 29 -117 50c0 15 40 58 56 58c5 0 10 -3 10 -7s1 -4 -15 -18c22 -8 40 -10 63 -10c99 0 191 46 191 68c0 33 -95 36 -119 36c-22 0 -36 -1 -57 -6c-6 0 -14 -2 -19 -2c-9 0 -10 5 -10 13c0 14 10 34 20 45c12 13 34 21 51 23c36 4 215 25 215 65
c0 26 -47 26 -66 26c-48 0 -95 -11 -139 -26v-2z" />
    <glyph glyph-name="copyright" unicode="&#xa9;" horiz-adv-x="870" 
d="M435 726c207 0 373 -166 373 -373c0 -206 -166 -373 -373 -373s-373 167 -373 373c0 207 166 373 373 373zM435 632c-150 0 -279 -129 -279 -279s129 -279 279 -279s279 129 279 279s-129 279 -279 279zM617 422h-98c0 16 -5 18 -18 36c-13 12 -34 25 -64 25
c-68 0 -95 -52 -95 -125s27 -125 95 -125c44 0 82 28 82 61h98c-9 -55 -29 -90 -58 -112c-30 -23 -70 -34 -121 -37c-114 -8 -197 79 -197 213s83 220 197 213c100 -7 161 -44 179 -149z" />
    <glyph glyph-name="Aacute" unicode="&#xc1;" horiz-adv-x="779" 
d="M557 348l136 228l-2 2l-289 -239l2 -2zM604 230l-63 -123c0 -10 8 -16 18 -16c18 0 29 11 88 55l18 -26c-48 -48 -133 -129 -204 -129c-36 0 -51 28 -51 60c0 8 -15 7 73 169l-218 -7l-205 -204c-24 -24 -62 -66 -98 -66c-15 0 -35 3 -35 22c0 33 77 129 171 162l78 86
c-64 -2 -97 -6 -97 20c0 19 73 103 126 120c39 13 93 21 93 7c0 -18 -73 -9 -73 -27c0 -7 9 -9 14 -9c16 1 57 3 61 3l224 186c98 81 218 172 263 172c21 0 35 -25 35 -43c0 -21 -21 -55 -31 -73l-124 -217c74 0 29 10 92 -4c-29 -34 -53 -74 -75 -114zM777 802l59 18
c10 3 20 6 31 6c25 0 21 -22 23 -43c3 -41 6 -44 -35 -41c-36 2 -48 1 -85 -4c-28 -4 -69 -11 -95 -21c-10 -4 -23 -8 -33 -8c-7 0 -14 1 -14 9c0 15 16 33 28 41c25 16 91 34 121 43z" />
    <glyph glyph-name="Acircumflex" unicode="&#xc2;" horiz-adv-x="779" 
d="M557 348l136 228l-2 2l-289 -239l2 -2zM604 230l-63 -123c0 -10 8 -16 18 -16c18 0 29 11 88 55l18 -26c-48 -48 -133 -129 -204 -129c-36 0 -51 28 -51 60c0 8 -15 7 73 169l-218 -7l-205 -204c-24 -24 -62 -66 -98 -66c-15 0 -35 3 -35 22c0 33 77 129 171 162l78 86
c-64 -2 -97 -6 -97 20c0 19 73 103 126 120c39 13 93 21 93 7c0 -18 -73 -9 -73 -27c0 -7 9 -9 14 -9c16 1 57 3 61 3l224 186c98 81 218 172 263 172c21 0 35 -25 35 -43c0 -21 -21 -55 -31 -73l-124 -217c74 0 29 10 92 -4c-29 -34 -53 -74 -75 -114zM746 753l-88 -37
c-7 -3 -27 -13 -34 -13c-8 0 -9 9 -9 14c0 18 15 39 63 58l81 32c23 9 58 23 82 23c22 0 43 -26 57 -41c8 -8 34 -29 34 -43s-11 -21 -21 -28c-8 -5 -15 -9 -20 -15c-28 15 -65 67 -95 67c-11 0 -40 -13 -50 -17z" />
    <glyph glyph-name="Adieresis" unicode="&#xc4;" horiz-adv-x="779" 
d="M557 348l136 228l-2 2l-289 -239l2 -2zM604 230l-63 -123c0 -10 8 -16 18 -16c18 0 29 11 88 55l18 -26c-48 -48 -133 -129 -204 -129c-36 0 -51 28 -51 60c0 8 -15 7 73 169l-218 -7l-205 -204c-24 -24 -62 -66 -98 -66c-15 0 -35 3 -35 22c0 33 77 129 171 162l78 86
c-64 -2 -97 -6 -97 20c0 19 73 103 126 120c39 13 93 21 93 7c0 -18 -73 -9 -73 -27c0 -7 9 -9 14 -9c16 1 57 3 61 3l224 186c98 81 218 172 263 172c21 0 35 -25 35 -43c0 -21 -21 -55 -31 -73l-124 -217c74 0 29 10 92 -4c-29 -34 -53 -74 -75 -114zM664 738
c-23 0 -65 11 -63 39c1 17 23 84 74 76c22 -3 54 -7 51 -35c-3 -27 -24 -80 -62 -80zM854 738c-23 0 -65 11 -63 39c1 17 23 84 74 76c22 -3 54 -7 51 -35c-3 -27 -24 -80 -62 -80z" />
    <glyph glyph-name="Agrave" unicode="&#xc0;" horiz-adv-x="779" 
d="M557 348l136 228l-2 2l-289 -239l2 -2zM604 230l-63 -123c0 -10 8 -16 18 -16c18 0 29 11 88 55l18 -26c-48 -48 -133 -129 -204 -129c-36 0 -51 28 -51 60c0 8 -15 7 73 169l-218 -7l-205 -204c-24 -24 -62 -66 -98 -66c-15 0 -35 3 -35 22c0 33 77 129 171 162l78 86
c-64 -2 -97 -6 -97 20c0 19 73 103 126 120c39 13 93 21 93 7c0 -18 -73 -9 -73 -27c0 -7 9 -9 14 -9c16 1 57 3 61 3l224 186c98 81 218 172 263 172c21 0 35 -25 35 -43c0 -21 -21 -55 -31 -73l-124 -217c74 0 29 10 92 -4c-29 -34 -53 -74 -75 -114zM614 839l59 -18
c30 -9 96 -27 121 -43c12 -8 28 -26 28 -41c0 -8 -7 -9 -14 -9c-10 0 -23 4 -33 8c-26 10 -67 17 -95 21c-37 5 -49 6 -85 4c-41 -3 -38 0 -35 41c2 21 -2 43 23 43c11 0 21 -3 31 -6z" />
    <glyph glyph-name="Aring" unicode="&#xc5;" horiz-adv-x="779" 
d="M557 348l136 228l-2 2l-289 -239l2 -2zM604 230l-63 -123c0 -10 8 -16 18 -16c18 0 29 11 88 55l18 -26c-48 -48 -133 -129 -204 -129c-36 0 -51 28 -51 60c0 8 -15 7 73 169l-218 -7l-205 -204c-24 -24 -62 -66 -98 -66c-15 0 -35 3 -35 22c0 33 77 129 171 162l78 86
c-64 -2 -97 -6 -97 20c0 19 73 103 126 120c39 13 93 21 93 7c0 -18 -73 -9 -73 -27c0 -7 9 -9 14 -9c16 1 57 3 61 3l224 186c98 81 218 172 263 172c21 0 35 -25 35 -43c0 -21 -21 -55 -31 -73l-124 -217c74 0 29 10 92 -4c-29 -34 -53 -74 -75 -114zM874 868l36 -20
c8 -8 10 -20 10 -31c0 -52 -25 -111 -86 -111c-38 0 -75 32 -75 72c0 52 66 104 85 104c11 0 21 -9 30 -14zM855 832c-30 -22 -46 -44 -46 -83c0 -3 5 -7 5 -10c24 21 44 36 44 68c0 8 -1 17 -3 25z" />
    <glyph glyph-name="Atilde" unicode="&#xc3;" horiz-adv-x="779" 
d="M557 348l136 228l-2 2l-289 -239l2 -2zM604 230l-63 -123c0 -10 8 -16 18 -16c18 0 29 11 88 55l18 -26c-48 -48 -133 -129 -204 -129c-36 0 -51 28 -51 60c0 8 -15 7 73 169l-218 -7l-205 -204c-24 -24 -62 -66 -98 -66c-15 0 -35 3 -35 22c0 33 77 129 171 162l78 86
c-64 -2 -97 -6 -97 20c0 19 73 103 126 120c39 13 93 21 93 7c0 -18 -73 -9 -73 -27c0 -7 9 -9 14 -9c16 1 57 3 61 3l224 186c98 81 218 172 263 172c21 0 35 -25 35 -43c0 -21 -21 -55 -31 -73l-124 -217c74 0 29 10 92 -4c-29 -34 -53 -74 -75 -114zM671 810l130 -13l2 2
c-33 23 -35 32 -35 35c0 7 7 14 13 14c19 0 76 -46 76 -84c0 -28 -16 -42 -43 -42c-41 0 -83 15 -124 14c21 -19 24 -19 24 -28c0 -5 -5 -10 -10 -10c-9 0 -20 9 -27 14c-19 13 -44 24 -44 51c0 29 7 47 38 47z" />
    <glyph glyph-name="Ccedilla" unicode="&#xc7;" horiz-adv-x="715" 
d="M348 317l74 65c7 7 40 39 51 39c10 0 15 -7 10 -23l2 -2c97 84 160 174 160 207c0 17 -11 24 -27 20c-18 -5 -132 -9 -356 -271c-70 -82 -121 -193 -121 -269c0 -71 34 -113 106 -113c126 0 346 164 441 248c3 -51 -13 -65 -51 -101c-148 -143 -281 -212 -377 -236
l-18 -36c39 3 94 -8 94 -56c0 -53 -56 -71 -103 -68c-23 1 -114 17 -114 47c0 5 4 11 9 11c15 0 39 -22 69 -22c21 0 51 11 51 36c0 29 -34 33 -57 33l23 46c-11 -2 -22 -3 -32 -3c-111 0 -191 69 -191 184c0 147 123 305 226 402c85 81 295 241 414 241
c60 0 99 -32 102 -95c7 -135 -251 -391 -377 -410c-29 -4 -56 16 -56 48c0 30 27 60 48 78z" />
    <glyph glyph-name="Eacute" unicode="&#xc9;" horiz-adv-x="702" 
d="M748 616c3 -57 1 -61 -55 -79c-65 -22 -123 -62 -140 -65c-4 -1 -11 4 -11 10c0 14 50 56 69 71c-237 2 -374 -95 -368 -130c3 -16 -3 -45 318 -38c10 0 67 1 67 -22c0 -18 -23 -54 -37 -65c-15 -13 -75 -23 -95 -26c-256 -42 -362 -155 -362 -191c0 -18 30 -30 84 -32
c55 -3 135 4 236 35c72 22 135 69 201 106c5 -72 0 -112 -58 -160c-34 -29 -164 -118 -369 -114c-47 1 -93 10 -137 22c-43 12 -70 73 -70 113c0 67 89 195 383 268v3c-227 7 -274 59 -274 115c0 98 145 251 475 251c32 0 126 3 141 -30zM528 802l59 18c10 3 20 6 31 6
c25 0 21 -22 23 -43c3 -41 6 -44 -35 -41c-36 2 -48 1 -85 -4c-28 -4 -69 -11 -95 -21c-10 -4 -23 -8 -33 -8c-7 0 -14 1 -14 9c0 15 16 33 28 41c25 16 91 34 121 43z" />
    <glyph glyph-name="Ecircumflex" unicode="&#xca;" horiz-adv-x="702" 
d="M748 616c3 -57 1 -61 -55 -79c-65 -22 -123 -62 -140 -65c-4 -1 -11 4 -11 10c0 14 50 56 69 71c-237 2 -374 -95 -368 -130c3 -16 -3 -45 318 -38c10 0 67 1 67 -22c0 -18 -23 -54 -37 -65c-15 -13 -75 -23 -95 -26c-256 -42 -362 -155 -362 -191c0 -18 30 -30 84 -32
c55 -3 135 4 236 35c72 22 135 69 201 106c5 -72 0 -112 -58 -160c-34 -29 -164 -118 -369 -114c-47 1 -93 10 -137 22c-43 12 -70 73 -70 113c0 67 89 195 383 268v3c-227 7 -274 59 -274 115c0 98 145 251 475 251c32 0 126 3 141 -30zM497 753l-88 -37
c-7 -3 -27 -13 -34 -13c-8 0 -9 9 -9 14c0 18 15 39 63 58l81 32c23 9 58 23 82 23c22 0 43 -26 57 -41c8 -8 34 -29 34 -43s-11 -21 -21 -28c-8 -5 -15 -9 -20 -15c-28 15 -65 67 -95 67c-11 0 -40 -13 -50 -17z" />
    <glyph glyph-name="Edieresis" unicode="&#xcb;" horiz-adv-x="702" 
d="M748 616c3 -57 1 -61 -55 -79c-65 -22 -123 -62 -140 -65c-4 -1 -11 4 -11 10c0 14 50 56 69 71c-237 2 -374 -95 -368 -130c3 -16 -3 -45 318 -38c10 0 67 1 67 -22c0 -18 -23 -54 -37 -65c-15 -13 -75 -23 -95 -26c-256 -42 -362 -155 -362 -191c0 -18 30 -30 84 -32
c55 -3 135 4 236 35c72 22 135 69 201 106c5 -72 0 -112 -58 -160c-34 -29 -164 -118 -369 -114c-47 1 -93 10 -137 22c-43 12 -70 73 -70 113c0 67 89 195 383 268v3c-227 7 -274 59 -274 115c0 98 145 251 475 251c32 0 126 3 141 -30zM465 738c-23 0 -65 11 -63 39
c1 17 23 84 74 76c22 -3 54 -7 51 -35c-3 -27 -24 -80 -62 -80zM655 738c-23 0 -65 11 -63 39c1 17 23 84 74 76c22 -3 54 -7 51 -35c-3 -27 -24 -80 -62 -80z" />
    <glyph glyph-name="Egrave" unicode="&#xc8;" horiz-adv-x="702" 
d="M748 616c3 -57 1 -61 -55 -79c-65 -22 -123 -62 -140 -65c-4 -1 -11 4 -11 10c0 14 50 56 69 71c-237 2 -374 -95 -368 -130c3 -16 -3 -45 318 -38c10 0 67 1 67 -22c0 -18 -23 -54 -37 -65c-15 -13 -75 -23 -95 -26c-256 -42 -362 -155 -362 -191c0 -18 30 -30 84 -32
c55 -3 135 4 236 35c72 22 135 69 201 106c5 -72 0 -112 -58 -160c-34 -29 -164 -118 -369 -114c-47 1 -93 10 -137 22c-43 12 -70 73 -70 113c0 67 89 195 383 268v3c-227 7 -274 59 -274 115c0 98 145 251 475 251c32 0 126 3 141 -30zM415 829l59 -18
c30 -9 96 -27 121 -43c12 -8 28 -26 28 -41c0 -8 -7 -9 -14 -9c-10 0 -23 4 -33 8c-26 10 -67 17 -95 21c-37 5 -49 6 -85 4c-41 -3 -38 0 -35 41c2 21 -2 43 23 43c11 0 21 -3 31 -6z" />
    <glyph glyph-name="Iacute" unicode="&#xcd;" horiz-adv-x="493" 
d="M184 372l25 5c11 2 27 6 38 6c5 0 9 -5 9 -10c0 -15 -20 -26 -30 -34c-15 -11 -65 -52 -84 -52s-93 46 -90 74c14 153 257 332 411 332c67 0 99 -50 99 -112c0 -129 -166 -387 -242 -497c17 -42 -41 -113 -72 -115c-23 -2 -57 22 -57 47c0 14 9 28 17 39
c174 249 266 433 266 484c0 16 -7 41 -27 41c-53 -7 -209 -106 -263 -208zM424 802l59 18c10 3 20 6 31 6c25 0 21 -22 23 -43c3 -41 6 -44 -35 -41c-36 2 -48 1 -85 -4c-28 -4 -69 -11 -95 -21c-10 -4 -23 -8 -33 -8c-7 0 -14 1 -14 9c0 15 16 33 28 41c25 16 91 34 121 43
z" />
    <glyph glyph-name="Icircumflex" unicode="&#xce;" horiz-adv-x="493" 
d="M184 372l25 5c11 2 27 6 38 6c5 0 9 -5 9 -10c0 -15 -20 -26 -30 -34c-15 -11 -65 -52 -84 -52s-93 46 -90 74c14 153 257 332 411 332c67 0 99 -50 99 -112c0 -129 -166 -387 -242 -497c17 -42 -41 -113 -72 -115c-23 -2 -57 22 -57 47c0 14 9 28 17 39
c174 249 266 433 266 484c0 16 -7 41 -27 41c-53 -7 -209 -106 -263 -208zM393 753l-88 -37c-7 -3 -27 -13 -34 -13c-8 0 -9 9 -9 14c0 18 15 39 63 58l81 32c23 9 58 23 82 23c22 0 43 -26 57 -41c8 -8 34 -29 34 -43s-11 -21 -21 -28c-8 -5 -15 -9 -20 -15
c-28 15 -65 67 -95 67c-11 0 -40 -13 -50 -17z" />
    <glyph glyph-name="Idieresis" unicode="&#xcf;" horiz-adv-x="493" 
d="M184 372l25 5c11 2 27 6 38 6c5 0 9 -5 9 -10c0 -15 -20 -26 -30 -34c-15 -11 -65 -52 -84 -52s-93 46 -90 74c14 153 257 332 411 332c67 0 99 -50 99 -112c0 -129 -166 -387 -242 -497c17 -42 -41 -113 -72 -115c-23 -2 -57 22 -57 47c0 14 9 28 17 39
c174 249 266 433 266 484c0 16 -7 41 -27 41c-53 -7 -209 -106 -263 -208zM343 738c-23 0 -65 11 -63 39c1 17 23 84 74 76c22 -3 54 -7 51 -35c-3 -27 -24 -80 -62 -80zM533 738c-23 0 -65 11 -63 39c1 17 23 84 74 76c22 -3 54 -7 51 -35c-3 -27 -24 -80 -62 -80z" />
    <glyph glyph-name="Igrave" unicode="&#xcc;" horiz-adv-x="493" 
d="M184 372l25 5c11 2 27 6 38 6c5 0 9 -5 9 -10c0 -15 -20 -26 -30 -34c-15 -11 -65 -52 -84 -52s-93 46 -90 74c14 153 257 332 411 332c67 0 99 -50 99 -112c0 -129 -166 -387 -242 -497c17 -42 -41 -113 -72 -115c-23 -2 -57 22 -57 47c0 14 9 28 17 39
c174 249 266 433 266 484c0 16 -7 41 -27 41c-53 -7 -209 -106 -263 -208zM293 839l59 -18c30 -9 96 -27 121 -43c12 -8 28 -26 28 -41c0 -8 -7 -9 -14 -9c-10 0 -23 4 -33 8c-26 10 -67 17 -95 21c-37 5 -49 6 -85 4c-41 -3 -38 0 -35 41c2 21 -2 43 23 43
c11 0 21 -3 31 -6z" />
    <glyph glyph-name="Ntilde" unicode="&#xd1;" horiz-adv-x="836" 
d="M550 191l170 313l-2 2c-84 -80 -167 -161 -238 -241c-29 -33 -135 -177 -188 -248c-7 -10 -19 -28 -32 -28c-22 0 -79 40 -79 63c0 6 7 17 10 22c41 63 233 398 233 453c0 13 -3 21 -16 21c-34 0 -144 -54 -312 -165c-8 -6 -21 -13 -30 -13c-19 0 -18 32 -18 44
c0 120 173 249 203 249c5 0 11 -3 11 -8c0 -1 -5 -17 -54 -64l2 -2c71 39 195 109 278 109c34 0 67 -19 64 -56c-6 -80 -45 -146 -174 -373l2 -2c192 231 277 314 302 331c30 20 105 77 128 77c17 0 82 -47 82 -95c0 -63 -128 -192 -224 -382c-29 -58 -31 -78 -31 -82
c0 -18 4 -41 26 -41c40 0 171 135 200 171c2 -24 4 -36 4 -45c0 -8 -3 -13 -11 -23c-144 -186 -249 -240 -292 -240c-50 0 -68 44 -68 87c0 55 28 118 54 166zM596 810l130 -13l2 2c-33 23 -35 32 -35 35c0 7 7 14 13 14c19 0 76 -46 76 -84c0 -28 -16 -42 -43 -42
c-41 0 -83 15 -124 14c21 -19 24 -19 24 -28c0 -5 -5 -10 -10 -10c-9 0 -20 9 -27 14c-19 13 -44 24 -44 51c0 29 7 47 38 47z" />
    <glyph glyph-name="Oacute" unicode="&#xd3;" horiz-adv-x="639" 
d="M553 550l1 -1c40 11 70 6 90 -9c20 -16 30 -43 31 -79c5 -199 -233 -468 -462 -466c-79 1 -169 49 -178 204c-12 216 321 461 514 488c47 7 97 -64 97 -80c0 -21 -34 -30 -49 -35c-16 -6 -30 -14 -44 -22zM292 350c-6 -8 -19 -27 -31 -27c-13 0 -13 19 -14 28
c-56 -56 -111 -136 -111 -218c0 -35 15 -65 53 -65c56 0 143 42 185 78c134 114 210 236 213 309c1 24 -13 49 -39 49c-88 0 -209 -83 -256 -154zM557 802l59 18c10 3 20 6 31 6c25 0 21 -22 23 -43c3 -41 6 -44 -35 -41c-36 2 -48 1 -85 -4c-28 -4 -69 -11 -95 -21
c-10 -4 -23 -8 -33 -8c-7 0 -14 1 -14 9c0 15 16 33 28 41c25 16 91 34 121 43z" />
    <glyph glyph-name="Ocircumflex" unicode="&#xd4;" horiz-adv-x="639" 
d="M553 550l1 -1c40 11 70 6 90 -9c20 -16 30 -43 31 -79c5 -199 -233 -468 -462 -466c-79 1 -169 49 -178 204c-12 216 321 461 514 488c47 7 97 -64 97 -80c0 -21 -34 -30 -49 -35c-16 -6 -30 -14 -44 -22zM292 350c-6 -8 -19 -27 -31 -27c-13 0 -13 19 -14 28
c-56 -56 -111 -136 -111 -218c0 -35 15 -65 53 -65c56 0 143 42 185 78c134 114 210 236 213 309c1 24 -13 49 -39 49c-88 0 -209 -83 -256 -154zM506 753l-88 -37c-7 -3 -27 -13 -34 -13c-8 0 -9 9 -9 14c0 18 15 39 63 58l81 32c23 9 58 23 82 23c22 0 43 -26 57 -41
c8 -8 34 -29 34 -43s-11 -21 -21 -28c-8 -5 -15 -9 -20 -15c-28 15 -65 67 -95 67c-11 0 -40 -13 -50 -17z" />
    <glyph glyph-name="Odieresis" unicode="&#xd6;" horiz-adv-x="639" 
d="M553 550l1 -1c40 11 70 6 90 -9c20 -16 30 -43 31 -79c5 -199 -233 -468 -462 -466c-79 1 -169 49 -178 204c-12 216 321 461 514 488c47 7 97 -64 97 -80c0 -21 -34 -30 -49 -35c-16 -6 -30 -14 -44 -22zM292 350c-6 -8 -19 -27 -31 -27c-13 0 -13 19 -14 28
c-56 -56 -111 -136 -111 -218c0 -35 15 -65 53 -65c56 0 143 42 185 78c134 114 210 236 213 309c1 24 -13 49 -39 49c-88 0 -209 -83 -256 -154zM459 738c-23 0 -65 11 -63 39c1 17 23 84 74 76c22 -3 54 -7 51 -35c-3 -27 -24 -80 -62 -80zM649 738c-23 0 -65 11 -63 39
c1 17 23 84 74 76c22 -3 54 -7 51 -35c-3 -27 -24 -80 -62 -80z" />
    <glyph glyph-name="Ograve" unicode="&#xd2;" horiz-adv-x="639" 
d="M553 550l1 -1c40 11 70 6 90 -9c20 -16 30 -43 31 -79c5 -199 -233 -468 -462 -466c-79 1 -169 49 -178 204c-12 216 321 461 514 488c47 7 97 -64 97 -80c0 -21 -34 -30 -49 -35c-16 -6 -30 -14 -44 -22zM292 350c-6 -8 -19 -27 -31 -27c-13 0 -13 19 -14 28
c-56 -56 -111 -136 -111 -218c0 -35 15 -65 53 -65c56 0 143 42 185 78c134 114 210 236 213 309c1 24 -13 49 -39 49c-88 0 -209 -83 -256 -154zM409 839l59 -18c30 -9 96 -27 121 -43c12 -8 28 -26 28 -41c0 -8 -7 -9 -14 -9c-10 0 -23 4 -33 8c-26 10 -67 17 -95 21
c-37 5 -49 6 -85 4c-41 -3 -38 0 -35 41c2 21 -2 43 23 43c11 0 21 -3 31 -6z" />
    <glyph glyph-name="Otilde" unicode="&#xd5;" horiz-adv-x="639" 
d="M553 550l1 -1c40 11 70 6 90 -9c20 -16 30 -43 31 -79c5 -199 -233 -468 -462 -466c-79 1 -169 49 -178 204c-12 216 321 461 514 488c47 7 97 -64 97 -80c0 -21 -34 -30 -49 -35c-16 -6 -30 -14 -44 -22zM292 350c-6 -8 -19 -27 -31 -27c-13 0 -13 19 -14 28
c-56 -56 -111 -136 -111 -218c0 -35 15 -65 53 -65c56 0 143 42 185 78c134 114 210 236 213 309c1 24 -13 49 -39 49c-88 0 -209 -83 -256 -154zM435 820l130 -13l2 2c-33 23 -35 32 -35 35c0 7 7 14 13 14c19 0 76 -46 76 -84c0 -28 -16 -42 -43 -42c-41 0 -83 15 -124 14
c21 -19 24 -19 24 -28c0 -5 -5 -10 -10 -10c-9 0 -20 9 -27 14c-19 13 -44 24 -44 51c0 29 7 47 38 47z" />
    <glyph glyph-name="Scaron" unicode="&#x160;" horiz-adv-x="712" 
d="M246 428c0 -14 -13 -21 266 -86c101 -24 148 -77 148 -126c0 -199 -349 -231 -493 -231c-39 0 -161 0 -161 58c0 21 35 74 51 89c12 10 71 29 86 29c5 0 8 -1 8 -7c0 -10 -10 -15 -17 -19c-6 -4 -11 -9 -17 -15v-2c357 -13 455 90 455 106c0 51 -277 91 -325 99
c-50 8 -102 24 -102 84c0 33 16 106 32 133c31 51 212 146 431 146c42 0 84 -5 126 -14c23 -5 26 -13 26 -33c0 -74 -25 -91 -84 -114c-43 -16 -51 -21 -90 -49c-7 -4 -17 -10 -25 -10c-10 0 -16 5 -16 15c0 2 19 33 73 70l-2 2c-258 -9 -369 -102 -370 -125zM536 783l88 37
c7 3 27 13 34 13c8 0 9 -9 9 -14c0 -18 -15 -39 -63 -58l-81 -32c-23 -9 -58 -23 -82 -23c-22 0 -43 26 -57 41c-8 8 -34 29 -34 43s11 21 21 28c8 5 15 9 20 15c28 -15 65 -67 95 -67c11 0 40 13 50 17z" />
    <glyph glyph-name="Uacute" unicode="&#xda;" horiz-adv-x="874" 
d="M583 207l82 139l-2 2c-259 -252 -391 -358 -424 -352c-63 11 -94 49 -94 103c0 64 85 160 126 208c132 155 187 204 186 219c0 6 -4 10 -10 10s-24 -9 -29 -11c-80 -34 -61 -24 -242 -113c-26 -13 -73 -32 -102 -32c-17 0 -29 3 -26 21c14 85 104 227 279 254
c59 9 158 41 215 41c59 0 70 -72 56 -118c-15 -48 -43 -74 -79 -121c-35 -37 -230 -263 -230 -297c0 -12 8 -18 20 -18c41 0 229 170 266 207c225 221 284 290 313 290s41 -42 41 -64c7 -21 -19 -50 -190 -290c-79 -111 -90 -162 -90 -177c0 -23 17 -40 38 -40
c52 0 160 96 201 129c3 -17 5 -24 5 -33c0 -29 -196 -184 -283 -184c-47 0 -79 32 -79 79c0 57 24 101 52 148zM724 802l59 18c10 3 20 6 31 6c25 0 21 -22 23 -43c3 -41 6 -44 -35 -41c-36 2 -48 1 -85 -4c-28 -4 -69 -11 -95 -21c-10 -4 -23 -8 -33 -8c-7 0 -14 1 -14 9
c0 15 16 33 28 41c25 16 91 34 121 43z" />
    <glyph glyph-name="Ucircumflex" unicode="&#xdb;" horiz-adv-x="874" 
d="M583 207l82 139l-2 2c-259 -252 -391 -358 -424 -352c-63 11 -94 49 -94 103c0 64 85 160 126 208c132 155 187 204 186 219c0 6 -4 10 -10 10s-24 -9 -29 -11c-80 -34 -61 -24 -242 -113c-26 -13 -73 -32 -102 -32c-17 0 -29 3 -26 21c14 85 104 227 279 254
c59 9 158 41 215 41c59 0 70 -72 56 -118c-15 -48 -43 -74 -79 -121c-35 -37 -230 -263 -230 -297c0 -12 8 -18 20 -18c41 0 229 170 266 207c225 221 284 290 313 290s41 -42 41 -64c7 -21 -19 -50 -190 -290c-79 -111 -90 -162 -90 -177c0 -23 17 -40 38 -40
c52 0 160 96 201 129c3 -17 5 -24 5 -33c0 -29 -196 -184 -283 -184c-47 0 -79 32 -79 79c0 57 24 101 52 148zM643 753l-88 -37c-7 -3 -27 -13 -34 -13c-8 0 -9 9 -9 14c0 18 15 39 63 58l81 32c23 9 58 23 82 23c22 0 43 -26 57 -41c8 -8 34 -29 34 -43s-11 -21 -21 -28
c-8 -5 -15 -9 -20 -15c-28 15 -65 67 -95 67c-11 0 -40 -13 -50 -17z" />
    <glyph glyph-name="Udieresis" unicode="&#xdc;" horiz-adv-x="874" 
d="M583 207l82 139l-2 2c-259 -252 -391 -358 -424 -352c-63 11 -94 49 -94 103c0 64 85 160 126 208c132 155 187 204 186 219c0 6 -4 10 -10 10s-24 -9 -29 -11c-80 -34 -61 -24 -242 -113c-26 -13 -73 -32 -102 -32c-17 0 -29 3 -26 21c14 85 104 227 279 254
c59 9 158 41 215 41c59 0 70 -72 56 -118c-15 -48 -43 -74 -79 -121c-35 -37 -230 -263 -230 -297c0 -12 8 -18 20 -18c41 0 229 170 266 207c225 221 284 290 313 290s41 -42 41 -64c7 -21 -19 -50 -190 -290c-79 -111 -90 -162 -90 -177c0 -23 17 -40 38 -40
c52 0 160 96 201 129c3 -17 5 -24 5 -33c0 -29 -196 -184 -283 -184c-47 0 -79 32 -79 79c0 57 24 101 52 148zM643 738c-23 0 -65 11 -63 39c1 17 23 84 74 76c22 -3 54 -7 51 -35c-3 -27 -24 -80 -62 -80zM833 738c-23 0 -65 11 -63 39c1 17 23 84 74 76
c22 -3 54 -7 51 -35c-3 -27 -24 -80 -62 -80z" />
    <glyph glyph-name="Ugrave" unicode="&#xd9;" horiz-adv-x="874" 
d="M583 207l82 139l-2 2c-259 -252 -391 -358 -424 -352c-63 11 -94 49 -94 103c0 64 85 160 126 208c132 155 187 204 186 219c0 6 -4 10 -10 10s-24 -9 -29 -11c-80 -34 -61 -24 -242 -113c-26 -13 -73 -32 -102 -32c-17 0 -29 3 -26 21c14 85 104 227 279 254
c59 9 158 41 215 41c59 0 70 -72 56 -118c-15 -48 -43 -74 -79 -121c-35 -37 -230 -263 -230 -297c0 -12 8 -18 20 -18c41 0 229 170 266 207c225 221 284 290 313 290s41 -42 41 -64c7 -21 -19 -50 -190 -290c-79 -111 -90 -162 -90 -177c0 -23 17 -40 38 -40
c52 0 160 96 201 129c3 -17 5 -24 5 -33c0 -29 -196 -184 -283 -184c-47 0 -79 32 -79 79c0 57 24 101 52 148zM562 839l59 -18c30 -9 96 -27 121 -43c12 -8 28 -26 28 -41c0 -8 -7 -9 -14 -9c-10 0 -23 4 -33 8c-26 10 -67 17 -95 21c-37 5 -49 6 -85 4
c-41 -3 -38 0 -35 41c2 21 -2 43 23 43c11 0 21 -3 31 -6z" />
    <glyph glyph-name="Yacute" unicode="&#xdd;" horiz-adv-x="742" 
d="M598 332l-265 -229c-30 -26 -95 -84 -136 -84c-33 0 -75 33 -69 67c4 22 -7 53 178 274c85 102 132 156 132 180c1 7 -7 10 -13 11c-153 -76 -237 -126 -328 -174c-7 -5 -24 -12 -32 -12c-9 0 -15 2 -17 9s0 20 6 40l15 54c11 38 29 52 62 73c83 51 287 152 382 152
c35 0 70 -15 70 -55c0 -45 -76 -136 -105 -173c-158 -202 -193 -233 -195 -263c-1 -13 20 -26 53 2c142 118 38 19 352 305c11 10 40 40 56 40c25 0 47 -39 47 -60c0 -28 -44 -70 -188 -275c-82 -117 -145 -203 -118 -205c14 -1 17 12 134 72c67 34 96 29 96 13
s-47 -54 -61 -62c-64 -48 -186 -148 -235 -206c-21 -24 -57 -67 -91 -67c-28 0 -44 22 -44 49c0 100 245 434 316 522zM678 802l59 18c10 3 20 6 31 6c25 0 21 -22 23 -43c3 -41 6 -44 -35 -41c-36 2 -48 1 -85 -4c-28 -4 -69 -11 -95 -21c-10 -4 -23 -8 -33 -8
c-7 0 -14 1 -14 9c0 15 16 33 28 41c25 16 91 34 121 43z" />
    <glyph glyph-name="Ydieresis" unicode="&#x178;" horiz-adv-x="742" 
d="M598 332l-265 -229c-30 -26 -95 -84 -136 -84c-33 0 -75 33 -69 67c4 22 -7 53 178 274c85 102 132 156 132 180c1 7 -7 10 -13 11c-153 -76 -237 -126 -328 -174c-7 -5 -24 -12 -32 -12c-9 0 -15 2 -17 9s0 20 6 40l15 54c11 38 29 52 62 73c83 51 287 152 382 152
c35 0 70 -15 70 -55c0 -45 -76 -136 -105 -173c-158 -202 -193 -233 -195 -263c-1 -13 20 -26 53 2c142 118 38 19 352 305c11 10 40 40 56 40c25 0 47 -39 47 -60c0 -28 -44 -70 -188 -275c-82 -117 -145 -203 -118 -205c14 -1 17 12 134 72c67 34 96 29 96 13
s-47 -54 -61 -62c-64 -48 -186 -148 -235 -206c-21 -24 -57 -67 -91 -67c-28 0 -44 22 -44 49c0 100 245 434 316 522zM565 738c-23 0 -65 11 -63 39c1 17 23 84 74 76c22 -3 54 -7 51 -35c-3 -27 -24 -80 -62 -80zM755 738c-23 0 -65 11 -63 39c1 17 23 84 74 76
c22 -3 54 -7 51 -35c-3 -27 -24 -80 -62 -80z" />
    <glyph glyph-name="Zcaron" unicode="&#x17d;" horiz-adv-x="644" 
d="M338 213l-104 -46c-93 -41 -81 -46 -101 -46c-9 0 -16 5 -16 14c0 4 9 37 26 81c7 19 9 29 26 42c55 42 235 119 259 132c125 69 158 87 158 121c0 17 -22 27 -36 27c-98 0 -215 -52 -490 -210c5 134 24 197 145 267c85 49 236 93 335 93c82 0 159 -25 159 -120
c0 -134 -154 -180 -249 -236c75 -14 117 -38 128 -117c80 27 73 7 73 2c0 -13 -3 -19 -73 -45c-19 -102 -88 -188 -164 -255c-59 -53 -217 -143 -276 -143c-23 0 -84 35 -84 62c0 59 139 214 433 345c0 31 -27 86 -149 32zM473 120c-176 -87 -308 -223 -308 -248
c0 -6 8 -10 12 -10c63 0 259 151 296 258zM510 783l88 37c7 3 27 13 34 13c8 0 9 -9 9 -14c0 -18 -15 -39 -63 -58l-81 -32c-23 -9 -58 -23 -82 -23c-22 0 -43 26 -57 41c-8 8 -34 29 -34 43s11 21 21 28c8 5 15 9 20 15c28 -15 65 -67 95 -67c11 0 40 13 50 17z" />
    <glyph glyph-name="aacute" unicode="&#xe1;" horiz-adv-x="487" 
d="M309 277c-238 -73 -267 -134 -267 -183c1 -5 5 -23 20 -20c20 4 51 1 249 201zM255 142l-92 -74c-19 -15 -83 -67 -106 -67c-28 0 -86 66 -88 118c-4 125 256 253 372 256c46 1 65 -36 65 -48s-26 -22 -35 -25c19 -8 29 -19 29 -41c0 -32 -87 -102 -87 -149
c0 -17 15 -24 31 -24c42 0 99 51 142 80l8 -37c-43 -49 -177 -156 -226 -156c-33 0 -48 24 -48 53c0 32 24 85 37 112zM331 500l59 18c10 3 20 6 31 6c25 0 21 -22 23 -43c3 -41 6 -44 -35 -41c-36 2 -48 1 -85 -4c-28 -4 -69 -11 -95 -21c-10 -4 -23 -8 -33 -8
c-7 0 -14 1 -14 9c0 15 16 33 28 41c25 16 91 34 121 43z" />
    <glyph glyph-name="acircumflex" unicode="&#xe2;" horiz-adv-x="487" 
d="M309 277c-238 -73 -267 -134 -267 -183c1 -5 5 -23 20 -20c20 4 51 1 249 201zM255 142l-92 -74c-19 -15 -83 -67 -106 -67c-28 0 -86 66 -88 118c-4 125 256 253 372 256c46 1 65 -36 65 -48s-26 -22 -35 -25c19 -8 29 -19 29 -41c0 -32 -87 -102 -87 -149
c0 -17 15 -24 31 -24c42 0 99 51 142 80l8 -37c-43 -49 -177 -156 -226 -156c-33 0 -48 24 -48 53c0 32 24 85 37 112zM250 451l-88 -37c-7 -3 -27 -13 -34 -13c-8 0 -9 9 -9 14c0 18 15 39 63 58l81 32c23 9 58 23 82 23c22 0 43 -26 57 -41c8 -8 34 -29 34 -43
s-11 -21 -21 -28c-8 -5 -15 -9 -20 -15c-28 15 -65 67 -95 67c-11 0 -40 -13 -50 -17z" />
    <glyph glyph-name="adieresis" unicode="&#xe4;" horiz-adv-x="487" 
d="M309 277c-238 -73 -267 -134 -267 -183c1 -5 5 -23 20 -20c20 4 51 1 249 201zM255 142l-92 -74c-19 -15 -83 -67 -106 -67c-28 0 -86 66 -88 118c-4 125 256 253 372 256c46 1 65 -36 65 -48s-26 -22 -35 -25c19 -8 29 -19 29 -41c0 -32 -87 -102 -87 -149
c0 -17 15 -24 31 -24c42 0 99 51 142 80l8 -37c-43 -49 -177 -156 -226 -156c-33 0 -48 24 -48 53c0 32 24 85 37 112zM218 446c-23 0 -65 11 -63 39c1 17 23 84 74 76c22 -3 54 -7 51 -35c-3 -27 -24 -80 -62 -80zM408 446c-23 0 -65 11 -63 39c1 17 23 84 74 76
c22 -3 54 -7 51 -35c-3 -27 -24 -80 -62 -80z" />
    <glyph glyph-name="agrave" unicode="&#xe0;" horiz-adv-x="487" 
d="M309 277c-238 -73 -267 -134 -267 -183c1 -5 5 -23 20 -20c20 4 51 1 249 201zM255 142l-92 -74c-19 -15 -83 -67 -106 -67c-28 0 -86 66 -88 118c-4 125 256 253 372 256c46 1 65 -36 65 -48s-26 -22 -35 -25c19 -8 29 -19 29 -41c0 -32 -87 -102 -87 -149
c0 -17 15 -24 31 -24c42 0 99 51 142 80l8 -37c-43 -49 -177 -156 -226 -156c-33 0 -48 24 -48 53c0 32 24 85 37 112zM168 517l59 -18c30 -9 96 -27 121 -43c12 -8 28 -26 28 -41c0 -8 -7 -9 -14 -9c-10 0 -23 4 -33 8c-26 10 -67 17 -95 21c-37 5 -49 6 -85 4
c-41 -3 -38 0 -35 41c2 21 -2 43 23 43c11 0 21 -3 31 -6z" />
    <glyph glyph-name="aring" unicode="&#xe5;" horiz-adv-x="487" 
d="M309 277c-238 -73 -267 -134 -267 -183c1 -5 5 -23 20 -20c20 4 51 1 249 201zM255 142l-92 -74c-19 -15 -83 -67 -106 -67c-28 0 -86 66 -88 118c-4 125 256 253 372 256c46 1 65 -36 65 -48s-26 -22 -35 -25c19 -8 29 -19 29 -41c0 -32 -87 -102 -87 -149
c0 -17 15 -24 31 -24c42 0 99 51 142 80l8 -37c-43 -49 -177 -156 -226 -156c-33 0 -48 24 -48 53c0 32 24 85 37 112zM428 566l36 -20c8 -8 10 -20 10 -31c0 -52 -25 -111 -86 -111c-38 0 -75 32 -75 72c0 52 66 104 85 104c11 0 21 -9 30 -14zM409 530
c-30 -22 -46 -44 -46 -83c0 -3 5 -7 5 -10c24 21 44 36 44 68c0 8 -1 17 -3 25z" />
    <glyph glyph-name="atilde" unicode="&#xe3;" horiz-adv-x="487" 
d="M309 277c-238 -73 -267 -134 -267 -183c1 -5 5 -23 20 -20c20 4 51 1 249 201zM255 142l-92 -74c-19 -15 -83 -67 -106 -67c-28 0 -86 66 -88 118c-4 125 256 253 372 256c46 1 65 -36 65 -48s-26 -22 -35 -25c19 -8 29 -19 29 -41c0 -32 -87 -102 -87 -149
c0 -17 15 -24 31 -24c42 0 99 51 142 80l8 -37c-43 -49 -177 -156 -226 -156c-33 0 -48 24 -48 53c0 32 24 85 37 112zM225 498l130 -13l2 2c-33 23 -35 32 -35 35c0 7 7 14 13 14c19 0 76 -46 76 -84c0 -28 -16 -42 -43 -42c-41 0 -83 15 -124 14c21 -19 24 -19 24 -28
c0 -5 -5 -10 -10 -10c-9 0 -20 9 -27 14c-19 13 -44 24 -44 51c0 29 7 47 38 47z" />
    <glyph glyph-name="ccedilla" unicode="&#xe7;" horiz-adv-x="359" 
d="M194 251l-84 -63c-22 -16 -40 -31 -40 -59c0 -23 24 -54 76 -54c76 0 163 70 221 115l12 -39c-50 -54 -136 -131 -219 -155l-26 -51c39 3 94 -8 94 -56c0 -53 -56 -71 -103 -68c-23 1 -114 17 -114 47c0 5 4 11 9 11c15 0 39 -22 69 -22c21 0 51 11 51 36
c0 29 -34 33 -57 33l32 62c-1 -1 -3 -1 -4 -1c-77 0 -114 72 -114 146c0 84 30 115 95 164c45 34 141 88 197 88c31 0 45 -16 45 -46c0 -55 -79 -132 -106 -132c-23 0 -33 25 -34 44z" />
    <glyph glyph-name="eacute" unicode="&#xe9;" horiz-adv-x="357" 
d="M362 187l9 -38c-61 -71 -171 -165 -270 -165c-73 0 -107 65 -109 131c-4 131 141 265 271 264c32 0 72 -8 72 -48c0 -49 -49 -123 -241 -186l-2 -22c-3 -38 30 -51 62 -51c71 0 155 73 208 115zM100 194c88 30 148 99 147 116c0 7 -5 13 -12 11
c-50 -13 -108 -61 -135 -127zM266 500l59 18c10 3 20 6 31 6c25 0 21 -22 23 -43c3 -41 6 -44 -35 -41c-36 2 -48 1 -85 -4c-28 -4 -69 -11 -95 -21c-10 -4 -23 -8 -33 -8c-7 0 -14 1 -14 9c0 15 16 33 28 41c25 16 91 34 121 43z" />
    <glyph glyph-name="ecircumflex" unicode="&#xea;" horiz-adv-x="357" 
d="M362 187l9 -38c-61 -71 -171 -165 -270 -165c-73 0 -107 65 -109 131c-4 131 141 265 271 264c32 0 72 -8 72 -48c0 -49 -49 -123 -241 -186l-2 -22c-3 -38 30 -51 62 -51c71 0 155 73 208 115zM100 194c88 30 148 99 147 116c0 7 -5 13 -12 11
c-50 -13 -108 -61 -135 -127zM185 451l-88 -37c-7 -3 -27 -13 -34 -13c-8 0 -9 9 -9 14c0 18 15 39 63 58l81 32c23 9 58 23 82 23c22 0 43 -26 57 -41c8 -8 34 -29 34 -43s-11 -21 -21 -28c-8 -5 -15 -9 -20 -15c-28 15 -65 67 -95 67c-11 0 -40 -13 -50 -17z" />
    <glyph glyph-name="edieresis" unicode="&#xeb;" horiz-adv-x="357" 
d="M362 187l9 -38c-61 -71 -171 -165 -270 -165c-73 0 -107 65 -109 131c-4 131 141 265 271 264c32 0 72 -8 72 -48c0 -49 -49 -123 -241 -186l-2 -22c-3 -38 30 -51 62 -51c71 0 155 73 208 115zM100 194c88 30 148 99 147 116c0 7 -5 13 -12 11
c-50 -13 -108 -61 -135 -127zM153 446c-23 0 -65 11 -63 39c1 17 23 84 74 76c22 -3 54 -7 51 -35c-3 -27 -24 -80 -62 -80zM343 446c-23 0 -65 11 -63 39c1 17 23 84 74 76c22 -3 54 -7 51 -35c-3 -27 -24 -80 -62 -80z" />
    <glyph glyph-name="egrave" unicode="&#xe8;" horiz-adv-x="357" 
d="M362 187l9 -38c-61 -71 -171 -165 -270 -165c-73 0 -107 65 -109 131c-4 131 141 265 271 264c32 0 72 -8 72 -48c0 -49 -49 -123 -241 -186l-2 -22c-3 -38 30 -51 62 -51c71 0 155 73 208 115zM100 194c88 30 148 99 147 116c0 7 -5 13 -12 11
c-50 -13 -108 -61 -135 -127zM103 517l59 -18c30 -9 96 -27 121 -43c12 -8 28 -26 28 -41c0 -8 -7 -9 -14 -9c-10 0 -23 4 -33 8c-26 10 -67 17 -95 21c-37 5 -49 6 -85 4c-41 -3 -38 0 -35 41c2 21 -2 43 23 43c11 0 21 -3 31 -6z" />
    <glyph glyph-name="iacute" unicode="&#xed;" horiz-adv-x="278" 
d="M273 168l9 -38c-45 -55 -133 -145 -209 -145c-59 0 -86 68 -86 119c0 122 125 241 185 241c17 0 44 -6 44 -28c0 -50 -99 -139 -141 -168c-8 -41 7 -63 53 -63c53 0 105 53 145 82zM226 500l59 18c10 3 20 6 31 6c25 0 21 -22 23 -43c3 -41 6 -44 -35 -41
c-36 2 -48 1 -85 -4c-28 -4 -69 -11 -95 -21c-10 -4 -23 -8 -33 -8c-7 0 -14 1 -14 9c0 15 16 33 28 41c25 16 91 34 121 43z" />
    <glyph glyph-name="icircumflex" unicode="&#xee;" horiz-adv-x="278" 
d="M273 168l9 -38c-45 -55 -133 -145 -209 -145c-59 0 -86 68 -86 119c0 122 125 241 185 241c17 0 44 -6 44 -28c0 -50 -99 -139 -141 -168c-8 -41 7 -63 53 -63c53 0 105 53 145 82zM145 451l-88 -37c-7 -3 -27 -13 -34 -13c-8 0 -9 9 -9 14c0 18 15 39 63 58l81 32
c23 9 58 23 82 23c22 0 43 -26 57 -41c8 -8 34 -29 34 -43s-11 -21 -21 -28c-8 -5 -15 -9 -20 -15c-28 15 -65 67 -95 67c-11 0 -40 -13 -50 -17z" />
    <glyph glyph-name="idieresis" unicode="&#xef;" horiz-adv-x="278" 
d="M273 168l9 -38c-45 -55 -133 -145 -209 -145c-59 0 -86 68 -86 119c0 122 125 241 185 241c17 0 44 -6 44 -28c0 -50 -99 -139 -141 -168c-8 -41 7 -63 53 -63c53 0 105 53 145 82zM113 446c-23 0 -65 11 -63 39c1 17 23 84 74 76c22 -3 54 -7 51 -35
c-3 -27 -24 -80 -62 -80zM303 446c-23 0 -65 11 -63 39c1 17 23 84 74 76c22 -3 54 -7 51 -35c-3 -27 -24 -80 -62 -80z" />
    <glyph glyph-name="igrave" unicode="&#xec;" horiz-adv-x="278" 
d="M273 168l9 -38c-45 -55 -133 -145 -209 -145c-59 0 -86 68 -86 119c0 122 125 241 185 241c17 0 44 -6 44 -28c0 -50 -99 -139 -141 -168c-8 -41 7 -63 53 -63c53 0 105 53 145 82zM63 517l59 -18c30 -9 96 -27 121 -43c12 -8 28 -26 28 -41c0 -8 -7 -9 -14 -9
c-10 0 -23 4 -33 8c-26 10 -67 17 -95 21c-37 5 -49 6 -85 4c-41 -3 -38 0 -35 41c2 21 -2 43 23 43c11 0 21 -3 31 -6z" />
    <glyph glyph-name="ntilde" unicode="&#xf1;" horiz-adv-x="460" 
d="M408 148l60 50l8 -44c-53 -47 -156 -170 -229 -170c-38 0 -56 32 -56 66c0 60 54 126 86 172l-2 2c-58 -43 -109 -95 -154 -153c-15 -19 -52 -68 -79 -68c-44 0 -55 63 -56 97c-3 69 60 170 118 219c13 11 22 12 39 12c60 -2 55 -16 55 -22c0 -39 -126 -140 -126 -164
c0 -6 5 -11 11 -11c7 0 16 9 20 14c80 102 264 225 293 225c4 0 10 -5 16 -19c6 -15 12 -33 15 -54c0 -39 -123 -115 -123 -184c0 -9 8 -18 18 -18c24 0 68 35 86 50zM211 498l130 -13l2 2c-33 23 -35 32 -35 35c0 7 7 14 13 14c19 0 76 -46 76 -84c0 -28 -16 -42 -43 -42
c-41 0 -83 15 -124 14c21 -19 24 -19 24 -28c0 -5 -5 -10 -10 -10c-9 0 -20 9 -27 14c-19 13 -44 24 -44 51c0 29 7 47 38 47z" />
    <glyph glyph-name="oacute" unicode="&#xf3;" horiz-adv-x="396" 
d="M398 192l10 -42c-45 -57 -89 -81 -162 -81c-42 -43 -91 -75 -154 -75c-52 0 -100 52 -104 143c-2 75 35 125 91 168c54 44 126 71 187 74c22 1 55 -9 55 -36c0 -15 -12 -21 -23 -27c30 -8 36 -29 36 -59c0 -44 -20 -79 -39 -118c44 -8 72 30 103 53zM214 270
c-34 -20 -81 -44 -111 -73c-22 -22 -41 -61 -41 -92c0 -29 19 -38 44 -38c33 0 54 19 77 40c-7 16 -12 29 -12 46c0 52 47 115 43 117zM285 500l59 18c10 3 20 6 31 6c25 0 21 -22 23 -43c3 -41 6 -44 -35 -41c-36 2 -48 1 -85 -4c-28 -4 -69 -11 -95 -21
c-10 -4 -23 -8 -33 -8c-7 0 -14 1 -14 9c0 15 16 33 28 41c25 16 91 34 121 43z" />
    <glyph glyph-name="ocircumflex" unicode="&#xf4;" horiz-adv-x="396" 
d="M398 192l10 -42c-45 -57 -89 -81 -162 -81c-42 -43 -91 -75 -154 -75c-52 0 -100 52 -104 143c-2 75 35 125 91 168c54 44 126 71 187 74c22 1 55 -9 55 -36c0 -15 -12 -21 -23 -27c30 -8 36 -29 36 -59c0 -44 -20 -79 -39 -118c44 -8 72 30 103 53zM214 270
c-34 -20 -81 -44 -111 -73c-22 -22 -41 -61 -41 -92c0 -29 19 -38 44 -38c33 0 54 19 77 40c-7 16 -12 29 -12 46c0 52 47 115 43 117zM204 451l-88 -37c-7 -3 -27 -13 -34 -13c-8 0 -9 9 -9 14c0 18 15 39 63 58l81 32c23 9 58 23 82 23c22 0 43 -26 57 -41
c8 -8 34 -29 34 -43s-11 -21 -21 -28c-8 -5 -15 -9 -20 -15c-28 15 -65 67 -95 67c-11 0 -40 -13 -50 -17z" />
    <glyph glyph-name="odieresis" unicode="&#xf6;" horiz-adv-x="396" 
d="M398 192l10 -42c-45 -57 -89 -81 -162 -81c-42 -43 -91 -75 -154 -75c-52 0 -100 52 -104 143c-2 75 35 125 91 168c54 44 126 71 187 74c22 1 55 -9 55 -36c0 -15 -12 -21 -23 -27c30 -8 36 -29 36 -59c0 -44 -20 -79 -39 -118c44 -8 72 30 103 53zM214 270
c-34 -20 -81 -44 -111 -73c-22 -22 -41 -61 -41 -92c0 -29 19 -38 44 -38c33 0 54 19 77 40c-7 16 -12 29 -12 46c0 52 47 115 43 117zM172 446c-23 0 -65 11 -63 39c1 17 23 84 74 76c22 -3 54 -7 51 -35c-3 -27 -24 -80 -62 -80zM362 446c-23 0 -65 11 -63 39
c1 17 23 84 74 76c22 -3 54 -7 51 -35c-3 -27 -24 -80 -62 -80z" />
    <glyph glyph-name="ograve" unicode="&#xf2;" horiz-adv-x="396" 
d="M398 192l10 -42c-45 -57 -89 -81 -162 -81c-42 -43 -91 -75 -154 -75c-52 0 -100 52 -104 143c-2 75 35 125 91 168c54 44 126 71 187 74c22 1 55 -9 55 -36c0 -15 -12 -21 -23 -27c30 -8 36 -29 36 -59c0 -44 -20 -79 -39 -118c44 -8 72 30 103 53zM214 270
c-34 -20 -81 -44 -111 -73c-22 -22 -41 -61 -41 -92c0 -29 19 -38 44 -38c33 0 54 19 77 40c-7 16 -12 29 -12 46c0 52 47 115 43 117zM122 517l59 -18c30 -9 96 -27 121 -43c12 -8 28 -26 28 -41c0 -8 -7 -9 -14 -9c-10 0 -23 4 -33 8c-26 10 -67 17 -95 21
c-37 5 -49 6 -85 4c-41 -3 -38 0 -35 41c2 21 -2 43 23 43c11 0 21 -3 31 -6z" />
    <glyph glyph-name="otilde" unicode="&#xf5;" horiz-adv-x="396" 
d="M398 192l10 -42c-45 -57 -89 -81 -162 -81c-42 -43 -91 -75 -154 -75c-52 0 -100 52 -104 143c-2 75 35 125 91 168c54 44 126 71 187 74c22 1 55 -9 55 -36c0 -15 -12 -21 -23 -27c30 -8 36 -29 36 -59c0 -44 -20 -79 -39 -118c44 -8 72 30 103 53zM214 270
c-34 -20 -81 -44 -111 -73c-22 -22 -41 -61 -41 -92c0 -29 19 -38 44 -38c33 0 54 19 77 40c-7 16 -12 29 -12 46c0 52 47 115 43 117zM179 498l130 -13l2 2c-33 23 -35 32 -35 35c0 7 7 14 13 14c19 0 76 -46 76 -84c0 -28 -16 -42 -43 -42c-41 0 -83 15 -124 14
c21 -19 24 -19 24 -28c0 -5 -5 -10 -10 -10c-9 0 -20 9 -27 14c-19 13 -44 24 -44 51c0 29 7 47 38 47z" />
    <glyph glyph-name="scaron" unicode="&#x161;" horiz-adv-x="359" 
d="M152 286l-144 -135c37 -2 59 -33 78 -59c60 37 76 54 79 112c-3 21 -7 48 -13 82zM288 126l60 46l10 -38c-61 -61 -170 -152 -250 -148c-67 3 -141 41 -159 114c-6 -6 -13 -13 -22 -13c-10 0 -17 10 -17 19c0 13 16 27 24 35l217 199c2 33 21 65 57 65c30 0 36 -9 39 -37
c4 -38 19 -72 19 -116c0 -82 -66 -143 -130 -182c64 -11 103 19 152 56zM285 491l88 37c7 3 27 13 34 13c8 0 9 -9 9 -14c0 -18 -15 -39 -63 -58l-81 -32c-23 -9 -58 -23 -82 -23c-22 0 -43 26 -57 41c-8 8 -34 29 -34 43s11 21 21 28c8 5 15 9 20 15c28 -15 65 -67 95 -67
c11 0 40 13 50 17z" />
    <glyph glyph-name="uacute" unicode="&#xfa;" horiz-adv-x="478" 
d="M185 177l99 89c21 19 119 114 144 114c8 0 19 -3 23 -55c2 -24 -25 -47 -41 -61c-32 -29 -103 -108 -103 -153c0 -16 9 -22 25 -22c38 0 124 70 154 94l6 -43c-51 -49 -157 -164 -231 -164c-37 0 -59 31 -59 66c0 30 11 58 21 84l-2 2c-39 -34 -106 -124 -161 -124
c-49 0 -76 56 -76 99c0 97 75 197 139 239c14 9 27 11 44 11c14 0 65 9 61 -21c-2 -16 -29 -44 -40 -53c-31 -35 -37 -44 -76 -72c-31 -22 -55 -44 -55 -86c0 -5 1 -15 8 -15c18 0 73 29 120 71zM326 500l59 18c10 3 20 6 31 6c25 0 21 -22 23 -43c3 -41 6 -44 -35 -41
c-36 2 -48 1 -85 -4c-28 -4 -69 -11 -95 -21c-10 -4 -23 -8 -33 -8c-7 0 -14 1 -14 9c0 15 16 33 28 41c25 16 91 34 121 43z" />
    <glyph glyph-name="ucircumflex" unicode="&#xfb;" horiz-adv-x="478" 
d="M185 177l99 89c21 19 119 114 144 114c8 0 19 -3 23 -55c2 -24 -25 -47 -41 -61c-32 -29 -103 -108 -103 -153c0 -16 9 -22 25 -22c38 0 124 70 154 94l6 -43c-51 -49 -157 -164 -231 -164c-37 0 -59 31 -59 66c0 30 11 58 21 84l-2 2c-39 -34 -106 -124 -161 -124
c-49 0 -76 56 -76 99c0 97 75 197 139 239c14 9 27 11 44 11c14 0 65 9 61 -21c-2 -16 -29 -44 -40 -53c-31 -35 -37 -44 -76 -72c-31 -22 -55 -44 -55 -86c0 -5 1 -15 8 -15c18 0 73 29 120 71zM245 451l-88 -37c-7 -3 -27 -13 -34 -13c-8 0 -9 9 -9 14c0 18 15 39 63 58
l81 32c23 9 58 23 82 23c22 0 43 -26 57 -41c8 -8 34 -29 34 -43s-11 -21 -21 -28c-8 -5 -15 -9 -20 -15c-28 15 -65 67 -95 67c-11 0 -40 -13 -50 -17z" />
    <glyph glyph-name="udieresis" unicode="&#xfc;" horiz-adv-x="478" 
d="M185 177l99 89c21 19 119 114 144 114c8 0 19 -3 23 -55c2 -24 -25 -47 -41 -61c-32 -29 -103 -108 -103 -153c0 -16 9 -22 25 -22c38 0 124 70 154 94l6 -43c-51 -49 -157 -164 -231 -164c-37 0 -59 31 -59 66c0 30 11 58 21 84l-2 2c-39 -34 -106 -124 -161 -124
c-49 0 -76 56 -76 99c0 97 75 197 139 239c14 9 27 11 44 11c14 0 65 9 61 -21c-2 -16 -29 -44 -40 -53c-31 -35 -37 -44 -76 -72c-31 -22 -55 -44 -55 -86c0 -5 1 -15 8 -15c18 0 73 29 120 71zM213 446c-23 0 -65 11 -63 39c1 17 23 84 74 76c22 -3 54 -7 51 -35
c-3 -27 -24 -80 -62 -80zM403 446c-23 0 -65 11 -63 39c1 17 23 84 74 76c22 -3 54 -7 51 -35c-3 -27 -24 -80 -62 -80z" />
    <glyph glyph-name="ugrave" unicode="&#xf9;" horiz-adv-x="478" 
d="M185 177l99 89c21 19 119 114 144 114c8 0 19 -3 23 -55c2 -24 -25 -47 -41 -61c-32 -29 -103 -108 -103 -153c0 -16 9 -22 25 -22c38 0 124 70 154 94l6 -43c-51 -49 -157 -164 -231 -164c-37 0 -59 31 -59 66c0 30 11 58 21 84l-2 2c-39 -34 -106 -124 -161 -124
c-49 0 -76 56 -76 99c0 97 75 197 139 239c14 9 27 11 44 11c14 0 65 9 61 -21c-2 -16 -29 -44 -40 -53c-31 -35 -37 -44 -76 -72c-31 -22 -55 -44 -55 -86c0 -5 1 -15 8 -15c18 0 73 29 120 71zM163 517l59 -18c30 -9 96 -27 121 -43c12 -8 28 -26 28 -41
c0 -8 -7 -9 -14 -9c-10 0 -23 4 -33 8c-26 10 -67 17 -95 21c-37 5 -49 6 -85 4c-41 -3 -38 0 -35 41c2 21 -2 43 23 43c11 0 21 -3 31 -6z" />
    <glyph glyph-name="yacute" unicode="&#xfd;" horiz-adv-x="442" 
d="M465 165l-301 -331c-10 -11 -38 -50 -54 -50c-21 0 -30 49 -30 66c0 16 19 47 27 60l134 226l-2 2c-82 -69 -155 -123 -167 -122c-28 2 -76 44 -79 118c-4 120 167 247 195 248c15 0 43 -32 43 -46c0 -38 -113 -142 -146 -168c-12 -17 -18 -37 -19 -58
c53 6 101 49 143 88c103 95 167 164 186 167c17 3 27 -36 27 -50c0 -26 -27 -67 -41 -88l-148 -220l2 -2l222 197zM308 500l59 18c10 3 20 6 31 6c25 0 21 -22 23 -43c3 -41 6 -44 -35 -41c-36 2 -48 1 -85 -4c-28 -4 -69 -11 -95 -21c-10 -4 -23 -8 -33 -8
c-7 0 -14 1 -14 9c0 15 16 33 28 41c25 16 91 34 121 43z" />
    <glyph glyph-name="ydieresis" unicode="&#xff;" horiz-adv-x="442" 
d="M465 165l-301 -331c-10 -11 -38 -50 -54 -50c-21 0 -30 49 -30 66c0 16 19 47 27 60l134 226l-2 2c-82 -69 -155 -123 -167 -122c-28 2 -76 44 -79 118c-4 120 167 247 195 248c15 0 43 -32 43 -46c0 -38 -113 -142 -146 -168c-12 -17 -18 -37 -19 -58
c53 6 101 49 143 88c103 95 167 164 186 167c17 3 27 -36 27 -50c0 -26 -27 -67 -41 -88l-148 -220l2 -2l222 197zM195 446c-23 0 -65 11 -63 39c1 17 23 84 74 76c22 -3 54 -7 51 -35c-3 -27 -24 -80 -62 -80zM385 446c-23 0 -65 11 -63 39c1 17 23 84 74 76
c22 -3 54 -7 51 -35c-3 -27 -24 -80 -62 -80z" />
    <glyph glyph-name="zcaron" unicode="&#x17e;" horiz-adv-x="368" 
d="M381 166l-160 -139c-23 -160 -179 -262 -245 -269c-27 -3 -45 22 -45 48c-1 55 50 98 90 130l130 104c-10 42 -25 47 -64 58c-15 4 -39 6 -36 25c5 33 71 59 182 151l-2 2l-122 -21l-114 -124l-11 33l70 85c-15 3 -27 9 -27 27c0 37 77 107 109 107c19 0 25 -19 25 -35
c79 12 113 29 133 29c19 0 32 -68 32 -79c0 -16 -18 -31 -30 -39l-128 -93c27 -20 44 -46 52 -79l158 122zM150 -21l-115 -90c-28 -22 -50 -45 -54 -81c68 18 156 99 169 171zM290 491l88 37c7 3 27 13 34 13c8 0 9 -9 9 -14c0 -18 -15 -39 -63 -58l-81 -32
c-23 -9 -58 -23 -82 -23c-22 0 -43 26 -57 41c-8 8 -34 29 -34 43s11 21 21 28c8 5 15 9 20 15c28 -15 65 -67 95 -67c11 0 40 13 50 17z" />
    <glyph glyph-name="Delta" unicode="&#x2206;" horiz-adv-x="656" 
d="M-4 0l14 59l392 596h118l91 -595l-15 -60h-600zM118 78h387l-51 314c-5 47 -18 126 -20 166h-4c-17 -31 -65 -103 -93 -151z" />
    <glyph glyph-name="Omega" unicode="&#x2126;" horiz-adv-x="729" 
d="M177 78v2c-54 52 -96 144 -65 268c43 170 204 301 384 301c188 0 265 -148 228 -297c-32 -128 -121 -221 -201 -272l-1 -2h148l-20 -78h-257l14 58c84 42 175 130 212 275c29 117 -13 237 -143 237c-124 0 -233 -105 -267 -240c-33 -134 11 -232 75 -272l-14 -58h-258
l19 78h146z" />
    <glyph glyph-name="pi" unicode="&#x3c0;" horiz-adv-x="588" 
d="M629 396h-76l-63 -254c-19 -75 -23 -115 -22 -142h-98c-6 17 -1 61 17 134l65 262h-161c-33 -111 -111 -312 -167 -396h-98c59 99 134 284 165 396c-55 0 -85 -3 -109 -11l3 64c29 17 78 28 161 28h412z" />
    <glyph glyph-name="Euro" unicode="&#x20ac;" 
d="M641 611l-26 -104c-20 23 -64 47 -138 47c-97 0 -163 -49 -196 -126h279l-50 -80h-262c-2 -7 -5 -16 -7 -26c-3 -11 -6 -24 -7 -31h240l-50 -80h-198c-5 -82 40 -130 135 -130c72 0 125 23 160 48l-27 -106c-24 -15 -86 -36 -171 -36c-139 0 -215 71 -204 224h-79l50 80
h40c1 7 3 18 6 30c3 11 6 20 9 27h-71l50 80h48c57 127 158 221 317 221c76 0 131 -22 152 -38z" />
    <glyph glyph-name="estimated" unicode="&#x212e;" horiz-adv-x="928" 
d="M897 309h-596c-3 0 -5 -1 -5 -4v-180c0 -8 3 -15 8 -21c58 -60 137 -98 225 -98c95 0 180 43 238 110h53c-66 -78 -173 -129 -292 -129c-203 0 -368 148 -368 331s165 332 368 332c204 0 369 -149 369 -332v-9zM762 333v181c0 8 -3 16 -9 22c-58 57 -136 94 -224 94
c-87 0 -166 -38 -224 -97c-6 -6 -9 -14 -9 -23v-177c0 -2 2 -6 5 -6h457c3 0 4 4 4 6z" />
    <glyph glyph-name="partialdiff" unicode="&#x2202;" horiz-adv-x="560" 
d="M216 593l-14 69c36 23 101 54 190 54c142 0 235 -122 178 -350c-52 -211 -191 -376 -366 -376c-138 0 -171 120 -147 216c35 142 154 235 272 235c90 0 130 -62 139 -89h1c3 10 8 27 10 37c36 143 -15 248 -118 248c-64 0 -114 -24 -145 -44zM234 69h1
c85 0 165 102 202 201c-3 35 -36 95 -108 95c-75 0 -152 -72 -174 -159c-19 -77 11 -137 79 -137z" />
    <glyph glyph-name="product" unicode="&#x220f;" horiz-adv-x="836" 
d="M812 552h-109v-640h-97v640h-251v-640h-97v640h-108v86h662v-86z" />
    <glyph glyph-name="summation" unicode="&#x2211;" horiz-adv-x="683" 
d="M664 -88h-516v60l255 302l-244 298v66h489v-82h-352v-4l220 -265l-239 -285v-2h387v-88z" />
    <glyph glyph-name="uni2219" unicode="&#x2219;" horiz-adv-x="301" 
d="M187 148c-27 3 -63 8 -63 42c0 36 44 119 101 107c14 -3 49 -3 49 -32c0 -1 -25 -124 -87 -117z" />
    <glyph glyph-name="radical" unicode="&#x221a;" horiz-adv-x="705" 
d="M715 761l-225 -895h-82l-156 412l-73 -28l-18 54l150 60l119 -326c6 -24 14 -48 19 -68l1 -1c3 19 9 46 14 72l179 720h72z" />
    <glyph glyph-name="infinity" unicode="&#x221e;" horiz-adv-x="823" 
d="M775 265v-1c0 -99 -74 -159 -152 -159c-58 0 -109 32 -175 112c-51 -60 -102 -112 -181 -112c-78 0 -148 65 -148 155c0 92 67 158 156 158c73 0 126 -50 177 -111c45 51 94 111 178 111s145 -62 145 -153zM275 160h1c58 0 103 56 141 98c-41 52 -81 106 -147 106
c-57 0 -92 -47 -92 -105c0 -54 39 -99 97 -99zM624 364h-1c-62 0 -110 -66 -142 -101c61 -71 96 -103 145 -103c58 0 90 53 90 100c0 63 -38 104 -92 104z" />
    <glyph glyph-name="integral" unicode="&#x222b;" horiz-adv-x="491" 
d="M477 772l-12 -64c-9 5 -24 9 -37 9c-18 0 -38 -7 -50 -23c-23 -27 -30 -77 -30 -158c0 -146 14 -292 14 -448c0 -92 -18 -150 -39 -183c-24 -41 -68 -58 -110 -58c-28 0 -58 8 -71 16l14 67c9 -4 25 -11 45 -11c16 0 33 6 44 20c20 23 32 61 32 149
c0 159 -15 308 -15 458c0 103 16 161 56 200c27 28 65 39 102 39c23 0 46 -7 57 -13z" />
    <glyph glyph-name="approxequal" unicode="&#x2248;" horiz-adv-x="622" 
d="M544 411l36 -35c-31 -54 -74 -93 -130 -93c-42 0 -69 14 -115 40c-29 16 -56 32 -89 32c-45 0 -72 -34 -98 -70l-37 34c30 55 82 93 141 93c47 0 80 -22 107 -37c36 -20 57 -34 91 -34c39 0 66 25 94 70zM544 239l36 -35c-30 -53 -73 -93 -131 -93c-41 0 -69 15 -114 40
c-30 17 -56 32 -89 32c-46 0 -72 -34 -98 -70l-37 34c30 55 83 93 141 93c47 0 80 -22 107 -36c31 -17 55 -35 91 -35c40 0 65 25 94 70z" />
    <glyph glyph-name="notequal" unicode="&#x2260;" horiz-adv-x="644" 
d="M490 476l-41 -90h147v-59h-171l-63 -135h234v-58h-258l-52 -114l-47 21l43 93h-142v58h167l61 135h-228v59h252l51 111z" />
    <glyph glyph-name="lessequal" unicode="&#x2264;" horiz-adv-x="664" 
d="M613 88l-448 213v63l448 213v-68l-386 -175v-2l386 -176v-68zM616 -8h-456v59h456v-59z" />
    <glyph glyph-name="greaterequal" unicode="&#x2265;" horiz-adv-x="664" 
d="M166 577l448 -214v-62l-448 -213v68l386 176v1l-386 176v68zM614 -8h-453v59h453v-59z" />
    <glyph glyph-name="lozenge" unicode="&#x25ca;" horiz-adv-x="706" 
d="M656 319l-201 -365h-77l-198 365l200 365h78zM568 316l-131 244c-7 14 -15 34 -18 47h-3c-4 -14 -11 -31 -19 -47l-130 -239l132 -246c8 -17 15 -35 18 -46h3c3 12 11 34 17 45z" />
    <glyph glyph-name="uni02C9" unicode="&#x2c9;" horiz-adv-x="340" 
d="M112 488c96 -10 192 -3 298 -3v-2c-9 0 -18 -84 -40 -83c-79 4 -189 8 -302 0c4 29 7 92 44 88z" />
    <glyph glyph-name="uni00AD" unicode="&#xad;" horiz-adv-x="320" 
d="M0 320h300v-88h-300v88z" />
    <glyph glyph-name="uni03A9" unicode="&#x3a9;" horiz-adv-x="729" 
d="M177 78v2c-54 52 -96 144 -65 268c43 170 204 301 384 301c188 0 265 -148 228 -297c-32 -128 -121 -221 -201 -272l-1 -2h148l-20 -78h-257l14 58c84 42 175 130 212 275c29 117 -13 237 -143 237c-124 0 -233 -105 -267 -240c-33 -134 11 -232 75 -272l-14 -58h-258
l19 78h146z" />
    <glyph glyph-name="uni00A0" unicode="&#xa0;" horiz-adv-x="340" 
 />
    <glyph glyph-name="afii61289" unicode="&#x2113;" horiz-adv-x="502" 
d="M444 159l34 -41c-72 -90 -154 -127 -233 -127c-111 0 -143 72 -132 156c0 4 1 7 2 10c-20 -12 -42 -27 -64 -40l-15 53c34 22 66 42 96 63l59 236c43 170 137 233 224 233c93 0 116 -73 95 -158c-28 -114 -135 -219 -287 -331l-7 -28c-18 -79 19 -116 71 -116
c59 0 120 47 157 90zM289 481l-44 -179c98 81 177 164 197 242c13 52 5 89 -41 89c-34 0 -83 -36 -112 -152z" />
    <glyph glyph-name="uni03BC" unicode="&#x3bc;" horiz-adv-x="478" 
d="M233 177l99 89c21 19 119 114 144 114c8 0 19 -3 23 -55c2 -24 -25 -47 -41 -61c-32 -29 -103 -108 -103 -153c0 -16 9 -22 25 -22c38 0 124 70 154 94l6 -43c-51 -49 -157 -164 -231 -164c-37 0 -59 31 -59 66c0 30 11 58 21 84l-2 2c-39 -34 -106 -124 -161 -124
c-24 0 -43 14 -66 43c-74 -149 -149 -219 -198 -193c-43 23 -38 57 32 108c39 28 100 106 172 244c20 38 59 94 123 136c14 9 27 11 44 11c14 0 65 9 61 -21c-2 -16 -29 -44 -40 -53c-31 -35 -37 -44 -76 -72c-26 -18 -55 -52 -55 -86c0 -5 1 -14 8 -16c18 1 73 30 120 72z
" />
    <glyph glyph-name="uni2215" unicode="&#x2215;" horiz-adv-x="172" 
d="M-105 -10h-64l539 659h65z" />
    </font>
</defs>
</svg>
