<?xml version="1.0" encoding="UTF-8"?>
<!DOCTYPE svg  PUBLIC '-//W3C//DTD SVG 1.1//EN'  'http://www.w3.org/Graphics/SVG/1.1/DTD/svg11.dtd'>
<svg version="1.1" xmlns="http://www.w3.org/2000/svg">
<defs>
<font id="CalisMTBol" horiz-adv-x="1366">
<font-face font-family="Calisto MT" font-weight="700" ascent="1638" bbox="-360 -465 2183 1855" cap-height="1408" descent="-410" panose-1="2 4 7 3 6 5 5 2 3 4" underline-position="-231" underline-thickness="102" unicode-range="U+0020-2215" units-per-em="2048" x-height="946"/>
<missing-glyph/>
<glyph glyph-name="space" horiz-adv-x="522" unicode=" "/>
<glyph d="M487 1438l49 -38q-57 -311 -143 -993h-93q-75 625 -125 921q194 61 312 110zM349 320q74 0 126 -52t52 -126q0 -73 -52 -125t-126 -52q-73 0 -125 52t-52 125q0 74 51.5 126t125.5 52z" glyph-name="exclam" horiz-adv-x="705" unicode="!"/>
<glyph d="M832 721h-49l-102 384q-23 87 -23 133q0 61 44 105t107 44q71 0 108.5 -47t37.5 -101q0 -31 -26 -134zM350 721h-49l-104 385q-20 74 -20 129q0 65 43 108.5t105 43.5t104.5 -41.5t42.5 -106.5q0 -42 -24 -135z" glyph-name="quotedbl" horiz-adv-x="1130" unicode='"'/>
<glyph d="M81 1001h315l84 391h165l-85 -391h379l83 391h166l-84 -391h180v-165h-212l-68 -327h280v-166h-312l-83 -388h-166l84 388h-382l-80 -388h-166l82 388h-180v166h214l68 327h-282v165zM528 836l-68 -326h380l68 326h-380z" glyph-name="numbersign" unicode="#"/>
<glyph d="M454 1497h110v-105q107 -5 188.5 -25.5t162.5 -62.5q-51 -132 -69 -282l-91 12q-1 134 -46.5 190.5t-152.5 71.5v-441q207 -147 254 -188q69 -62 102 -127.5t33 -160.5q0 -146 -102.5 -261t-286.5 -150v-167h-115v160q-190 4 -365 64q30 123 53 311h85 q16 -141 71.5 -202.5t162.5 -69.5v507l-161 123q-80 64 -109 99q-40 49 -61 105t-21 113q0 74 32.5 143.5t83 117t103 71.5t139.5 40v114zM454 1286q-62 -23 -92 -65t-30 -97q0 -50 25 -92t97 -101v355zM550 75q74 29 110 80.5t36 117.5q0 54 -32 105.5t-114 114.5v-418z " glyph-name="dollar" horiz-adv-x="1024" unicode="$"/>
<glyph d="M69 1013q0 213 88.5 315.5t226.5 102.5q131 0 207.5 -89.5t76.5 -289.5q0 -202 -88 -301t-226 -99q-133 0 -209 85t-76 276zM267 1018q0 -192 30.5 -241t71.5 -49t65 43q38 67 38 299q0 179 -37 240q-25 40 -65 40q-54 0 -75 -57.5t-28 -274.5zM1173 1431h148l-805 -1512 h-149zM1017 305q0 192 90.5 293t229.5 101q128 0 203.5 -89.5t75.5 -280.5q0 -208 -86.5 -309t-226.5 -101q-133 0 -209.5 90t-76.5 296zM1217 301q0 -202 36 -266q21 -36 64 -36q44 0 63 36q38 69 38 307q0 179 -36 240q-22 36 -65 36q-39 0 -60 -37q-40 -73 -40 -280z" glyph-name="percent" horiz-adv-x="1686" unicode="%"/>
<glyph d="M1047 841v64q123 -11 224 -11q90 0 253 11v-70q-84 -11 -125 -32t-71 -57q-21 -25 -74 -117q-71 -125 -155 -247q82 -94 158.5 -137t133.5 -43q38 0 75 16t93 61l54 -70q-140 -138 -243 -198q-64 -36 -125 -36q-74 0 -153 42t-186 149q-140 -116 -235 -153.5t-221 -37.5 q-190 0 -293 98t-103 248q0 96 48 182.5t128.5 148t253.5 146.5q-56 115 -73.5 175.5t-17.5 117.5q0 154 106.5 250.5t294.5 96.5q137 0 203.5 -61t66.5 -165q0 -106 -63.5 -192t-220.5 -179q125 -232 239 -369q62 84 91 160t29 124q0 28 -16 46.5t-76 38.5zM736 933 q73 50 101 97q41 68 41 147q0 81 -36 124.5t-86 43.5q-45 0 -74 -34t-29 -106q0 -46 15 -100.5t68 -171.5zM526 711q-94 -53 -134 -107q-57 -79 -57 -173q0 -106 78.5 -186t177.5 -80q61 0 115.5 20t122.5 67q-85 103 -141 187q-39 57 -162 272z" glyph-name="ampersand" horiz-adv-x="1642" unicode="&amp;"/>
<glyph d="M313 722h-48l-105 382q-20 72 -20 129q0 67 42.5 110.5t104.5 43.5q63 0 105.5 -42t42.5 -108q0 -42 -23 -132z" glyph-name="quotesingle" horiz-adv-x="575" unicode="'"/>
<glyph d="M638 1460v-99q-90 -101 -137 -191q-64 -124 -101.5 -305.5t-37.5 -384.5q0 -232 55 -427q44 -155 108 -260q36 -59 113 -129v-95q-161 65 -273 170q-158 147 -228 340.5t-70 408.5q0 338 160 597t411 375z" glyph-name="parenleft" horiz-adv-x="682" unicode="("/>
<glyph d="M44 -431v99q91 101 137 191q64 125 102 306t38 384q0 232 -55 427q-44 155 -109 260q-36 59 -113 129v95q161 -65 274 -170q157 -147 227.5 -340.5t70.5 -408.5q0 -338 -160.5 -597t-411.5 -375z" glyph-name="parenright" horiz-adv-x="682" unicode=")"/>
<glyph d="M373 1459h242l-87 -363l318 196l73 -231l-366 -28l276 -240l-194 -140l-144 344l-142 -344l-197 140l282 240l-367 35l77 224l316 -196z" glyph-name="asterisk" horiz-adv-x="981" unicode="*"/>
<glyph d="M130 763h459v461h185v-461h461v-185h-461v-457h-185v457h-459v185z" glyph-name="plus" unicode="+"/>
<glyph d="M194 43l-43 53q19 24 60 75q63 78 121 159q94 -27 149.5 -99t55.5 -165q0 -115 -77 -252t-236 -279l-73 73q111 147 148 222q24 50 24 107q0 52 -27.5 82.5t-62.5 30.5q-14 0 -39 -7z" glyph-name="comma" horiz-adv-x="705" unicode=","/>
<glyph d="M79 351l-25 28q40 106 62 207q99 -7 218 -7q185 0 308 7l23 -30q-39 -99 -65 -205q-154 6 -331 6q-112 0 -190 -6z" glyph-name="hyphen" horiz-adv-x="725" unicode="-"/>
<glyph d="M353 325q75 0 127.5 -53t52.5 -127q0 -75 -53 -127.5t-127 -52.5q-75 0 -127.5 52.5t-52.5 127.5q0 74 52.5 127t127.5 53z" glyph-name="period" horiz-adv-x="705" unicode="."/>
<glyph d="M842 1426h198l-730 -1463h-198z" glyph-name="slash" horiz-adv-x="1153" unicode="/"/>
<glyph d="M59 730q0 171 51.5 346t166 265t267.5 90q198 0 308 -138q134 -169 134 -544q0 -436 -153 -637q-112 -147 -322 -147q-143 0 -236 64t-154.5 218.5t-61.5 482.5zM363 726q0 -278 12 -396q16 -158 58.5 -210t95.5 -52q82 0 114 98q40 127 40 549q0 427 -62 543 q-37 69 -103 69q-36 0 -64 -22.5t-47 -68.5q-25 -60 -32 -141q-12 -136 -12 -369z" glyph-name="zero" horiz-adv-x="1044" unicode="0"/>
<glyph d="M184 1190v66q193 63 281.5 97.5t178.5 77.5l52 -34q-13 -127 -19.5 -298t-6.5 -386q0 -437 4 -535q3 -55 22 -73.5t127 -36.5q14 -3 44 -9v-70q-189 11 -330 11q-146 0 -333 -11v70q141 22 166 42q17 13 22 50q12 93 12 497q0 331 -2 423t-19.5 113.5t-53.5 21.5 q-48 0 -145 -16z" glyph-name="one" horiz-adv-x="1044" unicode="1"/>
<glyph d="M202 1004h-99q54 165 57 302q91 63 183 94t184 31q170 0 276.5 -102.5t106.5 -249.5q0 -111 -46.5 -218t-160.5 -243q-49 -59 -375 -385h350q82 0 109 8.5t50 33.5t60 102h96q-96 -230 -147 -388q-251 11 -426 11q-188 0 -400 -11v87q146 140 334 369 q116 142 173.5 234.5t82.5 169t25 151.5q0 106 -56.5 166t-138.5 60q-75 0 -133.5 -47.5t-104.5 -174.5z" glyph-name="two" horiz-adv-x="1044" unicode="2"/>
<glyph d="M228 1070h-95q29 89 57 252q82 55 165.5 82t169.5 27q159 0 244.5 -79.5t85.5 -204.5q0 -86 -41 -155.5t-149 -150.5q126 -35 196 -130t70 -228q0 -176 -123 -321q-168 -197 -464 -197q-137 0 -281 50q20 84 28.5 135.5t19.5 176.5h88q19 -135 79 -193.5t148 -58.5 q94 0 159 78.5t65 228.5q0 171 -95 253q-69 59 -214 61l3 86q135 37 197.5 109.5t62.5 164.5q0 78 -47.5 126.5t-120.5 48.5q-69 0 -121.5 -37.5t-86.5 -123.5z" glyph-name="three" horiz-adv-x="1044" unicode="3"/>
<glyph d="M354 -11v66q147 27 176 41q19 10 26 33q12 35 18 194h-433q-29 0 -126 -4q-2 87 -10 174q135 185 399 571q98 144 170 255q109 44 221 126l51 -34q-26 -239 -26 -406l2 -389v-98q101 3 194 20l28 -36q-52 -84 -91 -184q-58 8 -131 8q3 -167 8 -190.5t22 -36.5 q24 -17 118 -34q16 -3 48 -10v-66q-190 11 -333 11q-148 0 -331 -11zM575 512v589l-402 -589h402z" glyph-name="four" horiz-adv-x="1044" unicode="4"/>
<glyph d="M954 1406l25 -31q-70 -105 -114 -214q-195 3 -494 3q-25 -87 -46 -179q42 2 64 2q256 0 397 -131.5t141 -339.5q0 -232 -164.5 -391.5t-427.5 -159.5q-123 0 -256 41q26 120 45 315l91 -3q26 -119 71.5 -179.5t138.5 -60.5q103 0 175.5 83.5t72.5 233.5 q0 160 -96.5 256.5t-252.5 96.5q-52 0 -144 -14l-47 48q102 262 164 615q230 -10 393 -10q149 0 264 19z" glyph-name="five" horiz-adv-x="1044" unicode="5"/>
<glyph d="M876 1438l34 -105q-158 -71 -252 -143.5t-158 -166.5t-117 -242q116 95 172.5 123t103.5 28q129 0 233 -117.5t104 -308.5q0 -183 -102 -335q-138 -206 -384 -206q-202 0 -329.5 140.5t-127.5 393.5q0 200 89.5 388t279.5 332t454 219zM337 464q0 -197 82 -310 q55 -75 136 -75q73 0 122 65.5t49 230.5q0 192 -74 293q-51 70 -132 70q-75 0 -129 -65.5t-54 -208.5z" glyph-name="six" horiz-adv-x="1044" unicode="6"/>
<glyph d="M177 1022h-97q97 231 149 386q198 -11 403 -11q193 0 355 11v-91l-245 -697q-50 -148 -100 -312t-99 -343q-84 9 -147 9q-61 0 -125 -8l-25 32q64 120 155 307q114 233 402 849h-469q-50 0 -72 -17q-30 -22 -85 -115z" glyph-name="seven" horiz-adv-x="1044" unicode="7"/>
<glyph d="M337 681q-135 108 -182.5 188.5t-47.5 182.5q0 160 122 269.5t332 109.5q185 0 279 -82t94 -209q0 -90 -47.5 -163.5t-198.5 -185.5q172 -127 227.5 -214t55.5 -198q0 -176 -126.5 -295t-348.5 -119q-209 0 -312 92.5t-103 239.5q0 108 51.5 190t204.5 194zM588 864 q64 60 86 105q38 76 38 153q0 95 -50.5 148t-133.5 53q-78 0 -125 -47t-47 -122q0 -57 42 -116t190 -174zM443 603q-54 -60 -76 -111q-35 -82 -35 -168q0 -117 59.5 -185t139.5 -68q72 0 122 55t50 142q0 78 -52.5 152.5t-207.5 182.5z" glyph-name="eight" horiz-adv-x="1044" unicode="8"/>
<glyph d="M180 -51l-37 103q152 61 258.5 147.5t176.5 209.5q45 78 79 198q-143 -109 -178.5 -126t-86.5 -17q-134 0 -240.5 123.5t-106.5 320.5q0 139 63 264t179 192t261 67q206 0 328.5 -133t122.5 -383q0 -192 -81 -379q-97 -222 -282.5 -367t-455.5 -220zM322 1034 q0 -190 76 -294q53 -72 134 -72q77 0 128 64.5t51 215.5q0 117 -31 205.5t-80 124.5t-101 36q-74 0 -125.5 -64t-51.5 -216z" glyph-name="nine" horiz-adv-x="1044" unicode="9"/>
<glyph d="M353 980q75 0 127.5 -53t52.5 -127q0 -75 -53 -127.5t-127 -52.5q-75 0 -127.5 52.5t-52.5 127.5q0 74 52.5 127t127.5 53zM353 325q75 0 127.5 -53t52.5 -127q0 -75 -53 -127.5t-127 -52.5q-75 0 -127.5 52.5t-52.5 127.5q0 74 52.5 127t127.5 53z" glyph-name="colon" horiz-adv-x="705" unicode=":"/>
<glyph d="M354 980q75 0 127 -53t52 -127q0 -75 -52.5 -127.5t-126.5 -52.5q-75 0 -127.5 52.5t-52.5 127.5q0 74 52 127t128 53zM194 43l-43 53q19 24 60 75q63 78 121 159q94 -27 149.5 -99t55.5 -165q0 -115 -77 -252t-236 -279l-73 73q111 147 148 222q24 50 24 107 q0 52 -27.5 82.5t-62.5 30.5q-14 0 -39 -7z" glyph-name="semicolon" horiz-adv-x="705" unicode=";"/>
<glyph d="M1234 127l-1103 461v167l1103 462v-200l-852 -345l852 -345v-200z" glyph-name="less" unicode="&lt;"/>
<glyph d="M131 1003h1103v-185h-1103v185zM131 529h1103v-185h-1103v185z" glyph-name="equal" unicode="="/>
<glyph d="M131 1217l1103 -462v-167l-1103 -461v199l852 345l-852 345v201z" glyph-name="greater" unicode="&gt;"/>
<glyph d="M130 1054h-85q35 165 45 304q192 80 326 80q174 0 259.5 -92t85.5 -212q0 -54 -18 -106t-61 -119q-22 -34 -114.5 -150.5t-102.5 -131.5q-19 -32 -36 -80.5t-30 -138.5h-101q3 129 26.5 223t98.5 255q58 122 58 189q0 72 -43.5 116t-110.5 44q-64 0 -109.5 -35.5 t-87.5 -145.5zM363 321q74 0 126 -52t52 -126t-52 -126t-126 -52q-73 0 -125.5 52t-52.5 126t52 126t126 52z" glyph-name="question" horiz-adv-x="831" unicode="?"/>
<glyph d="M1179 925l244 10l-183 -628q-31 -103 -31 -154q0 -34 23.5 -57.5t58.5 -23.5q68 0 177 79.5t181 227t72 314.5q0 276 -177.5 453.5t-462.5 177.5q-246 0 -447 -115.5t-319 -335.5t-118 -472q0 -346 220.5 -566.5t561.5 -220.5q281 0 504 151t316 400h61 q-120 -294 -349.5 -450.5t-533.5 -156.5q-385 0 -635 248.5t-250 629.5q0 262 124.5 486t349 344.5t493.5 120.5q222 0 388 -88.5t248.5 -248.5t82.5 -339q0 -205 -88.5 -376t-222.5 -253t-288 -82q-101 0 -152.5 49t-51.5 130q0 49 24 137q-82 -137 -128 -189 q-62 -71 -125 -105q-41 -22 -92 -22q-71 0 -119.5 56.5t-48.5 169.5q0 140 55 283t145 249t198 169q61 36 118 36t93.5 -35t49.5 -122zM1031 890q-27 0 -57 -22t-81.5 -112t-100 -236t-48.5 -243q0 -46 18.5 -70t39.5 -24q30 0 80 48q87 84 152 241.5t65 283.5 q0 71 -22.5 102.5t-45.5 31.5z" glyph-name="at" horiz-adv-x="1898" unicode="@"/>
<glyph d="M892 -11v74q121 22 140 36t19 38q0 14 -6 32q-16 42 -104 252q-141 3 -235 3q-77 0 -257 -3q-111 -262 -111 -287q0 -24 16 -35.5t142 -35.5v-74q-126 11 -241 11q-124 0 -252 -11v74q90 19 124 43q23 16 42 48q39 63 233 488q123 269 351 796h81q93 -235 385 -877 q162 -357 194 -406q22 -34 44 -48t139 -44v-74q-177 11 -329 11q-150 0 -375 -11zM700 1007l-204 -471l198 -1q71 0 204 1z" glyph-name="A" horiz-adv-x="1599" unicode="A"/>
<glyph d="M9 1334v74q243 -11 410 -11q65 0 213 4q70 2 129 2q212 0 306 -63q124 -82 124 -241q0 -138 -94 -231q-70 -71 -214 -116q128 -10 206 -45.5t121.5 -107.5t43.5 -169q0 -119 -67.5 -222t-202.5 -159t-347 -56q-57 0 -144 3q-112 5 -153 5q-76 0 -331 -12v74l167 36 q22 7 33 18t17 30q8 31 9 175q2 252 2 469q0 121 -5 380q-2 77 -18 103q-9 14 -31 23q-9 4 -174 37zM532 787h50q164 0 238 69t74 204q0 117 -61.5 178t-179.5 61q-49 0 -121 -10v-502zM532 683v-566q67 -12 123 -12q137 0 206.5 73.5t69.5 227.5q0 158 -79 217.5t-269 59.5 h-51z" glyph-name="B" horiz-adv-x="1343" unicode="B"/>
<glyph d="M1391 264l51 -96q-173 -114 -319.5 -161.5t-306.5 -47.5q-338 0 -531.5 192.5t-193.5 518.5q0 346 218 557t603 211q123 0 237.5 -19.5t283.5 -72.5q-6 -65 -6 -135q0 -121 15 -296h-110q-50 192 -66 225q-37 75 -121.5 127t-228.5 52q-219 0 -338 -134 q-144 -161 -144 -445q0 -294 143.5 -447.5t386.5 -153.5q216 0 427 125z" glyph-name="C" horiz-adv-x="1556" unicode="C"/>
<glyph d="M24 1334v74q233 -11 385 -11q116 0 321 6q149 5 249 5q188 0 298 -48q152 -66 238.5 -203t86.5 -355q0 -242 -113 -430.5t-318 -294.5q-171 -89 -415 -89q-23 0 -186 6.5t-183 6.5q-70 0 -363 -12v74l42 8q131 23 153.5 43t26.5 59q5 58 5 607q0 403 -8 454q-5 35 -25 51 t-152 40zM561 122q121 -20 203 -20q230 0 347 136q149 174 149 505q0 284 -132 431q-107 120 -335 120q-96 0 -232 -19q-10 -156 -10 -579q0 -243 10 -574z" glyph-name="D" horiz-adv-x="1686" unicode="D"/>
<glyph d="M16 1334v74q241 -12 524 -12q328 0 676 12q3 -210 25 -365h-85q-12 32 -17 49q-49 143 -77 166t-126 23h-382q-8 -169 -10 -491l174 -2q136 0 167.5 26.5t66.5 178.5h83q-11 -147 -11 -259q0 -107 11 -267h-83q-28 162 -54 186t-157 24h-196v-559h398q66 0 88 8 q35 13 64 46q61 67 143 212h88q-58 -164 -125 -395q-341 11 -713 11q-169 0 -472 -11v74q166 30 190 48q33 23 33 116v34l2 396v320l-1 148q0 107 -11 133t-42.5 41t-170.5 35z" glyph-name="E" unicode="E"/>
<glyph d="M14 1334v74q332 -11 489 -11q414 0 723 11q6 -222 27 -394h-82l-10 31q-42 136 -77 188q-15 21 -43 30.5t-111 9.5h-383v-483h174q101 0 126.5 10t40.5 35q23 39 51 164h83q-12 -152 -12 -289q0 -125 12 -249h-83q-33 147 -46 176q-11 21 -32 30q-27 11 -134 11h-180 v-448q0 -81 9.5 -101t32.5 -29q37 -16 162 -31q16 -1 47 -6v-74q-247 11 -415 11t-369 -11v74q172 30 194.5 48t26.5 66q3 36 5 547l-1 270v82q0 149 -7.5 176t-25.5 38q-23 14 -152 37q-13 2 -40 7z" glyph-name="F" horiz-adv-x="1280" unicode="F"/>
<glyph d="M1716 726v-73q-137 -25 -174 -43q-18 -9 -27 -34t-9 -154q0 -206 6 -364q-68 -12 -149 -29q-212 -46 -305.5 -58t-200.5 -12q-249 0 -394 62q-181 79 -277 244t-96 393q0 405 299 624q214 156 565 156q235 0 530 -68q-2 -59 -2 -95q0 -117 10 -332h-102 q-42 166 -84.5 230.5t-132 103t-218.5 38.5q-169 0 -282.5 -69t-176 -213.5t-62.5 -332.5q0 -300 141.5 -454t372.5 -154q116 0 251 52v308q0 101 -10 130q-7 18 -27.5 29t-128.5 33q-12 3 -37 9v73q230 -11 346 -11q85 0 374 11z" glyph-name="G" horiz-adv-x="1749" unicode="G"/>
<glyph d="M16 1334v74q181 -11 368 -11q195 0 386 11v-74q-152 -26 -178.5 -37.5t-37 -35.5t-10.5 -146l1 -69l-1 -257q142 -5 304 -5q146 0 255 5l-2 355q0 95 -11 119t-42 36q-24 10 -171 35v74q193 -11 355 -11q152 0 399 11v-74l-159 -34q-26 -7 -36.5 -17t-15.5 -25 q-10 -33 -12 -207q-2 -276 -2 -360q0 -342 5 -504q2 -54 25 -75.5t156 -42.5l39 -6v-74q-211 11 -376 11q-163 0 -378 -11v74l168 34q30 10 42.5 30.5t12.5 92.5l3 441l-275 4q-19 0 -284 -4q1 -409 6 -489q3 -43 25.5 -63t151.5 -39q14 -2 43 -7v-74q-222 11 -398 11 q-181 0 -356 -11v74q138 27 167 37t41.5 31.5t12.5 94.5l4 390q0 305 -3 521q-1 106 -17 133q-9 17 -31.5 27t-173.5 37z" glyph-name="H" horiz-adv-x="1642" unicode="H"/>
<glyph d="M773 1408v-74l-37 -5q-133 -16 -159.5 -40t-26.5 -93v-36l-2 -335l1 -383l1 -195q0 -86 8.5 -108t29.5 -33q36 -19 148 -37q12 -2 37 -6v-74q-205 11 -361 11q-148 0 -392 -11v74q156 29 171 35q23 9 35 26q15 23 16 94q2 166 2 565l-3 364v30q0 80 -23 103t-155 45 q-15 3 -43 9v74q257 -11 385 -11q137 0 368 11z" glyph-name="I" horiz-adv-x="788" unicode="I"/>
<glyph d="M214 1334v74q242 -11 387 -11q150 0 362 11v-74l-144 -29q-36 -9 -48 -19q-9 -7 -13 -19q-11 -27 -12.5 -102.5t-1.5 -406.5l1 -162q0 -225 -10 -287q-17 -106 -74 -184t-155 -122t-217 -44q-100 0 -233 41q25 134 31 378h101q15 -199 59 -259q32 -46 87 -46q69 0 89 84 q14 58 14 612q0 427 -4.5 464.5t-21.5 50.5q-25 19 -197 50z" glyph-name="J" horiz-adv-x="961" unicode="J"/>
<glyph d="M16 1334v74q193 -11 381 -11q192 0 376 11v-74l-166 -34q-31 -11 -44 -31t-13 -90l-2 -456q302 296 433 457q62 76 62 100q0 17 -21 26q-9 4 -127 28v74q191 -11 309 -11t291 11v-74q-145 -21 -191.5 -45t-145.5 -122l-344 -352q78 -99 231 -279q128 -149 212 -255 t145.5 -144t218.5 -74v-74q-193 11 -391 11q-200 0 -384 -11v74q91 10 117 27q16 11 16 30q0 16 -35 61l-396 517l1 -69v-314q0 -148 9 -180q5 -20 27 -32.5t149 -32.5q13 -2 39 -7v-74q-191 11 -344 11q-129 0 -413 -11v74q171 29 199 50q19 14 22 51q5 51 5 572 q0 440 -4.5 485.5t-21.5 59.5q-26 22 -200 53z" glyph-name="K" horiz-adv-x="1599" unicode="K"/>
<glyph d="M13 1334v74q256 -11 399 -11q146 0 389 11v-74q-206 -31 -224 -40q-30 -17 -30 -87l-3 -257v-832h364q90 0 120 12q41 17 79 61t134 204h90q-67 -185 -131 -406q-425 11 -707 11q-231 0 -480 -11v74q178 35 196 48t22.5 48.5t4.5 479.5l-1 364v64q0 160 -11 192 q-8 24 -27.5 33.5t-183.5 41.5z" glyph-name="L" unicode="L"/>
<glyph d="M10 1334v74q179 -11 295 -11q124 0 269 11q42 -114 110 -270q186 -420 329 -713l252 544q60 133 95.5 218.5t85.5 220.5q190 -11 276 -11q74 0 268 11v-74q-30 -6 -45 -8q-129 -22 -149.5 -40t-26 -74.5t-5.5 -453.5q0 -504 1 -526q3 -79 11.5 -97t21.5 -26 q35 -20 147 -37l45 -9v-74q-242 11 -369 11q-131 0 -387 -11v74q158 29 177.5 37.5t29.5 22.5t13.5 38t3.5 205q2 393 2 614q0 21 -1 131q-55 -114 -402 -888l-101 -223h-77q-113 255 -509 1118q-2 -131 -2 -222q0 -499 9 -660q5 -92 10 -103q7 -19 30 -31t136 -31 q14 -3 41 -8v-74q-142 11 -274 11q-133 0 -303 -11v74q130 23 158 33t42 33t14 86l12 636q3 167 3 248q0 125 -13 164q-8 24 -30.5 36t-145.5 28q-16 2 -47 7z" glyph-name="M" horiz-adv-x="2005" unicode="M"/>
<glyph d="M6 1334v74q137 -11 255 -11q119 0 280 11q122 -164 734 -907l-4 544q-5 199 -15.5 221.5t-34.5 35t-169 32.5v74q161 -11 281 -11q116 0 296 11v-74q-31 -6 -46 -8q-118 -18 -141 -39.5t-27 -88.5q-10 -140 -10 -576q0 -280 11 -640q-47 -14 -93 -33l-379 478l-578 703 l3 -475l8 -462q3 -52 10 -65.5t20 -21.5q22 -13 142 -35q14 -2 42 -8v-74q-172 11 -276 11q-89 0 -302 -11v74q31 6 47 9q115 18 137 35q14 11 20 31.5t13 297.5q11 401 11 688q0 96 -10.5 123t-37.5 42t-137 35q-17 3 -50 10z" glyph-name="N" horiz-adv-x="1642" unicode="N"/>
<glyph d="M87 676q0 343 210.5 552.5t564.5 209.5q334 0 524.5 -188.5t190.5 -504.5q0 -201 -75 -366q-59 -131 -152.5 -221t-191.5 -134q-146 -65 -352 -65q-342 0 -530.5 189t-188.5 528zM433 730q0 -364 132 -535q98 -128 281 -128q126 0 212.5 65t129.5 208.5t43 333.5 q0 145 -26 278t-71 208t-120.5 121t-182.5 46q-119 0 -212 -66.5t-139.5 -209t-46.5 -321.5z" glyph-name="O" horiz-adv-x="1665" unicode="O"/>
<glyph d="M14 1334v74q277 -11 434 -11l336 5q150 0 237 -32t141 -117t54 -206q0 -194 -132 -319.5t-361 -125.5q-71 0 -177 17q2 -268 2 -310l-1 -73q0 -96 16 -115q26 -32 185 -51q18 -2 54 -7v-74q-286 11 -413 11q-147 0 -375 -11v74q176 31 196.5 49t24.5 67t7 542l-1 303 q-1 183 -7 215t-26 46q-26 18 -150 41q-15 2 -44 8zM546 732q61 -6 105 -6q116 0 181 71t65 220q0 132 -64 200t-182 68q-45 0 -105 -10v-543z" glyph-name="P" horiz-adv-x="1280" unicode="P"/>
<glyph d="M285 136q-91 99 -133 201q-64 156 -64 338q0 308 172 512q212 251 607 251q330 0 519.5 -188t189.5 -507q0 -348 -201.5 -560t-501.5 -212q-88 0 -210 29q323 -134 524 -186q108 -29 203 -29q67 0 129.5 12.5t164.5 49.5l35 -72q-196 -126 -311 -176q-67 -28 -123 -28 q-55 0 -129 23q-104 33 -211 93q-63 35 -273 176q-137 93 -234 129t-259 57v100q49 -4 106 -13zM435 748q0 -381 134 -554q97 -128 290 -128q169 0 259 117q114 150 114 504q0 352 -125 514q-97 126 -270 126q-127 0 -222.5 -71t-137.5 -214.5t-42 -293.5z" glyph-name="Q" horiz-adv-x="1665" unicode="Q"/>
<glyph d="M12 1334v74q338 -11 399 -11q65 0 188 3.5t181 3.5q149 0 232 -38t133.5 -121t50.5 -185q0 -87 -36 -167.5t-96 -136.5q-39 -37 -125 -80q68 -117 199 -331q96 -157 125.5 -188t63.5 -48q52 -24 190 -46v-74q-170 11 -277 11q-113 0 -278 -11q-122 281 -313 643 q-57 2 -119 8l3 -416q2 -77 13 -95.5t31 -26.5q14 -7 179 -39v-74q-233 11 -374 11q-139 0 -370 -11v74q170 31 191.5 48t27.5 67q3 27 4 513l-1 298q0 210 -8 253q-6 31 -27.5 46.5t-141.5 36.5zM531 753q50 -2 74 -2q140 0 206.5 66.5t66.5 202.5q0 128 -63 195.5 t-171 67.5q-44 0 -114 -7z" glyph-name="R" horiz-adv-x="1493" unicode="R"/>
<glyph d="M1000 1002h-100q-33 192 -100 257.5t-182 65.5q-103 0 -160.5 -53.5t-57.5 -136.5q0 -74 53 -134q53 -61 252 -151t278 -190q79 -101 79 -250q0 -180 -135.5 -315.5t-437.5 -135.5q-108 0 -204 16q-73 11 -181 46q17 176 17 347v67h98q38 -199 94 -266q75 -91 208 -91 q106 0 170 63t64 161q0 62 -26.5 110t-79 87t-190.5 103q-212 100 -284 193q-72 92 -72 217q0 184 136 305t392 121q170 0 369 -65q-6 -157 -6 -218q0 -71 6 -153z" glyph-name="S" horiz-adv-x="1130" unicode="S"/>
<glyph d="M1344 987h-93q-69 211 -84.5 239t-43.5 39.5t-178 11.5h-97v-934q0 -174 12 -210q6 -19 29.5 -30.5t181.5 -39.5v-74q-305 11 -392 11q-118 0 -361 -11v74q160 28 190 44q20 11 27.5 36.5t7.5 209.5v924h-168q-85 0 -112.5 -14t-45.5 -51q-27 -56 -76 -225h-91 q17 147 21 203t9 218q396 -11 774 -9q320 3 460 9q1 -193 30 -421z" glyph-name="T" horiz-adv-x="1386" unicode="T"/>
<glyph d="M11 1334v74q234 -11 375 -11t371 11v-74q-147 -24 -184 -41q-24 -10 -32 -29q-10 -25 -10 -132v-512q0 -198 22 -269q28 -94 108 -151t226 -57q161 0 243 65.5t105.5 172.5t23.5 367q0 60 -8 338q-5 154 -15 181q-6 16 -21 25q-19 13 -130 34q-13 3 -39 8v74 q211 -11 299 -11q104 0 272 11v-74q-152 -28 -176 -45t-29 -50q-9 -56 -12 -509q-2 -260 -13 -341q-17 -111 -54.5 -180.5t-110 -128.5t-160.5 -86q-116 -35 -248 -35q-223 0 -354 64.5t-182.5 169t-51.5 305.5v618q0 119 -12 150q-9 20 -31.5 30t-171.5 38z" glyph-name="U" horiz-adv-x="1622" unicode="U"/>
<glyph d="M8 1334v74q280 -11 365 -11q114 0 338 11v-74q-124 -30 -141.5 -44t-17.5 -36q0 -21 15 -61l274 -765l186 512l99 289q4 14 4 26q0 23 -26 37q-6 3 -135 42v74q162 -11 253 -11q83 0 242 11v-74q-100 -23 -133 -47q-19 -13 -34 -41.5t-193 -475.5q-125 -316 -310 -811 h-90l-309 805q-176 440 -200 481q-13 23 -33 37q-28 20 -154 52z" glyph-name="V" horiz-adv-x="1473" unicode="V"/>
<glyph d="M11 1334v74q166 -11 307 -11q96 0 381 11v-74q-94 -20 -125 -46q-19 -15 -19 -37q0 -13 3 -28q3 -11 81 -248l176 -528q47 113 226 583q-60 165 -81.5 202.5t-47 53t-134.5 48.5v74q244 -11 350 -11q104 0 340 11v-74l-24 -6q-101 -23 -118.5 -37.5t-17.5 -36.5 q0 -11 3 -26l117 -364q68 -212 137 -406q254 737 254 798q0 20 -19 35t-139 43v74q151 -11 240 -11q62 0 263 11v-74q-111 -21 -145.5 -49t-65.5 -118q-21 -64 -86 -233q-131 -343 -348 -975h-93q-97 316 -319 891q-203 -515 -338 -891h-93l-257 726q-170 464 -207 537 q-19 39 -42 56q-32 25 -159 56z" glyph-name="W" horiz-adv-x="2175" unicode="W"/>
<glyph d="M57 1334v74q242 -11 379 -11q147 0 361 11v-74q-121 -21 -143 -37q-17 -12 -17 -31q0 -22 11 -43q28 -52 212 -337q283 352 283 394q0 12 -12.5 20t-149.5 34v74q204 -11 276 -11q50 0 268 11v-74q-97 -16 -138 -36.5t-74 -53.5q-13 -14 -215 -255q-118 -141 -169 -210 q140 -226 340 -528q67 -100 106.5 -127t173.5 -61v-74q-201 11 -374 11q-171 0 -344 -11v74q110 23 133 40q16 12 16 27q0 14 -11 34.5t-234 375.5q-118 -138 -280 -358q-30 -40 -30 -57q0 -16 15 -26q22 -14 155 -36v-74q-174 11 -288 11q-121 0 -277 -11v74q111 16 141 30 q44 21 96 75q88 90 399 480q-290 463 -353 549q-41 54 -82.5 78.5t-173.5 58.5z" glyph-name="X" horiz-adv-x="1579" unicode="X"/>
<glyph d="M1 1334v74l197 -7q134 -4 160 -4q98 0 359 11v-74q-114 -26 -131.5 -39.5t-17.5 -28.5q0 -16 15 -41q36 -59 118 -206t163 -282l281 513q10 19 10 28q0 14 -14.5 24t-133.5 32v74l49 -3q166 -8 223 -8q62 0 261 11v-74q-130 -25 -170.5 -50.5t-85.5 -92.5 q-29 -43 -359 -588v-360q1 -87 10.5 -108t36.5 -34q17 -8 144 -32l33 -6v-74q-272 11 -372 11q-72 0 -384 -11v74q32 6 48 8q108 16 138 33q20 11 29.5 36.5t9.5 147.5v295q-67 102 -197 313q-169 273 -204.5 321t-74.5 72t-141 45z" glyph-name="Y" horiz-adv-x="1536" unicode="Y"/>
<glyph d="M208 1010h-83q20 182 30 398q298 -11 535 -11q230 0 561 11v-84q-100 -137 -347 -495q-391 -567 -477 -711h441q121 0 158.5 14.5t71.5 62.5q50 71 90 200h90l-46 -225q-10 -53 -28 -181l-586 11q-152 0 -577 -11v80l563 819l255 385h-407q-82 0 -113 -10.5t-46 -34.5 q-36 -53 -63 -148q-7 -24 -22 -70z" glyph-name="Z" horiz-adv-x="1323" unicode="Z"/>
<glyph d="M654 1443v-108h-189v-1641h189v-108q-163 6 -237 6q-89 0 -224 -6q7 295 7 913q0 737 -7 944q152 -5 237 -5q43 0 224 5z" glyph-name="bracketleft" horiz-adv-x="748" unicode="["/>
<glyph d="M110 1426h198l734 -1463h-198z" glyph-name="backslash" horiz-adv-x="1153" unicode="\"/>
<glyph d="M92 -414v108h190v1641h-190v108q163 -6 238 -6q88 0 223 6q-6 -295 -6 -913q0 -736 6 -944q-151 5 -237 5q-43 0 -224 -5z" glyph-name="bracketright" horiz-adv-x="748" unicode="]"/>
<glyph d="M150 666l411 718h82l404 -718h-159l-295 512l-290 -512h-153z" glyph-name="asciicircum" horiz-adv-x="1194" unicode="^"/>
<glyph d="M-12 -154h1048v-102h-1048v102z" glyph-name="underscore" horiz-adv-x="1024" unicode="_"/>
<glyph d="M477 1077h-88q-166 193 -299 326l16 24q72 -4 120 -4q37 0 136 4q26 -89 42 -136z" glyph-name="grave" horiz-adv-x="682" unicode="`"/>
<glyph d="M222 621l-89 9q29 142 37 252q182 88 380 88q115 0 183.5 -37t94.5 -101t26 -199l-4 -340q0 -97 16.5 -122.5t43.5 -25.5q32 0 95 35l38 -58q-136 -96 -201 -126q-47 -21 -90 -21q-57 0 -98 31t-56 92q-120 -83 -168 -103.5t-116 -20.5q-103 0 -168.5 69.5t-65.5 185.5 q0 82 44 152q30 49 111 94l363 172q-2 119 -37.5 160t-105.5 41q-71 0 -123.5 -46.5t-109.5 -180.5zM598 539q-165 -77 -208 -126t-43 -128q0 -81 32 -119t83 -38q39 0 75.5 26t49 73.5t12.5 199.5q0 35 -1 112z" glyph-name="a" horiz-adv-x="1024" unicode="a"/>
<glyph d="M-31 1247v70q197 43 395 142l49 -31q-27 -187 -27 -542q0 -33 1 -97q124 121 181 152.5t122 31.5q127 0 215 -104t88 -309q0 -263 -168 -429t-432 -166q-129 0 -276 58q9 281 9 695q0 462 -6 487q-10 49 -65 49q-25 0 -86 -7zM387 134q71 -38 130 -38q89 0 136 62 q67 88 67 274q0 191 -65 286q-43 61 -113 61q-65 0 -110 -57.5t-45 -191.5v-396z" glyph-name="b" horiz-adv-x="1067" unicode="b"/>
<glyph d="M833 617l-90 5q-10 142 -58.5 197t-122.5 55q-92 0 -147 -70q-73 -94 -73 -271q0 -181 80 -275t191 -94q49 0 98.5 15.5t132.5 60.5l47 -76q-167 -130 -244.5 -164.5t-165.5 -34.5q-178 0 -295 124.5t-117 337.5q0 227 137 390t381 163q141 0 304 -75q-20 -80 -39 -189 q-12 -64 -19 -99z" glyph-name="c" horiz-adv-x="918" unicode="c"/>
<glyph d="M534 1245v73q229 49 398 141l48 -35q-14 -127 -21 -292t-7 -368q0 -363 2 -513q1 -70 18 -87.5t61 -17.5q10 0 74 1v-71q-123 -17 -210.5 -39.5t-188.5 -61.5l-49 24q11 63 17 130q-114 -95 -189 -130q-53 -25 -114 -25q-118 0 -199 101q-106 129 -106 337 q0 100 28.5 200t91 177t166 128.5t211.5 51.5q24 0 54 -5t66 -15q3 110 3 155q0 106 -16 128.5t-57 22.5q-29 0 -81 -10zM687 513q0 204 -29 263q-38 76 -122 76q-71 0 -128 -77.5t-57 -265.5q0 -184 67 -278q46 -64 118 -64q85 0 124 87q27 63 27 259z" glyph-name="d" horiz-adv-x="1110" unicode="d"/>
<glyph d="M858 260l52 -76q-157 -133 -289 -193q-57 -26 -146 -26q-186 0 -284 110q-124 138 -124 368q0 239 142 388t352 149q192 0 281 -116q59 -76 68 -237q-50 -33 -93 -75q-105 4 -214 4q-142 0 -264 -4q-1 -22 -1 -37q0 -141 64.5 -248t193.5 -107q63 0 120.5 21t141.5 79z M341 655q56 -2 92 -2q86 0 210 8q-6 127 -42.5 169t-100.5 42q-62 0 -106 -50t-53 -167z" glyph-name="e" horiz-adv-x="961" unicode="e"/>
<glyph d="M837 1134l-87 7q-24 132 -60.5 171.5t-89.5 39.5q-67 0 -107.5 -59t-40.5 -270q0 -13 1 -87l99 -3q75 0 163 13l15 -24q-34 -55 -63 -117q-106 14 -214 16l3 -568l-1 -56q0 -66 23 -90t117 -41q12 -2 38 -7v-70q-234 11 -329 11q-120 0 -270 -11v70q110 29 127 48.5 t22 120t6 593.5q-75 0 -147 -9v71q75 29 147 71q0 151 8 187q15 73 63 134q62 80 165.5 132t218.5 52q119 0 252 -46q-21 -78 -29 -115z" glyph-name="f" horiz-adv-x="705" unicode="f"/>
<glyph d="M1028 946l10 -19q-33 -54 -58 -114q-64 12 -131 13q51 -90 51 -176q0 -95 -47.5 -174t-144 -126t-202.5 -47q-23 0 -55 3t-73 8q-63 -57 -63 -90q0 -18 23 -30q36 -19 178 -19l165 2q202 0 267 -53t65 -161q0 -107 -64 -196t-204.5 -143t-329.5 -54q-207 0 -312 74 q-73 52 -73 127q0 30 13 50t53 45q84 52 146 101q-76 27 -107.5 68t-31.5 95q0 32 8.5 48t36.5 39q103 81 149 123q-85 41 -123 95q-54 76 -54 184q0 155 105 253t298 98q48 0 96.5 -9t97.5 -27q112 -2 117 -2q99 0 194 14zM384 664q0 -152 53 -230q31 -46 86 -46 q46 0 79.5 47.5t33.5 178.5q0 154 -48 225q-31 45 -86 45q-49 0 -83.5 -47.5t-34.5 -172.5zM344 -49q-94 -73 -94 -140q0 -46 55.5 -88t168.5 -42q151 0 236.5 54t85.5 123q0 42 -30 62q-39 27 -161 27l-124 -2q-33 0 -137 6z" glyph-name="g" horiz-adv-x="1044" unicode="g"/>
<glyph d="M16 1250v72q159 37 233.5 63.5t160.5 73.5l50 -31q-11 -95 -18 -249q-9 -219 -9 -338v-61q126 128 181 158t136 30q110 0 168.5 -51t70.5 -132q8 -56 8 -338q0 -229 4 -285q3 -40 19 -57t89 -36q13 -3 39 -10v-70q-171 11 -270 11q-105 0 -264 -11v70q88 23 104.5 42.5 t16.5 84.5q0 426 -1 443q-6 81 -39 114.5t-91 33.5q-55 0 -101 -36.5t-61 -99.5q-10 -43 -10 -246q0 -224 4 -255t24 -49t92 -32v-70q-156 11 -247 11q-61 0 -289 -11v70q17 5 26 7q81 20 95 35q20 23 24 90q8 143 8 552l-3 436q0 42 -16 60.5t-45 18.5q-38 0 -89 -8z" glyph-name="h" horiz-adv-x="1151" unicode="h"/>
<glyph d="M331 1445q67 0 114.5 -47.5t47.5 -114.5t-47.5 -114.5t-114.5 -47.5t-114.5 47.5t-47.5 114.5t47 114.5t115 47.5zM41 773v72q227 40 392 139l51 -27q-14 -121 -18 -216q-7 -141 -7 -446q0 -128 9 -163q6 -23 23.5 -34.5t119.5 -38.5v-70q-139 11 -254 11 q-110 0 -321 -11v70l26 6q88 20 104 34.5t20 51.5q9 95 9 392q0 172 -9 200q-12 37 -57 37q-39 0 -88 -7z" glyph-name="i" horiz-adv-x="641" unicode="i"/>
<glyph d="M316 1444q68 0 116 -47.5t48 -115.5t-48 -116t-116 -48t-116 48t-48 116t48 115.5t116 47.5zM22 775v67q137 33 222 64t176 78l47 -29q-13 -110 -16 -177q-7 -153 -8 -457q-1 -249 -11 -338q-15 -146 -67 -229t-150 -133.5t-207 -50.5q-81 0 -166 38q25 102 32 273h87 q6 -121 35.5 -160.5t69.5 -39.5t66 34q33 46 41 180q5 96 5 441q0 376 -5 402q-9 46 -65 46q-20 0 -86 -9z" glyph-name="j" horiz-adv-x="598" unicode="j"/>
<glyph d="M18 1252v65q234 56 397 142l48 -33q-15 -126 -20 -259.5t-6 -649.5q48 49 170 181q83 90 90 103t7 25q0 17 -16 28q-19 15 -77 21v71q183 -11 247 -11t239 11v-71q-116 -21 -174 -57q-82 -49 -263 -226q21 -31 244 -341q83 -116 124 -146q31 -23 107 -46v-70 q-185 11 -265 11q-79 0 -259 -11v70q43 11 52 19.5t9 21.5q0 12 -8 29q-12 21 -152 245l-75 121v-218q0 -132 5 -150q6 -26 22.5 -38.5t89.5 -29.5v-70q-161 11 -265 11q-101 0 -271 -11v70q104 22 127 48q17 20 22 136.5t5 685.5q0 267 -5 289q-11 39 -66 39q-28 0 -83 -5z " glyph-name="k" horiz-adv-x="1110" unicode="k"/>
<glyph d="M20 1250v70q147 35 225.5 63t169.5 76l49 -35q-14 -128 -21.5 -302t-7.5 -395q0 -476 2.5 -538.5t18.5 -79.5q24 -26 128 -50v-70q-157 11 -284 11q-130 0 -287 -11v70q111 25 131 46t24 94q6 106 6 563q0 421 -6 450q-9 46 -69 46q-27 0 -79 -8z" glyph-name="l" horiz-adv-x="618" unicode="l"/>
<glyph d="M23 767v68q226 46 397 138l47 -25q-13 -74 -19 -171q116 130 170.5 161.5t130.5 31.5q104 0 169 -54q48 -39 75 -139q96 112 166.5 152.5t150.5 40.5q88 0 149.5 -42t78.5 -110.5t17 -255.5l-1 -158q0 -227 9 -273q4 -21 21 -33.5t120 -38.5v-70q-163 11 -265 11 t-266 -11v70q86 24 100.5 38.5t17.5 51.5q5 48 5 332q0 148 -7 189q-10 58 -39.5 84t-75.5 26q-61 0 -108.5 -42t-60.5 -119q-7 -41 -7 -287q0 -171 4 -197t21.5 -40.5t93.5 -35.5v-70q-129 11 -238 11q-103 0 -263 -11v70q79 21 95.5 35.5t20.5 42.5q6 38 6 288 q0 194 -4 226q-8 68 -37 98.5t-83 30.5q-62 0 -106.5 -40.5t-56.5 -99.5t-12 -186q0 -289 2 -311q3 -31 23 -49t94 -35v-70q-168 11 -266 11t-269 -11v70q122 28 136 54q20 36 20 391q0 208 -8 230q-15 42 -70 42q-33 0 -78 -9z" glyph-name="m" horiz-adv-x="1706" unicode="m"/>
<glyph d="M24 765v72q132 28 219.5 59t173.5 79l52 -30q-14 -76 -19 -166q111 126 167 158.5t132 32.5q75 0 129.5 -29t81 -73.5t34.5 -119.5q5 -47 5 -226l-1 -178q0 -172 4 -202.5t19.5 -44t88.5 -29.5q12 -3 38 -9v-70q-167 11 -259 11q-93 0 -274 -11v70q77 19 94 34.5t21 51.5 q6 50 6 331q0 199 -17 240q-28 65 -105 65q-56 0 -102.5 -40t-59.5 -102t-13 -273q0 -189 8 -235q4 -25 18 -36.5t94 -35.5v-70q-152 11 -254 11q-95 0 -281 -11v70q110 29 124.5 42t19.5 60q9 108 9 280q0 263 -6 289q-12 44 -61 44q-31 0 -86 -9z" glyph-name="n" horiz-adv-x="1151" unicode="n"/>
<glyph d="M73 485q0 222 137.5 358.5t365.5 136.5q226 0 353.5 -126.5t127.5 -348.5q0 -256 -135.5 -398t-365.5 -142q-232 0 -357.5 132t-125.5 388zM372 538q0 -281 79 -405q45 -71 129 -71q77 0 119 61q60 87 60 301q0 273 -75 388q-46 72 -129 72q-78 0 -122 -62 q-61 -85 -61 -284z" glyph-name="o" horiz-adv-x="1130" unicode="o"/>
<glyph d="M8 762v69q163 41 231.5 66t163.5 76l49 -25q-12 -76 -16 -159q121 126 157 146q64 35 139 35q129 0 220.5 -110.5t91.5 -317.5q0 -248 -146 -407.5t-330 -159.5q-38 0 -74 9t-69 26q-1 -49 -1 -75q0 -220 14.5 -243t130.5 -53q11 -3 34 -9v-70q-199 11 -308 11 q-112 0 -297 -11v70q111 28 134 49t26 57q7 81 7 503q0 446 -7 481q-11 51 -66 51q-29 0 -84 -9zM425 143q40 -31 77.5 -47t71.5 -16q83 0 125 59q67 95 67 290q0 189 -65 281q-46 65 -116 65q-58 0 -103 -46.5t-54 -151.5q-3 -40 -3 -434z" glyph-name="p" horiz-adv-x="1110" unicode="p"/>
<glyph d="M921 980l62 -34q-23 -96 -29 -166q-9 -115 -9 -403q0 -539 4.5 -606t28 -91t136.5 -50v-70q-208 11 -313 11q-122 0 -295 -11v70q136 31 157.5 54t21.5 104v17l1 326q-109 -94 -190 -133q-50 -23 -106 -23q-138 0 -231 110.5t-93 327.5q0 288 191 441q143 116 324 116 q67 0 123.5 -19t122.5 -64q50 40 94 93zM683 535q0 148 -10 192q-16 63 -49 92.5t-91 29.5q-74 0 -118 -61q-68 -94 -68 -272q0 -196 65 -287q49 -68 122 -68q52 0 89 36.5t49 107.5q5 31 11 230z" glyph-name="q" horiz-adv-x="1067" unicode="q"/>
<glyph d="M22 766v70q248 54 396 136l48 -27q-17 -105 -20 -231q102 160 150.5 197t114.5 37q45 0 99 -24q-31 -125 -48 -259h-68q-5 40 -26 59t-50 19q-44 0 -83 -41q-59 -63 -82 -155q-12 -47 -12 -162q0 -203 4 -234t22 -46t111 -36q13 -3 39 -10v-70q-190 11 -307 11 q-126 0 -288 -11v70q120 25 136 56q23 43 23 411q0 195 -15 221.5t-54 26.5q-30 0 -90 -8z" glyph-name="r" horiz-adv-x="788" unicode="r"/>
<glyph d="M87 320h90q26 -138 86.5 -196.5t140.5 -58.5q61 0 96.5 32.5t35.5 79.5q0 43 -35 83t-178.5 123t-191.5 151q-49 68 -49 152q0 123 99 208.5t284 85.5q133 0 273 -60q-13 -55 -29 -251l-87 3q-21 119 -71.5 168t-117.5 49q-55 0 -85.5 -28.5t-30.5 -73.5q0 -39 27 -71 q37 -44 165 -116q161 -91 210 -157t49 -155q0 -121 -92 -222t-317 -101q-130 0 -286 46q13 176 14 309z" glyph-name="s" horiz-adv-x="831" unicode="s"/>
<glyph d="M693 936l13 -14q-32 -56 -57 -116q-107 11 -231 16l-3 -119l-3 -137l-3 -136q0 -191 31.5 -239.5t82.5 -48.5q39 0 126 38l36 -72q-151 -91 -201 -109q-67 -24 -128 -24q-93 0 -148.5 59t-55.5 174l4 231l8 383l-81 2q-11 0 -62 -2v74q96 34 176.5 111t162.5 228h88 q-26 -166 -30 -299q87 -2 106 -2q37 0 169 2z" glyph-name="t" horiz-adv-x="705" unicode="t"/>
<glyph d="M1121 144v-74q-144 -19 -229.5 -41.5t-169.5 -58.5l-47 30q12 69 18 144q-127 -117 -177 -143t-116 -26q-76 0 -130.5 27.5t-81.5 70t-35 111.5q-4 44 -4 228l1 199q0 164 -22 191t-138 37v67q228 17 393 66l46 -29q-8 -50 -13 -148q-8 -177 -8 -311q0 -207 27.5 -267 t103.5 -60q60 0 102.5 38t55.5 116q9 49 9 315q0 155 -18.5 177.5t-139.5 35.5v67q174 17 249 30.5t147 35.5l47 -28q-15 -90 -19 -170q-8 -133 -8 -401q0 -176 10 -199q13 -32 63 -32h11q25 1 73 2z" glyph-name="u" horiz-adv-x="1130" unicode="u"/>
<glyph d="M34 876v70q162 -11 278 -11q118 0 274 11v-70q-83 -19 -95 -29q-16 -14 -16 -34q0 -17 8 -42l148 -412l146 414q7 22 7 38q0 17 -13 30.5t-70 34.5v70q115 -11 183 -11q72 0 170 11v-70q-93 -30 -121.5 -70.5t-169.5 -415.5q-77 -203 -169 -425h-83l-212 520l-124 296 q-19 33 -37.5 47.5t-103.5 47.5z" glyph-name="v" horiz-adv-x="1087" unicode="v"/>
<glyph d="M41 876v70q164 -11 276 -11q117 0 263 11v-70q-69 -18 -83.5 -31t-14.5 -31q0 -20 22 -81l145 -398l155 351q-49 125 -71 148t-95 42v70l60 -3q153 -8 213 -8q21 0 264 11v-70q-74 -14 -96 -31q-16 -14 -16 -32t19 -70l139 -380l128 365q22 62 22 83q0 15 -9 26 q-13 15 -47 28q-8 4 -25 11v70q130 -11 181 -11q50 0 173 11v-70q-83 -29 -103.5 -48t-51.5 -99l-304 -764h-85q-82 211 -236 575l-257 -575h-86l-293 711q-46 113 -66 134t-121 66z" glyph-name="w" horiz-adv-x="1686" unicode="w"/>
<glyph d="M59 876v70q175 -11 265 -11q86 0 268 11v-70q-56 -8 -76 -23q-13 -10 -13 -23q0 -23 99 -187q140 151 140 192q0 11 -8.5 18.5t-59.5 22.5v70q90 -11 182 -11q94 0 182 11v-70q-61 -11 -90 -23q-20 -8 -41.5 -25t-61.5 -66l-164 -202l212 -355q48 -72 92 -107 q30 -23 88 -39v-70q-137 11 -251 11q-124 0 -292 -11v70q60 11 83 29q12 10 12 26t-7 33q-23 48 -92 161q-12 20 -35 60q-194 -228 -194 -256q0 -13 14 -24q23 -17 92 -29v-70q-144 11 -199 11q-61 0 -193 -11v70q49 3 75 17q35 20 87 80q10 11 243 291 q-191 325 -232.5 368.5t-124.5 60.5z" glyph-name="x" horiz-adv-x="1087" unicode="x"/>
<glyph d="M1 876v70q182 -11 281 -11q103 0 272 11v-70q-16 -3 -24 -4q-61 -10 -75 -21.5t-14 -29.5q0 -15 21 -66l150 -374l119 352q19 57 19 85q0 17 -13 29.5t-68 28.5v70q114 -11 187 -11q79 0 164 11v-70q-75 -24 -97 -42t-46.5 -72.5t-152.5 -403.5q-161 -440 -209 -540 q-68 -140 -147 -194t-161 -54q-33 0 -91 11q-21 79 -35 115.5t-48 105.5l56 36q51 -47 86 -63t72 -16q66 0 119.5 48t115.5 222l-285 645q-53 122 -80 146.5t-116 55.5z" glyph-name="y" horiz-adv-x="1024" unicode="y"/>
<glyph d="M205 631h-85q14 111 18 315q208 -11 388 -11q188 0 386 11v-81q-28 -38 -344 -506l-166 -247h58q199 0 237.5 10t58 39t44.5 162h92q-11 -127 -13 -334q-229 11 -406 11q-176 0 -415 -11v77q158 220 512 752q-34 -1 -53 -1q-167 0 -203.5 -8.5t-54.5 -31.5 q-27 -35 -54 -146z" glyph-name="z" horiz-adv-x="981" unicode="z"/>
<glyph d="M720 1387v-45q-100 -19 -147.5 -70.5t-47.5 -118.5q0 -65 24 -165t24 -171q0 -72 -41 -143t-118 -120q-53 -34 -167 -65q122 -39 177 -76q76 -51 113.5 -120t37.5 -136q0 -55 -24.5 -156t-24.5 -170q0 -75 45 -126.5t149 -71.5v-47q-92 0 -134 11q-73 18 -137.5 62.5 t-103 110.5t-38.5 138q0 64 31 184q23 89 23 155q0 83 -49 138.5t-147 71.5v61q97 16 146.5 74t49.5 144q0 65 -22 150q-31 119 -31 178q0 67 38.5 134t97.5 109t129 62q54 15 147 18z" glyph-name="braceleft" horiz-adv-x="811" unicode="{"/>
<glyph d="M483 1426h186v-1703h-186v1703z" glyph-name="bar" horiz-adv-x="1153" unicode="|"/>
<glyph d="M91 -414v46q99 19 147 70.5t48 117.5t-24 166t-24 171q0 72 41 143t118 120q52 34 167 65q-123 39 -178 76q-75 51 -113 120t-38 136q0 55 24.5 156t24.5 170q0 75 -44.5 126t-148.5 72v46q92 0 133 -10q74 -18 138.5 -62.5t103 -111t38.5 -137.5q0 -64 -31 -184 q-23 -89 -23 -155q0 -83 49 -138.5t147 -71.5v-61q-97 -16 -146.5 -74t-49.5 -144q0 -65 22 -150q30 -119 30 -178q0 -68 -38 -134.5t-97 -109t-130 -61.5q-53 -15 -146 -19z" glyph-name="braceright" horiz-adv-x="811" unicode="}"/>
<glyph d="M1169 844h63q-7 -171 -86 -257t-195 -86q-55 0 -116.5 17.5t-259.5 100.5q-142 60 -206 60q-68 0 -112.5 -41.5t-59.5 -135.5h-64q9 177 85 260t186 83q58 0 111 -15q100 -27 273 -103q96 -41 144 -55q30 -8 64 -8q69 0 116 46t57 134z" glyph-name="asciitilde" unicode="~"/>
<glyph glyph-name="nonbreakingspace" horiz-adv-x="522" unicode=" "/>
<glyph d="M355 1043q74 0 125.5 -52t51.5 -125q0 -74 -52 -125.5t-125 -51.5q-74 0 -126 51.5t-52 125.5q0 73 52 125t126 52zM217 -429l-49 38q57 310 143 992h93q75 -624 125 -920q-194 -61 -312 -110z" glyph-name="exclamdown" horiz-adv-x="705" unicode="¡"/>
<glyph d="M493 1429h117v-232h39q125 1 288 -71q-39 -154 -57 -289l-93 6q-8 136 -56 196q-36 45 -121 55v-707q42 -6 60 -6q43 0 91 16.5t127 63.5l49 -74q-127 -103 -196.5 -143t-130.5 -56v-227h-117v227q-116 13 -200 67t-132 162t-48 235q0 209 121 361q93 118 259 173v243z M493 1068q-61 -53 -81 -99q-42 -96 -42 -218q0 -116 40 -204q27 -56 83 -105v626z" glyph-name="cent" horiz-adv-x="961" unicode="¢"/>
<glyph d="M935 1091l-77 17q0 104 -26 150q-40 71 -126 71q-71 0 -118.5 -55t-47.5 -160q0 -63 17 -190q10 -75 14 -128q84 -1 89 -1q83 0 185 12l13 -21q-33 -56 -61 -116q-108 11 -211 13q4 -66 4 -115q0 -121 -46.5 -203t-191.5 -196q99 55 148.5 71.5t89.5 16.5q52 0 159 -42 q75 -29 102 -29q70 0 173 102l65 -60q-122 -165 -189 -214t-125 -49q-67 0 -198.5 49.5t-190.5 49.5q-45 0 -105.5 -21t-160.5 -78l-57 94q157 108 208 194t51 226q0 62 -13 204q-102 0 -199 -13l-13 21q33 54 56 109q72 -3 142 -4q-23 118 -23 203q0 190 128 311t336 121 q175 0 318 -113q-70 -110 -119 -227z" glyph-name="sterling" horiz-adv-x="1110" unicode="£"/>
<glyph d="M939 1053l130 131l121 -124l-129 -130q79 -124 79 -261q0 -133 -79 -257l129 -128l-121 -123l-130 128q-62 -40 -127.5 -60t-135.5 -20q-66 0 -130.5 20t-126.5 60l-128 -128l-124 123l130 128q-80 123 -80 260q0 133 80 259l-130 129l121 124l131 -131q64 40 129 60 t131 20q67 0 132 -20t128 -60zM967 671q0 119 -84.5 203.5t-203.5 84.5q-120 0 -204.5 -84.5t-84.5 -203.5q0 -120 84.5 -204.5t204.5 -84.5q119 0 203.5 84.5t84.5 204.5z" glyph-name="currency" horiz-adv-x="1409" unicode="¤"/>
<glyph d="M660 1091h399l90 167q6 12 6 20q0 14 -14.5 24t-133.5 32v74l49 -3q166 -8 223 -8q62 0 261 11v-74q-113 -21 -151.5 -40t-65.5 -50.5t-101 -152.5h257v-110h-325l-118 -195h443v-110h-510l-44 -73v-360q1 -87 10.5 -108t36.5 -34q17 -8 144 -32l33 -6v-74 q-272 11 -372 11q-72 0 -384 -11v74q32 6 48 8q108 16 138 33q20 11 29.5 36.5t9.5 147.5v295q-32 48 -60 93h-497v110h428l-122 195h-306v110h237q-96 153 -138 185.5t-159 57.5v74l197 -7q134 -4 160 -4q98 0 359 11v-74q-114 -26 -131.5 -39.5t-17.5 -28.5t15 -41z M722 981l115 -199l27 -45q97 178 134 244h-276z" glyph-name="yen" horiz-adv-x="1536" unicode="¥"/>
<glyph d="M483 1426h186v-729h-186v729zM483 451h186v-728h-186v728z" glyph-name="brokenbar" horiz-adv-x="1153" unicode="¦"/>
<glyph d="M739 1097l-84 26q6 53 6 85q0 71 -42.5 112t-111.5 41q-64 0 -104 -37t-40 -89q0 -40 32 -83q32 -44 212.5 -191.5t233 -232t52.5 -174.5q0 -99 -53.5 -186t-195.5 -196q113 -93 150 -153.5t37 -129.5q0 -83 -46 -159.5t-134 -118t-196 -41.5q-98 0 -185.5 32t-164.5 96 q57 96 85 152t45 87l74 -30q-9 -54 -9 -83q0 -69 44 -112t114 -43q61 0 98.5 35.5t37.5 87.5q0 42 -31.5 86.5t-156.5 148.5q-223 185 -280 273.5t-57 186.5q0 104 63.5 195t189.5 177q-109 91 -148.5 156t-39.5 128q0 128 100 222t265 94q105 0 206 -37q65 -24 148 -84 q-75 -137 -114 -241zM569 234q52 51 75.5 97.5t23.5 100.5q0 70 -42 133q-62 96 -229 231q-104 -93 -104 -199q0 -47 23 -96t75 -103z" glyph-name="section" horiz-adv-x="961" unicode="§"/>
<glyph d="M521 1379q54 0 92 -38t38 -92t-38 -92.5t-92 -38.5q-55 0 -93 38.5t-38 92.5t38 92t93 38zM161 1379q55 0 93 -38.5t38 -92.5t-38.5 -92t-92.5 -38t-92 38t-38 92t38 92.5t92 38.5z" glyph-name="dieresis" horiz-adv-x="682" unicode="¨"/>
<glyph d="M768 1387q179 0 349 -91.5t265.5 -262t95.5 -355.5q0 -184 -94 -353t-263 -262.5t-353 -93.5t-352.5 93.5t-262.5 262.5t-94 353q0 185 95.5 355.5t265.5 262t348 91.5zM768 1298q-156 0 -304.5 -80t-232 -229.5t-83.5 -310.5t82 -308.5t230 -229.5t308 -82 q161 0 308.5 82t229.5 229.5t82 308.5t-83 310.5t-231.5 229.5t-305.5 80zM1103 1106v-264h-38q-20 101 -87.5 158.5t-158.5 57.5q-110 0 -184 -87.5t-74 -276.5q0 -202 72.5 -288t180.5 -86q148 0 261 138v-70q-121 -127 -318 -127q-188 0 -304.5 113.5t-116.5 293.5 q0 191 125 315t315 124q86 0 197 -40q32 -12 46 -12q18 0 30.5 12t15.5 39h38z" glyph-name="copyright" horiz-adv-x="1536" unicode="©"/>
<glyph d="M186 1218l-79 7q20 93 25 158q122 55 254 55q114 0 161 -46t47 -161v-23q-3 -109 -3 -176q0 -54 9 -70q7 -11 19 -11q15 0 64 26l33 -47q-95 -61 -132 -76.5t-67 -15.5q-39 0 -67 17.5t-40 47.5q-61 -41 -94.5 -53t-74.5 -12q-78 0 -122.5 43.5t-44.5 112.5q0 44 21 79.5 t68 64.5q25 16 139 63l103 42q-1 66 -20 88t-58 22q-42 0 -73.5 -27t-67.5 -108zM406 1164q-89 -39 -113 -66t-24 -70q0 -45 17 -66t43 -21q38 0 57.5 27.5t19.5 141.5v54z" glyph-name="ordfeminine" horiz-adv-x="725" unicode="ª"/>
<glyph d="M401 834h102l-181 -374l181 -371h-102q-34 39 -344 371q249 264 344 374zM804 834h101l-177 -374l177 -371h-101l-192 211q-39 43 -153 160q93 95 345 374z" glyph-name="guillemotleft" horiz-adv-x="961" unicode="«"/>
<glyph d="M130 1012h1105v-672h-184l-1 487h-920v185z" glyph-name="logicalnot" unicode="¬"/>
<glyph d="M79 351l-25 28q40 106 62 207q99 -7 218 -7q185 0 308 7l23 -30q-39 -99 -65 -205q-154 6 -331 6q-112 0 -190 -6z" glyph-name="sfthyphen" horiz-adv-x="725" unicode="­"/>
<glyph d="M768 1387q179 0 349 -91.5t265.5 -262t95.5 -355.5q0 -184 -94 -353t-263 -262.5t-353 -93.5t-352.5 93.5t-262.5 262.5t-94 353q0 185 95.5 355.5t265.5 262t348 91.5zM768 1298q-156 0 -304.5 -80t-232 -229.5t-83.5 -310.5t82 -308.5t230 -229.5t308 -82 q161 0 308.5 82t229.5 229.5t82 308.5t-83 310.5t-231.5 229.5t-305.5 80zM389 1090h362q183 0 254 -44q101 -63 101 -175q0 -71 -44.5 -126.5t-134.5 -80.5l137 -250q30 -54 62 -81q15 -13 43 -18v-34h-242l-205 368h-46v-198q0 -85 22.5 -109t97.5 -27v-34h-423v34 q62 0 80 21q25 29 25 115v472q0 82 -17.5 104.5t-71.5 28.5v34zM676 700q34 -5 56 -5q66 0 112.5 49t46.5 131q0 84 -43.5 127.5t-133.5 43.5h-38v-346z" glyph-name="registered" horiz-adv-x="1536" unicode="®"/>
<glyph d="M-19 1643h1062v-130h-1062v130z" glyph-name="macron" horiz-adv-x="1024" unicode="¯"/>
<glyph d="M405 1384q144 0 245 -101t101 -245q0 -143 -101.5 -244.5t-244.5 -101.5t-244.5 101.5t-101.5 244.5q0 144 101 245t245 101zM405 1254q-90 0 -152.5 -63t-62.5 -152t63 -152t152 -63t152 63t63 152t-63 152t-152 63z" glyph-name="degree" horiz-adv-x="811" unicode="°"/>
<glyph d="M130 938h459v461h185v-461h461v-184h-461v-459h-185v459h-459v184zM130 131h1105v-185h-1105v185z" glyph-name="plusminus" unicode="±"/>
<glyph d="M153 1171h-65q33 91 46 193q46 37 97 55.5t108 18.5q114 0 178 -55.5t64 -136.5q0 -56 -27.5 -113.5t-93.5 -128.5q-38 -42 -195 -180l139 -1q95 0 113 9.5t52 67.5h63q-33 -76 -65 -167q-15 -43 -23 -64q-140 7 -243 7q-96 0 -259 -7v56q174 169 237.5 240t99.5 148 q21 43 21 82q0 44 -29 73.5t-74 29.5q-41 0 -79.5 -30t-64.5 -97z" glyph-name="twosuperior" horiz-adv-x="705" unicode="²"/>
<glyph d="M193 1221h-66q21 83 34 163q55 25 104 37.5t92 12.5q95 0 145 -43t50 -106q0 -48 -32 -91.5t-84 -66.5q72 -13 107 -45q61 -54 61 -145q0 -118 -93 -200.5t-257 -82.5q-84 0 -177 33q21 95 31 194h61q6 -79 37 -111.5t80 -32.5q50 0 83.5 38.5t33.5 108.5q0 68 -39 108 t-99 40q-16 0 -45 -5v62q97 26 133.5 63.5t36.5 79.5q0 36 -24 59.5t-62 23.5q-34 0 -62 -23.5t-49 -70.5z" glyph-name="threesuperior" horiz-adv-x="705" unicode="³"/>
<glyph d="M587 1424l13 -26q-151 -147 -302 -321h-88l119 347q100 -4 133 -4q37 0 125 4z" glyph-name="acute" horiz-adv-x="682" unicode="´"/>
<glyph d="M128 935h278v-684q1 -89 22 -115.5t63 -26.5q45 0 86 30.5t78 90.5v705h278v-625l1 -44q0 -90 16 -112q23 -31 51 -31q24 0 42 24q27 36 35 120h43q-4 -141 -78 -218t-180 -77q-73 0 -124 38t-76 119q-75 -83 -144 -120t-147 -37q-40 0 -70 10.5t-79 45.5 q0 -61 5.5 -96.5t29 -121t23.5 -118.5q0 -63 -32.5 -98t-85.5 -35q-51 0 -79.5 30.5t-28.5 89.5q0 41 24 135q32 125 40.5 197.5t8.5 247.5v676z" glyph-name="mu" horiz-adv-x="1130" unicode="µ"/>
<glyph d="M639 1280v-1722h-100v871q-186 8 -301.5 62t-176 164.5t-60.5 247.5q0 158 82 269.5t192 147.5t394 36h440v-44h-44q-64 0 -95 -21.5t-43 -57.5q-7 -23 -7 -124v-1551h-99v1722h-182z" glyph-name="paragraph" horiz-adv-x="1110" unicode="¶"/>
<glyph d="M303 11h81q-30 -53 -68 -104q43 0 71.5 -30.5t28.5 -78.5q0 -77 -62 -124q-82 -62 -248 -62q-22 0 -64 2v74q119 -1 165 29q31 20 31 53q0 18 -10 28.5t-26 10.5q-11 0 -34 -4l-14 45q42 32 65 56.5t84 104.5z" glyph-name="cedilla" horiz-adv-x="682" unicode="¸"/>
<glyph d="M145 1273v49q160 47 286 112l32 -19q-7 -59 -11 -161.5t-4 -248.5q0 -219 7 -238q10 -27 84 -38q9 -1 27 -4v-55q-152 7 -205 7q-40 0 -207 -7v55q100 18 110.5 38t10.5 387q0 98 -12 118q-9 14 -33 14q-28 0 -85 -9z" glyph-name="onesuperior" horiz-adv-x="705" unicode="¹"/>
<glyph d="M54 1138q0 130 90.5 215t247.5 85q153 0 237 -80.5t84 -212.5q0 -142 -91.5 -230.5t-251.5 -88.5q-147 0 -231.5 83.5t-84.5 228.5zM272 1170q0 -157 46 -228q28 -43 75 -43q43 0 67 36q35 50 35 170q0 152 -44 220q-28 42 -76 42q-45 0 -70 -35q-33 -47 -33 -162z" glyph-name="ordmasculine" horiz-adv-x="768" unicode="º"/>
<glyph d="M559 89h-102l180 373l-180 372h102q33 -39 343 -372q-249 -263 -343 -373zM156 89h-102l178 373l-178 372h102l191 -211q40 -43 153 -161q-93 -95 -344 -373z" glyph-name="guillemotright" horiz-adv-x="961" unicode="»"/>
<glyph d="M154 1273v49q160 47 286 112l32 -19q-7 -59 -11 -161.5t-4 -248.5q0 -219 7 -238q10 -27 84 -38q9 -1 27 -4v-55q-152 7 -205 7q-40 0 -207 -7v55q100 18 110.5 38t10.5 387q0 98 -12 118q-9 14 -33 14q-28 0 -85 -9zM1170 1420h150l-805 -1512h-150zM1189 -70v55 q17 4 59.5 12.5t50.5 14.5q11 8 16 23t5 82q-207 -1 -326 -7q1 46 1 69q0 22 -1 66l248 290q31 37 78 99q51 17 76 28.5t71 42.5l31 -22q-15 -176 -15 -454q60 3 117 16l16 -23q-28 -48 -49 -108q-42 3 -84 3q0 -71 5 -83q6 -17 26 -28q14 -8 86 -21v-55q-132 7 -207 7 q-71 0 -204 -7zM1320 229v270l-222 -270h222z" glyph-name="onequarter" horiz-adv-x="1686" unicode="¼"/>
<glyph d="M155 1273v49q160 47 286 112l32 -19q-7 -59 -11 -161.5t-4 -248.5q0 -219 7 -238q10 -27 84 -38q9 -1 27 -4v-55q-152 7 -205 7q-40 0 -207 -7v55q100 18 110.5 38t10.5 387q0 98 -12 118q-9 14 -33 14q-28 0 -85 -9zM1159 1431h150l-805 -1512h-150zM1116 406h-65 q33 91 46 193q46 37 97 55.5t108 18.5q114 0 178 -55.5t64 -136.5q0 -56 -27.5 -113.5t-93.5 -128.5q-38 -42 -195 -180l139 -1q95 0 113 9.5t52 67.5h63q-33 -76 -65 -167q-15 -43 -23 -64q-140 7 -243 7q-96 0 -259 -7v56q174 169 237.5 240t99.5 148q21 43 21 82 q0 44 -29 73.5t-74 29.5q-41 0 -79.5 -30t-64.5 -97z" glyph-name="onehalf" horiz-adv-x="1686" unicode="½"/>
<glyph d="M211 1221h-66q21 83 34 163q55 25 104 37.5t92 12.5q95 0 145 -43t50 -106q0 -48 -32 -91.5t-84 -66.5q72 -13 107 -45q61 -54 61 -145q0 -118 -93 -200.5t-257 -82.5q-84 0 -177 33q21 95 31 194h61q6 -79 37 -111.5t80 -32.5q50 0 83.5 38.5t33.5 108.5q0 68 -39 108 t-99 40q-16 0 -45 -5v62q97 26 133.5 63.5t36.5 79.5q0 36 -24 59.5t-62 23.5q-34 0 -62 -23.5t-49 -70.5zM1159 1431h150l-805 -1512h-150zM1179 -70v55q17 4 59.5 12.5t50.5 14.5q11 8 16 23t5 82q-207 -1 -326 -7q1 46 1 69q0 22 -1 66l248 290q31 37 78 99 q51 17 76 28.5t71 42.5l31 -22q-15 -176 -15 -454q60 3 117 16l16 -23q-28 -48 -49 -108q-42 3 -84 3q0 -71 5 -83q6 -17 26 -28q14 -8 86 -21v-55q-132 7 -207 7q-71 0 -204 -7zM1310 229v270l-222 -270h222z" glyph-name="threequarters" horiz-adv-x="1686" unicode="¾"/>
<glyph d="M469 1043q74 0 125.5 -52t51.5 -126t-52 -126t-125 -52q-74 0 -126 52t-52 126t51.5 126t126.5 52zM702 -45h85q-36 -165 -45 -304q-193 -81 -326 -81q-175 0 -260 92t-85 213q0 54 17.5 105.5t61.5 118.5q22 35 114.5 151.5t101.5 131.5q20 31 37 80t30 139h101 q-3 -130 -27 -224t-99 -254q-57 -122 -57 -189q0 -72 43.5 -116.5t110.5 -44.5q64 0 109.5 36t87.5 146z" glyph-name="questiondown" horiz-adv-x="831" unicode="¿"/>
<glyph d="M892 -11v74q121 22 140 36t19 38q0 14 -6 32q-16 42 -104 252q-141 3 -235 3q-77 0 -257 -3q-111 -262 -111 -287q0 -24 16 -35.5t142 -35.5v-74q-126 11 -241 11q-124 0 -252 -11v74q90 19 124 43q23 16 42 48q39 63 233 488q123 269 351 796h81q93 -235 385 -877 q162 -357 194 -406q22 -34 44 -48t139 -44v-74q-177 11 -329 11q-150 0 -375 -11zM700 1007l-204 -471l198 -1q71 0 204 1zM936 1505h-88q-166 193 -299 326l16 24q72 -4 120 -4q37 0 136 4q26 -89 42 -136z" glyph-name="Agrave" horiz-adv-x="1599" unicode="À"/>
<glyph d="M892 -11v74q121 22 140 36t19 38q0 14 -6 32q-16 42 -104 252q-141 3 -235 3q-77 0 -257 -3q-111 -262 -111 -287q0 -24 16 -35.5t142 -35.5v-74q-126 11 -241 11q-124 0 -252 -11v74q90 19 124 43q23 16 42 48q39 63 233 488q123 269 351 796h81q93 -235 385 -877 q162 -357 194 -406q22 -34 44 -48t139 -44v-74q-177 11 -329 11q-150 0 -375 -11zM700 1007l-204 -471l198 -1q71 0 204 1zM1046 1852l13 -26q-151 -147 -302 -321h-88l119 347q100 -4 133 -4q37 0 125 4z" glyph-name="Aacute" horiz-adv-x="1599" unicode="Á"/>
<glyph d="M892 -11v74q121 22 140 36t19 38q0 14 -6 32q-16 42 -104 252q-141 3 -235 3q-77 0 -257 -3q-111 -262 -111 -287q0 -24 16 -35.5t142 -35.5v-74q-126 11 -241 11q-124 0 -252 -11v74q90 19 124 43q23 16 42 48q39 63 233 488q123 269 351 796h81q93 -235 385 -877 q162 -357 194 -406q22 -34 44 -48t139 -44v-74q-177 11 -329 11q-150 0 -375 -11zM700 1007l-204 -471l198 -1q71 0 204 1zM1116 1519h-104q-95 77 -221 167q-149 -117 -207 -167h-100q127 188 209 320l111 -1q38 0 114 1q45 -87 198 -320z" glyph-name="Acircumflex" horiz-adv-x="1599" unicode="Â"/>
<glyph d="M892 -11v74q121 22 140 36t19 38q0 14 -6 32q-16 42 -104 252q-141 3 -235 3q-77 0 -257 -3q-111 -262 -111 -287q0 -24 16 -35.5t142 -35.5v-74q-126 11 -241 11q-124 0 -252 -11v74q90 19 124 43q23 16 42 48q39 63 233 488q123 269 351 796h81q93 -235 385 -877 q162 -357 194 -406q22 -34 44 -48t139 -44v-74q-177 11 -329 11q-150 0 -375 -11zM700 1007l-204 -471l198 -1q71 0 204 1zM1061 1805h89q-34 -150 -95 -214q-45 -47 -105 -47q-49 0 -169.5 47.5t-152.5 47.5q-23 0 -44.5 -18.5t-44.5 -76.5h-88q32 145 95 212q46 49 101 49 q29 0 61 -8t132.5 -48.5t138.5 -40.5q24 0 42 16t40 81z" glyph-name="Atilde" horiz-adv-x="1599" unicode="Ã"/>
<glyph d="M892 -11v74q121 22 140 36t19 38q0 14 -6 32q-16 42 -104 252q-141 3 -235 3q-77 0 -257 -3q-111 -262 -111 -287q0 -24 16 -35.5t142 -35.5v-74q-126 11 -241 11q-124 0 -252 -11v74q90 19 124 43q23 16 42 48q39 63 233 488q123 269 351 796h81q93 -235 385 -877 q162 -357 194 -406q22 -34 44 -48t139 -44v-74q-177 11 -329 11q-150 0 -375 -11zM700 1007l-204 -471l198 -1q71 0 204 1zM980 1807q54 0 92 -38t38 -92t-38 -92.5t-92 -38.5q-55 0 -93 38.5t-38 92.5t38 92t93 38zM620 1807q55 0 93 -38.5t38 -92.5t-38.5 -92t-92.5 -38 t-92 38t-38 92t38 92.5t92 38.5z" glyph-name="Adieresis" horiz-adv-x="1599" unicode="Ä"/>
<glyph d="M892 -11v74q121 22 140 36t19 38q0 14 -6 32q-16 42 -104 252q-141 3 -235 3q-77 0 -257 -3q-111 -262 -111 -287q0 -24 16 -35.5t142 -35.5v-74q-126 11 -241 11q-124 0 -252 -11v74q90 19 124 43q23 16 42 48q39 63 233 488q123 269 351 796h81q93 -235 385 -877 q162 -357 194 -406q22 -34 44 -48t139 -44v-74q-177 11 -329 11q-150 0 -375 -11zM700 1007l-204 -471l198 -1q71 0 204 1zM797 1781q89 0 152 -63t63 -153q0 -89 -63 -152t-152 -63q-90 0 -153 63t-63 152q0 90 63 153t153 63zM797 1668q-43 0 -73 -30.5t-30 -72.5 q0 -43 30 -73.5t73 -30.5t73 30.5t30 73.5q0 42 -30 72.5t-73 30.5z" glyph-name="Aring" horiz-adv-x="1599" unicode="Å"/>
<glyph d="M722 1334v74q346 -11 545 -11q452 0 802 11q-1 -28 -1 -43q0 -136 23 -318h-82q-65 186 -92 212t-113 26h-395q-9 -186 -10 -497h225q90 0 111 23q43 43 69 180h83q-10 -262 -10 -278q0 -90 10 -243h-83q-7 35 -10 53q-18 104 -45 128t-128 24h-222v-558h383 q76 0 104.5 9.5t50.5 30.5q42 43 127 183q9 14 28 44h91q-64 -186 -91 -273l-39 -122q-57 2 -142 4l-157 2q-310 5 -351 5q-102 0 -532 -11v74q148 24 184 42q26 12 34 33q10 28 10 168v170h-526l-207 -309q-13 -22 -13 -36q0 -19 14 -29q25 -18 139 -39v-74 q-173 11 -255 11q-51 0 -272 -11v74q94 12 135.5 40t103.5 115l393 562l311 456q10 17 10 31q0 11 -11 18q-18 11 -199 49zM1099 587v691q-308 -472 -457 -691h457z" glyph-name="AE" horiz-adv-x="2218" unicode="Æ"/>
<glyph d="M1391 264l51 -96q-173 -114 -319.5 -161.5t-306.5 -47.5q-338 0 -531.5 192.5t-193.5 518.5q0 346 218 557t603 211q123 0 237.5 -19.5t283.5 -72.5q-6 -65 -6 -135q0 -121 15 -296h-110q-50 192 -66 225q-37 75 -121.5 127t-228.5 52q-219 0 -338 -134 q-144 -161 -144 -445q0 -294 143.5 -447.5t386.5 -153.5q216 0 427 125zM760 11h81q-30 -53 -68 -104q43 0 71.5 -30.5t28.5 -78.5q0 -77 -62 -124q-82 -62 -248 -62q-22 0 -64 2v74q119 -1 165 29q31 20 31 53q0 18 -10 28.5t-26 10.5q-11 0 -34 -4l-14 45q42 32 65 56.5 t84 104.5z" glyph-name="Ccedilla" horiz-adv-x="1556" unicode="Ç"/>
<glyph d="M16 1334v74q241 -12 524 -12q328 0 676 12q3 -210 25 -365h-85q-12 32 -17 49q-49 143 -77 166t-126 23h-382q-8 -169 -10 -491l174 -2q136 0 167.5 26.5t66.5 178.5h83q-11 -147 -11 -259q0 -107 11 -267h-83q-28 162 -54 186t-157 24h-196v-559h398q66 0 88 8 q35 13 64 46q61 67 143 212h88q-58 -164 -125 -395q-341 11 -713 11q-169 0 -472 -11v74q166 30 190 48q33 23 33 116v34l2 396v320l-1 148q0 107 -11 133t-42.5 41t-170.5 35zM818 1505h-88q-166 193 -299 326l16 24q72 -4 120 -4q37 0 136 4q26 -89 42 -136z" glyph-name="Egrave" unicode="È"/>
<glyph d="M16 1334v74q241 -12 524 -12q328 0 676 12q3 -210 25 -365h-85q-12 32 -17 49q-49 143 -77 166t-126 23h-382q-8 -169 -10 -491l174 -2q136 0 167.5 26.5t66.5 178.5h83q-11 -147 -11 -259q0 -107 11 -267h-83q-28 162 -54 186t-157 24h-196v-559h398q66 0 88 8 q35 13 64 46q61 67 143 212h88q-58 -164 -125 -395q-341 11 -713 11q-169 0 -472 -11v74q166 30 190 48q33 23 33 116v34l2 396v320l-1 148q0 107 -11 133t-42.5 41t-170.5 35zM928 1852l13 -26q-151 -147 -302 -321h-88l119 347q100 -4 133 -4q37 0 125 4z" glyph-name="Eacute" unicode="É"/>
<glyph d="M16 1334v74q241 -12 524 -12q328 0 676 12q3 -210 25 -365h-85q-12 32 -17 49q-49 143 -77 166t-126 23h-382q-8 -169 -10 -491l174 -2q136 0 167.5 26.5t66.5 178.5h83q-11 -147 -11 -259q0 -107 11 -267h-83q-28 162 -54 186t-157 24h-196v-559h398q66 0 88 8 q35 13 64 46q61 67 143 212h88q-58 -164 -125 -395q-341 11 -713 11q-169 0 -472 -11v74q166 30 190 48q33 23 33 116v34l2 396v320l-1 148q0 107 -11 133t-42.5 41t-170.5 35zM998 1519h-104q-95 77 -221 167q-149 -117 -207 -167h-100q127 188 209 320l111 -1q38 0 114 1 q45 -87 198 -320z" glyph-name="Ecircumflex" unicode="Ê"/>
<glyph d="M16 1334v74q241 -12 524 -12q328 0 676 12q3 -210 25 -365h-85q-12 32 -17 49q-49 143 -77 166t-126 23h-382q-8 -169 -10 -491l174 -2q136 0 167.5 26.5t66.5 178.5h83q-11 -147 -11 -259q0 -107 11 -267h-83q-28 162 -54 186t-157 24h-196v-559h398q66 0 88 8 q35 13 64 46q61 67 143 212h88q-58 -164 -125 -395q-341 11 -713 11q-169 0 -472 -11v74q166 30 190 48q33 23 33 116v34l2 396v320l-1 148q0 107 -11 133t-42.5 41t-170.5 35zM862 1807q54 0 92 -38t38 -92t-38 -92.5t-92 -38.5q-55 0 -93 38.5t-38 92.5t38 92t93 38z M502 1807q55 0 93 -38.5t38 -92.5t-38.5 -92t-92.5 -38t-92 38t-38 92t38 92.5t92 38.5z" glyph-name="Edieresis" unicode="Ë"/>
<glyph d="M773 1408v-74l-37 -5q-133 -16 -159.5 -40t-26.5 -93v-36l-2 -335l1 -383l1 -195q0 -86 8.5 -108t29.5 -33q36 -19 148 -37q12 -2 37 -6v-74q-205 11 -361 11q-148 0 -392 -11v74q156 29 171 35q23 9 35 26q15 23 16 94q2 166 2 565l-3 364v30q0 80 -23 103t-155 45 q-15 3 -43 9v74q257 -11 385 -11q137 0 368 11zM530 1505h-88q-166 193 -299 326l16 24q72 -4 120 -4q37 0 136 4q26 -89 42 -136z" glyph-name="Igrave" horiz-adv-x="788" unicode="Ì"/>
<glyph d="M773 1408v-74l-37 -5q-133 -16 -159.5 -40t-26.5 -93v-36l-2 -335l1 -383l1 -195q0 -86 8.5 -108t29.5 -33q36 -19 148 -37q12 -2 37 -6v-74q-205 11 -361 11q-148 0 -392 -11v74q156 29 171 35q23 9 35 26q15 23 16 94q2 166 2 565l-3 364v30q0 80 -23 103t-155 45 q-15 3 -43 9v74q257 -11 385 -11q137 0 368 11zM640 1852l13 -26q-151 -147 -302 -321h-88l119 347q100 -4 133 -4q37 0 125 4z" glyph-name="Iacute" horiz-adv-x="788" unicode="Í"/>
<glyph d="M773 1408v-74l-37 -5q-133 -16 -159.5 -40t-26.5 -93v-36l-2 -335l1 -383l1 -195q0 -86 8.5 -108t29.5 -33q36 -19 148 -37q12 -2 37 -6v-74q-205 11 -361 11q-148 0 -392 -11v74q156 29 171 35q23 9 35 26q15 23 16 94q2 166 2 565l-3 364v30q0 80 -23 103t-155 45 q-15 3 -43 9v74q257 -11 385 -11q137 0 368 11zM710 1519h-104q-95 77 -221 167q-149 -117 -207 -167h-100q127 188 209 320l111 -1q38 0 114 1q45 -87 198 -320z" glyph-name="Icircumflex" horiz-adv-x="788" unicode="Î"/>
<glyph d="M773 1408v-74l-37 -5q-133 -16 -159.5 -40t-26.5 -93v-36l-2 -335l1 -383l1 -195q0 -86 8.5 -108t29.5 -33q36 -19 148 -37q12 -2 37 -6v-74q-205 11 -361 11q-148 0 -392 -11v74q156 29 171 35q23 9 35 26q15 23 16 94q2 166 2 565l-3 364v30q0 80 -23 103t-155 45 q-15 3 -43 9v74q257 -11 385 -11q137 0 368 11zM574 1807q54 0 92 -38t38 -92t-38 -92.5t-92 -38.5q-55 0 -93 38.5t-38 92.5t38 92t93 38zM214 1807q55 0 93 -38.5t38 -92.5t-38.5 -92t-92.5 -38t-92 38t-38 92t38 92.5t92 38.5z" glyph-name="Idieresis" horiz-adv-x="788" unicode="Ï"/>
<glyph d="M250 677h-226v113h226l-2 306q-3 141 -10 161t-26 32.5t-146 35.5l-42 9v74q233 -11 385 -11q116 0 321 6q149 5 249 5q188 0 298 -48q152 -66 238.5 -203t86.5 -355q0 -242 -113 -430.5t-318 -294.5q-171 -89 -415 -89q-23 0 -186 6.5t-183 6.5q-70 0 -363 -12v74l42 8 q131 23 153.5 43t26 57.5t4.5 505.5zM552 677q4 -380 9 -555q121 -20 203 -20q230 0 347 136q149 174 149 505q0 284 -132 431q-107 120 -335 120q-96 0 -232 -19q-7 -110 -9 -485h441v-113h-441z" glyph-name="Eth" horiz-adv-x="1686" unicode="Ð"/>
<glyph d="M6 1334v74q137 -11 255 -11q119 0 280 11q122 -164 734 -907l-4 544q-5 199 -15.5 221.5t-34.5 35t-169 32.5v74q161 -11 281 -11q116 0 296 11v-74q-31 -6 -46 -8q-118 -18 -141 -39.5t-27 -88.5q-10 -140 -10 -576q0 -280 11 -640q-47 -14 -93 -33l-379 478l-578 703 l3 -475l8 -462q3 -52 10 -65.5t20 -21.5q22 -13 142 -35q14 -2 42 -8v-74q-172 11 -276 11q-89 0 -302 -11v74q31 6 47 9q115 18 137 35q14 11 20 31.5t13 297.5q11 401 11 688q0 96 -10.5 123t-37.5 42t-137 35q-17 3 -50 10zM1082 1805h89q-34 -150 -95 -214 q-45 -47 -105 -47q-49 0 -169.5 47.5t-152.5 47.5q-23 0 -44.5 -18.5t-44.5 -76.5h-88q32 145 95 212q46 49 101 49q29 0 61 -8t132.5 -48.5t138.5 -40.5q24 0 42 16t40 81z" glyph-name="Ntilde" horiz-adv-x="1642" unicode="Ñ"/>
<glyph d="M87 676q0 343 210.5 552.5t564.5 209.5q334 0 524.5 -188.5t190.5 -504.5q0 -201 -75 -366q-59 -131 -152.5 -221t-191.5 -134q-146 -65 -352 -65q-342 0 -530.5 189t-188.5 528zM433 730q0 -364 132 -535q98 -128 281 -128q126 0 212.5 65t129.5 208.5t43 333.5 q0 145 -26 278t-71 208t-120.5 121t-182.5 46q-119 0 -212 -66.5t-139.5 -209t-46.5 -321.5zM968 1505h-88q-166 193 -299 326l16 24q72 -4 120 -4q37 0 136 4q26 -89 42 -136z" glyph-name="Ograve" horiz-adv-x="1665" unicode="Ò"/>
<glyph d="M87 676q0 343 210.5 552.5t564.5 209.5q334 0 524.5 -188.5t190.5 -504.5q0 -201 -75 -366q-59 -131 -152.5 -221t-191.5 -134q-146 -65 -352 -65q-342 0 -530.5 189t-188.5 528zM433 730q0 -364 132 -535q98 -128 281 -128q126 0 212.5 65t129.5 208.5t43 333.5 q0 145 -26 278t-71 208t-120.5 121t-182.5 46q-119 0 -212 -66.5t-139.5 -209t-46.5 -321.5zM1078 1852l13 -26q-151 -147 -302 -321h-88l119 347q100 -4 133 -4q37 0 125 4z" glyph-name="Oacute" horiz-adv-x="1665" unicode="Ó"/>
<glyph d="M87 676q0 343 210.5 552.5t564.5 209.5q334 0 524.5 -188.5t190.5 -504.5q0 -201 -75 -366q-59 -131 -152.5 -221t-191.5 -134q-146 -65 -352 -65q-342 0 -530.5 189t-188.5 528zM433 730q0 -364 132 -535q98 -128 281 -128q126 0 212.5 65t129.5 208.5t43 333.5 q0 145 -26 278t-71 208t-120.5 121t-182.5 46q-119 0 -212 -66.5t-139.5 -209t-46.5 -321.5zM1148 1519h-104q-95 77 -221 167q-149 -117 -207 -167h-100q127 188 209 320l111 -1q38 0 114 1q45 -87 198 -320z" glyph-name="Ocircumflex" horiz-adv-x="1665" unicode="Ô"/>
<glyph d="M87 676q0 343 210.5 552.5t564.5 209.5q334 0 524.5 -188.5t190.5 -504.5q0 -201 -75 -366q-59 -131 -152.5 -221t-191.5 -134q-146 -65 -352 -65q-342 0 -530.5 189t-188.5 528zM433 730q0 -364 132 -535q98 -128 281 -128q126 0 212.5 65t129.5 208.5t43 333.5 q0 145 -26 278t-71 208t-120.5 121t-182.5 46q-119 0 -212 -66.5t-139.5 -209t-46.5 -321.5zM1093 1805h89q-34 -150 -95 -214q-45 -47 -105 -47q-49 0 -169.5 47.5t-152.5 47.5q-23 0 -44.5 -18.5t-44.5 -76.5h-88q32 145 95 212q46 49 101 49q29 0 61 -8t132.5 -48.5 t138.5 -40.5q24 0 42 16t40 81z" glyph-name="Otilde" horiz-adv-x="1665" unicode="Õ"/>
<glyph d="M87 676q0 343 210.5 552.5t564.5 209.5q334 0 524.5 -188.5t190.5 -504.5q0 -201 -75 -366q-59 -131 -152.5 -221t-191.5 -134q-146 -65 -352 -65q-342 0 -530.5 189t-188.5 528zM433 730q0 -364 132 -535q98 -128 281 -128q126 0 212.5 65t129.5 208.5t43 333.5 q0 145 -26 278t-71 208t-120.5 121t-182.5 46q-119 0 -212 -66.5t-139.5 -209t-46.5 -321.5zM1012 1807q54 0 92 -38t38 -92t-38 -92.5t-92 -38.5q-55 0 -93 38.5t-38 92.5t38 92t93 38zM652 1807q55 0 93 -38.5t38 -92.5t-38.5 -92t-92.5 -38t-92 38t-38 92t38 92.5 t92 38.5z" glyph-name="Odieresis" horiz-adv-x="1665" unicode="Ö"/>
<glyph d="M167 1057l130 130l387 -388l386 388l131 -131l-386 -387l382 -383l-130 -129l-383 382l-384 -382l-130 129l384 383z" glyph-name="multiply" unicode="×"/>
<glyph d="M1410 1225q167 -188 167 -481q0 -227 -97.5 -411.5t-264.5 -279t-404 -94.5q-290 0 -460 124l-155 -167l-88 81l153 166q-84 94 -129 214t-45 305q0 338 211 547t567 209q280 0 453 -130l149 161l91 -85zM472 392l679 735q-49 97 -115 140q-90 60 -205 60 q-117 0 -210 -65.5t-140.5 -208.5t-47.5 -342q0 -183 39 -319zM1196 994l-675 -727q52 -98 117 -142q86 -58 208 -58q126 0 212 64.5t129.5 208.5t43.5 334q0 162 -35 320z" glyph-name="Oslash" horiz-adv-x="1665" unicode="Ø"/>
<glyph d="M11 1334v74q234 -11 375 -11t371 11v-74q-147 -24 -184 -41q-24 -10 -32 -29q-10 -25 -10 -132v-512q0 -198 22 -269q28 -94 108 -151t226 -57q161 0 243 65.5t105.5 172.5t23.5 367q0 60 -8 338q-5 154 -15 181q-6 16 -21 25q-19 13 -130 34q-13 3 -39 8v74 q211 -11 299 -11q104 0 272 11v-74q-152 -28 -176 -45t-29 -50q-9 -56 -12 -509q-2 -260 -13 -341q-17 -111 -54.5 -180.5t-110 -128.5t-160.5 -86q-116 -35 -248 -35q-223 0 -354 64.5t-182.5 169t-51.5 305.5v618q0 119 -12 150q-9 20 -31.5 30t-171.5 38zM946 1505h-88 q-166 193 -299 326l16 24q72 -4 120 -4q37 0 136 4q26 -89 42 -136z" glyph-name="Ugrave" horiz-adv-x="1622" unicode="Ù"/>
<glyph d="M11 1334v74q234 -11 375 -11t371 11v-74q-147 -24 -184 -41q-24 -10 -32 -29q-10 -25 -10 -132v-512q0 -198 22 -269q28 -94 108 -151t226 -57q161 0 243 65.5t105.5 172.5t23.5 367q0 60 -8 338q-5 154 -15 181q-6 16 -21 25q-19 13 -130 34q-13 3 -39 8v74 q211 -11 299 -11q104 0 272 11v-74q-152 -28 -176 -45t-29 -50q-9 -56 -12 -509q-2 -260 -13 -341q-17 -111 -54.5 -180.5t-110 -128.5t-160.5 -86q-116 -35 -248 -35q-223 0 -354 64.5t-182.5 169t-51.5 305.5v618q0 119 -12 150q-9 20 -31.5 30t-171.5 38zM1056 1852 l13 -26q-151 -147 -302 -321h-88l119 347q100 -4 133 -4q37 0 125 4z" glyph-name="Uacute" horiz-adv-x="1622" unicode="Ú"/>
<glyph d="M11 1334v74q234 -11 375 -11t371 11v-74q-147 -24 -184 -41q-24 -10 -32 -29q-10 -25 -10 -132v-512q0 -198 22 -269q28 -94 108 -151t226 -57q161 0 243 65.5t105.5 172.5t23.5 367q0 60 -8 338q-5 154 -15 181q-6 16 -21 25q-19 13 -130 34q-13 3 -39 8v74 q211 -11 299 -11q104 0 272 11v-74q-152 -28 -176 -45t-29 -50q-9 -56 -12 -509q-2 -260 -13 -341q-17 -111 -54.5 -180.5t-110 -128.5t-160.5 -86q-116 -35 -248 -35q-223 0 -354 64.5t-182.5 169t-51.5 305.5v618q0 119 -12 150q-9 20 -31.5 30t-171.5 38zM1126 1519h-104 q-95 77 -221 167q-149 -117 -207 -167h-100q127 188 209 320l111 -1q38 0 114 1q45 -87 198 -320z" glyph-name="Ucircumflex" horiz-adv-x="1622" unicode="Û"/>
<glyph d="M11 1334v74q234 -11 375 -11t371 11v-74q-147 -24 -184 -41q-24 -10 -32 -29q-10 -25 -10 -132v-512q0 -198 22 -269q28 -94 108 -151t226 -57q161 0 243 65.5t105.5 172.5t23.5 367q0 60 -8 338q-5 154 -15 181q-6 16 -21 25q-19 13 -130 34q-13 3 -39 8v74 q211 -11 299 -11q104 0 272 11v-74q-152 -28 -176 -45t-29 -50q-9 -56 -12 -509q-2 -260 -13 -341q-17 -111 -54.5 -180.5t-110 -128.5t-160.5 -86q-116 -35 -248 -35q-223 0 -354 64.5t-182.5 169t-51.5 305.5v618q0 119 -12 150q-9 20 -31.5 30t-171.5 38zM990 1807 q54 0 92 -38t38 -92t-38 -92.5t-92 -38.5q-55 0 -93 38.5t-38 92.5t38 92t93 38zM630 1807q55 0 93 -38.5t38 -92.5t-38.5 -92t-92.5 -38t-92 38t-38 92t38 92.5t92 38.5z" glyph-name="Udieresis" horiz-adv-x="1622" unicode="Ü"/>
<glyph d="M1 1334v74l197 -7q134 -4 160 -4q98 0 359 11v-74q-114 -26 -131.5 -39.5t-17.5 -28.5q0 -16 15 -41q36 -59 118 -206t163 -282l281 513q10 19 10 28q0 14 -14.5 24t-133.5 32v74l49 -3q166 -8 223 -8q62 0 261 11v-74q-130 -25 -170.5 -50.5t-85.5 -92.5 q-29 -43 -359 -588v-360q1 -87 10.5 -108t36.5 -34q17 -8 144 -32l33 -6v-74q-272 11 -372 11q-72 0 -384 -11v74q32 6 48 8q108 16 138 33q20 11 29.5 36.5t9.5 147.5v295q-67 102 -197 313q-169 273 -204.5 321t-74.5 72t-141 45zM1014 1852l13 -26q-151 -147 -302 -321 h-88l119 347q100 -4 133 -4q37 0 125 4z" glyph-name="Yacute" horiz-adv-x="1536" unicode="Ý"/>
<glyph d="M11 -11v74q167 25 196 48q20 16 25 62.5t5 519.5q0 435 -3.5 500.5t-24.5 87t-105 36.5q-58 10 -93 17v74q196 -11 387 -11q193 0 369 11v-74q-40 -8 -98 -17q-98 -16 -115 -53q-10 -21 -12 -162h342q54 0 146.5 -12.5t156.5 -57.5t98.5 -120t34.5 -170 q0 -120 -55 -216.5t-158 -157t-208 -68.5q-157 -13 -218 -13h-139q0 -145 17 -167.5t113 -37.5l124 -19v-74q-159 11 -382 11q-235 0 -403 -11zM542 400h60q157 4 171 6q57 9 111.5 42.5t86.5 96.5t32 156q0 73 -23.5 133t-70 99t-104.5 48.5t-133 9.5h-130l-1 -335 q0 -75 1 -256z" glyph-name="Thorn" horiz-adv-x="1386" unicode="Þ"/>
<glyph d="M588 287h78q4 -119 47 -175q33 -42 85 -42q51 0 83 33t32 91q0 69 -38 130q-50 81 -293 339q-60 64 -60 102q0 41 55 111q146 189 146 322q0 76 -34 116t-87 40t-96.5 -37.5t-54 -115t-10.5 -344.5q0 -665 9 -868q-128 11 -200 11q-63 0 -222 -11v70q103 23 127 49 q17 19 21 96t4 623q-73 -2 -145 -10v68q72 28 145 69v60q0 137 38 205q57 104 181 172t269 68q150 0 221.5 -61.5t71.5 -152.5q0 -62 -29 -123t-81 -106q-80 -70 -92 -86q-9 -11 -9 -24q0 -40 95 -121q137 -115 223 -249q56 -86 56 -184q0 -161 -105 -269t-259 -108 q-99 0 -220 46q28 115 48 266z" glyph-name="germandbls" horiz-adv-x="1174" unicode="ß"/>
<glyph d="M222 621l-89 9q29 142 37 252q182 88 380 88q115 0 183.5 -37t94.5 -101t26 -199l-4 -340q0 -97 16.5 -122.5t43.5 -25.5q32 0 95 35l38 -58q-136 -96 -201 -126q-47 -21 -90 -21q-57 0 -98 31t-56 92q-120 -83 -168 -103.5t-116 -20.5q-103 0 -168.5 69.5t-65.5 185.5 q0 82 44 152q30 49 111 94l363 172q-2 119 -37.5 160t-105.5 41q-71 0 -123.5 -46.5t-109.5 -180.5zM598 539q-165 -77 -208 -126t-43 -128q0 -81 32 -119t83 -38q39 0 75.5 26t49 73.5t12.5 199.5q0 35 -1 112zM648 1077h-88q-166 193 -299 326l16 24q72 -4 120 -4 q37 0 136 4q26 -89 42 -136z" glyph-name="agrave" horiz-adv-x="1024" unicode="à"/>
<glyph d="M222 621l-89 9q29 142 37 252q182 88 380 88q115 0 183.5 -37t94.5 -101t26 -199l-4 -340q0 -97 16.5 -122.5t43.5 -25.5q32 0 95 35l38 -58q-136 -96 -201 -126q-47 -21 -90 -21q-57 0 -98 31t-56 92q-120 -83 -168 -103.5t-116 -20.5q-103 0 -168.5 69.5t-65.5 185.5 q0 82 44 152q30 49 111 94l363 172q-2 119 -37.5 160t-105.5 41q-71 0 -123.5 -46.5t-109.5 -180.5zM598 539q-165 -77 -208 -126t-43 -128q0 -81 32 -119t83 -38q39 0 75.5 26t49 73.5t12.5 199.5q0 35 -1 112zM758 1424l13 -26q-151 -147 -302 -321h-88l119 347 q100 -4 133 -4q37 0 125 4z" glyph-name="aacute" horiz-adv-x="1024" unicode="á"/>
<glyph d="M222 621l-89 9q29 142 37 252q182 88 380 88q115 0 183.5 -37t94.5 -101t26 -199l-4 -340q0 -97 16.5 -122.5t43.5 -25.5q32 0 95 35l38 -58q-136 -96 -201 -126q-47 -21 -90 -21q-57 0 -98 31t-56 92q-120 -83 -168 -103.5t-116 -20.5q-103 0 -168.5 69.5t-65.5 185.5 q0 82 44 152q30 49 111 94l363 172q-2 119 -37.5 160t-105.5 41q-71 0 -123.5 -46.5t-109.5 -180.5zM598 539q-165 -77 -208 -126t-43 -128q0 -81 32 -119t83 -38q39 0 75.5 26t49 73.5t12.5 199.5q0 35 -1 112zM828 1091h-104q-95 77 -221 167q-149 -117 -207 -167h-100 q127 188 209 320l111 -1q38 0 114 1q45 -87 198 -320z" glyph-name="acircumflex" horiz-adv-x="1024" unicode="â"/>
<glyph d="M222 621l-89 9q29 142 37 252q182 88 380 88q115 0 183.5 -37t94.5 -101t26 -199l-4 -340q0 -97 16.5 -122.5t43.5 -25.5q32 0 95 35l38 -58q-136 -96 -201 -126q-47 -21 -90 -21q-57 0 -98 31t-56 92q-120 -83 -168 -103.5t-116 -20.5q-103 0 -168.5 69.5t-65.5 185.5 q0 82 44 152q30 49 111 94l363 172q-2 119 -37.5 160t-105.5 41q-71 0 -123.5 -46.5t-109.5 -180.5zM598 539q-165 -77 -208 -126t-43 -128q0 -81 32 -119t83 -38q39 0 75.5 26t49 73.5t12.5 199.5q0 35 -1 112zM773 1377h89q-34 -150 -95 -214q-45 -47 -105 -47 q-49 0 -169.5 47.5t-152.5 47.5q-23 0 -44.5 -18.5t-44.5 -76.5h-88q32 145 95 212q46 49 101 49q29 0 61 -8t132.5 -48.5t138.5 -40.5q24 0 42 16t40 81z" glyph-name="atilde" horiz-adv-x="1024" unicode="ã"/>
<glyph d="M222 621l-89 9q29 142 37 252q182 88 380 88q115 0 183.5 -37t94.5 -101t26 -199l-4 -340q0 -97 16.5 -122.5t43.5 -25.5q32 0 95 35l38 -58q-136 -96 -201 -126q-47 -21 -90 -21q-57 0 -98 31t-56 92q-120 -83 -168 -103.5t-116 -20.5q-103 0 -168.5 69.5t-65.5 185.5 q0 82 44 152q30 49 111 94l363 172q-2 119 -37.5 160t-105.5 41q-71 0 -123.5 -46.5t-109.5 -180.5zM598 539q-165 -77 -208 -126t-43 -128q0 -81 32 -119t83 -38q39 0 75.5 26t49 73.5t12.5 199.5q0 35 -1 112zM692 1379q54 0 92 -38t38 -92t-38 -92.5t-92 -38.5 q-55 0 -93 38.5t-38 92.5t38 92t93 38zM332 1379q55 0 93 -38.5t38 -92.5t-38.5 -92t-92.5 -38t-92 38t-38 92t38 92.5t92 38.5z" glyph-name="adieresis" horiz-adv-x="1024" unicode="ä"/>
<glyph d="M222 621l-89 9q29 142 37 252q182 88 380 88q115 0 183.5 -37t94.5 -101t26 -199l-4 -340q0 -97 16.5 -122.5t43.5 -25.5q32 0 95 35l38 -58q-136 -96 -201 -126q-47 -21 -90 -21q-57 0 -98 31t-56 92q-120 -83 -168 -103.5t-116 -20.5q-103 0 -168.5 69.5t-65.5 185.5 q0 82 44 152q30 49 111 94l363 172q-2 119 -37.5 160t-105.5 41q-71 0 -123.5 -46.5t-109.5 -180.5zM598 539q-165 -77 -208 -126t-43 -128q0 -81 32 -119t83 -38q39 0 75.5 26t49 73.5t12.5 199.5q0 35 -1 112zM513 1478q89 0 152 -63t63 -153q0 -89 -63 -152t-152 -63 q-90 0 -153 63t-63 152q0 90 63 153t153 63zM513 1365q-43 0 -73 -30.5t-30 -72.5q0 -43 30 -73.5t73 -30.5t73 30.5t30 73.5q0 42 -30 72.5t-73 30.5z" glyph-name="aring" horiz-adv-x="1024" unicode="å"/>
<glyph d="M206 622l-90 9q18 85 39 253q97 43 191.5 64.5t186.5 21.5q93 0 158 -33q40 -21 78 -72q112 115 284 115q166 0 248.5 -85.5t91.5 -267.5q-49 -29 -90 -74q-89 4 -170 4q-185 0 -309 -4q11 -222 81.5 -307.5t174.5 -85.5q126 0 268 100l52 -75q-181 -142 -265.5 -181 t-168.5 -39q-97 0 -169.5 43t-138.5 135q-109 -103 -178.5 -135.5t-156.5 -32.5q-125 0 -193 67.5t-68 182.5q0 66 25.5 119t111.5 126l389 178q0 69 -8 97q-14 48 -47.5 74.5t-91.5 26.5q-71 0 -128.5 -47.5t-106.5 -176.5zM830 652q244 3 299 7q-1 107 -34 160.5 t-100 53.5q-65 0 -108 -46.5t-57 -174.5zM620 223q-21 57 -27 88q-10 62 -10 148q0 29 3 84q-167 -78 -206 -124q-52 -60 -52 -138q0 -75 33.5 -112t92.5 -37q45 0 83.5 20t82.5 71z" glyph-name="ae" horiz-adv-x="1450" unicode="æ"/>
<glyph d="M833 617l-90 5q-10 142 -58.5 197t-122.5 55q-92 0 -147 -70q-73 -94 -73 -271q0 -181 80 -275t191 -94q49 0 98.5 15.5t132.5 60.5l47 -76q-167 -130 -244.5 -164.5t-165.5 -34.5q-178 0 -295 124.5t-117 337.5q0 227 137 390t381 163q141 0 304 -75q-20 -80 -39 -189 q-12 -64 -19 -99zM460 11h81q-30 -53 -68 -104q43 0 71.5 -30.5t28.5 -78.5q0 -77 -62 -124q-82 -62 -248 -62q-22 0 -64 2v74q119 -1 165 29q31 20 31 53q0 18 -10 28.5t-26 10.5q-11 0 -34 -4l-14 45q42 32 65 56.5t84 104.5z" glyph-name="ccedilla" horiz-adv-x="918" unicode="ç"/>
<glyph d="M858 260l52 -76q-157 -133 -289 -193q-57 -26 -146 -26q-186 0 -284 110q-124 138 -124 368q0 239 142 388t352 149q192 0 281 -116q59 -76 68 -237q-50 -33 -93 -75q-105 4 -214 4q-142 0 -264 -4q-1 -22 -1 -37q0 -141 64.5 -248t193.5 -107q63 0 120.5 21t141.5 79z M341 655q56 -2 92 -2q86 0 210 8q-6 127 -42.5 169t-100.5 42q-62 0 -106 -50t-53 -167zM616 1077h-88q-166 193 -299 326l16 24q72 -4 120 -4q37 0 136 4q26 -89 42 -136z" glyph-name="egrave" horiz-adv-x="961" unicode="è"/>
<glyph d="M858 260l52 -76q-157 -133 -289 -193q-57 -26 -146 -26q-186 0 -284 110q-124 138 -124 368q0 239 142 388t352 149q192 0 281 -116q59 -76 68 -237q-50 -33 -93 -75q-105 4 -214 4q-142 0 -264 -4q-1 -22 -1 -37q0 -141 64.5 -248t193.5 -107q63 0 120.5 21t141.5 79z M341 655q56 -2 92 -2q86 0 210 8q-6 127 -42.5 169t-100.5 42q-62 0 -106 -50t-53 -167zM806 1424l13 -26q-151 -147 -302 -321h-88l119 347q100 -4 133 -4q37 0 125 4z" glyph-name="eacute" horiz-adv-x="961" unicode="é"/>
<glyph d="M858 260l52 -76q-157 -133 -289 -193q-57 -26 -146 -26q-186 0 -284 110q-124 138 -124 368q0 239 142 388t352 149q192 0 281 -116q59 -76 68 -237q-50 -33 -93 -75q-105 4 -214 4q-142 0 -264 -4q-1 -22 -1 -37q0 -141 64.5 -248t193.5 -107q63 0 120.5 21t141.5 79z M341 655q56 -2 92 -2q86 0 210 8q-6 127 -42.5 169t-100.5 42q-62 0 -106 -50t-53 -167zM836 1091h-104q-95 77 -221 167q-149 -117 -207 -167h-100q127 188 209 320l111 -1q38 0 114 1q45 -87 198 -320z" glyph-name="ecircumflex" horiz-adv-x="961" unicode="ê"/>
<glyph d="M858 260l52 -76q-157 -133 -289 -193q-57 -26 -146 -26q-186 0 -284 110q-124 138 -124 368q0 239 142 388t352 149q192 0 281 -116q59 -76 68 -237q-50 -33 -93 -75q-105 4 -214 4q-142 0 -264 -4q-1 -22 -1 -37q0 -141 64.5 -248t193.5 -107q63 0 120.5 21t141.5 79z M341 655q56 -2 92 -2q86 0 210 8q-6 127 -42.5 169t-100.5 42q-62 0 -106 -50t-53 -167zM710 1379q54 0 92 -38t38 -92t-38 -92.5t-92 -38.5q-55 0 -93 38.5t-38 92.5t38 92t93 38zM350 1379q55 0 93 -38.5t38 -92.5t-38.5 -92t-92.5 -38t-92 38t-38 92t38 92.5t92 38.5z " glyph-name="edieresis" horiz-adv-x="961" unicode="ë"/>
<glyph d="M41 773v72q227 40 392 139l51 -27q-14 -121 -18 -216q-7 -141 -7 -446q0 -128 9 -163q6 -23 23.5 -34.5t119.5 -38.5v-70q-139 11 -254 11q-110 0 -321 -11v70l26 6q88 20 104 34.5t20 51.5q9 95 9 392q0 172 -9 200q-12 37 -57 37q-39 0 -88 -7zM455 1077h-88 q-166 193 -299 326l16 24q72 -4 120 -4q37 0 136 4q26 -89 42 -136z" glyph-name="igrave" horiz-adv-x="641" unicode="ì"/>
<glyph d="M41 773v72q227 40 392 139l51 -27q-14 -121 -18 -216q-7 -141 -7 -446q0 -128 9 -163q6 -23 23.5 -34.5t119.5 -38.5v-70q-139 11 -254 11q-110 0 -321 -11v70l26 6q88 20 104 34.5t20 51.5q9 95 9 392q0 172 -9 200q-12 37 -57 37q-39 0 -88 -7zM565 1424l13 -26 q-151 -147 -302 -321h-88l119 347q100 -4 133 -4q37 0 125 4z" glyph-name="iacute" horiz-adv-x="641" unicode="í"/>
<glyph d="M41 773v72q227 40 392 139l51 -27q-14 -121 -18 -216q-7 -141 -7 -446q0 -128 9 -163q6 -23 23.5 -34.5t119.5 -38.5v-70q-139 11 -254 11q-110 0 -321 -11v70l26 6q88 20 104 34.5t20 51.5q9 95 9 392q0 172 -9 200q-12 37 -57 37q-39 0 -88 -7zM635 1091h-104 q-95 77 -221 167q-149 -117 -207 -167h-100q127 188 209 320l111 -1q38 0 114 1q45 -87 198 -320z" glyph-name="icircumflex" horiz-adv-x="641" unicode="î"/>
<glyph d="M41 773v72q227 40 392 139l51 -27q-14 -121 -18 -216q-7 -141 -7 -446q0 -128 9 -163q6 -23 23.5 -34.5t119.5 -38.5v-70q-139 11 -254 11q-110 0 -321 -11v70l26 6q88 20 104 34.5t20 51.5q9 95 9 392q0 172 -9 200q-12 37 -57 37q-39 0 -88 -7zM499 1379q54 0 92 -38 t38 -92t-38 -92.5t-92 -38.5q-55 0 -93 38.5t-38 92.5t38 92t93 38zM139 1379q55 0 93 -38.5t38 -92.5t-38.5 -92t-92.5 -38t-92 38t-38 92t38 92.5t92 38.5z" glyph-name="idieresis" horiz-adv-x="641" unicode="ï"/>
<glyph d="M298 1052l-46 92l188 102q-45 48 -142 123l51 90q114 -60 230 -143l259 143l49 -90l-218 -123q181 -139 285 -323t104 -393q0 -238 -107 -385q-130 -180 -397 -180q-247 0 -364 140.5t-117 348.5q0 142 57.5 260.5t155.5 178t209 59.5q69 0 167 -31q-42 89 -72 137.5 t-78 106.5zM372 529q0 -279 75 -392q49 -75 134 -75q75 0 126.5 74t51.5 298q0 205 -53.5 313.5t-151.5 108.5q-78 0 -130 -70t-52 -257z" glyph-name="eth" horiz-adv-x="1130" unicode="ð"/>
<glyph d="M24 765v72q132 28 219.5 59t173.5 79l52 -30q-14 -76 -19 -166q111 126 167 158.5t132 32.5q75 0 129.5 -29t81 -73.5t34.5 -119.5q5 -47 5 -226l-1 -178q0 -172 4 -202.5t19.5 -44t88.5 -29.5q12 -3 38 -9v-70q-167 11 -259 11q-93 0 -274 -11v70q77 19 94 34.5t21 51.5 q6 50 6 331q0 199 -17 240q-28 65 -105 65q-56 0 -102.5 -40t-59.5 -102t-13 -273q0 -189 8 -235q4 -25 18 -36.5t94 -35.5v-70q-152 11 -254 11q-95 0 -281 -11v70q110 29 124.5 42t19.5 60q9 108 9 280q0 263 -6 289q-12 44 -61 44q-31 0 -86 -9zM837 1377h89 q-34 -150 -95 -214q-45 -47 -105 -47q-49 0 -169.5 47.5t-152.5 47.5q-23 0 -44.5 -18.5t-44.5 -76.5h-88q32 145 95 212q46 49 101 49q29 0 61 -8t132.5 -48.5t138.5 -40.5q24 0 42 16t40 81z" glyph-name="ntilde" horiz-adv-x="1151" unicode="ñ"/>
<glyph d="M73 485q0 222 137.5 358.5t365.5 136.5q226 0 353.5 -126.5t127.5 -348.5q0 -256 -135.5 -398t-365.5 -142q-232 0 -357.5 132t-125.5 388zM372 538q0 -281 79 -405q45 -71 129 -71q77 0 119 61q60 87 60 301q0 273 -75 388q-46 72 -129 72q-78 0 -122 -62 q-61 -85 -61 -284zM701 1077h-88q-166 193 -299 326l16 24q72 -4 120 -4q37 0 136 4q26 -89 42 -136z" glyph-name="ograve" horiz-adv-x="1130" unicode="ò"/>
<glyph d="M73 485q0 222 137.5 358.5t365.5 136.5q226 0 353.5 -126.5t127.5 -348.5q0 -256 -135.5 -398t-365.5 -142q-232 0 -357.5 132t-125.5 388zM372 538q0 -281 79 -405q45 -71 129 -71q77 0 119 61q60 87 60 301q0 273 -75 388q-46 72 -129 72q-78 0 -122 -62 q-61 -85 -61 -284zM811 1424l13 -26q-151 -147 -302 -321h-88l119 347q100 -4 133 -4q37 0 125 4z" glyph-name="oacute" horiz-adv-x="1130" unicode="ó"/>
<glyph d="M73 485q0 222 137.5 358.5t365.5 136.5q226 0 353.5 -126.5t127.5 -348.5q0 -256 -135.5 -398t-365.5 -142q-232 0 -357.5 132t-125.5 388zM372 538q0 -281 79 -405q45 -71 129 -71q77 0 119 61q60 87 60 301q0 273 -75 388q-46 72 -129 72q-78 0 -122 -62 q-61 -85 -61 -284zM881 1091h-104q-95 77 -221 167q-149 -117 -207 -167h-100q127 188 209 320l111 -1q38 0 114 1q45 -87 198 -320z" glyph-name="ocircumflex" horiz-adv-x="1130" unicode="ô"/>
<glyph d="M73 485q0 222 137.5 358.5t365.5 136.5q226 0 353.5 -126.5t127.5 -348.5q0 -256 -135.5 -398t-365.5 -142q-232 0 -357.5 132t-125.5 388zM372 538q0 -281 79 -405q45 -71 129 -71q77 0 119 61q60 87 60 301q0 273 -75 388q-46 72 -129 72q-78 0 -122 -62 q-61 -85 -61 -284zM826 1377h89q-34 -150 -95 -214q-45 -47 -105 -47q-49 0 -169.5 47.5t-152.5 47.5q-23 0 -44.5 -18.5t-44.5 -76.5h-88q32 145 95 212q46 49 101 49q29 0 61 -8t132.5 -48.5t138.5 -40.5q24 0 42 16t40 81z" glyph-name="otilde" horiz-adv-x="1130" unicode="õ"/>
<glyph d="M73 485q0 222 137.5 358.5t365.5 136.5q226 0 353.5 -126.5t127.5 -348.5q0 -256 -135.5 -398t-365.5 -142q-232 0 -357.5 132t-125.5 388zM372 538q0 -281 79 -405q45 -71 129 -71q77 0 119 61q60 87 60 301q0 273 -75 388q-46 72 -129 72q-78 0 -122 -62 q-61 -85 -61 -284zM745 1379q54 0 92 -38t38 -92t-38 -92.5t-92 -38.5q-55 0 -93 38.5t-38 92.5t38 92t93 38zM385 1379q55 0 93 -38.5t38 -92.5t-38.5 -92t-92.5 -38t-92 38t-38 92t38 92.5t92 38.5z" glyph-name="odieresis" horiz-adv-x="1130" unicode="ö"/>
<glyph d="M791 1090q0 -46 -33 -79t-79 -33q-47 0 -79.5 33t-32.5 79q0 47 32.5 79.5t79.5 32.5q46 0 79 -32.5t33 -79.5zM130 759h1105v-176h-1105v176zM794 260q0 -47 -33.5 -80t-80.5 -33q-46 0 -79.5 33t-33.5 80t33.5 80t79.5 33q47 0 80.5 -33t33.5 -80z" glyph-name="divide" unicode="÷"/>
<glyph d="M954 827q103 -129 103 -322q0 -257 -135.5 -398.5t-368.5 -141.5q-175 0 -286 73l-103 -119l-87 75l106 122q-110 141 -110 350q0 238 136 376t363 138q95 0 161 -17.5t135 -59.5l98 113l86 -77zM385 348l336 386q-29 84 -70.5 117t-95.5 33q-78 0 -122 -61 q-61 -86 -61 -279q0 -82 13 -196zM750 592l-335 -384q30 -82 71.5 -114t93.5 -32q77 0 119 61q60 87 60 303q0 88 -9 166z" glyph-name="oslash" horiz-adv-x="1130" unicode="ø"/>
<glyph d="M1121 144v-74q-144 -19 -229.5 -41.5t-169.5 -58.5l-47 30q12 69 18 144q-127 -117 -177 -143t-116 -26q-76 0 -130.5 27.5t-81.5 70t-35 111.5q-4 44 -4 228l1 199q0 164 -22 191t-138 37v67q228 17 393 66l46 -29q-8 -50 -13 -148q-8 -177 -8 -311q0 -207 27.5 -267 t103.5 -60q60 0 102.5 38t55.5 116q9 49 9 315q0 155 -18.5 177.5t-139.5 35.5v67q174 17 249 30.5t147 35.5l47 -28q-15 -90 -19 -170q-8 -133 -8 -401q0 -176 10 -199q13 -32 63 -32h11q25 1 73 2zM701 1077h-88q-166 193 -299 326l16 24q72 -4 120 -4q37 0 136 4 q26 -89 42 -136z" glyph-name="ugrave" horiz-adv-x="1130" unicode="ù"/>
<glyph d="M1121 144v-74q-144 -19 -229.5 -41.5t-169.5 -58.5l-47 30q12 69 18 144q-127 -117 -177 -143t-116 -26q-76 0 -130.5 27.5t-81.5 70t-35 111.5q-4 44 -4 228l1 199q0 164 -22 191t-138 37v67q228 17 393 66l46 -29q-8 -50 -13 -148q-8 -177 -8 -311q0 -207 27.5 -267 t103.5 -60q60 0 102.5 38t55.5 116q9 49 9 315q0 155 -18.5 177.5t-139.5 35.5v67q174 17 249 30.5t147 35.5l47 -28q-15 -90 -19 -170q-8 -133 -8 -401q0 -176 10 -199q13 -32 63 -32h11q25 1 73 2zM811 1424l13 -26q-151 -147 -302 -321h-88l119 347q100 -4 133 -4 q37 0 125 4z" glyph-name="uacute" horiz-adv-x="1130" unicode="ú"/>
<glyph d="M1121 144v-74q-144 -19 -229.5 -41.5t-169.5 -58.5l-47 30q12 69 18 144q-127 -117 -177 -143t-116 -26q-76 0 -130.5 27.5t-81.5 70t-35 111.5q-4 44 -4 228l1 199q0 164 -22 191t-138 37v67q228 17 393 66l46 -29q-8 -50 -13 -148q-8 -177 -8 -311q0 -207 27.5 -267 t103.5 -60q60 0 102.5 38t55.5 116q9 49 9 315q0 155 -18.5 177.5t-139.5 35.5v67q174 17 249 30.5t147 35.5l47 -28q-15 -90 -19 -170q-8 -133 -8 -401q0 -176 10 -199q13 -32 63 -32h11q25 1 73 2zM881 1091h-104q-95 77 -221 167q-149 -117 -207 -167h-100 q127 188 209 320l111 -1q38 0 114 1q45 -87 198 -320z" glyph-name="ucircumflex" horiz-adv-x="1130" unicode="û"/>
<glyph d="M1121 144v-74q-144 -19 -229.5 -41.5t-169.5 -58.5l-47 30q12 69 18 144q-127 -117 -177 -143t-116 -26q-76 0 -130.5 27.5t-81.5 70t-35 111.5q-4 44 -4 228l1 199q0 164 -22 191t-138 37v67q228 17 393 66l46 -29q-8 -50 -13 -148q-8 -177 -8 -311q0 -207 27.5 -267 t103.5 -60q60 0 102.5 38t55.5 116q9 49 9 315q0 155 -18.5 177.5t-139.5 35.5v67q174 17 249 30.5t147 35.5l47 -28q-15 -90 -19 -170q-8 -133 -8 -401q0 -176 10 -199q13 -32 63 -32h11q25 1 73 2zM745 1379q54 0 92 -38t38 -92t-38 -92.5t-92 -38.5q-55 0 -93 38.5 t-38 92.5t38 92t93 38zM385 1379q55 0 93 -38.5t38 -92.5t-38.5 -92t-92.5 -38t-92 38t-38 92t38 92.5t92 38.5z" glyph-name="udieresis" horiz-adv-x="1130" unicode="ü"/>
<glyph d="M1 876v70q182 -11 281 -11q103 0 272 11v-70q-16 -3 -24 -4q-61 -10 -75 -21.5t-14 -29.5q0 -15 21 -66l150 -374l119 352q19 57 19 85q0 17 -13 29.5t-68 28.5v70q114 -11 187 -11q79 0 164 11v-70q-75 -24 -97 -42t-46.5 -72.5t-152.5 -403.5q-161 -440 -209 -540 q-68 -140 -147 -194t-161 -54q-33 0 -91 11q-21 79 -35 115.5t-48 105.5l56 36q51 -47 86 -63t72 -16q66 0 119.5 48t115.5 222l-285 645q-53 122 -80 146.5t-116 55.5zM758 1424l13 -26q-151 -147 -302 -321h-88l119 347q100 -4 133 -4q37 0 125 4z" glyph-name="yacute" horiz-adv-x="1024" unicode="ý"/>
<glyph d="M429 780q118 129 163 154q64 36 140 36q128 0 220 -110t92 -318q0 -248 -146 -407.5t-330 -159.5q-38 0 -74 9t-69 26l-1 -75q0 -196 9 -228q5 -20 21.5 -30t148.5 -47v-70q-199 11 -307 11q-105 0 -298 -11v70q100 26 127 44q19 13 27 33t10 221l3 652l-3 600 q0 41 -16 59.5t-44 18.5q-39 0 -90 -8v72q159 37 233.5 63.5t160.5 73.5l50 -31q-27 -239 -27 -648zM425 143q40 -31 77.5 -47t71.5 -16q83 0 125 59q67 95 67 290q0 189 -65 281q-46 65 -116 65q-58 0 -103 -46.5t-54 -151.5q-3 -40 -3 -434z" glyph-name="thorn" horiz-adv-x="1110" unicode="þ"/>
<glyph d="M41 773v72q227 40 392 139l51 -27q-14 -121 -18 -216q-7 -141 -7 -446q0 -128 9 -163q6 -23 23.5 -34.5t119.5 -38.5v-70q-139 11 -254 11q-110 0 -321 -11v70l26 6q88 20 104 34.5t20 51.5q9 95 9 392q0 172 -9 200q-12 37 -57 37q-39 0 -88 -7z" glyph-name="dotlessi" horiz-adv-x="641" unicode="ı"/>
<glyph d="M657 1091h-104q-95 77 -221 167q-149 -117 -207 -167h-100q127 188 209 320l111 -1q38 0 114 1q45 -87 198 -320z" glyph-name="circumflex" horiz-adv-x="682" unicode="ˆ"/>
<glyph d="M342 1478q89 0 152 -63t63 -153q0 -89 -63 -152t-152 -63q-90 0 -153 63t-63 152q0 90 63 153t153 63zM342 1365q-43 0 -73 -30.5t-30 -72.5q0 -43 30 -73.5t73 -30.5t73 30.5t30 73.5q0 42 -30 72.5t-73 30.5z" glyph-name="ring" horiz-adv-x="682" unicode="˚"/>
<glyph d="M602 1377h89q-34 -150 -95 -214q-45 -47 -105 -47q-49 0 -169.5 47.5t-152.5 47.5q-23 0 -44.5 -18.5t-44.5 -76.5h-88q32 145 95 212q46 49 101 49q29 0 61 -8t132.5 -48.5t138.5 -40.5q24 0 42 16t40 81z" glyph-name="tilde" horiz-adv-x="682" unicode="˜"/>
<glyph d="M445 1431h150l-805 -1512h-150z" glyph-name="fraction" horiz-adv-x="236" unicode="∕"/>
<glyph d="M216 666v55q17 4 59.5 12.5t50.5 14.5q11 8 16 23t5 82q-207 -1 -326 -7q1 46 1 69q0 22 -1 66l248 290q31 37 78 99q51 17 76 28.5t71 42.5l31 -22q-15 -176 -15 -454q60 3 117 16l16 -23q-28 -48 -49 -108q-42 3 -84 3q0 -71 5 -83q6 -17 26 -28q14 -8 86 -21v-55 q-132 7 -207 7q-71 0 -204 -7zM347 965v270l-222 -270h222z" glyph-name="foursuperior" horiz-adv-x="704"/>
</font>
</defs>
</svg>
