<?xml version="1.0" encoding="UTF-8"?>
<!DOCTYPE svg  PUBLIC '-//W3C//DTD SVG 1.1//EN'  'http://www.w3.org/Graphics/SVG/1.1/DTD/svg11.dtd'>
<svg version="1.1" xmlns="http://www.w3.org/2000/svg">
<defs>
<font id="ChaparralPro-Regular" horiz-adv-x="524">
<font-face font-family="Chaparral Pro" font-weight="400" ascent="740" bbox="-30 -250 886 870" cap-height="650" descent="-260" panose-1="2 6 5 3 4 5 5 2 2 3" underline-position="-100" underline-thickness="54" unicode-range="U+0020-00FE" units-per-em="1000" x-height="420"/>
<missing-glyph/>
<glyph glyph-name="space" horiz-adv-x="220" unicode=" "/>
<glyph d="M184 659v-3q-3 -92 -14 -335q-5 -107 -7 -151q-15 -4 -52 -7q0 13 -11 227q-4 122 -13 251q44 13 97 18zM139 94q38 0 49 -36q2 -9 2 -17q0 -31 -29 -45q-12 -5 -24 -5q-36 0 -49 31q-4 9 -4 19q0 31 29 47q12 6 26 6z" glyph-name="exclam" horiz-adv-x="273" unicode="!"/>
<glyph d="M131 698q-8 -138 -10 -224q-23 -7 -48 -7q-11 153 -18 217q36 13 76 14zM270 698q-8 -138 -10 -224q-23 -7 -48 -7q-11 152 -18 218q38 13 76 13z" glyph-name="quotedbl" horiz-adv-x="321" unicode='"'/>
<glyph d="M230 466h109q1 3 30 180q27 1 54 0q-4 -23 -13 -77l-18 -102q18 0 54 1h46q0 -27 -3 -49h-107l-12 -69q-7 -46 -11 -69h108q1 -21 -2 -47h-114q-22 -127 -35 -198q-33 -2 -50 -1q8 44 23 132q7 45 11 66h-111q-4 -25 -13 -75q-15 -88 -21 -123q-23 -1 -50 0 q20 113 33 198q-16 0 -52 -1h-49q0 21 2 49h108q8 47 22 138h-109q0 19 2 46q40 1 116 1q8 52 30 180q19 2 54 2q-4 -21 -12 -69q-14 -76 -20 -113zM330 419h-109q-14 -78 -23 -138q18 0 55 -1h55q5 27 22 139z" glyph-name="numbersign" unicode="#"/>
<glyph d="M74 450q0 61 55 107q6 5 12 9q48 31 112 36q0 18 1 53v49q20 5 51 7q-2 -56 -3 -107q87 1 139 -29q0 -19 -20 -45q-7 -9 -12 -12q-60 35 -109 39q-2 -143 -4 -203q114 -36 145 -89q16 -28 16 -63q-1 -76 -54 -122q-51 -41 -126 -48q0 -17 -1 -50v-51q-13 -2 -47 -4v50 q1 35 1 53q-87 -3 -161 28q-11 5 -20 10q13 39 37 56q77 -45 144 -48q2 68 4 222q-102 35 -134 75q-26 32 -26 77zM143 459q0 -47 48 -71q21 -11 57 -22q2 143 3 191q-48 -4 -74 -26q-33 -26 -34 -72zM390 184q0 53 -51 80q-20 11 -57 23q-2 -146 -4 -209q50 6 78 29 q34 29 34 77z" glyph-name="dollar" unicode="$"/>
<glyph d="M511 616l-3 3q-61 -2 -219 -4q39 -28 48 -93q2 -14 2 -27q-1 -85 -51 -136q-39 -40 -101 -40q-52 1 -87 29q-58 47 -59 137q1 81 53 129q41 37 107 39q196 0 343 10q9 0 15 1q12 -14 22 -30q-52 -91 -176 -318q-31 -57 -188 -342q-31 14 -43 21q79 140 190 346 q15 27 147 275zM192 612q-36 -1 -55 -22q-32 -36 -32 -103q1 -74 32 -106q24 -22 54 -22q31 1 49 17q35 34 35 112q-1 66 -30 103q-16 21 -53 21zM578 323q59 -1 92 -33q49 -47 49 -129q-1 -82 -49 -131q-41 -40 -101 -40q-56 1 -89 28q-52 38 -57 117q-1 9 -1 16 q1 84 56 135q43 37 100 37zM572 283q-34 -1 -54 -23q-32 -36 -32 -107q1 -72 31 -102q23 -21 55 -21q32 1 52 19q31 32 31 109q0 66 -29 102q-19 23 -54 23z" glyph-name="percent" horiz-adv-x="760" unicode="%"/>
<glyph d="M301 360l-1 -5q93 -64 194 -184q39 48 57 129q5 19 6 34q-1 8 -4 8l-58 3q0 31 1 44h104q14 0 44 1h44q1 -23 0 -46l-59 -2q-34 -130 -100 -209q18 -20 63 -75q11 -12 25 -12l76 -2q0 -29 -1 -44q-84 -4 -141 -5q-11 13 -35 43q-24 31 -36 45q-99 -92 -229 -93 q-87 0 -142 37q-75 53 -76 137q0 111 123 185q10 6 20 11v4q-83 62 -84 138q0 66 53 111l2 2q51 40 123 40q70 -1 111 -33q48 -41 49 -99q-2 -104 -129 -163zM165 509q0 -55 58 -100q14 -10 33 -23q96 46 103 115q1 6 1 12q-1 43 -27 71q-27 26 -69 26q-43 -1 -70 -27 q-29 -30 -29 -74zM272 41q99 1 176 79q-116 137 -227 211q-70 -34 -97 -97q-11 -28 -11 -57q1 -63 47 -102q44 -34 112 -34z" glyph-name="ampersand" horiz-adv-x="712" unicode="&amp;"/>
<glyph d="M131 698q-10 -166 -11 -224q-23 -7 -48 -7q-11 153 -18 217q38 14 77 14z" glyph-name="quotesingle" horiz-adv-x="181" unicode="'"/>
<glyph d="M70 280q0 183 112 328q52 66 113 104q13 -16 24 -35q-88 -65 -138 -188q-39 -98 -39 -206q1 -240 175 -398q-14 -18 -30 -32q-122 99 -172 207q-45 99 -45 220z" glyph-name="parenleft" horiz-adv-x="328" unicode="("/>
<glyph d="M257 286q-1 -262 -221 -432q-7 7 -28 33q176 151 177 396q0 197 -115 336q-28 34 -59 59q16 22 24 32q101 -61 164 -183q58 -114 58 -241z" glyph-name="parenright" horiz-adv-x="328" unicode=")"/>
<glyph d="M196 510q2 -43 4 -128q-23 -1 -46 0q4 87 5 128q-22 -16 -103 -74q-14 19 -25 39q16 9 47 28q45 26 66 38q-76 44 -113 66q7 13 22 38l1 1q57 -38 106 -73l-6 126q4 0 12 1h12t12 -1h11l-3 -63q-1 -42 -2 -63q47 33 106 74q2 -4 8 -13q11 -18 15 -26q-98 -58 -112 -67 q98 -58 112 -67q-16 -26 -26 -38q-68 50 -103 74z" glyph-name="asterisk" horiz-adv-x="357" unicode="*"/>
<glyph d="M460 208h-170q-1 -71 -1 -196q-26 -3 -55 -3v199h-170q0 36 1 53q110 0 169 1v186q29 3 57 3v-83q-1 -69 -1 -105q118 0 172 1q1 -26 -2 -56z" glyph-name="plus" unicode="+"/>
<glyph d="M111 100q36 0 59 -39q13 -22 13 -45q0 -92 -95 -154q-9 -6 -17 -11q-16 18 -29 35q67 42 68 93q-1 33 -50 47q-6 45 25 66q13 8 26 8z" glyph-name="comma" horiz-adv-x="245" unicode=","/>
<glyph d="M131 213h-99q0 36 1 52q36 1 102 1q26 0 74 1q49 1 74 1q0 -22 -2 -55h-150z" glyph-name="hyphen" horiz-adv-x="315" unicode="-"/>
<glyph d="M125 102q42 0 51 -41q2 -7 2 -14q0 -37 -31 -51q-11 -5 -22 -5q-41 0 -54 35q-3 10 -3 20q0 34 29 49q13 7 28 7z" glyph-name="period" horiz-adv-x="245" unicode="."/>
<glyph d="M60 -55q-32 8 -49 14q87 200 172 398q19 44 59 139q60 140 86 200q25 -4 55 -16q-78 -176 -151 -344q-92 -213 -172 -391z" glyph-name="slash" horiz-adv-x="392" unicode="/"/>
<glyph d="M479 331q-1 -196 -90 -289q-51 -52 -134 -52q-77 1 -127 49q-82 83 -82 263q1 206 93 299q56 54 135 54q79 -1 130 -54q62 -69 73 -219q2 -25 2 -51zM265 609q-47 -1 -80 -40q-49 -60 -57 -217q-1 -22 -1 -45q0 -147 42 -217q2 -4 4 -7q35 -47 90 -48q46 1 78 38 q57 69 57 242q0 174 -43 243q-2 3 -3 5q-34 46 -87 46z" glyph-name="zero" unicode="0"/>
<glyph d="M312 48l156 -3q0 -30 -1 -44h-195h-97q-70 -1 -107 -1q0 31 1 45l163 3q3 1 4 5q1 168 1 504q-29 -8 -89 -25q-54 -15 -84 -23q-1 5 -4 17q-5 18 -6 26q46 17 240 98q16 7 18 7q2 -2 3 -4q0 -8 -3 -605z" glyph-name="one" unicode="1"/>
<glyph d="M456 472q-1 -135 -183 -305q-41 -40 -118 -106l1 -4q180 0 312 3h3q0 -24 -4 -61h-94q-129 1 -173 1h-143q-7 19 -14 41q113 93 175 154q138 134 153 240q2 15 2 28q-1 69 -36 106q-35 35 -98 36q-63 -1 -99 -31q-4 -5 -5 -12l-21 -97q-8 1 -26 3q-19 2 -27 3q2 20 5 62 q5 55 7 81q78 39 174 41q94 -1 147 -42q61 -53 62 -141z" glyph-name="two" unicode="2"/>
<glyph d="M135 570l-18 -95q-6 1 -19 2q-24 2 -34 4q7 98 10 137q75 37 174 37q94 -1 145 -39q43 -32 53 -87q2 -10 2 -19q0 -90 -84 -139q-25 -14 -52 -22v-6q102 -15 139 -91q15 -31 15 -65q-1 -87 -79 -148q-66 -49 -192 -49q-82 0 -131 15q-11 64 -21 140q28 7 53 11l25 -91 q2 -5 7 -10l1 -1q31 -14 83 -14q79 1 124 36q47 41 47 104q0 75 -75 110q-40 19 -91 19h-70q-2 34 -1 51q154 -3 203 75q18 28 18 62q-1 50 -31 78q-33 31 -101 31q-57 -1 -94 -25q-4 -5 -6 -11z" glyph-name="three" unicode="3"/>
<glyph d="M388 46l78 -2q1 -15 -1 -43h-117q-25 0 -74 -1h-65q0 29 1 43l103 3q3 1 5 4v122q-31 -1 -273 -1q-16 32 -25 58q46 67 141 198q121 167 165 222q45 0 66 -2q-1 -85 -2 -263q-1 -107 -1 -159q84 0 109 1q0 -36 -2 -53h-107q-1 -43 -1 -127zM319 555h-5q-17 -25 -49 -70 q-41 -59 -68 -97q-16 -23 -104 -155q-2 -6 2 -7q49 -1 222 -1z" glyph-name="four" unicode="4"/>
<glyph d="M462 220q0 -104 -71 -166q-6 -5 -11 -9q-75 -55 -194 -55q-69 0 -118 13q-14 81 -22 138q15 4 53 11l24 -90q3 -7 9 -11q27 -12 68 -12q84 1 134 42q49 43 50 116q0 117 -113 149q-37 10 -82 10q-51 0 -102 -9l-7 8q8 75 36 290h164q116 0 171 1q0 -31 -5 -62 q-91 1 -274 1q-4 -23 -11 -70q-11 -71 -16 -104q39 5 83 5q146 0 206 -95q28 -46 28 -101z" glyph-name="five" unicode="5"/>
<glyph d="M127 326h5q77 70 164 70q77 -1 121 -44q51 -48 60 -124q1 -12 1 -22q-1 -109 -82 -175q-52 -41 -132 -41q-84 1 -136 52q-78 79 -78 229q0 186 87 293q75 91 198 91q59 0 94 -15q9 -61 15 -129q-5 -1 -17 -3q-24 -5 -36 -7l-19 84q-3 8 -5 10q-22 11 -54 11 q-71 0 -118 -62q-4 -5 -7 -10q-50 -80 -61 -208zM275 35q52 1 85 36q40 45 40 119t-38 115q-32 36 -87 36q-59 0 -109 -44q-21 -18 -34 -40q-2 -114 46 -175q35 -46 97 -47z" glyph-name="six" unicode="6"/>
<glyph d="M420 578l-3 5q-241 2 -266 -1q-21 -2 -28 -22l-21 -78q-30 4 -53 9q4 25 12 77t12 77h26q40 -1 61 -1h318q11 -24 20 -56q-135 -225 -207 -429l-13 -39q-14 -43 -16 -119q-32 -3 -79 -3q0 75 20 128q44 120 210 438q4 7 7 14z" glyph-name="seven" unicode="7"/>
<glyph d="M346 348v-4q120 -44 137 -138q3 -15 3 -29q-1 -92 -79 -146q-61 -41 -155 -41q-90 0 -148 39q-65 47 -66 130q0 104 118 170q11 6 22 11v5q-104 51 -105 145q0 65 55 114q5 4 8 7q59 44 144 44q84 -1 132 -42q47 -43 48 -103q0 -98 -105 -157q-5 -3 -9 -5zM147 499 q0 -59 49 -91q32 -20 94 -41q91 45 97 121v12q-1 48 -27 76q-34 33 -86 33q-57 -1 -92 -30q-34 -32 -35 -80zM409 164q0 68 -60 106q-38 24 -118 49q-86 -37 -108 -111q-7 -22 -7 -44q1 -59 40 -93q40 -35 102 -35q63 1 103 28q47 37 48 100z" glyph-name="eight" unicode="8"/>
<glyph d="M397 316h-5q-75 -62 -158 -62q-76 1 -127 47q-58 56 -59 138q1 105 80 171q56 45 136 45q86 -1 137 -54q74 -83 74 -237q0 -179 -78 -281q-4 -4 -6 -7q-72 -86 -198 -86q-53 0 -98 10q-16 84 -23 126q28 8 52 11l24 -80q4 -7 9 -11q20 -10 57 -10q70 0 117 55q5 6 9 12 q53 81 57 213zM255 610q-52 -1 -85 -35q-41 -45 -43 -124q1 -69 34 -109q35 -37 92 -37q73 0 127 58q7 8 13 16q2 100 -35 169q-4 8 -8 14q-37 47 -95 48z" glyph-name="nine" unicode="9"/>
<glyph d="M126 418q39 0 50 -39q3 -9 3 -17q0 -35 -30 -50q-12 -5 -24 -5q-41 0 -54 34q-3 10 -3 20q0 35 30 51q13 6 28 6zM126 102q39 0 50 -39q2 -9 2 -17q0 -36 -31 -50q-11 -5 -23 -5q-40 0 -52 34q-4 10 -4 20q0 37 31 51q13 6 27 6z" glyph-name="colon" horiz-adv-x="245" unicode=":"/>
<glyph d="M126 418q40 0 50 -40q2 -9 2 -16q0 -36 -31 -50q-11 -5 -23 -5q-40 0 -52 34q-4 10 -4 20q0 35 30 51q13 6 28 6zM112 99q34 0 57 -37q14 -23 14 -47q0 -92 -95 -154q-9 -6 -17 -11q-12 14 -29 34q67 44 68 93q-1 34 -50 48q-6 45 25 66q13 8 27 8z" glyph-name="semicolon" horiz-adv-x="245" unicode=";"/>
<glyph d="M173 238q51 -44 233 -194q-16 -24 -31 -41q-51 39 -148 114l-123 96q-1 16 -1 47q123 90 273 201q18 -20 30 -42q-170 -131 -233 -181z" glyph-name="less" unicode="&lt;"/>
<glyph d="M63 283q0 20 2 53q22 0 398 3q1 -26 -2 -56h-398zM62 132q0 32 3 56h398q0 -18 -2 -53q-23 0 -399 -3z" glyph-name="equal" unicode="="/>
<glyph d="M332 235q-128 105 -234 189q14 24 30 41q115 -85 273 -205v-47q-249 -188 -273 -206q-13 15 -31 41q117 92 235 187z" glyph-name="greater" unicode="&gt;"/>
<glyph d="M385 504q0 -93 -110 -181q-21 -16 -45 -33q-26 -20 -27 -35q0 -23 20 -80q-21 -11 -51 -17q-25 32 -41 91q-5 21 -5 34q109 77 142 122q30 43 30 94q0 74 -58 99q-22 10 -49 10q-45 -1 -73 -21q-3 -4 -6 -12l-18 -86q-38 4 -56 7q2 23 7 73q3 40 5 59q65 32 155 32 q115 0 161 -81q19 -35 19 -75zM197 93q35 0 48 -34q4 -11 4 -20q0 -27 -27 -42q-13 -6 -25 -6q-38 0 -51 31q-4 9 -4 18q0 32 28 47q13 6 27 6z" glyph-name="question" horiz-adv-x="426" unicode="?"/>
<glyph d="M394 343h4l17 29q12 -2 45 -10q-19 -71 -54 -218q0 -6 8 -7q38 0 68 28q1 2 2 2q46 45 46 117q0 99 -70 151q-51 36 -125 36q-102 0 -172 -81q-68 -79 -68 -195q0 -129 100 -179q43 -21 95 -21q71 1 123 35q12 -15 17 -32q-64 -39 -156 -39q-106 0 -172 72 q-57 63 -57 161q0 148 102 238q85 76 201 76q118 0 183 -78q47 -57 47 -133q-1 -98 -64 -154q-55 -42 -136 -43q-15 0 -29 14q-2 3 -3 4q2 19 11 50l-6 2q-72 -64 -120 -69q-22 0 -48 22q-9 9 -13 16q-2 6 -2 20q0 37 15 85q23 71 74 107q31 22 63 22q44 -1 74 -28zM232 168 q2 -21 22 -22q28 0 78 47q27 25 35 43q5 16 18 67q-21 27 -61 28q-44 0 -72 -67q-2 -6 -4 -11q-16 -45 -16 -85z" glyph-name="at" horiz-adv-x="623" unicode="@"/>
<glyph d="M-13 46l56 3q4 3 5 5q35 89 231 605q13 1 55 1q42 -113 140 -388q55 -156 79 -222l61 -3q0 -32 -1 -46h-94q-24 0 -71 -1h-61q0 8 1 23v23l78 3q2 1 2 5q-41 117 -51 144q-3 5 -7 5l-239 -1q-43 -123 -53 -152l90 -3q0 -31 -1 -46h-133q-15 0 -46 -1h-42q0 31 1 46z M299 548h-4q-18 -48 -57 -156q-34 -94 -49 -136q-1 -5 2 -6h210q-26 77 -102 298z" glyph-name="A" horiz-adv-x="606" unicode="A"/>
<glyph d="M48 46l70 2q4 2 5 5v548l-75 3q0 8 1 24v21q88 2 175 2q133 0 192 -26q55 -27 73 -86q5 -18 5 -36q0 -83 -77 -131q-20 -12 -42 -20v-6q86 -11 132 -75q28 -39 28 -83q0 -99 -91 -152q-65 -37 -158 -37q-13 0 -68 1h-54h-117q0 31 1 46zM202 603l-1 -241q13 -2 48 -2 q89 0 137 52q30 33 30 74q0 81 -80 109q-33 11 -76 11q-34 0 -58 -3zM201 313l-1 -231q-1 -27 29 -33q18 -4 56 -4q96 0 141 56q26 33 26 79q0 69 -64 107q-50 28 -127 28q-53 0 -60 -2z" glyph-name="B" horiz-adv-x="574" unicode="B"/>
<glyph d="M50 289q0 183 125 289q4 4 7 6q92 76 227 76q81 0 127 -21q4 -54 10 -169q-15 -3 -57 -7l-16 108q-2 10 -8 15q-29 18 -83 18q-96 -1 -158 -64q-89 -91 -89 -228q0 -110 43 -172q9 -13 19 -24q48 -56 139 -66q14 -2 28 -2q83 0 177 42q9 -30 12 -51q-119 -49 -203 -49 q-116 1 -193 60q-87 68 -104 191q-3 24 -3 48z" glyph-name="C" horiz-adv-x="585" unicode="C"/>
<glyph d="M49 45l70 3q3 1 4 4v548l-74 3q0 32 1 46q108 2 204 2q147 0 232 -43q8 -5 16 -9q94 -55 126 -165q13 -44 13 -89q0 -154 -89 -249q-18 -18 -36 -32q-89 -64 -233 -64h-119h-55q-42 -1 -61 -1q0 8 1 24v22zM203 602l-2 -521q0 -24 19 -31q18 -5 58 -5q130 1 200 64 q60 55 76 158q3 25 3 48q0 124 -55 193q-15 18 -35 36q-73 62 -203 62q-47 0 -61 -4z" glyph-name="D" horiz-adv-x="691" unicode="D"/>
<glyph d="M51 46l69 3q3 0 3 3v549l-73 2q0 32 1 47h54q41 -1 61 -1q15 0 119 1h102h87q9 -140 9 -151q-6 -1 -21 -3q-22 -3 -32 -4l-16 87q-3 15 -21 18h-2q-66 5 -159 5q-5 0 -18 -1h-11l-1 -246q28 0 78 1q51 1 78 1q20 1 23 17q1 2 1 3l5 48q35 0 51 -1q-2 -60 -2 -95v-92 q-34 -2 -52 -1l-3 52q-3 18 -24 19q-47 1 -155 1l-1 -240q0 -14 10 -17q12 -3 46 -3q125 0 155 7q12 4 18 20l32 91l33 -6q13 -3 19 -4q-14 -65 -35 -157h-82q-144 1 -229 1q-22 0 -64 -1h-54q0 32 1 47z" glyph-name="E" horiz-adv-x="555" unicode="E"/>
<glyph d="M123 601l-73 2q0 32 1 47h53q41 -1 61 -1q15 0 120 1h102q23 0 56 1h33q8 -105 10 -160q-10 -1 -53 -6l-19 95q-3 15 -20 17h-2q-46 5 -168 5q-5 0 -14 -1h-7l-1 -260q60 0 157 2q21 0 23 14q1 3 1 5l7 50h51q-2 -66 -2 -101q0 -15 -1 -47v-44q-17 -1 -51 -1l-4 54 q-5 17 -26 18q-61 1 -155 3l-1 -244l117 -3q0 -31 -1 -47h-69q-55 1 -80 1q-21 0 -63 -1h-55v23q1 16 1 23l68 3q3 3 4 5v547z" glyph-name="F" horiz-adv-x="531" unicode="F"/>
<glyph d="M514 461l-14 100q-3 14 -8 19q-36 27 -103 27q-98 -1 -164 -63q-87 -86 -87 -223q1 -138 70 -209q72 -74 188 -74q63 0 88 18q3 3 4 6v170l-107 2q0 33 1 48h144h97q0 -33 -1 -48l-51 -2q-3 -2 -4 -4l-2 -205q-57 -33 -178 -33q-144 1 -227 68q-110 95 -110 251 q0 160 114 263q15 14 31 25q93 61 217 63q94 0 151 -27q6 -107 7 -166q-9 -1 -28 -3t-28 -3z" glyph-name="G" horiz-adv-x="665" unicode="G"/>
<glyph d="M54 47l65 3q3 1 4 4v547l-71 3q0 31 1 46h55q40 -1 59 -1q20 0 63 1h59q0 -32 -1 -47l-82 -2q-2 -1 -3 -4v-230q2 -3 4 -4h322v238l-85 2q0 32 1 46h125q19 0 58 1h49q1 -17 -1 -46l-64 -3q-2 -1 -2 -4l-3 -547l74 -3q0 -31 -1 -47h-53q-42 1 -61 1q-21 0 -64 -1h-57 q0 8 1 24v23l79 3q3 2 4 4v256q-2 3 -4 4l-323 -2l-1 -262l89 -3q0 -32 -1 -47h-58q-45 1 -66 1q-19 0 -58 -1h-54q0 31 1 47z" glyph-name="H" horiz-adv-x="731" unicode="H"/>
<glyph d="M123 601l-79 3v22q1 17 1 24h59q45 -1 65 -1t62 1h55q0 -8 -1 -24v-22l-79 -3q-2 -2 -3 -4l-2 -547l85 -3q0 -32 -1 -47h-55q-43 1 -64 1q-20 0 -62 -1h-58q0 31 1 47l72 3q3 2 4 4v547z" glyph-name="I" horiz-adv-x="324" unicode="I"/>
<glyph d="M462 605l-71 -3q-3 0 -3 -3v-348q0 -110 -35 -169q-7 -12 -15 -23q-60 -78 -185 -79q-60 0 -112 12q-3 23 -16 154q22 5 52 9l20 -99q3 -9 8 -12q23 -12 65 -12q75 0 110 52q1 2 2 3q26 41 27 129v32q0 121 -2 354l-125 3q0 31 1 45h83q60 -1 87 -1q19 0 59 1h51 q0 -30 -1 -45z" glyph-name="J" horiz-adv-x="493" unicode="J"/>
<glyph d="M123 600l-71 3q0 32 1 47h54q42 -1 62 -1q18 0 57 1h52q0 -32 -1 -47l-70 -2q-3 -2 -3 -6l-2 -240q41 0 69 7q55 52 179 211q10 13 18 23q0 2 -2 3l-67 4q0 31 1 46h130q14 0 43 1h36q0 -32 -1 -47l-53 -3q-96 -111 -220 -247v-5q57 -43 116 -137q62 -98 89 -136 q16 -22 33 -23l72 -4q0 -17 -2 -46q-12 -1 -40 -1.5t-40 -0.5q-11 0 -36 -1h-31q-12 13 -99 153q-5 8 -9 15q-87 141 -125 142q-47 0 -61 -2l-1 -257l81 -3q1 -17 -1 -47h-52q-44 1 -64 1q-19 0 -60 -1h-53v47l67 3q3 1 4 3v547z" glyph-name="K" horiz-adv-x="631" unicode="K"/>
<glyph d="M123 600l-73 3q-1 16 1 46h117h127q0 -18 -2 -47l-87 -2q-2 -2 -2 -4l-3 -528q0 -16 9 -19q9 -2 34 -2q127 0 159 6q12 4 18 21l36 105q15 -2 53 -12q-11 -54 -39 -168h-81q-139 1 -223 1q-22 0 -64 -1h-54q0 18 2 47l68 3q3 2 4 4v547z" glyph-name="L" horiz-adv-x="523" unicode="L"/>
<glyph d="M122 600l-70 2q0 33 1 47h176q29 -71 94 -236q75 -189 114 -286h5q28 70 86 216q85 214 123 306q28 0 86 1h80q0 -32 -1 -47l-65 -3q-2 -2 -3 -5q0 -196 2 -545l70 -3q0 -32 -1 -47h-50q-40 1 -58 1q-20 0 -62 -1h-53q0 8 1 24v22l77 3q4 3 4 5q0 27 -3 502h-6 q-113 -300 -218 -525q-10 -1 -45 -1q-118 266 -217 530h-6q-6 -463 -6 -510l89 -3q0 -18 -2 -47h-58q-44 1 -65 1q-17 0 -50 -1h-44q0 8 1 24v22l66 4q3 2 4 4q1 84 2 275q2 189 2 271z" glyph-name="M" horiz-adv-x="869" unicode="M"/>
<glyph d="M48 46l64 3q3 1 4 4v549l-73 2q-1 17 1 47h71q51 -1 73 -1q186 -276 358 -540l5 1q-2 328 -4 491l-94 1q0 8 1 24v23h124q18 0 53 1h43v-46l-61 -3q-2 -2 -3 -4l-3 -594q-24 -11 -53 -11q-165 227 -372 539h-6q0 -322 -1 -483l100 -2q0 -7 -1 -23v-23h-132q-17 0 -51 -1 h-44q0 32 1 46z" glyph-name="N" horiz-adv-x="716" unicode="N"/>
<glyph d="M346 -10q-125 1 -207 84q-89 90 -89 246q0 139 87 237q24 28 52 47q83 56 189 56q97 -1 168 -50q85 -60 112 -179q10 -42 10 -86q0 -159 -91 -261l-13 -13q-85 -81 -218 -81zM361 40q95 1 149 62q72 86 72 222q-1 145 -71 225q-58 61 -145 61q-84 -1 -142 -52 q-77 -70 -87 -200q-1 -16 -1 -32q0 -142 69 -219l5 -5q58 -62 151 -62z" glyph-name="O" horiz-adv-x="718" unicode="O"/>
<glyph d="M123 601l-69 2q0 31 1 46q92 2 164 2q103 0 159 -16q2 -1 3 -1q82 -24 115 -99q14 -34 14 -68q0 -94 -72 -157q-25 -21 -52 -33q-60 -25 -143 -25q-10 0 -28 1h-14l-1 -203l112 -3q0 -31 -1 -46h-149q-74 0 -108 -1q0 32 1 46l64 4q3 2 4 4v547zM203 601l-2 -291 q9 -9 53 -9q68 1 107 26q67 41 68 127q0 106 -95 139q-36 12 -80 12q-37 0 -51 -4z" glyph-name="P" horiz-adv-x="547" unicode="P"/>
<glyph d="M50 317q0 150 95 249q24 25 51 43q79 51 183 51q89 -1 155 -41q99 -63 127 -196q8 -40 8 -81q0 -152 -85 -250q-10 -12 -20 -21q-48 -48 -109 -67v-5q77 -49 148 -80q33 -14 73 -14q41 0 87 14q4 -21 6 -48q-82 -28 -134 -29q-36 1 -75 21q-80 43 -185 128q-7 -1 -22 -1 q-131 1 -215 84q-88 90 -88 243zM136 323q1 -147 76 -223q61 -60 151 -60q92 1 147 63q73 84 73 215q-1 159 -76 235q-64 55 -140 57q-86 -1 -146 -55q-66 -63 -81 -176q-4 -28 -4 -56z" glyph-name="Q" horiz-adv-x="718" unicode="Q"/>
<glyph d="M123 601l-69 2q0 31 1 46q112 2 193 2q82 0 137 -15q68 -20 103 -80q19 -35 19 -71q0 -103 -96 -160q-19 -12 -40 -20v-5q38 -17 76 -84q7 -14 47 -91q37 -69 50 -73q3 -1 5 -1l62 -3q0 -16 -2 -47h-66q-19 -1 -65 -1q-18 24 -90 164q-25 49 -37 68q-25 38 -63 44 q-13 2 -30 2q-48 0 -58 -2v-226l84 -3q0 -31 -1 -47h-54q-45 1 -66 1q-20 0 -60 -1h-49q0 31 1 47l63 3q4 1 5 3v548zM203 600l-2 -274q8 -2 53 -2q114 0 156 79q15 30 15 61q0 101 -94 131q-32 10 -71 10q-47 0 -57 -5z" glyph-name="R" horiz-adv-x="600" unicode="R"/>
<glyph d="M98 180l18 -105q3 -8 8 -11q34 -23 93 -23q76 1 114 39q32 34 32 80q0 63 -42 95q-20 14 -102 52q-109 50 -138 110q-13 29 -13 63q0 72 54 123q6 6 11 10q59 47 163 47q81 0 122 -22q8 -79 11 -148q-7 -1 -22 -3q-22 -3 -33 -4l-17 94q-3 9 -6 12q-25 20 -75 20 q-60 -1 -94 -30q-37 -33 -38 -83q0 -52 35 -79q24 -19 102 -53q107 -47 138 -100q20 -35 20 -79q-1 -87 -58 -139q-63 -56 -180 -56q-86 0 -145 23q-1 1 -2 1q-2 28 -7 84q-4 50 -6 74q36 6 57 8z" glyph-name="S" horiz-adv-x="492" unicode="S"/>
<glyph d="M161 47l81 3q3 1 4 3v547q-101 0 -130 -4q-22 -2 -25 -19l-16 -96q-23 1 -56 5q2 27 5 82t5 82h29q39 -1 63 -1h170h168q42 1 86 1q4 -52 8 -163q-17 -2 -56 -6l-15 97q-3 15 -19 18q-3 1 -6 1q-41 3 -131 3l-2 -550l92 -3v-23q-1 -17 -1 -24h-59q-46 1 -67 1h-64 q-44 -1 -65 -1q0 32 1 47z" glyph-name="T" horiz-adv-x="567" unicode="T"/>
<glyph d="M185 600l-2 -329q-1 -112 34 -164q4 -6 7 -10q41 -52 119 -53q73 2 116 46q43 45 48 153q1 12 1 23q0 228 -1 330q-2 3 -4 4l-83 2q0 32 1 47h116h104q0 -30 -1 -46l-64 -3l-2 -335q-2 -140 -70 -213q-61 -62 -164 -62q-112 1 -171 58q-58 56 -65 167q-1 22 -1 48v332 q-2 5 -5 6l-61 2q0 32 1 46h108q23 0 68 1h60q0 -32 -1 -47z" glyph-name="U" horiz-adv-x="669" unicode="U"/>
<glyph d="M630 604l-56 -4q-17 -43 -55 -141q-35 -90 -51 -132q-91 -234 -135 -336h-15q-28 -1 -41 -1q-48 126 -127 347q-31 87 -88 260q-3 3 -6 4l-58 3v23q1 16 1 23h103h150v-24q-1 -16 -1 -23l-98 -3q28 -102 70 -228q80 -246 92 -279h5q37 94 96 258q63 180 82 244q-1 4 -3 5 l-88 3q0 32 1 47h130h93q0 -31 -1 -46z" glyph-name="V" horiz-adv-x="624" unicode="V"/>
<glyph d="M885 604l-55 -3q-14 -53 -41 -150q-22 -81 -33 -121q-52 -195 -99 -340q-12 -1 -58 -1q-77 233 -149 494h-6q-77 -232 -175 -493q-12 -1 -56 -1q-34 128 -87 356q-11 49 -33 149q-15 69 -23 104q-2 2 -5 3l-58 3q0 31 1 46h100h147q0 -31 -1 -46l-96 -3q16 -107 41 -225 q30 -156 54 -273h6q23 69 82 247q65 198 90 272q9 1 54 1q22 -75 70 -248q53 -189 79 -276h6q26 107 63 259q43 188 52 238q-2 4 -4 5l-87 2q0 32 1 46h63q45 1 66 1h92q0 -31 -1 -46z" glyph-name="W" horiz-adv-x="880" unicode="W"/>
<glyph d="M-11 46l57 3q4 1 7 4q30 40 90 123q73 101 109 149v7q-106 158 -175 266q-7 3 -8 3l-60 3q0 31 1 45h105q27 0 77 1h65q0 -31 -1 -46l-88 -3q65 -114 133 -213q2 -3 3 -5h6q48 67 118 187q9 17 14 26q1 4 -2 5l-80 3q0 31 1 45h126q17 0 50 1h43q0 -31 -1 -46l-57 -3 q-115 -167 -182 -259v-6q46 -65 195 -287l63 -3q0 -30 -1 -45h-105q-25 0 -73 -1h-64q0 32 1 46l78 4q3 0 4 2q-1 2 -1 3q-82 135 -146 225q-1 2 -2 3h-6q-44 -61 -154 -233l83 -3q0 -32 -1 -46h-129q-16 0 -49 -1h-45q0 31 1 46z" glyph-name="X" horiz-adv-x="589" unicode="X"/>
<glyph d="M160 47l79 2q5 3 5 6v196q-21 37 -193 347q-4 3 -5 4l-52 2q0 32 1 47h45q36 -1 53 -1q26 0 77 1h64q0 -32 -1 -47l-90 -3q56 -110 152 -292h5q91 165 145 281q2 4 3 7q-1 3 -3 4l-81 3q0 31 1 46h124q14 0 45 1h41q0 -31 -1 -46l-51 -4q-31 -53 -101 -176 q-68 -120 -99 -172l-1 -203l92 -3q0 -18 -2 -47h-58q-46 1 -68 1q-21 0 -64 -1h-63q0 31 1 47z" glyph-name="Y" horiz-adv-x="562" unicode="Y"/>
<glyph d="M128 56l1 -3q243 0 283 5q13 2 22 4q20 7 27 27l33 102q26 -3 57 -10q-28 -126 -42 -182h-44q-163 1 -242 1h-176q-9 19 -18 43q65 82 375 504q19 25 34 45l-2 5q-40 0 -106 1h-63q-73 0 -101 -3q-16 -7 -22 -25l-32 -105q-32 4 -55 9q5 29 15 88q11 60 16 89q23 0 92 -2 h336q13 -29 18 -53q-279 -380 -406 -540z" glyph-name="Z" horiz-adv-x="583" unicode="Z"/>
<glyph d="M108 -128v829q65 0 186 2q0 -28 -1 -42l-112 -3q-6 -1 -6 -8l-3 -733l122 -3q0 -30 -1 -44q-70 0 -185 2z" glyph-name="bracketleft" horiz-adv-x="323" unicode="["/>
<glyph d="M329 -52q-62 144 -172 397q-64 149 -147 340q5 2 17 8q24 11 37 16q27 -64 91 -217q37 -87 53 -126q28 -64 84 -195q57 -132 86 -200q-28 -15 -49 -23z" glyph-name="backslash" horiz-adv-x="392" unicode="\"/>
<glyph d="M217 702l-3 -830q-65 0 -184 -2q-1 15 -1 44l121 3v733q-2 7 -7 8l-111 3q-1 15 -1 43q32 0 96 -1q62 -1 90 -1z" glyph-name="bracketright" horiz-adv-x="323" unicode="]"/>
<glyph d="M243 631q15 1 45 1q28 -42 89 -133q63 -93 95 -140q-19 -17 -42 -32q-32 45 -94 130q-49 68 -71 98q-75 -108 -161 -228q-25 18 -43 32l76 114q74 110 106 158z" glyph-name="asciicircum" unicode="^"/>
<glyph d="M0 -73h500v-54h-500v54z" glyph-name="underscore" horiz-adv-x="500" unicode="_"/>
<glyph d="M119 640q22 -21 68 -69q45 -46 65 -65q-16 -19 -29 -31q-15 12 -47 39q-68 57 -100 82q19 21 43 44z" glyph-name="grave" horiz-adv-x="333" unicode="`"/>
<glyph d="M293 35h-5q-88 -45 -146 -45q-49 0 -87 38q-26 28 -26 60q0 52 52 92q56 42 143 42h68q5 124 -51 144q-14 5 -32 5q-59 -1 -120 -67q-21 21 -34 38q87 87 178 88q83 0 117 -73q17 -38 17 -89q0 -125 -2 -210q0 -15 9 -15l67 2v-42q-47 -12 -115 -13q-10 10 -33 45z M110 96q0 -35 38 -48q14 -5 29 -5q53 1 111 40q3 4 3 9v85q-11 2 -56 2q-104 0 -122 -62q-3 -10 -3 -21z" glyph-name="a" horiz-adv-x="454" unicode="a"/>
<glyph d="M150 382l4 -2q95 47 136 49q8 1 19 1q76 0 124 -72q36 -53 36 -114q0 -72 -24 -129q-28 -61 -81 -96q-44 -29 -114 -29q-62 0 -113 31l-23 -34q-21 2 -46 8q6 77 7 117v519l-73 3q0 29 1 42q25 3 102 17q41 8 45 8l3 -3q0 -60 -2 -206q-1 -75 -1 -110zM387 211 q0 71 -25 112q-31 46 -81 48q-65 -1 -130 -47q0 -38 -1 -118v-117q0 -21 39 -39q30 -13 62 -13q55 1 90 37q46 48 46 137z" glyph-name="b" horiz-adv-x="509" unicode="b"/>
<glyph d="M40 185q0 123 86 193q65 52 156 52q60 0 92 -21q0 -19 -21 -50q-7 -8 -11 -11q-2 1 -10 4q-48 20 -80 20q-54 -1 -86 -37q-45 -52 -45 -131q1 -79 36 -122q32 -38 90 -38q48 0 124 30q6 -20 11 -43q-82 -41 -159 -41q-93 0 -145 69q-38 52 -38 126z" glyph-name="c" horiz-adv-x="403" unicode="c"/>
<glyph d="M365 35h-6q-84 -43 -125 -45h-14q-73 1 -122 49q-58 57 -58 152q1 100 67 175q57 64 149 64q47 0 99 -20l4 3q0 38 -1 109q-1 72 -1 109l-83 2q0 29 1 43q28 3 106 17q48 8 52 8q2 -2 3 -4q0 -87 -1 -302q-2 -229 -2 -328q1 -20 11 -21l68 3v-42q-34 -13 -102 -17h-15 q-16 14 -30 45zM357 97q0 179 -1 255q-48 26 -98 26q-64 -1 -99 -48q-36 -49 -36 -130q1 -73 32 -116q31 -40 85 -41q56 1 111 39q6 6 6 15z" glyph-name="d" horiz-adv-x="521" unicode="d"/>
<glyph d="M40 192q0 114 73 183q58 55 140 55q77 -1 118 -51q38 -49 38 -131q-8 -20 -26 -32q-5 -3 -8 -4q-89 -3 -254 -3q-1 -83 33 -124q42 -39 103 -40q54 0 133 32q8 -22 11 -45q-86 -42 -159 -42q-123 0 -175 91q-27 48 -27 111zM241 383q-47 -1 -74 -30q-39 -49 -42 -98 q110 0 195 3q12 2 13 11q-1 51 -27 84q-25 30 -65 30z" glyph-name="e" horiz-adv-x="445" unicode="e"/>
<glyph d="M177 47l98 -2q0 -30 -1 -44h-135h-49q-36 -1 -51 -1q0 8 1 22v21l58 4q2 1 3 4v315h-75q0 34 1 49q46 2 69 2q4 2 5 7q0 109 29 156q9 15 24 32q67 71 152 71q35 0 65 -12q0 -24 -23 -55q-5 -7 -9 -10q-40 15 -68 15q-41 -2 -62 -29q-24 -32 -28 -88q-2 -32 -2 -87 q98 0 144 1q0 -22 -2 -53h-143q0 -216 -1 -318z" glyph-name="f" horiz-adv-x="334" unicode="f"/>
<glyph d="M138 115v5q-91 47 -93 142q0 78 64 128q53 40 128 40q42 0 69 -9q9 -2 21 -2q15 1 49 2q61 3 82 4q1 -25 0 -51h-95v-4q35 -34 35 -94q0 -62 -40 -108q-3 -4 -5 -6q-58 -60 -165 -55q-46 -39 -49 -52q0 -20 36 -26q24 -4 95 -7q113 -5 145 -26q40 -26 45 -61q1 -9 1 -18 q0 -75 -76 -120q-13 -8 -27 -14q-66 -28 -153 -28q-156 0 -185 80q-6 17 -6 35q1 27 22 45q19 15 47 35q24 19 36 28v5q-58 20 -59 69q0 7 25 25q14 10 53 38zM124 265q0 -95 69 -113q14 -3 27 -3q62 0 88 59q12 29 12 65q-1 54 -23 83q-26 31 -70 31q-73 0 -95 -69 q-8 -24 -8 -53zM386 -99q0 37 -32 49q-23 8 -80 12q-29 2 -104 6q-56 -49 -67 -66q-11 -16 -11 -32q0 -48 72 -65q25 -6 52 -6q70 0 115 23q54 31 55 79z" glyph-name="g" horiz-adv-x="466" unicode="g"/>
<glyph d="M164 371l4 -1q102 56 143 59q9 1 21 1q65 0 107 -65l4 -6q14 -26 14 -75q0 -82 -2 -237l66 -2q0 -30 -1 -44h-102q-17 0 -52 -1h-49v43l59 4q3 1 4 4v182q0 77 -12 100q-2 3 -3 5q-20 32 -63 32q-60 -1 -137 -55q-2 -158 -2 -268l77 -2v-22q-1 -15 -1 -22h-115h-48 q-34 -1 -49 -1q0 30 1 44l57 3q2 1 3 4q1 176 1 583l-76 1q-1 17 1 42q20 3 91 15q55 9 59 9q2 -2 3 -4q0 -62 -2 -211q-1 -78 -1 -115z" glyph-name="h" horiz-adv-x="545" unicode="h"/>
<glyph d="M136 632q40 0 48 -39q2 -7 2 -13q0 -37 -32 -50q-11 -4 -21 -4q-36 0 -50 32q-4 10 -4 21q0 37 34 49q11 4 23 4zM102 361l-77 2v42q22 3 91 15q56 10 61 10q2 -2 2 -3q0 -56 -1 -193q-1 -134 -1 -187l70 -3q0 -29 -1 -43h-111q-17 0 -53 -1h-51v44l67 3q3 1 4 4v310z " glyph-name="i" horiz-adv-x="266" unicode="i"/>
<glyph d="M122 632q41 0 50 -41q1 -7 1 -13q0 -36 -31 -49q-10 -4 -21 -4q-36 0 -50 32q-4 11 -4 21q0 34 29 48q12 6 26 6zM95 359l-81 1q0 29 1 43q19 3 87 15q64 12 69 12q2 -2 2 -3v-171q-1 -121 -1 -172q0 -108 -28 -172l-12 -24q-40 -82 -105 -120q-19 1 -44 26 q-11 11 -13 19q71 33 95 76q32 58 32 175z" glyph-name="j" horiz-adv-x="244" unicode="j"/>
<glyph d="M88 633l-76 1q0 29 1 42q21 3 94 16q53 9 57 9q2 -2 3 -4q0 -37 -3 -443q46 0 63 3q61 56 107 110q1 4 -2 5l-47 2q0 32 1 45h100q14 0 42 1h39q1 -23 0 -45l-47 -3q-86 -83 -135 -127v-5q40 -33 84 -104q40 -64 53 -79q9 -9 18 -9l60 -2q0 -30 -1 -45q-38 -1 -133 -1 q-24 32 -67 110q-49 83 -83 100q-28 0 -52 -2q0 -24 -1 -81v-80l63 -3q0 -29 -1 -43h-102q-17 0 -53 -1h-48q0 30 1 44l62 3q1 1 2 4q1 176 1 582z" glyph-name="k" horiz-adv-x="499" unicode="k"/>
<glyph d="M90 633l-80 2v21q1 15 1 22q26 2 110 16q41 7 45 7q2 -2 3 -4q0 -79 -2 -276q-1 -262 -2 -374l78 -3q0 -29 -1 -43h-116q-18 0 -56 -1h-52q0 30 1 44l67 3q2 1 3 4q2 380 1 582z" glyph-name="l" horiz-adv-x="256" unicode="l"/>
<glyph d="M101 360l-76 3q0 28 1 41q24 3 97 17q38 8 41 8t3 -3q1 -7 4 -23q3 -21 4 -31l4 -1q92 55 132 58q7 1 18 1q63 -1 107 -67h3q94 60 135 65q11 1 25 1q63 -1 105 -65q22 -37 22 -76q0 -37 -1 -119q-2 -84 -2 -122l64 -2q0 -7 -1 -22v-22h-104q-17 0 -51 -1h-43q0 30 1 43 l56 4q2 1 3 4q1 67 1 198q0 59 -11 82q-20 38 -68 39q-50 -1 -119 -52q1 -46 0 -161q-1 -76 -1 -110l68 -3q0 -29 -1 -43h-111q-16 0 -49 -1h-42q0 30 1 44l56 3q3 1 4 4v205q-1 61 -12 82q-20 34 -63 34q-48 0 -111 -45q-6 -4 -11 -8q-3 -128 -3 -272l71 -3q0 -29 -1 -43 h-110q-16 0 -51 -1h-47q0 30 1 44l59 3q2 1 3 4v309z" glyph-name="m" horiz-adv-x="812" unicode="m"/>
<glyph d="M101 360l-77 2v20q1 15 1 21q22 3 89 17q45 9 49 9q2 -2 2 -3q5 -29 11 -59l5 -1q95 58 136 63q11 1 28 1q64 0 103 -63q2 -3 3 -5q20 -33 20 -73q0 -19 -3 -242l64 -3q0 -29 -1 -43h-50q-37 -1 -55 -1q-16 0 -50 -1h-46q0 30 1 44l58 3q3 2 3 4q1 55 1 181q0 78 -13 101 q-22 38 -68 38q-51 0 -120 -49q-7 -5 -13 -10q-2 -150 -2 -264l72 -3q0 -7 -1 -22v-22h-53q-41 1 -60 1q-16 0 -50 -1h-47q0 29 1 44l59 3q3 1 4 3z" glyph-name="n" horiz-adv-x="558" unicode="n"/>
<glyph d="M244 -10q-85 1 -137 47q-66 62 -66 165q1 114 84 183q58 45 137 45q75 -1 124 -37q78 -60 78 -173q0 -117 -82 -185q-2 -2 -4 -3q-54 -42 -134 -42zM252 34q52 1 83 33q45 50 45 149q-1 88 -40 132q-35 38 -85 38q-51 -1 -84 -34q-46 -48 -46 -143q1 -95 47 -142 q31 -33 80 -33z" glyph-name="o" horiz-adv-x="505" unicode="o"/>
<glyph d="M159 376l5 -1q96 49 128 54q11 1 28 1q82 0 130 -79q31 -53 31 -112q0 -70 -24 -123q-29 -62 -76 -95q-2 -1 -3 -2q-44 -28 -111 -29q-56 0 -102 23l-4 -2v-191l93 -2q0 -29 -1 -43q-86 0 -130 -1q-70 0 -100 -1q0 29 1 43l58 4q3 2 4 5v535l-76 1q0 28 1 41q22 3 92 19 q42 9 45 9t3 -3q5 -26 8 -51zM399 215q0 61 -21 103q-32 49 -87 52q-60 -1 -127 -47q0 -39 -1 -121v-113q0 -20 40 -37q30 -14 61 -14q53 1 87 35q48 49 48 142z" glyph-name="p" horiz-adv-x="522" unicode="p"/>
<glyph d="M359 34h-7q-76 -41 -113 -43h-14q-76 1 -125 49q-59 58 -59 153q1 99 65 171q57 65 154 65q48 0 109 -22l27 28q26 -2 43 -7q-4 -49 -4 -92q0 -60 -1 -213q-2 -222 -1 -302l63 -1q0 -30 -1 -44h-47q-36 -1 -55 -1q-3 0 -126 -3q0 29 1 43l86 6q3 2 4 6zM258 378 q-64 -1 -98 -48q-36 -47 -36 -129q1 -75 34 -117q33 -39 86 -40q46 1 108 41q5 4 5 15v251q-46 27 -99 27z" glyph-name="q" horiz-adv-x="507" unicode="q"/>
<glyph d="M101 361l-73 1q0 28 1 42q22 3 89 16q47 9 50 9q1 -2 1 -3q2 -27 4 -133l5 -1q59 115 106 133q14 5 29 5q33 0 59 -11q0 -30 -20 -63q-5 -7 -8 -10q-3 0 -12 2q-27 5 -39 5q-16 -1 -34 -14q-32 -29 -65 -94q-17 -32 -17 -91q-1 -36 -1 -108l94 -2q0 -29 -1 -43h-127 q-18 0 -54 -1h-50q0 30 1 43l58 3q3 1 4 3v312z" glyph-name="r" horiz-adv-x="375" unicode="r"/>
<glyph d="M88 134l13 -65q4 -9 9 -12q27 -21 69 -21q51 1 75 16q27 22 28 56q0 38 -31 54q-17 8 -82 28q-92 28 -108 79q-5 16 -5 34q0 62 57 98l6 3q47 26 119 26q67 0 98 -18q8 -70 11 -110l-18 -3q-23 -3 -33 -4l-14 63q-2 7 -7 11q-20 15 -59 15q-38 -1 -62 -19 q-24 -19 -25 -52q0 -32 25 -46q17 -9 74 -26q84 -24 109 -57q19 -26 19 -63q-1 -68 -64 -106q-43 -25 -121 -25q-73 0 -120 19q-3 19 -7 58q-6 39 -8 58q25 6 52 9z" glyph-name="s" horiz-adv-x="401" unicode="s"/>
<glyph d="M201 -9q-48 1 -77 26q-26 24 -27 68v10q0 30 1 103v51q0 16 1 64v52h-69q0 20 2 49q23 0 64 2q5 2 6 7q1 15 2 49q1 31 1 44q4 2 8.5 5t9 5t9 4.5t9 4.5t8.5 4l8 4t7.5 3t5.5 2l4 2h2q3 0 3 -3q-2 -68 -2 -130q106 0 157 1q0 -9 -3 -52h-156v-112q-1 -42 -1 -148 q0 -51 49 -60q8 -1 16 -1q38 0 96 15q2 -10 7 -44q-69 -25 -141 -25z" glyph-name="t" horiz-adv-x="358" unicode="t"/>
<glyph d="M366 43l-5 1q-84 -50 -125 -53q-10 -1 -24 -1q-58 0 -99 54q-30 40 -30 83q0 45 1 132v110l-61 1q0 17 2 46q12 0 51 2q76 2 84 2q3 0 3 -3q-3 -115 -3 -239q0 -64 10 -86q2 -6 5 -10q24 -36 69 -36q51 1 118 50v273l-64 2q0 32 1 47q23 0 100 1q34 1 39 1q1 -2 2 -3 q0 -56 -1 -175q-1 -123 -1 -182q1 -13 7 -14l67 1q0 -29 -1 -42q-38 -13 -102 -15h-11q-16 17 -32 53z" glyph-name="u" horiz-adv-x="528" unicode="u"/>
<glyph d="M475 376l-47 -3q-8 -16 -39 -86q-29 -67 -47 -106q-43 -99 -89 -190q-15 -1 -57 -1q-61 157 -82 219q-14 43 -56 161q-2 3 -4 3l-52 3q0 30 1 44h95h113q0 -30 -1 -44l-67 -2q11 -42 42 -142q45 -138 51 -156h6q40 93 58 141q44 112 56 153q-1 2 -2 3l-58 3q0 30 1 43h49 q36 1 53 1h77q0 -29 -1 -44z" glyph-name="v" horiz-adv-x="473" unicode="v"/>
<glyph d="M681 377l-45 -3q-44 -135 -62 -189q-35 -104 -70 -195q-16 -1 -58 -1q-56 154 -98 304h-5q-50 -132 -127 -303q-15 -1 -54 -1q-38 123 -62 216q-7 29 -43 165q-2 2 -4 3l-47 3q0 31 1 44h86h115q0 -30 -1 -44l-70 -2q3 -21 29 -143q17 -83 35 -153h5q114 294 122 315 q11 1 58 1l28 -92q53 -176 69 -226h6q32 113 41 145q22 73 39 148q-1 3 -3 4l-57 2q0 31 1 44h101q12 0 38 1h33q0 -29 -1 -43z" glyph-name="w" horiz-adv-x="680" unicode="w"/>
<glyph d="M1 43l41 3q7 2 10 6q15 17 143 159v7q-18 23 -52 66q-47 60 -67 86q-3 2 -6 3l-48 3q0 30 1 43h94h107q0 -29 -1 -43l-58 -3q11 -16 49 -68q23 -34 35 -50h6q69 89 85 114q1 3 -1 4l-50 2q0 7 1 22v22h96q14 0 41 1h34q0 -30 -1 -43l-46 -4q-11 -12 -44 -51 q-54 -62 -87 -100v-5q24 -30 73 -94q42 -55 59 -76l53 -3q0 -29 -1 -43h-91h-111q0 30 1 43l52 2q5 0 5 3q-1 2 -1 3q-26 39 -92 124h-5q-45 -51 -104 -130l55 -2q0 -29 -1 -43h-98q-13 0 -39 -1h-38q0 30 1 43z" glyph-name="x" horiz-adv-x="474" unicode="x"/>
<glyph d="M466 376l-44 -3q-8 -21 -82 -201q-93 -221 -158 -319q-52 -78 -86 -98q-19 0 -48 26q-13 11 -14 18q55 37 89 80q49 57 76 119q-43 104 -86 217q-11 29 -29 77q-20 56 -29 78q-2 2 -5 3l-49 3q0 31 1 44h86h121q0 -30 -1 -44l-70 -2q14 -49 45 -139q30 -87 57 -159h5 q32 77 55 140q20 53 51 152q0 4 -3 5l-61 3q0 30 1 43h47q37 1 54 1h78q0 -29 -1 -44z" glyph-name="y" horiz-adv-x="462" unicode="y"/>
<glyph d="M121 50l1 -4q139 0 184 4q24 3 31 20l28 79q26 -4 51 -11q-22 -92 -34 -139h-21q-63 1 -113 1h-117h-89q-8 19 -14 39q250 294 279 330l-1 5q-88 0 -159 -2q-23 -1 -28 -15l-26 -79q-12 2 -52 9q4 19 12 56q11 52 17 77h22q42 -1 71 -1q112 -2 221 0q8 -20 15 -50 q-12 -15 -278 -319z" glyph-name="z" horiz-adv-x="441" unicode="z"/>
<glyph d="M135 297v-6q51 -16 61 -66q2 -11 2 -21q0 -31 -14 -116q-6 -39 -6 -68q0 -82 71 -107q25 -8 56 -8q1 -14 1 -43q-116 0 -168 72q-28 39 -28 88q0 34 18 120q7 36 7 58q0 60 -59 67q-13 2 -27 1q-1 15 -1 44q79 0 86 46q1 7 1 14q0 18 -15 92q-8 43 -8 76q0 118 106 154 q40 13 90 14q1 -21 0 -42q-124 -9 -128 -118q0 -26 14 -110q5 -34 5 -59q0 -60 -58 -80z" glyph-name="braceleft" horiz-adv-x="334" unicode="{"/>
<glyph d="M236 750h53v-1000h-53v1000z" glyph-name="bar" unicode="|"/>
<glyph d="M197 289v6q-62 21 -63 83q0 24 15 101q7 40 7 69q0 104 -99 115q-13 2 -28 2q-2 29 -1 43q154 0 188 -110q8 -27 8 -58q0 -35 -19 -114q-7 -33 -8 -54q0 -48 51 -57q17 -3 37 -3q0 -30 -1 -44q-86 0 -88 -68q0 -21 17 -99q9 -45 10 -78q0 -86 -76 -131q-51 -29 -120 -29 q-1 15 1 43q97 0 121 72q7 20 7 43q0 29 -14 110q-7 40 -8 72q0 51 42 77q11 6 21 9z" glyph-name="braceright" horiz-adv-x="334" unicode="}"/>
<glyph d="M179 302q44 -1 98 -37q44 -27 58 -31q11 -3 21 -3q35 0 49 47q4 13 5 26q25 1 50 0q-2 -69 -45 -110q-27 -25 -60 -25q-36 0 -92 36q-3 1 -4 2q-44 26 -48 27q-17 7 -33 7q-45 0 -61 -59q-1 -7 -2 -12q-16 0 -49 2q7 75 57 111q27 19 56 19z" glyph-name="asciitilde" unicode="~"/>
<glyph glyph-name="uni00A0" horiz-adv-x="220" unicode=" "/>
<glyph d="M89 -234v2q20 442 21 484q9 2 33 5q14 1 19 2q1 -15 11 -228q4 -125 13 -247q-44 -13 -97 -18zM134 327q-37 0 -49 37q-2 8 -2 16q0 29 27 44q13 6 25 6q37 0 50 -31q4 -10 4 -19q0 -32 -28 -47q-13 -6 -27 -6z" glyph-name="exclamdown" horiz-adv-x="273" unicode="¡"/>
<glyph d="M69 298q0 111 80 179q52 44 124 55q0 69 1 102q22 5 51 7q-1 -16 -1 -52q-1 -35 -1 -52q6 1 19 1q61 0 112 -25q0 -22 -20 -48q-7 -8 -12 -11q-58 31 -101 31q-1 -53 -2 -163q-2 -112 -2 -164q60 3 133 34q4 -11 13 -42q-79 -36 -146 -42q0 -20 -1 -58v-48q-15 -2 -48 -4 q0 69 1 108q-117 4 -169 82q-31 46 -31 110zM143 314q1 -76 38 -117q34 -33 87 -38q0 52 2 162q1 110 1 162q-73 -12 -109 -86q-19 -40 -19 -83z" glyph-name="cent" unicode="¢"/>
<glyph d="M345 654q52 0 91 -15q7 -64 12 -142l-54 -6l-16 94q-5 11 -10 13q-20 7 -50 7q-49 -1 -79 -32q-33 -34 -33 -104q0 -13 12 -131q1 -5 1 -8q48 0 181 2q0 -27 -3 -51h-172q2 -24 2 -34q-1 -108 -62 -189q-4 -9 8 -10q196 0 220 7q13 3 19 21l33 98q17 -3 51 -12 q-13 -60 -38 -163h-88q-152 1 -236 1h-59q-41 -1 -61 -1q0 33 1 48l69 3q9 0 16 6q52 54 52 166q0 33 -4 59h-100q0 18 2 47q30 1 87 1q4 2 4 6q-13 102 -13 123q1 92 61 145q61 51 156 51z" glyph-name="sterling" unicode="£"/>
<glyph d="M271 497q58 -1 99 -27q13 16 38 44q21 25 30 36q22 -18 41 -40q-13 -14 -42 -47l-27 -30q37 -48 37 -112q-1 -82 -48 -129q54 -62 78 -89q-22 -20 -40 -33q-29 35 -76 88q-43 -29 -103 -29q-56 0 -94 23q-52 -58 -75 -83q-19 15 -39 33q21 25 73 83q-42 48 -44 120 q1 71 45 123q-28 32 -73 81q19 20 41 39q16 -17 73 -83q45 32 106 32zM264 449q-50 -1 -79 -29q-44 -46 -45 -108q1 -69 41 -108q31 -27 80 -27q50 1 80 26q45 38 45 114q-1 69 -42 106q-31 26 -80 26z" glyph-name="currency" unicode="¤"/>
<glyph d="M233 54v90h-75q-55 -1 -79 -1q-1 16 1 43h153v61h-155q0 29 1 42q46 1 139 1q-35 64 -158 293q-4 4 -7 5l-41 2q0 31 1 46h35q32 -1 47 -1q26 0 75 1h60q0 -31 -1 -46l-87 -3q46 -94 136 -279h5q81 165 131 274q0 3 -4 5l-80 3q0 30 1 45h117q13 0 41 1h34q0 -31 -1 -45 l-42 -4q-107 -201 -159 -296q93 0 136 1q0 -31 -1 -45h-154l-1 -61q27 0 80 1h73q0 -28 -1 -42h-70q-57 -1 -82 -1l-1 -95l96 -3q0 -31 -1 -46h-58q-47 1 -69 1q-20 0 -62 -1h-63q-1 16 1 46l83 2q5 2 6 6z" glyph-name="yen" unicode="¥"/>
<glyph d="M236 675h53v-350h-53v350zM236 175h53v-350h-53v350z" glyph-name="brokenbar" unicode="¦"/>
<glyph d="M395 200q-1 -77 -48 -130q19 -32 19 -73q-1 -74 -52 -123t-127 -49q-98 0 -164 59l-2 2q11 29 37 41q6 3 10 4q46 -48 109 -56q9 -1 17 -1q50 1 79 32q26 28 26 73q0 53 -47 92q-23 20 -64 45q-105 63 -123 138q-5 20 -5 42q1 72 54 130q-28 36 -28 84q0 61 52 107 q4 3 6 5q47 37 119 37q89 -1 142 -50q-7 -24 -36 -41q-5 -2 -9 -4q-29 31 -81 43q-15 3 -27 3q-45 -1 -69 -21q-31 -29 -31 -70q0 -45 46 -84q24 -21 78 -56q96 -61 114 -134q5 -22 5 -45zM119 317q0 -63 56 -109q19 -16 47 -34q72 -48 93 -72q22 31 22 78q0 60 -48 103 q-19 17 -55 43q-73 54 -89 69q-26 -30 -26 -78z" glyph-name="section" horiz-adv-x="452" unicode="§"/>
<glyph d="M89 581q35 0 41 -35q1 -5 1 -9q0 -28 -25 -39q-8 -3 -17 -3q-34 0 -42 30q-2 7 -2 13q0 28 24 39q10 4 20 4zM247 581q29 0 39 -29q2 -8 2 -14q0 -31 -28 -41q-8 -2 -15 -2q-32 0 -41 29q-2 7 -2 13q0 34 30 42q8 2 15 2z" glyph-name="dieresis" horiz-adv-x="333" unicode="¨"/>
<glyph d="M385 660q141 0 235 -100q89 -95 89 -232q0 -138 -94 -236q-100 -100 -237 -102q-142 0 -236 100q-90 95 -90 232q0 138 94 236q101 100 239 102zM380 622q-125 0 -206 -95q-73 -86 -73 -203q0 -131 86 -217q79 -79 194 -79q125 0 206 95q73 86 73 203q0 131 -85 217 q-80 79 -195 79zM461 385l-9 64q0 4 -4 8q-18 10 -44 10q-45 -1 -78 -29q-48 -47 -48 -124q1 -63 33 -97q33 -33 90 -33q48 0 98 24q7 -24 8 -39q-63 -29 -118 -29q-69 1 -115 34q-60 48 -61 132q1 98 73 158q54 45 133 45q52 0 77 -12q5 -52 6 -107q-23 -4 -41 -5z" glyph-name="copyright" horiz-adv-x="761" unicode="©"/>
<glyph d="M227 353h-3q-63 -33 -109 -33q-38 0 -66 30q-18 21 -18 43q0 45 46 76q39 27 96 27h53q2 90 -44 100q-8 2 -16 2q-44 -1 -88 -46q-18 16 -29 30q65 63 135 64q62 0 90 -53q14 -29 14 -66q0 -18 -1 -80v-72q1 -10 5 -11l52 2v-35q-44 -11 -95 -11q-12 13 -22 33zM96 400 q0 -29 37 -35q7 -1 14 -1q35 1 75 28q3 3 3 5v61q-9 2 -35 2q-85 0 -93 -51q-1 -5 -1 -9z" glyph-name="ordfeminine" horiz-adv-x="361" unicode="ª"/>
<glyph d="M118 223q40 -63 98 -144q-17 -16 -31 -27q-72 79 -141 150q-1 13 -1 37q61 62 141 151q12 -9 31 -28q-66 -92 -97 -139zM274 223q48 -74 97 -138q-12 -13 -29 -27q-70 77 -137 146q-1 18 0 33q29 31 86 93q33 36 49 54q15 -12 30 -27q-89 -125 -96 -134z" glyph-name="guillemotleft" horiz-adv-x="411" unicode="«"/>
<glyph d="M403 33v189h-344q0 21 2 54h1h1h1h1h1h1h1h1h1h1h1h1h1h1h1h1h1h1h1h1h1h1h1h1h1h1h1h1h1h1h1h1h1h1h1h1h1h1h1h1h1h1h1h1h1h1h1h1h1h1h1h1h1h1h1h1h1h1h1h1h1h1h1h1l1 1h1h1h1h1h1h1h1h1h1h1h1h1h1h1h1h1h1h1h1h1h1h1h1h1h1h1h1h1h1h1h1h1h1h1h1h1h1h1h1h1h1h1h1h1h1h1 h1h1h1h1h1h1h1h1h1h1h1h1h1h1h1h1h1h1h1h1h1h1h1h1h1h1h1h1h1h1h1h1h1h1h1h1h1h1h1h1h1h1h1h1h1h1h1h1h1h1h1h1h1h1h1h1h1h1h1h1h1h1h1h1h1h1h1h1h1h1h1h1h1h1h1h1h1h1h1h1h1h1h1h1l2 1h1h1h1h1h1h1h1h1h1h1h1h1h1h1h1h1h1h1h1h1h1h1h1h2h1h1h1h1h1h1h1h1h1h1h1h1h1h1h1h1h1 h1h1h1h1h1h1h1h1h1h1h1h1h1h1h1h1h1h1h1h1h1h1h1h1h1h1h2h1h1h1h1h1h1h1h1h1h1h1h1h1h1h1h1h1h1h1h1h1h1h1h1h1h1h1h1h1h1h1h1h1h1h1h1h1h1h1h1h1h1h1h1h1h1h1h2h1h1h1h1h1h1h1h1h1h1h1h1h1h1l1 1h1h1h1h1h1h1h1h1h1h1h1h1h1h1h1h1h1h1h1h1h1h1h1h1h1h1h1h1h1h1h1h1h1h1h1h1 h1h1h1h1h1h1h1h1h1h1h1h1h1h1h1h1h1h1h1h1h1h1h1h1h1h2q3 -1 4 -4q0 -37 -1 -126q-1 -82 -1 -113q-26 -3 -54 -3z" glyph-name="logicalnot" unicode="¬"/>
<glyph d="M131 213h-99q0 36 1 52q36 1 102 1q26 0 74 1q49 1 74 1q0 -22 -2 -55h-150z" glyph-name="uni00AD" horiz-adv-x="315" unicode="­"/>
<glyph d="M238 660h2q91 0 144 -70q38 -51 38 -117q0 -87 -66 -144q-53 -44 -120 -44q-93 0 -146 71q-37 50 -37 115q0 90 67 146q52 43 118 43zM236 630q-77 0 -120 -65q-28 -42 -28 -94q0 -81 59 -126q39 -30 90 -30q79 0 122 65q28 42 28 93q0 83 -62 129q-39 28 -89 28z M172 400v147h-22q0 18 1 26q24 1 67 1q40 0 59 -5q34 -9 40 -38q1 -4 1 -7q-1 -39 -42 -56v-4q15 -7 33 -43q2 -3 4 -8q8 -13 15 -13h14v-26h-55q-3 4 -29 57q-4 7 -6 11q-8 10 -24 10h-13v-52h24v-26h-88v26h21zM215 547v-69h12q42 5 46 37q-2 31 -44 32h-14z" glyph-name="registered" horiz-adv-x="475" unicode="®"/>
<glyph d="M267 555v-48h-96q-73 1 -105 1q-1 22 0 45q134 2 201 2z" glyph-name="macron" horiz-adv-x="333" unicode="¯"/>
<glyph d="M160 655q72 0 99 -55q10 -22 10 -48q0 -58 -50 -89q-28 -18 -61 -18q-65 0 -96 48q-15 25 -15 55q0 54 46 86q30 21 67 21zM158 614q-38 0 -51 -40q-4 -12 -4 -25q0 -45 36 -58q10 -4 20 -4q41 0 52 43q2 10 2 20q0 52 -39 62q-8 2 -16 2z" glyph-name="degree" horiz-adv-x="314" unicode="°"/>
<glyph d="M235 315v153q55 3 56 3v-65q-1 -59 -1 -90q119 0 173 1q1 -26 -2 -57h-171q-1 -54 -1 -146q-32 -2 -54 -2v148h-171q0 21 2 54q110 0 169 1zM461 1l-398 -1q0 21 2 54q151 0 398 2q0 -22 -2 -55z" glyph-name="plusminus" unicode="±"/>
<glyph d="M279 662q0 -65 -96 -143l-2 -2q-12 -9 -31 -24q-13 -10 -19 -14l1 -5q20 0 92 2q42 2 58 2q2 -1 3 -2q-2 -30 -3 -44h-151h-79q-6 14 -11 32q61 43 93 70q54 49 69 77q12 25 12 48q-1 26 -16 45q-15 15 -45 15q-30 -1 -46 -13q-3 -2 -3 -6l-9 -53l-42 3l3 48q2 28 2 41 q47 19 101 19q60 -1 88 -25q31 -30 31 -71z" glyph-name="twosuperior" horiz-adv-x="337" unicode="²"/>
<glyph d="M88 523l12 -49q3 -4 4 -5q14 -9 42 -9q35 0 55 14q22 18 22 44q0 45 -54 56q-15 3 -30 3h-38q-1 14 -1 38q110 3 115 58q-1 22 -14 33q-14 13 -47 13q-28 0 -45 -11q-3 -4 -3 -6l-8 -47q-15 0 -42 2q2 27 4 81q42 18 104 18q59 -1 87 -21q27 -23 28 -52q-2 -58 -72 -79 v-4q62 -8 78 -56q3 -11 3 -21q-1 -48 -42 -75q-36 -25 -106 -25q-55 0 -84 7q-7 50 -11 86q16 3 43 7z" glyph-name="threesuperior" horiz-adv-x="337" unicode="³"/>
<glyph d="M222 640q17 -14 43 -44q-134 -109 -149 -121q-3 3 -9 10q-13 14 -19 21q22 21 67.5 67.5t66.5 66.5z" glyph-name="acute" horiz-adv-x="333" unicode="´"/>
<glyph d="M151 24l-4 -1q0 -118 3 -242q-28 -19 -74 -23q4 129 4 367q0 115 2 274q34 18 75 21q2 -1 2 -3q-2 -154 -2 -238q0 -64 15 -90q1 -2 1 -3q25 -40 75 -40q40 0 86 35q26 22 27 37v280q33 20 76 22q1 -2 2 -3q0 -147 -2 -303q1 -70 31 -71q17 0 48 10q4 -18 8 -41 q-47 -22 -111 -22q-25 19 -45 61l-5 1q-85 -60 -135 -62q-41 1 -77 34z" glyph-name="mu" horiz-adv-x="530" unicode="µ"/>
<glyph d="M448 602l-3 -721q-24 -6 -52 -9l-1 731h-68l-2 -724q-18 -5 -53 -11v360h-14q-51 0 -89 15q-91 35 -119 120q-10 31 -10 66q0 97 75 162q23 19 47 30q64 29 181 29q26 0 168 -3v-21q1 -17 1 -25z" glyph-name="paragraph" horiz-adv-x="536" unicode="¶"/>
<glyph d="M125 316q41 0 51 -40q2 -9 2 -16q0 -36 -31 -50q-11 -5 -23 -5q-40 0 -52 34q-4 10 -4 20q0 36 31 51q12 6 26 6z" glyph-name="periodcentered" horiz-adv-x="245" unicode="·"/>
<glyph d="M151 -71l74 72h50l-61 -63q50 -10 56 -53q1 -5 1 -10q0 -52 -62 -74q-28 -9 -63 -10q-2 10 -4 34q71 6 72 44q-1 17 -13 28q-13 11 -41 11q-2 4 -5 13z" glyph-name="cedilla" horiz-adv-x="333" unicode="¸"/>
<glyph d="M210 469l77 -1q0 -25 -1 -37h-106h-116q0 24 1 36l83 2q2 1 2 2v219q-45 -9 -85 -20q-1 6 -3 19q-3 13 -4 19q33 10 93 33q53 19 59 19q1 -2 1 -3v-143q-1 -98 -1 -145z" glyph-name="onesuperior" horiz-adv-x="337" unicode="¹"/>
<glyph d="M186 321q-67 1 -101 37q-48 47 -48 118q0 78 52 129q4 3 7 6q43 35 102 35q59 -1 93 -27q57 -44 57 -127q-1 -92 -65 -142q-38 -29 -97 -29zM192 358q35 1 58 22q31 32 31 106q-1 66 -28 97q-23 26 -59 26q-34 -1 -57 -25q-33 -37 -33 -99q1 -70 30 -102q23 -25 58 -25z " glyph-name="ordmasculine" horiz-adv-x="385" unicode="º"/>
<glyph d="M137 221q-42 63 -96 136q11 12 29 28q19 -20 55 -59q54 -59 82 -88q0 -12 -2 -33q-88 -96 -135 -146q-17 14 -30 28q40 50 97 134zM293 221q-52 79 -97 141q14 15 31 29q24 -27 141 -151q0 -25 -1 -37q-21 -23 -64 -69q-51 -54 -76 -81l-31 28q49 66 97 140z" glyph-name="guillemotright" horiz-adv-x="411" unicode="»"/>
<glyph d="M226 365l77 -1v-37h-107h-116q0 24 1 36l83 2q2 1 2 2v219q-45 -9 -85 -20q-1 6 -3 19q-3 13 -4 19q33 10 93 33q53 19 59 19q1 -2 1 -3v-143q-1 -98 -1 -145zM224 -15q-21 7 -42 18q65 113 166 297q22 41 68 126q83 154 126 233q33 -11 45 -17q-174 -318 -199 -363 q-69 -129 -164 -294zM620 34l42 -1v-33h-76h-83v33l63 1q3 1 3 2v43h-152q-14 26 -19 38q7 9 75 98q53 68 86 109q43 0 63 -1v-101q-1 -69 -1 -102h59q0 -26 -1 -40h-59v-46zM569 267h-6q-9 -13 -27 -36q-18 -24 -29 -39q-12 -15 -33 -44q-13 -17 -17 -22q0 -5 3 -6h109v147 z" glyph-name="onequarter" horiz-adv-x="733" unicode="¼"/>
<glyph d="M215 365l77 -1q0 -25 -1 -37h-106h-116q0 24 1 36l83 2q2 1 2 2v219q-45 -9 -85 -20q-1 6 -4 19q-2 13 -3 19q33 10 93 33q53 19 59 19q1 -2 1 -3v-143q-1 -98 -1 -145zM209 -15q-21 7 -42 18q69 120 166 298q71 130 193 358q36 -12 46 -17q-40 -72 -118 -215 q-56 -103 -81 -148q-27 -49 -95 -170q-49 -88 -69 -124zM669 230q-1 -68 -98 -144q-15 -12 -51 -39l1 -4q11 0 151 3q2 -1 3 -2q-1 -7 -1 -22q-2 -15 -2 -22h-151h-80q-6 14 -11 32q61 43 93 70q56 50 71 81q11 22 11 44q-1 27 -17 45q-14 15 -45 15q-30 -1 -46 -13 q-3 -2 -3 -6l-9 -53l-42 3l3 48q2 28 2 41q47 19 102 19q60 -1 88 -25q31 -30 31 -71z" glyph-name="onehalf" horiz-adv-x="733" unicode="½"/>
<glyph d="M112 419l12 -49q3 -4 4 -5q14 -9 42 -9q35 0 55 14q22 18 22 44q0 45 -54 56q-15 3 -30 3h-38q-1 14 -1 38q110 3 115 58q-1 22 -14 33q-14 13 -47 13q-28 0 -45 -11l-3 -6l-8 -47q-15 0 -42 2q2 27 4 81q42 18 104 18q61 -1 87 -21q26 -22 28 -52q-2 -58 -72 -79v-4 q62 -8 78 -56q3 -11 3 -21q-1 -48 -42 -75q-36 -25 -106 -25q-55 0 -84 7q-6 40 -12 87q23 4 44 6zM220 -15q-22 9 -41 18q71 125 165 297q82 151 193 359q36 -12 46 -17q-70 -126 -199 -364q-75 -138 -164 -293zM614 34l42 -1v-33h-76h-83v33l63 1q3 1 3 2v43h-152 q-2 3 -19 38q7 9 75 98q53 68 86 109q43 0 63 -1v-101q-1 -69 -1 -102h59q0 -26 -1 -40h-59v-46zM563 267h-6q-9 -13 -27 -36q-18 -24 -29 -39q-33 -43 -49 -66q-2 -5 2 -6h109v147z" glyph-name="threequarters" horiz-adv-x="733" unicode="¾"/>
<glyph d="M229 328q-36 0 -49 35q-3 9 -3 18q0 28 27 43q13 6 25 6q38 0 51 -30q4 -9 4 -18q0 -34 -30 -48q-12 -6 -25 -6zM40 -81q0 89 100 172q24 20 54 41q27 21 28 36q0 22 -20 79q22 11 51 17q24 -30 41 -89q6 -22 6 -36q-110 -75 -143 -121q-30 -42 -30 -94q0 -74 59 -99 q22 -9 48 -9q45 1 73 21q5 6 6 12l18 86q24 -1 56 -7q-1 -15 -12 -132q-66 -32 -155 -32q-116 0 -161 81q-19 35 -19 74z" glyph-name="questiondown" horiz-adv-x="426" unicode="¿"/>
<glyph d="M-13 46l56 3q4 3 5 5q35 89 231 605q13 1 55 1q42 -113 140 -388q55 -156 79 -222l61 -3q0 -32 -1 -46h-94q-24 0 -71 -1h-61q0 8 1 23v23l78 3q2 1 2 5q-41 117 -51 144q-3 5 -7 5l-239 -1q-43 -123 -53 -152l90 -3q0 -31 -1 -46h-133q-15 0 -46 -1h-42q0 31 1 46z M299 548h-4q-18 -48 -57 -156q-34 -94 -49 -136q-1 -5 2 -6h210q-26 77 -102 298zM211 850q25 -18 155 -114q-9 -17 -23 -34q-22 12 -72 41q-68 38 -97 54q18 29 37 53z" glyph-name="Agrave" horiz-adv-x="606" unicode="À"/>
<glyph d="M-13 46l56 3q4 3 5 5q35 89 231 605q13 1 55 1q42 -113 140 -388q55 -156 79 -222l61 -3q0 -32 -1 -46h-94q-24 0 -71 -1h-61q0 8 1 23v23l78 3q2 1 2 5q-41 117 -51 144q-3 5 -7 5l-239 -1q-43 -123 -53 -152l90 -3q0 -31 -1 -46h-133q-15 0 -46 -1h-42q0 31 1 46z M299 548h-4q-18 -48 -57 -156q-34 -94 -49 -136q-1 -5 2 -6h210q-26 77 -102 298zM400 850q21 -27 37 -53q-43 -24 -169 -95q-14 18 -23 34q27 19 90 66q45 33 65 48z" glyph-name="Aacute" horiz-adv-x="606" unicode="Á"/>
<glyph d="M-13 46l56 3q4 3 5 5q35 89 231 605q13 1 55 1q42 -113 140 -388q55 -156 79 -222l61 -3q0 -32 -1 -46h-94q-24 0 -71 -1h-61q0 8 1 23v23l78 3q2 1 2 5q-41 117 -51 144q-3 5 -7 5l-239 -1q-43 -123 -53 -152l90 -3q0 -31 -1 -46h-133q-15 0 -46 -1h-42q0 31 1 46z M299 548h-4q-18 -48 -57 -156q-34 -94 -49 -136q-1 -5 2 -6h210q-26 77 -102 298zM311 778q-93 -60 -112 -73q-19 22 -26 31q49 40 120 99q12 1 35 1q17 -14 118 -98q-9 -14 -27 -32q-35 24 -108 72z" glyph-name="Acircumflex" horiz-adv-x="606" unicode="Â"/>
<glyph d="M-13 46l56 3q4 3 5 5q35 89 231 605q13 1 55 1q42 -113 140 -388q55 -156 79 -222l61 -3q0 -32 -1 -46h-94q-24 0 -71 -1h-61q0 8 1 23v23l78 3q2 1 2 5q-41 117 -51 144q-3 5 -7 5l-239 -1q-43 -123 -53 -152l90 -3q0 -31 -1 -46h-133q-15 0 -46 -1h-42q0 31 1 46z M299 548h-4q-18 -48 -57 -156q-34 -94 -49 -136q-1 -5 2 -6h210q-26 77 -102 298zM254 809q30 -1 71 -26q39 -21 53 -21q30 2 34 45h39q0 -54 -34 -83q-20 -16 -43 -16q-20 0 -59 22q-3 2 -5 3q-44 21 -59 23q-23 0 -34 -30q-2 -7 -3 -13h-38q1 53 38 82q19 14 40 14z" glyph-name="Atilde" horiz-adv-x="606" unicode="Ã"/>
<glyph d="M-13 46l56 3q4 3 5 5q35 89 231 605q13 1 55 1q42 -113 140 -388q55 -156 79 -222l61 -3q0 -32 -1 -46h-94q-24 0 -71 -1h-61q0 8 1 23v23l78 3q2 1 2 5q-41 117 -51 144q-3 5 -7 5l-239 -1q-43 -123 -53 -152l90 -3q0 -31 -1 -46h-133q-15 0 -46 -1h-42q0 31 1 46z M299 548h-4q-18 -48 -57 -156q-34 -94 -49 -136q-1 -5 2 -6h210q-26 77 -102 298zM228 805q33 0 40 -34q1 -6 1 -11q0 -28 -25 -39q-8 -3 -17 -3q-34 0 -42 30q-2 7 -2 13q0 32 28 41q8 3 17 3zM397 805q32 0 40 -31q2 -7 2 -13q0 -30 -26 -40q-8 -3 -15 -3q-34 0 -44 29 q-2 7 -2 13q0 32 28 42q8 3 17 3z" glyph-name="Adieresis" horiz-adv-x="606" unicode="Ä"/>
<glyph d="M-13 46l56 3q4 3 5 5q35 89 231 605q13 1 55 1q42 -113 140 -388q55 -156 79 -222l61 -3q0 -32 -1 -46h-94q-24 0 -71 -1h-61q0 8 1 23v23l78 3q2 1 2 5q-41 117 -51 144q-3 5 -7 5l-239 -1q-43 -123 -53 -152l90 -3q0 -31 -1 -46h-133q-15 0 -46 -1h-42q0 31 1 46z M299 548h-4q-18 -48 -57 -156q-34 -94 -49 -136q-1 -5 2 -6h210q-26 77 -102 298zM308 870q61 0 86 -46q9 -18 9 -38q0 -51 -47 -75q-23 -11 -49 -11q-65 0 -89 45q-9 18 -9 39q0 45 43 71q25 15 56 15zM306 833q-34 0 -44 -32q-3 -9 -3 -17q0 -33 30 -44q9 -3 18 -3 q36 0 44 34q2 7 2 14q0 39 -34 47q-7 1 -13 1z" glyph-name="Aring" horiz-adv-x="606" unicode="Å"/>
<glyph d="M426 272l-187 -1q-22 -40 -122 -221l91 -3q0 -31 -1 -47h-63q-50 1 -76 1q-15 0 -45 -1h-42q0 31 1 46l57 4q5 1 7 4q63 104 206 349q99 168 144 244q4 3 5 3h29q53 -1 78 -1q159 0 184 1h86q6 -73 9 -151q-10 -1 -53 -6l-16 86q-3 16 -21 19h-2q-43 4 -154 4h-30 l-1 -279q49 0 152 2q21 0 24 15q1 2 1 4l4 48q27 1 51 0q-1 -31 -1 -95q-1 -31 -1 -89q-32 -2 -51 -2l-3 49q-7 18 -25 19q-44 1 -151 1l-1 -207q0 -14 10 -17q12 -3 46 -3q121 0 150 7q13 4 19 20l30 87q39 -7 52 -10q-20 -96 -33 -153h-79q-143 1 -228 1q-22 0 -65 -1h-57 q0 32 1 47l72 3q3 1 4 3v216q-2 3 -5 4zM431 596h-4q-76 -128 -158 -271q-1 -5 2 -6h160v277z" glyph-name="AE" horiz-adv-x="853" unicode="Æ"/>
<glyph d="M271 -77l70 68h-6q-102 1 -178 60q-85 65 -103 184q-4 27 -4 53q0 185 127 292q3 2 5 4q91 76 226 76q81 0 127 -21q8 -111 10 -169q-17 -3 -56 -7l-17 108q-2 10 -8 15q-29 18 -82 18q-96 -1 -158 -64q-89 -91 -89 -228q0 -110 43 -173q8 -12 18 -23q61 -68 167 -68 q79 0 177 37q9 -30 12 -51q-79 -30 -153 -40l-59 -61q60 -9 67 -56q1 -6 1 -11q0 -51 -61 -76q-35 -13 -80 -14q-4 20 -5 37q81 3 82 47q-1 18 -13 28q-15 11 -51 11q-1 3 -9 24z" glyph-name="Ccedilla" horiz-adv-x="585" unicode="Ç"/>
<glyph d="M51 46l69 3q3 0 3 3v549l-73 2q0 32 1 47h54q41 -1 61 -1q15 0 119 1h102h87q9 -140 9 -151q-6 -1 -21 -3q-22 -3 -32 -4l-16 87q-3 15 -21 18h-2q-66 5 -159 5q-5 0 -18 -1h-11l-1 -246q28 0 78 1q51 1 78 1q20 1 23 17q1 2 1 3l5 48q35 0 51 -1q-2 -60 -2 -95v-92 q-34 -2 -52 -1l-3 52q-3 18 -24 19q-47 1 -155 1l-1 -240q0 -14 10 -17q12 -3 46 -3q125 0 155 7q12 4 18 20l32 91l33 -6q13 -3 19 -4q-14 -65 -35 -157h-82q-144 1 -229 1q-22 0 -64 -1h-54q0 32 1 47zM205 850q27 -20 86 -64q47 -36 68 -51q-9 -14 -23 -34q-23 13 -77 44 q-63 36 -91 51q18 32 37 54z" glyph-name="Egrave" horiz-adv-x="555" unicode="È"/>
<glyph d="M51 46l69 3q3 0 3 3v549l-73 2q0 32 1 47h54q41 -1 61 -1q15 0 119 1h102h87q9 -140 9 -151q-6 -1 -21 -3q-22 -3 -32 -4l-16 87q-3 15 -21 18h-2q-66 5 -159 5q-5 0 -18 -1h-11l-1 -246q28 0 78 1q51 1 78 1q20 1 23 17q1 2 1 3l5 48q35 0 51 -1q-2 -60 -2 -95v-92 q-34 -2 -52 -1l-3 52q-3 18 -24 19q-47 1 -155 1l-1 -240q0 -14 10 -17q12 -3 46 -3q125 0 155 7q12 4 18 20l32 91l33 -6q13 -3 19 -4q-14 -65 -35 -157h-82q-144 1 -229 1q-22 0 -64 -1h-54q0 32 1 47zM381 849q21 -25 37 -53q-107 -61 -168 -95q-14 18 -23 34 q123 91 154 114z" glyph-name="Eacute" horiz-adv-x="555" unicode="É"/>
<glyph d="M51 46l69 3q3 0 3 3v549l-73 2q0 32 1 47h54q41 -1 61 -1q15 0 119 1h102h87q9 -140 9 -151q-6 -1 -21 -3q-22 -3 -32 -4l-16 87q-3 15 -21 18h-2q-66 5 -159 5q-5 0 -18 -1h-11l-1 -246q28 0 78 1q51 1 78 1q20 1 23 17q1 2 1 3l5 48q35 0 51 -1q-2 -60 -2 -95v-92 q-34 -2 -52 -1l-3 52q-3 18 -24 19q-47 1 -155 1l-1 -240q0 -14 10 -17q12 -3 46 -3q125 0 155 7q12 4 18 20l32 91l33 -6q13 -3 19 -4q-14 -65 -35 -157h-82q-144 1 -229 1q-22 0 -64 -1h-54q0 32 1 47zM277 779l-111 -74q-19 22 -26 31l120 99q12 1 35 1q17 -14 118 -98 q-9 -14 -27 -32q-9 6 -109 73z" glyph-name="Ecircumflex" horiz-adv-x="555" unicode="Ê"/>
<glyph d="M51 46l69 3q3 0 3 3v549l-73 2q0 32 1 47h54q41 -1 61 -1q15 0 119 1h102h87q9 -140 9 -151q-6 -1 -21 -3q-22 -3 -32 -4l-16 87q-3 15 -21 18h-2q-66 5 -159 5q-5 0 -18 -1h-11l-1 -246q28 0 78 1q51 1 78 1q20 1 23 17q1 2 1 3l5 48q35 0 51 -1q-2 -60 -2 -95v-92 q-34 -2 -52 -1l-3 52q-3 18 -24 19q-47 1 -155 1l-1 -240q0 -14 10 -17q12 -3 46 -3q125 0 155 7q12 4 18 20l32 91l33 -6q13 -3 19 -4q-14 -65 -35 -157h-82q-144 1 -229 1q-22 0 -64 -1h-54q0 32 1 47zM193 806q33 0 40 -34q1 -6 1 -11q0 -28 -25 -39q-8 -3 -17 -3 q-34 0 -42 30q-2 7 -2 13q0 32 28 41q8 3 17 3zM362 806q32 0 40 -31q2 -7 2 -13q0 -30 -26 -40q-8 -3 -15 -3q-34 0 -44 29q-2 7 -2 13q0 32 28 42q8 3 17 3z" glyph-name="Edieresis" horiz-adv-x="555" unicode="Ë"/>
<glyph d="M123 601l-79 3v22q1 17 1 24h59q45 -1 65 -1t62 1h55q0 -8 -1 -24v-22l-79 -3q-2 -2 -3 -4l-2 -547l85 -3q0 -32 -1 -47h-55q-43 1 -64 1q-20 0 -62 -1h-58q0 31 1 47l72 3q3 2 4 4v547zM90 850q18 -13 56 -43q68 -51 97 -72q-9 -17 -23 -34q-127 73 -168 95q21 34 38 54 z" glyph-name="Igrave" horiz-adv-x="324" unicode="Ì"/>
<glyph d="M123 601l-79 3v22q1 17 1 24h59q45 -1 65 -1t62 1h55q0 -8 -1 -24v-22l-79 -3q-2 -2 -3 -4l-2 -547l85 -3q0 -32 -1 -47h-55q-43 1 -64 1q-20 0 -62 -1h-58q0 31 1 47l72 3q3 2 4 4v547zM246 849q21 -25 37 -53q-154 -87 -167 -95q-12 15 -24 34q33 24 154 114z" glyph-name="Iacute" horiz-adv-x="324" unicode="Í"/>
<glyph d="M123 601l-79 3v22q1 17 1 24h59q45 -1 65 -1t62 1h55q0 -8 -1 -24v-22l-79 -3q-2 -2 -3 -4l-2 -547l85 -3q0 -32 -1 -47h-55q-43 1 -64 1q-20 0 -62 -1h-58q0 31 1 47l72 3q3 2 4 4v547zM165 778q-75 -48 -111 -73q-19 22 -26 31q23 19 71 58q33 28 49 41q12 1 34 1 q17 -14 118 -98q-9 -14 -27 -32q-21 15 -108 72z" glyph-name="Icircumflex" horiz-adv-x="324" unicode="Î"/>
<glyph d="M123 601l-79 3v22q1 17 1 24h59q45 -1 65 -1t62 1h55q0 -8 -1 -24v-22l-79 -3q-2 -2 -3 -4l-2 -547l85 -3q0 -32 -1 -47h-55q-43 1 -64 1q-20 0 -62 -1h-58q0 31 1 47l72 3q3 2 4 4v547zM87 806q33 0 40 -34q1 -6 1 -11q0 -28 -25 -39q-8 -3 -17 -3q-34 0 -42 30 q-2 7 -2 13q0 32 28 41q8 3 17 3zM257 806q32 0 40 -31q2 -7 2 -13q0 -30 -26 -40q-8 -3 -15 -3q-34 0 -44 29q-2 7 -2 13q0 32 28 42q8 3 17 3z" glyph-name="Idieresis" horiz-adv-x="324" unicode="Ï"/>
<glyph d="M140 346v254l-74 3q0 32 1 46q108 2 205 2q144 0 224 -39q9 -5 17 -9q99 -56 133 -169q13 -44 13 -89q0 -171 -107 -266q-9 -8 -17 -14q-87 -65 -233 -65h-120h-56q-41 -1 -60 -1q-1 17 1 46l69 3q3 2 4 5v243h-88q0 35 1 49q30 1 87 1zM220 296l-1 -215q0 -24 18 -31 q17 -5 58 -5q128 1 201 64q57 50 74 150q5 28 5 55q0 126 -57 195q-15 17 -33 34q-72 63 -209 63q-41 0 -55 -4l-1 -256q29 1 90 1q58 1 90 1q0 -21 -2 -52h-178z" glyph-name="Eth" horiz-adv-x="708" unicode="Ð"/>
<glyph d="M48 46l64 3q3 1 4 4v549l-73 2q-1 17 1 47h71q51 -1 73 -1q186 -276 358 -540l5 1q-2 328 -4 491l-94 1q0 8 1 24v23h124q18 0 53 1h43v-46l-61 -3q-2 -2 -3 -4l-3 -594q-24 -11 -53 -11q-165 227 -372 539h-6q0 -322 -1 -483l100 -2q0 -7 -1 -23v-23h-132q-17 0 -51 -1 h-44q0 32 1 46zM314 809q29 -1 70 -26q39 -21 53 -21q30 2 34 45h39q0 -54 -34 -83q-20 -16 -43 -16q-20 0 -59 22q-3 2 -5 3q-44 21 -59 23q-23 0 -34 -30q-2 -7 -3 -13h-38q1 53 38 82q19 14 41 14z" glyph-name="Ntilde" horiz-adv-x="716" unicode="Ñ"/>
<glyph d="M346 -10q-125 1 -207 84q-89 90 -89 246q0 139 87 237q24 28 52 47q83 56 189 56q97 -1 168 -50q85 -60 112 -179q10 -42 10 -86q0 -159 -91 -261l-13 -13q-85 -81 -218 -81zM361 40q95 1 149 62q72 86 72 222q-1 145 -71 225q-58 61 -145 61q-84 -1 -142 -52 q-77 -70 -87 -200q-1 -16 -1 -32q0 -142 69 -219l5 -5q58 -62 151 -62zM287 856q27 -20 86 -64q47 -36 68 -51q-6 -11 -23 -34q-95 54 -168 95q18 32 37 54z" glyph-name="Ograve" horiz-adv-x="718" unicode="Ò"/>
<glyph d="M346 -10q-125 1 -207 84q-89 90 -89 246q0 139 87 237q24 28 52 47q83 56 189 56q97 -1 168 -50q85 -60 112 -179q10 -42 10 -86q0 -159 -91 -261l-13 -13q-85 -81 -218 -81zM361 40q95 1 149 62q72 86 72 222q-1 145 -71 225q-58 61 -145 61q-84 -1 -142 -52 q-77 -70 -87 -200q-1 -16 -1 -32q0 -142 69 -219l5 -5q58 -62 151 -62zM457 855q21 -25 37 -53q-107 -61 -168 -95q-14 18 -23 34q123 91 154 114z" glyph-name="Oacute" horiz-adv-x="718" unicode="Ó"/>
<glyph d="M346 -10q-125 1 -207 84q-89 90 -89 246q0 139 87 237q24 28 52 47q83 56 189 56q97 -1 168 -50q85 -60 112 -179q10 -42 10 -86q0 -159 -91 -261l-13 -13q-85 -81 -218 -81zM361 40q95 1 149 62q72 86 72 222q-1 145 -71 225q-58 61 -145 61q-84 -1 -142 -52 q-77 -70 -87 -200q-1 -16 -1 -32q0 -142 69 -219l5 -5q58 -62 151 -62zM375 779q-56 -36 -111 -73q-13 13 -26 31q57 46 119 99q12 1 35 1q18 -14 57 -48q43 -35 61 -50q-11 -17 -26 -32q-14 10 -109 72z" glyph-name="Ocircumflex" horiz-adv-x="718" unicode="Ô"/>
<glyph d="M346 -10q-125 1 -207 84q-89 90 -89 246q0 139 87 237q24 28 52 47q83 56 189 56q97 -1 168 -50q85 -60 112 -179q10 -42 10 -86q0 -159 -91 -261l-13 -13q-85 -81 -218 -81zM361 40q95 1 149 62q72 86 72 222q-1 145 -71 225q-58 61 -145 61q-84 -1 -142 -52 q-77 -70 -87 -200q-1 -16 -1 -32q0 -142 69 -219l5 -5q58 -62 151 -62zM318 814q31 -1 70 -26q39 -21 53 -21q30 2 34 45h39q0 -54 -34 -83q-20 -16 -43 -16q-20 0 -59 22q-3 2 -5 3q-44 21 -59 23q-23 0 -34 -30q-2 -7 -3 -13h-38q1 53 38 82q19 14 41 14z" glyph-name="Otilde" horiz-adv-x="718" unicode="Õ"/>
<glyph d="M346 -10q-125 1 -207 84q-89 90 -89 246q0 139 87 237q24 28 52 47q83 56 189 56q97 -1 168 -50q85 -60 112 -179q10 -42 10 -86q0 -159 -91 -261l-13 -13q-85 -81 -218 -81zM361 40q95 1 149 62q72 86 72 222q-1 145 -71 225q-58 61 -145 61q-84 -1 -142 -52 q-77 -70 -87 -200q-1 -16 -1 -32q0 -142 69 -219l5 -5q58 -62 151 -62zM294 806q33 0 40 -34q1 -6 1 -11q0 -28 -25 -39q-8 -3 -17 -3q-34 0 -42 30q-2 7 -2 13q0 32 28 41q8 3 17 3zM464 806q32 0 40 -31q2 -7 2 -13q0 -30 -26 -40q-8 -3 -15 -3q-34 0 -44 29q-2 7 -2 13 q0 32 28 42q8 3 17 3z" glyph-name="Odieresis" horiz-adv-x="718" unicode="Ö"/>
<glyph d="M301 231q110 -112 158 -162q-14 -16 -37 -36q-25 26 -79 80t-80 81q-55 -56 -160 -161q-22 20 -36 37q61 62 158 161q-103 105 -150 151q20 23 41 41q105 -108 147 -151q25 26 75 77q52 53 75 77q21 -17 42 -41q-75 -73 -154 -154z" glyph-name="multiply" unicode="×"/>
<glyph d="M382 660q102 -1 177 -62q44 52 66 77q19 -12 42 -35q-11 -12 -32 -37q-25 -29 -38 -43q56 -66 69 -174q2 -22 2 -42q0 -155 -89 -257q-6 -7 -11 -12q-90 -83 -221 -85q-109 1 -183 61q-14 -15 -41 -47q-23 -26 -34 -38q-19 15 -37 31q25 30 77 88q-79 88 -79 232 q0 152 97 251q22 22 47 39q79 53 188 53zM363 610q-90 -1 -146 -58q-84 -85 -84 -227q1 -121 46 -186q79 97 167 201q15 19 170 205q-56 65 -153 65zM361 40q93 0 147 59q3 2 4 4q72 86 72 229q-1 106 -40 170q-36 -43 -104 -124q-45 -53 -65 -77q-124 -147 -167 -199 q58 -62 153 -62z" glyph-name="Oslash" horiz-adv-x="718" unicode="Ø"/>
<glyph d="M185 600l-2 -329q-1 -112 34 -164q4 -6 7 -10q41 -52 119 -53q73 2 116 46q43 45 48 153q1 12 1 23q0 228 -1 330q-2 3 -4 4l-83 2q0 32 1 47h116h104q0 -30 -1 -46l-64 -3l-2 -335q-2 -140 -70 -213q-61 -62 -164 -62q-112 1 -171 58q-58 56 -65 167q-1 22 -1 48v332 q-2 5 -5 6l-61 2q0 32 1 46h108q23 0 68 1h60q0 -32 -1 -47zM277 849q33 -23 104 -77q35 -26 50 -37q-9 -17 -23 -34q-21 12 -72 41q-67 37 -96 54q16 29 37 53z" glyph-name="Ugrave" horiz-adv-x="669" unicode="Ù"/>
<glyph d="M185 600l-2 -329q-1 -112 34 -164q4 -6 7 -10q41 -52 119 -53q73 2 116 46q43 45 48 153q1 12 1 23q0 228 -1 330q-2 3 -4 4l-83 2q0 32 1 47h116h104q0 -30 -1 -46l-64 -3l-2 -335q-2 -140 -70 -213q-61 -62 -164 -62q-112 1 -171 58q-58 56 -65 167q-1 22 -1 48v332 q-2 5 -5 6l-61 2q0 32 1 46h108q23 0 68 1h60q0 -32 -1 -47zM447 849q21 -25 37 -53q-150 -85 -168 -95q-13 16 -23 33q110 82 154 115z" glyph-name="Uacute" horiz-adv-x="669" unicode="Ú"/>
<glyph d="M185 600l-2 -329q-1 -112 34 -164q4 -6 7 -10q41 -52 119 -53q73 2 116 46q43 45 48 153q1 12 1 23q0 228 -1 330q-2 3 -4 4l-83 2q0 32 1 47h116h104q0 -30 -1 -46l-64 -3l-2 -335q-2 -140 -70 -213q-61 -62 -164 -62q-112 1 -171 58q-58 56 -65 167q-1 22 -1 48v332 q-2 5 -5 6l-61 2q0 32 1 46h108q23 0 68 1h60q0 -32 -1 -47zM354 778q-18 -12 -58 -38q-37 -24 -53 -35q-13 13 -26 31q49 40 120 99q12 1 35 1q17 -14 118 -98q-9 -14 -27 -32q-49 34 -109 72z" glyph-name="Ucircumflex" horiz-adv-x="669" unicode="Û"/>
<glyph d="M185 600l-2 -329q-1 -112 34 -164q4 -6 7 -10q41 -52 119 -53q73 2 116 46q43 45 48 153q1 12 1 23q0 228 -1 330q-2 3 -4 4l-83 2q0 32 1 47h116h104q0 -30 -1 -46l-64 -3l-2 -335q-2 -140 -70 -213q-61 -62 -164 -62q-112 1 -171 58q-58 56 -65 167q-1 22 -1 48v332 q-2 5 -5 6l-61 2q0 32 1 46h108q23 0 68 1h60q0 -32 -1 -47zM272 806q33 0 40 -34q1 -6 1 -11q0 -28 -25 -39q-8 -3 -17 -3q-34 0 -42 30q-2 7 -2 13q0 32 28 41q8 3 17 3zM441 806q32 0 40 -31q2 -7 2 -13q0 -30 -26 -40q-8 -3 -15 -3q-34 0 -44 29q-2 7 -2 13q0 32 28 42 q8 3 17 3z" glyph-name="Udieresis" horiz-adv-x="669" unicode="Ü"/>
<glyph d="M160 47l79 2q5 3 5 6v196q-21 37 -193 347q-4 3 -5 4l-52 2q0 32 1 47h45q36 -1 53 -1q26 0 77 1h64q0 -32 -1 -47l-90 -3q56 -110 152 -292h5q91 165 145 281q2 4 3 7q-1 3 -3 4l-81 3q0 31 1 46h124q14 0 45 1h41q0 -31 -1 -46l-51 -4q-31 -53 -101 -176 q-68 -120 -99 -172l-1 -203l92 -3q0 -18 -2 -47h-58q-46 1 -68 1q-21 0 -64 -1h-63q0 31 1 47zM415 850q21 -27 37 -53q-23 -13 -76 -43q-65 -37 -92 -52q-14 18 -23 34q26 18 85 63q48 36 69 51z" glyph-name="Yacute" horiz-adv-x="562" unicode="Ý"/>
<glyph d="M123 54v547l-69 2q0 31 1 47h113h117q0 -31 -1 -45l-78 -3q-3 -1 -4 -4v-72q16 1 46 1q82 0 135 -16q83 -24 116 -98q14 -33 14 -66q0 -94 -71 -154q-22 -18 -45 -28q-58 -27 -138 -27h-59v-88l96 -3q1 -16 -1 -46h-134q-17 0 -53 -1h-54v47l65 3q3 1 4 4zM202 475 l-1 -281q7 -9 55 -9q68 0 115 28q59 40 60 122q0 107 -108 135q-34 9 -74 9q-37 0 -47 -4z" glyph-name="Thorn" horiz-adv-x="555" unicode="Þ"/>
<glyph d="M26 415l68 2q4 2 5 7q0 110 30 158q13 21 33 40q67 61 151 61q59 -1 100 -38q57 -56 49 -176q-51 -37 -64 -49q-40 -35 -41 -68q0 -39 32 -60q15 -8 46 -22q93 -38 105 -106q2 -13 2 -26q-1 -75 -60 -117q-43 -31 -123 -31q-51 0 -89 12q-2 21 -7 63q-4 37 -6 54 q28 5 50 8l12 -64q4 -10 9 -13q23 -12 48 -12q42 1 66 19q26 24 26 62q0 44 -26 65q-20 15 -60 32q-78 33 -91 89q-3 15 -3 31q0 6 1 13t2.5 12t5 11.5t5 10.5t6.5 11t7 9.5t8 9t7.5 8t7.5 8.5l7 7l44 44q5 88 -36 128q-26 22 -63 22q-52 -1 -85 -39q-26 -31 -29 -122 q-1 -21 -1 -51v-176q-1 -135 -1 -195l35 -2q0 -30 -1 -44h-71h-48q-36 -1 -52 -1q0 8 1 22v21l58 4q2 1 3 4v315h-75q0 20 2 49z" glyph-name="germandbls" horiz-adv-x="580" unicode="ß"/>
<glyph d="M293 35h-5q-88 -45 -146 -45q-49 0 -87 38q-26 28 -26 60q0 52 52 92q56 42 143 42h68q5 124 -51 144q-14 5 -32 5q-59 -1 -120 -67q-21 21 -34 38q87 87 178 88q83 0 117 -73q17 -38 17 -89q0 -125 -2 -210q0 -15 9 -15l67 2v-42q-47 -12 -115 -13q-10 10 -33 45z M110 96q0 -35 38 -48q14 -5 29 -5q53 1 111 40q3 4 3 9v85q-11 2 -56 2q-104 0 -122 -62q-3 -10 -3 -21zM154 640q21 -21 67 -68l66 -66q-16 -19 -29 -31q-134 110 -148 121q16 18 44 44z" glyph-name="agrave" horiz-adv-x="454" unicode="à"/>
<glyph d="M293 35h-5q-88 -45 -146 -45q-49 0 -87 38q-26 28 -26 60q0 52 52 92q56 42 143 42h68q5 124 -51 144q-14 5 -32 5q-59 -1 -120 -67q-21 21 -34 38q87 87 178 88q83 0 117 -73q17 -38 17 -89q0 -125 -2 -210q0 -15 9 -15l67 2v-42q-47 -12 -115 -13q-10 10 -33 45z M110 96q0 -35 38 -48q14 -5 29 -5q53 1 111 40q3 4 3 9v85q-11 2 -56 2q-104 0 -122 -62q-3 -10 -3 -21zM304 640q17 -14 43 -44q-22 -18 -69 -56q-56 -45 -81 -65q-3 3 -9 10q-13 14 -19 21l67.5 67.5t67.5 66.5z" glyph-name="aacute" horiz-adv-x="454" unicode="á"/>
<glyph d="M293 35h-5q-88 -45 -146 -45q-49 0 -87 38q-26 28 -26 60q0 52 52 92q56 42 143 42h68q5 124 -51 144q-14 5 -32 5q-59 -1 -120 -67q-21 21 -34 38q87 87 178 88q83 0 117 -73q17 -38 17 -89q0 -125 -2 -210q0 -15 9 -15l67 2v-42q-47 -12 -115 -13q-10 10 -33 45z M110 96q0 -35 38 -48q14 -5 29 -5q53 1 111 40q3 4 3 9v85q-11 2 -56 2q-104 0 -122 -62q-3 -10 -3 -21zM219 562q-30 -28 -94 -92q-20 18 -29 26q34 41 105 124q13 1 37 1q14 -16 47 -56q40 -48 57 -68q-19 -19 -29 -27q-63 63 -94 92z" glyph-name="acircumflex" horiz-adv-x="454" unicode="â"/>
<glyph d="M293 35h-5q-88 -45 -146 -45q-49 0 -87 38q-26 28 -26 60q0 52 52 92q56 42 143 42h68q5 124 -51 144q-14 5 -32 5q-59 -1 -120 -67q-21 21 -34 38q87 87 178 88q83 0 117 -73q17 -38 17 -89q0 -125 -2 -210q0 -15 9 -15l67 2v-42q-47 -12 -115 -13q-10 10 -33 45z M110 96q0 -35 38 -48q14 -5 29 -5q53 1 111 40q3 4 3 9v85q-11 2 -56 2q-104 0 -122 -62q-3 -10 -3 -21zM161 594q25 0 60 -26q4 -4 6 -5q28 -20 30 -21q8 -3 16 -3q23 0 29 41l2 10h37q-7 -101 -68 -102q-27 1 -63 30q-32 22 -38 24q-7 2 -14 2q-23 -2 -33 -50h-37 q7 90 63 99q5 1 10 1z" glyph-name="atilde" horiz-adv-x="454" unicode="ã"/>
<glyph d="M293 35h-5q-88 -45 -146 -45q-49 0 -87 38q-26 28 -26 60q0 52 52 92q56 42 143 42h68q5 124 -51 144q-14 5 -32 5q-59 -1 -120 -67q-21 21 -34 38q87 87 178 88q83 0 117 -73q17 -38 17 -89q0 -125 -2 -210q0 -15 9 -15l67 2v-42q-47 -12 -115 -13q-10 10 -33 45z M110 96q0 -35 38 -48q14 -5 29 -5q53 1 111 40q3 4 3 9v85q-11 2 -56 2q-104 0 -122 -62q-3 -10 -3 -21zM137 579q35 0 41 -35q1 -5 1 -9q0 -28 -25 -39q-8 -3 -17 -3q-34 0 -42 30q-2 7 -2 13q0 28 24 39q10 4 20 4zM295 579q29 0 39 -29q2 -8 2 -14q0 -31 -28 -41 q-8 -2 -15 -2q-32 0 -41 29q-2 7 -2 13q0 34 30 42q8 2 15 2z" glyph-name="adieresis" horiz-adv-x="454" unicode="ä"/>
<glyph d="M293 35h-5q-87 -45 -146 -45q-49 0 -87 38q-26 28 -26 60q0 52 52 92q56 42 143 42h68q5 124 -51 144q-14 5 -31 5q-58 -1 -119 -67q-20 18 -35 38q81 81 161 87q9 1 16 1q83 0 117 -73q17 -38 17 -89q0 -125 -2 -210q0 -15 9 -15l67 2v-42q-47 -12 -115 -13 q-10 10 -33 45zM110 96q0 -35 38 -48q14 -5 29 -5q53 1 111 40q3 4 3 9v85q-11 2 -56 2q-104 0 -122 -62q-3 -10 -3 -21zM220 654q62 0 85 -47q8 -17 8 -36q0 -49 -44 -74q-23 -12 -50 -12q-57 0 -83 42q-12 20 -12 42q0 43 41 69q25 16 55 16zM219 618q-35 0 -45 -33 q-3 -8 -3 -16q0 -33 30 -44q9 -4 19 -4q39 0 45 38q1 6 1 11q0 39 -34 47q-7 1 -13 1z" glyph-name="aring" horiz-adv-x="454" unicode="å"/>
<glyph d="M330 55h-6q-101 -65 -184 -65q-45 0 -82 36q-28 28 -29 60q0 54 53 94q55 42 141 42h70q4 125 -53 145q-13 4 -29 4q-56 0 -113 -59q-5 -4 -8 -8q-14 14 -35 37q76 74 141 86q16 3 32 3q86 -2 111 -83h5q54 82 154 83q77 -1 117 -51q39 -49 39 -131q-8 -20 -26 -32 q-5 -3 -8 -4q-89 -3 -253 -3q-1 -83 33 -125q35 -39 103 -39q53 0 132 32q6 -20 11 -45q-84 -42 -158 -42q-98 0 -151 57q-4 5 -7 8zM484 383q-44 -1 -72 -30q-38 -43 -42 -98q109 0 196 3q11 2 12 11q-1 51 -27 84q-26 30 -67 30zM177 42q59 0 122 44q3 2 5 3q4 4 3 7 q-12 34 -15 81q-12 2 -56 2q-103 0 -122 -60q-3 -11 -3 -22q0 -36 37 -50q14 -5 29 -5z" glyph-name="ae" horiz-adv-x="690" unicode="æ"/>
<glyph d="M150 -71l64 62h-5q-60 0 -110 46q-59 55 -59 147q0 125 87 194q65 52 155 52q60 0 92 -21q0 -20 -21 -50q-7 -8 -11 -11q-2 1 -10 4q-48 20 -80 20q-54 -1 -86 -37q-45 -52 -45 -131q1 -79 36 -122q31 -37 91 -37q48 0 124 28q7 -24 10 -44q-56 -25 -113 -35l-55 -56 q47 -9 56 -50q1 -7 1 -13q0 -52 -63 -74q-28 -9 -63 -10q-2 10 -4 34q72 6 73 43q-1 18 -13 29q-13 11 -42 11z" glyph-name="ccedilla" horiz-adv-x="403" unicode="ç"/>
<glyph d="M40 192q0 114 73 183q58 55 140 55q77 -1 118 -51q38 -49 38 -131q-8 -20 -26 -32q-5 -3 -8 -4q-89 -3 -254 -3q-1 -83 33 -124q42 -39 103 -40q54 0 133 32q8 -22 11 -45q-86 -42 -159 -42q-123 0 -175 91q-27 48 -27 111zM241 383q-47 -1 -74 -30q-39 -49 -42 -98 q110 0 195 3q12 2 13 11q-1 51 -27 84q-25 30 -65 30zM187 641q25 -24 79 -80q38 -39 54 -55q-14 -17 -28 -31q-20 16 -64 53q-57 47 -84 68q17 21 43 45z" glyph-name="egrave" horiz-adv-x="445" unicode="è"/>
<glyph d="M40 192q0 114 73 183q58 55 140 55q77 -1 118 -51q38 -49 38 -131q-8 -20 -26 -32q-5 -3 -8 -4q-89 -3 -254 -3q-1 -83 33 -124q42 -39 103 -40q54 0 133 32q8 -22 11 -45q-86 -42 -159 -42q-123 0 -175 91q-27 48 -27 111zM241 383q-47 -1 -74 -30q-39 -49 -42 -98 q110 0 195 3q12 2 13 11q-1 51 -27 84q-25 30 -65 30zM317 640q19 -15 43 -44q-19 -15 -150 -121q-18 20 -28 31q22 21 68 67.5t67 66.5z" glyph-name="eacute" horiz-adv-x="445" unicode="é"/>
<glyph d="M40 192q0 114 73 183q58 55 140 55q77 -1 118 -51q38 -49 38 -131q-8 -20 -26 -32q-5 -3 -8 -4q-89 -3 -254 -3q-1 -83 33 -124q42 -39 103 -40q54 0 133 32q8 -22 11 -45q-86 -42 -159 -42q-123 0 -175 91q-27 48 -27 111zM241 383q-47 -1 -74 -30q-39 -49 -42 -98 q110 0 195 3q12 2 13 11q-1 51 -27 84q-25 30 -65 30zM249 562q-15 -14 -47 -46q-33 -32 -47 -45q-15 13 -29 26l105 123q13 1 37 1q7 -8 104 -124q-10 -10 -29 -27q-63 63 -94 92z" glyph-name="ecircumflex" horiz-adv-x="445" unicode="ê"/>
<glyph d="M40 192q0 114 73 183q58 55 140 55q77 -1 118 -51q38 -49 38 -131q-8 -20 -26 -32q-5 -3 -8 -4q-89 -3 -254 -3q-1 -83 33 -124q42 -39 103 -40q56 0 133 32q6 -17 12 -45q-87 -42 -160 -42q-123 0 -175 91q-27 48 -27 111zM241 383q-47 -1 -74 -30q-39 -49 -42 -98 q110 0 195 3q12 2 13 11q-1 51 -27 84q-25 30 -65 30zM170 579q35 0 41 -35q1 -5 1 -9q0 -28 -25 -39q-8 -3 -17 -3q-34 0 -42 30q-2 7 -2 13q0 28 24 39q10 4 20 4zM329 579q29 0 39 -29q2 -8 2 -14q0 -31 -28 -41q-8 -2 -15 -2q-32 0 -41 29q-2 7 -2 13q0 34 30 42 q8 2 15 2z" glyph-name="edieresis" horiz-adv-x="445" unicode="ë"/>
<glyph d="M102 361l-77 2v42q22 3 91 15q56 10 61 10q2 -2 2 -3q0 -56 -1 -193q-1 -134 -1 -187l70 -3q0 -29 -1 -43h-111q-17 0 -53 -1h-51v44l67 3q3 1 4 4v310zM56 640q24 -24 78 -79q37 -38 54 -55q-16 -19 -29 -31q-15 12 -47 39q-68 57 -100 82q16 18 44 44z" glyph-name="igrave" horiz-adv-x="266" unicode="ì"/>
<glyph d="M102 361l-77 2v42q22 3 91 15q56 10 61 10q2 -2 2 -3q0 -56 -1 -193q-1 -134 -1 -187l70 -3q0 -29 -1 -43h-111q-17 0 -53 -1h-51v44l67 3q3 1 4 4v310zM201 640q23 -19 43 -44q-147 -120 -149 -121q-18 20 -28 31z" glyph-name="iacute" horiz-adv-x="266" unicode="í"/>
<glyph d="M102 361l-77 2v42q22 3 91 15q56 10 61 10q2 -2 2 -3q0 -56 -1 -193q-1 -134 -1 -187l70 -3q0 -29 -1 -43h-111q-17 0 -53 -1h-51v44l67 3q3 1 4 4v310zM133 562q-29 -28 -93 -92q-11 9 -30 26q60 71 105 124q13 1 36 1q17 -20 59 -69q32 -39 46 -55q-19 -19 -30 -27 q-30 31 -93 92z" glyph-name="icircumflex" horiz-adv-x="266" unicode="î"/>
<glyph d="M102 361l-77 2v42q22 3 91 15q56 10 61 10q2 -2 2 -3q0 -56 -1 -193q-1 -134 -1 -187l70 -3q0 -29 -1 -43h-111q-17 0 -53 -1h-51v44l67 3q3 1 4 4v310zM51 579q35 0 41 -35q1 -5 1 -9q0 -28 -25 -39q-8 -3 -17 -3q-34 0 -42 30q-2 7 -2 13q0 28 24 39q10 4 20 4z M208 579q31 0 40 -31q2 -6 2 -12q0 -31 -28 -41q-8 -2 -15 -2q-32 0 -41 29q-2 7 -2 13q0 34 30 42q7 2 14 2z" glyph-name="idieresis" horiz-adv-x="266" unicode="ï"/>
<glyph d="M369 379l7 3q-30 108 -91 170q-64 -48 -101 -76q-11 13 -28 36q56 41 94 71q-57 50 -150 62q6 27 10 42q96 -4 175 -57q7 -5 13 -9q11 8 34 26q39 29 58 44q15 -18 27 -37l-84 -63q81 -75 111 -200q13 -52 13 -104q-1 -162 -77 -240q-58 -57 -145 -57q-73 1 -119 38 q-66 52 -72 145q-1 9 -1 17q1 103 72 171q59 57 142 57q67 -1 112 -39zM244 34q56 2 90 46q46 61 46 173q-1 57 -17 76q-41 43 -109 43q-55 -1 -92 -45q-38 -46 -38 -128q1 -97 50 -140q30 -25 70 -25z" glyph-name="eth" horiz-adv-x="501" unicode="ð"/>
<glyph d="M101 360l-77 2v20q1 15 1 21q22 3 89 17q45 9 49 9q2 -2 2 -3q5 -29 11 -59l5 -1q95 58 136 63q11 1 28 1q64 0 103 -63q2 -3 3 -5q20 -33 20 -73q0 -19 -3 -242l64 -3q0 -29 -1 -43h-50q-37 -1 -55 -1q-16 0 -50 -1h-46q0 30 1 44l58 3q3 2 3 4q1 55 1 181q0 78 -13 101 q-22 38 -68 38q-51 0 -120 -49q-7 -5 -13 -10q-2 -150 -2 -264l72 -3q0 -7 -1 -22v-22h-53q-41 1 -60 1q-16 0 -50 -1h-47q0 29 1 44l59 3q3 1 4 3zM231 594q26 0 59 -26q5 -3 7 -5q28 -20 33 -22q7 -2 13 -2q23 0 29 41l2 10h37q-7 -101 -68 -102q-27 1 -63 30 q-32 22 -38 24q-7 2 -14 2q-23 -2 -33 -50h-37q7 90 63 99q5 1 10 1z" glyph-name="ntilde" horiz-adv-x="558" unicode="ñ"/>
<glyph d="M244 -10q-85 1 -137 47q-66 62 -66 165q1 114 84 183q58 45 137 45q75 -1 124 -37q78 -60 78 -173q0 -117 -82 -185q-2 -2 -4 -3q-54 -42 -134 -42zM252 34q52 1 83 33q45 50 45 149q-1 88 -40 132q-35 38 -85 38q-51 -1 -84 -34q-46 -48 -46 -143q1 -95 47 -142 q31 -33 80 -33zM195 640q24 -24 78 -79q37 -38 54 -55q-9 -12 -28 -31q-15 12 -47 39q-68 57 -100 82q20 24 43 44z" glyph-name="ograve" horiz-adv-x="505" unicode="ò"/>
<glyph d="M244 -10q-85 1 -137 47q-66 62 -66 165q1 114 84 183q58 45 137 45q75 -1 124 -37q78 -60 78 -173q0 -117 -82 -185q-2 -2 -4 -3q-54 -42 -134 -42zM252 34q52 1 83 33q45 50 45 149q-1 88 -40 132q-35 38 -85 38q-51 -1 -84 -34q-46 -48 -46 -143q1 -95 47 -142 q31 -33 80 -33zM337 640q22 -17 44 -44q-11 -8 -150 -121q-3 3 -9 10q-13 14 -19 21z" glyph-name="oacute" horiz-adv-x="505" unicode="ó"/>
<glyph d="M244 -10q-85 1 -137 47q-66 62 -66 165q1 114 84 183q58 45 137 45q75 -1 124 -37q78 -60 78 -173q0 -117 -82 -185q-2 -2 -4 -3q-54 -42 -134 -42zM252 34q52 1 83 33q45 50 45 149q-1 88 -40 132q-35 38 -85 38q-51 -1 -84 -34q-46 -48 -46 -143q1 -95 47 -142 q31 -33 80 -33zM264 562q-30 -28 -94 -92q-20 18 -29 27l105 123q13 1 36 1q17 -20 59 -69q32 -39 46 -55q-13 -13 -30 -27q-30 31 -93 92z" glyph-name="ocircumflex" horiz-adv-x="505" unicode="ô"/>
<glyph d="M244 -10q-85 1 -137 47q-66 62 -66 165q1 114 84 183q58 45 137 45q75 -1 124 -37q78 -60 78 -173q0 -117 -82 -185q-2 -2 -4 -3q-54 -42 -134 -42zM252 34q52 1 83 33q45 50 45 149q-1 88 -40 132q-35 38 -85 38q-51 -1 -84 -34q-46 -48 -46 -143q1 -95 47 -142 q31 -33 80 -33zM210 594q26 0 59 -26q5 -3 7 -5q28 -20 33 -22q7 -2 13 -2q23 0 29 41l2 10h37q-7 -101 -68 -102q-27 1 -63 30q-32 22 -38 24q-7 2 -14 2q-23 -2 -33 -50h-37q7 90 63 99q5 1 10 1z" glyph-name="otilde" horiz-adv-x="505" unicode="õ"/>
<glyph d="M244 -10q-85 1 -137 47q-66 62 -66 165q1 114 84 183q58 45 137 45q75 -1 124 -37q78 -60 78 -173q0 -117 -82 -185q-2 -2 -4 -3q-54 -42 -134 -42zM252 34q52 1 83 33q45 50 45 149q-1 88 -40 132q-35 38 -85 38q-51 -1 -84 -34q-46 -48 -46 -143q1 -95 47 -142 q31 -33 80 -33zM183 579q35 0 41 -35q1 -5 1 -9q0 -28 -25 -39q-8 -3 -17 -3q-34 0 -42 30q-2 7 -2 13q0 28 24 39q10 4 20 4zM341 579q29 0 39 -29q2 -8 2 -14q0 -31 -28 -41q-8 -2 -15 -2q-32 0 -41 29q-2 7 -2 13q0 34 30 42q8 2 15 2z" glyph-name="odieresis" horiz-adv-x="505" unicode="ö"/>
<glyph d="M215 379q0 31 28 44q10 4 20 4q34 0 44 -33q2 -8 2 -15q0 -31 -25 -45q-10 -5 -20 -5q-38 0 -47 36q-2 7 -2 14zM460 210h-397q0 36 2 53h1h1h1h1h1h1h1h1h1h1h1h1h1h1h1h1h1h1h1h1h1h1h1h1h1h1h1h1h1h1h1h1h1h1h1h1h1h1h1h1h1h1h1h1h1h1h1h1h1h1h1h1h1h1h1h1h1h1h1h1h1 h1l1 1h1h1h1h1h1h1h1h1h1h1h1h1h1h1h1h1h1h1h1h1h1h1h1h1h1h1h1h1h1h1h1h1h1h1h1h1h1h1h1h1h1h1h1h1h1h1h1h1h1h1h1h1h1h1h1h1h1h1h1h1h1h1h1h1h1h1h1h1h1h1h1h1h1h1h1h1h1h1h1h1h1h1h1h1h1h1h1h1h1h1h1h1h1h1h1h1h1h1h1h1h1h1h1h1h1h1h1h1h1h1h1h1h1h1h1h1h1h1h1h1h1h1h1h1 h1h1h1h1h1h1h1h1h1h1l1 1h1h1h1h1h1h1h1h1h1h1h1h1h1h1h1h1h1h1h1h1h1h2h1h1h1h1h1h1h1h1h1h1h1h1h1h1h1h1h1h1h1h1h1h1h1h1h1h1h1h1h1h1h1h1h2h1h1h1h1h1h1h1h1h1h1h1h1h1h1h1h1h1h1h1h1h1h1h1h1h1h1h1h1h1h1h1h2h1h1h1h1h1h1h1h1h1h1h1h1h1h1h1h1h1h1h1h1h1h1h1h1h1h1h1h1 h1h1h1h1h1h1h1h2h1h1h1h1h1h1h1h1l1 1h1h1h1h1h1h1h1h1h1h1h1h1h1h1h1h1h1h1h1h1h1h1h1h1h1h1h1h1h1h1h1h1h1h1h1h1h1h1h1h1h1h1h1h1h1h1h1h1h1h2h1h1h1h1h1h1h1h1h1h1h1h1h1q0 -31 -3 -56zM215 100q0 30 27 42q11 5 22 5q33 0 43 -33q2 -9 2 -18q0 -28 -24 -42 q-11 -5 -22 -5q-36 0 -46 35q-2 9 -2 16z" glyph-name="divide" unicode="÷"/>
<glyph d="M262 430q69 -1 118 -35q51 61 54 65q14 -10 36 -32q-16 -18 -54 -64q48 -55 48 -143q-1 -126 -91 -193q-53 -38 -129 -38q-68 1 -117 32q-30 -36 -59 -68q-17 14 -32 29q7 9 22 26q23 28 35 43q-53 58 -53 149q1 117 85 184q59 45 137 45zM254 386q-51 -1 -86 -35 q-48 -50 -48 -142q1 -68 23 -104q28 35 198 244q-31 37 -87 37zM252 34q51 1 83 32q49 50 49 147q0 64 -20 96q-40 -49 -121 -147q-52 -62 -77 -93q32 -35 86 -35z" glyph-name="oslash" horiz-adv-x="505" unicode="ø"/>
<glyph d="M366 43l-5 1q-84 -50 -125 -53q-10 -1 -24 -1q-58 0 -99 54q-30 40 -30 83q0 45 1 132v110l-61 1q0 17 2 46q12 0 51 2q76 2 84 2q3 0 3 -3q-3 -115 -3 -239q0 -64 10 -86q2 -6 5 -10q24 -36 69 -36q51 1 118 50v273l-64 2q0 32 1 47q23 0 100 1q34 1 39 1q1 -2 2 -3 q0 -56 -1 -175q-1 -123 -1 -182q1 -13 7 -14l67 1q0 -29 -1 -42q-38 -13 -102 -15h-11q-16 17 -32 53zM185 640q16 -16 49 -50q58 -60 84 -84q-16 -19 -29 -31q-15 12 -47 39q-68 57 -100 82q14 17 43 44z" glyph-name="ugrave" horiz-adv-x="528" unicode="ù"/>
<glyph d="M366 43l-5 1q-84 -50 -125 -53q-10 -1 -24 -1q-58 0 -99 54q-30 40 -30 83q0 45 1 132v110l-61 1q0 17 2 46q12 0 51 2q76 2 84 2q3 0 3 -3q-3 -115 -3 -239q0 -64 10 -86q2 -6 5 -10q24 -36 69 -36q51 1 118 50v273l-64 2q0 32 1 47q23 0 100 1q34 1 39 1q1 -2 2 -3 q0 -56 -1 -175q-1 -123 -1 -182q1 -13 7 -14l67 1q0 -29 -1 -42q-38 -13 -102 -15h-11q-16 17 -32 53zM329 640q23 -19 43 -44q-142 -115 -149 -121q-11 10 -28 31z" glyph-name="uacute" horiz-adv-x="528" unicode="ú"/>
<glyph d="M366 43l-5 1q-84 -50 -125 -53q-10 -1 -24 -1q-58 0 -99 54q-30 40 -30 83q0 45 1 132v110l-61 1q0 17 2 46q12 0 51 2q76 2 84 2q3 0 3 -3q-3 -115 -3 -239q0 -64 10 -86q2 -6 5 -10q24 -36 69 -36q51 1 118 50v273l-64 2q0 32 1 47q23 0 100 1q34 1 39 1q1 -2 2 -3 q0 -56 -1 -175q-1 -123 -1 -182q1 -13 7 -14l67 1q0 -29 -1 -42q-38 -13 -102 -15h-11q-16 17 -32 53zM258 562q-30 -28 -94 -92q-3 3 -10 9q-13 11 -19 17q34 41 105 124q13 1 36 1q17 -20 59 -69q32 -39 46 -55q-19 -19 -29 -27q-35 35 -94 92z" glyph-name="ucircumflex" horiz-adv-x="528" unicode="û"/>
<glyph d="M366 43l-5 1q-84 -50 -125 -53q-10 -1 -24 -1q-58 0 -99 54q-30 40 -30 83q0 45 1 132v110l-61 1q0 17 2 46q12 0 51 2q76 2 84 2q3 0 3 -3q-3 -115 -3 -239q0 -64 10 -86q2 -6 5 -10q24 -36 69 -36q51 1 118 50v273l-64 2q0 32 1 47q23 0 100 1q34 1 39 1q1 -2 2 -3 q0 -56 -1 -175q-1 -123 -1 -182q1 -13 7 -14l67 1q0 -29 -1 -42q-38 -13 -102 -15h-11q-16 17 -32 53zM179 579q35 0 41 -35q1 -5 1 -9q0 -28 -25 -39q-8 -3 -17 -3q-34 0 -42 30q-2 7 -2 13q0 28 24 39q10 4 20 4zM337 579q29 0 39 -29q2 -8 2 -14q0 -31 -28 -41 q-8 -2 -15 -2q-32 0 -41 29q-2 7 -2 13q0 34 30 42q8 2 15 2z" glyph-name="udieresis" horiz-adv-x="528" unicode="ü"/>
<glyph d="M466 376l-44 -3q-8 -21 -82 -201q-93 -221 -158 -319q-52 -78 -86 -98q-19 0 -48 26q-13 11 -14 18q55 37 89 80q49 57 76 119q-43 104 -86 217q-11 29 -29 77q-20 56 -29 78q-2 2 -5 3l-49 3q0 31 1 44h86h121q0 -30 -1 -44l-70 -2q14 -49 45 -139q30 -87 57 -159h5 q32 77 55 140q20 53 51 152q0 4 -3 5l-61 3q0 30 1 43h47q37 1 54 1h78q0 -29 -1 -44zM328 640q17 -13 43 -43q-37 -30 -149 -122q-3 3 -9 10q-13 14 -19 21z" glyph-name="yacute" horiz-adv-x="462" unicode="ý"/>
<glyph d="M152 377l5 -1q90 48 128 53q11 1 25 1q83 0 131 -79q31 -51 31 -108q0 -74 -23 -126q-26 -58 -74 -93q-45 -34 -117 -34q-55 0 -102 23l-5 -2q1 -57 1 -192l91 -2q0 -16 -2 -43q-85 0 -127 -1q-70 0 -100 -1q0 29 1 43l58 4q3 2 4 5v739l-77 1q0 28 1 41q19 3 85 15 q62 12 67 12q2 -2 2 -3q0 -58 -3 -252zM390 216q0 63 -21 102q-29 50 -89 51q-62 -1 -125 -47q-2 -150 -2 -233q0 -20 40 -37q31 -14 61 -14q55 1 87 33q49 53 49 145z" glyph-name="thorn" horiz-adv-x="513" unicode="þ"/>
</font>
</defs>
</svg>
