<?xml version="1.0" standalone="no"?>
<!DOCTYPE svg PUBLIC "-//W3C//DTD SVG 1.1//EN" "http://www.w3.org/Graphics/SVG/1.1/DTD/svg11.dtd" >
<svg>
<metadata>
Created by FontForge 20090622 at Wed Jul  3 04:20:01 2019
 By deploy user
Copyright (c) 2012 by Brian J. Bonislawsky and Jim Lyles for Astigmatic (AOETI) (astigma@astigmatic.com), with ReservedFont Name "Clicker Script"
</metadata>
<defs>
<font id="ClickerScript-Regular" horiz-adv-x="614" >
  <font-face 
    font-family="Clicker Script"
    font-weight="400"
    font-stretch="normal"
    units-per-em="2048"
    panose-1="3 0 5 6 0 0 0 2 0 2"
    ascent="1638"
    descent="-410"
    x-height="639"
    cap-height="1415"
    bbox="-291 -807 2527 1898"
    underline-thickness="41"
    underline-position="-232"
    unicode-range="U+0020-U+FB02"
  />
<missing-glyph horiz-adv-x="512" 
 />
    <glyph glyph-name="fi" unicode="fi" horiz-adv-x="848" 
d="M686 104q-63 0 -104 51t-41 154v2q-32 -63 -74.5 -115.5t-97.5 -74.5q16 -42 29 -90.5t22.5 -99.5t14.5 -102t5 -99q0 -64 -10.5 -119t-31 -95.5t-51 -63.5t-71.5 -23q-55 0 -93.5 26.5t-64.5 70.5t-41 99.5t-22.5 113.5t-9.5 113.5t-2 98.5q0 99 9 222t24 252
t33.5 255.5t37 234t35.5 187.5t29 115q8 25 21.5 51t32.5 47t43.5 34t56.5 13q55 0 87.5 -36t32.5 -99q0 -76 -27.5 -162t-71.5 -178t-99.5 -187.5l-110.5 -189.5q-11 -93 -20.5 -185t-16 -174.5t-10.5 -151.5t-4 -116q0 -96 9.5 -172.5t29 -130t48 -82t67.5 -28.5
q22 0 37 14t25 36t15 50t7.5 56t3 53t0.5 42q0 112 -15 213.5t-37 174.5h-8q-24 0 -45.5 6.5t-38.5 18.5t-27 28t-10 35q0 27 16.5 46t41.5 19q31 0 59 -29.5t51 -78.5q39 15 71 52.5t58.5 83.5t46.5 95l35 88q14 54 38.5 116.5t60.5 131.5l36 -10q-6 -26 -19 -71
t-26.5 -100.5t-23.5 -116t-10 -116.5q0 -47 6.5 -76.5t18.5 -46t27.5 -22.5t33.5 -6q28 0 54.5 18t50 47.5t43.5 66t36.5 73.5t29.5 70.5t21 57.5l39 -10l-25.5 -69.5t-33 -81.5t-41.5 -82t-52 -71.5t-64.5 -51t-78.5 -19.5zM260 1145q-5 -26 -13.5 -78.5t-18 -124
l-20.5 -158l-22 -178.5l102 179.5t81.5 163t54.5 146t20 130.5q0 40 -17.5 69t-57.5 29q-29 0 -48.5 -20t-31.5 -48t-18.5 -58.5t-10.5 -51.5zM848 1036q0 -35 -27 -54t-67 -19q-22 0 -40.5 6.5t-32 17t-21 25t-7.5 30.5q0 34 26.5 55t61.5 21q25 0 45 -7.5t34 -19.5
t21 -26.5t7 -28.5zM227 199q0 -19 23.5 -35.5t54.5 -18.5q-14 38 -28.5 58t-28.5 20q-8 0 -14.5 -6t-6.5 -18zM795 1036q0 10 -9 18.5t-26 8.5q-31 0 -31 -23q0 -11 9.5 -18.5t25.5 -7.5q15 0 23 6.5t8 15.5z" />
    <glyph glyph-name="fl" unicode="fl" horiz-adv-x="907" 
d="M485 1227q0 -76 -27.5 -162t-71.5 -178t-99.5 -187.5l-110.5 -189.5q-11 -93 -20.5 -185t-16 -174.5t-10.5 -151.5t-4 -116q0 -96 9.5 -172.5t29 -130t48 -82t67.5 -28.5q22 0 37 14t25 36t15 50t7.5 56t3 53t0.5 42q0 58 -4.5 117t-12 114.5t-17.5 106t-22 91.5h-4
q-24 0 -45.5 6.5t-38.5 18.5t-27 28t-10 35q0 27 16.5 46t41.5 19q29 0 56 -30.5t50 -79.5q29 7 57 25.5t53.5 44.5t48.5 58.5t44 67.5q-6 71 -7 138.5t-1 119.5q0 91 7.5 181t23 172t37.5 152.5t51.5 122t65 80.5t77.5 29q30 0 51 -10t34.5 -27t19.5 -39.5t6 -47.5
q0 -63 -14.5 -135.5t-38.5 -148t-54 -151.5t-61.5 -147l-61.5 -133.5l-53 -110.5q9 -165 39 -250.5t84 -85.5q30 0 59.5 28t59.5 79t61 123t63 161l39 -10q-24 -69 -54 -145.5t-67 -140.5t-80.5 -106t-93.5 -42q-42 0 -73 22.5t-52.5 60.5t-35.5 89t-23 107
q-19 -29 -41.5 -55t-47.5 -48t-52 -38.5t-55 -24.5q18 -46 31.5 -100.5t23.5 -110.5t15 -112t5 -105q0 -64 -10.5 -119t-31 -95.5t-51 -63.5t-71.5 -23q-55 0 -93.5 26.5t-64.5 70.5t-41 99.5t-22.5 113.5t-9.5 113.5t-2 98.5q0 99 9 222t24 252t33.5 255.5t37 234
t35.5 187.5t29 115q8 25 21.5 51t32.5 47t43.5 34t56.5 13q55 0 87.5 -36t32.5 -99zM629 684v-41v-44t0.5 -43t1.5 -38l53 111l55.5 127t53 134t44.5 132.5t30.5 122.5t11.5 104q0 15 -2.5 32t-9.5 31.5t-19 24t-31 9.5q-38 0 -72.5 -49.5t-60 -137.5t-40.5 -209.5
t-15 -265.5zM260 1145q-5 -26 -13.5 -78.5t-18 -124l-20.5 -158l-22 -178.5l102 179.5t81.5 163t54.5 146t20 130.5q0 40 -17.5 69t-57.5 29q-29 0 -48.5 -20t-31.5 -48t-18.5 -58.5t-10.5 -51.5zM227 240q0 -9 6 -18t16.5 -17t23.5 -13t28 -6q-14 35 -27.5 56.5t-25.5 21.5
q-8 0 -14.5 -6t-6.5 -18z" />
    <glyph glyph-name="f_j" unicode="fj" horiz-adv-x="887" 
d="M393 -485q0 85 42.5 178t139.5 207q8 153 16 260t17 184q-23 -42 -51.5 -82t-62 -72.5t-71 -54.5t-79.5 -26q11 -57 16 -128.5t5 -148.5q0 -90 -9.5 -164t-28 -127.5t-46 -82.5t-62.5 -29q-42 0 -71 26.5t-48.5 70.5t-31 99.5t-17 113.5t-7 113.5t-1.5 98.5q0 99 9 222
t24 252t33.5 255.5t37 234t35.5 187.5t29 115q8 25 21.5 51t32.5 47t43.5 34t56.5 13q55 0 87.5 -36t32.5 -99q0 -76 -27.5 -162t-71.5 -178t-99.5 -187.5l-110.5 -189.5q-11 -93 -20.5 -185t-16 -174.5t-10.5 -151.5t-4 -116q0 -192 23 -282t69 -90q20 0 38.5 22.5
t32.5 63.5t22.5 98.5t8.5 128.5q0 93 -5.5 164.5t-14.5 122.5q-21 3 -41.5 11t-36.5 19t-25.5 25.5t-9.5 30.5q0 27 16.5 46t41.5 19q34 0 56 -31.5t36 -85.5q33 2 64.5 20.5t61 47.5t56 65.5t48.5 74t39 73t28 63.5q12 55 26.5 106l32.5 114l37 -13q-2 -16 -10.5 -69.5
t-18.5 -143.5t-20.5 -216.5t-17.5 -289.5q44 45 89 102.5t87 123t78.5 138t64.5 148.5l39 -10q-32 -86 -73.5 -167.5t-88.5 -155t-98.5 -137t-102.5 -113.5v-39q-5 -135 -16.5 -229.5t-32 -154t-49 -87t-65.5 -27.5q-44 0 -72.5 36.5t-28.5 109.5zM260 1145
q-5 -26 -13.5 -78.5t-18 -124l-20.5 -158l-22 -178.5l102 179.5t81.5 163t54.5 146t20 130.5q0 40 -17.5 69t-57.5 29q-29 0 -48.5 -20t-31.5 -48t-18.5 -58.5t-10.5 -51.5zM567 -190q-13 -19 -34.5 -47.5t-42 -65.5t-35.5 -81t-15 -93q0 -48 16 -70t38 -22q21 0 34 35.5
t21.5 91t12 122.5t5.5 130zM809 1036q0 -35 -27 -54t-67 -19q-22 0 -40.5 6.5t-32 17t-21 25t-7.5 30.5q0 34 26.5 55t61.5 21q25 0 45 -7.5t34 -19.5t21 -26.5t7 -28.5zM756 1036q0 10 -9 18.5t-26 8.5q-31 0 -31 -23q0 -11 10 -18.5t25 -7.5t23 6.5t8 15.5zM227 199
q0 -14 19.5 -26.5t44.5 -20.5q-18 71 -43 71q-8 0 -14.5 -6t-6.5 -18z" />
    <glyph glyph-name="t_t" unicode="tt" horiz-adv-x="901" 
d="M-117 842q34 -14 90 -32t138 -32q13 87 35 157t47.5 119.5t53.5 76t54 26.5q31 0 44 -24t13 -64q0 -29 -6 -64.5t-16.5 -75.5t-24.5 -83t-30 -86h79q92 0 179 6q13 90 35 162.5t47.5 123t54 78t55.5 27.5q31 0 44 -24t13 -64q0 -53 -14 -125t-39 -156q81 13 150.5 28.5
t126.5 29.5l18 -37q-74 -19 -148.5 -35t-158.5 -29q-25 -75 -57.5 -153.5t-67.5 -151.5q3 -54 11.5 -110.5t25.5 -103t45.5 -76t71.5 -29.5q42 0 77 35.5t64.5 90t54.5 119.5l47 123l39 -10l-30 -81t-36 -91.5t-44 -90t-53 -78t-64 -55t-76 -20.5q-35 0 -66 12t-57 41
t-45.5 78.5t-30.5 124.5q-29 -47 -58.5 -86.5t-59 -68t-58 -44.5t-55.5 -16q-44 0 -82.5 16.5t-67 62t-45 126.5t-16.5 211q0 59 3 113.5t11 105.5q-83 13 -141.5 31t-95.5 35zM315 162q28 0 54.5 17t52 48t50.5 73t52 93q-3 28 -3.5 60t-0.5 67q0 110 12 205
q-42 -3 -84.5 -3.5t-89.5 -0.5h-47t-45 2q-25 -65 -51 -123t-49 -100q1 -53 8 -112t23 -109.5t44.5 -83.5t73.5 -33zM606 772q20 3 41 5t41 5q28 91 44 167.5t16 121.5q0 33 -11 33q-9 0 -26.5 -17.5t-37 -56.5t-38 -102.5t-29.5 -155.5zM176 770q16 -2 32.5 -3t35.5 -3
q18 49 31.5 95.5t22.5 86.5t14 72t5 53q0 33 -10 33q-9 0 -26.5 -17.5t-37 -56.5t-38 -103t-29.5 -157zM674 739q-19 -2 -36 -4t-36 -4q-6 -68 -6 -151v-41q22 49 41.5 100t36.5 100zM229 725q-15 0 -29 1t-28 3q-6 -68 -6 -149v-2l33 73.5t30 73.5z" />
    <glyph glyph-name=".notdef" horiz-adv-x="512" 
 />
    <glyph glyph-name="A" unicode="A" horiz-adv-x="1167" 
d="M96 414h244l105 214l100.5 203l91.5 182l76.5 151l57 110t32.5 59q12 22 25.5 30.5t33.5 8.5q23 0 37 -14.5t14 -42.5q0 -11 -2 -53l-5 -105l-7 -141t-7 -160.5t-5 -164t-2 -150.5v-64t2 -61h118.5t90.5 2v-39q-54 -2 -105 -2h-102q7 -130 29.5 -236t69 -181.5
t120.5 -117t184 -41.5q44 0 94 11l7 -41q-51 -16 -92.5 -23.5t-79.5 -7.5q-92 0 -159.5 23t-115 65t-77.5 100.5t-47 129t-24 151t-7 166.5h-408q-6 -14 -12 -26.5l-13 -26.5q-50 -110 -96 -190.5t-88.5 -137.5t-80.5 -94t-73 -60.5t-66.5 -37t-59.5 -23.5l-17 35l19 12.5
t51 39.5t75 71t92 106t102.5 144.5t105.5 187.5h-226v39zM856 1329q-11 0 -49 -67.5t-97.5 -188.5l-138.5 -289l-172 -370h392q0 91 6 183.5t14.5 181t18 170l17.5 150t13.5 121.5t5.5 85q0 15 -2.5 19.5t-7.5 4.5z" />
    <glyph glyph-name="B" unicode="B" horiz-adv-x="1360" 
d="M545 49q-57 141 -80 270t-23 244v34t2 34q-66 8 -100.5 27.5t-34.5 48.5t40.5 48t111.5 27q16 98 42 177t50.5 134.5t42.5 86t18 32.5l37 -12l-14.5 -43.5t-24 -83t-27.5 -123t-24 -162.5h2q76 0 150 -7.5t143 -24.5q47 26 88 59.5t71.5 74t48 88t17.5 101.5
q0 75 -26 130t-66.5 94.5t-91.5 64.5t-100.5 39t-92.5 19.5t-69 5.5q-97 0 -177 -17.5t-143.5 -44t-110.5 -57t-78 -57t-46.5 -44t-16.5 -18.5l-30 25q2 3 19.5 23t51 47.5t82.5 59.5t114 58.5t145.5 44.5t177.5 18q65 0 133.5 -8.5t133 -27.5t122.5 -49t101 -73t68 -100
t25 -129q0 -48 -19 -96t-54 -94t-84 -87t-109 -75q67 -24 124 -58.5t98 -81t64 -105.5t23 -132q0 -78 -28 -148t-78.5 -129t-120.5 -106.5t-154 -80.5t-179.5 -50.5t-196.5 -17.5q-127 0 -219.5 29.5t-153 78.5t-90 112.5t-29.5 131.5q0 44 13.5 83.5t38 73t59.5 59t79 40.5
l13 -31q-38 -14 -63.5 -42t-41 -61t-22 -67t-6.5 -59q0 -30 8 -65t27 -69t50.5 -66t78.5 -56t111 -38.5t147 -14.5q64 0 137 13.5t144 40.5t136 67t115 94t79.5 121t29.5 147q0 72 -20 128t-55.5 99t-82.5 73.5t-101 51.5q-74 -32 -155.5 -50.5t-169.5 -18.5
q-2 -35 -3 -72.5t-1 -77.5q0 -96 10 -201t29 -221zM551 668q53 2 114.5 15.5t122.5 39.5q-57 14 -114.5 20.5t-110.5 6.5h-6q-2 -20 -3 -40.5t-3 -41.5zM350 705q0 -7 22 -17t74 -16l4 36t5 35q-57 -8 -81 -20t-24 -18z" />
    <glyph glyph-name="C" unicode="C" horiz-adv-x="1384" 
d="M1147 1409q-31 -11 -61 -24.5t-58 -28.5q56 -48 90.5 -119t34.5 -164q0 -76 -19.5 -140t-54.5 -110t-82.5 -72t-103.5 -26q-41 0 -81 14t-71.5 43t-51 72.5t-19.5 103.5q0 67 22 127.5t59.5 112t87.5 94t105 74.5q-29 14 -62.5 22.5t-68.5 8.5q-61 0 -130 -23t-136.5 -69
t-129 -113.5t-109 -157.5t-75.5 -201t-28 -243q0 -134 39 -254t114 -211t184.5 -144t250.5 -53q82 0 160.5 24.5t148.5 68t129 104t102 131.5l31 -18q-48 -89 -115.5 -159t-149.5 -119t-175 -75t-191 -26q-141 0 -260 49.5t-205.5 140.5t-135 219.5t-48.5 286.5
q0 143 31 263.5t85 218.5t125.5 172.5t152.5 125t167 76t168 25.5q45 0 88.5 -13.5t81.5 -36.5q40 19 80 31t78 19zM1114 1075q0 82 -32.5 148.5t-88.5 109.5q-49 -32 -91.5 -73.5t-73.5 -92t-48.5 -110t-17.5 -127.5q0 -36 9.5 -66.5t27.5 -52.5t44 -34.5t58 -12.5
q54 0 94 31t66.5 77.5t39.5 101t13 101.5z" />
    <glyph glyph-name="D" unicode="D" horiz-adv-x="1446" 
d="M408 -98q-77 0 -141 19t-109.5 55t-71 88t-25.5 118q0 68 31.5 138.5t91.5 130.5l19 -19q-31 -40 -51.5 -96t-20.5 -119q0 -51 15.5 -100.5t48.5 -88.5t85.5 -63t127.5 -24q6 0 12 1t12 1q-31 94 -55.5 230t-24.5 316q0 168 20 296t47 221t55.5 153.5t45.5 93.5l29 -6
q-9 -43 -23 -117.5t-27.5 -183t-23.5 -253.5t-10 -328q0 -103 6 -207.5t18 -210.5q121 13 226 61t191.5 121t153.5 166t113.5 196t70.5 211t24 211q0 136 -42 233t-109 158.5t-151.5 90t-168.5 28.5q-83 0 -154 -11t-130.5 -29t-108 -40.5t-86.5 -46.5q-90 -56 -148 -127
l-33 23q1 2 18.5 23t52.5 51t88.5 64t126 63.5t166 49t208.5 19.5q138 0 247 -36t184.5 -106.5t115.5 -174t40 -238.5q0 -158 -41 -290.5t-110 -240t-159 -189.5t-189 -140.5t-200 -93t-191 -45.5q3 -19 6 -36t6 -36l-33 -4q-6 16 -13.5 34l-15.5 38q-9 -2 -18 -2h-18z" />
    <glyph glyph-name="E" unicode="E" horiz-adv-x="1300" 
d="M346 1049q0 99 38 173.5t100 124t142.5 74.5t166.5 25q94 0 158 -29.5t103 -75t55.5 -100.5t16.5 -106q0 -28 -3 -45t-3 -19l-39 4q1 8 2 18q1 8 1.5 19t0.5 25q0 45 -13.5 93t-46.5 87t-89.5 64.5t-142.5 25.5q-75 0 -139 -25.5t-110 -70t-72 -104t-26 -128.5
t23.5 -126.5t65.5 -100.5q45 15 90 24t92 9q34 0 62.5 -5.5t49.5 -16.5t33 -26.5t12 -35.5q0 -28 -18.5 -44t-44 -24t-53 -10t-45.5 -2q-65 0 -123.5 17.5t-106.5 49.5q-58 -29 -109.5 -73t-89.5 -102.5t-60.5 -130.5t-22.5 -156q0 -82 22.5 -144t59 -106.5t84 -74.5
t97.5 -47.5t98.5 -24.5t88.5 -7q130 0 233 41.5t176 112t114 164.5t47 198l39 -2q-3 -87 -31.5 -164.5t-76.5 -143.5t-112 -118.5t-139 -89.5t-158 -56.5t-168 -19.5q-98 0 -187.5 27.5t-157.5 81.5t-108 133.5t-40 183.5q0 89 29 171.5t78.5 153.5t116.5 127.5t143 94.5
q-48 43 -75.5 101.5t-27.5 130.5zM717 846q-73 0 -148 -23q37 -28 85 -42.5t104 -14.5q37 0 57.5 10.5t20.5 24.5q0 15 -31.5 30t-87.5 15z" />
    <glyph glyph-name="F" unicode="F" horiz-adv-x="1407" 
d="M571 709q3 1 23.5 6t54.5 12.5t78.5 16t95.5 14.5q6 165 47.5 286t104.5 207l-135.5 41t-138.5 38t-136.5 27.5t-128.5 10.5q-73 0 -125.5 -13.5t-88.5 -36t-58.5 -51.5t-34.5 -59.5t-16 -60t-4 -53.5q0 -22 2 -35t2 -15l-39 -8q-1 6 -2 15q-1 8 -1.5 17.5t-0.5 21.5
q0 27 4.5 61t18 69t38 69t65 60t99 42t139.5 16q75 0 149.5 -11.5t146 -29t140.5 -39l134 -41.5q46 57 99.5 97t107.5 64.5t105.5 36t94.5 11.5q34 0 63 -8t50.5 -24t34 -38.5t12.5 -50.5q0 -29 -17.5 -62t-52.5 -60.5t-88 -45.5t-125 -18q-49 0 -108 12t-125 29
q-50 -90 -77.5 -206.5t-35.5 -256.5q11 0 22.5 1t22.5 1q68 0 118.5 -4.5t89.5 -11t68.5 -15l55.5 -16.5l-6 -33q-57 9 -126.5 13t-142.5 4q-26 0 -52.5 -0.5t-51.5 -2.5v-38q0 -56 2 -100.5t4 -83.5l4 -76.5t2 -79.5q0 -102 -32.5 -184.5t-91 -141.5t-140 -91t-180.5 -32
q-105 0 -188 27.5t-140.5 82.5t-88 137t-30.5 191q0 78 21 164l39 -10q-5 -20 -9 -43q-3 -20 -5.5 -45t-2.5 -51q0 -199 100.5 -306.5t303.5 -107.5q84 0 149 23t109.5 66t68 105t23.5 140q0 47 -5.5 98.5l-12 108t-12 117.5t-5.5 126q-53 -3 -97.5 -6.5t-78.5 -5.5
q-40 -4 -72 -6zM1288 1229q55 0 100 12.5t77 33t49.5 46t17.5 51.5q0 37 -34 60.5t-85 23.5q-111 0 -195 -49.5t-143 -140.5q59 -17 112 -27t101 -10z" />
    <glyph glyph-name="G" unicode="G" horiz-adv-x="1315" 
d="M477 -2q-188 0 -287.5 98.5t-99.5 304.5q0 79 23 163t64 166.5t97.5 161t124 149t143 129.5t155 101.5t160 66.5t157.5 24q54 0 98 -14t75.5 -40t48.5 -64.5t17 -86.5t-17 -97t-46.5 -95.5t-70 -87.5t-87.5 -71.5t-99.5 -48.5t-105.5 -18q-94 0 -147 48t-53 128
q0 39 9 67.5t20.5 48.5t23 32t16.5 20l27 -28q-1 -1 -10 -9t-19.5 -25t-19 -43.5t-8.5 -62.5q0 -27 9.5 -51.5t29.5 -43t50.5 -29.5t71.5 -11q73 0 142.5 34.5t124 89.5t87.5 122.5t33 132.5q0 81 -51.5 121.5t-150.5 40.5q-111 0 -213 -40t-190.5 -109t-161 -160
t-124 -192.5t-80 -208t-28.5 -205.5q0 -96 27 -162t72.5 -106.5t105.5 -58.5t127 -18q54 0 112 17t115.5 47.5t111.5 72.5t101 91q2 115 19.5 197.5t42.5 135t53.5 77t52.5 24.5q7 0 16 -2.5t17.5 -9.5t14 -19.5t5.5 -32.5q0 -38 -12 -81.5t-34 -90t-53.5 -94.5t-70.5 -94
q4 -59 12 -109l15.5 -95t13.5 -87.5t6 -85.5q0 -80 -20.5 -159t-70.5 -142t-134.5 -102t-212.5 -39q-56 0 -98 17.5t-70.5 45.5t-42.5 63.5t-14 71.5q0 35 8.5 68.5t29.5 60.5t55.5 45t86.5 21l4 -39q-41 -2 -68.5 -15t-44.5 -34.5t-24.5 -49t-7.5 -57.5q0 -20 8 -47.5
t28.5 -52t56 -42t91.5 -17.5q72 0 125.5 23.5t92 64.5t63.5 96.5t39.5 119.5t20 134t5.5 139q0 34 -2 69.5t-2 74.5q-51 -51 -109.5 -95t-123.5 -77t-135 -51.5t-142 -18.5zM1036 346q60 74 96.5 155t36.5 158q0 23 -14 23q-15 0 -35.5 -26.5t-39 -69.5t-31.5 -97.5
t-13 -109.5v-33z" />
    <glyph glyph-name="H" unicode="H" horiz-adv-x="1556" 
d="M289 481q1 1 15 8t39 17.5t61 22.5t83 24q-5 75 -6.5 150.5t-1.5 144.5q0 143 19.5 251.5t50.5 188.5h-4q-110 -15 -197 -31t-155 -41.5t-118.5 -63.5t-86.5 -97l-37 14q44 78 109 122.5t143 70.5t166 39t178 28q5 0 10 1t10 3q36 75 77.5 124.5t81 79t72 41t50.5 11.5
q38 0 58 -21.5t20 -45.5q0 -45 -27.5 -80t-69.5 -61t-91.5 -44.5t-94.5 -29.5q-25 -68 -39 -152t-14 -180q0 -91 6 -191.5t14 -205.5q41 5 86.5 8.5t96.5 3.5q26 0 68.5 -1.5t87.5 -3.5t85 -3.5t62 -1.5q37 0 70.5 1t62.5 3q2 207 55 397.5t146 376.5l32 -15q-1 -1 -10 -30
t-22.5 -79.5t-29.5 -120t-29.5 -151.5t-22.5 -174t-9 -188v-8q44 5 75 11t50.5 11.5t28.5 9t10 3.5l13 -37q-5 -3 -47.5 -15.5t-129.5 -23.5q1 -46 4 -102t7.5 -115t11.5 -118.5t16 -113t21 -97t26 -71.5l-30 -16q0 -1 -11.5 18t-29.5 56t-39 91t-39.5 123.5t-31.5 153.5
t-15 181q-34 -3 -70.5 -3.5t-77.5 -0.5q-24 0 -56 1.5t-66.5 3.5t-69 3.5t-62.5 1.5q-60 0 -113 -4t-100 -11q7 -86 11 -169.5t4 -163.5q0 -95 -9 -182t-30.5 -163t-57.5 -138t-90 -106.5t-128 -68.5t-171 -24q-106 0 -202.5 41t-165.5 118l28 27q65 -71 153 -109t185 -38
q77 0 135 21.5t99.5 59t68.5 88.5t42.5 111.5t21.5 127t6 134.5q0 22 -2.5 63l-6 95l-8 118.5t-8.5 133.5q-46 -11 -81 -22.5t-58 -21.5q-27 -11 -47 -22zM854 1550q-50 0 -101 -52t-91 -146q43 12 84 28t72 36t50 45t19 55q0 12 -9 23t-24 11z" />
    <glyph glyph-name="I" unicode="I" horiz-adv-x="1294" 
d="M303 59l35 19q4 -9 17.5 -32t41.5 -47t74 -42t117 -18q89 0 179 48.5t163 149.5t118.5 255.5t45.5 367.5q0 75 -13.5 149.5t-41 142.5t-67.5 126.5t-93 101.5t-118.5 67.5t-142.5 24.5q-68 0 -144 -26.5t-139.5 -82t-105 -142t-41.5 -206.5q0 -95 18.5 -165t49 -120.5
t71 -83t84.5 -51.5t89 -26.5t84 -7.5q55 0 102.5 16t84 36.5t60.5 40l33 26.5l27 -29q-82 -68 -167 -101.5t-187 -33.5q-87 0 -169 26.5t-145.5 84t-102 147.5t-38.5 217q0 76 21.5 144.5t59 127t88.5 105t110 79.5t123 50.5t128 17.5q53 0 118.5 -10.5t132 -39t129.5 -79
t112 -129t78.5 -190t29.5 -262.5q0 -124 -25.5 -232t-69 -198t-103 -160.5t-127.5 -119t-141.5 -74t-145.5 -25.5q-39 0 -82 7t-83.5 25t-75 49.5t-56.5 81.5z" />
    <glyph glyph-name="J" unicode="J" horiz-adv-x="1090" 
d="M1180 1604q28 0 40.5 -18t12.5 -40q0 -31 -22.5 -68.5t-60.5 -74.5t-89 -70.5t-109 -56.5q-34 -97 -54.5 -230.5t-20.5 -310.5q0 -107 8 -212.5t17.5 -206.5t17.5 -198t8 -188q0 -83 -11.5 -170t-36.5 -169t-65 -154.5t-97 -126.5t-132 -85.5t-170 -31.5q-85 0 -158 28
t-128 77t-89 115.5t-41 142.5l66 20q6 -68 32.5 -130.5t71.5 -110t107 -75.5t139 -28q75 0 134.5 20.5t105.5 55.5t78.5 82.5t53.5 101t31 111t10 112.5q0 122 -13 241t-29 236t-29 232.5t-13 232.5q0 175 37 325.5t92 268.5q-153 -43 -271.5 -87t-199.5 -106t-123 -149
t-42 -215q0 -78 18 -137t47.5 -102.5t67 -73t75.5 -48.5t74 -29t62 -15l-7 -25q-84 4 -167 34.5t-148.5 86.5t-106 137.5t-40.5 188.5q0 117 46.5 206t138 157t227.5 118.5t315 91.5q15 3 29.5 7t29.5 9q36 71 75.5 127.5t77 95.5t71 60t57.5 21zM1180 1565q-20 0 -45 -13.5
t-53 -42t-56 -73.5t-53 -107q53 25 94 54.5t68.5 59t42 56.5t14.5 47q0 6 -1.5 12.5t-10.5 6.5z" />
    <glyph glyph-name="K" unicode="K" horiz-adv-x="1595" 
d="M944 1511q28 0 46 -15.5t18 -43.5q0 -39 -28.5 -71t-71 -57t-92.5 -43t-93 -28q-25 -63 -40 -148t-15 -200q0 -74 2 -155l4 -166q56 -22 103 -54.5t89 -74.5q101 23 181.5 70t141 113t101.5 147t64 171q29 118 67 204t79.5 147t84.5 100t81.5 62.5t70.5 34t51 14.5
l12 -27q-74 -18 -127.5 -70t-92 -124t-64 -156.5t-43.5 -165.5q-33 -144 -90.5 -244.5t-131.5 -167t-161 -103.5t-181 -52q59 -69 110 -149.5l98 -161l94 -155.5t99 -132.5t111.5 -92t132.5 -34.5q23 0 48 3.5t53 12.5l12 -29q-1 -1 -16 -8.5t-40.5 -16.5t-59.5 -16.5
t-74 -7.5q-102 0 -176 41.5t-129 110t-97.5 157t-81.5 183.5q-38 89 -75.5 160t-79.5 126q-28 -3 -55.5 -3.5t-55.5 -0.5h-49v-12q0 -90 -8 -174.5t-27.5 -158.5t-53.5 -136t-85.5 -106t-123 -68.5t-167.5 -24.5q-81 0 -156.5 24.5t-138.5 74.5l25 30q55 -45 124.5 -67.5
t141.5 -22.5q82 0 140 27t96.5 72.5t61.5 105.5t34.5 126.5t14.5 135.5t3 131v54q-65 10 -103.5 27t-58.5 35t-26 34.5t-6 27.5q0 23 10.5 40t28 27.5t41.5 15.5t51 5q15 0 30.5 -1t30.5 -3v54q0 196 29 337t73 236q-71 -8 -140 -9.5t-136 -12.5t-131 -38.5t-123 -86.5
l-31 24q58 60 118.5 91t124.5 44.5t132.5 16.5t144.5 8q14 0 29.5 2l32.5 4q36 67 75.5 111t76 70t66.5 36t46 10zM944 1473q-11 0 -33.5 -7.5t-51 -27t-59 -54t-57.5 -88.5q42 11 82.5 26t72.5 34.5t51.5 43t19.5 50.5q0 8 -5.5 15.5t-19.5 7.5zM494 580q-51 0 -69.5 -15.5
t-18.5 -32.5q0 -26 40.5 -50.5t112.5 -37.5q0 34 -1 66.5t-1 64.5q-15 2 -31.5 3.5t-31.5 1.5zM801 442q-29 31 -60 55.5t-65 41.5q0 -26 1 -52.5t1 -52.5h2q32 0 62 1.5t59 6.5z" />
    <glyph glyph-name="L" unicode="L" horiz-adv-x="1583" 
d="M213 -92q-48 0 -87 13.5t-67 37.5t-43.5 56.5t-15.5 70.5q0 87 60.5 136.5t166.5 49.5q76 0 139 -20.5t117 -52.5q13 53 13 120q0 69 -6 135.5t-13.5 132t-13.5 129.5t-6 128q0 144 28 249.5t73.5 179.5t104 120t119.5 72t119.5 35t104.5 9q69 0 124.5 -23t95 -61
t60.5 -86.5t21 -99.5q0 -46 -11 -87t-24.5 -72.5t-25.5 -50.5t-13 -21l-31 22q18 27 33 60q12 28 22.5 64t10.5 77q0 50 -18.5 93.5t-52 76t-81.5 51t-108 18.5q-105 0 -187 -43.5t-138 -113t-85 -156t-29 -172.5q0 -57 5 -119l10.5 -127.5t10.5 -133.5t5 -136
q0 -91 -12.5 -169.5t-38.5 -143.5q55 -41 107 -85t106.5 -81t115 -60.5t132.5 -23.5q93 0 170.5 39.5t133.5 102.5t87 141t31 155q0 28 -8 66t-29 69l24 19q1 -2 14 -18.5t28 -46t27.5 -70.5t12.5 -93q0 -74 -27 -146.5t-83 -130t-142.5 -93t-204.5 -35.5q-93 0 -164 24.5
t-129.5 62.5t-110 83t-105.5 86q-48 -100 -127.5 -156.5t-194.5 -56.5zM225 -53q97 0 159.5 58t90.5 157q-51 31 -110 51t-134 20q-15 0 -40.5 -5t-50 -20t-42.5 -43.5t-18 -76.5q0 -32 11.5 -57.5t31 -44.5t46 -29t56.5 -10z" />
    <glyph glyph-name="M" unicode="M" horiz-adv-x="1372" 
d="M1407 -264q-1 0 -31.5 4.5t-76 24t-98 58t-97.5 106.5t-75 170.5t-30 248.5q0 55 6 131.5t16.5 163.5t23 180t26 181l26 167l21.5 138l-26.5 -104.5l-30.5 -119l-32.5 -128.5l-33.5 -132q-17 -68 -38 -141.5t-47 -145t-57 -136t-69 -113.5t-82 -78t-96 -29q-29 0 -55 11
t-45.5 37.5t-31 71t-11.5 112.5q0 40 3.5 97.5t9 126t13 145.5l15.5 155.5l16 155.5l15 147l-62 -264l-80 -354q-37 -165 -77.5 -292.5t-80 -223t-75.5 -161t-63.5 -106t-44.5 -59t-17 -19.5l-35 19q0 1 17.5 31.5t45.5 85.5t64 132.5t74 171.5t76 203t69 228l80.5 311
l60.5 247.5l38.5 163.5t13.5 60l39 -4q0 -2 -0.5 -47t-1 -117t-1 -162.5l-1 -182.5l-1 -176.5t-0.5 -145.5q0 -70 5.5 -127.5t18 -98t31.5 -62.5t46 -22q22 0 52.5 29.5t67 96t77 174.5t83.5 266l33.5 120l40.5 149.5l47.5 186.5l54.5 230l39 -6q-20 -240 -37.5 -477.5
t-17.5 -477.5q0 -181 20 -315t59 -228.5t96.5 -154t133.5 -90.5z" />
    <glyph glyph-name="N" unicode="N" horiz-adv-x="1380" 
d="M-20 -219l30.5 40t55 83t67.5 124.5t68 164.5t56.5 203t33.5 239q14 188 22.5 342t13 264t6 170.5t1.5 61.5l39 4l51 -263l51.5 -269l54.5 -262.5t61 -243t71 -211t83.5 -166.5t100 -109t119.5 -39q42 0 87 29t82 94t61 169t24 253q0 89 -9.5 193t-29.5 214.5
t-49.5 221.5t-70 213.5t-91.5 192.5t-113 157l27 28q66 -71 119.5 -162t95 -195t71.5 -216t49.5 -224t29 -220t9.5 -203q0 -125 -21 -240t-64.5 -203t-109.5 -140t-157 -52q-72 0 -131.5 35.5t-108.5 98.5t-87.5 149.5t-68.5 188t-53 214t-40 228.5t-29.5 231t-21.5 221
q-5 -108 -15.5 -248.5t-19.5 -308.5q-10 -172 -35.5 -309t-67 -244t-97.5 -187.5t-128 -138.5z" />
    <glyph glyph-name="O" unicode="O" horiz-adv-x="1485" 
d="M1395 639q-1 -188 -49 -335.5t-135.5 -250.5t-211 -157t-274.5 -54q-142 0 -260 55t-202.5 151t-131.5 227t-47 284q0 130 26 239t68.5 199t98.5 162t115.5 127.5t119.5 96.5t110.5 69t88 44t53.5 22l12 -33q-31 -13 -85 -42t-117 -76.5t-128 -116t-117.5 -159
t-86 -205.5t-33.5 -257q0 -149 35.5 -283t106.5 -235t177.5 -160.5t249.5 -59.5q41 0 99.5 12.5t122.5 44.5t127.5 86t113.5 137t81.5 198.5t31.5 269.5q0 43 -3.5 89.5t-11.5 92.5q-89 -75 -193.5 -119.5t-221.5 -44.5q-77 0 -144 21.5t-116.5 61t-78 94t-28.5 120.5
q0 84 32.5 149.5t85.5 110t120.5 68t138.5 23.5q97 0 170 -33.5t125 -89.5t85.5 -129t51.5 -152q48 47 89 105t75 133l37 -15q-74 -154 -193 -270q11 -56 16 -110t5 -105zM954 733q99 0 195.5 32t181.5 103q-17 78 -47.5 149.5t-78 127t-114 88.5t-155.5 33
q-72 0 -125.5 -22t-89.5 -59t-54 -85.5t-18 -100.5q0 -44 15.5 -91t51.5 -86t94.5 -64t143.5 -25z" />
    <glyph glyph-name="P" unicode="P" horiz-adv-x="1434" 
d="M537 -96q-23 34 -46.5 94t-44 132t-36 149t-23.5 145q-40 8 -64.5 20t-38 25.5t-18 27.5t-4.5 25q0 34 33 67t90 56q8 98 27 182.5t42.5 154t48.5 123t46 90.5t35 56.5t14 20.5l35 -17q-9 -20 -28 -67t-39.5 -120t-39 -171t-26.5 -219q17 3 34 5.5t35 4.5l4 -39
q-21 -2 -40 -4.5t-37 -5.5q-2 -29 -2 -60v-63v-65h65q80 0 164.5 15t164.5 46.5t150.5 81t123.5 118.5t83.5 159t30.5 202q0 91 -28.5 156.5t-74.5 111.5t-105 74t-119.5 43.5t-117.5 21t-100 5.5q-87 0 -184 -22.5t-191.5 -58t-181 -79.5t-151.5 -86l-23 33q4 2 35.5 22
t84.5 48.5t125.5 61t159 60t184.5 46t202 18.5q122 0 233 -30.5t195 -92t134 -155t50 -220.5q0 -104 -34.5 -190t-95 -154.5t-142.5 -120t-177 -85.5t-198 -51t-205 -17h-55q5 -113 23.5 -238t53.5 -262zM303 522q0 -15 17.5 -29.5t62.5 -25.5q-2 14 -2 27.5v27.5v39.5
t2 38.5q-80 -41 -80 -78z" />
    <glyph glyph-name="Q" unicode="Q" horiz-adv-x="1659" 
d="M481 -240q-81 0 -157 15.5t-134.5 45.5t-93.5 75t-35 104q0 55 26.5 95t69.5 67t96 41t107 18q-99 109 -151.5 241t-52.5 294q0 108 26 204.5t73.5 177.5t114 146.5t147.5 110.5t174.5 69.5t193.5 24.5q155 0 282.5 -50.5t219 -142.5t142 -221.5t50.5 -286.5
q0 -147 -41.5 -283t-117 -252.5t-181 -211t-233.5 -158.5l143 -149t146.5 -133.5t159 -96t181.5 -36.5q62 0 118.5 19.5t107.5 61.5l22 -24q-1 -1 -10.5 -12t-28.5 -27.5t-46.5 -35t-63.5 -34.5t-80 -26.5t-96 -10.5q-72 0 -132.5 20t-113.5 55t-100 82t-91 100l-87 109.5
l-87 111.5q-106 -47 -223 -72t-244 -25zM256 756q0 -177 42.5 -305.5t127.5 -229.5q84 -3 158 -29t141 -67t127.5 -95t118.5 -112q114 62 203 153.5t151 205t94.5 245t32.5 273.5q0 156 -43 278t-119 206t-179.5 127.5t-223.5 43.5q-141 0 -257.5 -49.5t-199.5 -140.5
t-128.5 -219t-45.5 -285zM618 10q-112 70 -202 154q-65 -1 -110 -16.5t-73.5 -39.5t-41.5 -53.5t-13 -58.5q0 -38 23.5 -73t66.5 -61.5t104.5 -42.5t137.5 -16q115 0 217 22.5t193 65.5q-43 50 -89.5 95t-99.5 81t-113.5 60t-132.5 33q34 -32 72.5 -62t81.5 -59z" />
    <glyph glyph-name="R" unicode="R" horiz-adv-x="1583" 
d="M799 436q-38 0 -88 3.5t-101 11.5q2 -26 3 -52t1 -51q0 -113 -20 -206t-60 -159t-99.5 -102.5t-137.5 -36.5q-59 0 -132.5 22t-164.5 79l20 32q78 -48 147.5 -71t129.5 -23q65 0 107 23.5t66.5 62t34 87.5t9.5 100q0 71 -9.5 152t-17.5 171q-46 16 -75 37.5t-29 50.5
q0 28 26.5 48.5t69.5 31.5q0 86 13 168.5t32.5 155.5t42 135t42.5 106.5t33.5 69.5t14.5 25l35 -17q0 -1 -16 -39.5t-35 -108.5t-35 -168t-16 -218v-48.5t2 -50.5q111 -5 188.5 -50t134.5 -124q86 18 165.5 61.5t140 110.5t97 156t36.5 197q0 86 -25.5 153.5t-68 118
t-98 85.5t-114.5 56.5t-117.5 31t-107.5 9.5q-138 0 -248.5 -21t-195.5 -53t-146.5 -69t-101.5 -69t-59 -54l-19 -22l-33 22q3 3 24 27t62.5 57.5t105 72.5t152 71.5t202.5 54.5t257 22q82 0 163 -12.5t154 -38t135.5 -65.5t108 -94.5t71.5 -125t26 -157.5
q0 -125 -45.5 -221.5t-121 -166t-173 -113t-201.5 -61.5q35 -54 61 -120q31 -74 56.5 -153.5t53.5 -155.5t61.5 -144t79 -119.5t107 -81.5t146.5 -30q60 0 122.5 26.5t127.5 85.5l25 -28q-37 -36 -76 -68.5t-81.5 -57t-89.5 -39t-101 -14.5q-81 0 -140.5 22.5t-103.5 63
t-74 95.5t-52 119.5t-38.5 137l-32.5 146.5q-20 91 -44.5 169t-61.5 140q-22 -3 -43.5 -3.5t-42.5 -0.5zM596 618q2 -32 5.5 -65.5t6.5 -65.5q38 -8 87 -11t108 -3h29t30 2q-46 63 -109.5 100.5t-156.5 42.5zM483 522q-2 20 -3 41.5t-1 42.5q-26 -6 -41.5 -16t-15.5 -21
q0 -8 14.5 -20.5t46.5 -26.5z" />
    <glyph glyph-name="S" unicode="S" horiz-adv-x="1206" 
d="M295 1038q0 -56 23 -100.5t62 -81t91.5 -67t111.5 -59l121.5 -56t121.5 -58t111.5 -66t91.5 -79t62 -97t23 -120.5q0 -122 -46 -211.5t-123 -148t-179 -87t-213 -28.5q-98 0 -185 25.5t-153 71t-104.5 109t-38.5 138.5q0 66 20.5 112.5t45 76.5t46.5 44t25 15l22 -47
q-2 -1 -19 -12.5t-36.5 -35.5t-36 -61.5t-16.5 -91.5t20.5 -96.5t55 -74.5t79 -55t92.5 -37.5t96 -21t89 -6.5q106 0 192 26.5t146.5 73t93.5 108t33 132.5q0 80 -34 138t-90 102.5t-127.5 80l-146 69.5t-146 71.5t-127.5 86.5t-90 113.5t-34 153.5q0 99 33.5 181t92 141.5
t137.5 92t171 32.5q93 0 163 -21.5t117.5 -60t71 -92.5t23.5 -119q0 -53 -12.5 -103.5t-27.5 -90.5t-28 -65t-14 -28l-45 25q0 1 11.5 24t25.5 60t25.5 83.5t11.5 94.5q0 54 -19.5 98.5t-59.5 75.5t-101 48t-144 17q-77 0 -143 -25.5t-114.5 -71.5t-76.5 -108.5t-28 -136.5z
" />
    <glyph glyph-name="T" unicode="T" horiz-adv-x="1552" 
d="M641 -166q-108 0 -195 27.5t-149 76t-95.5 114.5t-33.5 143v19t2 19l39 -4q-2 -9 -2 -16.5v-15.5q0 -69 31 -128t86.5 -102.5t133 -68.5t171.5 -25q86 0 150.5 25t110.5 68t76.5 102t49 126t27.5 140t12 145t3 140t1 126q2 143 36.5 253t84.5 194q-70 23 -141 59.5
l-142 71.5t-143.5 60.5t-145.5 25.5q-119 0 -202 -32t-135 -82.5t-75.5 -112.5t-23.5 -123q0 -71 23.5 -131t66 -104t100.5 -68.5t127 -24.5q66 0 119.5 24.5t91 54.5t57.5 55t21 26l31 -23q0 -1 -11 -15.5t-32.5 -35.5t-53.5 -45.5t-74.5 -45t-94 -34.5t-113.5 -14
q-63 0 -128.5 21.5t-119 65t-87.5 109.5t-34 154q0 86 34 162.5t99 133.5t161 90.5t220 33.5q63 0 121.5 -12.5t112.5 -32.5t104.5 -45l99 -50l95 -47t92.5 -36q37 55 74 96t67.5 68t49.5 41t20 16l23 -33q-7 -4 -25.5 -18t-43 -39.5t-52 -61.5t-53.5 -84q15 -2 29 -3t30 -1
q73 0 130.5 18.5t101 47t74.5 62t50.5 63t29 50t11.5 23.5l37 -12q-1 -1 -11 -23t-31.5 -54.5t-55.5 -69.5t-82 -69t-111.5 -53.5t-144.5 -21.5q-19 0 -38 2t-38 7q-31 -65 -51.5 -148.5t-20.5 -185.5q0 -84 7.5 -174.5t7.5 -180.5q0 -139 -30.5 -258.5t-96.5 -207
t-169 -137.5t-247 -50z" />
    <glyph glyph-name="U" unicode="U" horiz-adv-x="1403" 
d="M709 -213q-114 0 -221 29t-190.5 98.5t-134 184.5t-50.5 286q0 124 21.5 236.5t55.5 210t75 179.5t80 146.5t71.5 110.5t48.5 71l33 -20l-27 -47.5t-49 -96t-59.5 -138.5t-58 -175.5t-43.5 -207t-17 -232.5q0 -147 32 -258t91 -185.5t143.5 -112.5t189.5 -38
q83 0 149.5 30.5t119 83.5t91.5 124t67.5 152t47 168.5t29 172.5t15 163.5t4.5 143.5q0 145 -14.5 267t-32.5 215t-35 155.5t-23 89.5l37 13q35 -123 60.5 -236t42 -229t24.5 -240.5t8 -271.5q0 -110 -13.5 -215.5t-42.5 -199t-74.5 -172t-110.5 -135.5t-149.5 -88.5
t-190.5 -31.5z" />
    <glyph glyph-name="V" unicode="V" horiz-adv-x="1153" 
d="M594 -152q-30 0 -47 22t-27.5 67t-18.5 112.5t-20 159t-31 206.5t-53 255q-24 98 -62 188.5t-82 169.5t-89 144t-81 111.5t-59.5 72t-23.5 26.5l82 82q1 -2 20 -23.5t48.5 -63.5t66.5 -106t76 -150.5t77 -197t68 -245.5q42 -188 63 -335t33.5 -248t24.5 -153.5t37 -52.5
q37 40 65 102.5t50.5 140.5t40 167.5t31.5 183.5t26.5 189l25 183t26 165.5t30.5 136.5q33 117 81.5 208t103 160t110.5 118t103.5 80.5t83 47.5t48.5 21l19 -35q-1 -1 -28 -16.5t-69 -51.5t-94.5 -95t-104 -147t-97.5 -206.5t-76 -273.5l-20.5 -102t-32.5 -152.5
l-42 -182.5t-49.5 -193t-55.5 -184.5t-58.5 -156t-59.5 -108t-59 -40.5z" />
    <glyph glyph-name="W" unicode="W" horiz-adv-x="1409" 
d="M922 -188v-2q-1 0 -12.5 19.5t-29 56.5t-37.5 89.5t-37 119t-28.5 145t-11.5 166.5q0 52 3.5 105t7.5 102l7.5 92.5t3.5 76.5q0 34 -6 53t-26 19q-21 0 -57 -47t-80.5 -125.5t-95 -181.5t-100 -216l-96 -228.5t-83.5 -217.5l-33 21l5 15t10 41.5t12 80.5t11.5 133.5
t9 201t3.5 281.5q0 159 -16 283t-40.5 217t-53 158t-53 106t-41.5 59t-17 19l20 25q6 -3 30.5 -18.5t57.5 -47t70 -81.5t68.5 -121.5t52 -166.5t20.5 -217q0 -97 -7 -206t-18.5 -214t-24.5 -196t-25 -152l73.5 180t89.5 201t100.5 197.5t105.5 170.5t105 120t99 45
q20 0 35.5 -31.5t15.5 -91.5q0 -41 -5 -97.5l-11 -126.5t-11 -152.5t-5 -176.5q0 -87 10 -181t41 -194q12 61 32 152t48 202t63.5 236.5t79 256t95 261t111 251.5t127.5 227t144 188.5t160.5 135t177.5 66.5l16 -83q-108 -17 -203.5 -83t-179.5 -166.5t-156.5 -229
t-134 -269.5t-112 -288t-90.5 -285.5t-69.5 -261t-49 -214.5t-29.5 -146.5t-10 -57.5z" />
    <glyph glyph-name="X" unicode="X" horiz-adv-x="1092" 
d="M1106 -471q-104 66 -188.5 161t-152 225.5t-119.5 300t-91 384.5q-100 -169 -183.5 -294t-151 -216.5t-119.5 -154l-89 -107.5l-73 80l67.5 70l79 83l92 104t106 132.5t120.5 169t137 213.5v8q-26 157 -66 271.5t-87 194.5t-97.5 131t-96.5 81.5t-85 45.5l-62 24l8 34
q7 -2 41 -9t83.5 -29.5t110 -64t121.5 -111.5t117 -172.5t97 -247.5q0 -4 1 -6.5t1 -4.5l56.5 100l59.5 109q101 188 201.5 321.5t191.5 224t169.5 143t137.5 80t94 35.5t40 9l6 -39q-1 0 -33 -7t-87.5 -33.5t-131.5 -78.5t-165 -142t-188 -224.5t-200 -325.5l-68 -126
l-65 -115q33 -127 58.5 -246.5l51.5 -230.5t57 -213t73.5 -193t100.5 -169.5t140 -143.5z" />
    <glyph glyph-name="Y" unicode="Y" horiz-adv-x="1317" 
d="M539 -29q62 0 121 24.5t114 67.5t105.5 102t95.5 128q18 180 43.5 316t54 234.5t58 163.5t57 103.5t51 54t39.5 15.5q4 0 11 -1.5t13 -8t10.5 -19.5t4.5 -35q0 -38 -14 -111.5t-42 -168t-69.5 -202.5t-95.5 -214q-3 -60 -5.5 -141.5t-9 -174.5t-19 -192t-35.5 -193.5
t-60 -178.5t-91.5 -147.5t-129.5 -100.5t-175 -37q-99 0 -169 27.5t-114 73.5t-64.5 106.5t-20.5 125.5q0 53 7 89.5t9 39.5l39 -12q-4 -16 -7 -34q-3 -16 -5 -37.5t-2 -47.5q0 -59 18 -112t57.5 -93.5t101.5 -64t150 -23.5q95 0 158.5 33t104 92t62.5 140.5t33.5 178.5
t18 206t15.5 223q0 9 1 19.5t1 19.5q-48 -65 -101.5 -119.5t-113.5 -94.5t-126.5 -62.5t-138.5 -22.5q-79 0 -152 30t-128.5 93.5t-89 162t-33.5 234.5q0 151 35 284t89.5 246t120.5 204.5t128.5 160.5t114 114.5l75.5 65.5l27 -28l-36 -34.5t-87 -95t-113 -147.5
t-112.5 -193t-86 -232t-34.5 -263q0 -260 84 -398.5t252 -138.5zM1278 1118q0 9 -0.5 16t-5.5 7q-19 0 -42.5 -40t-46.5 -117.5t-43.5 -191.5t-33.5 -262q40 88 72 175t54.5 165t34 142t11.5 106z" />
    <glyph glyph-name="Z" unicode="Z" horiz-adv-x="1477" 
d="M981 -156q-54 0 -113 13t-119.5 33.5t-121 45.5t-116 50.5l-105.5 47.5t-89 36q-48 -51 -85.5 -79t-77.5 -28q-26 0 -40.5 8t-21.5 18.5t-8.5 21t-1.5 14.5q0 17 10 35t30 33t50.5 24.5t71.5 9.5q15 0 31.5 -1.5t33.5 -6.5q55 60 119.5 146.5l134 187l142 208.5
l144 212.5l140 199t129.5 166.5q-71 12 -145 31.5l-149.5 38.5t-151 33t-150.5 14q-90 0 -155.5 -21.5t-111.5 -54.5t-75.5 -72.5t-48.5 -74.5l-29 12q56 162 167 238.5t266 76.5q94 0 178 -22t160 -52l145.5 -60t134.5 -46q2 2 4 3.5t4 4.5q54 59 105.5 87t91.5 28
q35 0 56.5 -22t21.5 -50q0 -26 -15 -45t-40.5 -32t-60.5 -19t-75 -6q-20 0 -40 0.5t-40 3.5q-65 -72 -130.5 -162l-132.5 -189.5l-135 -204l-137 -205.5l-138 -194t-138 -169q64 -17 140 -45t157 -54.5t164.5 -45.5t163.5 -19q72 0 130.5 19t100 54t64 85.5t22.5 113.5
q0 27 -7 54.5t-20.5 52.5t-32 47t-42.5 37l20 28q38 -25 68 -53t51 -61t32 -72.5t11 -87.5q0 -59 -22.5 -116t-70.5 -102t-122.5 -72.5t-179.5 -27.5zM1200 1270q13 -2 25 -2h24q78 0 113 20t35 43q0 13 -10 22t-31 9q-25 0 -67 -22t-83 -64zM274 82q-18 6 -30 6
q-31 0 -54 -6.5t-38.5 -16t-23 -20.5t-7.5 -20q0 -10 8 -16.5t25 -6.5q31 0 58 20.5t58 55.5z" />
    <glyph glyph-name="a" unicode="a" horiz-adv-x="731" 
d="M864 479q-41 -111 -74.5 -186t-65 -121t-62.5 -66t-68 -20q-45 0 -77 31.5t-40 97.5q-32 -69 -83 -112.5t-128 -43.5q-41 0 -78.5 15t-66.5 46.5t-46.5 79.5t-17.5 113q0 66 16.5 124t43.5 106.5t62.5 86.5t73.5 64t76 40t70 14q28 0 54 -7t46.5 -22.5t33 -41.5t12.5 -65
q0 -46 -17.5 -80t-42 -57t-50 -37t-40.5 -20l-12 39q3 0 22.5 8t41 26.5t39.5 47.5t18 71q0 48 -27 73.5t-69 25.5q-32 0 -75 -23t-82.5 -72t-67 -124t-27.5 -179q0 -103 36.5 -157t98.5 -54q31 0 59.5 17.5t52.5 46.5t43 67.5t33 79.5q0 32 7.5 75.5t23.5 88.5l61 -20
q-5 -13 -10 -34t-9.5 -46t-7.5 -51.5t-3 -51.5q0 -78 15.5 -107.5t53.5 -29.5q22 0 43.5 16t46.5 56t55 108.5t70 173.5z" />
    <glyph glyph-name="b" unicode="b" horiz-adv-x="760" 
d="M385 61q35 0 64.5 17t52.5 45q-42 12 -78.5 37.5t-64.5 63.5t-44 87.5t-16 108.5q0 47 12 86t34 66.5t52 43t66 15.5q27 0 57 -12t55 -40.5t41.5 -75t16.5 -116.5q0 -56 -15.5 -116.5t-44.5 -114.5h7q51 0 89 23.5t68.5 66.5t58 104.5t58.5 138.5l39 -10
q-34 -90 -66 -158t-69 -113.5t-82.5 -69t-106.5 -23.5h-20q-34 -48 -79.5 -77.5t-102.5 -29.5q-74 0 -127.5 34.5t-88.5 100.5t-52 161t-17 216q0 202 21.5 351t57.5 246.5t84 144t101 45.5q38 -2 58 -34.5t20 -94.5q0 -67 -19 -148t-53 -174.5t-81 -198.5t-103 -219
q2 -41 7.5 -84.5t16 -85.5t26.5 -79.5t39.5 -66t55 -45t72.5 -16.5zM334 1266q-36 0 -62.5 -31.5t-45 -86t-30.5 -127t-18.5 -154t-9 -168.5t-2.5 -169q48 101 87.5 195.5t68.5 178t45 153.5t16 123q0 15 -1.5 30t-7 27.5t-15 20.5t-25.5 8zM371 430q0 -48 11.5 -91.5
t32 -78.5t49.5 -60.5t64 -37.5q16 27 28 56.5t20 59t12 57t4 48.5q0 48 -10.5 86.5t-28 65.5t-40.5 41t-48 14q-23 0 -40.5 -13t-29.5 -35.5t-18 -51.5t-6 -60z" />
    <glyph glyph-name="c" unicode="c" horiz-adv-x="655" 
d="M334 520q0 60 28.5 104t73.5 85q-14 9 -30 13.5t-31 4.5q-33 0 -70.5 -16.5t-69 -55.5t-52.5 -104.5t-21 -163.5q0 -81 19.5 -139t53.5 -95.5t79 -55t96 -17.5q61 0 109 31.5t88 87t74.5 130t68.5 160.5l38 -10l-41.5 -101t-47 -102.5t-56 -95.5t-70 -79t-88.5 -54
t-110 -20q-62 0 -117.5 20.5t-97.5 62t-67 104.5t-25 148q0 86 28.5 160t72.5 128t97 85t101 31q56 0 100 -29q8 6 15.5 12.5t15.5 14.5l22 -31q-6 -6 -12 -11t-12 -11q18 -22 29.5 -52t11.5 -67q0 -41 -9.5 -72.5t-26 -53.5t-37.5 -33t-44 -11q-12 0 -27 5.5t-28 17t-22 30
t-9 45.5zM496 592q0 29 -8.5 52t-22.5 40q-37 -32 -63.5 -71.5t-26.5 -92.5q0 -28 14 -43.5t33 -15.5q22 0 36.5 14t22.5 34.5t11.5 43t3.5 39.5z" />
    <glyph glyph-name="d" unicode="d" horiz-adv-x="834" 
d="M391 709q44 0 75.5 -11.5t51.5 -23.5q7 131 23 232.5t37.5 177t46.5 127t51 83t50.5 45t45.5 13.5q45 0 68.5 -38t23.5 -112q0 -39 -8.5 -99.5t-25 -135t-40 -159.5t-54 -171t-66.5 -170t-78 -158q4 -57 12.5 -92t21.5 -54.5t30 -26.5t38 -7q29 0 56 19.5t55 62.5
t58 111.5t65 166.5l39 -10l-58 -149.5t-62.5 -129t-73.5 -90.5t-91 -34q-63 0 -98 37.5t-52 103.5q-58 -85 -124.5 -135.5t-139.5 -50.5q-41 0 -79 15.5t-67 48t-47 83t-18 121.5q0 74 23.5 147t67 131.5t105 95t138.5 36.5zM303 88q56 0 112.5 49.5t108.5 130.5
q-6 47 -8 100t-2 113v75.5t2 72.5q-5 4 -14.5 11t-24 14t-33 11.5t-41.5 4.5q-34 0 -77 -19t-81.5 -61.5t-64.5 -110.5t-26 -166q0 -47 10.5 -88t30 -71.5t47 -48t61.5 -17.5zM825 1202q0 15 -1.5 34t-6.5 35.5t-14.5 28t-26.5 11.5q-41 0 -75.5 -68t-59.5 -187.5
t-39 -280.5t-14 -347v-45q34 67 65 143t57.5 153t47.5 153t36 144.5t23 126.5t8 99z" />
    <glyph glyph-name="e" unicode="e" horiz-adv-x="573" 
d="M313 14q-51 0 -98 18t-82.5 54.5t-56.5 91.5t-21 129q0 90 26 160.5t66.5 119t90.5 74t98 25.5q62 0 98.5 -41t36.5 -106q0 -56 -21 -101.5t-55.5 -78t-79 -50.5t-92.5 -18q-23 0 -43.5 2.5t-36.5 5.5q6 -62 24 -107t45 -74t60.5 -43t69.5 -14q45 0 83 22t70 57.5
t58.5 81.5t47.5 93.5t37.5 93l29.5 80.5l39 -10l-30.5 -80t-40.5 -98.5t-54 -103t-70 -92t-88.5 -66t-110.5 -25.5zM338 647q-37 0 -72.5 -23.5t-63.5 -64.5t-45.5 -97t-17.5 -120q13 -5 36.5 -8.5t57.5 -3.5q36 0 71.5 15.5t64 43t46 65.5t17.5 83q0 22 -6 42t-18 35
t-29.5 24t-40.5 9z" />
    <glyph glyph-name="f" unicode="f" horiz-adv-x="477" 
d="M485 1227q0 -76 -27.5 -162t-71.5 -178t-99.5 -187.5l-110.5 -189.5q-11 -93 -20.5 -185t-16 -174.5t-10.5 -151.5t-4 -116q0 -96 9.5 -172.5t29 -130t48 -82t67.5 -28.5q22 0 37 14t25 36t15 50t7.5 56t3 53t0.5 42q0 112 -15 213.5t-37 174.5h-8q-24 0 -45.5 6.5
t-38.5 18.5t-27 28t-10 35q0 27 16.5 46t41.5 19q31 0 59 -29.5t51 -78.5q40 16 73.5 56t60.5 89.5t47.5 100.5l35.5 89l39 -10l-38 -97.5t-51 -106t-66.5 -94t-85.5 -60.5q16 -42 29 -90.5t22.5 -99.5t14.5 -102t5 -99q0 -64 -10.5 -119t-31 -95.5t-51 -63.5t-71.5 -23
q-55 0 -93.5 26.5t-64.5 70.5t-41 99.5t-22.5 113.5t-9.5 113.5t-2 98.5q0 99 9 222t24 252t33.5 255.5t37 234t35.5 187.5t29 115q8 25 21.5 51t32.5 47t43.5 34t56.5 13q55 0 87.5 -36t32.5 -99zM260 1145q-5 -26 -13.5 -78.5t-18 -124l-20.5 -158l-22 -178.5l102 179.5
t81.5 163t54.5 146t20 130.5q0 40 -17.5 69t-57.5 29q-29 0 -48.5 -20t-31.5 -48t-18.5 -58.5t-10.5 -51.5zM227 199q0 -19 23.5 -35.5t54.5 -18.5q-14 38 -28.5 58t-28.5 20q-8 0 -14.5 -6t-6.5 -18z" />
    <glyph glyph-name="g" unicode="g" horiz-adv-x="686" 
d="M268 -473q-58 0 -102.5 17t-74.5 46.5t-45 70t-15 87.5q0 42 15 79t40.5 64t59 42.5t69.5 15.5q35 0 68.5 -19.5t64.5 -54.5l-33 -25q-23 29 -49.5 43.5t-52.5 14.5q-29 0 -54.5 -12.5t-45.5 -33.5t-31.5 -49t-11.5 -59q0 -40 12 -74t37 -59.5t62 -40t87 -14.5
q69 0 117 32.5t78 84.5t43.5 117.5t13.5 131.5v156v76q-43 -59 -107.5 -96t-152.5 -37q-38 0 -76 12.5t-68.5 42.5t-49.5 81t-19 128q0 53 14.5 106.5t40.5 103.5t62 94t79 76.5t91.5 51t99.5 18.5q32 0 57.5 -10t45 -26t34 -35.5t23.5 -38.5q14 40 25.5 66.5t19.5 41.5
l37 -18q-3 -6 -15.5 -41t-26.5 -98t-25 -153t-11 -206q0 -26 0.5 -57t0.5 -63t0.5 -63t0.5 -56q0 -138 -30 -227.5t-77.5 -141.5t-107 -72t-117.5 -20zM326 92q34 0 63.5 11t54 29.5t45 44t35.5 54.5q6 118 21.5 204.5t32.5 148.5q-7 24 -19 46t-29.5 39t-41 27.5
t-54.5 10.5q-38 0 -89 -24.5t-97 -74t-77.5 -123.5t-31.5 -172q0 -48 11 -89t34 -70t58.5 -45.5t83.5 -16.5z" />
    <glyph glyph-name="h" unicode="h" horiz-adv-x="758" 
d="M426 1128q0 -63 -21.5 -141t-58.5 -170t-86.5 -197.5l-105.5 -222.5q-5 -48 -8.5 -96.5t-6.5 -97.5q13 33 32.5 76.5t44 90t53.5 91.5t61.5 80.5t69 57.5t75.5 22q27 0 49 -10t37.5 -28t24 -42t8.5 -52q0 -36 -9.5 -77.5t-21.5 -84.5t-21.5 -86t-9.5 -81q0 -31 15 -52.5
t55 -21.5q28 0 55 23t52 59.5t46.5 82t40 90.5t33 84.5l23.5 63.5l39 -10l-35 -95t-38.5 -99.5t-44.5 -94.5t-52.5 -79.5t-62.5 -55t-76 -20.5q-38 0 -63 11t-39.5 30t-20.5 45.5t-6 58.5q0 34 10 77.5t22.5 90t22.5 93t10 85.5q0 22 -10.5 39t-36.5 17q-41 0 -79 -29.5
t-72 -76.5t-64 -106t-55 -117.5t-44.5 -111.5l-33.5 -88l-39 6q0 5 -0.5 13.5t-0.5 23.5t-0.5 37.5t-0.5 54.5q0 94 5 248t24 369q8 105 24 179.5t36 125t42.5 80.5t43.5 45.5t39 20t30 4.5q46 0 73 -36t27 -96zM328 1219q-26 0 -46.5 -25.5t-37 -72t-28.5 -111.5
t-22 -144.5t-17.5 -171t-14.5 -190.5q47 90 87.5 178.5t70.5 169.5t47.5 151.5t17.5 124.5q0 16 -2.5 32.5t-9 29.5t-17.5 21t-28 8z" />
    <glyph glyph-name="i" unicode="i" horiz-adv-x="371" 
d="M209 104q-63 0 -104.5 51t-41.5 154q0 68 27.5 173.5t95.5 238.5l37 -10q-6 -26 -19.5 -71t-27 -100.5t-23.5 -116t-10 -116.5q0 -47 7 -76.5t18.5 -46t27 -22.5t33.5 -6q29 0 55 18t49.5 47.5t44 66t37 73.5t29.5 70.5t21 57.5l39 -10l-25.5 -69.5t-33 -81.5t-41.5 -82
t-52 -71.5t-64.5 -51t-78.5 -19.5zM371 1036q0 -35 -27 -54t-68 -19q-21 0 -39.5 6.5t-32 17t-21 25t-7.5 30.5q0 34 26.5 55t61.5 21q25 0 45 -7.5t34 -19.5t21 -26.5t7 -28.5zM317 1036q0 10 -8.5 18.5t-25.5 8.5q-31 0 -31 -23q0 -11 9.5 -18.5t25.5 -7.5q15 0 22.5 6.5
t7.5 15.5z" />
    <glyph glyph-name="j" unicode="j" horiz-adv-x="348" 
d="M190 696q-2 -16 -10.5 -69.5t-18.5 -143.5t-20.5 -216.5t-17.5 -289.5q45 45 90 102.5t87 123t78.5 138t63.5 148.5l39 -10q-32 -86 -73.5 -167.5t-89 -155t-98.5 -136.5t-101 -112v-41q-5 -135 -32 -229.5t-64.5 -154t-81 -87t-80.5 -27.5q-31 0 -58.5 11t-48.5 31
t-33 49t-12 65q0 63 22 112.5t59.5 89.5t87 73t104.5 63q11 6 21.5 13l21.5 15q6 130 13.5 226t16.5 168.5t20 127.5t23.5 102.5t26 93.5l29.5 100zM0 -395q11 38 16 90t7 115v14l-20.5 -14.5l-18.5 -12.5q-50 -29 -91 -60.5t-70 -67t-45 -76t-16 -87.5q0 -18 6.5 -35
t18 -30.5t27.5 -22t36 -8.5q44 0 82.5 48t67.5 147zM332 1036q0 -35 -27 -54t-67 -19q-22 0 -40.5 6.5t-32 17t-21 25t-7.5 30.5q0 34 26.5 55t61.5 21q25 0 45 -7.5t34 -19.5t21 -26.5t7 -28.5zM279 1036q0 10 -9 18.5t-26 8.5q-31 0 -31 -23q0 -11 9.5 -18.5t25.5 -7.5
q15 0 23 6.5t8 15.5z" />
    <glyph glyph-name="k" unicode="k" horiz-adv-x="729" 
d="M444 1229q0 -71 -25.5 -156.5t-66 -182.5t-91 -202l-99.5 -215q-6 -74 -12.5 -140l-12.5 -122l34.5 81.5t43.5 95.5t52.5 96.5t61 85t69 60.5t77.5 23q28 0 53.5 -12t44.5 -32.5t30 -47.5t11 -57q0 -50 -23 -88.5t-58.5 -66.5t-79.5 -47t-86 -30q4 -19 17 -45t34.5 -49.5
t51.5 -40t67 -16.5q78 0 147 91.5t137 276.5l39 -10q-33 -90 -68 -165.5t-75.5 -130.5t-87.5 -86t-103 -31q-22 0 -50.5 6t-59 25.5t-60.5 55.5t-55 97q-3 6 -5.5 15t-2.5 14q0 19 9 26.5t22.5 10.5t29.5 4.5t31 7.5q74 29 109.5 83.5t35.5 123.5q0 44 -19 61.5t-44 17.5
q-20 0 -40 -10.5t-36 -25.5q-41 -41 -76.5 -95.5t-65 -113t-53 -115t-40 -101t-25 -72.5l-8.5 -28l-39 6q-1 11 -1 27q-1 14 -1 33v45q0 57 2 140.5t7.5 187t16 224.5t27.5 253q14 108 36.5 182t50.5 119.5t59 65.5t63 20q26 0 45 -10t31 -27.5t18 -40.5t6 -49zM354 1315
q-25 0 -45.5 -29t-37.5 -80t-31.5 -119.5t-26 -148t-21.5 -166t-18 -172.5l51 109l52.5 116l49 116.5t41 110.5t28 98t10.5 79q0 12 -1.5 27t-7 28t-15.5 22t-28 9z" />
    <glyph glyph-name="l" unicode="l" horiz-adv-x="430" 
d="M440 1260q0 -63 -14.5 -134t-38 -144t-54 -147t-61.5 -142l-61 -129l-53 -109q4 -82 14 -148t25 -112.5t36 -71.5t48 -25q30 0 59.5 28t59.5 79t61 123t63 161l39 -10q-24 -69 -54 -145.5t-67 -140.5t-80.5 -106t-93.5 -42t-84 31t-56 81.5t-34 115t-18 131.5t-7 130.5
t-1 112.5q0 91 7.5 181t23 172t37.5 152.5t51.5 122t65 80.5t77.5 29q30 0 51 -10t34 -27t19 -39.5t6 -47.5zM152 684v-74.5t2 -70.5l53 109.5l55.5 123t52.5 128.5t44 127.5t30.5 119t11.5 102.5q0 15 -2.5 32t-9 31.5t-18.5 24t-31 9.5q-38 0 -72.5 -49.5t-60 -137.5
t-40.5 -209.5t-15 -265.5z" />
    <glyph glyph-name="m" unicode="m" horiz-adv-x="1141" 
d="M94 489q32 94 69 140.5t87 46.5q22 0 41.5 -10t34.5 -32.5t23.5 -58.5t8.5 -88q45 115 91 164t100 49q20 0 40.5 -8t37 -28.5t27.5 -55.5t12 -88q27 53 67.5 86t89.5 33q24 0 48 -8.5t42.5 -28.5t30.5 -52.5t12 -80.5q0 -14 -2 -36.5t-5 -49.5l-6 -55t-6 -52.5t-5 -43
t-2 -25.5q0 -59 14 -86t51 -27q28 0 57 33.5t59 88.5t61 126l63 147l39 -10l-60 -146t-67.5 -142t-78.5 -107.5t-93 -42.5q-59 0 -90 35t-31 117q0 36 5 76.5t11.5 81t11.5 79t5 70.5q0 18 -3 36t-10.5 32.5t-20 23t-32.5 8.5q-25 0 -48 -24t-44 -64t-39 -91.5t-32 -106
t-25 -108t-17 -97.5l-71 12l5 24.5t11.5 63l14.5 87t14.5 97.5t11 94t4.5 76q0 42 -16 69t-47 27q-29 0 -55.5 -33t-49.5 -86.5t-43 -121t-37 -136t-30 -131.5l-23 -108l-67 16q14 69 25 140q10 61 18 134t8 142q0 44 -2 73.5t-8 47.5t-16.5 25.5t-26.5 7.5q-25 0 -51 -36
t-52 -114z" />
    <glyph glyph-name="n" unicode="n" horiz-adv-x="864" 
d="M94 489q15 39 32.5 74.5t37.5 62.5t43.5 43.5t52.5 16.5q14 0 32 -6t34.5 -24t27.5 -52t11 -90q0 -29 -3 -64l-6 -69q31 66 61.5 111.5t60 73t58.5 40t58 12.5q13 0 30.5 -6t33 -21t26 -41t10.5 -67q0 -33 -5 -66t-11 -64l-11 -58.5t-5 -48.5q0 -50 18 -76.5t55 -26.5
q30 0 57 22.5t50.5 57.5t43 77t34 80.5t24.5 68l14 40.5l39 -10l-29.5 -77.5t-34.5 -85.5t-41 -83.5t-49 -71.5t-58.5 -50t-69.5 -19q-32 0 -55.5 12.5t-39.5 33.5t-24 50t-8 62q0 37 6.5 76t14 75l14 66.5t6.5 50.5q0 31 -12 46.5t-33 15.5q-29 0 -56.5 -21t-53 -56
t-48.5 -80t-42.5 -92.5t-36 -94.5t-28.5 -85l-20.5 -64.5t-11.5 -33.5l-58 10q12 59 22 124.5t17.5 129t12 121.5t4.5 103q0 61 -8 82.5t-29 21.5q-18 0 -34 -13.5t-29.5 -36t-26.5 -52.5t-25 -64z" />
    <glyph glyph-name="o" unicode="o" horiz-adv-x="690" 
d="M344 90q56 0 107.5 41t80.5 119h-8q-62 0 -114.5 21t-91 58.5t-60.5 90t-22 115.5q0 35 9.5 71t29.5 64.5t52 46.5t76 18q36 0 71 -14.5t63 -49.5t45.5 -94.5t17.5 -150.5q0 -34 -3 -67.5t-11 -65.5q39 7 69.5 25t54 43.5t41.5 58t33 69.5l39 -10q-21 -57 -48.5 -97
t-59 -67t-66 -41.5t-71.5 -19.5q-14 -49 -37 -92t-56 -75t-76.5 -50.5t-97.5 -18.5q-45 0 -90.5 18.5t-82 57t-59 97t-22.5 139.5q0 53 12.5 104t35 96.5t53.5 85t67 68.5l15 -25q-23 -21 -44 -52t-38 -68.5t-27 -79t-10 -82.5q0 -81 20.5 -136t52.5 -88.5t72 -48t78 -14.5z
M401 696q-27 0 -50 -11.5t-40 -31.5t-27 -48t-10 -62q0 -59 20 -106t54.5 -80t80.5 -50.5t99 -17.5h19q8 31 11 65t3 74q-2 77 -15.5 128.5t-34.5 82.5t-49.5 44t-60.5 13z" />
    <glyph glyph-name="p" unicode="p" horiz-adv-x="768" 
d="M588 135q33 0 62.5 18.5t56 49t50 69t43 78t35 76l27.5 63.5l39 -10l-29.5 -74t-38 -84t-47 -83.5t-56.5 -72.5t-67 -51.5t-77 -19.5q-40 0 -80 17q-34 -26 -75 -41t-91 -15q-31 0 -50 8t-29.5 19.5t-14.5 23.5t-4 21q0 20 9 35.5t24 26.5t34.5 16.5t40.5 5.5
q34 0 65 -12.5t60 -26.5q23 29 41 65t30 74.5t18.5 76.5t6.5 71q0 77 -25.5 111t-60.5 34q-39 0 -75.5 -24t-74 -75t-77 -129.5t-84.5 -187.5q-5 -9 -8 -19t-8 -19q9 -118 18.5 -226.5t9.5 -193.5q0 -161 -37 -238.5t-114 -77.5q-30 0 -52 14t-36.5 38t-21.5 56.5t-7 69.5
q0 58 14.5 128t38.5 145.5t56 155.5t67 159q-9 100 -15.5 196.5t-6.5 186.5q0 78 11 122t34 44q7 0 18.5 -4t21.5 -12.5t17.5 -20.5t7.5 -28q0 -41 -11 -84t-30 -86q0 -47 1.5 -96t4.5 -99q44 92 86 157.5t84 107t83.5 60.5t84.5 19q37 0 67 -16t51 -43.5t32.5 -65.5
t11.5 -82q0 -81 -26 -159t-78 -134q19 -8 45 -8zM129 -340q0 88 -6 181.5t-14 187.5q-59 -143 -96.5 -258t-37.5 -209q0 -45 17 -77t51 -32q18 0 33.5 10t27 34t18.5 64t7 99zM336 94q31 0 58 12t50 33q-27 13 -50.5 23t-45.5 10q-38 0 -52.5 -14.5t-14.5 -28.5
q0 -11 13 -23t42 -12z" />
    <glyph glyph-name="q" unicode="q" horiz-adv-x="766" 
d="M899 479q-39 -101 -70.5 -170t-64.5 -119t-71.5 -86.5t-92.5 -70.5q71 -164 113.5 -291t42.5 -221q0 -76 -39.5 -119t-110.5 -43q-48 0 -80.5 25.5t-53 71t-29.5 108t-9 137.5q0 87 12.5 194.5t32.5 223.5q-37 -48 -83 -74.5t-97 -26.5q-47 0 -90.5 16t-77.5 49.5
t-54 84.5t-20 121q0 108 35 187.5t88 131t115 76.5t117 25q37 0 65.5 -8.5t50.5 -22t37.5 -30t26.5 -32.5q3 11 6 20.5t6 20.5l39 -6q-5 -27 -12 -69.5l-15 -94.5l-17 -110t-17 -115.5l-15 -110.5t-12 -96q51 26 89.5 58t73 80.5t68 119.5t74.5 176zM496 201
q18 94 38.5 185.5t43.5 174.5q-7 15 -19.5 34.5t-31 36.5t-44 28.5t-59.5 11.5q-46 0 -83.5 -18.5t-68 -49t-53.5 -70t-38.5 -82.5t-23 -86.5t-7.5 -80.5q0 -48 11.5 -89.5t32 -72t50 -48.5t65.5 -18q53 0 100.5 38t86.5 106zM717 -475q0 80 -44.5 212t-119.5 306
q-2 -6 -2 -12v-11q-9 -66 -15 -127t-10 -111.5t-6 -88.5t-2 -58q0 -111 28 -172t81 -61q43 0 66.5 33t23.5 90z" />
    <glyph glyph-name="r" unicode="r" horiz-adv-x="594" 
d="M152 532q-10 -35 -20 -60t-22 -46.5t-26.5 -41l-32.5 -42.5l-8 8q23 59 40.5 111t31.5 104q-16 23 -27.5 57.5t-11.5 82.5q0 43 13.5 71.5t35.5 28.5q12 0 22.5 -11t17.5 -29t11 -41.5t4 -49.5q0 -12 -1.5 -26t-3.5 -28.5t-5 -28t-6 -22.5q6 -5 19.5 -8.5t35.5 -3.5
q38 0 67 11t46 28l23.5 37t13.5 19.5t7.5 8t6.5 1.5q11 0 18 -6t7 -17q0 -3 -3 -8l-8 -13q-42 -61 -66 -134t-24 -162q0 -103 33.5 -149t95.5 -46q34 0 65 20.5t61 64t60.5 112t65.5 165.5l39 -10q-43 -127 -81 -208.5t-75 -129t-76 -66t-85 -18.5q-29 0 -60 13t-56.5 41
t-41.5 72.5t-16 107.5q0 31 5.5 64.5t14.5 65t20 61t23 53.5q-36 -17 -78 -17q-41 0 -69 14z" />
    <glyph glyph-name="s" unicode="s" horiz-adv-x="522" 
d="M166 565l-21.5 -57t-23 -56t-29.5 -55t-41 -55l-8 8q26 63 46 129t40 148q-5 14 -9 24t-7 18.5t-5 18t-2 21.5q0 16 4.5 35.5t13 36.5t19.5 28.5t23 11.5q14 0 22.5 -6.5t13.5 -16.5t7 -21t2 -21q0 -15 -3.5 -34.5t-8 -38l-8 -32.5t-3.5 -18q8 -27 27.5 -55t44.5 -57
l52.5 -60.5t50 -66.5t37 -74.5t14.5 -83.5q0 -63 -18.5 -102t-49.5 -60q45 18 84.5 64t73 105.5t62 124.5t50.5 121l39 -10q-34 -87 -72 -170t-86 -148t-108.5 -105t-138.5 -40q-21 0 -42.5 3.5t-42 11t-38.5 20.5t-31 31l33 22q9 -14 28 -26t50 -12q30 0 52.5 12.5t38 34
t23 50.5t7.5 62q0 68 -19.5 117t-46 87.5t-54 70.5t-42.5 65z" />
    <glyph glyph-name="t" unicode="t" horiz-adv-x="471" 
d="M-117 842l36 -21t49 -23t62.5 -20.5t75.5 -13.5q14 90 36 162.5t48.5 124t55 79t55.5 27.5q31 0 44 -24t13 -64q0 -29 -6 -64t-16 -74.5t-24 -82l-29 -84.5q100 9 184.5 33t146.5 49l19 -37q-82 -31 -170 -55.5t-197 -30.5q-25 -65 -51.5 -123.5t-48.5 -101.5
q1 -56 6.5 -121.5t22 -122.5t47 -95t80.5 -38q42 0 77 35.5t64.5 90t54.5 119.5l47 123l39 -10l-30 -81t-36 -91.5t-44 -90t-53 -78t-64 -55t-76 -20.5q-44 0 -82.5 20t-67 71.5t-45 140t-16.5 225.5q0 110 12 205q-86 11 -144.5 34.5t-90.5 45.5zM307 1104q-9 0 -27 -18
t-38 -58.5t-38.5 -106t-29.5 -161.5h19h49q18 50 31.5 97t23.5 87.5t15 73t5 53.5q0 33 -10 33zM166 578q17 35 32 70.5t29 72.5h-37h-20q-2 -32 -3 -67.5t-1 -73.5v-2z" />
    <glyph glyph-name="u" unicode="u" horiz-adv-x="776" 
d="M477 231q-31 -56 -60 -93t-57.5 -59t-57.5 -31t-60 -9q-25 0 -57 8t-60.5 33.5t-48 73.5t-19.5 129t19 152.5t42 125.5q27 62 62 115l37 -12q-1 -1 -6.5 -18t-14 -46t-18 -67t-18 -80.5t-14 -86.5t-5.5 -85q0 -94 33.5 -148.5t87.5 -54.5q60 0 116 69.5t107 194.5
q9 58 24.5 108t31 89t28.5 65t19 35l35 -8q-16 -75 -27.5 -134.5t-18.5 -107.5t-10.5 -85.5t-3.5 -67.5q0 -60 19 -96t59 -36q27 0 52 20t52 66t57 119t68 180l39 -10q-17 -42 -34 -90t-36.5 -96t-41 -92t-48 -78t-57.5 -54t-69 -20q-36 0 -63 14t-45.5 38t-28 57.5
t-9.5 72.5z" />
    <glyph glyph-name="v" unicode="v" horiz-adv-x="666" 
d="M799 479q-31 -74 -58.5 -127t-54.5 -87.5t-55.5 -51t-61.5 -16.5q-45 0 -76.5 28.5t-37.5 71.5q-28 -65 -59 -116.5t-62 -87.5t-60 -55.5t-51 -19.5q-18 0 -44.5 15t-50.5 50t-41 92.5t-17 141.5q0 55 7.5 101.5t16.5 80.5q11 40 25 72l39 -4q-5 -43 -6.5 -83.5
t-1.5 -77.5q0 -83 8 -148t19.5 -109.5t25.5 -68t26 -23.5q14 0 39 22.5t55 62.5t61 94t56 116q-3 19 -6.5 46.5t-3.5 47.5q0 66 11.5 106t27 61t31.5 27.5t24 6.5q27 0 27 -41q0 -21 -5.5 -51t-14 -63t-19.5 -66t-23 -61q0 -35 7.5 -58.5t20 -38t28.5 -20.5t33 -6
q43 0 87 60.5t95 186.5z" />
    <glyph glyph-name="w" unicode="w" horiz-adv-x="958" 
d="M365 324q0 38 4.5 72t10.5 61t11.5 45t7.5 26h41q-8 -106 -1.5 -189.5t26 -142t51 -89.5t74.5 -31t74 31.5t51 80.5q-45 41 -67.5 109t-22.5 145q0 61 10 99t24.5 60t31 30t28.5 8q38 0 60 -53t22 -150q0 -59 -8 -118t-27 -111q14 -11 32 -17t40 -6q43 0 75 31.5
t57.5 77.5t45 99t37.5 97l39 -10l-25.5 -68t-30 -74.5t-36 -72.5t-44 -62t-54.5 -43t-66 -16q-25 0 -46.5 6t-39.5 15q-28 -57 -71.5 -93t-105.5 -36q-69 0 -113 34.5t-67 90.5q-16 -35 -35.5 -58t-40.5 -36t-43 -18t-43 -5q-23 0 -53 13t-57 44.5t-45.5 84t-18.5 132.5
q0 41 8 82t22 79t34.5 71.5t46.5 58.5l35 -22q0 -1 -10.5 -21.5t-23.5 -58t-23.5 -91t-10.5 -120.5q0 -41 6 -79t18.5 -67.5t32 -47t46.5 -17.5q38 0 74 32t61 109q-5 23 -6.5 48t-1.5 51zM694 473q0 -24 1 -53.5t5.5 -60t12.5 -60t22 -53.5q13 46 19 95.5t6 92.5v27.5
t-2 27.5q-6 61 -18.5 85t-18.5 24q-5 0 -16 -29t-11 -96z" />
    <glyph glyph-name="x" unicode="x" horiz-adv-x="735" 
d="M647 651l-127 -168.5l-129 -175.5q23 -42 45.5 -79t45 -64.5t45.5 -43.5t48 -16q42 0 78 36t67 92t58 124l51 133l39 -10l-64.5 -164t-67 -135.5t-79 -92.5t-100.5 -34q-19 0 -39.5 3t-43 15.5t-48 37.5t-55.5 69q-10 13 -18 26l-17 27l-88 -124.5l-86 -126.5l-33 22
l92 134l94 132l-52.5 97.5l-47 90t-38 66t-23.5 25.5q-7 -20 -12.5 -38t-14.5 -40l-37 14q11 28 19 56.5t14 56.5q3 11 14 18t21 7q6 0 18.5 -4.5t33.5 -26t52.5 -65.5t75.5 -122q8 -15 16.5 -29l16.5 -28l123 167l122 163z" />
    <glyph glyph-name="y" unicode="y" horiz-adv-x="743" 
d="M455 23q0 128 12 239q-31 -56 -60 -92t-57.5 -57t-57.5 -29t-59 -8q-24 0 -54.5 7.5t-57.5 30.5t-45.5 65.5t-18.5 113.5q0 74 18 140.5t41 117.5q26 60 60 111l37 -13q-2 -3 -13 -36.5t-23.5 -84t-23 -111t-10.5 -116.5q0 -84 30.5 -134t86.5 -50q30 0 59 20t57 55.5
t56 84t55 106.5q19 99 45.5 176t55.5 131l37 -10q-20 -87 -35 -172.5t-25.5 -166.5t-16.5 -156.5t-9 -141.5q43 31 80.5 69t73.5 90t71.5 122t73.5 165l39 -10q-39 -101 -75.5 -175.5t-76 -131t-84.5 -100.5t-102 -84q-3 -110 -20 -194t-42 -146.5t-56 -104.5t-62 -68
t-60.5 -37t-50.5 -11q-37 0 -66.5 15.5t-50.5 40.5t-32 57t-11 65q0 57 27.5 107.5t73.5 95.5t105.5 84.5t123.5 74.5q19 13 37 21v35zM250 -532q32 0 65.5 25.5t62 81t49 143t26.5 210.5q-3 -2 -6.5 -3.5t-6.5 -4.5q-51 -32 -101 -70.5t-89.5 -82.5t-64.5 -92.5t-25 -100.5
q0 -18 6.5 -37t18.5 -34.5t28.5 -25t36.5 -9.5z" />
    <glyph glyph-name="z" unicode="z" horiz-adv-x="666" 
d="M94 489q6 20 11.5 42.5t11.5 60.5q2 15 20 25t40.5 15t44 7t30.5 2q34 0 65.5 -4t65.5 -4q38 0 78.5 12.5t87.5 52.5q3 3 6 3.5t6 0.5q8 0 14.5 -6t6.5 -12q0 -56 -14 -112t-36.5 -109t-51 -100.5t-57.5 -87t-55.5 -69t-45.5 -46.5q11 -8 23 -19t23.5 -28t20.5 -42.5
t14 -62.5q67 48 120 100t95.5 110.5t77 125.5t64.5 145l39 -10q-36 -92 -74 -164.5t-83.5 -133t-102.5 -113t-131 -105.5v-31q0 -132 -31 -230t-75 -163t-94 -97t-87 -32q-60 0 -93.5 41t-33.5 109q0 52 25.5 104t69.5 102t104.5 97.5t130.5 91.5q0 2 1 2t3 2q0 50 -11.5 93
t-37.5 71q-20 -14 -36 -19.5t-28 -5.5q-25 0 -36 12t-11 27q0 3 1.5 10t8.5 14.5t21 13t39 5.5q8 0 16.5 -1t17.5 -3q55 56 93 120.5t62 124.5t35 109t13 76q-8 -5 -20.5 -7.5t-26 -4t-26 -2t-19.5 -0.5q-19 0 -46 1t-54 1t-46.5 -4.5t-32.5 -11.5t-20.5 -14l-11.5 -11
q-14 -17 -22 -33t-17 -41zM96 -535q34 0 71.5 35t70.5 95.5t57.5 141t30.5 171.5q-6 -3 -9 -6q-63 -41 -115 -83.5t-89.5 -85.5t-58.5 -86.5t-21 -86.5q0 -13 3 -29.5t10.5 -31t19.5 -24.5t30 -10z" />
    <glyph glyph-name="germandbls" unicode="&#xdf;" horiz-adv-x="676" 
d="M477 225q0 38 -15 76t-37.5 74.5t-49 70.5l-49 65.5t-37.5 59.5t-15 52q0 30 12 59.5t30 62l39 69.5t39 83t30 102.5t12 128.5q0 16 -2.5 32.5t-9 29.5t-17.5 21t-28 8q-41 0 -72 -59.5t-54 -159.5t-38.5 -230.5t-25 -272t-14 -284t-5.5 -267t1 -221t5 -145.5l-41 -10
q-12 47 -22 123t-16 172t-7.5 207t2 227t13 232.5t25.5 223t40 199t56.5 160.5t73.5 107t93 39q54 0 85.5 -36t31.5 -96q0 -80 -25.5 -146t-56.5 -122l-56.5 -103t-25.5 -89q0 -28 16.5 -58.5t41 -64t53 -69t53 -74.5t41 -80.5t16.5 -85.5q0 -63 -18 -102t-49 -60
q44 18 83.5 64t73.5 105.5t62.5 124.5t50.5 121l39 -10q-34 -87 -71.5 -170t-85 -148t-107 -105t-137.5 -40q-21 0 -43 3.5t-42 11t-38 20.5t-31 31l33 22q9 -14 28 -26t50 -12q30 0 51 12.5t34.5 34t20 50.5t6.5 62z" />
    <glyph glyph-name="Agrave" unicode="&#xc0;" horiz-adv-x="1167" 
d="M96 414h244l105 214l100.5 203l91.5 182l76.5 151l57 110t32.5 59q12 22 25.5 30.5t33.5 8.5q23 0 37 -14.5t14 -42.5q0 -11 -2 -53l-5 -105l-7 -141t-7 -160.5t-5 -164t-2 -150.5v-64t2 -61h118.5t90.5 2v-39q-54 -2 -105 -2h-102q7 -130 29.5 -236t69 -181.5
t120.5 -117t184 -41.5q44 0 94 11l7 -41q-51 -16 -92.5 -23.5t-79.5 -7.5q-92 0 -159.5 23t-115 65t-77.5 100.5t-47 129t-24 151t-7 166.5h-408q-6 -14 -12 -26.5l-13 -26.5q-50 -110 -96 -190.5t-88.5 -137.5t-80.5 -94t-73 -60.5t-66.5 -37t-59.5 -23.5l-17 35l19 12.5
t51 39.5t75 71t92 106t102.5 144.5t105.5 187.5h-226v39zM856 1329q-11 0 -49 -67.5t-97.5 -188.5l-138.5 -289l-172 -370h392q0 91 6 183.5t14.5 181t18 170l17.5 150t13.5 121.5t5.5 85q0 15 -2.5 19.5t-7.5 4.5zM780 1663l219 -180l-18 -24l-240 145z" />
    <glyph glyph-name="agrave" unicode="&#xe0;" horiz-adv-x="731" 
d="M864 479q-41 -111 -74.5 -186t-65 -121t-62.5 -66t-68 -20q-45 0 -77 31.5t-40 97.5q-32 -69 -83 -112.5t-128 -43.5q-41 0 -78.5 15t-66.5 46.5t-46.5 79.5t-17.5 113q0 66 16.5 124t43.5 106.5t62.5 86.5t73.5 64t76 40t70 14q28 0 54 -7t46.5 -22.5t33 -41.5t12.5 -65
q0 -46 -17.5 -80t-42 -57t-50 -37t-40.5 -20l-12 39q3 0 22.5 8t41 26.5t39.5 47.5t18 71q0 48 -27 73.5t-69 25.5q-32 0 -75 -23t-82.5 -72t-67 -124t-27.5 -179q0 -103 36.5 -157t98.5 -54q31 0 59.5 17.5t52.5 46.5t43 67.5t33 79.5q0 32 7.5 75.5t23.5 88.5l61 -20
q-5 -13 -10 -34t-9.5 -46t-7.5 -51.5t-3 -51.5q0 -78 15.5 -107.5t53.5 -29.5q22 0 43.5 16t46.5 56t55 108.5t70 173.5zM303 1054l219 -180l-18 -24l-240 145z" />
    <glyph glyph-name="Aacute" unicode="&#xc1;" horiz-adv-x="1167" 
d="M96 414h244l105 214l100.5 203l91.5 182l76.5 151l57 110t32.5 59q12 22 25.5 30.5t33.5 8.5q23 0 37 -14.5t14 -42.5q0 -11 -2 -53l-5 -105l-7 -141t-7 -160.5t-5 -164t-2 -150.5v-64t2 -61h118.5t90.5 2v-39q-54 -2 -105 -2h-102q7 -130 29.5 -236t69 -181.5
t120.5 -117t184 -41.5q44 0 94 11l7 -41q-51 -16 -92.5 -23.5t-79.5 -7.5q-92 0 -159.5 23t-115 65t-77.5 100.5t-47 129t-24 151t-7 166.5h-408q-6 -14 -12 -26.5l-13 -26.5q-50 -110 -96 -190.5t-88.5 -137.5t-80.5 -94t-73 -60.5t-66.5 -37t-59.5 -23.5l-17 35l19 12.5
t51 39.5t75 71t92 106t102.5 144.5t105.5 187.5h-226v39zM856 1329q-11 0 -49 -67.5t-97.5 -188.5l-138.5 -289l-172 -370h392q0 91 6 183.5t14.5 181t18 170l17.5 150t13.5 121.5t5.5 85q0 15 -2.5 19.5t-7.5 4.5zM999 1604l-239 -145l-19 24l219 180z" />
    <glyph glyph-name="aacute" unicode="&#xe1;" horiz-adv-x="731" 
d="M864 479q-41 -111 -74.5 -186t-65 -121t-62.5 -66t-68 -20q-45 0 -77 31.5t-40 97.5q-32 -69 -83 -112.5t-128 -43.5q-41 0 -78.5 15t-66.5 46.5t-46.5 79.5t-17.5 113q0 66 16.5 124t43.5 106.5t62.5 86.5t73.5 64t76 40t70 14q28 0 54 -7t46.5 -22.5t33 -41.5t12.5 -65
q0 -46 -17.5 -80t-42 -57t-50 -37t-40.5 -20l-12 39q3 0 22.5 8t41 26.5t39.5 47.5t18 71q0 48 -27 73.5t-69 25.5q-32 0 -75 -23t-82.5 -72t-67 -124t-27.5 -179q0 -103 36.5 -157t98.5 -54q31 0 59.5 17.5t52.5 46.5t43 67.5t33 79.5q0 32 7.5 75.5t23.5 88.5l61 -20
q-5 -13 -10 -34t-9.5 -46t-7.5 -51.5t-3 -51.5q0 -78 15.5 -107.5t53.5 -29.5q22 0 43.5 16t46.5 56t55 108.5t70 173.5zM522 995l-239 -145l-19 24l219 180z" />
    <glyph glyph-name="Acircumflex" unicode="&#xc2;" horiz-adv-x="1167" 
d="M96 414h244l105 214l100.5 203l91.5 182l76.5 151l57 110t32.5 59q12 22 25.5 30.5t33.5 8.5q23 0 37 -14.5t14 -42.5q0 -11 -2 -53l-5 -105l-7 -141t-7 -160.5t-5 -164t-2 -150.5v-64t2 -61h118.5t90.5 2v-39q-54 -2 -105 -2h-102q7 -130 29.5 -236t69 -181.5
t120.5 -117t184 -41.5q44 0 94 11l7 -41q-51 -16 -92.5 -23.5t-79.5 -7.5q-92 0 -159.5 23t-115 65t-77.5 100.5t-47 129t-24 151t-7 166.5h-408q-6 -14 -12 -26.5l-13 -26.5q-50 -110 -96 -190.5t-88.5 -137.5t-80.5 -94t-73 -60.5t-66.5 -37t-59.5 -23.5l-17 35l19 12.5
t51 39.5t75 71t92 106t102.5 144.5t105.5 187.5h-226v39zM856 1329q-11 0 -49 -67.5t-97.5 -188.5l-138.5 -289l-172 -370h392q0 91 6 183.5t14.5 181t18 170l17.5 150t13.5 121.5t5.5 85q0 15 -2.5 19.5t-7.5 4.5zM1032 1459l-164 127l-158 -127l-20 20l178 180l184 -180z
" />
    <glyph glyph-name="acircumflex" unicode="&#xe2;" horiz-adv-x="731" 
d="M864 479q-41 -111 -74.5 -186t-65 -121t-62.5 -66t-68 -20q-45 0 -77 31.5t-40 97.5q-32 -69 -83 -112.5t-128 -43.5q-41 0 -78.5 15t-66.5 46.5t-46.5 79.5t-17.5 113q0 66 16.5 124t43.5 106.5t62.5 86.5t73.5 64t76 40t70 14q28 0 54 -7t46.5 -22.5t33 -41.5t12.5 -65
q0 -46 -17.5 -80t-42 -57t-50 -37t-40.5 -20l-12 39q3 0 22.5 8t41 26.5t39.5 47.5t18 71q0 48 -27 73.5t-69 25.5q-32 0 -75 -23t-82.5 -72t-67 -124t-27.5 -179q0 -103 36.5 -157t98.5 -54q31 0 59.5 17.5t52.5 46.5t43 67.5t33 79.5q0 32 7.5 75.5t23.5 88.5l61 -20
q-5 -13 -10 -34t-9.5 -46t-7.5 -51.5t-3 -51.5q0 -78 15.5 -107.5t53.5 -29.5q22 0 43.5 16t46.5 56t55 108.5t70 173.5zM555 850l-164 127l-158 -127l-20 20l178 180l184 -180z" />
    <glyph glyph-name="Atilde" unicode="&#xc3;" horiz-adv-x="1167" 
d="M96 414h244l105 214l100.5 203l91.5 182l76.5 151l57 110t32.5 59q12 22 25.5 30.5t33.5 8.5q23 0 37 -14.5t14 -42.5q0 -11 -2 -53l-5 -105l-7 -141t-7 -160.5t-5 -164t-2 -150.5v-64t2 -61h118.5t90.5 2v-39q-54 -2 -105 -2h-102q7 -130 29.5 -236t69 -181.5
t120.5 -117t184 -41.5q44 0 94 11l7 -41q-51 -16 -92.5 -23.5t-79.5 -7.5q-92 0 -159.5 23t-115 65t-77.5 100.5t-47 129t-24 151t-7 166.5h-408q-6 -14 -12 -26.5l-13 -26.5q-50 -110 -96 -190.5t-88.5 -137.5t-80.5 -94t-73 -60.5t-66.5 -37t-59.5 -23.5l-17 35l19 12.5
t51 39.5t75 71t92 106t102.5 144.5t105.5 187.5h-226v39zM856 1329q-11 0 -49 -67.5t-97.5 -188.5l-138.5 -289l-172 -370h392q0 91 6 183.5t14.5 181t18 170l17.5 150t13.5 121.5t5.5 85q0 15 -2.5 19.5t-7.5 4.5zM938 1534q18 0 29.5 9.5t18.5 22.5t9.5 25.5t3.5 18.5h31
q0 -15 -4.5 -36t-15.5 -40t-29 -32t-45 -13q-21 0 -39.5 12t-35 26l-31.5 26t-29 12q-17 0 -28 -10t-18 -22.5t-10 -25t-4 -18.5h-31q0 15 4.5 35.5t15.5 39.5t29 32.5t46 13.5q21 0 38.5 -12t34 -26l31 -26t29.5 -12z" />
    <glyph glyph-name="atilde" unicode="&#xe3;" horiz-adv-x="731" 
d="M864 479q-41 -111 -74.5 -186t-65 -121t-62.5 -66t-68 -20q-45 0 -77 31.5t-40 97.5q-32 -69 -83 -112.5t-128 -43.5q-41 0 -78.5 15t-66.5 46.5t-46.5 79.5t-17.5 113q0 66 16.5 124t43.5 106.5t62.5 86.5t73.5 64t76 40t70 14q28 0 54 -7t46.5 -22.5t33 -41.5t12.5 -65
q0 -46 -17.5 -80t-42 -57t-50 -37t-40.5 -20l-12 39q3 0 22.5 8t41 26.5t39.5 47.5t18 71q0 48 -27 73.5t-69 25.5q-32 0 -75 -23t-82.5 -72t-67 -124t-27.5 -179q0 -103 36.5 -157t98.5 -54q31 0 59.5 17.5t52.5 46.5t43 67.5t33 79.5q0 32 7.5 75.5t23.5 88.5l61 -20
q-5 -13 -10 -34t-9.5 -46t-7.5 -51.5t-3 -51.5q0 -78 15.5 -107.5t53.5 -29.5q22 0 43.5 16t46.5 56t55 108.5t70 173.5zM461 925q18 0 29.5 9.5t18.5 22.5t9.5 25.5t3.5 18.5h31q0 -15 -4.5 -36t-15.5 -40t-29 -32t-45 -13q-21 0 -39.5 12t-35 26l-31.5 26t-29 12
q-17 0 -28 -10t-18 -22.5t-10 -25t-4 -18.5h-31q0 15 4.5 35.5t15.5 39.5t29 32.5t46 13.5q21 0 38.5 -12t34 -26l31 -26t29.5 -12z" />
    <glyph glyph-name="Adieresis" unicode="&#xc4;" horiz-adv-x="1167" 
d="M96 414h244l105 214l100.5 203l91.5 182l76.5 151l57 110t32.5 59q12 22 25.5 30.5t33.5 8.5q23 0 37 -14.5t14 -42.5q0 -11 -2 -53l-5 -105l-7 -141t-7 -160.5t-5 -164t-2 -150.5v-64t2 -61h118.5t90.5 2v-39q-54 -2 -105 -2h-102q7 -130 29.5 -236t69 -181.5
t120.5 -117t184 -41.5q44 0 94 11l7 -41q-51 -16 -92.5 -23.5t-79.5 -7.5q-92 0 -159.5 23t-115 65t-77.5 100.5t-47 129t-24 151t-7 166.5h-408q-6 -14 -12 -26.5l-13 -26.5q-50 -110 -96 -190.5t-88.5 -137.5t-80.5 -94t-73 -60.5t-66.5 -37t-59.5 -23.5l-17 35l19 12.5
t51 39.5t75 71t92 106t102.5 144.5t105.5 187.5h-226v39zM856 1329q-11 0 -49 -67.5t-97.5 -188.5l-138.5 -289l-172 -370h392q0 91 6 183.5t14.5 181t18 170l17.5 150t13.5 121.5t5.5 85q0 15 -2.5 19.5t-7.5 4.5zM725 1534q0 20 12.5 34t32.5 14t33.5 -14t13.5 -34
q0 -18 -13.5 -31.5t-33.5 -13.5t-32.5 13.5t-12.5 31.5zM923 1534q0 20 13.5 34t32.5 14q20 0 33.5 -14t13.5 -34q0 -18 -13.5 -31.5t-33.5 -13.5q-19 0 -32.5 13.5t-13.5 31.5z" />
    <glyph glyph-name="adieresis" unicode="&#xe4;" horiz-adv-x="731" 
d="M864 479q-41 -111 -74.5 -186t-65 -121t-62.5 -66t-68 -20q-45 0 -77 31.5t-40 97.5q-32 -69 -83 -112.5t-128 -43.5q-41 0 -78.5 15t-66.5 46.5t-46.5 79.5t-17.5 113q0 66 16.5 124t43.5 106.5t62.5 86.5t73.5 64t76 40t70 14q28 0 54 -7t46.5 -22.5t33 -41.5t12.5 -65
q0 -46 -17.5 -80t-42 -57t-50 -37t-40.5 -20l-12 39q3 0 22.5 8t41 26.5t39.5 47.5t18 71q0 48 -27 73.5t-69 25.5q-32 0 -75 -23t-82.5 -72t-67 -124t-27.5 -179q0 -103 36.5 -157t98.5 -54q31 0 59.5 17.5t52.5 46.5t43 67.5t33 79.5q0 32 7.5 75.5t23.5 88.5l61 -20
q-5 -13 -10 -34t-9.5 -46t-7.5 -51.5t-3 -51.5q0 -78 15.5 -107.5t53.5 -29.5q22 0 43.5 16t46.5 56t55 108.5t70 173.5zM248 925q0 20 12.5 34t32.5 14t33.5 -14t13.5 -34q0 -18 -13.5 -31.5t-33.5 -13.5t-32.5 13.5t-12.5 31.5zM446 925q0 20 13.5 34t32.5 14
q20 0 33.5 -14t13.5 -34q0 -18 -13.5 -31.5t-33.5 -13.5q-19 0 -32.5 13.5t-13.5 31.5z" />
    <glyph glyph-name="Aring" unicode="&#xc5;" horiz-adv-x="1167" 
d="M96 414h244l105 214l100.5 203l91.5 182l76.5 151l57 110t32.5 59q12 22 25.5 30.5t33.5 8.5q23 0 37 -14.5t14 -42.5q0 -11 -2 -53l-5 -105l-7 -141t-7 -160.5t-5 -164t-2 -150.5v-64t2 -61h118.5t90.5 2v-39q-54 -2 -105 -2h-102q7 -130 29.5 -236t69 -181.5
t120.5 -117t184 -41.5q44 0 94 11l7 -41q-51 -16 -92.5 -23.5t-79.5 -7.5q-92 0 -159.5 23t-115 65t-77.5 100.5t-47 129t-24 151t-7 166.5h-408q-6 -14 -12 -26.5l-13 -26.5q-50 -110 -96 -190.5t-88.5 -137.5t-80.5 -94t-73 -60.5t-66.5 -37t-59.5 -23.5l-17 35l19 12.5
t51 39.5t75 71t92 106t102.5 144.5t105.5 187.5h-226v39zM856 1329q-11 0 -49 -67.5t-97.5 -188.5l-138.5 -289l-172 -370h392q0 91 6 183.5t14.5 181t18 170l17.5 150t13.5 121.5t5.5 85q0 15 -2.5 19.5t-7.5 4.5zM797 1532q0 41 27 67t67 26t66 -26t26 -67q0 -40 -26 -67
t-66 -27t-67 27t-27 67zM834 1532q0 -24 16 -40.5t41 -16.5t41.5 16.5t16.5 40.5q0 25 -16.5 41.5t-41.5 16.5t-41 -16.5t-16 -41.5z" />
    <glyph glyph-name="aring" unicode="&#xe5;" horiz-adv-x="731" 
d="M864 479q-41 -111 -74.5 -186t-65 -121t-62.5 -66t-68 -20q-45 0 -77 31.5t-40 97.5q-32 -69 -83 -112.5t-128 -43.5q-41 0 -78.5 15t-66.5 46.5t-46.5 79.5t-17.5 113q0 66 16.5 124t43.5 106.5t62.5 86.5t73.5 64t76 40t70 14q28 0 54 -7t46.5 -22.5t33 -41.5t12.5 -65
q0 -46 -17.5 -80t-42 -57t-50 -37t-40.5 -20l-12 39q3 0 22.5 8t41 26.5t39.5 47.5t18 71q0 48 -27 73.5t-69 25.5q-32 0 -75 -23t-82.5 -72t-67 -124t-27.5 -179q0 -103 36.5 -157t98.5 -54q31 0 59.5 17.5t52.5 46.5t43 67.5t33 79.5q0 32 7.5 75.5t23.5 88.5l61 -20
q-5 -13 -10 -34t-9.5 -46t-7.5 -51.5t-3 -51.5q0 -78 15.5 -107.5t53.5 -29.5q22 0 43.5 16t46.5 56t55 108.5t70 173.5zM299 923q0 41 27 67t67 26t66 -26t26 -67q0 -40 -26 -67t-66 -27t-67 27t-27 67zM336 923q0 -24 16 -40.5t41 -16.5t41.5 16.5t16.5 40.5
q0 25 -16.5 41.5t-41.5 16.5t-41 -16.5t-16 -41.5z" />
    <glyph glyph-name="AE" unicode="&#xc6;" horiz-adv-x="2015" 
d="M96 463h244l105 214l100.5 203l91.5 182l76.5 151l57 110t32.5 59q12 22 25.5 30.5t33.5 8.5q23 0 37 -14.5t14 -42.5q0 -11 -2 -53l-5 -105.5l-7 -143.5t-7 -165t-5 -170.5t-2 -161.5q51 82 123 146t155 106q-48 43 -75 101.5t-27 130.5q0 99 38 173.5t100 124
t142.5 74.5t165.5 25q94 0 158 -29.5t103 -75t56 -100.5t17 -106q0 -28 -3 -45t-3 -19l-39 4q1 8 2 18q1 8 1.5 19t0.5 25q0 45 -13.5 93t-47 87t-90 64.5t-142.5 25.5q-75 0 -138.5 -25.5t-109.5 -70t-72 -104t-26 -128.5t23 -126.5t65 -100.5q45 15 90.5 24t92.5 9
q34 0 62.5 -5.5t49.5 -16.5t33 -26.5t12 -35.5q0 -28 -18.5 -44t-44 -24t-53 -10t-46.5 -2q-65 0 -123 17.5t-106 49.5q-59 -29 -110.5 -73t-89.5 -102.5t-60.5 -130.5t-22.5 -156q0 -82 22.5 -144t59 -106.5t84 -74.5t97.5 -47.5t99 -24.5t89 -7q130 0 233 41.5t176 112
t113.5 164.5t46.5 198l39 -2q-3 -87 -31 -164.5t-76 -143.5t-112 -118.5t-139 -89.5t-158 -56.5t-168 -19.5q-130 0 -224 37t-154.5 97.5t-89.5 137t-29 154.5q0 60 6 156q-73 -1 -131.5 -1.5t-107.5 -0.5h-92h-85q-12 -27 -25 -53q-50 -110 -96 -190.5t-88.5 -137.5
t-80.5 -94t-73 -60.5t-66.5 -37t-59.5 -23.5l-17 35l19 12t51 39.5t75 71t92 105.5t102.5 145t105.5 188h-226v39zM856 1378q-11 0 -49 -67.5t-97.5 -188.5l-138.5 -289l-172 -370h106.5h106.5t100 0.5t89 1.5q4 74 11 159.5l14 173l14 172.5l13 159.5t9.5 132.5t3.5 92
q0 15 -2.5 19.5t-7.5 4.5zM1432 846q-73 0 -148 -23q37 -28 85 -42.5t104 -14.5q37 0 57 10.5t20 24.5q0 15 -31.5 30t-86.5 15z" />
    <glyph glyph-name="ae" unicode="&#xe6;" horiz-adv-x="936" 
d="M1069 479l-33.5 -83t-39.5 -89.5t-49.5 -86t-63 -74t-79.5 -51.5t-99 -19q-59 0 -110 26.5t-83 75.5q0 -56 6 -90l-35 -8q-11 23 -18 46.5t-12 49.5q-41 -65 -88 -91t-103 -26q-41 0 -78.5 15t-66.5 46.5t-46.5 79.5t-17.5 113q0 62 16.5 116.5t43.5 99.5t62.5 81
t73.5 60.5t76 37.5t70 13q35 0 69 -12t54 -41l17 32l18 35l33 -10l-10.5 -24.5t-10.5 -26.5q34 35 74 54.5t82 19.5q62 0 98.5 -41.5t36.5 -106.5q0 -55 -21 -100.5t-55.5 -78.5t-79 -51t-92.5 -18q-23 0 -43.5 2.5t-36.5 5.5q11 -124 63.5 -180.5t135.5 -56.5
q61 0 107.5 35.5t82 89.5t62.5 118.5l51 122.5zM287 100q24 0 45.5 10t41 28t36.5 42.5t32 52.5q-3 25 -4.5 53.5t-1.5 57.5q0 62 13 126.5t47 145.5q-8 32 -33 49t-60 17q-32 0 -75 -21.5t-82 -67t-66.5 -115.5t-27.5 -167q0 -103 36.5 -157t98.5 -54zM723 709
q-37 0 -72.5 -23.5t-63.5 -65t-45.5 -97.5t-17.5 -120q13 -5 36.5 -8.5t57.5 -3.5q36 0 71.5 15.5t64 43t46 65.5t17.5 83q0 22 -6 42t-18 35.5t-29.5 24.5t-40.5 9z" />
    <glyph glyph-name="AEacute" unicode="&#x1fc;" horiz-adv-x="2015" 
d="M96 463h244l105 214l100.5 203l91.5 182l76.5 151l57 110t32.5 59q12 22 25.5 30.5t33.5 8.5q23 0 37 -14.5t14 -42.5q0 -11 -2 -53l-5 -105.5l-7 -143.5t-7 -165t-5 -170.5t-2 -161.5q51 82 123 146t155 106q-48 43 -75 101.5t-27 130.5q0 99 38 173.5t100 124
t142.5 74.5t165.5 25q94 0 158 -29.5t103 -75t56 -100.5t17 -106q0 -28 -3 -45t-3 -19l-39 4q1 8 2 18q1 8 1.5 19t0.5 25q0 45 -13.5 93t-47 87t-90 64.5t-142.5 25.5q-75 0 -138.5 -25.5t-109.5 -70t-72 -104t-26 -128.5t23 -126.5t65 -100.5q45 15 90.5 24t92.5 9
q34 0 62.5 -5.5t49.5 -16.5t33 -26.5t12 -35.5q0 -28 -18.5 -44t-44 -24t-53 -10t-46.5 -2q-65 0 -123 17.5t-106 49.5q-59 -29 -110.5 -73t-89.5 -102.5t-60.5 -130.5t-22.5 -156q0 -82 22.5 -144t59 -106.5t84 -74.5t97.5 -47.5t99 -24.5t89 -7q130 0 233 41.5t176 112
t113.5 164.5t46.5 198l39 -2q-3 -87 -31 -164.5t-76 -143.5t-112 -118.5t-139 -89.5t-158 -56.5t-168 -19.5q-130 0 -224 37t-154.5 97.5t-89.5 137t-29 154.5q0 60 6 156q-73 -1 -131.5 -1.5t-107.5 -0.5h-92h-85q-12 -27 -25 -53q-50 -110 -96 -190.5t-88.5 -137.5
t-80.5 -94t-73 -60.5t-66.5 -37t-59.5 -23.5l-17 35l19 12t51 39.5t75 71t92 105.5t102.5 145t105.5 188h-226v39zM856 1378q-11 0 -49 -67.5t-97.5 -188.5l-138.5 -289l-172 -370h106.5h106.5t100 0.5t89 1.5q4 74 11 159.5l14 173l14 172.5l13 159.5t9.5 132.5t3.5 92
q0 15 -2.5 19.5t-7.5 4.5zM1432 846q-73 0 -148 -23q37 -28 85 -42.5t104 -14.5q37 0 57 10.5t20 24.5q0 15 -31.5 30t-86.5 15zM1280 1655l-239 -145l-19 24l219 180z" />
    <glyph glyph-name="aeacute" unicode="&#x1fd;" horiz-adv-x="936" 
d="M1069 479l-33.5 -83t-39.5 -89.5t-49.5 -86t-63 -74t-79.5 -51.5t-99 -19q-59 0 -110 26.5t-83 75.5q0 -56 6 -90l-35 -8q-11 23 -18 46.5t-12 49.5q-41 -65 -88 -91t-103 -26q-41 0 -78.5 15t-66.5 46.5t-46.5 79.5t-17.5 113q0 62 16.5 116.5t43.5 99.5t62.5 81
t73.5 60.5t76 37.5t70 13q35 0 69 -12t54 -41l17 32l18 35l33 -10l-10.5 -24.5t-10.5 -26.5q34 35 74 54.5t82 19.5q62 0 98.5 -41.5t36.5 -106.5q0 -55 -21 -100.5t-55.5 -78.5t-79 -51t-92.5 -18q-23 0 -43.5 2.5t-36.5 5.5q11 -124 63.5 -180.5t135.5 -56.5
q61 0 107.5 35.5t82 89.5t62.5 118.5l51 122.5zM287 100q24 0 45.5 10t41 28t36.5 42.5t32 52.5q-3 25 -4.5 53.5t-1.5 57.5q0 62 13 126.5t47 145.5q-8 32 -33 49t-60 17q-32 0 -75 -21.5t-82 -67t-66.5 -115.5t-27.5 -167q0 -103 36.5 -157t98.5 -54zM723 709
q-37 0 -72.5 -23.5t-63.5 -65t-45.5 -97.5t-17.5 -120q13 -5 36.5 -8.5t57.5 -3.5q36 0 71.5 15.5t64 43t46 65.5t17.5 83q0 22 -6 42t-18 35.5t-29.5 24.5t-40.5 9zM696 983l-239 -145l-19 24l219 180z" />
    <glyph glyph-name="Amacron" unicode="&#x100;" horiz-adv-x="1167" 
d="M96 414h244l105 214l100.5 203l91.5 182l76.5 151l57 110t32.5 59q12 22 25.5 30.5t33.5 8.5q23 0 37 -14.5t14 -42.5q0 -11 -2 -53l-5 -105l-7 -141t-7 -160.5t-5 -164t-2 -150.5v-64t2 -61h118.5t90.5 2v-39q-54 -2 -105 -2h-102q7 -130 29.5 -236t69 -181.5
t120.5 -117t184 -41.5q44 0 94 11l7 -41q-51 -16 -92.5 -23.5t-79.5 -7.5q-92 0 -159.5 23t-115 65t-77.5 100.5t-47 129t-24 151t-7 166.5h-408q-6 -14 -12 -26.5l-13 -26.5q-50 -110 -96 -190.5t-88.5 -137.5t-80.5 -94t-73 -60.5t-66.5 -37t-59.5 -23.5l-17 35l19 12.5
t51 39.5t75 71t92 106t102.5 144.5t105.5 187.5h-226v39zM856 1329q-11 0 -49 -67.5t-97.5 -188.5l-138.5 -289l-172 -370h392q0 91 6 183.5t14.5 181t18 170l17.5 150t13.5 121.5t5.5 85q0 15 -2.5 19.5t-7.5 4.5zM735 1510v43h270v-43h-270z" />
    <glyph glyph-name="amacron" unicode="&#x101;" horiz-adv-x="731" 
d="M864 479q-41 -111 -74.5 -186t-65 -121t-62.5 -66t-68 -20q-45 0 -77 31.5t-40 97.5q-32 -69 -83 -112.5t-128 -43.5q-41 0 -78.5 15t-66.5 46.5t-46.5 79.5t-17.5 113q0 66 16.5 124t43.5 106.5t62.5 86.5t73.5 64t76 40t70 14q28 0 54 -7t46.5 -22.5t33 -41.5t12.5 -65
q0 -46 -17.5 -80t-42 -57t-50 -37t-40.5 -20l-12 39q3 0 22.5 8t41 26.5t39.5 47.5t18 71q0 48 -27 73.5t-69 25.5q-32 0 -75 -23t-82.5 -72t-67 -124t-27.5 -179q0 -103 36.5 -157t98.5 -54q31 0 59.5 17.5t52.5 46.5t43 67.5t33 79.5q0 32 7.5 75.5t23.5 88.5l61 -20
q-5 -13 -10 -34t-9.5 -46t-7.5 -51.5t-3 -51.5q0 -78 15.5 -107.5t53.5 -29.5q22 0 43.5 16t46.5 56t55 108.5t70 173.5zM258 901v43h270v-43h-270z" />
    <glyph glyph-name="Abreve" unicode="&#x102;" horiz-adv-x="1167" 
d="M96 414h244l105 214l100.5 203l91.5 182l76.5 151l57 110t32.5 59q12 22 25.5 30.5t33.5 8.5q23 0 37 -14.5t14 -42.5q0 -11 -2 -53l-5 -105l-7 -141t-7 -160.5t-5 -164t-2 -150.5v-64t2 -61h118.5t90.5 2v-39q-54 -2 -105 -2h-102q7 -130 29.5 -236t69 -181.5
t120.5 -117t184 -41.5q44 0 94 11l7 -41q-51 -16 -92.5 -23.5t-79.5 -7.5q-92 0 -159.5 23t-115 65t-77.5 100.5t-47 129t-24 151t-7 166.5h-408q-6 -14 -12 -26.5l-13 -26.5q-50 -110 -96 -190.5t-88.5 -137.5t-80.5 -94t-73 -60.5t-66.5 -37t-59.5 -23.5l-17 35l19 12.5
t51 39.5t75 71t92 106t102.5 144.5t105.5 187.5h-226v39zM856 1329q-11 0 -49 -67.5t-97.5 -188.5l-138.5 -289l-172 -370h392q0 91 6 183.5t14.5 181t18 170l17.5 150t13.5 121.5t5.5 85q0 15 -2.5 19.5t-7.5 4.5zM1016 1631q0 -23 -7 -48.5t-23.5 -47t-45 -36t-70.5 -14.5
q-44 0 -72 16t-43.5 39t-21.5 48t-6 43h31q2 -11 7 -27t17 -31t32.5 -26t55.5 -11q36 0 58 11t34 26t16.5 31t6.5 27h31z" />
    <glyph glyph-name="abreve" unicode="&#x103;" horiz-adv-x="731" 
d="M864 479q-41 -111 -74.5 -186t-65 -121t-62.5 -66t-68 -20q-45 0 -77 31.5t-40 97.5q-32 -69 -83 -112.5t-128 -43.5q-41 0 -78.5 15t-66.5 46.5t-46.5 79.5t-17.5 113q0 66 16.5 124t43.5 106.5t62.5 86.5t73.5 64t76 40t70 14q28 0 54 -7t46.5 -22.5t33 -41.5t12.5 -65
q0 -46 -17.5 -80t-42 -57t-50 -37t-40.5 -20l-12 39q3 0 22.5 8t41 26.5t39.5 47.5t18 71q0 48 -27 73.5t-69 25.5q-32 0 -75 -23t-82.5 -72t-67 -124t-27.5 -179q0 -103 36.5 -157t98.5 -54q31 0 59.5 17.5t52.5 46.5t43 67.5t33 79.5q0 32 7.5 75.5t23.5 88.5l61 -20
q-5 -13 -10 -34t-9.5 -46t-7.5 -51.5t-3 -51.5q0 -78 15.5 -107.5t53.5 -29.5q22 0 43.5 16t46.5 56t55 108.5t70 173.5zM539 1022q0 -23 -7 -48.5t-23.5 -47t-45 -36t-70.5 -14.5q-44 0 -72 16t-43.5 39t-21.5 48t-6 43h31q2 -11 7 -27t17 -31t32.5 -26t55.5 -11
q36 0 58 11t34 26t16.5 31t6.5 27h31z" />
    <glyph glyph-name="Aogonek" unicode="&#x104;" horiz-adv-x="1167" 
d="M96 414h244l105 214l100.5 203l91.5 182l76.5 151l57 110t32.5 59q12 22 25.5 30.5t33.5 8.5q23 0 37 -14.5t14 -42.5q0 -11 -2 -53l-5 -105l-7 -141t-7 -160.5t-5 -164t-2 -150.5v-64t2 -61h118.5t90.5 2v-39q-54 -2 -105 -2h-102q7 -130 29.5 -236t69 -181.5
t120.5 -117t184 -41.5q44 0 94 11l7 -41q-31 -9 -61.5 -26.5t-55 -40t-40 -48t-15.5 -51.5q0 -18 6 -30t15 -19.5t20.5 -11t23.5 -3.5q17 0 34 3t32 7.5t27 9.5t18 9l10 -25q-12 -8 -28.5 -16t-34.5 -15t-36.5 -11.5t-35.5 -4.5q-18 0 -38 3t-36 13t-26.5 27.5t-10.5 46.5
q0 24 10.5 46t26.5 41.5t35 36l35 30.5q-13 -2 -24.5 -2h-22.5q-92 0 -159.5 23t-115 65t-77.5 100.5t-47 129t-24 151t-7 166.5h-408q-6 -14 -12 -26.5l-13 -26.5q-50 -110 -96 -190.5t-88.5 -137.5t-80.5 -94t-73 -60.5t-66.5 -37t-59.5 -23.5l-17 35l19 12.5t51 39.5
t75 71t92 106t102.5 144.5t105.5 187.5h-226v39zM856 1329q-11 0 -49 -67.5t-97.5 -188.5l-138.5 -289l-172 -370h392q0 91 6 183.5t14.5 181t18 170l17.5 150t13.5 121.5t5.5 85q0 15 -2.5 19.5t-7.5 4.5z" />
    <glyph glyph-name="aogonek" unicode="&#x105;" horiz-adv-x="731" 
d="M764 -92q-25 -16 -60 -31.5t-75 -15.5q-19 0 -38.5 4t-35 14.5t-25.5 28t-10 45.5q0 38 25.5 71.5t56.5 61.5h-8q-45 0 -77 31.5t-40 97.5q-32 -69 -83 -112.5t-128 -43.5q-41 0 -78.5 15t-66.5 46.5t-46.5 79.5t-17.5 113q0 66 16.5 124t43.5 106.5t62.5 86.5t73.5 64
t76 40t70 14q28 0 54 -7t46.5 -22.5t33 -41.5t12.5 -65q0 -46 -17.5 -80t-42 -57t-50 -37t-40.5 -20l-12 39q3 0 22.5 8t41 26.5t39.5 47.5t18 71q0 48 -27 73.5t-69 25.5q-32 0 -75 -23t-82.5 -72t-67 -124t-27.5 -179q0 -103 36.5 -157t98.5 -54q31 0 59.5 17.5t52.5 46.5
t43 67.5t33 79.5q0 32 7.5 75.5t23.5 88.5l61 -20q-5 -13 -10 -34t-9.5 -46t-7.5 -51.5t-3 -51.5q0 -78 15.5 -107.5t53.5 -29.5q22 0 43.5 16t46.5 56t55 108.5t70 173.5l39 -10q-29 -78 -54 -137t-47.5 -103.5t-44 -74.5t-44.5 -49q-16 -14 -33 -31.5t-31 -36.5t-23 -39.5
t-9 -40.5q0 -18 6 -30t15 -19.5t20.5 -10.5t23.5 -3q34 0 66 10t45 18z" />
    <glyph glyph-name="Ccedilla" unicode="&#xc7;" horiz-adv-x="1384" 
d="M1147 1409q-31 -11 -61 -24.5t-58 -28.5q56 -48 90.5 -119t34.5 -164q0 -76 -19.5 -140t-54.5 -110t-82.5 -72t-103.5 -26q-41 0 -81 14t-71.5 43t-51 72.5t-19.5 103.5q0 67 22 127.5t59.5 112t87.5 94t105 74.5q-29 14 -62.5 22.5t-68.5 8.5q-61 0 -130 -23t-136.5 -69
t-129 -113.5t-109 -157.5t-75.5 -201t-28 -243q0 -134 39 -254t114 -211t184.5 -144t250.5 -53q82 0 160.5 24.5t148.5 68t129 104t102 131.5l31 -18q-46 -86 -111 -154.5t-143 -117t-167 -76t-183 -31.5l-27 -84q22 0 43.5 -5.5t37.5 -16t26 -25.5t10 -35q0 -47 -33 -67.5
t-84 -20.5q-37 0 -66.5 10t-52.5 23l15 32q17 -11 45.5 -20.5t54.5 -9.5q31 0 50.5 14t19.5 39q0 16 -8 26.5t-20 16.5t-25.5 8t-24.5 2q-9 0 -17.5 -0.5t-17.5 -3.5l39 117q-139 1 -256.5 51t-203 141t-133.5 218.5t-48 285.5q0 143 31 263.5t85 218.5t125.5 172.5
t152.5 125t167 76t168 25.5q45 0 88.5 -13.5t81.5 -36.5q40 19 80 31t78 19zM1114 1075q0 82 -32.5 148.5t-88.5 109.5q-49 -32 -91.5 -73.5t-73.5 -92t-48.5 -110t-17.5 -127.5q0 -36 9.5 -66.5t27.5 -52.5t44 -34.5t58 -12.5q54 0 94 31t66.5 77.5t39.5 101t13 101.5z" />
    <glyph glyph-name="ccedilla" unicode="&#xe7;" horiz-adv-x="655" 
d="M334 520q0 60 28.5 104t73.5 85q-14 9 -30 13.5t-31 4.5q-33 0 -70.5 -16.5t-69 -55.5t-52.5 -104.5t-21 -163.5q0 -81 19.5 -139t53.5 -95.5t79 -55t96 -17.5q61 0 109 31.5t88 87t74.5 130t68.5 160.5l38 -10l-41.5 -101t-47 -102.5t-56 -95.5t-70 -79t-88.5 -54
t-110 -20h-6l-25 -78q22 0 43 -5.5t37.5 -16t26.5 -25.5t10 -35q0 -47 -33 -67.5t-84 -20.5q-37 0 -66.5 10t-52.5 23l15 32q17 -11 45.5 -20.5t54.5 -9.5q31 0 50.5 14t19.5 39q0 16 -8.5 26.5t-20.5 16.5t-25.5 8t-23.5 2t-18 -0.5t-17 -3.5l37 113q-55 6 -103.5 29.5
t-84.5 65t-57 101t-21 137.5q0 86 28.5 160t72.5 128t97 85t101 31q56 0 100 -29q8 6 15.5 12.5t15.5 14.5l22 -31q-6 -6 -12 -11t-12 -11q18 -22 29.5 -52t11.5 -67q0 -41 -9.5 -72.5t-26 -53.5t-37.5 -33t-44 -11q-12 0 -27 5.5t-28 17t-22 30t-9 45.5zM496 592
q0 29 -8.5 52t-22.5 40q-37 -32 -63.5 -71.5t-26.5 -92.5q0 -28 14 -43.5t33 -15.5q22 0 36.5 14t22.5 34.5t11.5 43t3.5 39.5z" />
    <glyph glyph-name="Cacute" unicode="&#x106;" horiz-adv-x="1384" 
d="M1147 1409q-31 -11 -61 -24.5t-58 -28.5q56 -48 90.5 -119t34.5 -164q0 -76 -19.5 -140t-54.5 -110t-82.5 -72t-103.5 -26q-41 0 -81 14t-71.5 43t-51 72.5t-19.5 103.5q0 67 22 127.5t59.5 112t87.5 94t105 74.5q-29 14 -62.5 22.5t-68.5 8.5q-61 0 -130 -23t-136.5 -69
t-129 -113.5t-109 -157.5t-75.5 -201t-28 -243q0 -134 39 -254t114 -211t184.5 -144t250.5 -53q82 0 160.5 24.5t148.5 68t129 104t102 131.5l31 -18q-48 -89 -115.5 -159t-149.5 -119t-175 -75t-191 -26q-141 0 -260 49.5t-205.5 140.5t-135 219.5t-48.5 286.5
q0 143 31 263.5t85 218.5t125.5 172.5t152.5 125t167 76t168 25.5q45 0 88.5 -13.5t81.5 -36.5q40 19 80 31t78 19zM1114 1075q0 82 -32.5 148.5t-88.5 109.5q-49 -32 -91.5 -73.5t-73.5 -92t-48.5 -110t-17.5 -127.5q0 -36 9.5 -66.5t27.5 -52.5t44 -34.5t58 -12.5
q54 0 94 31t66.5 77.5t39.5 101t13 101.5zM944 1663l-239 -145l-19 24l219 180z" />
    <glyph glyph-name="cacute" unicode="&#x107;" horiz-adv-x="655" 
d="M334 520q0 60 28.5 104t73.5 85q-14 9 -30 13.5t-31 4.5q-33 0 -70.5 -16.5t-69 -55.5t-52.5 -104.5t-21 -163.5q0 -81 19.5 -139t53.5 -95.5t79 -55t96 -17.5q61 0 109 31.5t88 87t74.5 130t68.5 160.5l38 -10l-41.5 -101t-47 -102.5t-56 -95.5t-70 -79t-88.5 -54
t-110 -20q-62 0 -117.5 20.5t-97.5 62t-67 104.5t-25 148q0 86 28.5 160t72.5 128t97 85t101 31q56 0 100 -29q8 6 15.5 12.5t15.5 14.5l22 -31q-6 -6 -12 -11t-12 -11q18 -22 29.5 -52t11.5 -67q0 -41 -9.5 -72.5t-26 -53.5t-37.5 -33t-44 -11q-12 0 -27 5.5t-28 17t-22 30
t-9 45.5zM496 592q0 29 -8.5 52t-22.5 40q-37 -32 -63.5 -71.5t-26.5 -92.5q0 -28 14 -43.5t33 -15.5q22 0 36.5 14t22.5 34.5t11.5 43t3.5 39.5zM510 1016l-239 -145l-19 24l219 180z" />
    <glyph glyph-name="Ccircumflex" unicode="&#x108;" horiz-adv-x="1384" 
d="M1147 1409q-31 -11 -61 -24.5t-58 -28.5q56 -48 90.5 -119t34.5 -164q0 -76 -19.5 -140t-54.5 -110t-82.5 -72t-103.5 -26q-41 0 -81 14t-71.5 43t-51 72.5t-19.5 103.5q0 67 22 127.5t59.5 112t87.5 94t105 74.5q-29 14 -62.5 22.5t-68.5 8.5q-61 0 -130 -23t-136.5 -69
t-129 -113.5t-109 -157.5t-75.5 -201t-28 -243q0 -134 39 -254t114 -211t184.5 -144t250.5 -53q82 0 160.5 24.5t148.5 68t129 104t102 131.5l31 -18q-48 -89 -115.5 -159t-149.5 -119t-175 -75t-191 -26q-141 0 -260 49.5t-205.5 140.5t-135 219.5t-48.5 286.5
q0 143 31 263.5t85 218.5t125.5 172.5t152.5 125t167 76t168 25.5q45 0 88.5 -13.5t81.5 -36.5q40 19 80 31t78 19zM1114 1075q0 82 -32.5 148.5t-88.5 109.5q-49 -32 -91.5 -73.5t-73.5 -92t-48.5 -110t-17.5 -127.5q0 -36 9.5 -66.5t27.5 -52.5t44 -34.5t58 -12.5
q54 0 94 31t66.5 77.5t39.5 101t13 101.5zM977 1518l-164 127l-158 -127l-20 20l178 180l184 -180z" />
    <glyph glyph-name="ccircumflex" unicode="&#x109;" horiz-adv-x="655" 
d="M334 520q0 60 28.5 104t73.5 85q-14 9 -30 13.5t-31 4.5q-33 0 -70.5 -16.5t-69 -55.5t-52.5 -104.5t-21 -163.5q0 -81 19.5 -139t53.5 -95.5t79 -55t96 -17.5q61 0 109 31.5t88 87t74.5 130t68.5 160.5l38 -10l-41.5 -101t-47 -102.5t-56 -95.5t-70 -79t-88.5 -54
t-110 -20q-62 0 -117.5 20.5t-97.5 62t-67 104.5t-25 148q0 86 28.5 160t72.5 128t97 85t101 31q56 0 100 -29q8 6 15.5 12.5t15.5 14.5l22 -31q-6 -6 -12 -11t-12 -11q18 -22 29.5 -52t11.5 -67q0 -41 -9.5 -72.5t-26 -53.5t-37.5 -33t-44 -11q-12 0 -27 5.5t-28 17t-22 30
t-9 45.5zM496 592q0 29 -8.5 52t-22.5 40q-37 -32 -63.5 -71.5t-26.5 -92.5q0 -28 14 -43.5t33 -15.5q22 0 36.5 14t22.5 34.5t11.5 43t3.5 39.5zM543 871l-164 127l-158 -127l-20 20l178 180l184 -180z" />
    <glyph glyph-name="Cdotaccent" unicode="&#x10a;" horiz-adv-x="1384" 
d="M1147 1409q-31 -11 -61 -24.5t-58 -28.5q56 -48 90.5 -119t34.5 -164q0 -76 -19.5 -140t-54.5 -110t-82.5 -72t-103.5 -26q-41 0 -81 14t-71.5 43t-51 72.5t-19.5 103.5q0 67 22 127.5t59.5 112t87.5 94t105 74.5q-29 14 -62.5 22.5t-68.5 8.5q-61 0 -130 -23t-136.5 -69
t-129 -113.5t-109 -157.5t-75.5 -201t-28 -243q0 -134 39 -254t114 -211t184.5 -144t250.5 -53q82 0 160.5 24.5t148.5 68t129 104t102 131.5l31 -18q-48 -89 -115.5 -159t-149.5 -119t-175 -75t-191 -26q-141 0 -260 49.5t-205.5 140.5t-135 219.5t-48.5 286.5
q0 143 31 263.5t85 218.5t125.5 172.5t152.5 125t167 76t168 25.5q45 0 88.5 -13.5t81.5 -36.5q40 19 80 31t78 19zM1114 1075q0 82 -32.5 148.5t-88.5 109.5q-49 -32 -91.5 -73.5t-73.5 -92t-48.5 -110t-17.5 -127.5q0 -36 9.5 -66.5t27.5 -52.5t44 -34.5t58 -12.5
q54 0 94 31t66.5 77.5t39.5 101t13 101.5zM766 1598q0 20 14.5 34.5t34.5 14.5t34.5 -14.5t14.5 -34.5t-14.5 -35t-34.5 -15t-34.5 15t-14.5 35z" />
    <glyph glyph-name="cdotaccent" unicode="&#x10b;" horiz-adv-x="655" 
d="M334 520q0 60 28.5 104t73.5 85q-14 9 -30 13.5t-31 4.5q-33 0 -70.5 -16.5t-69 -55.5t-52.5 -104.5t-21 -163.5q0 -81 19.5 -139t53.5 -95.5t79 -55t96 -17.5q61 0 109 31.5t88 87t74.5 130t68.5 160.5l38 -10l-41.5 -101t-47 -102.5t-56 -95.5t-70 -79t-88.5 -54
t-110 -20q-62 0 -117.5 20.5t-97.5 62t-67 104.5t-25 148q0 86 28.5 160t72.5 128t97 85t101 31q56 0 100 -29q8 6 15.5 12.5t15.5 14.5l22 -31q-6 -6 -12 -11t-12 -11q18 -22 29.5 -52t11.5 -67q0 -41 -9.5 -72.5t-26 -53.5t-37.5 -33t-44 -11q-12 0 -27 5.5t-28 17t-22 30
t-9 45.5zM496 592q0 29 -8.5 52t-22.5 40q-37 -32 -63.5 -71.5t-26.5 -92.5q0 -28 14 -43.5t33 -15.5q22 0 36.5 14t22.5 34.5t11.5 43t3.5 39.5zM332 951q0 20 14.5 34.5t34.5 14.5t34.5 -14.5t14.5 -34.5t-14.5 -35t-34.5 -15t-34.5 15t-14.5 35z" />
    <glyph glyph-name="Ccaron" unicode="&#x10c;" horiz-adv-x="1384" 
d="M1147 1409q-31 -11 -61 -24.5t-58 -28.5q56 -48 90.5 -119t34.5 -164q0 -76 -19.5 -140t-54.5 -110t-82.5 -72t-103.5 -26q-41 0 -81 14t-71.5 43t-51 72.5t-19.5 103.5q0 67 22 127.5t59.5 112t87.5 94t105 74.5q-29 14 -62.5 22.5t-68.5 8.5q-61 0 -130 -23t-136.5 -69
t-129 -113.5t-109 -157.5t-75.5 -201t-28 -243q0 -134 39 -254t114 -211t184.5 -144t250.5 -53q82 0 160.5 24.5t148.5 68t129 104t102 131.5l31 -18q-48 -89 -115.5 -159t-149.5 -119t-175 -75t-191 -26q-141 0 -260 49.5t-205.5 140.5t-135 219.5t-48.5 286.5
q0 143 31 263.5t85 218.5t125.5 172.5t152.5 125t167 76t168 25.5q45 0 88.5 -13.5t81.5 -36.5q40 19 80 31t78 19zM1114 1075q0 82 -32.5 148.5t-88.5 109.5q-49 -32 -91.5 -73.5t-73.5 -92t-48.5 -110t-17.5 -127.5q0 -36 9.5 -66.5t27.5 -52.5t44 -34.5t58 -12.5
q54 0 94 31t66.5 77.5t39.5 101t13 101.5zM997 1696l-182 -178l-180 178l22 22l158 -127l162 127z" />
    <glyph glyph-name="ccaron" unicode="&#x10d;" horiz-adv-x="655" 
d="M334 520q0 60 28.5 104t73.5 85q-14 9 -30 13.5t-31 4.5q-33 0 -70.5 -16.5t-69 -55.5t-52.5 -104.5t-21 -163.5q0 -81 19.5 -139t53.5 -95.5t79 -55t96 -17.5q61 0 109 31.5t88 87t74.5 130t68.5 160.5l38 -10l-41.5 -101t-47 -102.5t-56 -95.5t-70 -79t-88.5 -54
t-110 -20q-62 0 -117.5 20.5t-97.5 62t-67 104.5t-25 148q0 86 28.5 160t72.5 128t97 85t101 31q56 0 100 -29q8 6 15.5 12.5t15.5 14.5l22 -31q-6 -6 -12 -11t-12 -11q18 -22 29.5 -52t11.5 -67q0 -41 -9.5 -72.5t-26 -53.5t-37.5 -33t-44 -11q-12 0 -27 5.5t-28 17t-22 30
t-9 45.5zM496 592q0 29 -8.5 52t-22.5 40q-37 -32 -63.5 -71.5t-26.5 -92.5q0 -28 14 -43.5t33 -15.5q22 0 36.5 14t22.5 34.5t11.5 43t3.5 39.5zM563 1049l-182 -178l-180 178l22 22l158 -127l162 127z" />
    <glyph glyph-name="Dcaron" unicode="&#x10e;" horiz-adv-x="1446" 
d="M408 -98q-77 0 -141 19t-109.5 55t-71 88t-25.5 118q0 68 31.5 138.5t91.5 130.5l19 -19q-31 -40 -51.5 -96t-20.5 -119q0 -51 15.5 -100.5t48.5 -88.5t85.5 -63t127.5 -24q6 0 12 1t12 1q-31 94 -55.5 230t-24.5 316q0 168 20 296t47 221t55.5 153.5t45.5 93.5l29 -6
q-9 -43 -23 -117.5t-27.5 -183t-23.5 -253.5t-10 -328q0 -103 6 -207.5t18 -210.5q121 13 226 61t191.5 121t153.5 166t113.5 196t70.5 211t24 211q0 136 -42 233t-109 158.5t-151.5 90t-168.5 28.5q-83 0 -154 -11t-130.5 -29t-108 -40.5t-86.5 -46.5q-90 -56 -148 -127
l-33 23q1 2 18.5 23t52.5 51t88.5 64t126 63.5t166 49t208.5 19.5q138 0 247 -36t184.5 -106.5t115.5 -174t40 -238.5q0 -158 -41 -290.5t-110 -240t-159 -189.5t-189 -140.5t-200 -93t-191 -45.5q3 -19 6 -36t6 -36l-33 -4q-6 16 -13.5 34l-15.5 38q-9 -2 -18 -2h-18z
M976 1723l-182 -178l-180 178l22 22l158 -127l162 127z" />
    <glyph glyph-name="dcaron" unicode="&#x10f;" horiz-adv-x="950" 
d="M391 709q44 0 75.5 -11.5t51.5 -23.5q7 131 23 232.5t37.5 177t46.5 127t51 83t50.5 45t45.5 13.5q45 0 68.5 -38t23.5 -112q0 -39 -8.5 -99.5t-25 -135t-40 -159.5t-54 -171t-66.5 -170t-78 -158q4 -57 12.5 -92t21.5 -54.5t30 -26.5t38 -7q29 0 56 19.5t55 62.5
t58 111.5t65 166.5l39 -10l-58 -149.5t-62.5 -129t-73.5 -90.5t-91 -34q-63 0 -98 37.5t-52 103.5q-58 -85 -124.5 -135.5t-139.5 -50.5q-41 0 -79 15.5t-67 48t-47 83t-18 121.5q0 74 23.5 147t67 131.5t105 95t138.5 36.5zM303 88q56 0 112.5 49.5t108.5 130.5
q-6 47 -8 100t-2 113v75.5t2 72.5q-5 4 -14.5 11t-24 14t-33 11.5t-41.5 4.5q-34 0 -77 -19t-81.5 -61.5t-64.5 -110.5t-26 -166q0 -47 10.5 -88t30 -71.5t47 -48t61.5 -17.5zM825 1202q0 15 -1.5 34t-6.5 35.5t-14.5 28t-26.5 11.5q-41 0 -75.5 -68t-59.5 -187.5
t-39 -280.5t-14 -347v-45q34 67 65 143t57.5 153t47.5 153t36 144.5t23 126.5t8 99zM964 1182q20 15 29.5 32.5t9.5 32.5q-23 0 -39 11.5t-16 37.5q0 20 14.5 35t34.5 15q26 0 40.5 -18t14.5 -46q0 -38 -21 -69.5t-46 -51.5z" />
    <glyph glyph-name="Eth" unicode="&#xd0;" horiz-adv-x="1446" 
d="M152 690h208q11 118 32 211t44.5 162t46 116t37.5 74l29 -6q-7 -32 -17 -82.5t-20 -119.5t-20 -157.5t-17 -197.5h305v-39h-309q-6 -129 -6 -286q0 -103 6 -207.5t18 -210.5q121 13 226 61t191.5 121t153.5 166t113.5 196t70.5 211t24 211q0 136 -42 233t-109 158.5
t-151.5 90t-168.5 28.5q-83 0 -154 -11t-130.5 -29t-108 -40.5t-86.5 -46.5q-90 -56 -148 -127l-33 23q1 2 18.5 23t52.5 51t88.5 64t126 63.5t166 49t208.5 19.5q138 0 247 -36t184.5 -106.5t115.5 -174t40 -238.5q0 -158 -41 -290.5t-110 -240t-159 -189.5t-189 -140.5
t-200 -93t-191 -45.5q3 -19 6 -36t6 -36l-33 -4q-6 16 -13.5 34l-15.5 38q-9 -2 -18 -2h-18q-77 0 -141 19t-109.5 55t-71 88t-25.5 118q0 68 31.5 138.5t91.5 130.5l19 -19q-31 -40 -51.5 -96t-20.5 -119q0 -51 15.5 -100.5t48.5 -88.5t85.5 -63t127.5 -24q6 0 12 1t12 1
q-31 94 -55.5 230t-24.5 316q0 44 0.5 84t3.5 78h-204v39z" />
    <glyph glyph-name="eth" unicode="&#xf0;" horiz-adv-x="618" 
d="M156 967l184 118q-42 65 -87 119.5t-91 98.5l28 32l82 -90.5t105 -136.5l198 129l23 -33l-201 -129q36 -56 70 -123t60 -144.5t41.5 -166t15.5 -186.5q0 -45 -6.5 -94.5t-20.5 -98t-36.5 -93t-55 -78t-75 -53.5t-97.5 -20q-45 0 -87 18t-74.5 55t-51.5 94t-19 134
q0 42 8 89.5t24 94t40 88.5t56 74t72.5 51t88.5 19q42 0 84 -16.5t76 -54.5q-16 103 -55.5 202t-92.5 187l-184 -119zM545 453q0 40 -12.5 83t-37 78.5t-60 58.5t-81.5 23q-48 0 -88 -24t-68.5 -65.5t-44.5 -98t-16 -121.5q0 -68 11 -116.5t28.5 -81.5t39.5 -52.5t44.5 -30
t43 -13.5t34.5 -3q44 0 76.5 18.5t55.5 48.5t37.5 69t23 79t11.5 79t3 69z" />
    <glyph glyph-name="Dcroat" unicode="&#x110;" horiz-adv-x="1446" 
d="M152 690h208q11 118 32 211t44.5 162t46 116t37.5 74l29 -6q-7 -32 -17 -82.5t-20 -119.5t-20 -157.5t-17 -197.5h305v-39h-309q-6 -129 -6 -286q0 -103 6 -207.5t18 -210.5q121 13 226 61t191.5 121t153.5 166t113.5 196t70.5 211t24 211q0 136 -42 233t-109 158.5
t-151.5 90t-168.5 28.5q-83 0 -154 -11t-130.5 -29t-108 -40.5t-86.5 -46.5q-90 -56 -148 -127l-33 23q1 2 18.5 23t52.5 51t88.5 64t126 63.5t166 49t208.5 19.5q138 0 247 -36t184.5 -106.5t115.5 -174t40 -238.5q0 -158 -41 -290.5t-110 -240t-159 -189.5t-189 -140.5
t-200 -93t-191 -45.5q3 -19 6 -36t6 -36l-33 -4q-6 16 -13.5 34l-15.5 38q-9 -2 -18 -2h-18q-77 0 -141 19t-109.5 55t-71 88t-25.5 118q0 68 31.5 138.5t91.5 130.5l19 -19q-31 -40 -51.5 -96t-20.5 -119q0 -51 15.5 -100.5t48.5 -88.5t85.5 -63t127.5 -24q6 0 12 1t12 1
q-31 94 -55.5 230t-24.5 316q0 44 0.5 84t3.5 78h-204v39z" />
    <glyph glyph-name="dcroat" unicode="&#x111;" horiz-adv-x="834" 
d="M373 981h182q21 105 48.5 176.5t57 114.5t58.5 61.5t53 18.5q45 0 68.5 -38t23.5 -112q0 -37 -8 -94.5t-22 -126.5h106v-39h-117q-17 -74 -40 -155.5t-52.5 -164t-64 -162.5t-74.5 -151q4 -57 12.5 -92t21.5 -54.5t30 -26.5t38 -7q29 0 56 19.5t55 62.5t58 111.5
t65 166.5l39 -10l-58 -149.5t-62.5 -129t-73.5 -90.5t-91 -34q-63 0 -98 37.5t-52 103.5q-58 -85 -124.5 -135.5t-139.5 -50.5q-41 0 -79 15.5t-67 48t-47 83t-18 121.5q0 74 23.5 147t67 131.5t105 95t138.5 36.5q44 0 75.5 -11.5t51.5 -23.5q5 78 12.5 144.5t16.5 123.5
h-174v39zM303 88q56 0 112.5 49.5t108.5 130.5q-6 47 -8 100t-2 113v75.5t2 72.5q-5 4 -14.5 11t-24 14t-33 11.5t-41.5 4.5q-34 0 -77 -19t-81.5 -61.5t-64.5 -110.5t-26 -166q0 -47 10.5 -88t30 -71.5t47 -48t61.5 -17.5zM588 383q32 64 61.5 134.5t54.5 143t46 144
t36 137.5h-165q-17 -108 -25 -238t-8 -276v-45zM825 1202q0 15 -1.5 34t-6.5 35.5t-14.5 28t-26.5 11.5q-24 0 -45.5 -23t-40.5 -66t-35 -104t-28 -137h168q14 66 22 122.5t8 98.5z" />
    <glyph glyph-name="Egrave" unicode="&#xc8;" horiz-adv-x="1300" 
d="M346 1049q0 99 38 173.5t100 124t142.5 74.5t166.5 25q94 0 158 -29.5t103 -75t55.5 -100.5t16.5 -106q0 -28 -3 -45t-3 -19l-39 4q1 8 2 18q1 8 1.5 19t0.5 25q0 45 -13.5 93t-46.5 87t-89.5 64.5t-142.5 25.5q-75 0 -139 -25.5t-110 -70t-72 -104t-26 -128.5
t23.5 -126.5t65.5 -100.5q45 15 90 24t92 9q34 0 62.5 -5.5t49.5 -16.5t33 -26.5t12 -35.5q0 -28 -18.5 -44t-44 -24t-53 -10t-45.5 -2q-65 0 -123.5 17.5t-106.5 49.5q-58 -29 -109.5 -73t-89.5 -102.5t-60.5 -130.5t-22.5 -156q0 -82 22.5 -144t59 -106.5t84 -74.5
t97.5 -47.5t98.5 -24.5t88.5 -7q130 0 233 41.5t176 112t114 164.5t47 198l39 -2q-3 -87 -31.5 -164.5t-76.5 -143.5t-112 -118.5t-139 -89.5t-158 -56.5t-168 -19.5q-98 0 -187.5 27.5t-157.5 81.5t-108 133.5t-40 183.5q0 89 29 171.5t78.5 153.5t116.5 127.5t143 94.5
q-48 43 -75.5 101.5t-27.5 130.5zM717 846q-73 0 -148 -23q37 -28 85 -42.5t104 -14.5q37 0 57.5 10.5t20.5 24.5q0 15 -31.5 30t-87.5 15zM674 1732l219 -180l-18 -24l-240 145z" />
    <glyph glyph-name="egrave" unicode="&#xe8;" horiz-adv-x="573" 
d="M313 14q-51 0 -98 18t-82.5 54.5t-56.5 91.5t-21 129q0 90 26 160.5t66.5 119t90.5 74t98 25.5q62 0 98.5 -41t36.5 -106q0 -56 -21 -101.5t-55.5 -78t-79 -50.5t-92.5 -18q-23 0 -43.5 2.5t-36.5 5.5q6 -62 24 -107t45 -74t60.5 -43t69.5 -14q45 0 83 22t70 57.5
t58.5 81.5t47.5 93.5t37.5 93l29.5 80.5l39 -10l-30.5 -80t-40.5 -98.5t-54 -103t-70 -92t-88.5 -66t-110.5 -25.5zM338 647q-37 0 -72.5 -23.5t-63.5 -64.5t-45.5 -97t-17.5 -120q13 -5 36.5 -8.5t57.5 -3.5q36 0 71.5 15.5t64 43t46 65.5t17.5 83q0 22 -6 42t-18 35
t-29.5 24t-40.5 9zM229 996l219 -180l-18 -24l-240 145z" />
    <glyph glyph-name="Eacute" unicode="&#xc9;" horiz-adv-x="1300" 
d="M346 1049q0 99 38 173.5t100 124t142.5 74.5t166.5 25q94 0 158 -29.5t103 -75t55.5 -100.5t16.5 -106q0 -28 -3 -45t-3 -19l-39 4q1 8 2 18q1 8 1.5 19t0.5 25q0 45 -13.5 93t-46.5 87t-89.5 64.5t-142.5 25.5q-75 0 -139 -25.5t-110 -70t-72 -104t-26 -128.5
t23.5 -126.5t65.5 -100.5q45 15 90 24t92 9q34 0 62.5 -5.5t49.5 -16.5t33 -26.5t12 -35.5q0 -28 -18.5 -44t-44 -24t-53 -10t-45.5 -2q-65 0 -123.5 17.5t-106.5 49.5q-58 -29 -109.5 -73t-89.5 -102.5t-60.5 -130.5t-22.5 -156q0 -82 22.5 -144t59 -106.5t84 -74.5
t97.5 -47.5t98.5 -24.5t88.5 -7q130 0 233 41.5t176 112t114 164.5t47 198l39 -2q-3 -87 -31.5 -164.5t-76.5 -143.5t-112 -118.5t-139 -89.5t-158 -56.5t-168 -19.5q-98 0 -187.5 27.5t-157.5 81.5t-108 133.5t-40 183.5q0 89 29 171.5t78.5 153.5t116.5 127.5t143 94.5
q-48 43 -75.5 101.5t-27.5 130.5zM717 846q-73 0 -148 -23q37 -28 85 -42.5t104 -14.5q37 0 57.5 10.5t20.5 24.5q0 15 -31.5 30t-87.5 15zM893 1673l-239 -145l-19 24l219 180z" />
    <glyph glyph-name="eacute" unicode="&#xe9;" horiz-adv-x="573" 
d="M313 14q-51 0 -98 18t-82.5 54.5t-56.5 91.5t-21 129q0 90 26 160.5t66.5 119t90.5 74t98 25.5q62 0 98.5 -41t36.5 -106q0 -56 -21 -101.5t-55.5 -78t-79 -50.5t-92.5 -18q-23 0 -43.5 2.5t-36.5 5.5q6 -62 24 -107t45 -74t60.5 -43t69.5 -14q45 0 83 22t70 57.5
t58.5 81.5t47.5 93.5t37.5 93l29.5 80.5l39 -10l-30.5 -80t-40.5 -98.5t-54 -103t-70 -92t-88.5 -66t-110.5 -25.5zM338 647q-37 0 -72.5 -23.5t-63.5 -64.5t-45.5 -97t-17.5 -120q13 -5 36.5 -8.5t57.5 -3.5q36 0 71.5 15.5t64 43t46 65.5t17.5 83q0 22 -6 42t-18 35
t-29.5 24t-40.5 9zM448 937l-239 -145l-19 24l219 180z" />
    <glyph glyph-name="Ecircumflex" unicode="&#xca;" horiz-adv-x="1300" 
d="M346 1049q0 99 38 173.5t100 124t142.5 74.5t166.5 25q94 0 158 -29.5t103 -75t55.5 -100.5t16.5 -106q0 -28 -3 -45t-3 -19l-39 4q1 8 2 18q1 8 1.5 19t0.5 25q0 45 -13.5 93t-46.5 87t-89.5 64.5t-142.5 25.5q-75 0 -139 -25.5t-110 -70t-72 -104t-26 -128.5
t23.5 -126.5t65.5 -100.5q45 15 90 24t92 9q34 0 62.5 -5.5t49.5 -16.5t33 -26.5t12 -35.5q0 -28 -18.5 -44t-44 -24t-53 -10t-45.5 -2q-65 0 -123.5 17.5t-106.5 49.5q-58 -29 -109.5 -73t-89.5 -102.5t-60.5 -130.5t-22.5 -156q0 -82 22.5 -144t59 -106.5t84 -74.5
t97.5 -47.5t98.5 -24.5t88.5 -7q130 0 233 41.5t176 112t114 164.5t47 198l39 -2q-3 -87 -31.5 -164.5t-76.5 -143.5t-112 -118.5t-139 -89.5t-158 -56.5t-168 -19.5q-98 0 -187.5 27.5t-157.5 81.5t-108 133.5t-40 183.5q0 89 29 171.5t78.5 153.5t116.5 127.5t143 94.5
q-48 43 -75.5 101.5t-27.5 130.5zM717 846q-73 0 -148 -23q37 -28 85 -42.5t104 -14.5q37 0 57.5 10.5t20.5 24.5q0 15 -31.5 30t-87.5 15zM926 1528l-164 127l-158 -127l-20 20l178 180l184 -180z" />
    <glyph glyph-name="ecircumflex" unicode="&#xea;" horiz-adv-x="573" 
d="M313 14q-51 0 -98 18t-82.5 54.5t-56.5 91.5t-21 129q0 90 26 160.5t66.5 119t90.5 74t98 25.5q62 0 98.5 -41t36.5 -106q0 -56 -21 -101.5t-55.5 -78t-79 -50.5t-92.5 -18q-23 0 -43.5 2.5t-36.5 5.5q6 -62 24 -107t45 -74t60.5 -43t69.5 -14q45 0 83 22t70 57.5
t58.5 81.5t47.5 93.5t37.5 93l29.5 80.5l39 -10l-30.5 -80t-40.5 -98.5t-54 -103t-70 -92t-88.5 -66t-110.5 -25.5zM338 647q-37 0 -72.5 -23.5t-63.5 -64.5t-45.5 -97t-17.5 -120q13 -5 36.5 -8.5t57.5 -3.5q36 0 71.5 15.5t64 43t46 65.5t17.5 83q0 22 -6 42t-18 35
t-29.5 24t-40.5 9zM481 792l-164 127l-158 -127l-20 20l178 180l184 -180z" />
    <glyph glyph-name="Edieresis" unicode="&#xcb;" horiz-adv-x="1300" 
d="M346 1049q0 99 38 173.5t100 124t142.5 74.5t166.5 25q94 0 158 -29.5t103 -75t55.5 -100.5t16.5 -106q0 -28 -3 -45t-3 -19l-39 4q1 8 2 18q1 8 1.5 19t0.5 25q0 45 -13.5 93t-46.5 87t-89.5 64.5t-142.5 25.5q-75 0 -139 -25.5t-110 -70t-72 -104t-26 -128.5
t23.5 -126.5t65.5 -100.5q45 15 90 24t92 9q34 0 62.5 -5.5t49.5 -16.5t33 -26.5t12 -35.5q0 -28 -18.5 -44t-44 -24t-53 -10t-45.5 -2q-65 0 -123.5 17.5t-106.5 49.5q-58 -29 -109.5 -73t-89.5 -102.5t-60.5 -130.5t-22.5 -156q0 -82 22.5 -144t59 -106.5t84 -74.5
t97.5 -47.5t98.5 -24.5t88.5 -7q130 0 233 41.5t176 112t114 164.5t47 198l39 -2q-3 -87 -31.5 -164.5t-76.5 -143.5t-112 -118.5t-139 -89.5t-158 -56.5t-168 -19.5q-98 0 -187.5 27.5t-157.5 81.5t-108 133.5t-40 183.5q0 89 29 171.5t78.5 153.5t116.5 127.5t143 94.5
q-48 43 -75.5 101.5t-27.5 130.5zM717 846q-73 0 -148 -23q37 -28 85 -42.5t104 -14.5q37 0 57.5 10.5t20.5 24.5q0 15 -31.5 30t-87.5 15zM619 1603q0 20 12.5 34t32.5 14t33.5 -14t13.5 -34q0 -18 -13.5 -31.5t-33.5 -13.5t-32.5 13.5t-12.5 31.5zM817 1603q0 20 13.5 34
t32.5 14q20 0 33.5 -14t13.5 -34q0 -18 -13.5 -31.5t-33.5 -13.5q-19 0 -32.5 13.5t-13.5 31.5z" />
    <glyph glyph-name="edieresis" unicode="&#xeb;" horiz-adv-x="573" 
d="M313 14q-51 0 -98 18t-82.5 54.5t-56.5 91.5t-21 129q0 90 26 160.5t66.5 119t90.5 74t98 25.5q62 0 98.5 -41t36.5 -106q0 -56 -21 -101.5t-55.5 -78t-79 -50.5t-92.5 -18q-23 0 -43.5 2.5t-36.5 5.5q6 -62 24 -107t45 -74t60.5 -43t69.5 -14q45 0 83 22t70 57.5
t58.5 81.5t47.5 93.5t37.5 93l29.5 80.5l39 -10l-30.5 -80t-40.5 -98.5t-54 -103t-70 -92t-88.5 -66t-110.5 -25.5zM338 647q-37 0 -72.5 -23.5t-63.5 -64.5t-45.5 -97t-17.5 -120q13 -5 36.5 -8.5t57.5 -3.5q36 0 71.5 15.5t64 43t46 65.5t17.5 83q0 22 -6 42t-18 35
t-29.5 24t-40.5 9zM174 867q0 20 12.5 34t32.5 14t33.5 -14t13.5 -34q0 -18 -13.5 -31.5t-33.5 -13.5t-32.5 13.5t-12.5 31.5zM372 867q0 20 13.5 34t32.5 14q20 0 33.5 -14t13.5 -34q0 -18 -13.5 -31.5t-33.5 -13.5q-19 0 -32.5 13.5t-13.5 31.5z" />
    <glyph glyph-name="Emacron" unicode="&#x112;" horiz-adv-x="1300" 
d="M346 1049q0 99 38 173.5t100 124t142.5 74.5t166.5 25q94 0 158 -29.5t103 -75t55.5 -100.5t16.5 -106q0 -28 -3 -45t-3 -19l-39 4q1 8 2 18q1 8 1.5 19t0.5 25q0 45 -13.5 93t-46.5 87t-89.5 64.5t-142.5 25.5q-75 0 -139 -25.5t-110 -70t-72 -104t-26 -128.5
t23.5 -126.5t65.5 -100.5q45 15 90 24t92 9q34 0 62.5 -5.5t49.5 -16.5t33 -26.5t12 -35.5q0 -28 -18.5 -44t-44 -24t-53 -10t-45.5 -2q-65 0 -123.5 17.5t-106.5 49.5q-58 -29 -109.5 -73t-89.5 -102.5t-60.5 -130.5t-22.5 -156q0 -82 22.5 -144t59 -106.5t84 -74.5
t97.5 -47.5t98.5 -24.5t88.5 -7q130 0 233 41.5t176 112t114 164.5t47 198l39 -2q-3 -87 -31.5 -164.5t-76.5 -143.5t-112 -118.5t-139 -89.5t-158 -56.5t-168 -19.5q-98 0 -187.5 27.5t-157.5 81.5t-108 133.5t-40 183.5q0 89 29 171.5t78.5 153.5t116.5 127.5t143 94.5
q-48 43 -75.5 101.5t-27.5 130.5zM717 846q-73 0 -148 -23q37 -28 85 -42.5t104 -14.5q37 0 57.5 10.5t20.5 24.5q0 15 -31.5 30t-87.5 15zM629 1579v43h270v-43h-270z" />
    <glyph glyph-name="emacron" unicode="&#x113;" horiz-adv-x="573" 
d="M313 14q-51 0 -98 18t-82.5 54.5t-56.5 91.5t-21 129q0 90 26 160.5t66.5 119t90.5 74t98 25.5q62 0 98.5 -41t36.5 -106q0 -56 -21 -101.5t-55.5 -78t-79 -50.5t-92.5 -18q-23 0 -43.5 2.5t-36.5 5.5q6 -62 24 -107t45 -74t60.5 -43t69.5 -14q45 0 83 22t70 57.5
t58.5 81.5t47.5 93.5t37.5 93l29.5 80.5l39 -10l-30.5 -80t-40.5 -98.5t-54 -103t-70 -92t-88.5 -66t-110.5 -25.5zM338 647q-37 0 -72.5 -23.5t-63.5 -64.5t-45.5 -97t-17.5 -120q13 -5 36.5 -8.5t57.5 -3.5q36 0 71.5 15.5t64 43t46 65.5t17.5 83q0 22 -6 42t-18 35
t-29.5 24t-40.5 9zM184 843v43h270v-43h-270z" />
    <glyph glyph-name="Ebreve" unicode="&#x114;" horiz-adv-x="1300" 
d="M346 1049q0 99 38 173.5t100 124t142.5 74.5t166.5 25q94 0 158 -29.5t103 -75t55.5 -100.5t16.5 -106q0 -28 -3 -45t-3 -19l-39 4q1 8 2 18q1 8 1.5 19t0.5 25q0 45 -13.5 93t-46.5 87t-89.5 64.5t-142.5 25.5q-75 0 -139 -25.5t-110 -70t-72 -104t-26 -128.5
t23.5 -126.5t65.5 -100.5q45 15 90 24t92 9q34 0 62.5 -5.5t49.5 -16.5t33 -26.5t12 -35.5q0 -28 -18.5 -44t-44 -24t-53 -10t-45.5 -2q-65 0 -123.5 17.5t-106.5 49.5q-58 -29 -109.5 -73t-89.5 -102.5t-60.5 -130.5t-22.5 -156q0 -82 22.5 -144t59 -106.5t84 -74.5
t97.5 -47.5t98.5 -24.5t88.5 -7q130 0 233 41.5t176 112t114 164.5t47 198l39 -2q-3 -87 -31.5 -164.5t-76.5 -143.5t-112 -118.5t-139 -89.5t-158 -56.5t-168 -19.5q-98 0 -187.5 27.5t-157.5 81.5t-108 133.5t-40 183.5q0 89 29 171.5t78.5 153.5t116.5 127.5t143 94.5
q-48 43 -75.5 101.5t-27.5 130.5zM717 846q-73 0 -148 -23q37 -28 85 -42.5t104 -14.5q37 0 57.5 10.5t20.5 24.5q0 15 -31.5 30t-87.5 15zM910 1700q0 -23 -7 -48.5t-23.5 -47t-45 -36t-70.5 -14.5q-44 0 -72 16t-43.5 39t-21.5 48t-6 43h31q2 -11 7 -27t17 -31t32.5 -26
t55.5 -11q36 0 58 11t34 26t16.5 31t6.5 27h31z" />
    <glyph glyph-name="ebreve" unicode="&#x115;" horiz-adv-x="573" 
d="M313 14q-51 0 -98 18t-82.5 54.5t-56.5 91.5t-21 129q0 90 26 160.5t66.5 119t90.5 74t98 25.5q62 0 98.5 -41t36.5 -106q0 -56 -21 -101.5t-55.5 -78t-79 -50.5t-92.5 -18q-23 0 -43.5 2.5t-36.5 5.5q6 -62 24 -107t45 -74t60.5 -43t69.5 -14q45 0 83 22t70 57.5
t58.5 81.5t47.5 93.5t37.5 93l29.5 80.5l39 -10l-30.5 -80t-40.5 -98.5t-54 -103t-70 -92t-88.5 -66t-110.5 -25.5zM338 647q-37 0 -72.5 -23.5t-63.5 -64.5t-45.5 -97t-17.5 -120q13 -5 36.5 -8.5t57.5 -3.5q36 0 71.5 15.5t64 43t46 65.5t17.5 83q0 22 -6 42t-18 35
t-29.5 24t-40.5 9zM465 964q0 -23 -7 -48.5t-23.5 -47t-45 -36t-70.5 -14.5q-44 0 -72 16t-43.5 39t-21.5 48t-6 43h31q2 -11 7 -27t17 -31t32.5 -26t55.5 -11q36 0 58 11t34 26t16.5 31t6.5 27h31z" />
    <glyph glyph-name="Edotaccent" unicode="&#x116;" horiz-adv-x="1300" 
d="M346 1049q0 99 38 173.5t100 124t142.5 74.5t166.5 25q94 0 158 -29.5t103 -75t55.5 -100.5t16.5 -106q0 -28 -3 -45t-3 -19l-39 4q1 8 2 18q1 8 1.5 19t0.5 25q0 45 -13.5 93t-46.5 87t-89.5 64.5t-142.5 25.5q-75 0 -139 -25.5t-110 -70t-72 -104t-26 -128.5
t23.5 -126.5t65.5 -100.5q45 15 90 24t92 9q34 0 62.5 -5.5t49.5 -16.5t33 -26.5t12 -35.5q0 -28 -18.5 -44t-44 -24t-53 -10t-45.5 -2q-65 0 -123.5 17.5t-106.5 49.5q-58 -29 -109.5 -73t-89.5 -102.5t-60.5 -130.5t-22.5 -156q0 -82 22.5 -144t59 -106.5t84 -74.5
t97.5 -47.5t98.5 -24.5t88.5 -7q130 0 233 41.5t176 112t114 164.5t47 198l39 -2q-3 -87 -31.5 -164.5t-76.5 -143.5t-112 -118.5t-139 -89.5t-158 -56.5t-168 -19.5q-98 0 -187.5 27.5t-157.5 81.5t-108 133.5t-40 183.5q0 89 29 171.5t78.5 153.5t116.5 127.5t143 94.5
q-48 43 -75.5 101.5t-27.5 130.5zM717 846q-73 0 -148 -23q37 -28 85 -42.5t104 -14.5q37 0 57.5 10.5t20.5 24.5q0 15 -31.5 30t-87.5 15zM715 1608q0 20 14.5 34.5t34.5 14.5t34.5 -14.5t14.5 -34.5t-14.5 -35t-34.5 -15t-34.5 15t-14.5 35z" />
    <glyph glyph-name="edotaccent" unicode="&#x117;" horiz-adv-x="573" 
d="M313 14q-51 0 -98 18t-82.5 54.5t-56.5 91.5t-21 129q0 90 26 160.5t66.5 119t90.5 74t98 25.5q62 0 98.5 -41t36.5 -106q0 -56 -21 -101.5t-55.5 -78t-79 -50.5t-92.5 -18q-23 0 -43.5 2.5t-36.5 5.5q6 -62 24 -107t45 -74t60.5 -43t69.5 -14q45 0 83 22t70 57.5
t58.5 81.5t47.5 93.5t37.5 93l29.5 80.5l39 -10l-30.5 -80t-40.5 -98.5t-54 -103t-70 -92t-88.5 -66t-110.5 -25.5zM338 647q-37 0 -72.5 -23.5t-63.5 -64.5t-45.5 -97t-17.5 -120q13 -5 36.5 -8.5t57.5 -3.5q36 0 71.5 15.5t64 43t46 65.5t17.5 83q0 22 -6 42t-18 35
t-29.5 24t-40.5 9zM270 872q0 20 14.5 34.5t34.5 14.5t34.5 -14.5t14.5 -34.5t-14.5 -35t-34.5 -15t-34.5 15t-14.5 35z" />
    <glyph glyph-name="Eogonek" unicode="&#x118;" horiz-adv-x="1300" 
d="M999 -285q-24 -15 -59 -31t-76 -16q-19 0 -38.5 4t-35 14.5t-25 28.5t-9.5 45q0 41 29 76t75 66q-31 -12 -61 -22.5t-63.5 -18.5t-72.5 -12.5t-88 -4.5q-98 0 -187.5 27.5t-157.5 81.5t-108 133.5t-40 183.5q0 89 29 171.5t78.5 153.5t116.5 127.5t143 94.5
q-48 43 -75.5 101.5t-27.5 130.5q0 99 38 173.5t100 124t142.5 74.5t166.5 25q94 0 158 -29.5t103 -75t55.5 -100.5t16.5 -106q0 -28 -3 -45t-3 -19l-39 4q1 8 2 18q1 8 1.5 19t0.5 25q0 45 -13.5 93t-46.5 87t-89.5 64.5t-142.5 25.5q-75 0 -139 -25.5t-110 -70t-72 -104
t-26 -128.5t23.5 -126.5t65.5 -100.5q45 15 90 24t92 9q34 0 62.5 -5.5t49.5 -16.5t33 -26.5t12 -35.5q0 -28 -18.5 -44t-44 -24t-53 -10t-45.5 -2q-65 0 -123.5 17.5t-106.5 49.5q-58 -29 -109.5 -73t-89.5 -102.5t-60.5 -130.5t-22.5 -156q0 -82 22.5 -144t59 -106.5
t84 -74.5t97.5 -47.5t98.5 -24.5t88.5 -7q130 0 233 41.5t176 112t114 164.5t47 198l39 -2q-3 -85 -27.5 -157t-65.5 -133t-98 -113.5t-125 -98.5q-18 -11 -40.5 -29.5t-42.5 -40.5t-34 -45t-14 -44q0 -18 6 -30t15.5 -19.5t21 -11t23.5 -3.5q34 0 66 10.5t44 18.5zM717 846
q-73 0 -148 -23q37 -28 85 -42.5t104 -14.5q37 0 57.5 10.5t20.5 24.5q0 15 -31.5 30t-87.5 15z" />
    <glyph glyph-name="eogonek" unicode="&#x119;" horiz-adv-x="573" 
d="M578 -125q-25 -15 -60 -31t-76 -16q-19 0 -38.5 4t-35 14.5t-25 28t-9.5 45.5q0 29 18.5 58t38.5 49q-20 -8 -39.5 -10.5t-38.5 -2.5q-51 0 -98 18t-82.5 54.5t-56.5 91.5t-21 129q0 90 26 160.5t66.5 119t90.5 74t98 25.5q62 0 98.5 -41t36.5 -106q0 -56 -21 -101.5
t-55.5 -78t-79 -50.5t-92.5 -18q-23 0 -43.5 2.5t-36.5 5.5q6 -62 24 -107t45 -74t60.5 -43t69.5 -14q45 0 83 22t70 57.5t58.5 81.5t47.5 93.5t37.5 93l29.5 80.5l39 -10l-33 -86t-44.5 -106.5t-59 -108.5t-76.5 -90q-16 -14 -34 -32t-33.5 -38t-25.5 -41.5t-10 -42.5
q0 -18 6 -30t15.5 -19.5t21 -10.5t23.5 -3q17 0 34 3t32 7.5t26.5 9.5t17.5 9zM338 647q-37 0 -72.5 -23.5t-63.5 -64.5t-45.5 -97t-17.5 -120q13 -5 36.5 -8.5t57.5 -3.5q36 0 71.5 15.5t64 43t46 65.5t17.5 83q0 22 -6 42t-18 35t-29.5 24t-40.5 9z" />
    <glyph glyph-name="Ecaron" unicode="&#x11a;" horiz-adv-x="1300" 
d="M346 1049q0 99 38 173.5t100 124t142.5 74.5t166.5 25q94 0 158 -29.5t103 -75t55.5 -100.5t16.5 -106q0 -28 -3 -45t-3 -19l-39 4q1 8 2 18q1 8 1.5 19t0.5 25q0 45 -13.5 93t-46.5 87t-89.5 64.5t-142.5 25.5q-75 0 -139 -25.5t-110 -70t-72 -104t-26 -128.5
t23.5 -126.5t65.5 -100.5q45 15 90 24t92 9q34 0 62.5 -5.5t49.5 -16.5t33 -26.5t12 -35.5q0 -28 -18.5 -44t-44 -24t-53 -10t-45.5 -2q-65 0 -123.5 17.5t-106.5 49.5q-58 -29 -109.5 -73t-89.5 -102.5t-60.5 -130.5t-22.5 -156q0 -82 22.5 -144t59 -106.5t84 -74.5
t97.5 -47.5t98.5 -24.5t88.5 -7q130 0 233 41.5t176 112t114 164.5t47 198l39 -2q-3 -87 -31.5 -164.5t-76.5 -143.5t-112 -118.5t-139 -89.5t-158 -56.5t-168 -19.5q-98 0 -187.5 27.5t-157.5 81.5t-108 133.5t-40 183.5q0 89 29 171.5t78.5 153.5t116.5 127.5t143 94.5
q-48 43 -75.5 101.5t-27.5 130.5zM717 846q-73 0 -148 -23q37 -28 85 -42.5t104 -14.5q37 0 57.5 10.5t20.5 24.5q0 15 -31.5 30t-87.5 15zM946 1706l-182 -178l-180 178l22 22l158 -127l162 127z" />
    <glyph glyph-name="ecaron" unicode="&#x11b;" horiz-adv-x="573" 
d="M313 14q-51 0 -98 18t-82.5 54.5t-56.5 91.5t-21 129q0 90 26 160.5t66.5 119t90.5 74t98 25.5q62 0 98.5 -41t36.5 -106q0 -56 -21 -101.5t-55.5 -78t-79 -50.5t-92.5 -18q-23 0 -43.5 2.5t-36.5 5.5q6 -62 24 -107t45 -74t60.5 -43t69.5 -14q45 0 83 22t70 57.5
t58.5 81.5t47.5 93.5t37.5 93l29.5 80.5l39 -10l-30.5 -80t-40.5 -98.5t-54 -103t-70 -92t-88.5 -66t-110.5 -25.5zM338 647q-37 0 -72.5 -23.5t-63.5 -64.5t-45.5 -97t-17.5 -120q13 -5 36.5 -8.5t57.5 -3.5q36 0 71.5 15.5t64 43t46 65.5t17.5 83q0 22 -6 42t-18 35
t-29.5 24t-40.5 9zM501 970l-182 -178l-180 178l22 22l158 -127l162 127z" />
    <glyph glyph-name="Gcircumflex" unicode="&#x11c;" horiz-adv-x="1315" 
d="M477 -2q-188 0 -287.5 98.5t-99.5 304.5q0 79 23 163t64 166.5t97.5 161t124 149t143 129.5t155 101.5t160 66.5t157.5 24q54 0 98 -14t75.5 -40t48.5 -64.5t17 -86.5t-17 -97t-46.5 -95.5t-70 -87.5t-87.5 -71.5t-99.5 -48.5t-105.5 -18q-94 0 -147 48t-53 128
q0 39 9 67.5t20.5 48.5t23 32t16.5 20l27 -28q-1 -1 -10 -9t-19.5 -25t-19 -43.5t-8.5 -62.5q0 -27 9.5 -51.5t29.5 -43t50.5 -29.5t71.5 -11q73 0 142.5 34.5t124 89.5t87.5 122.5t33 132.5q0 81 -51.5 121.5t-150.5 40.5q-111 0 -213 -40t-190.5 -109t-161 -160
t-124 -192.5t-80 -208t-28.5 -205.5q0 -96 27 -162t72.5 -106.5t105.5 -58.5t127 -18q54 0 112 17t115.5 47.5t111.5 72.5t101 91q2 115 19.5 197.5t42.5 135t53.5 77t52.5 24.5q7 0 16 -2.5t17.5 -9.5t14 -19.5t5.5 -32.5q0 -38 -12 -81.5t-34 -90t-53.5 -94.5t-70.5 -94
q4 -59 12 -109l15.5 -95t13.5 -87.5t6 -85.5q0 -80 -20.5 -159t-70.5 -142t-134.5 -102t-212.5 -39q-56 0 -98 17.5t-70.5 45.5t-42.5 63.5t-14 71.5q0 35 8.5 68.5t29.5 60.5t55.5 45t86.5 21l4 -39q-41 -2 -68.5 -15t-44.5 -34.5t-24.5 -49t-7.5 -57.5q0 -20 8 -47.5
t28.5 -52t56 -42t91.5 -17.5q72 0 125.5 23.5t92 64.5t63.5 96.5t39.5 119.5t20 134t5.5 139q0 34 -2 69.5t-2 74.5q-51 -51 -109.5 -95t-123.5 -77t-135 -51.5t-142 -18.5zM1036 346q60 74 96.5 155t36.5 158q0 23 -14 23q-15 0 -35.5 -26.5t-39 -69.5t-31.5 -97.5
t-13 -109.5v-33zM1178 1446l-164 127l-158 -127l-20 20l178 180l184 -180z" />
    <glyph glyph-name="gcircumflex" unicode="&#x11d;" horiz-adv-x="686" 
d="M268 -473q-58 0 -102.5 17t-74.5 46.5t-45 70t-15 87.5q0 42 15 79t40.5 64t59 42.5t69.5 15.5q35 0 68.5 -19.5t64.5 -54.5l-33 -25q-23 29 -49.5 43.5t-52.5 14.5q-29 0 -54.5 -12.5t-45.5 -33.5t-31.5 -49t-11.5 -59q0 -40 12 -74t37 -59.5t62 -40t87 -14.5
q69 0 117 32.5t78 84.5t43.5 117.5t13.5 131.5v156v76q-43 -59 -107.5 -96t-152.5 -37q-38 0 -76 12.5t-68.5 42.5t-49.5 81t-19 128q0 53 14.5 106.5t40.5 103.5t62 94t79 76.5t91.5 51t99.5 18.5q32 0 57.5 -10t45 -26t34 -35.5t23.5 -38.5q14 40 25.5 66.5t19.5 41.5
l37 -18q-3 -6 -15.5 -41t-26.5 -98t-25 -153t-11 -206q0 -26 0.5 -57t0.5 -63t0.5 -63t0.5 -56q0 -138 -30 -227.5t-77.5 -141.5t-107 -72t-117.5 -20zM326 92q34 0 63.5 11t54 29.5t45 44t35.5 54.5q6 118 21.5 204.5t32.5 148.5q-7 24 -19 46t-29.5 39t-41 27.5
t-54.5 10.5q-38 0 -89 -24.5t-97 -74t-77.5 -123.5t-31.5 -172q0 -48 11 -89t34 -70t58.5 -45.5t83.5 -16.5zM584 848l-164 127l-158 -127l-20 20l178 180l184 -180z" />
    <glyph glyph-name="Gbreve" unicode="&#x11e;" horiz-adv-x="1315" 
d="M477 -2q-188 0 -287.5 98.5t-99.5 304.5q0 79 23 163t64 166.5t97.5 161t124 149t143 129.5t155 101.5t160 66.5t157.5 24q54 0 98 -14t75.5 -40t48.5 -64.5t17 -86.5t-17 -97t-46.5 -95.5t-70 -87.5t-87.5 -71.5t-99.5 -48.5t-105.5 -18q-94 0 -147 48t-53 128
q0 39 9 67.5t20.5 48.5t23 32t16.5 20l27 -28q-1 -1 -10 -9t-19.5 -25t-19 -43.5t-8.5 -62.5q0 -27 9.5 -51.5t29.5 -43t50.5 -29.5t71.5 -11q73 0 142.5 34.5t124 89.5t87.5 122.5t33 132.5q0 81 -51.5 121.5t-150.5 40.5q-111 0 -213 -40t-190.5 -109t-161 -160
t-124 -192.5t-80 -208t-28.5 -205.5q0 -96 27 -162t72.5 -106.5t105.5 -58.5t127 -18q54 0 112 17t115.5 47.5t111.5 72.5t101 91q2 115 19.5 197.5t42.5 135t53.5 77t52.5 24.5q7 0 16 -2.5t17.5 -9.5t14 -19.5t5.5 -32.5q0 -38 -12 -81.5t-34 -90t-53.5 -94.5t-70.5 -94
q4 -59 12 -109l15.5 -95t13.5 -87.5t6 -85.5q0 -80 -20.5 -159t-70.5 -142t-134.5 -102t-212.5 -39q-56 0 -98 17.5t-70.5 45.5t-42.5 63.5t-14 71.5q0 35 8.5 68.5t29.5 60.5t55.5 45t86.5 21l4 -39q-41 -2 -68.5 -15t-44.5 -34.5t-24.5 -49t-7.5 -57.5q0 -20 8 -47.5
t28.5 -52t56 -42t91.5 -17.5q72 0 125.5 23.5t92 64.5t63.5 96.5t39.5 119.5t20 134t5.5 139q0 34 -2 69.5t-2 74.5q-51 -51 -109.5 -95t-123.5 -77t-135 -51.5t-142 -18.5zM1036 346q60 74 96.5 155t36.5 158q0 23 -14 23q-15 0 -35.5 -26.5t-39 -69.5t-31.5 -97.5
t-13 -109.5v-33zM1162 1618q0 -23 -7 -48.5t-23.5 -47t-45 -36t-70.5 -14.5q-44 0 -72 16t-43.5 39t-21.5 48t-6 43h31q2 -11 7 -27t17 -31t32.5 -26t55.5 -11q36 0 58 11t34 26t16.5 31t6.5 27h31z" />
    <glyph glyph-name="gbreve" unicode="&#x11f;" horiz-adv-x="686" 
d="M268 -473q-58 0 -102.5 17t-74.5 46.5t-45 70t-15 87.5q0 42 15 79t40.5 64t59 42.5t69.5 15.5q35 0 68.5 -19.5t64.5 -54.5l-33 -25q-23 29 -49.5 43.5t-52.5 14.5q-29 0 -54.5 -12.5t-45.5 -33.5t-31.5 -49t-11.5 -59q0 -40 12 -74t37 -59.5t62 -40t87 -14.5
q69 0 117 32.5t78 84.5t43.5 117.5t13.5 131.5v156v76q-43 -59 -107.5 -96t-152.5 -37q-38 0 -76 12.5t-68.5 42.5t-49.5 81t-19 128q0 53 14.5 106.5t40.5 103.5t62 94t79 76.5t91.5 51t99.5 18.5q32 0 57.5 -10t45 -26t34 -35.5t23.5 -38.5q14 40 25.5 66.5t19.5 41.5
l37 -18q-3 -6 -15.5 -41t-26.5 -98t-25 -153t-11 -206q0 -26 0.5 -57t0.5 -63t0.5 -63t0.5 -56q0 -138 -30 -227.5t-77.5 -141.5t-107 -72t-117.5 -20zM326 92q34 0 63.5 11t54 29.5t45 44t35.5 54.5q6 118 21.5 204.5t32.5 148.5q-7 24 -19 46t-29.5 39t-41 27.5
t-54.5 10.5q-38 0 -89 -24.5t-97 -74t-77.5 -123.5t-31.5 -172q0 -48 11 -89t34 -70t58.5 -45.5t83.5 -16.5zM568 1020q0 -23 -7 -48.5t-23.5 -47t-45 -36t-70.5 -14.5q-44 0 -72 16t-43.5 39t-21.5 48t-6 43h31q2 -11 7 -27t17 -31t32.5 -26t55.5 -11q36 0 58 11t34 26
t16.5 31t6.5 27h31z" />
    <glyph glyph-name="Gdotaccent" unicode="&#x120;" horiz-adv-x="1315" 
d="M477 -2q-188 0 -287.5 98.5t-99.5 304.5q0 79 23 163t64 166.5t97.5 161t124 149t143 129.5t155 101.5t160 66.5t157.5 24q54 0 98 -14t75.5 -40t48.5 -64.5t17 -86.5t-17 -97t-46.5 -95.5t-70 -87.5t-87.5 -71.5t-99.5 -48.5t-105.5 -18q-94 0 -147 48t-53 128
q0 39 9 67.5t20.5 48.5t23 32t16.5 20l27 -28q-1 -1 -10 -9t-19.5 -25t-19 -43.5t-8.5 -62.5q0 -27 9.5 -51.5t29.5 -43t50.5 -29.5t71.5 -11q73 0 142.5 34.5t124 89.5t87.5 122.5t33 132.5q0 81 -51.5 121.5t-150.5 40.5q-111 0 -213 -40t-190.5 -109t-161 -160
t-124 -192.5t-80 -208t-28.5 -205.5q0 -96 27 -162t72.5 -106.5t105.5 -58.5t127 -18q54 0 112 17t115.5 47.5t111.5 72.5t101 91q2 115 19.5 197.5t42.5 135t53.5 77t52.5 24.5q7 0 16 -2.5t17.5 -9.5t14 -19.5t5.5 -32.5q0 -38 -12 -81.5t-34 -90t-53.5 -94.5t-70.5 -94
q4 -59 12 -109l15.5 -95t13.5 -87.5t6 -85.5q0 -80 -20.5 -159t-70.5 -142t-134.5 -102t-212.5 -39q-56 0 -98 17.5t-70.5 45.5t-42.5 63.5t-14 71.5q0 35 8.5 68.5t29.5 60.5t55.5 45t86.5 21l4 -39q-41 -2 -68.5 -15t-44.5 -34.5t-24.5 -49t-7.5 -57.5q0 -20 8 -47.5
t28.5 -52t56 -42t91.5 -17.5q72 0 125.5 23.5t92 64.5t63.5 96.5t39.5 119.5t20 134t5.5 139q0 34 -2 69.5t-2 74.5q-51 -51 -109.5 -95t-123.5 -77t-135 -51.5t-142 -18.5zM1036 346q60 74 96.5 155t36.5 158q0 23 -14 23q-15 0 -35.5 -26.5t-39 -69.5t-31.5 -97.5
t-13 -109.5v-33zM967 1526q0 20 14.5 34.5t34.5 14.5t34.5 -14.5t14.5 -34.5t-14.5 -35t-34.5 -15t-34.5 15t-14.5 35z" />
    <glyph glyph-name="gdotaccent" unicode="&#x121;" horiz-adv-x="686" 
d="M268 -473q-58 0 -102.5 17t-74.5 46.5t-45 70t-15 87.5q0 42 15 79t40.5 64t59 42.5t69.5 15.5q35 0 68.5 -19.5t64.5 -54.5l-33 -25q-23 29 -49.5 43.5t-52.5 14.5q-29 0 -54.5 -12.5t-45.5 -33.5t-31.5 -49t-11.5 -59q0 -40 12 -74t37 -59.5t62 -40t87 -14.5
q69 0 117 32.5t78 84.5t43.5 117.5t13.5 131.5v156v76q-43 -59 -107.5 -96t-152.5 -37q-38 0 -76 12.5t-68.5 42.5t-49.5 81t-19 128q0 53 14.5 106.5t40.5 103.5t62 94t79 76.5t91.5 51t99.5 18.5q32 0 57.5 -10t45 -26t34 -35.5t23.5 -38.5q14 40 25.5 66.5t19.5 41.5
l37 -18q-3 -6 -15.5 -41t-26.5 -98t-25 -153t-11 -206q0 -26 0.5 -57t0.5 -63t0.5 -63t0.5 -56q0 -138 -30 -227.5t-77.5 -141.5t-107 -72t-117.5 -20zM326 92q34 0 63.5 11t54 29.5t45 44t35.5 54.5q6 118 21.5 204.5t32.5 148.5q-7 24 -19 46t-29.5 39t-41 27.5
t-54.5 10.5q-38 0 -89 -24.5t-97 -74t-77.5 -123.5t-31.5 -172q0 -48 11 -89t34 -70t58.5 -45.5t83.5 -16.5zM373 928q0 20 14.5 34.5t34.5 14.5t34.5 -14.5t14.5 -34.5t-14.5 -35t-34.5 -15t-34.5 15t-14.5 35z" />
    <glyph glyph-name="Gcommaaccent" unicode="&#x122;" horiz-adv-x="1315" 
d="M559 -467q17 -6 38.5 -10t47.5 -4q72 0 125.5 23.5t92 64.5t63.5 96.5t39.5 119.5t20 134t5.5 139q0 37 -2 76t-2 82q0 124 16.5 213t42 146t54.5 83.5t55 26.5q7 0 16 -2.5t17.5 -9.5t14 -19.5t5.5 -32.5q0 -57 -27 -128.5t-76 -145t-116.5 -143t-149 -124t-173.5 -87.5
t-189 -33q-188 0 -287.5 98.5t-99.5 304.5q0 79 23 163t64 166.5t97.5 161t124 149t143 129.5t155 101.5t160 66.5t157.5 24q54 0 98 -14t75.5 -40t48.5 -64.5t17 -86.5t-17 -97t-46.5 -95.5t-70 -87.5t-87.5 -71.5t-99.5 -48.5t-105.5 -18q-94 0 -147 48t-53 128
q0 39 9 67.5t20.5 48.5t23 32t16.5 20l27 -28q-1 -1 -10 -9t-19.5 -25t-19 -43.5t-8.5 -62.5q0 -27 9.5 -51.5t29.5 -43t50.5 -29.5t71.5 -11q73 0 142.5 34.5t124 89.5t87.5 122.5t33 132.5q0 81 -51.5 121.5t-150.5 40.5q-111 0 -213 -40t-190.5 -109t-161 -160
t-124 -192.5t-80 -208t-28.5 -205.5q0 -96 27 -162t72.5 -106.5t105.5 -58.5t127 -18t139.5 26t141.5 70.5t131 104t108.5 126t74 136.5t27.5 135q0 23 -14 23q-15 0 -35.5 -26.5t-39 -69.5t-31.5 -97.5t-13 -109.5q0 -75 7.5 -137.5t17 -116.5t17 -103.5t7.5 -99.5
q0 -80 -20.5 -159t-70.5 -142t-134.5 -102t-212.5 -39q-28 0 -52 5t-46 13zM510 -303q20 15 29.5 32.5t9.5 32.5q-23 0 -39 12t-16 38q0 20 14.5 34.5t34.5 14.5q26 0 40.5 -18t14.5 -46q0 -38 -21.5 -69.5t-46.5 -51.5z" />
    <glyph glyph-name="gcommaaccent" unicode="&#x123;" horiz-adv-x="686" 
d="M268 -473q-58 0 -102.5 17t-74.5 46.5t-45 70t-15 87.5q0 42 15 79t40.5 64t59 42.5t69.5 15.5q35 0 68.5 -19.5t64.5 -54.5l-33 -25q-23 29 -49.5 43.5t-52.5 14.5q-29 0 -54.5 -12.5t-45.5 -33.5t-31.5 -49t-11.5 -59q0 -40 12 -74t37 -59.5t62 -40t87 -14.5
q69 0 117 32.5t78 84.5t43.5 117.5t13.5 131.5v232q-43 -59 -107.5 -96t-152.5 -37q-38 0 -76 12.5t-68.5 42.5t-49.5 81t-19 128q0 53 14.5 106.5t40.5 103.5t62 94t79 76.5t91.5 51t99.5 18.5q32 0 57.5 -10t45 -26t34 -35.5t23.5 -38.5q14 40 25.5 66.5t19.5 41.5l37 -18
q-3 -6 -15.5 -41t-26.5 -98t-25 -153t-11 -206q0 -26 0.5 -57t0.5 -63t0.5 -63t0.5 -56q0 -138 -30 -227.5t-77.5 -141.5t-107 -72t-117.5 -20zM326 92q34 0 63.5 11t54 29.5t45 44t35.5 54.5q6 118 21.5 204.5t32.5 148.5q-7 24 -19 46t-29.5 39t-41 27.5t-54.5 10.5
q-38 0 -89 -24.5t-97 -74t-77.5 -123.5t-31.5 -172q0 -48 11 -89t34 -70t58.5 -45.5t83.5 -16.5zM471 1012q-20 -16 -29.5 -33t-9.5 -33q23 0 39 -11.5t16 -37.5q0 -20 -14.5 -34.5t-34.5 -14.5q-26 0 -40.5 17.5t-14.5 45.5q0 39 21.5 70t46.5 51z" />
    <glyph glyph-name="Hcircumflex" unicode="&#x124;" horiz-adv-x="1556" 
d="M289 481q1 1 15 8t39 17.5t61 22.5t83 24q-5 75 -6.5 150.5t-1.5 144.5q0 143 19.5 251.5t50.5 188.5h-4q-110 -15 -197 -31t-155 -41.5t-118.5 -63.5t-86.5 -97l-37 14q44 78 109 122.5t143 70.5t166 39t178 28q5 0 10 1t10 3q36 75 77.5 124.5t81 79t72 41t50.5 11.5
q38 0 58 -21.5t20 -45.5q0 -45 -27.5 -80t-69.5 -61t-91.5 -44.5t-94.5 -29.5q-25 -68 -39 -152t-14 -180q0 -91 6 -191.5t14 -205.5q41 5 86.5 8.5t96.5 3.5q26 0 68.5 -1.5t87.5 -3.5t85 -3.5t62 -1.5q37 0 70.5 1t62.5 3q2 207 55 397.5t146 376.5l32 -15q-1 -1 -10 -30
t-22.5 -79.5t-29.5 -120t-29.5 -151.5t-22.5 -174t-9 -188v-8q44 5 75 11t50.5 11.5t28.5 9t10 3.5l13 -37q-5 -3 -47.5 -15.5t-129.5 -23.5q1 -46 4 -102t7.5 -115t11.5 -118.5t16 -113t21 -97t26 -71.5l-30 -16q0 -1 -11.5 18t-29.5 56t-39 91t-39.5 123.5t-31.5 153.5
t-15 181q-34 -3 -70.5 -3.5t-77.5 -0.5q-24 0 -56 1.5t-66.5 3.5t-69 3.5t-62.5 1.5q-60 0 -113 -4t-100 -11q7 -86 11 -169.5t4 -163.5q0 -95 -9 -182t-30.5 -163t-57.5 -138t-90 -106.5t-128 -68.5t-171 -24q-106 0 -202.5 41t-165.5 118l28 27q65 -71 153 -109t185 -38
q77 0 135 21.5t99.5 59t68.5 88.5t42.5 111.5t21.5 127t6 134.5q0 22 -2.5 63l-6 95l-8 118.5t-8.5 133.5q-46 -11 -81 -22.5t-58 -21.5q-27 -11 -47 -22zM854 1550q-50 0 -101 -52t-91 -146q43 12 84 28t72 36t50 45t19 55q0 12 -9 23t-24 11zM1241 1659l-164 127
l-158 -127l-20 20l178 180l184 -180z" />
    <glyph glyph-name="hcircumflex" unicode="&#x125;" horiz-adv-x="758" 
d="M426 1128q0 -63 -21.5 -141t-58.5 -170t-86.5 -197.5l-105.5 -222.5q-5 -48 -8.5 -96.5t-6.5 -97.5q13 33 32.5 76.5t44 90t53.5 91.5t61.5 80.5t69 57.5t75.5 22q27 0 49 -10t37.5 -28t24 -42t8.5 -52q0 -36 -9.5 -77.5t-21.5 -84.5t-21.5 -86t-9.5 -81q0 -31 15 -52.5
t55 -21.5q28 0 55 23t52 59.5t46.5 82t40 90.5t33 84.5l23.5 63.5l39 -10l-35 -95t-38.5 -99.5t-44.5 -94.5t-52.5 -79.5t-62.5 -55t-76 -20.5q-38 0 -63 11t-39.5 30t-20.5 45.5t-6 58.5q0 34 10 77.5t22.5 90t22.5 93t10 85.5q0 22 -10.5 39t-36.5 17q-41 0 -79 -29.5
t-72 -76.5t-64 -106t-55 -117.5t-44.5 -111.5l-33.5 -88l-39 6q0 5 -0.5 13.5t-0.5 23.5t-0.5 37.5t-0.5 54.5q0 94 5 248t24 369q8 105 24 179.5t36 125t42.5 80.5t43.5 45.5t39 20t30 4.5q46 0 73 -36t27 -96zM328 1219q-26 0 -46.5 -25.5t-37 -72t-28.5 -111.5
t-22 -144.5t-17.5 -171t-14.5 -190.5q47 90 87.5 178.5t70.5 169.5t47.5 151.5t17.5 124.5q0 16 -2.5 32.5t-9 29.5t-17.5 21t-28 8zM492 1342l-164 127l-158 -127l-20 20l178 180l184 -180z" />
    <glyph glyph-name="Hbar" unicode="&#x126;" horiz-adv-x="1556" 
d="M926 1522q0 -45 -27.5 -80t-69.5 -61t-91.5 -44.5t-94.5 -29.5q-25 -68 -39 -152t-14 -180v-47.5t2 -48.5h668q24 125 67.5 243t102.5 236l32 -15q-1 -2 -12.5 -38t-28 -98t-34 -146.5t-29.5 -181.5h139v-39h-143q-8 -59 -11.5 -118.5t-3.5 -121.5v-8q44 5 75 11
t50.5 11.5t28.5 9t10 3.5l13 -37q-5 -3 -47.5 -15.5t-129.5 -23.5q1 -46 4 -102t7.5 -115t11.5 -118.5t16 -113t21 -97t26 -71.5l-30 -16q0 -1 -11.5 18t-29.5 56t-39 91t-39.5 123.5t-31.5 153.5t-15 181q-34 -3 -70.5 -3.5t-77.5 -0.5q-24 0 -56 1.5t-66.5 3.5t-69 3.5
t-62.5 1.5q-60 0 -113 -4t-100 -11q7 -86 11 -169.5t4 -163.5q0 -95 -9 -182t-30.5 -163t-57.5 -138t-90 -106.5t-128 -68.5t-171 -24q-106 0 -202.5 41t-165.5 118l28 27q65 -71 153 -109t185 -38q77 0 135 21.5t99.5 59t68.5 88.5t42.5 111.5t21.5 127t6 134.5
q0 22 -2.5 63l-6 95l-8 118.5t-8.5 133.5q-46 -11 -81 -22.5t-58 -21.5q-27 -11 -47 -22l-14 39q1 1 15 8t39 17.5t61 22.5t83 24q-5 74 -6.5 146.5t-1.5 140.5h-168v39h168q3 131 22 232.5t48 176.5h-4q-110 -15 -197 -31t-155 -41.5t-118.5 -63.5t-86.5 -97l-37 14
q44 78 109 122.5t143 70.5t166 39t178 28q5 0 10 1t10 3q36 75 77.5 124.5t81 79t72 41t50.5 11.5q38 0 58 -21.5t20 -45.5zM592 840q3 -63 8 -128.5l10 -133.5q41 5 86.5 8.5t96.5 3.5q26 0 68.5 -1.5t87.5 -3.5t85 -3.5t62 -1.5q37 0 70.5 1t62.5 3q0 65 5.5 129t16.5 127
h-659zM854 1550q-50 0 -101 -52t-91 -146q43 12 84 28t72 36t50 45t19 55q0 12 -9 23t-24 11z" />
    <glyph glyph-name="hbar" unicode="&#x127;" horiz-adv-x="758" 
d="M-4 981h137q20 95 47 150.5t54.5 84t52 36.5t39.5 8q46 0 73 -36t27 -96q0 -66 -23 -147h160v-39h-172q-35 -112 -97.5 -248l-139.5 -297q-5 -48 -8.5 -96.5t-6.5 -97.5q13 33 32.5 76.5t44 90t53.5 91.5t61.5 80.5t69 57.5t75.5 22q27 0 49 -10t37.5 -28t24 -42t8.5 -52
q0 -36 -9.5 -77.5t-21.5 -84.5t-21.5 -86t-9.5 -81q0 -31 15 -52.5t55 -21.5q28 0 55 23t52 59.5t46.5 82t40 90.5t33 84.5l23.5 63.5l39 -10l-35 -95t-38.5 -99.5t-44.5 -94.5t-52.5 -79.5t-62.5 -55t-76 -20.5q-38 0 -63 11t-39.5 30t-20.5 45.5t-6 58.5q0 34 10 77.5
t22.5 90t22.5 93t10 85.5q0 22 -10.5 39t-36.5 17q-41 0 -79 -29.5t-72 -76.5t-64 -106t-55 -117.5t-44.5 -111.5l-33.5 -88l-39 6q0 5 -0.5 13.5t-0.5 23.5t-0.5 37.5t-0.5 54.5q0 94 5 248t24 369q3 38 7 72t9 65h-131v39zM205 942q-14 -91 -24 -202t-19 -236
q60 117 109.5 229t78.5 209h-145zM328 1219q-21 0 -38 -17t-31.5 -48t-26 -75t-21.5 -98h151q23 84 23 147q0 16 -2.5 32.5t-9 29.5t-17.5 21t-28 8z" />
    <glyph glyph-name="Igrave" unicode="&#xcc;" horiz-adv-x="1294" 
d="M303 59l35 19q4 -9 17.5 -32t41.5 -47t74 -42t117 -18q89 0 179 48.5t163 149.5t118.5 255.5t45.5 367.5q0 75 -13.5 149.5t-41 142.5t-67.5 126.5t-93 101.5t-118.5 67.5t-142.5 24.5q-68 0 -144 -26.5t-139.5 -82t-105 -142t-41.5 -206.5q0 -95 18.5 -165t49 -120.5
t71 -83t84.5 -51.5t89 -26.5t84 -7.5q55 0 102.5 16t84 36.5t60.5 40l33 26.5l27 -29q-82 -68 -167 -101.5t-187 -33.5q-87 0 -169 26.5t-145.5 84t-102 147.5t-38.5 217q0 76 21.5 144.5t59 127t88.5 105t110 79.5t123 50.5t128 17.5q53 0 118.5 -10.5t132 -39t129.5 -79
t112 -129t78.5 -190t29.5 -262.5q0 -124 -25.5 -232t-69 -198t-103 -160.5t-127.5 -119t-141.5 -74t-145.5 -25.5q-39 0 -82 7t-83.5 25t-75 49.5t-56.5 81.5zM524 1704l219 -180l-18 -24l-240 145z" />
    <glyph glyph-name="igrave" unicode="&#xec;" horiz-adv-x="371" 
d="M209 104q-63 0 -104.5 51t-41.5 154q0 68 27.5 173.5t95.5 238.5l37 -10q-6 -26 -19.5 -71t-27 -100.5t-23.5 -116t-10 -116.5q0 -47 7 -76.5t18.5 -46t27 -22.5t33.5 -6q29 0 55 18t49.5 47.5t44 66t37 73.5t29.5 70.5t21 57.5l39 -10l-25.5 -69.5t-33 -81.5t-41.5 -82
t-52 -71.5t-64.5 -51t-78.5 -19.5zM118 1029l219 -180l-18 -24l-240 145z" />
    <glyph glyph-name="Iacute" unicode="&#xcd;" horiz-adv-x="1294" 
d="M303 59l35 19q4 -9 17.5 -32t41.5 -47t74 -42t117 -18q89 0 179 48.5t163 149.5t118.5 255.5t45.5 367.5q0 75 -13.5 149.5t-41 142.5t-67.5 126.5t-93 101.5t-118.5 67.5t-142.5 24.5q-68 0 -144 -26.5t-139.5 -82t-105 -142t-41.5 -206.5q0 -95 18.5 -165t49 -120.5
t71 -83t84.5 -51.5t89 -26.5t84 -7.5q55 0 102.5 16t84 36.5t60.5 40l33 26.5l27 -29q-82 -68 -167 -101.5t-187 -33.5q-87 0 -169 26.5t-145.5 84t-102 147.5t-38.5 217q0 76 21.5 144.5t59 127t88.5 105t110 79.5t123 50.5t128 17.5q53 0 118.5 -10.5t132 -39t129.5 -79
t112 -129t78.5 -190t29.5 -262.5q0 -124 -25.5 -232t-69 -198t-103 -160.5t-127.5 -119t-141.5 -74t-145.5 -25.5q-39 0 -82 7t-83.5 25t-75 49.5t-56.5 81.5zM743 1645l-239 -145l-19 24l219 180z" />
    <glyph glyph-name="iacute" unicode="&#xed;" horiz-adv-x="371" 
d="M209 104q-63 0 -104.5 51t-41.5 154q0 68 27.5 173.5t95.5 238.5l37 -10q-6 -26 -19.5 -71t-27 -100.5t-23.5 -116t-10 -116.5q0 -47 7 -76.5t18.5 -46t27 -22.5t33.5 -6q29 0 55 18t49.5 47.5t44 66t37 73.5t29.5 70.5t21 57.5l39 -10l-25.5 -69.5t-33 -81.5t-41.5 -82
t-52 -71.5t-64.5 -51t-78.5 -19.5zM398 970l-239 -145l-19 24l219 180z" />
    <glyph glyph-name="Icircumflex" unicode="&#xce;" horiz-adv-x="1294" 
d="M303 59l35 19q4 -9 17.5 -32t41.5 -47t74 -42t117 -18q89 0 179 48.5t163 149.5t118.5 255.5t45.5 367.5q0 75 -13.5 149.5t-41 142.5t-67.5 126.5t-93 101.5t-118.5 67.5t-142.5 24.5q-68 0 -144 -26.5t-139.5 -82t-105 -142t-41.5 -206.5q0 -95 18.5 -165t49 -120.5
t71 -83t84.5 -51.5t89 -26.5t84 -7.5q55 0 102.5 16t84 36.5t60.5 40l33 26.5l27 -29q-82 -68 -167 -101.5t-187 -33.5q-87 0 -169 26.5t-145.5 84t-102 147.5t-38.5 217q0 76 21.5 144.5t59 127t88.5 105t110 79.5t123 50.5t128 17.5q53 0 118.5 -10.5t132 -39t129.5 -79
t112 -129t78.5 -190t29.5 -262.5q0 -124 -25.5 -232t-69 -198t-103 -160.5t-127.5 -119t-141.5 -74t-145.5 -25.5q-39 0 -82 7t-83.5 25t-75 49.5t-56.5 81.5zM776 1500l-164 127l-158 -127l-20 20l178 180l184 -180z" />
    <glyph glyph-name="icircumflex" unicode="&#xee;" horiz-adv-x="371" 
d="M209 104q-63 0 -104.5 51t-41.5 154q0 68 27.5 173.5t95.5 238.5l37 -10q-6 -26 -19.5 -71t-27 -100.5t-23.5 -116t-10 -116.5q0 -47 7 -76.5t18.5 -46t27 -22.5t33.5 -6q29 0 55 18t49.5 47.5t44 66t37 73.5t29.5 70.5t21 57.5l39 -10l-25.5 -69.5t-33 -81.5t-41.5 -82
t-52 -71.5t-64.5 -51t-78.5 -19.5zM390 825l-164 127l-158 -127l-20 20l178 180l184 -180z" />
    <glyph glyph-name="Idieresis" unicode="&#xcf;" horiz-adv-x="1294" 
d="M303 59l35 19q4 -9 17.5 -32t41.5 -47t74 -42t117 -18q89 0 179 48.5t163 149.5t118.5 255.5t45.5 367.5q0 75 -13.5 149.5t-41 142.5t-67.5 126.5t-93 101.5t-118.5 67.5t-142.5 24.5q-68 0 -144 -26.5t-139.5 -82t-105 -142t-41.5 -206.5q0 -95 18.5 -165t49 -120.5
t71 -83t84.5 -51.5t89 -26.5t84 -7.5q55 0 102.5 16t84 36.5t60.5 40l33 26.5l27 -29q-82 -68 -167 -101.5t-187 -33.5q-87 0 -169 26.5t-145.5 84t-102 147.5t-38.5 217q0 76 21.5 144.5t59 127t88.5 105t110 79.5t123 50.5t128 17.5q53 0 118.5 -10.5t132 -39t129.5 -79
t112 -129t78.5 -190t29.5 -262.5q0 -124 -25.5 -232t-69 -198t-103 -160.5t-127.5 -119t-141.5 -74t-145.5 -25.5q-39 0 -82 7t-83.5 25t-75 49.5t-56.5 81.5zM469 1575q0 20 12.5 34t32.5 14t33.5 -14t13.5 -34q0 -18 -13.5 -31.5t-33.5 -13.5t-32.5 13.5t-12.5 31.5z
M667 1575q0 20 13.5 34t32.5 14q20 0 33.5 -14t13.5 -34q0 -18 -13.5 -31.5t-33.5 -13.5q-19 0 -32.5 13.5t-13.5 31.5z" />
    <glyph glyph-name="idieresis" unicode="&#xef;" horiz-adv-x="371" 
d="M209 104q-63 0 -104.5 51t-41.5 154q0 68 27.5 173.5t95.5 238.5l37 -10q-6 -26 -19.5 -71t-27 -100.5t-23.5 -116t-10 -116.5q0 -47 7 -76.5t18.5 -46t27 -22.5t33.5 -6q29 0 55 18t49.5 47.5t44 66t37 73.5t29.5 70.5t21 57.5l39 -10l-25.5 -69.5t-33 -81.5t-41.5 -82
t-52 -71.5t-64.5 -51t-78.5 -19.5zM83 900q0 20 12.5 34t32.5 14t33.5 -14t13.5 -34q0 -18 -13.5 -31.5t-33.5 -13.5t-32.5 13.5t-12.5 31.5zM281 900q0 20 13.5 34t32.5 14q20 0 33.5 -14t13.5 -34q0 -18 -13.5 -31.5t-33.5 -13.5q-19 0 -32.5 13.5t-13.5 31.5z" />
    <glyph glyph-name="Itilde" unicode="&#x128;" horiz-adv-x="1294" 
d="M303 59l35 19q4 -9 17.5 -32t41.5 -47t74 -42t117 -18q89 0 179 48.5t163 149.5t118.5 255.5t45.5 367.5q0 75 -13.5 149.5t-41 142.5t-67.5 126.5t-93 101.5t-118.5 67.5t-142.5 24.5q-68 0 -144 -26.5t-139.5 -82t-105 -142t-41.5 -206.5q0 -95 18.5 -165t49 -120.5
t71 -83t84.5 -51.5t89 -26.5t84 -7.5q55 0 102.5 16t84 36.5t60.5 40l33 26.5l27 -29q-82 -68 -167 -101.5t-187 -33.5q-87 0 -169 26.5t-145.5 84t-102 147.5t-38.5 217q0 76 21.5 144.5t59 127t88.5 105t110 79.5t123 50.5t128 17.5q53 0 118.5 -10.5t132 -39t129.5 -79
t112 -129t78.5 -190t29.5 -262.5q0 -124 -25.5 -232t-69 -198t-103 -160.5t-127.5 -119t-141.5 -74t-145.5 -25.5q-39 0 -82 7t-83.5 25t-75 49.5t-56.5 81.5zM682 1575q18 0 29.5 9.5t18.5 22.5t9.5 25.5t3.5 18.5h31q0 -15 -4.5 -36t-15.5 -40t-29 -32t-45 -13
q-21 0 -39.5 12t-35 26l-31.5 26t-29 12q-17 0 -28 -10t-18 -22.5t-10 -25t-4 -18.5h-31q0 15 4.5 35.5t15.5 39.5t29 32.5t46 13.5q21 0 38.5 -12t34 -26l31 -26t29.5 -12z" />
    <glyph glyph-name="itilde" unicode="&#x129;" horiz-adv-x="371" 
d="M209 104q-63 0 -104.5 51t-41.5 154q0 68 27.5 173.5t95.5 238.5l37 -10q-6 -26 -19.5 -71t-27 -100.5t-23.5 -116t-10 -116.5q0 -47 7 -76.5t18.5 -46t27 -22.5t33.5 -6q29 0 55 18t49.5 47.5t44 66t37 73.5t29.5 70.5t21 57.5l39 -10l-25.5 -69.5t-33 -81.5t-41.5 -82
t-52 -71.5t-64.5 -51t-78.5 -19.5zM296 900q18 0 29.5 9.5t18.5 22.5t9.5 25.5t3.5 18.5h31q0 -15 -4.5 -36t-15.5 -40t-29 -32t-45 -13q-21 0 -39.5 12t-35 26l-31.5 26t-29 12q-17 0 -28 -10t-18 -22.5t-10 -25t-4 -18.5h-31q0 15 4.5 35.5t15.5 39.5t29 32.5t46 13.5
q21 0 38.5 -12t34 -26l31 -26t29.5 -12z" />
    <glyph glyph-name="Imacron" unicode="&#x12a;" horiz-adv-x="1294" 
d="M303 59l35 19q4 -9 17.5 -32t41.5 -47t74 -42t117 -18q89 0 179 48.5t163 149.5t118.5 255.5t45.5 367.5q0 75 -13.5 149.5t-41 142.5t-67.5 126.5t-93 101.5t-118.5 67.5t-142.5 24.5q-68 0 -144 -26.5t-139.5 -82t-105 -142t-41.5 -206.5q0 -95 18.5 -165t49 -120.5
t71 -83t84.5 -51.5t89 -26.5t84 -7.5q55 0 102.5 16t84 36.5t60.5 40l33 26.5l27 -29q-82 -68 -167 -101.5t-187 -33.5q-87 0 -169 26.5t-145.5 84t-102 147.5t-38.5 217q0 76 21.5 144.5t59 127t88.5 105t110 79.5t123 50.5t128 17.5q53 0 118.5 -10.5t132 -39t129.5 -79
t112 -129t78.5 -190t29.5 -262.5q0 -124 -25.5 -232t-69 -198t-103 -160.5t-127.5 -119t-141.5 -74t-145.5 -25.5q-39 0 -82 7t-83.5 25t-75 49.5t-56.5 81.5zM479 1551v43h270v-43h-270z" />
    <glyph glyph-name="imacron" unicode="&#x12b;" horiz-adv-x="371" 
d="M209 104q-63 0 -104.5 51t-41.5 154q0 68 27.5 173.5t95.5 238.5l37 -10q-6 -26 -19.5 -71t-27 -100.5t-23.5 -116t-10 -116.5q0 -47 7 -76.5t18.5 -46t27 -22.5t33.5 -6q29 0 55 18t49.5 47.5t44 66t37 73.5t29.5 70.5t21 57.5l39 -10l-25.5 -69.5t-33 -81.5t-41.5 -82
t-52 -71.5t-64.5 -51t-78.5 -19.5zM93 876v43h270v-43h-270z" />
    <glyph glyph-name="Ibreve" unicode="&#x12c;" horiz-adv-x="1294" 
d="M303 59l35 19q4 -9 17.5 -32t41.5 -47t74 -42t117 -18q89 0 179 48.5t163 149.5t118.5 255.5t45.5 367.5q0 75 -13.5 149.5t-41 142.5t-67.5 126.5t-93 101.5t-118.5 67.5t-142.5 24.5q-68 0 -144 -26.5t-139.5 -82t-105 -142t-41.5 -206.5q0 -95 18.5 -165t49 -120.5
t71 -83t84.5 -51.5t89 -26.5t84 -7.5q55 0 102.5 16t84 36.5t60.5 40l33 26.5l27 -29q-82 -68 -167 -101.5t-187 -33.5q-87 0 -169 26.5t-145.5 84t-102 147.5t-38.5 217q0 76 21.5 144.5t59 127t88.5 105t110 79.5t123 50.5t128 17.5q53 0 118.5 -10.5t132 -39t129.5 -79
t112 -129t78.5 -190t29.5 -262.5q0 -124 -25.5 -232t-69 -198t-103 -160.5t-127.5 -119t-141.5 -74t-145.5 -25.5q-39 0 -82 7t-83.5 25t-75 49.5t-56.5 81.5zM760 1672q0 -23 -7 -48.5t-23.5 -47t-45 -36t-70.5 -14.5q-44 0 -72 16t-43.5 39t-21.5 48t-6 43h31q2 -11 7 -27
t17 -31t32.5 -26t55.5 -11q36 0 58 11t34 26t16.5 31t6.5 27h31z" />
    <glyph glyph-name="ibreve" unicode="&#x12d;" horiz-adv-x="371" 
d="M209 104q-63 0 -104.5 51t-41.5 154q0 68 27.5 173.5t95.5 238.5l37 -10q-6 -26 -19.5 -71t-27 -100.5t-23.5 -116t-10 -116.5q0 -47 7 -76.5t18.5 -46t27 -22.5t33.5 -6q29 0 55 18t49.5 47.5t44 66t37 73.5t29.5 70.5t21 57.5l39 -10l-25.5 -69.5t-33 -81.5t-41.5 -82
t-52 -71.5t-64.5 -51t-78.5 -19.5zM374 997q0 -23 -7 -48.5t-23.5 -47t-45 -36t-70.5 -14.5q-44 0 -72 16t-43.5 39t-21.5 48t-6 43h31q2 -11 7 -27t17 -31t32.5 -26t55.5 -11q36 0 58 11t34 26t16.5 31t6.5 27h31z" />
    <glyph glyph-name="Iogonek" unicode="&#x12e;" horiz-adv-x="1294" 
d="M756 -305q-25 -16 -60 -31.5t-75 -15.5q-20 0 -39 4t-35 14.5t-25.5 28t-9.5 45.5q0 24 10.5 46.5t26.5 42.5t35.5 37l36.5 32q-5 0 -10.5 -1t-10.5 -1q-39 0 -82 7t-83.5 25t-75 49.5t-56.5 81.5l35 19q4 -9 17.5 -32t41.5 -47t74 -42t117 -18q89 0 179 48.5t163 149.5
t118.5 255.5t45.5 367.5q0 75 -13.5 149.5t-41 142.5t-67.5 126.5t-93 101.5t-118.5 67.5t-142.5 24.5q-68 0 -144 -26.5t-139.5 -82t-105 -142t-41.5 -206.5q0 -95 18.5 -165t49 -120.5t71 -83t84.5 -51.5t89 -26.5t84 -7.5q55 0 102.5 16t84 36.5t60.5 40l33 26.5l27 -29
q-82 -68 -167 -101.5t-187 -33.5q-87 0 -169 26.5t-145.5 84t-102 147.5t-38.5 217q0 76 21.5 144.5t59 127t88.5 105t110 79.5t123 50.5t128 17.5q53 0 118.5 -10.5t132 -39t129.5 -79t112 -129t78.5 -190t29.5 -262.5q0 -115 -22 -216t-60 -187t-90.5 -155.5
t-113.5 -120.5t-128 -82.5t-134 -41.5l-31.5 -33t-30.5 -36.5t-23.5 -38.5t-9.5 -40q0 -18 6 -30t15.5 -19.5t21 -10.5t23.5 -3q34 0 66 10t44 18z" />
    <glyph glyph-name="iogonek" unicode="&#x12f;" horiz-adv-x="371" 
d="M344 -94q-25 -16 -60 -31.5t-75 -15.5q-19 0 -38.5 4t-35 14.5t-25.5 28t-10 45.5q0 24 10 45.5t25.5 40.5t34 36t35.5 31q-62 2 -102 52.5t-40 152.5q0 68 27.5 173.5t95.5 238.5l37 -10q-6 -26 -19.5 -71t-27 -100.5t-23.5 -116t-10 -116.5q0 -47 7 -76.5t18.5 -46
t27 -22.5t33.5 -6q29 0 55 18t49.5 47.5t44 66t37 73.5t29.5 70.5t21 57.5l39 -10l-23 -63.5t-29.5 -73.5t-36.5 -76t-45 -69.5t-54.5 -55t-65.5 -32.5l-31 -32t-29.5 -35.5t-22.5 -38t-9 -38.5q0 -35 21 -49t44 -14q34 0 66 10t45 18zM371 1036q0 -35 -27 -54t-68 -19
q-21 0 -39.5 6.5t-32 17t-21 25t-7.5 30.5q0 34 26.5 55t61.5 21q25 0 45 -7.5t34 -19.5t21 -26.5t7 -28.5zM317 1036q0 10 -8.5 18.5t-25.5 8.5q-31 0 -31 -23q0 -11 9.5 -18.5t25.5 -7.5q15 0 22.5 6.5t7.5 15.5z" />
    <glyph glyph-name="Idotaccent" unicode="&#x130;" horiz-adv-x="1294" 
d="M303 59l35 19q4 -9 17.5 -32t41.5 -47t74 -42t117 -18q89 0 179 48.5t163 149.5t118.5 255.5t45.5 367.5q0 75 -13.5 149.5t-41 142.5t-67.5 126.5t-93 101.5t-118.5 67.5t-142.5 24.5q-68 0 -144 -26.5t-139.5 -82t-105 -142t-41.5 -206.5q0 -95 18.5 -165t49 -120.5
t71 -83t84.5 -51.5t89 -26.5t84 -7.5q55 0 102.5 16t84 36.5t60.5 40l33 26.5l27 -29q-82 -68 -167 -101.5t-187 -33.5q-87 0 -169 26.5t-145.5 84t-102 147.5t-38.5 217q0 76 21.5 144.5t59 127t88.5 105t110 79.5t123 50.5t128 17.5q53 0 118.5 -10.5t132 -39t129.5 -79
t112 -129t78.5 -190t29.5 -262.5q0 -124 -25.5 -232t-69 -198t-103 -160.5t-127.5 -119t-141.5 -74t-145.5 -25.5q-39 0 -82 7t-83.5 25t-75 49.5t-56.5 81.5zM565 1580q0 20 14.5 34.5t34.5 14.5t34.5 -14.5t14.5 -34.5t-14.5 -35t-34.5 -15t-34.5 15t-14.5 35z" />
    <glyph glyph-name="dotlessi" unicode="&#x131;" horiz-adv-x="371" 
d="M209 104q-63 0 -104.5 51t-41.5 154q0 68 27.5 173.5t95.5 238.5l37 -10q-6 -26 -19.5 -71t-27 -100.5t-23.5 -116t-10 -116.5q0 -47 7 -76.5t18.5 -46t27 -22.5t33.5 -6q29 0 55 18t49.5 47.5t44 66t37 73.5t29.5 70.5t21 57.5l39 -10l-25.5 -69.5t-33 -81.5t-41.5 -82
t-52 -71.5t-64.5 -51t-78.5 -19.5z" />
    <glyph glyph-name="IJ" unicode="&#x132;" horiz-adv-x="2384" 
d="M303 59l35 19q4 -9 17.5 -32t41.5 -47t74 -42t117 -18q89 0 179 48.5t163 149.5t118.5 255.5t45.5 367.5q0 75 -13.5 149.5t-41 142.5t-67.5 126.5t-93 101.5t-118.5 67.5t-142.5 24.5q-68 0 -144 -26.5t-139.5 -82t-105 -142t-41.5 -206.5q0 -95 18.5 -165t49 -120.5
t71 -83t84.5 -51.5t89 -26.5t84 -7.5q55 0 102.5 16t84 36.5t60.5 40l33 26.5l27 -29q-82 -68 -167 -101.5t-187 -33.5q-87 0 -169 26.5t-145.5 84t-102 147.5t-38.5 217q0 76 21.5 144.5t59 127t88.5 105t110 79.5t123 50.5t128 17.5q53 0 118.5 -10.5t132 -39t129.5 -79
t112 -129t78.5 -190t29.5 -262.5q0 -124 -25.5 -232t-69 -198t-103 -160.5t-127.5 -119t-141.5 -74t-145.5 -25.5q-39 0 -82 7t-83.5 25t-75 49.5t-56.5 81.5zM2474 1604q28 0 40.5 -18t12.5 -40q0 -31 -22.5 -68.5t-60.5 -74.5t-89 -70.5t-109 -56.5q-34 -97 -54.5 -230.5
t-20.5 -310.5q0 -107 8 -212.5t17.5 -206.5t17.5 -198t8 -188q0 -83 -11.5 -170t-36.5 -169t-65 -154.5t-97 -126.5t-132 -85.5t-170 -31.5q-85 0 -158 28t-128 77t-89 115.5t-41 142.5l66 20q6 -68 32.5 -130.5t71.5 -110t107 -75.5t139 -28q75 0 134.5 20.5t105.5 55.5
t78.5 82.5t53.5 101t31 111t10 112.5q0 122 -13 241t-29 236t-29 232.5t-13 232.5q0 175 37 325.5t92 268.5q-153 -43 -271.5 -87t-199.5 -106t-123 -149t-42 -215q0 -78 18 -137t47.5 -102.5t67 -73t75.5 -48.5t74 -29t62 -15l-7 -25q-84 4 -167 34.5t-148.5 86.5
t-106 137.5t-40.5 188.5q0 117 46.5 206t138 157t227.5 118.5t315 91.5q15 3 29.5 7t29.5 9q36 71 75.5 127.5t77 95.5t71 60t57.5 21zM2474 1565q-20 0 -45 -13.5t-53 -42t-56 -73.5t-53 -107q53 25 94 54.5t68.5 59t42 56.5t14.5 47q0 6 -1.5 12.5t-10.5 6.5z" />
    <glyph glyph-name="ij" unicode="&#x133;" horiz-adv-x="719" 
d="M561 696q-2 -16 -10.5 -69.5t-18.5 -143.5t-20.5 -216.5t-17.5 -289.5q44 45 89 102.5t87 123t78.5 138t64.5 148.5l39 -10q-32 -86 -73.5 -167.5t-89 -155t-99 -136.5t-101.5 -112v-41q-5 -135 -31.5 -229.5t-64 -154t-81 -87t-81.5 -27.5q-30 0 -57.5 11t-48.5 31
t-33 49t-12 65q0 63 22 112.5t59.5 89.5t87 73t103.5 63q11 6 21.5 13l21.5 15q6 132 14 229t17 169q-18 -36 -40 -69.5t-49 -59t-59 -41t-69 -15.5q-63 0 -104.5 51t-41.5 154q0 68 27.5 173.5t95.5 238.5l37 -10q-6 -26 -19.5 -71t-27 -100.5t-23.5 -116t-10 -116.5
q0 -47 7 -76.5t18.5 -46t27 -22.5t33.5 -6q39 0 74 33t64.5 80.5t51.5 100.5t36 93q7 32 15.5 61.5l17 59l17.5 60l19 65.5zM371 -395q11 38 15.5 90t6.5 115v14l-20 -14.5t-19 -12.5q-50 -29 -90.5 -60.5t-69.5 -67t-45 -76t-16 -87.5q0 -18 6.5 -35t18 -30.5t27.5 -22
t36 -8.5q44 0 82.5 48t67.5 147zM371 1036q0 -35 -27 -54t-68 -19q-21 0 -39.5 6.5t-32 17t-21 25t-7.5 30.5q0 34 26.5 55t61.5 21q25 0 45 -7.5t34 -19.5t21 -26.5t7 -28.5zM702 1036q0 -35 -26.5 -54t-67.5 -19q-21 0 -39.5 6.5t-32 17t-21 25t-7.5 30.5q0 34 26.5 55
t61.5 21q25 0 45 -7.5t33.5 -19.5t20.5 -26.5t7 -28.5zM649 1036q0 10 -9 18.5t-26 8.5q-14 0 -22 -6t-8 -17t9.5 -18.5t24.5 -7.5q16 0 23.5 6.5t7.5 15.5zM317 1036q0 10 -8.5 18.5t-25.5 8.5q-31 0 -31 -23q0 -11 9.5 -18.5t25.5 -7.5q15 0 22.5 6.5t7.5 15.5z" />
    <glyph glyph-name="Jcircumflex" unicode="&#x134;" horiz-adv-x="1090" 
d="M1180 1604q28 0 40.5 -18t12.5 -40q0 -31 -22.5 -68.5t-60.5 -74.5t-89 -70.5t-109 -56.5q-34 -97 -54.5 -230.5t-20.5 -310.5q0 -107 8 -212.5t17.5 -206.5t17.5 -198t8 -188q0 -83 -11.5 -170t-36.5 -169t-65 -154.5t-97 -126.5t-132 -85.5t-170 -31.5q-85 0 -158 28
t-128 77t-89 115.5t-41 142.5l66 20q6 -68 32.5 -130.5t71.5 -110t107 -75.5t139 -28q75 0 134.5 20.5t105.5 55.5t78.5 82.5t53.5 101t31 111t10 112.5q0 122 -13 241t-29 236t-29 232.5t-13 232.5q0 175 37 325.5t92 268.5q-153 -43 -271.5 -87t-199.5 -106t-123 -149
t-42 -215q0 -78 18 -137t47.5 -102.5t67 -73t75.5 -48.5t74 -29t62 -15l-7 -25q-84 4 -167 34.5t-148.5 86.5t-106 137.5t-40.5 188.5q0 117 46.5 206t138 157t227.5 118.5t315 91.5q15 3 29.5 7t29.5 9q36 71 75.5 127.5t77 95.5t71 60t57.5 21zM1180 1565q-20 0 -45 -13.5
t-53 -42t-56 -73.5t-53 -107q53 25 94 54.5t68.5 59t42 56.5t14.5 47q0 6 -1.5 12.5t-10.5 6.5zM815 1477l-164 127l-158 -127l-20 20l178 180l184 -180z" />
    <glyph glyph-name="jcircumflex" unicode="&#x135;" horiz-adv-x="348" 
d="M190 696q-2 -16 -10.5 -69.5t-18.5 -143.5t-20.5 -216.5t-17.5 -289.5q45 45 90 102.5t87 123t78.5 138t63.5 148.5l39 -10q-32 -86 -73.5 -167.5t-89 -155t-98.5 -136.5t-101 -112q0 -100 -12 -179t-32.5 -138.5t-47 -102t-55 -69t-57.5 -38.5t-54 -12q-31 0 -58.5 11
t-48.5 31t-33 49t-12 65q0 75 29.5 127.5t76 93.5t102 74.5t108.5 70.5q6 130 13.5 226t16.5 168.5t20 127.5t23.5 102.5t26 93.5l29.5 100zM0 -395q11 38 16 91.5t7 127.5q-40 -32 -86 -61.5t-85 -65.5t-64.5 -81.5t-25.5 -109.5q0 -18 6.5 -35t18 -30.5t27.5 -22t36 -8.5
q44 0 82.5 48t67.5 147zM335 810l-164 127l-158 -127l-20 20l178 180l184 -180z" />
    <glyph glyph-name="dotlessj" unicode="&#x237;" horiz-adv-x="348" 
d="M190 696q-2 -16 -10.5 -69.5t-18.5 -143.5t-20.5 -216.5t-17.5 -289.5q45 45 90 102.5t87 123t78.5 138t63.5 148.5l39 -10q-32 -86 -73.5 -167.5t-89 -155t-98.5 -136.5t-101 -112q0 -100 -12 -179t-32.5 -138.5t-47 -102t-55 -69t-57.5 -38.5t-54 -12q-31 0 -58.5 11
t-48.5 31t-33 49t-12 65q0 75 29.5 127.5t76 93.5t102 74.5t108.5 70.5q6 130 13.5 226t16.5 168.5t20 127.5t23.5 102.5t26 93.5l29.5 100zM0 -395q11 38 16 91.5t7 127.5q-40 -32 -86 -61.5t-85 -65.5t-64.5 -81.5t-25.5 -109.5q0 -18 6.5 -35t18 -30.5t27.5 -22t36 -8.5
q44 0 82.5 48t67.5 147z" />
    <glyph glyph-name="Kcommaaccent" unicode="&#x136;" horiz-adv-x="1595" 
d="M944 1511q28 0 46 -15.5t18 -43.5q0 -39 -28.5 -71t-71 -57t-92.5 -43t-93 -28q-25 -63 -40 -148t-15 -200q0 -74 2 -155l4 -166q56 -22 103 -54.5t89 -74.5q101 23 181.5 70t141 113t101.5 147t64 171q29 118 67 204t79.5 147t84.5 100t81.5 62.5t70.5 34t51 14.5
l12 -27q-74 -18 -127.5 -70t-92 -124t-64 -156.5t-43.5 -165.5q-33 -144 -90.5 -244.5t-131.5 -167t-161 -103.5t-181 -52q59 -69 110 -149.5l98 -161l94 -155.5t99 -132.5t111.5 -92t132.5 -34.5q23 0 48 3.5t53 12.5l12 -29q-1 -1 -16 -8.5t-40.5 -16.5t-59.5 -16.5
t-74 -7.5q-102 0 -176 41.5t-129 110t-97.5 157t-81.5 183.5q-38 89 -75.5 160t-79.5 126q-28 -3 -55.5 -3.5t-55.5 -0.5h-49v-12q0 -90 -8 -174.5t-27.5 -158.5t-53.5 -136t-85.5 -106t-123 -68.5t-167.5 -24.5q-81 0 -156.5 24.5t-138.5 74.5l25 30q55 -45 124.5 -67.5
t141.5 -22.5q82 0 140 27t96.5 72.5t61.5 105.5t34.5 126.5t14.5 135.5t3 131v54q-65 10 -103.5 27t-58.5 35t-26 34.5t-6 27.5q0 23 10.5 40t28 27.5t41.5 15.5t51 5q15 0 30.5 -1t30.5 -3v54q0 196 29 337t73 236q-71 -8 -140 -9.5t-136 -12.5t-131 -38.5t-123 -86.5
l-31 24q58 60 118.5 91t124.5 44.5t132.5 16.5t144.5 8q14 0 29.5 2l32.5 4q36 67 75.5 111t76 70t66.5 36t46 10zM944 1473q-11 0 -33.5 -7.5t-51 -27t-59 -54t-57.5 -88.5q42 11 82.5 26t72.5 34.5t51.5 43t19.5 50.5q0 8 -5.5 15.5t-19.5 7.5zM494 580q-51 0 -69.5 -15.5
t-18.5 -32.5q0 -26 40.5 -50.5t112.5 -37.5q0 34 -1 66.5t-1 64.5q-15 2 -31.5 3.5t-31.5 1.5zM801 442q-29 31 -60 55.5t-65 41.5q0 -26 1 -52.5t1 -52.5h2q32 0 62 1.5t59 6.5zM761 -490q20 15 29.5 32.5t9.5 32.5q-23 0 -39 11.5t-16 37.5q0 20 14.5 35t34.5 15
q26 0 40.5 -18t14.5 -46q0 -38 -21 -69.5t-46 -51.5z" />
    <glyph glyph-name="kcommaaccent" unicode="&#x137;" horiz-adv-x="729" 
d="M444 1229q0 -71 -25.5 -156.5t-66 -182.5t-91 -202l-99.5 -215q-6 -74 -12.5 -140l-12.5 -122l34.5 81.5t43.5 95.5t52.5 96.5t61 85t69 60.5t77.5 23q28 0 53.5 -12t44.5 -32.5t30 -47.5t11 -57q0 -50 -23 -88.5t-58.5 -66.5t-79.5 -47t-86 -30q4 -19 17 -45t34.5 -49.5
t51.5 -40t67 -16.5q78 0 147 91.5t137 276.5l39 -10q-33 -90 -68 -165.5t-75.5 -130.5t-87.5 -86t-103 -31q-22 0 -50.5 6t-59 25.5t-60.5 55.5t-55 97q-3 6 -5.5 15t-2.5 14q0 19 9 26.5t22.5 10.5t29.5 4.5t31 7.5q74 29 109.5 83.5t35.5 123.5q0 44 -19 61.5t-44 17.5
q-20 0 -40 -10.5t-36 -25.5q-41 -41 -76.5 -95.5t-65 -113t-53 -115t-40 -101t-25 -72.5l-8.5 -28l-39 6q-1 11 -1 27q-1 14 -1 33v45q0 57 2 140.5t7.5 187t16 224.5t27.5 253q14 108 36.5 182t50.5 119.5t59 65.5t63 20q26 0 45 -10t31 -27.5t18 -40.5t6 -49zM354 1315
q-25 0 -45.5 -29t-37.5 -80t-31.5 -119.5t-26 -148t-21.5 -166t-18 -172.5l51 109l52.5 116l49 116.5t41 110.5t28 98t10.5 79q0 12 -1.5 27t-7 28t-15.5 22t-28 9zM286 -205q20 15 29.5 32.5t9.5 32.5q-23 0 -39 11.5t-16 37.5q0 20 14.5 35t34.5 15q26 0 40.5 -18
t14.5 -46q0 -38 -21 -69.5t-46 -51.5z" />
    <glyph glyph-name="kgreenlandic" unicode="&#x138;" horiz-adv-x="727" 
d="M145 229l34 80.5t42 92.5t50.5 92t59 80.5t67.5 57t77 21.5q28 0 53.5 -12t44.5 -32.5t30 -47.5t11 -57q0 -50 -23 -88.5t-58.5 -66.5t-79.5 -47t-86 -30q4 -19 17 -45t34.5 -49.5t51.5 -40t67 -16.5q78 0 147 91.5t137 276.5l39 -10q-33 -90 -68 -165.5t-75.5 -130.5
t-87.5 -86t-103 -31q-22 0 -50.5 6t-59 25.5t-60.5 55.5t-55 97q-3 6 -5.5 15t-2.5 14q0 19 9 26.5t22.5 10.5t29.5 4.5t31 7.5q74 29 109.5 83.5t35.5 123.5q0 44 -19 61.5t-44 17.5q-20 0 -40 -10.5t-36 -25.5q-41 -41 -76.5 -95.5t-65 -113t-53 -115t-40 -101t-25 -72.5
l-8.5 -28l-39 6q-3 51 -4.5 93t-1.5 79q0 35 2 85.5t6 106t10.5 110t15 98.5t20 71t26.5 27q24 0 46.5 -16.5t22.5 -48.5q0 -20 -4.5 -37t-12 -33t-17.5 -32.5l-21 -35.5q-17 -81 -22 -151t-5 -146z" />
    <glyph glyph-name="Lacute" unicode="&#x139;" horiz-adv-x="1583" 
d="M213 -92q-48 0 -87 13.5t-67 37.5t-43.5 56.5t-15.5 70.5q0 87 60.5 136.5t166.5 49.5q76 0 139 -20.5t117 -52.5q13 53 13 120q0 69 -6 135.5t-13.5 132t-13.5 129.5t-6 128q0 144 28 249.5t73.5 179.5t104 120t119.5 72t119.5 35t104.5 9q69 0 124.5 -23t95 -61
t60.5 -86.5t21 -99.5q0 -46 -11 -87t-24.5 -72.5t-25.5 -50.5t-13 -21l-31 22q18 27 33 60q12 28 22.5 64t10.5 77q0 50 -18.5 93.5t-52 76t-81.5 51t-108 18.5q-105 0 -187 -43.5t-138 -113t-85 -156t-29 -172.5q0 -57 5 -119l10.5 -127.5t10.5 -133.5t5 -136
q0 -91 -12.5 -169.5t-38.5 -143.5q55 -41 107 -85t106.5 -81t115 -60.5t132.5 -23.5q93 0 170.5 39.5t133.5 102.5t87 141t31 155q0 28 -8 66t-29 69l24 19q1 -2 14 -18.5t28 -46t27.5 -70.5t12.5 -93q0 -74 -27 -146.5t-83 -130t-142.5 -93t-204.5 -35.5q-93 0 -164 24.5
t-129.5 62.5t-110 83t-105.5 86q-48 -100 -127.5 -156.5t-194.5 -56.5zM225 -53q97 0 159.5 58t90.5 157q-51 31 -110 51t-134 20q-15 0 -40.5 -5t-50 -20t-42.5 -43.5t-18 -76.5q0 -32 11.5 -57.5t31 -44.5t46 -29t56.5 -10zM1108 1737l-239 -145l-19 24l219 180z" />
    <glyph glyph-name="lacute" unicode="&#x13a;" horiz-adv-x="430" 
d="M440 1260q0 -63 -14.5 -134t-38 -144t-54 -147t-61.5 -142l-61 -129l-53 -109q4 -82 14 -148t25 -112.5t36 -71.5t48 -25q30 0 59.5 28t59.5 79t61 123t63 161l39 -10q-24 -69 -54 -145.5t-67 -140.5t-80.5 -106t-93.5 -42t-84 31t-56 81.5t-34 115t-18 131.5t-7 130.5
t-1 112.5q0 91 7.5 181t23 172t37.5 152.5t51.5 122t65 80.5t77.5 29q30 0 51 -10t34 -27t19 -39.5t6 -47.5zM152 684v-74.5t2 -70.5l53 109.5l55.5 123t52.5 128.5t44 127.5t30.5 119t11.5 102.5q0 15 -2.5 32t-9 31.5t-18.5 24t-31 9.5q-38 0 -72.5 -49.5t-60 -137.5
t-40.5 -209.5t-15 -265.5zM481 1606l-239 -145l-19 24l219 180z" />
    <glyph glyph-name="Lcommaaccent" unicode="&#x13b;" horiz-adv-x="1583" 
d="M213 -92q-48 0 -87 13.5t-67 37.5t-43.5 56.5t-15.5 70.5q0 87 60.5 136.5t166.5 49.5q76 0 139 -20.5t117 -52.5q13 53 13 120q0 69 -6 135.5t-13.5 132t-13.5 129.5t-6 128q0 144 28 249.5t73.5 179.5t104 120t119.5 72t119.5 35t104.5 9q69 0 124.5 -23t95 -61
t60.5 -86.5t21 -99.5q0 -46 -11 -87t-24.5 -72.5t-25.5 -50.5t-13 -21l-31 22q18 27 33 60q12 28 22.5 64t10.5 77q0 50 -18.5 93.5t-52 76t-81.5 51t-108 18.5q-105 0 -187 -43.5t-138 -113t-85 -156t-29 -172.5q0 -57 5 -119l10.5 -127.5t10.5 -133.5t5 -136
q0 -91 -12.5 -169.5t-38.5 -143.5q55 -41 107 -85t106.5 -81t115 -60.5t132.5 -23.5q93 0 170.5 39.5t133.5 102.5t87 141t31 155q0 28 -8 66t-29 69l24 19q1 -2 14 -18.5t28 -46t27.5 -70.5t12.5 -93q0 -74 -27 -146.5t-83 -130t-142.5 -93t-204.5 -35.5q-93 0 -164 24.5
t-129.5 62.5t-110 83t-105.5 86q-48 -100 -127.5 -156.5t-194.5 -56.5zM225 -53q97 0 159.5 58t90.5 157q-51 31 -110 51t-134 20q-15 0 -40.5 -5t-50 -20t-42.5 -43.5t-18 -76.5q0 -32 11.5 -57.5t31 -44.5t46 -29t56.5 -10zM774 -388q20 15 29.5 32.5t9.5 32.5
q-23 0 -39 11.5t-16 37.5q0 20 14.5 35t34.5 15q26 0 40.5 -18t14.5 -46q0 -38 -21 -69.5t-46 -51.5z" />
    <glyph glyph-name="lcommaaccent" unicode="&#x13c;" horiz-adv-x="430" 
d="M440 1260q0 -63 -14.5 -134t-38 -144t-54 -147t-61.5 -142l-61 -129l-53 -109q4 -82 14 -148t25 -112.5t36 -71.5t48 -25q30 0 59.5 28t59.5 79t61 123t63 161l39 -10q-24 -69 -54 -145.5t-67 -140.5t-80.5 -106t-93.5 -42t-84 31t-56 81.5t-34 115t-18 131.5t-7 130.5
t-1 112.5q0 91 7.5 181t23 172t37.5 152.5t51.5 122t65 80.5t77.5 29q30 0 51 -10t34 -27t19 -39.5t6 -47.5zM152 684v-74.5t2 -70.5l53 109.5l55.5 123t52.5 128.5t44 127.5t30.5 119t11.5 102.5q0 15 -2.5 32t-9 31.5t-18.5 24t-31 9.5q-38 0 -72.5 -49.5t-60 -137.5
t-40.5 -209.5t-15 -265.5zM222 -225q20 15 29.5 32.5t9.5 32.5q-23 0 -39 11.5t-16 37.5q0 20 14.5 35t34.5 15q26 0 40.5 -18t14.5 -46q0 -38 -21 -69.5t-46 -51.5z" />
    <glyph glyph-name="Lcaron" unicode="&#x13d;" horiz-adv-x="1583" 
d="M213 -92q-48 0 -87 13.5t-67 37.5t-43.5 56.5t-15.5 70.5q0 87 60.5 136.5t166.5 49.5q76 0 139 -20.5t117 -52.5q13 53 13 120q0 69 -6 135.5t-13.5 132t-13.5 129.5t-6 128q0 144 28 249.5t73.5 179.5t104 120t119.5 72t119.5 35t104.5 9q69 0 124.5 -23t95 -61
t60.5 -86.5t21 -99.5q0 -46 -11 -87t-24.5 -72.5t-25.5 -50.5t-13 -21l-31 22q18 27 33 60q12 28 22.5 64t10.5 77q0 50 -18.5 93.5t-52 76t-81.5 51t-108 18.5q-105 0 -187 -43.5t-138 -113t-85 -156t-29 -172.5q0 -57 5 -119l10.5 -127.5t10.5 -133.5t5 -136
q0 -91 -12.5 -169.5t-38.5 -143.5q55 -41 107 -85t106.5 -81t115 -60.5t132.5 -23.5q93 0 170.5 39.5t133.5 102.5t87 141t31 155q0 28 -8 66t-29 69l24 19q1 -2 14 -18.5t28 -46t27.5 -70.5t12.5 -93q0 -74 -27 -146.5t-83 -130t-142.5 -93t-204.5 -35.5q-93 0 -164 24.5
t-129.5 62.5t-110 83t-105.5 86q-48 -100 -127.5 -156.5t-194.5 -56.5zM225 -53q97 0 159.5 58t90.5 157q-51 31 -110 51t-134 20q-15 0 -40.5 -5t-50 -20t-42.5 -43.5t-18 -76.5q0 -32 11.5 -57.5t31 -44.5t46 -29t56.5 -10zM1456 1223q20 15 29.5 32.5t9.5 32.5
q-23 0 -39 11.5t-16 37.5q0 20 14.5 35t34.5 15q26 0 40.5 -18t14.5 -46q0 -38 -21 -69.5t-46 -51.5z" />
    <glyph glyph-name="lcaron" unicode="&#x13e;" horiz-adv-x="535" 
d="M440 1260q0 -63 -14.5 -134t-38 -144t-54 -147t-61.5 -142l-61 -129l-53 -109q4 -82 14 -148t25 -112.5t36 -71.5t48 -25q30 0 59.5 28t59.5 79t61 123t63 161l39 -10q-24 -69 -54 -145.5t-67 -140.5t-80.5 -106t-93.5 -42t-84 31t-56 81.5t-34 115t-18 131.5t-7 130.5
t-1 112.5q0 91 7.5 181t23 172t37.5 152.5t51.5 122t65 80.5t77.5 29q30 0 51 -10t34 -27t19 -39.5t6 -47.5zM152 684v-74.5t2 -70.5l53 109.5l55.5 123t52.5 128.5t44 127.5t30.5 119t11.5 102.5q0 15 -2.5 32t-9 31.5t-18.5 24t-31 9.5q-38 0 -72.5 -49.5t-60 -137.5
t-40.5 -209.5t-15 -265.5zM548 1170q20 15 29.5 32.5t9.5 32.5q-23 0 -39 11.5t-16 37.5q0 20 14.5 35t34.5 15q26 0 40.5 -18t14.5 -46q0 -38 -21 -69.5t-46 -51.5z" />
    <glyph glyph-name="Ldot" unicode="&#x13f;" horiz-adv-x="1686" 
d="M213 -92q-48 0 -87 13.5t-67 37.5t-43.5 56.5t-15.5 70.5q0 87 60.5 136.5t166.5 49.5q76 0 139 -20.5t117 -52.5q13 53 13 120q0 69 -6 135.5t-13.5 132t-13.5 129.5t-6 128q0 144 28 249.5t73.5 179.5t104 120t119.5 72t119.5 35t104.5 9q69 0 124.5 -23t95 -61
t60.5 -86.5t21 -99.5q0 -46 -11 -87t-24.5 -72.5t-25.5 -50.5t-13 -21l-31 22q18 27 33 60q12 28 22.5 64t10.5 77q0 50 -18.5 93.5t-52 76t-81.5 51t-108 18.5q-105 0 -187 -43.5t-138 -113t-85 -156t-29 -172.5q0 -57 5 -119l10.5 -127.5t10.5 -133.5t5 -136
q0 -91 -12.5 -169.5t-38.5 -143.5q55 -41 107 -85t106.5 -81t115 -60.5t132.5 -23.5q93 0 170.5 39.5t133.5 102.5t87 141t31 155q0 28 -8 66t-29 69l24 19q1 -2 14 -18.5t28 -46t27.5 -70.5t12.5 -93q0 -74 -27 -146.5t-83 -130t-142.5 -93t-204.5 -35.5q-93 0 -164 24.5
t-129.5 62.5t-110 83t-105.5 86q-48 -100 -127.5 -156.5t-194.5 -56.5zM225 -53q97 0 159.5 58t90.5 157q-51 31 -110 51t-134 20q-15 0 -40.5 -5t-50 -20t-42.5 -43.5t-18 -76.5q0 -32 11.5 -57.5t31 -44.5t46 -29t56.5 -10zM1665 616q0 -31 -21 -52.5t-52 -21.5
q-29 0 -50.5 21.5t-21.5 52.5q0 29 21.5 50.5t50.5 21.5q31 0 52 -21.5t21 -50.5z" />
    <glyph glyph-name="ldotaccent" unicode="&#x140;" horiz-adv-x="662" 
d="M512 342q-23 -57 -49.5 -110.5t-57 -95t-64.5 -66.5t-73 -25q-50 0 -84 31t-56 81.5t-34 115t-18 131.5t-7 130.5t-1 112.5q0 91 7.5 181t23 172t37.5 152.5t51.5 122t65 80.5t77.5 29q30 0 51 -10t34 -27t19 -39.5t6 -47.5q0 -63 -14.5 -134t-38 -144t-54 -147
t-61.5 -142l-61 -129l-53 -109q4 -82 14 -148t25 -112.5t36 -71.5t48 -25q24 0 47.5 18t47.5 51.5t48.5 81t48.5 107.5zM152 684v-74.5t2 -70.5l53 109.5l55.5 123t52.5 128.5t44 127.5t30.5 119t11.5 102.5q0 15 -2.5 32t-9 31.5t-18.5 24t-31 9.5q-38 0 -72.5 -49.5
t-60 -137.5t-40.5 -209.5t-15 -265.5zM580 555q0 -31 -21.5 -52.5t-52.5 -21.5q-29 0 -50.5 21.5t-21.5 52.5q0 29 21.5 50.5t50.5 21.5q31 0 52.5 -21.5t21.5 -50.5z" />
    <glyph glyph-name="Lslash" unicode="&#x141;" horiz-adv-x="1583" 
d="M238 461l243 78q-9 77 -16.5 153t-7.5 152q0 144 28 249.5t73.5 179.5t104 120t119.5 72t119.5 35t104.5 9q69 0 124.5 -23t95 -61t60.5 -86.5t21 -99.5q0 -46 -11 -87t-24.5 -72.5t-25.5 -50.5t-13 -21l-31 22q18 27 33 60q12 28 22.5 64t10.5 77q0 50 -18.5 93.5
t-52 76t-81.5 51t-108 18.5q-105 0 -187 -43.5t-138 -113t-85 -156t-29 -172.5q0 -93 10.5 -196.5t16.5 -213.5l375 119l12 -37l-385 -120q2 -17 2 -34v-34q0 -91 -12.5 -169.5t-38.5 -143.5q55 -41 107 -85t106.5 -81t115 -60.5t132.5 -23.5q93 0 170.5 39.5t133.5 102.5
t87 141t31 155q0 28 -8 66t-29 69l24 19q1 -2 14 -18.5t28 -46t27.5 -70.5t12.5 -93q0 -74 -27 -146.5t-83 -130t-142.5 -93t-204.5 -35.5q-93 0 -164 24.5t-129.5 62.5t-110 83t-105.5 86q-48 -100 -127.5 -156.5t-194.5 -56.5q-48 0 -87 13.5t-67 37.5t-43.5 56.5
t-15.5 70.5q0 87 60.5 136.5t166.5 49.5q76 0 139 -20.5t117 -52.5q13 53 13 120q0 47 -3 91.5t-8 89.5l-235 -74zM225 -53q97 0 159.5 58t90.5 157q-51 31 -110 51t-134 20q-15 0 -40.5 -5t-50 -20t-42.5 -43.5t-18 -76.5q0 -32 11.5 -57.5t31 -44.5t46 -29t56.5 -10z" />
    <glyph glyph-name="lslash" unicode="&#x142;" horiz-adv-x="430" 
d="M-66 379l138 72q-3 55 -3.5 104.5t-0.5 91.5q0 91 7.5 181t23 172t37.5 152.5t51.5 122t65 80.5t77.5 29q30 0 51 -10t34 -27t19 -39.5t6 -47.5q0 -86 -26 -185.5t-65 -199.5t-83.5 -194.5l-81.5 -170.5l146 80l18 -35l-190 -100q4 -82 14 -148t25 -112.5t36 -71.5
t48 -25q30 0 59.5 28t59.5 79t61 123t63 161l39 -10q-24 -69 -54 -145.5t-67 -140.5t-80.5 -106t-93.5 -42q-51 0 -85.5 31.5t-57 83t-34.5 117t-17 133.5l-121 -64zM152 684v-74.5t2 -70.5l53 109.5l55.5 123t52.5 128.5t44 127.5t30.5 119t11.5 102.5q0 15 -2.5 32
t-9 31.5t-18.5 24t-31 9.5q-38 0 -72.5 -49.5t-60 -137.5t-40.5 -209.5t-15 -265.5z" />
    <glyph glyph-name="Ntilde" unicode="&#xd1;" horiz-adv-x="1380" 
d="M-20 -219l30.5 40t55 83t67.5 124.5t68 164.5t56.5 203t33.5 239q14 188 22.5 342t13 264t6 170.5t1.5 61.5l39 4l51 -263l51.5 -269l54.5 -262.5t61 -243t71 -211t83.5 -166.5t100 -109t119.5 -39q42 0 87 29t82 94t61 169t24 253q0 89 -9.5 193t-29.5 214.5
t-49.5 221.5t-70 213.5t-91.5 192.5t-113 157l27 28q66 -71 119.5 -162t95 -195t71.5 -216t49.5 -224t29 -220t9.5 -203q0 -125 -21 -240t-64.5 -203t-109.5 -140t-157 -52q-72 0 -131.5 35.5t-108.5 98.5t-87.5 149.5t-68.5 188t-53 214t-40 228.5t-29.5 231t-21.5 221
q-5 -108 -15.5 -248.5t-19.5 -308.5q-10 -172 -35.5 -309t-67 -244t-97.5 -187.5t-128 -138.5zM611 1730q18 0 29.5 9.5t18.5 22.5t9.5 25.5t3.5 18.5h31q0 -15 -4.5 -36t-15.5 -40t-29 -32t-45 -13q-21 0 -39.5 12t-35 26l-31.5 26t-29 12q-17 0 -28 -10t-18 -22.5t-10 -25
t-4 -18.5h-31q0 15 4.5 35.5t15.5 39.5t29 32.5t46 13.5q21 0 38.5 -12t34 -26l31 -26t29.5 -12z" />
    <glyph glyph-name="ntilde" unicode="&#xf1;" horiz-adv-x="864" 
d="M94 489q15 39 32.5 74.5t37.5 62.5t43.5 43.5t52.5 16.5q14 0 32 -6t34.5 -24t27.5 -52t11 -90q0 -29 -3 -64l-6 -69q31 66 61.5 111.5t60 73t58.5 40t58 12.5q13 0 30.5 -6t33 -21t26 -41t10.5 -67q0 -33 -5 -66t-11 -64l-11 -58.5t-5 -48.5q0 -50 18 -76.5t55 -26.5
q30 0 57 22.5t50.5 57.5t43 77t34 80.5t24.5 68l14 40.5l39 -10l-29.5 -77.5t-34.5 -85.5t-41 -83.5t-49 -71.5t-58.5 -50t-69.5 -19q-32 0 -55.5 12.5t-39.5 33.5t-24 50t-8 62q0 37 6.5 76t14 75l14 66.5t6.5 50.5q0 31 -12 46.5t-33 15.5q-29 0 -56.5 -21t-53 -56
t-48.5 -80t-42.5 -92.5t-36 -94.5t-28.5 -85l-20.5 -64.5t-11.5 -33.5l-58 10q12 59 22 124.5t17.5 129t12 121.5t4.5 103q0 61 -8 82.5t-29 21.5q-18 0 -34 -13.5t-29.5 -36t-26.5 -52.5t-25 -64zM611 797q18 0 29.5 9.5t18.5 22.5t9.5 25.5t3.5 18.5h31q0 -15 -4.5 -36
t-15.5 -40t-29 -32t-45 -13q-21 0 -39.5 12t-35 26l-31.5 26t-29 12q-17 0 -28 -10t-18 -22.5t-10 -25t-4 -18.5h-31q0 15 4.5 35.5t15.5 39.5t29 32.5t46 13.5q21 0 38.5 -12t34 -26l31 -26t29.5 -12z" />
    <glyph glyph-name="Nacute" unicode="&#x143;" horiz-adv-x="1380" 
d="M-20 -219l30.5 40t55 83t67.5 124.5t68 164.5t56.5 203t33.5 239q14 188 22.5 342t13 264t6 170.5t1.5 61.5l39 4l51 -263l51.5 -269l54.5 -262.5t61 -243t71 -211t83.5 -166.5t100 -109t119.5 -39q42 0 87 29t82 94t61 169t24 253q0 89 -9.5 193t-29.5 214.5
t-49.5 221.5t-70 213.5t-91.5 192.5t-113 157l27 28q66 -71 119.5 -162t95 -195t71.5 -216t49.5 -224t29 -220t9.5 -203q0 -125 -21 -240t-64.5 -203t-109.5 -140t-157 -52q-72 0 -131.5 35.5t-108.5 98.5t-87.5 149.5t-68.5 188t-53 214t-40 228.5t-29.5 231t-21.5 221
q-5 -108 -15.5 -248.5t-19.5 -308.5q-10 -172 -35.5 -309t-67 -244t-97.5 -187.5t-128 -138.5zM672 1800l-239 -145l-19 24l219 180z" />
    <glyph glyph-name="nacute" unicode="&#x144;" horiz-adv-x="864" 
d="M94 489q15 39 32.5 74.5t37.5 62.5t43.5 43.5t52.5 16.5q14 0 32 -6t34.5 -24t27.5 -52t11 -90q0 -29 -3 -64l-6 -69q31 66 61.5 111.5t60 73t58.5 40t58 12.5q13 0 30.5 -6t33 -21t26 -41t10.5 -67q0 -33 -5 -66t-11 -64l-11 -58.5t-5 -48.5q0 -50 18 -76.5t55 -26.5
q30 0 57 22.5t50.5 57.5t43 77t34 80.5t24.5 68l14 40.5l39 -10l-29.5 -77.5t-34.5 -85.5t-41 -83.5t-49 -71.5t-58.5 -50t-69.5 -19q-32 0 -55.5 12.5t-39.5 33.5t-24 50t-8 62q0 37 6.5 76t14 75l14 66.5t6.5 50.5q0 31 -12 46.5t-33 15.5q-29 0 -56.5 -21t-53 -56
t-48.5 -80t-42.5 -92.5t-36 -94.5t-28.5 -85l-20.5 -64.5t-11.5 -33.5l-58 10q12 59 22 124.5t17.5 129t12 121.5t4.5 103q0 61 -8 82.5t-29 21.5q-18 0 -34 -13.5t-29.5 -36t-26.5 -52.5t-25 -64zM672 867l-239 -145l-19 24l219 180z" />
    <glyph glyph-name="Ncommaaccent" unicode="&#x145;" horiz-adv-x="1380" 
d="M-20 -219l30.5 40t55 83t67.5 124.5t68 164.5t56.5 203t33.5 239q14 188 22.5 342t13 264t6 170.5t1.5 61.5l39 4l51 -263l51.5 -269l54.5 -262.5t61 -243t71 -211t83.5 -166.5t100 -109t119.5 -39q42 0 87 29t82 94t61 169t24 253q0 89 -9.5 193t-29.5 214.5
t-49.5 221.5t-70 213.5t-91.5 192.5t-113 157l27 28q66 -71 119.5 -162t95 -195t71.5 -216t49.5 -224t29 -220t9.5 -203q0 -125 -21 -240t-64.5 -203t-109.5 -140t-157 -52q-72 0 -131.5 35.5t-108.5 98.5t-87.5 149.5t-68.5 188t-53 214t-40 228.5t-29.5 231t-21.5 221
q-5 -108 -15.5 -248.5t-19.5 -308.5q-10 -172 -35.5 -309t-67 -244t-97.5 -187.5t-128 -138.5zM655 -476q20 15 29.5 32.5t9.5 32.5q-23 0 -39 11.5t-16 37.5q0 20 14.5 35t34.5 15q26 0 40.5 -18t14.5 -46q0 -38 -21 -69.5t-46 -51.5z" />
    <glyph glyph-name="ncommaaccent" unicode="&#x146;" horiz-adv-x="864" 
d="M94 489q15 39 32.5 74.5t37.5 62.5t43.5 43.5t52.5 16.5q14 0 32 -6t34.5 -24t27.5 -52t11 -90q0 -29 -3 -64l-6 -69q31 66 61.5 111.5t60 73t58.5 40t58 12.5q13 0 30.5 -6t33 -21t26 -41t10.5 -67q0 -33 -5 -66t-11 -64l-11 -58.5t-5 -48.5q0 -50 18 -76.5t55 -26.5
q30 0 57 22.5t50.5 57.5t43 77t34 80.5t24.5 68l14 40.5l39 -10l-29.5 -77.5t-34.5 -85.5t-41 -83.5t-49 -71.5t-58.5 -50t-69.5 -19q-32 0 -55.5 12.5t-39.5 33.5t-24 50t-8 62q0 37 6.5 76t14 75l14 66.5t6.5 50.5q0 31 -12 46.5t-33 15.5q-29 0 -56.5 -21t-53 -56
t-48.5 -80t-42.5 -92.5t-36 -94.5t-28.5 -85l-20.5 -64.5t-11.5 -33.5l-58 10q12 59 22 124.5t17.5 129t12 121.5t4.5 103q0 61 -8 82.5t-29 21.5q-18 0 -34 -13.5t-29.5 -36t-26.5 -52.5t-25 -64zM436 -205q20 15 29.5 32.5t9.5 32.5q-23 0 -39 11.5t-16 37.5q0 20 14.5 35
t34.5 15q26 0 40.5 -18t14.5 -46q0 -38 -21 -69.5t-46 -51.5z" />
    <glyph glyph-name="Ncaron" unicode="&#x147;" horiz-adv-x="1380" 
d="M-20 -219l30.5 40t55 83t67.5 124.5t68 164.5t56.5 203t33.5 239q14 188 22.5 342t13 264t6 170.5t1.5 61.5l39 4l51 -263l51.5 -269l54.5 -262.5t61 -243t71 -211t83.5 -166.5t100 -109t119.5 -39q42 0 87 29t82 94t61 169t24 253q0 89 -9.5 193t-29.5 214.5
t-49.5 221.5t-70 213.5t-91.5 192.5t-113 157l27 28q66 -71 119.5 -162t95 -195t71.5 -216t49.5 -224t29 -220t9.5 -203q0 -125 -21 -240t-64.5 -203t-109.5 -140t-157 -52q-72 0 -131.5 35.5t-108.5 98.5t-87.5 149.5t-68.5 188t-53 214t-40 228.5t-29.5 231t-21.5 221
q-5 -108 -15.5 -248.5t-19.5 -308.5q-10 -172 -35.5 -309t-67 -244t-97.5 -187.5t-128 -138.5zM725 1833l-182 -178l-180 178l22 22l158 -127l162 127z" />
    <glyph glyph-name="ncaron" unicode="&#x148;" horiz-adv-x="864" 
d="M94 489q15 39 32.5 74.5t37.5 62.5t43.5 43.5t52.5 16.5q14 0 32 -6t34.5 -24t27.5 -52t11 -90q0 -29 -3 -64l-6 -69q31 66 61.5 111.5t60 73t58.5 40t58 12.5q13 0 30.5 -6t33 -21t26 -41t10.5 -67q0 -33 -5 -66t-11 -64l-11 -58.5t-5 -48.5q0 -50 18 -76.5t55 -26.5
q30 0 57 22.5t50.5 57.5t43 77t34 80.5t24.5 68l14 40.5l39 -10l-29.5 -77.5t-34.5 -85.5t-41 -83.5t-49 -71.5t-58.5 -50t-69.5 -19q-32 0 -55.5 12.5t-39.5 33.5t-24 50t-8 62q0 37 6.5 76t14 75l14 66.5t6.5 50.5q0 31 -12 46.5t-33 15.5q-29 0 -56.5 -21t-53 -56
t-48.5 -80t-42.5 -92.5t-36 -94.5t-28.5 -85l-20.5 -64.5t-11.5 -33.5l-58 10q12 59 22 124.5t17.5 129t12 121.5t4.5 103q0 61 -8 82.5t-29 21.5q-18 0 -34 -13.5t-29.5 -36t-26.5 -52.5t-25 -64zM725 900l-182 -178l-180 178l22 22l158 -127l162 127z" />
    <glyph glyph-name="napostrophe" unicode="&#x149;" horiz-adv-x="864" 
d="M94 489q15 39 32.5 74.5t37.5 62.5t43.5 43.5t52.5 16.5q14 0 32 -6t34.5 -24t27.5 -52t11 -90q0 -29 -3 -64l-6 -69q31 66 61.5 111.5t60 73t58.5 40t58 12.5q13 0 30.5 -6t33 -21t26 -41t10.5 -67q0 -33 -5 -66t-11 -64l-11 -58.5t-5 -48.5q0 -50 18 -76.5t55 -26.5
q30 0 57 22.5t50.5 57.5t43 77t34 80.5t24.5 68l14 40.5l39 -10l-29.5 -77.5t-34.5 -85.5t-41 -83.5t-49 -71.5t-58.5 -50t-69.5 -19q-32 0 -55.5 12.5t-39.5 33.5t-24 50t-8 62q0 37 6.5 76t14 75l14 66.5t6.5 50.5q0 31 -12 46.5t-33 15.5q-29 0 -56.5 -21t-53 -56
t-48.5 -80t-42.5 -92.5t-36 -94.5t-28.5 -85l-20.5 -64.5t-11.5 -33.5l-58 10q12 59 22 124.5t17.5 129t12 121.5t4.5 103q0 61 -8 82.5t-29 21.5q-18 0 -34 -13.5t-29.5 -36t-26.5 -52.5t-25 -64zM132 1090q20 15 29.5 32.5t9.5 32.5q-23 0 -39 11.5t-16 37.5q0 20 14.5 35
t34.5 15q26 0 40.5 -18t14.5 -46q0 -38 -21 -69.5t-46 -51.5z" />
    <glyph glyph-name="Eng" unicode="&#x14a;" horiz-adv-x="1380" 
d="M-20 -219l30.5 40t55 83t67.5 124.5t68 164.5t56.5 203t33.5 239q14 188 22.5 342t13 264t6 170.5t1.5 61.5l39 4l51 -263l51.5 -269l54.5 -262.5t61 -243t71 -211t83.5 -166.5t100 -109t119.5 -39q42 0 87 29t82 94t61 169t24 253q0 89 -9.5 193t-29.5 214.5
t-49.5 221.5t-70 213.5t-91.5 192.5t-113 157l27 28q66 -71 119.5 -162t95 -195t71.5 -216t49.5 -224t29 -220t9.5 -203q0 -287 -26 -511t-86.5 -378t-159.5 -234.5t-246 -80.5q-64 0 -116 18t-95 50t-78 76.5t-65 98.5l29 21q35 -55 72.5 -88.5t77.5 -51.5t82 -24t87 -6
q47 0 95.5 12.5t95.5 44t90.5 85t80 135.5t64.5 196t43 266q-21 -59 -49.5 -107.5t-65.5 -83t-82.5 -54t-99.5 -19.5q-72 0 -131.5 35.5t-108.5 98.5t-87.5 149.5t-68.5 188t-53 214t-40 228.5t-29.5 231t-21.5 221q-5 -108 -15.5 -248.5t-19.5 -308.5q-10 -172 -35.5 -309
t-67 -244t-97.5 -187.5t-128 -138.5z" />
    <glyph glyph-name="eng" unicode="&#x14b;" horiz-adv-x="856" 
d="M629 492q0 43 -14 65.5t-37 22.5q-29 0 -56.5 -21t-52.5 -56t-47 -80t-41 -92.5t-35 -94.5l-28 -85l-20 -64.5t-11 -33.5l-58 10q12 59 22 124.5t17.5 129t12 121.5t4.5 103q0 61 -8 82.5t-29 21.5q-18 0 -34 -13.5t-29.5 -36t-26.5 -52.5t-25 -64l-39 10
q15 39 32.5 74.5t37.5 62.5t43.5 43.5t52.5 16.5q14 0 32 -6t34.5 -24t27.5 -52t11 -90q0 -29 -3 -64l-6 -69q31 66 60.5 111.5t58.5 73t58 40t61 12.5q18 0 36.5 -7.5t33.5 -24.5t24.5 -44.5t9.5 -68.5q0 -28 -1.5 -76t-5.5 -110t-10.5 -134.5t-16.5 -148.5
q44 43 83.5 92.5t75 108.5t67 129.5t60.5 154.5l39 -10q-35 -104 -72.5 -186t-79.5 -147.5t-88.5 -118t-97.5 -97.5q-11 -71 -25 -139.5t-32.5 -131t-41.5 -115.5t-50.5 -92t-60.5 -61t-72 -22q-31 0 -58.5 11t-48.5 31t-33 49t-12 65q0 63 23 110.5t61.5 86.5t87.5 72.5
l100 68.5l93 69q11 90 20 180.5t15 167.5t9 133.5t3 78.5zM522 -395q14 52 26 117.5t23 140.5q-18 -16 -38.5 -31l-40.5 -31l-87.5 -67.5t-70.5 -67.5t-47 -74t-17 -86q0 -18 6.5 -35t18 -30.5t27.5 -22t36 -8.5q22 0 44.5 12t44.5 36.5t41 61t34 85.5z" />
    <glyph glyph-name="Ograve" unicode="&#xd2;" horiz-adv-x="1485" 
d="M1395 639q-1 -188 -49 -335.5t-135.5 -250.5t-211 -157t-274.5 -54q-142 0 -260 55t-202.5 151t-131.5 227t-47 284q0 130 26 239t68.5 199t98.5 162t115.5 127.5t119.5 96.5t110.5 69t88 44t53.5 22l12 -33q-31 -13 -85 -42t-117 -76.5t-128 -116t-117.5 -159
t-86 -205.5t-33.5 -257q0 -149 35.5 -283t106.5 -235t177.5 -160.5t249.5 -59.5q41 0 99.5 12.5t122.5 44.5t127.5 86t113.5 137t81.5 198.5t31.5 269.5q0 43 -3.5 89.5t-11.5 92.5q-89 -75 -193.5 -119.5t-221.5 -44.5q-77 0 -144 21.5t-116.5 61t-78 94t-28.5 120.5
q0 84 32.5 149.5t85.5 110t120.5 68t138.5 23.5q97 0 170 -33.5t125 -89.5t85.5 -129t51.5 -152q48 47 89 105t75 133l37 -15q-74 -154 -193 -270q11 -56 16 -110t5 -105zM954 733q99 0 195.5 32t181.5 103q-17 78 -47.5 149.5t-78 127t-114 88.5t-155.5 33
q-72 0 -125.5 -22t-89.5 -59t-54 -85.5t-18 -100.5q0 -44 15.5 -91t51.5 -86t94.5 -64t143.5 -25zM760 1777l219 -180l-18 -24l-240 145z" />
    <glyph glyph-name="ograve" unicode="&#xf2;" horiz-adv-x="690" 
d="M344 90q56 0 107.5 41t80.5 119h-8q-62 0 -114.5 21t-91 58.5t-60.5 90t-22 115.5q0 35 9.5 71t29.5 64.5t52 46.5t76 18q36 0 71 -14.5t63 -49.5t45.5 -94.5t17.5 -150.5q0 -34 -3 -67.5t-11 -65.5q39 7 69.5 25t54 43.5t41.5 58t33 69.5l39 -10q-21 -57 -48.5 -97
t-59 -67t-66 -41.5t-71.5 -19.5q-14 -49 -37 -92t-56 -75t-76.5 -50.5t-97.5 -18.5q-45 0 -90.5 18.5t-82 57t-59 97t-22.5 139.5q0 53 12.5 104t35 96.5t53.5 85t67 68.5l15 -25q-23 -21 -44 -52t-38 -68.5t-27 -79t-10 -82.5q0 -81 20.5 -136t52.5 -88.5t72 -48t78 -14.5z
M401 696q-27 0 -50 -11.5t-40 -31.5t-27 -48t-10 -62q0 -59 20 -106t54.5 -80t80.5 -50.5t99 -17.5h19q8 31 11 65t3 74q-2 77 -15.5 128.5t-34.5 82.5t-49.5 44t-60.5 13zM283 1042l219 -180l-18 -24l-240 145z" />
    <glyph glyph-name="Oacute" unicode="&#xd3;" horiz-adv-x="1485" 
d="M1395 639q-1 -188 -49 -335.5t-135.5 -250.5t-211 -157t-274.5 -54q-142 0 -260 55t-202.5 151t-131.5 227t-47 284q0 130 26 239t68.5 199t98.5 162t115.5 127.5t119.5 96.5t110.5 69t88 44t53.5 22l12 -33q-31 -13 -85 -42t-117 -76.5t-128 -116t-117.5 -159
t-86 -205.5t-33.5 -257q0 -149 35.5 -283t106.5 -235t177.5 -160.5t249.5 -59.5q41 0 99.5 12.5t122.5 44.5t127.5 86t113.5 137t81.5 198.5t31.5 269.5q0 43 -3.5 89.5t-11.5 92.5q-89 -75 -193.5 -119.5t-221.5 -44.5q-77 0 -144 21.5t-116.5 61t-78 94t-28.5 120.5
q0 84 32.5 149.5t85.5 110t120.5 68t138.5 23.5q97 0 170 -33.5t125 -89.5t85.5 -129t51.5 -152q48 47 89 105t75 133l37 -15q-74 -154 -193 -270q11 -56 16 -110t5 -105zM954 733q99 0 195.5 32t181.5 103q-17 78 -47.5 149.5t-78 127t-114 88.5t-155.5 33
q-72 0 -125.5 -22t-89.5 -59t-54 -85.5t-18 -100.5q0 -44 15.5 -91t51.5 -86t94.5 -64t143.5 -25zM1128 1718l-239 -145l-19 24l219 180z" />
    <glyph glyph-name="oacute" unicode="&#xf3;" horiz-adv-x="690" 
d="M344 90q56 0 107.5 41t80.5 119h-8q-62 0 -114.5 21t-91 58.5t-60.5 90t-22 115.5q0 35 9.5 71t29.5 64.5t52 46.5t76 18q36 0 71 -14.5t63 -49.5t45.5 -94.5t17.5 -150.5q0 -34 -3 -67.5t-11 -65.5q39 7 69.5 25t54 43.5t41.5 58t33 69.5l39 -10q-21 -57 -48.5 -97
t-59 -67t-66 -41.5t-71.5 -19.5q-14 -49 -37 -92t-56 -75t-76.5 -50.5t-97.5 -18.5q-45 0 -90.5 18.5t-82 57t-59 97t-22.5 139.5q0 53 12.5 104t35 96.5t53.5 85t67 68.5l15 -25q-23 -21 -44 -52t-38 -68.5t-27 -79t-10 -82.5q0 -81 20.5 -136t52.5 -88.5t72 -48t78 -14.5z
M401 696q-27 0 -50 -11.5t-40 -31.5t-27 -48t-10 -62q0 -59 20 -106t54.5 -80t80.5 -50.5t99 -17.5h19q8 31 11 65t3 74q-2 77 -15.5 128.5t-34.5 82.5t-49.5 44t-60.5 13zM502 983l-239 -145l-19 24l219 180z" />
    <glyph glyph-name="Ocircumflex" unicode="&#xd4;" horiz-adv-x="1485" 
d="M1395 639q-1 -188 -49 -335.5t-135.5 -250.5t-211 -157t-274.5 -54q-142 0 -260 55t-202.5 151t-131.5 227t-47 284q0 130 26 239t68.5 199t98.5 162t115.5 127.5t119.5 96.5t110.5 69t88 44t53.5 22l12 -33q-31 -13 -85 -42t-117 -76.5t-128 -116t-117.5 -159
t-86 -205.5t-33.5 -257q0 -149 35.5 -283t106.5 -235t177.5 -160.5t249.5 -59.5q41 0 99.5 12.5t122.5 44.5t127.5 86t113.5 137t81.5 198.5t31.5 269.5q0 43 -3.5 89.5t-11.5 92.5q-89 -75 -193.5 -119.5t-221.5 -44.5q-77 0 -144 21.5t-116.5 61t-78 94t-28.5 120.5
q0 84 32.5 149.5t85.5 110t120.5 68t138.5 23.5q97 0 170 -33.5t125 -89.5t85.5 -129t51.5 -152q48 47 89 105t75 133l37 -15q-74 -154 -193 -270q11 -56 16 -110t5 -105zM954 733q99 0 195.5 32t181.5 103q-17 78 -47.5 149.5t-78 127t-114 88.5t-155.5 33
q-72 0 -125.5 -22t-89.5 -59t-54 -85.5t-18 -100.5q0 -44 15.5 -91t51.5 -86t94.5 -64t143.5 -25zM1012 1573l-164 127l-158 -127l-20 20l178 180l184 -180z" />
    <glyph glyph-name="ocircumflex" unicode="&#xf4;" horiz-adv-x="690" 
d="M344 90q56 0 107.5 41t80.5 119h-8q-62 0 -114.5 21t-91 58.5t-60.5 90t-22 115.5q0 35 9.5 71t29.5 64.5t52 46.5t76 18q36 0 71 -14.5t63 -49.5t45.5 -94.5t17.5 -150.5q0 -34 -3 -67.5t-11 -65.5q39 7 69.5 25t54 43.5t41.5 58t33 69.5l39 -10q-21 -57 -48.5 -97
t-59 -67t-66 -41.5t-71.5 -19.5q-14 -49 -37 -92t-56 -75t-76.5 -50.5t-97.5 -18.5q-45 0 -90.5 18.5t-82 57t-59 97t-22.5 139.5q0 53 12.5 104t35 96.5t53.5 85t67 68.5l15 -25q-23 -21 -44 -52t-38 -68.5t-27 -79t-10 -82.5q0 -81 20.5 -136t52.5 -88.5t72 -48t78 -14.5z
M401 696q-27 0 -50 -11.5t-40 -31.5t-27 -48t-10 -62q0 -59 20 -106t54.5 -80t80.5 -50.5t99 -17.5h19q8 31 11 65t3 74q-2 77 -15.5 128.5t-34.5 82.5t-49.5 44t-60.5 13zM535 838l-164 127l-158 -127l-20 20l178 180l184 -180z" />
    <glyph glyph-name="Otilde" unicode="&#xd5;" horiz-adv-x="1485" 
d="M1395 639q-1 -188 -49 -335.5t-135.5 -250.5t-211 -157t-274.5 -54q-142 0 -260 55t-202.5 151t-131.5 227t-47 284q0 130 26 239t68.5 199t98.5 162t115.5 127.5t119.5 96.5t110.5 69t88 44t53.5 22l12 -33q-31 -13 -85 -42t-117 -76.5t-128 -116t-117.5 -159
t-86 -205.5t-33.5 -257q0 -149 35.5 -283t106.5 -235t177.5 -160.5t249.5 -59.5q41 0 99.5 12.5t122.5 44.5t127.5 86t113.5 137t81.5 198.5t31.5 269.5q0 43 -3.5 89.5t-11.5 92.5q-89 -75 -193.5 -119.5t-221.5 -44.5q-77 0 -144 21.5t-116.5 61t-78 94t-28.5 120.5
q0 84 32.5 149.5t85.5 110t120.5 68t138.5 23.5q97 0 170 -33.5t125 -89.5t85.5 -129t51.5 -152q48 47 89 105t75 133l37 -15q-74 -154 -193 -270q11 -56 16 -110t5 -105zM954 733q99 0 195.5 32t181.5 103q-17 78 -47.5 149.5t-78 127t-114 88.5t-155.5 33
q-72 0 -125.5 -22t-89.5 -59t-54 -85.5t-18 -100.5q0 -44 15.5 -91t51.5 -86t94.5 -64t143.5 -25zM918 1648q18 0 29.5 9.5t18.5 22.5t9.5 25.5t3.5 18.5h31q0 -15 -4.5 -36t-15.5 -40t-29 -32t-45 -13q-21 0 -39.5 12t-35 26l-31.5 26t-29 12q-17 0 -28 -10t-18 -22.5
t-10 -25t-4 -18.5h-31q0 15 4.5 35.5t15.5 39.5t29 32.5t46 13.5q21 0 38.5 -12t34 -26l31 -26t29.5 -12z" />
    <glyph glyph-name="otilde" unicode="&#xf5;" horiz-adv-x="690" 
d="M344 90q56 0 107.5 41t80.5 119h-8q-62 0 -114.5 21t-91 58.5t-60.5 90t-22 115.5q0 35 9.5 71t29.5 64.5t52 46.5t76 18q36 0 71 -14.5t63 -49.5t45.5 -94.5t17.5 -150.5q0 -34 -3 -67.5t-11 -65.5q39 7 69.5 25t54 43.5t41.5 58t33 69.5l39 -10q-21 -57 -48.5 -97
t-59 -67t-66 -41.5t-71.5 -19.5q-14 -49 -37 -92t-56 -75t-76.5 -50.5t-97.5 -18.5q-45 0 -90.5 18.5t-82 57t-59 97t-22.5 139.5q0 53 12.5 104t35 96.5t53.5 85t67 68.5l15 -25q-23 -21 -44 -52t-38 -68.5t-27 -79t-10 -82.5q0 -81 20.5 -136t52.5 -88.5t72 -48t78 -14.5z
M401 696q-27 0 -50 -11.5t-40 -31.5t-27 -48t-10 -62q0 -59 20 -106t54.5 -80t80.5 -50.5t99 -17.5h19q8 31 11 65t3 74q-2 77 -15.5 128.5t-34.5 82.5t-49.5 44t-60.5 13zM441 913q18 0 29.5 9.5t18.5 22.5t9.5 25.5t3.5 18.5h31q0 -15 -4.5 -36t-15.5 -40t-29 -32t-45 -13
q-21 0 -39.5 12t-35 26l-31.5 26t-29 12q-17 0 -28 -10t-18 -22.5t-10 -25t-4 -18.5h-31q0 15 4.5 35.5t15.5 39.5t29 32.5t46 13.5q21 0 38.5 -12t34 -26l31 -26t29.5 -12z" />
    <glyph glyph-name="Odieresis" unicode="&#xd6;" horiz-adv-x="1485" 
d="M1395 639q-1 -188 -49 -335.5t-135.5 -250.5t-211 -157t-274.5 -54q-142 0 -260 55t-202.5 151t-131.5 227t-47 284q0 130 26 239t68.5 199t98.5 162t115.5 127.5t119.5 96.5t110.5 69t88 44t53.5 22l12 -33q-31 -13 -85 -42t-117 -76.5t-128 -116t-117.5 -159
t-86 -205.5t-33.5 -257q0 -149 35.5 -283t106.5 -235t177.5 -160.5t249.5 -59.5q41 0 99.5 12.5t122.5 44.5t127.5 86t113.5 137t81.5 198.5t31.5 269.5q0 43 -3.5 89.5t-11.5 92.5q-89 -75 -193.5 -119.5t-221.5 -44.5q-77 0 -144 21.5t-116.5 61t-78 94t-28.5 120.5
q0 84 32.5 149.5t85.5 110t120.5 68t138.5 23.5q97 0 170 -33.5t125 -89.5t85.5 -129t51.5 -152q48 47 89 105t75 133l37 -15q-74 -154 -193 -270q11 -56 16 -110t5 -105zM954 733q99 0 195.5 32t181.5 103q-17 78 -47.5 149.5t-78 127t-114 88.5t-155.5 33
q-72 0 -125.5 -22t-89.5 -59t-54 -85.5t-18 -100.5q0 -44 15.5 -91t51.5 -86t94.5 -64t143.5 -25zM705 1648q0 20 12.5 34t32.5 14t33.5 -14t13.5 -34q0 -18 -13.5 -31.5t-33.5 -13.5t-32.5 13.5t-12.5 31.5zM903 1648q0 20 13.5 34t32.5 14q20 0 33.5 -14t13.5 -34
q0 -18 -13.5 -31.5t-33.5 -13.5q-19 0 -32.5 13.5t-13.5 31.5z" />
    <glyph glyph-name="odieresis" unicode="&#xf6;" horiz-adv-x="690" 
d="M344 90q56 0 107.5 41t80.5 119h-8q-62 0 -114.5 21t-91 58.5t-60.5 90t-22 115.5q0 35 9.5 71t29.5 64.5t52 46.5t76 18q36 0 71 -14.5t63 -49.5t45.5 -94.5t17.5 -150.5q0 -34 -3 -67.5t-11 -65.5q39 7 69.5 25t54 43.5t41.5 58t33 69.5l39 -10q-21 -57 -48.5 -97
t-59 -67t-66 -41.5t-71.5 -19.5q-14 -49 -37 -92t-56 -75t-76.5 -50.5t-97.5 -18.5q-45 0 -90.5 18.5t-82 57t-59 97t-22.5 139.5q0 53 12.5 104t35 96.5t53.5 85t67 68.5l15 -25q-23 -21 -44 -52t-38 -68.5t-27 -79t-10 -82.5q0 -81 20.5 -136t52.5 -88.5t72 -48t78 -14.5z
M401 696q-27 0 -50 -11.5t-40 -31.5t-27 -48t-10 -62q0 -59 20 -106t54.5 -80t80.5 -50.5t99 -17.5h19q8 31 11 65t3 74q-2 77 -15.5 128.5t-34.5 82.5t-49.5 44t-60.5 13zM228 913q0 20 12.5 34t32.5 14t33.5 -14t13.5 -34q0 -18 -13.5 -31.5t-33.5 -13.5t-32.5 13.5
t-12.5 31.5zM426 913q0 20 13.5 34t32.5 14q20 0 33.5 -14t13.5 -34q0 -18 -13.5 -31.5t-33.5 -13.5q-19 0 -32.5 13.5t-13.5 31.5z" />
    <glyph glyph-name="Omacron" unicode="&#x14c;" horiz-adv-x="1485" 
d="M1395 639q-1 -188 -49 -335.5t-135.5 -250.5t-211 -157t-274.5 -54q-142 0 -260 55t-202.5 151t-131.5 227t-47 284q0 130 26 239t68.5 199t98.5 162t115.5 127.5t119.5 96.5t110.5 69t88 44t53.5 22l12 -33q-31 -13 -85 -42t-117 -76.5t-128 -116t-117.5 -159
t-86 -205.5t-33.5 -257q0 -149 35.5 -283t106.5 -235t177.5 -160.5t249.5 -59.5q41 0 99.5 12.5t122.5 44.5t127.5 86t113.5 137t81.5 198.5t31.5 269.5q0 43 -3.5 89.5t-11.5 92.5q-89 -75 -193.5 -119.5t-221.5 -44.5q-77 0 -144 21.5t-116.5 61t-78 94t-28.5 120.5
q0 84 32.5 149.5t85.5 110t120.5 68t138.5 23.5q97 0 170 -33.5t125 -89.5t85.5 -129t51.5 -152q48 47 89 105t75 133l37 -15q-74 -154 -193 -270q11 -56 16 -110t5 -105zM954 733q99 0 195.5 32t181.5 103q-17 78 -47.5 149.5t-78 127t-114 88.5t-155.5 33
q-72 0 -125.5 -22t-89.5 -59t-54 -85.5t-18 -100.5q0 -44 15.5 -91t51.5 -86t94.5 -64t143.5 -25zM715 1624v43h270v-43h-270z" />
    <glyph glyph-name="omacron" unicode="&#x14d;" horiz-adv-x="690" 
d="M344 90q56 0 107.5 41t80.5 119h-8q-62 0 -114.5 21t-91 58.5t-60.5 90t-22 115.5q0 35 9.5 71t29.5 64.5t52 46.5t76 18q36 0 71 -14.5t63 -49.5t45.5 -94.5t17.5 -150.5q0 -34 -3 -67.5t-11 -65.5q39 7 69.5 25t54 43.5t41.5 58t33 69.5l39 -10q-21 -57 -48.5 -97
t-59 -67t-66 -41.5t-71.5 -19.5q-14 -49 -37 -92t-56 -75t-76.5 -50.5t-97.5 -18.5q-45 0 -90.5 18.5t-82 57t-59 97t-22.5 139.5q0 53 12.5 104t35 96.5t53.5 85t67 68.5l15 -25q-23 -21 -44 -52t-38 -68.5t-27 -79t-10 -82.5q0 -81 20.5 -136t52.5 -88.5t72 -48t78 -14.5z
M401 696q-27 0 -50 -11.5t-40 -31.5t-27 -48t-10 -62q0 -59 20 -106t54.5 -80t80.5 -50.5t99 -17.5h19q8 31 11 65t3 74q-2 77 -15.5 128.5t-34.5 82.5t-49.5 44t-60.5 13zM238 889v43h270v-43h-270z" />
    <glyph glyph-name="Obreve" unicode="&#x14e;" horiz-adv-x="1485" 
d="M1395 639q-1 -188 -49 -335.5t-135.5 -250.5t-211 -157t-274.5 -54q-142 0 -260 55t-202.5 151t-131.5 227t-47 284q0 130 26 239t68.5 199t98.5 162t115.5 127.5t119.5 96.5t110.5 69t88 44t53.5 22l12 -33q-31 -13 -85 -42t-117 -76.5t-128 -116t-117.5 -159
t-86 -205.5t-33.5 -257q0 -149 35.5 -283t106.5 -235t177.5 -160.5t249.5 -59.5q41 0 99.5 12.5t122.5 44.5t127.5 86t113.5 137t81.5 198.5t31.5 269.5q0 43 -3.5 89.5t-11.5 92.5q-89 -75 -193.5 -119.5t-221.5 -44.5q-77 0 -144 21.5t-116.5 61t-78 94t-28.5 120.5
q0 84 32.5 149.5t85.5 110t120.5 68t138.5 23.5q97 0 170 -33.5t125 -89.5t85.5 -129t51.5 -152q48 47 89 105t75 133l37 -15q-74 -154 -193 -270q11 -56 16 -110t5 -105zM954 733q99 0 195.5 32t181.5 103q-17 78 -47.5 149.5t-78 127t-114 88.5t-155.5 33
q-72 0 -125.5 -22t-89.5 -59t-54 -85.5t-18 -100.5q0 -44 15.5 -91t51.5 -86t94.5 -64t143.5 -25zM996 1745q0 -23 -7 -48.5t-23.5 -47t-45 -36t-70.5 -14.5q-44 0 -72 16t-43.5 39t-21.5 48t-6 43h31q2 -11 7 -27t17 -31t32.5 -26t55.5 -11q36 0 58 11t34 26t16.5 31
t6.5 27h31z" />
    <glyph glyph-name="obreve" unicode="&#x14f;" horiz-adv-x="690" 
d="M344 90q56 0 107.5 41t80.5 119h-8q-62 0 -114.5 21t-91 58.5t-60.5 90t-22 115.5q0 35 9.5 71t29.5 64.5t52 46.5t76 18q36 0 71 -14.5t63 -49.5t45.5 -94.5t17.5 -150.5q0 -34 -3 -67.5t-11 -65.5q39 7 69.5 25t54 43.5t41.5 58t33 69.5l39 -10q-21 -57 -48.5 -97
t-59 -67t-66 -41.5t-71.5 -19.5q-14 -49 -37 -92t-56 -75t-76.5 -50.5t-97.5 -18.5q-45 0 -90.5 18.5t-82 57t-59 97t-22.5 139.5q0 53 12.5 104t35 96.5t53.5 85t67 68.5l15 -25q-23 -21 -44 -52t-38 -68.5t-27 -79t-10 -82.5q0 -81 20.5 -136t52.5 -88.5t72 -48t78 -14.5z
M401 696q-27 0 -50 -11.5t-40 -31.5t-27 -48t-10 -62q0 -59 20 -106t54.5 -80t80.5 -50.5t99 -17.5h19q8 31 11 65t3 74q-2 77 -15.5 128.5t-34.5 82.5t-49.5 44t-60.5 13zM519 1010q0 -23 -7 -48.5t-23.5 -47t-45 -36t-70.5 -14.5q-44 0 -72 16t-43.5 39t-21.5 48t-6 43h31
q2 -11 7 -27t17 -31t32.5 -26t55.5 -11q36 0 58 11t34 26t16.5 31t6.5 27h31z" />
    <glyph glyph-name="Ohungarumlaut" unicode="&#x150;" horiz-adv-x="1485" 
d="M1395 639q-1 -188 -49 -335.5t-135.5 -250.5t-211 -157t-274.5 -54q-142 0 -260 55t-202.5 151t-131.5 227t-47 284q0 130 26 239t68.5 199t98.5 162t115.5 127.5t119.5 96.5t110.5 69t88 44t53.5 22l12 -33q-31 -13 -85 -42t-117 -76.5t-128 -116t-117.5 -159
t-86 -205.5t-33.5 -257q0 -149 35.5 -283t106.5 -235t177.5 -160.5t249.5 -59.5q41 0 99.5 12.5t122.5 44.5t127.5 86t113.5 137t81.5 198.5t31.5 269.5q0 43 -3.5 89.5t-11.5 92.5q-89 -75 -193.5 -119.5t-221.5 -44.5q-77 0 -144 21.5t-116.5 61t-78 94t-28.5 120.5
q0 84 32.5 149.5t85.5 110t120.5 68t138.5 23.5q97 0 170 -33.5t125 -89.5t85.5 -129t51.5 -152q48 47 89 105t75 133l37 -15q-74 -154 -193 -270q11 -56 16 -110t5 -105zM954 733q99 0 195.5 32t181.5 103q-17 78 -47.5 149.5t-78 127t-114 88.5t-155.5 33
q-72 0 -125.5 -22t-89.5 -59t-54 -85.5t-18 -100.5q0 -44 15.5 -91t51.5 -86t94.5 -64t143.5 -25zM936 1724l-207 -151l-18 24l178 180zM1110 1720l-217 -147l-18 24l192 180z" />
    <glyph glyph-name="ohungarumlaut" unicode="&#x151;" horiz-adv-x="690" 
d="M344 90q56 0 107.5 41t80.5 119h-8q-62 0 -114.5 21t-91 58.5t-60.5 90t-22 115.5q0 35 9.5 71t29.5 64.5t52 46.5t76 18q36 0 71 -14.5t63 -49.5t45.5 -94.5t17.5 -150.5q0 -34 -3 -67.5t-11 -65.5q39 7 69.5 25t54 43.5t41.5 58t33 69.5l39 -10q-21 -57 -48.5 -97
t-59 -67t-66 -41.5t-71.5 -19.5q-14 -49 -37 -92t-56 -75t-76.5 -50.5t-97.5 -18.5q-45 0 -90.5 18.5t-82 57t-59 97t-22.5 139.5q0 53 12.5 104t35 96.5t53.5 85t67 68.5l15 -25q-23 -21 -44 -52t-38 -68.5t-27 -79t-10 -82.5q0 -81 20.5 -136t52.5 -88.5t72 -48t78 -14.5z
M401 696q-27 0 -50 -11.5t-40 -31.5t-27 -48t-10 -62q0 -59 20 -106t54.5 -80t80.5 -50.5t99 -17.5h19q8 31 11 65t3 74q-2 77 -15.5 128.5t-34.5 82.5t-49.5 44t-60.5 13zM459 989l-207 -151l-18 24l178 180zM633 985l-217 -147l-18 24l192 180z" />
    <glyph glyph-name="Oslash" unicode="&#xd8;" horiz-adv-x="1485" 
d="M242 -201l51 80.5l55 87.5q-125 96 -194.5 249t-69.5 343q0 130 26 239t68.5 199t98.5 162t115.5 127.5t119.5 96.5t110.5 69t88 44t53.5 22l12 -33q-31 -13 -85 -42t-117 -76.5t-128 -116t-117.5 -159t-86 -205.5t-33.5 -257q0 -87 12 -169.5t36 -157t60 -138.5t84 -115
l193 302.5l207 320.5q-54 15 -99 41t-77 62.5t-50 81.5t-18 97q0 84 32.5 149.5t85.5 110t120.5 68t138.5 23.5t128 -18.5t103 -49.5l66 101.5l61 95.5l35 -21l-63 -98l-66 -103q66 -57 106 -138.5t62 -172.5q48 47 89 105t75 133l37 -15q-74 -154 -193 -270q11 -56 16 -110
t5 -105q-1 -188 -49 -335.5t-135.5 -250.5t-211 -157t-274.5 -54q-97 0 -183.5 26.5t-158.5 74.5l-56.5 -86l-50.5 -78zM924 657q-20 0 -40 0.5t-38 4.5l-215.5 -336l-198.5 -308q66 -58 152 -92.5t194 -34.5q41 0 99.5 12.5t122.5 44.5t127.5 86t113.5 137t81.5 198.5
t31.5 269.5q0 43 -3.5 89.5t-11.5 92.5q-89 -75 -193.5 -119.5t-221.5 -44.5zM649 999q0 -36 10.5 -74.5t33.5 -73.5t61 -63t94 -43l151.5 236l143.5 221q-42 29 -93 46.5t-114 17.5q-72 0 -125.5 -22t-89.5 -59t-54 -85.5t-18 -100.5zM954 733q99 0 195.5 32t181.5 103
q-18 91 -56 171.5t-99 136.5l-139 -215.5l-144 -225.5q14 -2 29 -2h32z" />
    <glyph glyph-name="oslash" unicode="&#xf8;" horiz-adv-x="690" 
d="M72 -141l51.5 109.5l46.5 97.5q-50 37 -81.5 102t-31.5 162q0 53 12.5 104t35 96.5t53.5 85t67 68.5l15 -25q-23 -21 -44 -52t-38 -68.5t-27 -79t-10 -82.5q0 -90 23.5 -148t60.5 -90l49.5 107.5l46.5 99.5q-31 37 -48 84.5t-17 104.5q0 35 9.5 71t29.5 64.5t52 46.5
t76 18q40 0 76 -18l49.5 101.5l55.5 113.5l37 -17l-57.5 -116l-49.5 -105q37 -32 61.5 -96.5t24.5 -171.5q0 -34 -3 -67.5t-11 -65.5q39 7 69.5 25t54 43.5t41.5 58t33 69.5l39 -10q-21 -57 -48.5 -97t-59 -67t-66 -41.5t-71.5 -19.5q-14 -49 -37 -92t-56 -75t-76.5 -50.5
t-97.5 -18.5q-52 0 -104 25l-47 -94.5l-51 -106.5zM561 428q-3 90 -20.5 145t-44.5 84l-77 -163l-67 -142q34 -31 79.5 -47t96.5 -16h19q8 31 11 65t3 74zM344 90q56 0 107.5 41t80.5 119h-8q-112 0 -190 63l-45.5 -97l-46.5 -101q47 -25 102 -25zM401 696q-27 0 -50 -11.5
t-40 -31.5t-27 -48t-10 -62q0 -47 13 -86t35 -70l67.5 140l73.5 155q-14 8 -30 11t-32 3z" />
    <glyph glyph-name="Oslashacute" unicode="&#x1fe;" horiz-adv-x="1485" 
d="M242 -201l51 80.5l55 87.5q-125 96 -194.5 249t-69.5 343q0 130 26 239t68.5 199t98.5 162t115.5 127.5t119.5 96.5t110.5 69t88 44t53.5 22l12 -33q-31 -13 -85 -42t-117 -76.5t-128 -116t-117.5 -159t-86 -205.5t-33.5 -257q0 -87 12 -169.5t36 -157t60 -138.5t84 -115
l193 302.5l207 320.5q-54 15 -99 41t-77 62.5t-50 81.5t-18 97q0 84 32.5 149.5t85.5 110t120.5 68t138.5 23.5t128 -18.5t103 -49.5l66 101.5l61 95.5l35 -21l-63 -98l-66 -103q66 -57 106 -138.5t62 -172.5q48 47 89 105t75 133l37 -15q-74 -154 -193 -270q11 -56 16 -110
t5 -105q-1 -188 -49 -335.5t-135.5 -250.5t-211 -157t-274.5 -54q-97 0 -183.5 26.5t-158.5 74.5l-56.5 -86l-50.5 -78zM924 657q-20 0 -40 0.5t-38 4.5l-215.5 -336l-198.5 -308q66 -58 152 -92.5t194 -34.5q41 0 99.5 12.5t122.5 44.5t127.5 86t113.5 137t81.5 198.5
t31.5 269.5q0 43 -3.5 89.5t-11.5 92.5q-89 -75 -193.5 -119.5t-221.5 -44.5zM649 999q0 -36 10.5 -74.5t33.5 -73.5t61 -63t94 -43l151.5 236l143.5 221q-42 29 -93 46.5t-114 17.5q-72 0 -125.5 -22t-89.5 -59t-54 -85.5t-18 -100.5zM954 733q99 0 195.5 32t181.5 103
q-18 91 -56 171.5t-99 136.5l-139 -215.5l-144 -225.5q14 -2 29 -2h32zM1200 1636l-239 -145l-19 24l219 180z" />
    <glyph glyph-name="oslashacute" unicode="&#x1ff;" horiz-adv-x="690" 
d="M72 -141l51.5 109.5l46.5 97.5q-50 37 -81.5 102t-31.5 162q0 53 12.5 104t35 96.5t53.5 85t67 68.5l15 -25q-23 -21 -44 -52t-38 -68.5t-27 -79t-10 -82.5q0 -90 23.5 -148t60.5 -90l49.5 107.5l46.5 99.5q-31 37 -48 84.5t-17 104.5q0 35 9.5 71t29.5 64.5t52 46.5
t76 18q40 0 76 -18l49.5 101.5l55.5 113.5l37 -17l-57.5 -116l-49.5 -105q37 -32 61.5 -96.5t24.5 -171.5q0 -34 -3 -67.5t-11 -65.5q39 7 69.5 25t54 43.5t41.5 58t33 69.5l39 -10q-21 -57 -48.5 -97t-59 -67t-66 -41.5t-71.5 -19.5q-14 -49 -37 -92t-56 -75t-76.5 -50.5
t-97.5 -18.5q-52 0 -104 25l-47 -94.5l-51 -106.5zM561 428q-3 90 -20.5 145t-44.5 84l-77 -163l-67 -142q34 -31 79.5 -47t96.5 -16h19q8 31 11 65t3 74zM344 90q56 0 107.5 41t80.5 119h-8q-112 0 -190 63l-45.5 -97l-46.5 -101q47 -25 102 -25zM401 696q-27 0 -50 -11.5
t-40 -31.5t-27 -48t-10 -62q0 -47 13 -86t35 -70l67.5 140l73.5 155q-14 8 -30 11t-32 3zM518 983l-239 -145l-19 24l219 180z" />
    <glyph glyph-name="OE" unicode="&#x152;" horiz-adv-x="2533" 
d="M1579 1049q0 99 38 173.5t100 124t142.5 74.5t165.5 25q94 0 158 -29.5t103 -75t56 -100.5t17 -106q0 -28 -3 -45t-3 -19l-39 4q1 8 2 18q1 8 1.5 19t0.5 25q0 45 -13.5 93t-47 87t-90 64.5t-142.5 25.5q-75 0 -138.5 -25.5t-109.5 -70t-72 -104t-26 -128.5t23 -126.5
t65 -100.5q45 15 90.5 24t92.5 9q34 0 62.5 -5.5t49.5 -16.5t33 -26.5t12 -35.5q0 -28 -18.5 -44t-44 -24t-53 -10t-45.5 -2q-65 0 -123.5 17.5t-106.5 49.5q-58 -29 -109.5 -73t-89.5 -102.5t-60.5 -130.5t-22.5 -156q0 -82 22 -144t59 -106.5t84 -74.5t97 -47.5t99 -24.5
t89 -7q130 0 233 41.5t176 112t114 164.5t47 198l38 -2q-3 -87 -31 -164.5t-76 -143.5t-112 -118.5t-139 -89.5t-158 -56.5t-168 -19.5q-93 0 -178.5 25t-152 74t-109.5 120t-51 164q-40 -92 -99 -163.5t-134.5 -121t-165.5 -75t-193 -25.5q-142 0 -260 55t-202.5 151
t-131.5 227t-47 284q0 130 26 239t68.5 199t98.5 162t115.5 127.5t119.5 96.5t110.5 69t88 44t53.5 22l12 -33q-31 -13 -85 -42t-117 -76.5t-128 -116t-117.5 -159t-86 -205.5t-33.5 -257q0 -149 35.5 -283t106.5 -235t177.5 -160.5t249.5 -59.5q41 0 99.5 12.5t122.5 44.5
t127.5 86t113.5 137t81.5 198.5t31.5 269.5q0 43 -3.5 89.5t-11.5 92.5q-89 -75 -193.5 -119.5t-221.5 -44.5q-77 0 -144 21.5t-116.5 61t-78 94t-28.5 120.5q0 84 32.5 149.5t85.5 110t120.5 68t138.5 23.5q97 0 170 -33.5t125 -89.5t85.5 -129t51.5 -152q48 47 89 105
t75 133l37 -15q-74 -154 -193 -270q11 -56 16 -110t5 -105q0 -25 -1 -48t-3 -46q49 88 125 157.5t165 114.5q-48 43 -75 101.5t-27 130.5zM936 1266q-72 0 -125.5 -22t-89.5 -59t-54 -85.5t-18 -100.5q0 -44 15.5 -91t51.5 -86t94.5 -64t143.5 -25q99 0 195.5 32t181.5 103
q-17 78 -47.5 149.5t-78 127t-114 88.5t-155.5 33zM1991 766q37 0 57 10.5t20 24.5q0 15 -31.5 30t-86.5 15q-73 0 -148 -23q37 -28 85 -42.5t104 -14.5z" />
    <glyph glyph-name="oe" unicode="&#x153;" horiz-adv-x="1075" 
d="M815 14q-43 0 -83 12.5t-73.5 37.5t-57.5 63.5t-36 89.5q-15 -42 -38.5 -78.5t-55 -63.5t-71.5 -42t-89 -15q-45 0 -90.5 18.5t-82 57t-59 97t-22.5 139.5q0 53 12.5 104t35 96.5t53.5 85t67 68.5l15 -25q-23 -21 -44 -52t-38 -68.5t-27 -79t-10 -82.5q0 -81 20.5 -136
t52.5 -88.5t72 -48t78 -14.5q42 0 82 23t70.5 66.5t48.5 106t16 142.5q-2 77 -15.5 128.5t-34.5 82.5t-49.5 44t-60.5 13q-27 0 -50 -11.5t-40 -31.5t-27 -48t-10 -62q0 -93 48 -156l-39 -14q-22 34 -34.5 74.5t-12.5 87.5q0 35 9.5 71t29.5 64.5t52 46.5t76 18
q31 0 62.5 -11t57.5 -38t45.5 -72t27.5 -112q20 45 47.5 79t59.5 57.5t66.5 35.5t68.5 12q62 0 98.5 -41t36.5 -106q0 -56 -21 -101.5t-55.5 -78t-79 -50.5t-92.5 -18q-23 0 -43.5 2.5t-36.5 5.5q5 -62 23.5 -107t45.5 -74t60.5 -43t69.5 -14q45 0 83 22t70 57.5t58.5 81.5
t47.5 93.5t37.5 93l28.5 80.5l39 -10l-30 -80t-40.5 -98.5t-54 -103t-69.5 -92t-88.5 -66t-110.5 -25.5zM840 647q-37 0 -73 -23.5t-64 -64.5t-45 -97t-17 -120q12 -5 36 -8.5t58 -3.5q35 0 70.5 15.5t64 43t46.5 65.5t18 83q0 22 -6 42t-18 35t-29.5 24t-40.5 9z" />
    <glyph glyph-name="Thorn" unicode="&#xde;" horiz-adv-x="1434" 
d="M555 -199q-17 26 -36 66t-37.5 91t-36 111t-31.5 126q-48 7 -78 19t-46.5 26t-22 29t-5.5 28q0 34 31.5 65t87.5 56q-3 26 -3.5 52t-0.5 52q0 106 9.5 203.5t25.5 186t37.5 166.5t44.5 145q-66 -18 -131.5 -42t-126 -51.5t-115 -57.5t-98.5 -58l-23 33q4 3 44 28
t107.5 59t158.5 71t198 63q28 73 54.5 130.5t48 97.5t34.5 61t14 22l37 -16l-40 -89.5t-66 -189.5q48 8 98 13.5t103 5.5q122 0 233 -30.5t195 -92t134 -155t50 -220.5q0 -104 -34.5 -190t-95 -154.5t-142.5 -120t-177 -86t-198 -51.5t-205 -17h-39q15 -117 37 -214t45 -162
zM573 424q-45 -3 -81 -12q2 -48 5.5 -94t8.5 -93h53q80 0 164.5 15t164.5 46.5t150.5 81t123.5 118.5t83.5 159t30.5 203q0 90 -28.5 156t-74.5 111.5t-105 74t-119.5 44t-117.5 21t-100 5.5q-37 0 -75 -4.5t-78 -12.5q-36 -130 -62.5 -310.5t-26.5 -416.5v-65
q20 5 39.5 7.5t40.5 4.5zM403 236q-6 34 -10.5 70t-7.5 71q-42 -20 -62 -41.5t-20 -38.5t22.5 -33.5t77.5 -27.5z" />
    <glyph glyph-name="thorn" unicode="&#xfe;" horiz-adv-x="768" 
d="M416 1128q0 -60 -20 -134.5t-54.5 -162t-80.5 -187l-99 -210.5v-50.5t2 -51.5q41 83 81 142t79.5 96.5t79.5 55t81 17.5q37 0 67 -16t51 -43.5t32.5 -65.5t11.5 -82q0 -81 -26 -159t-78 -134q19 -8 45 -8q33 0 62.5 18.5t56 49t50 69t43 78t35 76l27.5 63.5l39 -10
l-29.5 -74t-38 -84t-47 -83.5t-56.5 -72.5t-67 -51.5t-77 -19.5q-40 0 -80 17q-34 -26 -75 -41t-91 -15q-31 0 -50 8t-29.5 19.5t-14.5 23.5t-4 21q0 20 9 35.5t24 26.5t34.5 16.5t40.5 5.5q34 0 65 -12.5t60 -26.5q23 29 41 65t30 74.5t18.5 76.5t6.5 71q0 77 -25.5 111
t-60.5 34q-39 0 -75.5 -24t-74 -75t-77 -129.5t-84.5 -187.5q-2 -2 -2 -4t-2 -4q6 -106 11 -218t5 -232q0 -161 -37 -238.5t-114 -77.5q-30 0 -52 14t-36.5 38t-21.5 56.5t-7 69.5q0 60 14.5 131.5t39.5 149.5t58 159.5t70 162.5q-8 99 -12 192.5t-4 179.5q0 87 7.5 172
t22 162t35 143t46.5 114t56 75t64 27q47 0 74 -36t27 -96zM317 1219q-38 0 -66.5 -54t-47.5 -147.5t-29.5 -220.5t-11.5 -273q45 88 84 173.5t67.5 163.5t45 146t16.5 121q0 16 -2.5 32.5t-9.5 29.5t-18 21t-28 8zM129 -340q0 91 -5 186.5t-11 194.5q-60 -148 -99 -266
t-39 -213q0 -45 17 -77t51 -32q18 0 33.5 10t27 34t18.5 64t7 99zM336 94q31 0 58 12t50 33q-27 13 -50.5 23t-45.5 10q-38 0 -52.5 -14.5t-14.5 -28.5q0 -11 13 -23t42 -12z" />
    <glyph glyph-name="Racute" unicode="&#x154;" horiz-adv-x="1583" 
d="M799 436q-38 0 -88 3.5t-101 11.5q2 -26 3 -52t1 -51q0 -113 -20 -206t-60 -159t-99.5 -102.5t-137.5 -36.5q-59 0 -132.5 22t-164.5 79l20 32q78 -48 147.5 -71t129.5 -23q65 0 107 23.5t66.5 62t34 87.5t9.5 100q0 71 -9.5 152t-17.5 171q-46 16 -75 37.5t-29 50.5
q0 28 26.5 48.5t69.5 31.5q0 86 13 168.5t32.5 155.5t42 135t42.5 106.5t33.5 69.5t14.5 25l35 -17q0 -1 -16 -39.5t-35 -108.5t-35 -168t-16 -218v-48.5t2 -50.5q111 -5 188.5 -50t134.5 -124q86 18 165.5 61.5t140 110.5t97 156t36.5 197q0 86 -25.5 153.5t-68 118
t-98 85.5t-114.5 56.5t-117.5 31t-107.5 9.5q-138 0 -248.5 -21t-195.5 -53t-146.5 -69t-101.5 -69t-59 -54l-19 -22l-33 22q3 3 24 27t62.5 57.5t105 72.5t152 71.5t202.5 54.5t257 22q82 0 163 -12.5t154 -38t135.5 -65.5t108 -94.5t71.5 -125t26 -157.5
q0 -125 -45.5 -221.5t-121 -166t-173 -113t-201.5 -61.5q35 -54 61 -120q31 -74 56.5 -153.5t53.5 -155.5t61.5 -144t79 -119.5t107 -81.5t146.5 -30q60 0 122.5 26.5t127.5 85.5l25 -28q-37 -36 -76 -68.5t-81.5 -57t-89.5 -39t-101 -14.5q-81 0 -140.5 22.5t-103.5 63
t-74 95.5t-52 119.5t-38.5 137l-32.5 146.5q-20 91 -44.5 169t-61.5 140q-22 -3 -43.5 -3.5t-42.5 -0.5zM596 618q2 -32 5.5 -65.5t6.5 -65.5q38 -8 87 -11t108 -3h29t30 2q-46 63 -109.5 100.5t-156.5 42.5zM483 522q-2 20 -3 41.5t-1 42.5q-26 -6 -41.5 -16t-15.5 -21
q0 -8 14.5 -20.5t46.5 -26.5zM975 1728l-239 -145l-19 24l219 180z" />
    <glyph glyph-name="racute" unicode="&#x155;" horiz-adv-x="594" 
d="M152 532q-10 -35 -20 -60t-22 -46.5t-26.5 -41l-32.5 -42.5l-8 8q23 59 40.5 111t31.5 104q-16 23 -27.5 57.5t-11.5 82.5q0 43 13.5 71.5t35.5 28.5q12 0 22.5 -11t17.5 -29t11 -41.5t4 -49.5q0 -12 -1.5 -26t-3.5 -28.5t-5 -28t-6 -22.5q6 -5 19.5 -8.5t35.5 -3.5
q38 0 67 11t46 28l23.5 37t13.5 19.5t7.5 8t6.5 1.5q11 0 18 -6t7 -17q0 -3 -3 -8l-8 -13q-42 -61 -66 -134t-24 -162q0 -103 33.5 -149t95.5 -46q34 0 65 20.5t61 64t60.5 112t65.5 165.5l39 -10q-43 -127 -81 -208.5t-75 -129t-76 -66t-85 -18.5q-29 0 -60 13t-56.5 41
t-41.5 72.5t-16 107.5q0 31 5.5 64.5t14.5 65t20 61t23 53.5q-36 -17 -78 -17q-41 0 -69 14zM448 955l-239 -145l-19 24l219 180z" />
    <glyph glyph-name="Rcommaaccent" unicode="&#x156;" horiz-adv-x="1583" 
d="M799 436q-38 0 -88 3.5t-101 11.5q2 -26 3 -52t1 -51q0 -113 -20 -206t-60 -159t-99.5 -102.5t-137.5 -36.5q-59 0 -132.5 22t-164.5 79l20 32q78 -48 147.5 -71t129.5 -23q65 0 107 23.5t66.5 62t34 87.5t9.5 100q0 71 -9.5 152t-17.5 171q-46 16 -75 37.5t-29 50.5
q0 28 26.5 48.5t69.5 31.5q0 86 13 168.5t32.5 155.5t42 135t42.5 106.5t33.5 69.5t14.5 25l35 -17q0 -1 -16 -39.5t-35 -108.5t-35 -168t-16 -218v-48.5t2 -50.5q111 -5 188.5 -50t134.5 -124q86 18 165.5 61.5t140 110.5t97 156t36.5 197q0 86 -25.5 153.5t-68 118
t-98 85.5t-114.5 56.5t-117.5 31t-107.5 9.5q-138 0 -248.5 -21t-195.5 -53t-146.5 -69t-101.5 -69t-59 -54l-19 -22l-33 22q3 3 24 27t62.5 57.5t105 72.5t152 71.5t202.5 54.5t257 22q82 0 163 -12.5t154 -38t135.5 -65.5t108 -94.5t71.5 -125t26 -157.5
q0 -125 -45.5 -221.5t-121 -166t-173 -113t-201.5 -61.5q35 -54 61 -120q31 -74 56.5 -153.5t53.5 -155.5t61.5 -144t79 -119.5t107 -81.5t146.5 -30q60 0 122.5 26.5t127.5 85.5l25 -28q-37 -36 -76 -68.5t-81.5 -57t-89.5 -39t-101 -14.5q-81 0 -140.5 22.5t-103.5 63
t-74 95.5t-52 119.5t-38.5 137l-32.5 146.5q-20 91 -44.5 169t-61.5 140q-22 -3 -43.5 -3.5t-42.5 -0.5zM596 618q2 -32 5.5 -65.5t6.5 -65.5q38 -8 87 -11t108 -3h29t30 2q-46 63 -109.5 100.5t-156.5 42.5zM483 522q-2 20 -3 41.5t-1 42.5q-26 -6 -41.5 -16t-15.5 -21
q0 -8 14.5 -20.5t46.5 -26.5zM714 -347q20 15 29.5 32.5t9.5 32.5q-23 0 -39 11.5t-16 37.5q0 20 14.5 35t34.5 15q26 0 40.5 -18t14.5 -46q0 -38 -21 -69.5t-46 -51.5z" />
    <glyph glyph-name="rcommaaccent" unicode="&#x157;" horiz-adv-x="594" 
d="M152 532q-10 -35 -20 -60t-22 -46.5t-26.5 -41l-32.5 -42.5l-8 8q23 59 40.5 111t31.5 104q-16 23 -27.5 57.5t-11.5 82.5q0 43 13.5 71.5t35.5 28.5q12 0 22.5 -11t17.5 -29t11 -41.5t4 -49.5q0 -12 -1.5 -26t-3.5 -28.5t-5 -28t-6 -22.5q6 -5 19.5 -8.5t35.5 -3.5
q38 0 67 11t46 28l23.5 37t13.5 19.5t7.5 8t6.5 1.5q11 0 18 -6t7 -17q0 -3 -3 -8l-8 -13q-42 -61 -66 -134t-24 -162q0 -103 33.5 -149t95.5 -46q34 0 65 20.5t61 64t60.5 112t65.5 165.5l39 -10q-43 -127 -81 -208.5t-75 -129t-76 -66t-85 -18.5q-29 0 -60 13t-56.5 41
t-41.5 72.5t-16 107.5q0 31 5.5 64.5t14.5 65t20 61t23 53.5q-36 -17 -78 -17q-41 0 -69 14zM201 -225q20 15 29.5 32.5t9.5 32.5q-23 0 -39 11.5t-16 37.5q0 20 14.5 35t34.5 15q26 0 40.5 -18t14.5 -46q0 -38 -21 -69.5t-46 -51.5z" />
    <glyph glyph-name="Rcaron" unicode="&#x158;" horiz-adv-x="1583" 
d="M799 436q-38 0 -88 3.5t-101 11.5q2 -26 3 -52t1 -51q0 -113 -20 -206t-60 -159t-99.5 -102.5t-137.5 -36.5q-59 0 -132.5 22t-164.5 79l20 32q78 -48 147.5 -71t129.5 -23q65 0 107 23.5t66.5 62t34 87.5t9.5 100q0 71 -9.5 152t-17.5 171q-46 16 -75 37.5t-29 50.5
q0 28 26.5 48.5t69.5 31.5q0 86 13 168.5t32.5 155.5t42 135t42.5 106.5t33.5 69.5t14.5 25l35 -17q0 -1 -16 -39.5t-35 -108.5t-35 -168t-16 -218v-48.5t2 -50.5q111 -5 188.5 -50t134.5 -124q86 18 165.5 61.5t140 110.5t97 156t36.5 197q0 86 -25.5 153.5t-68 118
t-98 85.5t-114.5 56.5t-117.5 31t-107.5 9.5q-138 0 -248.5 -21t-195.5 -53t-146.5 -69t-101.5 -69t-59 -54l-19 -22l-33 22q3 3 24 27t62.5 57.5t105 72.5t152 71.5t202.5 54.5t257 22q82 0 163 -12.5t154 -38t135.5 -65.5t108 -94.5t71.5 -125t26 -157.5
q0 -125 -45.5 -221.5t-121 -166t-173 -113t-201.5 -61.5q35 -54 61 -120q31 -74 56.5 -153.5t53.5 -155.5t61.5 -144t79 -119.5t107 -81.5t146.5 -30q60 0 122.5 26.5t127.5 85.5l25 -28q-37 -36 -76 -68.5t-81.5 -57t-89.5 -39t-101 -14.5q-81 0 -140.5 22.5t-103.5 63
t-74 95.5t-52 119.5t-38.5 137l-32.5 146.5q-20 91 -44.5 169t-61.5 140q-22 -3 -43.5 -3.5t-42.5 -0.5zM596 618q2 -32 5.5 -65.5t6.5 -65.5q38 -8 87 -11t108 -3h29t30 2q-46 63 -109.5 100.5t-156.5 42.5zM483 522q-2 20 -3 41.5t-1 42.5q-26 -6 -41.5 -16t-15.5 -21
q0 -8 14.5 -20.5t46.5 -26.5zM1028 1761l-182 -178l-180 178l22 22l158 -127l162 127z" />
    <glyph glyph-name="rcaron" unicode="&#x159;" horiz-adv-x="594" 
d="M152 532q-10 -35 -20 -60t-22 -46.5t-26.5 -41l-32.5 -42.5l-8 8q23 59 40.5 111t31.5 104q-16 23 -27.5 57.5t-11.5 82.5q0 43 13.5 71.5t35.5 28.5q12 0 22.5 -11t17.5 -29t11 -41.5t4 -49.5q0 -12 -1.5 -26t-3.5 -28.5t-5 -28t-6 -22.5q6 -5 19.5 -8.5t35.5 -3.5
q38 0 67 11t46 28l23.5 37t13.5 19.5t7.5 8t6.5 1.5q11 0 18 -6t7 -17q0 -3 -3 -8l-8 -13q-42 -61 -66 -134t-24 -162q0 -103 33.5 -149t95.5 -46q34 0 65 20.5t61 64t60.5 112t65.5 165.5l39 -10q-43 -127 -81 -208.5t-75 -129t-76 -66t-85 -18.5q-29 0 -60 13t-56.5 41
t-41.5 72.5t-16 107.5q0 31 5.5 64.5t14.5 65t20 61t23 53.5q-36 -17 -78 -17q-41 0 -69 14zM461 988l-182 -178l-180 178l22 22l158 -127l162 127z" />
    <glyph glyph-name="Sacute" unicode="&#x15a;" horiz-adv-x="1206" 
d="M295 1038q0 -56 23 -100.5t62 -81t91.5 -67t111.5 -59l121.5 -56t121.5 -58t111.5 -66t91.5 -79t62 -97t23 -120.5q0 -122 -46 -211.5t-123 -148t-179 -87t-213 -28.5q-98 0 -185 25.5t-153 71t-104.5 109t-38.5 138.5q0 66 20.5 112.5t45 76.5t46.5 44t25 15l22 -47
q-2 -1 -19 -12.5t-36.5 -35.5t-36 -61.5t-16.5 -91.5t20.5 -96.5t55 -74.5t79 -55t92.5 -37.5t96 -21t89 -6.5q106 0 192 26.5t146.5 73t93.5 108t33 132.5q0 80 -34 138t-90 102.5t-127.5 80l-146 69.5t-146 71.5t-127.5 86.5t-90 113.5t-34 153.5q0 99 33.5 181t92 141.5
t137.5 92t171 32.5q93 0 163 -21.5t117.5 -60t71 -92.5t23.5 -119q0 -53 -12.5 -103.5t-27.5 -90.5t-28 -65t-14 -28l-45 25q0 1 11.5 24t25.5 60t25.5 83.5t11.5 94.5q0 54 -19.5 98.5t-59.5 75.5t-101 48t-144 17q-77 0 -143 -25.5t-114.5 -71.5t-76.5 -108.5t-28 -136.5z
M794 1661l-239 -145l-19 24l219 180z" />
    <glyph glyph-name="sacute" unicode="&#x15b;" horiz-adv-x="522" 
d="M166 565l-21.5 -57t-23 -56t-29.5 -55t-41 -55l-8 8q26 63 46 129t40 148q-5 14 -9 24t-7 18.5t-5 18t-2 21.5q0 16 4.5 35.5t13 36.5t19.5 28.5t23 11.5q14 0 22.5 -6.5t13.5 -16.5t7 -21t2 -21q0 -15 -3.5 -34.5t-8 -38l-8 -32.5t-3.5 -18q8 -27 27.5 -55t44.5 -57
l52.5 -60.5t50 -66.5t37 -74.5t14.5 -83.5q0 -63 -18.5 -102t-49.5 -60q45 18 84.5 64t73 105.5t62 124.5t50.5 121l39 -10q-34 -87 -72 -170t-86 -148t-108.5 -105t-138.5 -40q-21 0 -42.5 3.5t-42 11t-38.5 20.5t-31 31l33 22q9 -14 28 -26t50 -12q30 0 52.5 12.5t38 34
t23 50.5t7.5 62q0 68 -19.5 117t-46 87.5t-54 70.5t-42.5 65zM328 1053l-239 -145l-19 24l219 180z" />
    <glyph glyph-name="Scircumflex" unicode="&#x15c;" horiz-adv-x="1206" 
d="M295 1038q0 -56 23 -100.5t62 -81t91.5 -67t111.5 -59l121.5 -56t121.5 -58t111.5 -66t91.5 -79t62 -97t23 -120.5q0 -122 -46 -211.5t-123 -148t-179 -87t-213 -28.5q-98 0 -185 25.5t-153 71t-104.5 109t-38.5 138.5q0 66 20.5 112.5t45 76.5t46.5 44t25 15l22 -47
q-2 -1 -19 -12.5t-36.5 -35.5t-36 -61.5t-16.5 -91.5t20.5 -96.5t55 -74.5t79 -55t92.5 -37.5t96 -21t89 -6.5q106 0 192 26.5t146.5 73t93.5 108t33 132.5q0 80 -34 138t-90 102.5t-127.5 80l-146 69.5t-146 71.5t-127.5 86.5t-90 113.5t-34 153.5q0 99 33.5 181t92 141.5
t137.5 92t171 32.5q93 0 163 -21.5t117.5 -60t71 -92.5t23.5 -119q0 -53 -12.5 -103.5t-27.5 -90.5t-28 -65t-14 -28l-45 25q0 1 11.5 24t25.5 60t25.5 83.5t11.5 94.5q0 54 -19.5 98.5t-59.5 75.5t-101 48t-144 17q-77 0 -143 -25.5t-114.5 -71.5t-76.5 -108.5t-28 -136.5z
M827 1516l-164 127l-158 -127l-20 20l178 180l184 -180z" />
    <glyph glyph-name="scircumflex" unicode="&#x15d;" horiz-adv-x="522" 
d="M166 565l-21.5 -57t-23 -56t-29.5 -55t-41 -55l-8 8q26 63 46 129t40 148q-5 14 -9 24t-7 18.5t-5 18t-2 21.5q0 16 4.5 35.5t13 36.5t19.5 28.5t23 11.5q14 0 22.5 -6.5t13.5 -16.5t7 -21t2 -21q0 -15 -3.5 -34.5t-8 -38l-8 -32.5t-3.5 -18q8 -27 27.5 -55t44.5 -57
l52.5 -60.5t50 -66.5t37 -74.5t14.5 -83.5q0 -63 -18.5 -102t-49.5 -60q45 18 84.5 64t73 105.5t62 124.5t50.5 121l39 -10q-34 -87 -72 -170t-86 -148t-108.5 -105t-138.5 -40q-21 0 -42.5 3.5t-42 11t-38.5 20.5t-31 31l33 22q9 -14 28 -26t50 -12q30 0 52.5 12.5t38 34
t23 50.5t7.5 62q0 68 -19.5 117t-46 87.5t-54 70.5t-42.5 65zM361 908l-164 127l-158 -127l-20 20l178 180l184 -180z" />
    <glyph glyph-name="Scedilla" unicode="&#x15e;" horiz-adv-x="1206" 
d="M295 1038q0 -56 23 -100.5t62 -81t91.5 -67t111.5 -59l121.5 -56t121.5 -58t111.5 -66t91.5 -79t62 -97t23 -120.5q0 -114 -40.5 -200t-110 -144.5t-161.5 -90.5t-194 -38l-24 -78q22 0 43 -5.5t37 -16t26 -25.5t10 -35q0 -46 -32.5 -67t-83.5 -21q-37 0 -66.5 10
t-52.5 23l14 33q17 -11 46 -21t55 -10q31 0 50 14t19 39q0 16 -8 26.5t-20 16.5t-25.5 8t-24.5 2q-9 0 -17 -0.5t-17 -3.5l34 109h-18q-98 0 -185 25.5t-153 71t-104.5 109t-38.5 138.5q0 66 20.5 112.5t45 76.5t46.5 44t25 15l22 -47q-2 -1 -19 -12.5t-36.5 -35.5
t-36 -61.5t-16.5 -91.5t20.5 -96.5t55 -74.5t79 -55t92.5 -37.5t96 -21t89 -6.5q106 0 192 26.5t146.5 73t93.5 108t33 132.5q0 80 -34 138t-90 102.5t-127.5 80l-146 69.5t-146 71.5t-127.5 86.5t-90 113.5t-34 153.5q0 99 33.5 181t92 141.5t137.5 92t171 32.5
q93 0 163 -21.5t117.5 -60t71 -92.5t23.5 -119q0 -53 -12.5 -103.5t-27.5 -90.5t-28 -65t-14 -28l-45 25q0 1 11.5 24t25.5 60t25.5 83.5t11.5 94.5q0 54 -19.5 98.5t-59.5 75.5t-101 48t-144 17q-77 0 -143 -25.5t-114.5 -71.5t-76.5 -108.5t-28 -136.5z" />
    <glyph glyph-name="scedilla" unicode="&#x15f;" horiz-adv-x="522" 
d="M166 565l-21.5 -57t-23 -56t-29.5 -55t-41 -55l-8 8q26 63 46 129t40 148q-5 14 -9 24t-7 18.5t-5 18t-2 21.5q0 16 4.5 35.5t13 36.5t19.5 28.5t23 11.5q14 0 22.5 -6.5t13.5 -16.5t7 -21t2 -21q0 -15 -3.5 -34.5t-8 -38l-8 -32.5t-3.5 -18q8 -27 27.5 -55t44.5 -57
l52.5 -60.5t50 -66.5t37 -74.5t14.5 -83.5q0 -63 -18.5 -102t-49.5 -60q45 18 84.5 64t73 105.5t62 124.5t50.5 121l39 -10q-34 -87 -72 -170t-86 -148t-108.5 -105t-138.5 -40h-15.5t-15.5 2l-22 -69q22 0 43 -5.5t37 -16t26 -25.5t10 -35q0 -47 -32.5 -67.5t-83.5 -20.5
q-38 0 -67 10t-52 23l14 32q17 -11 46 -20.5t55 -9.5q30 0 49.5 14t19.5 39q0 16 -8 26.5t-20 16.5t-25.5 8t-24.5 2q-9 0 -17 -0.5t-17 -3.5l34 109q-26 6 -49 20t-39 37l33 22q9 -14 28 -26t50 -12q30 0 52.5 12.5t38 34t23 50.5t7.5 62q0 68 -19.5 117t-46 87.5t-54 70.5
t-42.5 65z" />
    <glyph glyph-name="Scaron" unicode="&#x160;" horiz-adv-x="1206" 
d="M295 1038q0 -56 23 -100.5t62 -81t91.5 -67t111.5 -59l121.5 -56t121.5 -58t111.5 -66t91.5 -79t62 -97t23 -120.5q0 -122 -46 -211.5t-123 -148t-179 -87t-213 -28.5q-98 0 -185 25.5t-153 71t-104.5 109t-38.5 138.5q0 66 20.5 112.5t45 76.5t46.5 44t25 15l22 -47
q-2 -1 -19 -12.5t-36.5 -35.5t-36 -61.5t-16.5 -91.5t20.5 -96.5t55 -74.5t79 -55t92.5 -37.5t96 -21t89 -6.5q106 0 192 26.5t146.5 73t93.5 108t33 132.5q0 80 -34 138t-90 102.5t-127.5 80l-146 69.5t-146 71.5t-127.5 86.5t-90 113.5t-34 153.5q0 99 33.5 181t92 141.5
t137.5 92t171 32.5q93 0 163 -21.5t117.5 -60t71 -92.5t23.5 -119q0 -53 -12.5 -103.5t-27.5 -90.5t-28 -65t-14 -28l-45 25q0 1 11.5 24t25.5 60t25.5 83.5t11.5 94.5q0 54 -19.5 98.5t-59.5 75.5t-101 48t-144 17q-77 0 -143 -25.5t-114.5 -71.5t-76.5 -108.5t-28 -136.5z
M847 1694l-182 -178l-180 178l22 22l158 -127l162 127z" />
    <glyph glyph-name="scaron" unicode="&#x161;" horiz-adv-x="522" 
d="M166 565l-21.5 -57t-23 -56t-29.5 -55t-41 -55l-8 8q26 63 46 129t40 148q-5 14 -9 24t-7 18.5t-5 18t-2 21.5q0 16 4.5 35.5t13 36.5t19.5 28.5t23 11.5q14 0 22.5 -6.5t13.5 -16.5t7 -21t2 -21q0 -15 -3.5 -34.5t-8 -38l-8 -32.5t-3.5 -18q8 -27 27.5 -55t44.5 -57
l52.5 -60.5t50 -66.5t37 -74.5t14.5 -83.5q0 -63 -18.5 -102t-49.5 -60q45 18 84.5 64t73 105.5t62 124.5t50.5 121l39 -10q-34 -87 -72 -170t-86 -148t-108.5 -105t-138.5 -40q-21 0 -42.5 3.5t-42 11t-38.5 20.5t-31 31l33 22q9 -14 28 -26t50 -12q30 0 52.5 12.5t38 34
t23 50.5t7.5 62q0 68 -19.5 117t-46 87.5t-54 70.5t-42.5 65zM382 1086l-182 -178l-180 178l22 22l158 -127l162 127z" />
    <glyph glyph-name="Tcommaaccent" unicode="&#x162;" horiz-adv-x="1552" 
d="M641 -166q-108 0 -195 27.5t-149 76t-95.5 114.5t-33.5 143v19t2 19l39 -4q-2 -9 -2 -16.5v-15.5q0 -69 31 -128t86.5 -102.5t133 -68.5t171.5 -25q86 0 150.5 25t110.5 68t76.5 102t49 126t27.5 140t12 145t3 140t1 126q2 143 36.5 253t84.5 194q-70 23 -141 59.5
l-142 71.5t-143.5 60.5t-145.5 25.5q-119 0 -202 -32t-135 -82.5t-75.5 -112.5t-23.5 -123q0 -71 23.5 -131t66 -104t100.5 -68.5t127 -24.5q66 0 119.5 24.5t91 54.5t57.5 55t21 26l31 -23q0 -1 -11 -15.5t-32.5 -35.5t-53.5 -45.5t-74.5 -45t-94 -34.5t-113.5 -14
q-63 0 -128.5 21.5t-119 65t-87.5 109.5t-34 154q0 86 34 162.5t99 133.5t161 90.5t220 33.5q63 0 121.5 -12.5t112.5 -32.5t104.5 -45l99 -50l95 -47t92.5 -36q37 55 74 96t67.5 68t49.5 41t20 16l23 -33q-7 -4 -25.5 -18t-43 -39.5t-52 -61.5t-53.5 -84q15 -2 29 -3t30 -1
q73 0 130.5 18.5t101 47t74.5 62t50.5 63t29 50t11.5 23.5l37 -12q-1 -1 -11 -23t-31.5 -54.5t-55.5 -69.5t-82 -69t-111.5 -53.5t-144.5 -21.5q-19 0 -38 2t-38 7q-31 -65 -51.5 -148.5t-20.5 -185.5q0 -84 7.5 -174.5t7.5 -180.5q0 -139 -30.5 -258.5t-96.5 -207
t-169 -137.5t-247 -50zM598 -443q20 15 29.5 32.5t9.5 32.5q-23 0 -39 11.5t-16 37.5q0 20 14.5 35t34.5 15q26 0 40.5 -18t14.5 -46q0 -38 -21 -69.5t-46 -51.5z" />
    <glyph glyph-name="tcommaaccent" unicode="&#x163;" horiz-adv-x="471" 
d="M-117 842l36 -21t49 -23t62.5 -20.5t75.5 -13.5q14 90 36 162.5t48.5 124t55 79t55.5 27.5q31 0 44 -24t13 -64q0 -29 -6 -64t-16 -74.5t-24 -82l-29 -84.5q100 9 184.5 33t146.5 49l19 -37q-82 -31 -170 -55.5t-197 -30.5q-25 -65 -51.5 -123.5t-48.5 -101.5
q1 -56 6.5 -121.5t22 -122.5t47 -95t80.5 -38q42 0 77 35.5t64.5 90t54.5 119.5l47 123l39 -10l-30 -81t-36 -91.5t-44 -90t-53 -78t-64 -55t-76 -20.5q-44 0 -82.5 20t-67 71.5t-45 140t-16.5 225.5q0 110 12 205q-86 11 -144.5 34.5t-90.5 45.5zM307 1104q-9 0 -27 -18
t-38 -58.5t-38.5 -106t-29.5 -161.5h19h49q18 50 31.5 97t23.5 87.5t15 73t5 53.5q0 33 -10 33zM166 578q17 35 32 70.5t29 72.5h-37h-20q-2 -32 -3 -67.5t-1 -73.5v-2zM263 -225q20 15 29.5 32.5t9.5 32.5q-23 0 -39 11.5t-16 37.5q0 20 14.5 35t34.5 15q26 0 40.5 -18
t14.5 -46q0 -38 -21 -69.5t-46 -51.5z" />
    <glyph glyph-name="Tcaron" unicode="&#x164;" horiz-adv-x="1552" 
d="M641 -166q-108 0 -195 27.5t-149 76t-95.5 114.5t-33.5 143v19t2 19l39 -4q-2 -9 -2 -16.5v-15.5q0 -69 31 -128t86.5 -102.5t133 -68.5t171.5 -25q86 0 150.5 25t110.5 68t76.5 102t49 126t27.5 140t12 145t3 140t1 126q2 143 36.5 253t84.5 194q-70 23 -141 59.5
l-142 71.5t-143.5 60.5t-145.5 25.5q-119 0 -202 -32t-135 -82.5t-75.5 -112.5t-23.5 -123q0 -71 23.5 -131t66 -104t100.5 -68.5t127 -24.5q66 0 119.5 24.5t91 54.5t57.5 55t21 26l31 -23q0 -1 -11 -15.5t-32.5 -35.5t-53.5 -45.5t-74.5 -45t-94 -34.5t-113.5 -14
q-63 0 -128.5 21.5t-119 65t-87.5 109.5t-34 154q0 86 34 162.5t99 133.5t161 90.5t220 33.5q63 0 121.5 -12.5t112.5 -32.5t104.5 -45l99 -50l95 -47t92.5 -36q37 55 74 96t67.5 68t49.5 41t20 16l23 -33q-7 -4 -25.5 -18t-43 -39.5t-52 -61.5t-53.5 -84q15 -2 29 -3t30 -1
q73 0 130.5 18.5t101 47t74.5 62t50.5 63t29 50t11.5 23.5l37 -12q-1 -1 -11 -23t-31.5 -54.5t-55.5 -69.5t-82 -69t-111.5 -53.5t-144.5 -21.5q-19 0 -38 2t-38 7q-31 -65 -51.5 -148.5t-20.5 -185.5q0 -84 7.5 -174.5t7.5 -180.5q0 -139 -30.5 -258.5t-96.5 -207
t-169 -137.5t-247 -50zM1214 1698l-182 -178l-180 178l22 22l158 -127l162 127z" />
    <glyph glyph-name="tcaron" unicode="&#x165;" horiz-adv-x="471" 
d="M-117 842l36 -21t49 -23t62.5 -20.5t75.5 -13.5q14 90 36 162.5t48.5 124t55 79t55.5 27.5q31 0 44 -24t13 -64q0 -29 -6 -64t-16 -74.5t-24 -82l-29 -84.5q100 9 184.5 33t146.5 49l19 -37q-82 -31 -170 -55.5t-197 -30.5q-25 -65 -51.5 -123.5t-48.5 -101.5
q1 -56 6.5 -121.5t22 -122.5t47 -95t80.5 -38q42 0 77 35.5t64.5 90t54.5 119.5l47 123l39 -10l-30 -81t-36 -91.5t-44 -90t-53 -78t-64 -55t-76 -20.5q-44 0 -82.5 20t-67 71.5t-45 140t-16.5 225.5q0 110 12 205q-86 11 -144.5 34.5t-90.5 45.5zM307 1104q-9 0 -27 -18
t-38 -58.5t-38.5 -106t-29.5 -161.5h19h49q18 50 31.5 97t23.5 87.5t15 73t5 53.5q0 33 -10 33zM166 578q17 35 32 70.5t29 72.5h-37h-20q-2 -32 -3 -67.5t-1 -73.5v-2zM444 1045q20 15 29.5 32.5t9.5 32.5q-23 0 -39 11.5t-16 37.5q0 20 14.5 35t34.5 15q26 0 40.5 -18
t14.5 -46q0 -38 -21 -69.5t-46 -51.5z" />
    <glyph glyph-name="Tbar" unicode="&#x166;" horiz-adv-x="1552" 
d="M575 1448q63 0 121.5 -12.5t112.5 -32.5t104.5 -45l99 -50l95 -47t92.5 -36q37 55 74 96t67.5 68t49.5 41t20 16l23 -33q-7 -4 -25.5 -18t-43 -39.5t-52 -61.5t-53.5 -84q15 -2 29 -3t30 -1q73 0 130.5 18.5t101 47t74.5 62t50.5 63t29 50t11.5 23.5l37 -12
q-1 -1 -11 -23t-31.5 -54.5t-55.5 -69.5t-82 -69t-111.5 -53.5t-144.5 -21.5q-19 0 -38 2t-38 7q-31 -65 -51.5 -148.5t-20.5 -185.5q0 -84 7.5 -174.5t7.5 -180.5v-32h323v-39h-325q-8 -126 -43 -232.5t-101 -184.5t-164.5 -121.5t-232.5 -43.5q-108 0 -195 27.5t-149 76
t-95.5 114.5t-33.5 143v19t2 19l39 -4q-2 -9 -2 -16.5v-15.5q0 -69 31 -128t86.5 -102.5t133 -68.5t171.5 -25q80 0 140.5 21.5t106 59t76.5 89t51 112t31.5 127t16.5 134.5h-398v39h400q5 78 4.5 152.5t1.5 137.5q2 143 36.5 253t84.5 194q-70 23 -141 59.5l-142 71.5
t-143.5 60.5t-145.5 25.5q-119 0 -202 -32t-135 -82.5t-75.5 -112.5t-23.5 -123q0 -71 23.5 -131t66 -104t100.5 -68.5t127 -24.5q66 0 119.5 24.5t91 54.5t57.5 55t21 26l31 -23q0 -1 -11 -15.5t-32.5 -35.5t-53.5 -45.5t-74.5 -45t-94 -34.5t-113.5 -14q-63 0 -128.5 21.5
t-119 65t-87.5 109.5t-34 154q0 86 34 162.5t99 133.5t161 90.5t220 33.5z" />
    <glyph glyph-name="tbar" unicode="&#x167;" horiz-adv-x="471" 
d="M-117 819q38 -11 96 -14.5t134 -3.5q15 82 36.5 148t46.5 112t52 71t53 25q31 0 44 -24t13 -64q0 -51 -17.5 -122t-43.5 -146q93 2 171 6.5t140 15.5l4 -37q-162 -21 -329 -24l-37.5 -91.5l-36.5 -84.5h199v-39h-218q-6 -14 -12.5 -26t-11.5 -23q1 -56 6.5 -121.5
t22 -122.5t47 -95t80.5 -38q42 0 77 35.5t64.5 90t54.5 119.5l47 123l39 -10l-30 -81t-36 -91.5t-44 -90t-53 -78t-64 -55t-76 -20.5q-44 0 -82.5 20t-67 71.5t-45 140t-16.5 225.5v27h-133v39h133q2 46 6 90t10 86q-68 0 -127 4.5t-104 13.5zM307 1104q-8 0 -24.5 -16
t-35.5 -52t-37 -93.5t-30 -141.5h13h63q29 88 45 160t16 110q0 33 -10 33zM174 762q-3 -38 -5.5 -82.5t-2.5 -93.5h2q22 43 40 87t34 89h-52h-16z" />
    </font>
</defs>
</svg>
