<?xml version="1.0" encoding="UTF-8"?>
<!DOCTYPE svg  PUBLIC '-//W3C//DTD SVG 1.1//EN'  'http://www.w3.org/Graphics/SVG/1.1/DTD/svg11.dtd'>
<svg version="1.1" xmlns="http://www.w3.org/2000/svg">
<defs>
<font id="CooperBlackStd" horiz-adv-x="630">
<font-face font-family="Cooper Std Black" font-weight="900" ascent="701" bbox="-95 -250 1099 953" cap-height="712" descent="-299" panose-1="2 8 9 3 4 3 11 2 4 4" underline-position="-100" underline-thickness="50" unicode-range="U+0020-00FE" units-per-em="1000" x-height="508"/>
<missing-glyph/>
<glyph glyph-name="space" horiz-adv-x="315" unicode=" "/>
<glyph d="M273 97q0 -58 -49 -92q-28 -19 -62 -19q-58 0 -92 49q-19 28 -19 62q0 58 49 92q28 19 62 19q58 0 92 -49q19 -28 19 -62zM282 562q0 -92 -51 -192q-30 -64 -58 -80q-6 -4 -11 -4q-26 0 -65 76q-3 5 -4 8q-51 100 -51 192q0 88 51 130q29 23 69 23q79 0 108 -82 q12 -33 12 -71z" glyph-name="exclam" horiz-adv-x="324" unicode="!"/>
<glyph d="M157 715q74 0 99 -78q9 -28 9 -60q0 -89 -43 -170l-2 -4q-37 -62 -55 -72q-5 -2 -8 -2q-23 1 -62 74q-44 86 -46 174q0 82 48 119q26 19 60 19zM430 715q74 0 99 -78q9 -28 9 -60q0 -89 -43 -170l-2 -4q-37 -62 -55 -72q-5 -2 -8 -2q-23 1 -62 74q-44 86 -46 174 q0 82 48 119q26 19 60 19z" glyph-name="quotedbl" horiz-adv-x="587" unicode='"'/>
<glyph d="M406 164l-19 -145q-5 -18 -22 -19h-38q-13 0 -16 13v6l20 145q-1 16 -15 19h-36q-15 0 -19 -16q-1 -2 -1 -3l-20 -145q-5 -18 -22 -19h-38q-13 0 -16 13v6l21 145q-1 16 -15 19h-45q-17 3 -19 19v38q3 17 19 19h56q15 0 20 16q1 2 1 3l5 37q-1 16 -15 19h-45 q-17 3 -19 19v38q3 17 19 19h56q15 0 20 16q1 2 1 3l18 134q5 18 22 19h38q13 0 16 -13v-6l-20 -135q0 -15 15 -18h35q15 0 20 16q1 2 1 3l19 134q5 18 22 19h38q13 0 16 -13v-6l-19 -135q0 -15 15 -18h45q17 -3 19 -19v-38q-3 -17 -19 -19h-56q-15 0 -19 -16q-1 -2 -1 -3 l-5 -38q0 -15 15 -18h45q17 -3 19 -19v-38q-3 -17 -19 -19h-58q-15 0 -19 -16q-1 -2 -1 -3zM293 259h34q15 0 20 16q1 2 1 3l5 37q-1 16 -15 19h-35q-15 0 -19 -16q-1 -2 -1 -3l-5 -38q0 -15 15 -18z" glyph-name="numbersign" unicode="#"/>
<glyph d="M486 594q30 0 64 -49q32 -47 32 -90q0 -45 -34 -57q-10 -3 -19 -3q-23 0 -64 37q-49 46 -79 57q-21 7 -42 7q-46 0 -53 -36q-1 -5 -1 -10q0 -32 55 -53q15 -6 49 -16q100 -30 140 -62q61 -51 61 -138q0 -101 -101 -165q-59 -37 -114 -42q-19 -2 -21 -14v-20q0 -38 -9 -44 q-9 -4 -43 -4q-41 0 -46 3q-12 8 -12 41q0 27 -2 30q-5 6 -13 7q-89 12 -136 37q-5 4 -9 6q-35 26 -51 115q-4 24 -4 40q0 40 28 46q5 1 8 1q27 0 51 -37q32 -48 44 -60q44 -43 115 -43q43 0 64 22q9 10 9 21q0 23 -18 34q-20 13 -99 41q-147 52 -178 152q-8 25 -8 51 q0 91 77 153q45 35 99 46q20 4 22 12q1 5 1 23q0 38 9 44q8 4 43 4q41 0 47 -3q11 -8 11 -41q0 -26 2 -30q4 -6 11 -8q6 -1 34 -7q31 -8 35 -8q5 0 18 4q18 6 27 6z" glyph-name="dollar" unicode="$"/>
<glyph d="M838 183q0 -91 -83 -147q-61 -40 -134 -40q-98 0 -151 62q-37 43 -37 103q0 107 94 159q57 32 129 32q75 0 132 -57q49 -51 50 -112zM679 125q0 61 -22 110q-18 36 -41 37q-22 0 -29 -27q-1 -6 -1 -11q0 -43 18 -95q19 -53 46 -54q28 1 29 40zM419 542q0 -91 -83 -147 q-61 -40 -134 -40q-95 0 -149 60q-39 44 -39 105q0 108 95 160q57 31 128 31q75 0 132 -57q49 -50 50 -112zM260 484q0 61 -22 110q-18 36 -41 37q-22 0 -29 -27q-1 -6 -1 -11q0 -43 18 -95q19 -53 46 -54q28 1 29 40zM541 469l-190 -324q-11 -19 -59 -112q-16 -31 -32 -36 q-8 -2 -17 -2q-44 0 -56 17q-3 5 -3 9q0 15 20 44q63 91 126 201l233 405q17 34 37 41q10 3 24 3q46 -1 47 -23q0 -17 -29 -61q-59 -90 -101 -162z" glyph-name="percent" horiz-adv-x="852" unicode="%"/>
<glyph d="M471 215q-30 0 -42 46q-3 14 -3 25q0 106 109 164q11 7 97 43q61 26 67 52q1 4 1 8q0 21 -18 26q-3 1 -6 1q-4 0 -11 -3q-9 -4 -15 -4q-15 0 -20 16q-1 3 -1 6q0 45 71 69q33 12 62 12q78 0 122 -50q29 -34 29 -79q0 -81 -89 -142q-8 -6 -23 -15q-36 -24 -37 -34 q0 -11 24 -28q39 -28 48 -62q3 -15 3 -30q0 -76 -80 -145q-117 -100 -320 -105h-16q-208 0 -324 105q-84 77 -85 177q0 88 77 139q31 21 32 24q1 2 1 3t-19 41q-17 38 -17 65q0 85 86 141q73 47 163 47q77 0 132 -32q43 -26 44 -65q0 -30 -30 -49q-14 -9 -27 -9t-44 21 q-32 21 -57 21q-41 0 -56 -41q-5 -14 -5 -28q0 -48 40 -59q7 -1 22 -3q36 -6 44 -21q3 -8 3 -18q0 -58 -42 -71q-7 -3 -22 -6q-37 -7 -46 -24q-6 -12 -6 -29q0 -80 64 -145q61 -61 134 -62q67 0 114 42q37 34 38 79q0 39 -38 55q-14 6 -29 6q-36 0 -63 -40q-20 -29 -28 -33 q-4 -2 -8 -2z" glyph-name="ampersand" horiz-adv-x="913" unicode="&amp;"/>
<glyph d="M157 715q74 0 99 -78q9 -28 9 -60q0 -89 -43 -170l-2 -4q-37 -62 -55 -72q-5 -2 -8 -2q-23 1 -62 74q-44 86 -46 174q0 82 48 119q26 19 60 19z" glyph-name="quotesingle" horiz-adv-x="315" unicode="'"/>
<glyph d="M70 350q0 173 77 301q93 152 255 153q107 -7 112 -52q0 -42 -29 -49q-5 -1 -9 -1q-15 0 -56 5q-95 0 -124 -219q-9 -69 -9 -138q0 -174 42 -276q35 -80 91 -81q3 0 11 1q22 4 45 4q32 0 37 -40q1 -5 1 -10q0 -35 -45 -46q-26 -6 -67 -6q-168 0 -260 161q-72 127 -72 293z " glyph-name="parenleft" horiz-adv-x="524" unicode="("/>
<glyph d="M454 350q0 -173 -77 -301q-93 -152 -255 -153q-107 7 -112 52q0 42 29 49q5 1 9 1q15 0 56 -5q95 0 124 219q9 69 9 138q0 174 -42 276q-35 80 -91 81q-3 0 -11 -1q-22 -4 -45 -4q-32 0 -37 40q-1 5 -1 10q0 35 45 46q26 6 67 6q168 0 260 -161q72 -127 72 -293z" glyph-name="parenright" horiz-adv-x="524" unicode=")"/>
<glyph d="M455 593l40 14q37 10 39 10q32 0 40 -73q1 -5 1 -7q0 -26 -55 -35q-47 -9 -53 -14q-3 -4 -3 -7q0 -1 32 -45q29 -39 30 -54q0 -16 -43 -44q-23 -14 -33 -15q-14 0 -44 54q-25 46 -34 47q-6 0 -40 -43q-39 -47 -54 -48q-16 0 -47 30q-19 20 -20 32q0 22 46 66q26 25 27 32 q0 10 -38 19q-53 14 -61 33q-2 5 -2 10q0 25 18 57q11 18 22 19q17 0 74 -28q17 -8 22 -8q10 1 10 26q0 5 -1 13v5v42q3 33 42 34q46 0 56 -15q4 -8 4 -18t-3 -38q-4 -32 -4 -47q1 -8 9 -10q1 0 23 6z" glyph-name="asterisk" horiz-adv-x="758" unicode="*"/>
<glyph d="M492 198h-68q-42 0 -46 -4q-5 -7 -5 -47v-68q0 -42 -6 -51q-12 -14 -52 -14q-48 0 -55 22q-3 9 -3 43v68q-1 43 -4 47q-7 4 -47 4h-68q-42 0 -51 6q-14 12 -14 52q0 48 22 55q9 3 43 3h68q42 0 47 5q4 6 4 46v68q0 42 6 51q12 14 52 14q48 0 55 -22q3 -9 3 -43v-68 q0 -40 5 -46q6 -5 46 -5h68q42 0 51 -6q14 -12 14 -52q0 -48 -22 -55q-9 -3 -43 -3z" glyph-name="plus" unicode="+"/>
<glyph d="M142 -185q-28 0 -44 22q-6 8 -6 17q0 5 26 52q24 43 24 65q0 16 -28 29q-43 21 -57 37q-25 29 -25 77q0 60 48 97q32 24 69 24q81 0 116 -82q17 -40 17 -86q0 -78 -42 -163q-45 -88 -98 -89z" glyph-name="comma" horiz-adv-x="315" unicode=","/>
<glyph d="M259 204q-16 -31 -41 -35q-6 -1 -13 -1q-12 0 -37 4q-24 4 -36 4q-33 0 -102 -4q-23 0 -29 22q-1 4 -1 8q0 31 36 114q2 7 4 10q16 31 41 35q6 1 13 1q12 0 36 -4q25 -4 37 -4q33 0 102 4q23 0 29 -22q1 -4 1 -8q0 -31 -36 -114q-2 -7 -4 -10z" glyph-name="hyphen" horiz-adv-x="299" unicode="-"/>
<glyph d="M278 107q0 -64 -52 -100q-32 -21 -69 -21q-64 0 -100 52q-21 32 -21 69q0 64 52 100q32 21 69 21q64 0 100 -52q21 -32 21 -69z" glyph-name="period" horiz-adv-x="315" unicode="."/>
<glyph d="M390 455l-249 -511q-8 -16 -19 -41q-17 -38 -29 -45q-10 -6 -28 -6q-82 3 -86 37q0 13 49 100q34 63 57 109l249 511q8 16 19 41q17 38 29 45q10 6 28 6q82 -3 86 -37q0 -13 -49 -100q-34 -63 -57 -109z" glyph-name="slash" horiz-adv-x="496" unicode="/"/>
<glyph d="M26 293q0 149 94 232q74 64 185 64q127 0 215 -94q84 -91 84 -214q0 -150 -112 -234q-81 -61 -179 -61q-135 0 -217 102q-70 86 -70 205zM380 217q0 86 -24 157q-23 65 -58 66q-48 -1 -48 -80q0 -77 23 -151q24 -73 60 -74q44 7 47 82z" glyph-name="zero" unicode="0"/>
<glyph d="M193 235v136q0 45 -15 55q-13 8 -38 8q-7 0 -19 -1t-18 -1q-33 0 -39 25q-1 5 -1 8q0 48 129 87q122 37 244 37q82 -2 83 -45q0 -21 -24 -32q-29 -13 -38 -26q-12 -19 -13 -50q-2 -106 -2 -120q0 -123 9 -171q9 -43 57 -50q7 -1 20 -2q41 -3 49 -18q5 -8 5 -20 q0 -34 -45 -47q-7 -2 -15 -4q-85 -18 -202 -18q-145 0 -226 28q-52 19 -53 46q0 27 29 37q8 3 16 3t26 -3t26 -3q35 0 46 40q9 33 9 101z" glyph-name="one" unicode="1"/>
<glyph d="M562 206q41 -10 45 -75q0 -96 -59 -152q-29 -26 -53 -27q-24 0 -32 17q-10 20 -24 25q-16 6 -42 6h-330q-49 0 -56 17q-2 5 -2 9q0 14 13 28q14 15 60 59q116 110 157 191q15 31 15 53q0 48 -42 56q-7 1 -14 1q-33 0 -67 -31q-32 -26 -52 -27q-31 0 -53 28q-12 15 -12 30 q0 59 97 114q98 55 199 61h15q161 0 217 -85q22 -34 22 -72q0 -78 -93 -167q-8 -8 -25 -23q-48 -46 -50 -61q0 -25 30 -33q8 -2 14 -2q42 0 82 36q27 23 40 24z" glyph-name="two" unicode="2"/>
<glyph d="M206 192q-22 0 -47 -5l-25 -5q-22 0 -37 53q-5 16 -5 26q0 16 37 32q55 24 71 39q26 25 26 59q0 36 -39 57q-19 10 -39 10q-30 0 -78 -26q-17 -9 -23 -9q-20 0 -32 35q-4 12 -4 21q0 37 77 72q86 38 180 38q113 0 184 -41q59 -35 60 -90q0 -56 -49 -98q-25 -22 -26 -29 q0 -11 34 -21q65 -18 91 -41q43 -40 43 -115q0 -105 -91 -177q-105 -83 -290 -83q-117 0 -182 30q-43 22 -44 52q0 37 34 50q11 4 22 4q6 0 58 -11q34 -7 66 -7q69 0 109 40q25 24 25 56q0 57 -61 77q-22 7 -45 7z" glyph-name="three" unicode="3"/>
<glyph d="M219 176h31q53 0 61 7q9 10 9 56q0 9 1 31q5 92 -13 105q-6 3 -12 3q-26 -4 -45 -31l-25 -30q-80 -95 -80 -119q2 -22 73 -22zM537 561v-331q0 -30 6 -35q7 -5 23 -5q30 0 35 -11q3 -8 3 -30v-80q0 -30 -10 -37q-7 -5 -17 -6q-23 -2 -26 -12q-2 -8 -2 -47q0 -44 -2 -48 q-7 -16 -40 -16h-151q-35 0 -40 12q-2 8 -2 48q0 45 -5 53q-10 12 -44 12h-175q-55 0 -69 22q-9 16 -9 44q0 59 23 99q19 32 79 105l231 266q68 64 145 64q40 0 46 -37q1 -11 1 -30z" glyph-name="four" unicode="4"/>
<glyph d="M496 402h-210q-39 0 -47 -15q-4 -7 -4 -16q0 -22 38 -25h5q6 -1 8 -1q238 -27 296 -148q15 -32 15 -64q0 -96 -95 -165q-107 -77 -269 -77q-190 2 -192 81q0 34 16 51q6 6 12 6q2 0 14 -3q62 -17 99 -17q64 0 88 36q9 15 9 32q0 70 -134 97q-6 1 -11 2q-56 8 -64 11 q-36 13 -37 38q0 60 67 239q35 95 56 110q12 8 48 8h341q35 0 42 -11q5 -10 5 -33q0 -64 -33 -105q-26 -30 -63 -31z" glyph-name="five" unicode="5"/>
<glyph d="M620 261q0 -109 -79 -189q-85 -86 -215 -86q-149 0 -236 100q-72 82 -72 199q0 112 90 250q63 96 117 125q14 8 24 8q23 3 84 -19q57 -21 58 -40q-1 -12 -26 -40q-69 -78 -70 -120q3 -16 16 -19q2 0 49 15q39 12 69 12q89 0 147 -71q44 -56 44 -125zM400 171 q0 53 -30 100q-26 40 -60 41q-41 0 -47 -49q-1 -7 -1 -13q0 -42 34 -88q28 -36 57 -37q37 0 45 33q2 7 2 13z" glyph-name="six" unicode="6"/>
<glyph d="M238 582h306q51 0 59 -24q2 -7 2 -14q0 -12 -8 -35l-201 -608q-7 -24 -17 -29q-12 -5 -41 -5q-103 0 -145 39q-10 10 -11 17q0 8 10 24l180 344q27 54 27 68q0 35 -106 33h-12q-55 0 -87 -6.5t-41.5 -15.5t-14 -18t-13.5 -15.5t-31 -6.5q-63 0 -73 84q-2 14 -2 27 q0 94 44 144q22 24 46 25q15 0 40 -13q32 -15 89 -15z" glyph-name="seven" unicode="7"/>
<glyph d="M609 487q0 -56 -58 -97q-27 -22 -29 -27q1 -8 24 -24q59 -40 71 -111q2 -14 2 -26q0 -74 -58 -134q-81 -82 -227 -82q-131 0 -224 52q-98 55 -99 150q0 62 57 106q25 23 27 28q0 5 -22 29q-45 50 -46 107q0 100 105 154q74 38 171 38q136 0 224 -46q81 -44 82 -117z M330 555q-36 0 -49 -23q-4 -8 -4 -16q0 -30 50 -63q33 -22 55 -22q24 0 33 42q2 9 2 16q0 47 -55 62q-16 4 -32 4zM307 90q61 0 69 40q1 6 1 11q0 36 -45 60q-5 2 -14 7q-7 3 -10 5q-71 36 -100 37q-25 -3 -26 -40q0 -58 52 -96q35 -24 73 -24z" glyph-name="eight" unicode="8"/>
<glyph d="M494 38q-56 -76 -119 -131q-46 -38 -72 -39q-30 0 -86 29q-43 24 -44 41q1 14 22 25q45 24 79 81q20 33 20 56q-2 18 -21 19q-8 0 -24 -1q-16 -2 -24 -2q-120 0 -178 104q-34 61 -34 136q0 127 119 191q78 42 177 42q144 0 229 -75q73 -65 73 -168q-1 -150 -117 -308z M387 304q0 53 -27 99q-24 38 -56 39q-34 0 -47 -40q-4 -13 -4 -25q0 -59 32 -100q24 -28 55 -29q34 0 44 37q3 10 3 19z" glyph-name="nine" unicode="9"/>
<glyph d="M278 404q0 -64 -52 -100q-32 -21 -69 -21q-64 0 -100 52q-21 32 -21 69q0 64 52 100q32 21 69 21q64 0 100 -52q21 -32 21 -69zM278 107q0 -64 -52 -100q-32 -21 -69 -21q-64 0 -100 52q-21 32 -21 69q0 64 52 100q32 21 69 21q64 0 100 -52q21 -32 21 -69z" glyph-name="colon" horiz-adv-x="315" unicode=":"/>
<glyph d="M282 67q0 -78 -42 -163q-45 -88 -98 -89q-28 0 -44 22q-6 8 -6 17q0 5 26 52q24 43 24 65q0 16 -28 29q-43 21 -57 37q-25 29 -25 77q0 60 48 97q32 24 69 24q81 0 116 -82q17 -40 17 -86zM274 404q0 -64 -52 -100q-32 -21 -69 -21q-64 0 -100 52q-21 32 -21 69 q0 64 52 100q32 21 69 21q64 0 100 -52q21 -32 21 -69z" glyph-name="semicolon" horiz-adv-x="315" unicode=";"/>
<glyph d="M257 256l262 -114q33 -13 37 -33q1 -6 1 -14v-32q0 -39 -15 -48q-3 -1 -5 -1q-11 0 -38 11l-409 178q-15 6 -17 49v4q2 41 11 49q3 3 6 4l409 178q29 11 38 11q18 -5 20 -49v-31q0 -28 -21 -40q-8 -4 -17 -8z" glyph-name="less" unicode="&lt;"/>
<glyph d="M492 296h-354q-42 0 -51 6q-14 12 -14 52q0 48 22 55q9 3 43 3h354q42 0 51 -6q14 -12 14 -52q0 -48 -22 -55q-9 -3 -43 -3zM492 100h-354q-42 0 -51 6q-14 12 -14 52q0 48 22 55q9 3 43 3h354q42 0 51 -6q14 -12 14 -52q0 -48 -22 -55q-9 -3 -43 -3z" glyph-name="equal" unicode="="/>
<glyph d="M111 142l262 114l-262 114q-33 13 -37 33q-1 6 -1 14v32q0 39 15 48q3 1 5 1q11 0 38 -11l409 -178q15 -6 17 -49v-4q-2 -41 -11 -49q-3 -3 -6 -4l-409 -178q-29 -11 -38 -11q-18 5 -20 49v31q0 28 21 40q8 4 17 8z" glyph-name="greater" unicode="&gt;"/>
<glyph d="M195 559q-9 -84 -79 -103q-16 -4 -34 -4q-47 0 -67 39q-8 16 -8 34q0 72 64 128q70 62 178 62q91 0 167 -52q79 -56 80 -136q-2 -94 -112 -137q-48 -18 -68 -60q-15 -34 -21 -40q-17 -16 -52 -16q-53 0 -65 46q-2 10 -2 20q0 42 39 101q38 58 44 89q3 13 3 26 q0 39 -24 49q-6 2 -11 2q-13 0 -20 -8t-9 -16.5t-3 -22.5v-1zM346 97q0 -58 -49 -92q-28 -19 -62 -19q-58 0 -92 49q-19 28 -19 62q0 58 49 92q28 19 62 19q58 0 92 -49q19 -28 19 -62z" glyph-name="question" horiz-adv-x="506" unicode="?"/>
<glyph d="M475 496q3 0 38 16q30 14 53 14q25 -8 27 -27q0 -21 -19 -94l-2 -10q-3 -10 -4.5 -16.5t-5 -20t-5 -23t-3.5 -22.5t-2 -21.5t0.5 -17t3.5 -12.5t8 -4q16 0 40 27q41 46 51 127q10 76 -39 142q-68 89 -207 90q-123 0 -213 -86q-88 -85 -97 -208q-10 -146 92 -228 q80 -65 198 -65q97 0 199 85q26 21 30 21q16 0 32 -24q6 -11 6 -17q-1 -8 -41 -40q-114 -91 -239 -96h-12q-153 0 -250 95q-102 99 -89 252q1 6 1 10q18 158 130 264q115 108 269 108q120 0 210 -69q110 -86 99 -222q-13 -145 -125 -220q-78 -51 -178 -51q-22 0 -31.5 9.5 t-9 21t-1 21t-8.5 9.5q-5 0 -35 -24q-51 -41 -98 -41q-63 0 -80 62q-6 25 -4 55q10 108 93 191q69 68 135 69q27 0 61 -22q14 -8 22 -8zM345 263q20 0 55 57q38 61 42 104q1 23 -12 24q-20 0 -54 -46q-41 -56 -46 -111q-1 -27 15 -28z" glyph-name="at" horiz-adv-x="758" unicode="@"/>
<glyph d="M339 289h75q39 1 40 13q0 17 -37 81q-22 40 -34 48q-8 5 -14 5t-11.5 -5t-10 -11t-9 -15.5t-6.5 -16t-5 -14.5l-3 -9q-21 -59 -21 -62q3 -15 36 -14zM141 224l63 137q58 128 68 191q4 24 4 45q7 118 121 121q82 0 156 -115q11 -16 25 -40q33 -56 167 -337q26 -54 37 -80 q17 -39 54 -50q24 -7 29 -16q4 -8 4 -21q-9 -70 -192 -70q-150 0 -189 14q-39 15 -40 49q0 25 28 37q26 10 30 17q3 5 3 11q0 30 -25 39q-29 10 -161 10q-58 0 -72 -15q-11 -13 -11 -36q0 -18 24 -25q28 -9 35 -19q5 -9 5 -21q-1 -61 -148 -61q-137 0 -153 38q-3 9 -3 21 q0 26 29 38q37 15 44 21q6 5 10 10q19 24 58 107z" glyph-name="A" horiz-adv-x="869" unicode="A"/>
<glyph d="M680 544q0 -72 -47 -117q-5 -4 -8 -7q-17 -18 -18 -27q0 -12 18 -21q2 -1 3 -1q55 -21 88 -72q24 -39 24 -81q0 -101 -74 -163q-72 -60 -194 -60q-50 0 -95 3q-60 2 -91 2q-36 0 -103 -2q-52 -3 -103 -3q-42 0 -60 29q-6 12 -6 24q0 23 19 34q24 15 33 32q16 33 19 99 l11 288q3 85 -37 106q-4 2 -13 5q-24 10 -28 24q-2 8 -2 16q0 38 45 52q14 4 27 4q3 0 111 -3q74 -4 111 -4q25 0 70 4l70 3q189 0 223 -116q7 -23 7 -48zM334 545v-81q0 -43 7 -51q8 -7 22 -7q67 0 73 76q1 10 1 21q0 80 -47 97q-11 4 -23 4q-30 0 -33 -30v-29zM334 270 v-50q0 -102 25 -115q9 -4 25 -4q76 2 77 91q-2 114 -88 115q-36 0 -39 -34v-3z" glyph-name="B" horiz-adv-x="754" unicode="B"/>
<glyph d="M24 353q0 142 110 248q102 97 240 112q21 2 40 2q65 0 151 -37q27 -12 36 -12q6 0 33 6q7 1 12 1q38 0 68 -52q28 -50 28 -122q0 -65 -46 -93q-22 -12 -47 -12q-41 0 -73 47l-15 24q-37 59 -69 80q-41 26 -98 26q-70 0 -98 -70q-11 -28 -11 -57q0 -136 75 -214 q59 -60 144 -60q84 0 141 47q26 22 36 22q30 0 40 -39q3 -11 3 -20q0 -42 -34 -92q-31 -43 -62 -44q-10 0 -65 -23q-83 -35 -157 -35q-151 0 -262 101q-107 97 -119 237q-1 15 -1 29z" glyph-name="C" horiz-adv-x="756" unicode="C"/>
<glyph d="M96 190l8 347q1 55 -32 72q-4 1 -10 4q-25 11 -29 26q-2 8 -2 16q1 53 93 53h326q253 0 335 -181q34 -75 34 -171q0 -165 -99 -264q-98 -97 -263 -97q-64 0 -110 3q-62 2 -86 2q-30 0 -85 -2q-43 -3 -85 -3q-49 0 -69 30q-8 13 -8 27q0 29 22 36q28 9 34 14q24 22 26 88z M344 544v-373q0 -52 21 -64q14 -8 41 -8q148 1 148 229q0 253 -141 270q-12 1 -24 1q-37 0 -43 -24q-2 -11 -2 -31z" glyph-name="D" horiz-adv-x="843" unicode="D"/>
<glyph d="M139 701h288q96 0 159 18q7 2 10 2q47 0 71 -78q10 -35 10 -64q0 -56 -35 -69q-8 -3 -17 -3q-30 0 -47 26q-20 31 -32 41q-39 29 -126 29q-72 0 -88 -19q-13 -15 -12 -78v-38q0 -44 10 -52q11 -8 54 -8q35 0 44 38q1 6 3 19q6 41 23 50q9 4 20 4q58 0 62 -136v-16 q0 -111 -36 -148q-14 -13 -31 -13q-25 0 -32 29q-1 5 -2 14q-7 41 -26 53q-16 9 -41 9q-38 0 -41 -46v-24q0 -99 15 -120q12 -18 60 -19h40q115 0 157 65q7 10 16 29q19 36 36 43q9 4 20 4q33 0 45 -41q3 -12 3 -23q0 -61 -39 -134q-30 -55 -55 -56q-4 0 -44 6q-56 5 -84 5 h-411q-67 1 -67 43q0 23 22 33q28 14 37 26q13 21 16 58q11 166 9 222q-1 31 -6 123q-2 42 -11.5 66.5t-21 31t-23 9.5t-19.5 11t-8 27q0 51 86 52q8 0 23 -1h16z" glyph-name="E" horiz-adv-x="726" unicode="E"/>
<glyph d="M102 270v139q2 101 -3 144q-6 46 -40 61q-26 12 -30 17q-7 9 -7 23q0 37 48 50q14 4 28 4q9 0 76 -3q160 -7 213 -7q11 0 134 6q94 4 101 4q32 0 59 -56q21 -45 21 -91q0 -50 -34 -65q-9 -4 -20 -4q-25 0 -47 27q-27 35 -47 48q-46 28 -131 28q-46 0 -59 -9 q-27 -25 -28 -131q0 -23 17 -30q15 -5 42 -5q37 0 48 34q2 5 4 14q9 33 26 41q9 3 20 3q58 0 61 -136v-12q0 -156 -64 -167q-5 -1 -9 -1q-26 0 -32 30q-1 5 -3 16q-6 44 -27 57q-16 10 -43 10q-29 0 -34 -13q-4 -10 -5 -91v-7q-1 -35 6 -56.5t17.5 -29t23.5 -12.5t24 -6.5 t18.5 -10.5t7.5 -27q0 -25 -15 -36q-45 -31 -219 -31q-151 0 -177 34q-9 13 -9 32q0 29 26 41q29 14 37 23q8 8 12 19q13 37 13 132z" glyph-name="F" horiz-adv-x="695" unicode="F"/>
<glyph d="M283 412q0 -166 94 -243q46 -37 90 -37q41 0 56 36q5 13 5 26q0 37 -33 42q-5 1 -17 2q-38 2 -48 18q-7 12 -7 32q0 69 167 77q17 1 35 1q195 -5 199 -82q0 -32 -34 -45q-7 -2 -12 -3q-23 -3 -29 -15q-3 -6 -6 -19q-34 -127 -163 -184q-74 -32 -159 -32q-159 0 -272 96 q-120 101 -125 260v12q0 153 112 256q110 100 268 105h13q55 0 135 -22q19 -5 27 -5q5 0 44 12q11 3 18 3q49 0 80 -73q19 -44 19 -80q0 -63 -40 -88q-18 -11 -39 -11q-43 0 -83 46q-43 48 -45 50q-46 43 -107 43q-84 0 -122 -77q-21 -44 -21 -101z" glyph-name="G" horiz-adv-x="834" unicode="G"/>
<glyph d="M756 425v-260q0 -37 18 -52q6 -4 13 -8q26 -14 31 -25q3 -8 3 -17q0 -37 -40 -53q-51 -21 -159 -21q-171 1 -172 68q-2 29 17 40q24 14 32 27q21 37 21 128q0 42 -16 48q-10 4 -46 4q-95 0 -112 -11q-15 -9 -15 -48v-14v-21q0 -79 33 -102q20 -14 22 -18q7 -10 7 -27 q0 -68 -167 -74h-27q-165 0 -183 59q-2 7 -2 13q1 27 32 42q25 12 31 23q18 32 18 200q0 209 -10 237q-5 14 -23 23q-5 3 -8 4q-29 16 -32 31q-1 3 -1 6q0 69 165 83q30 2 58 2q135 0 155 -49q3 -8 3 -16q0 -30 -29 -49q-5 -3 -11 -7q-22 -12 -27 -36q-4 -23 -4 -79 q0 -42 26 -48q8 -1 48 -1h51q55 0 62 15q2 7 2 26q0 49 -5 77t-10.5 35t-13.5 11h-1q-29 17 -34 30q-3 8 -3 16q0 35 36 52q50 23 159 23q179 -1 180 -71q-1 -32 -31 -47q-22 -10 -28 -20q-13 -26 -13 -149z" glyph-name="H" horiz-adv-x="842" unicode="H"/>
<glyph d="M97 301v99q0 143 -21 170q-7 9 -37 30q-24 18 -25 40q0 61 176 71q24 1 48 1q182 -1 183 -70q0 -22 -26 -36q-27 -15 -35 -24q-20 -24 -20 -182v-99q0 -155 17 -176q5 -4 15 -10q5 -3 14 -8q28 -15 33 -29q2 -7 2 -14q0 -36 -41 -53q-56 -22 -187 -22q-166 1 -168 65 q0 21 27 38q18 12 23 18q22 28 22 191z" glyph-name="I" horiz-adv-x="435" unicode="I"/>
<glyph d="M572 526l-8 -308q-4 -158 -161 -212q-60 -20 -121 -20q-123 0 -207 53q-81 52 -82 138q0 66 50 101q28 19 62 19q63 0 97 -43q19 -25 19 -56q0 -9 -4 -27q-3 -14 -3 -20q0 -30 30 -36q7 -1 14 -1q64 7 74 99q4 37 -3 181q-3 71 -1 116q3 58 -36 74q-5 2 -16 5 q-30 8 -35 24q-3 7 -3 16q0 60 114 77q39 6 89 6q210 0 211 -74q0 -22 -27 -37q-32 -18 -41 -31q-11 -18 -12 -44z" glyph-name="J" horiz-adv-x="659" unicode="J"/>
<glyph d="M529 52l-68 83q-70 82 -92 91q-4 2 -7 2q-30 -2 -30 -55v-21q0 -24 29 -48q28 -24 33 -41q1 -6 1 -12q0 -34 -47 -48q-49 -14 -152 -14q-155 0 -174 40q-4 9 -4 21q0 23 20 38q25 18 33 37q6 15 9 33q10 63 10 177q0 140 -10 195q-7 45 -37 64q-21 13 -25 23t-4 23 q0 28 25 43q50 29 185 29q110 0 139 -33q12 -15 12 -35q0 -21 -19 -38q-26 -22 -32 -55q-4 -20 -4 -46q1 -41 19 -42q22 0 71 64q34 46 35 62q0 9 -11 32q-5 12 -5 21q0 70 167 70h6h7q95 0 129 -16q34 -17 35 -50q0 -44 -45 -50q-10 -2 -32 -3q-48 -2 -62 -15 q-4 -4 -20 -18q-80 -72 -85 -105q0 -24 35 -64q3 -4 5 -6l209 -239q10 -11 48 -31q37 -19 42 -47q1 -7 1 -13q-1 -55 -90 -55h-170q-32 0 -45 12q-9 8 -35 40z" glyph-name="K" horiz-adv-x="869" unicode="K"/>
<glyph d="M445 0h-334q-57 0 -73 16q-10 11 -10 28q0 25 24 36q29 13 37 22q19 22 20 68q2 74 2 196q0 2 -7 162v10q-1 43 -39 56q-4 2 -13 4q-30 9 -36 23q-2 7 -2 14q0 69 172 76q17 1 34 1q182 -5 204 -42q6 -10 6 -26q0 -25 -26 -35q-30 -13 -38 -21q-15 -18 -15 -52v-318 q0 -73 27 -93q19 -14 56 -14q96 0 126 65q4 10 11 29q12 37 26 43q7 2 13 2q44 0 58 -54q4 -16 4 -32q0 -69 -43 -133q-31 -44 -59 -45q-10 0 -50 7q-34 7 -75 7z" glyph-name="L" horiz-adv-x="665" unicode="L"/>
<glyph d="M336 151l-58 130q-17 36 -28 41q-4 2 -7 2q-26 0 -21 -146v-19q0 -60 32 -76q23 -10 26 -13q6 -9 6 -22q-1 -59 -146 -59q-124 1 -126 55q0 25 22 33q26 10 33 20q10 14 13 39q17 179 17 322q0 83 -15 114q-4 7 -33 24q-33 21 -34 45q0 67 156 71h17q89 0 113 -23 q9 -8 32 -48q10 -17 37 -73q62 -130 91 -153q7 -5 13 -7q16 -4 40 40q12 20 35 72q23 49 33 68q39 71 46 81q26 34 84 41q23 2 54 2q143 -1 144 -66q0 -22 -27 -47q-23 -21 -28 -35q-12 -41 -15 -176v-15q0 -8 4 -89l6 -129q2 -40 34 -62q23 -16 26 -26q3 -7 3 -14 q-5 -64 -181 -64q-125 0 -160 26q-17 15 -18 34q0 19 26 40q22 19 26 33q9 39 9 114q0 74 -20 75q-25 0 -66 -91l-21 -48q-5 -11 -18 -42q-41 -101 -63 -112q-5 -2 -9 -2q-15 2 -26 18q-18 27 -58 117z" glyph-name="M" horiz-adv-x="929" unicode="M"/>
<glyph d="M312 668l237 -208q47 -38 62 -39q26 1 26 58q0 65 -9 91q-6 19 -34 33q-25 14 -31 30q-2 9 -2 18q0 61 131 61h8h5q90 0 121 -16q31 -17 32 -48q0 -30 -26 -44q-29 -15 -36 -23q-5 -7 -8 -15q-13 -37 -13 -136v-259q0 -105 -14 -142q-17 -39 -47 -40q-24 1 -52 25 l-309 277q-40 36 -61 37q-32 -1 -32 -86q0 -61 7 -91q8 -33 38 -49q23 -13 28 -24q2 -8 2 -16q-4 -72 -150 -73q-142 6 -149 71q0 25 24 40q28 17 35 30q7 11 9 26q9 56 9 151q0 145 -11 217q-9 53 -48 74q-27 15 -32 20q-8 11 -8 27q8 68 180 67q56 0 79 -14q15 -8 39 -30z " glyph-name="N" horiz-adv-x="873" unicode="N"/>
<glyph d="M399 -14q-159 0 -266 103q-109 106 -109 264t112 261q111 101 275 101q194 0 304 -150q70 -95 77 -204q1 -10 1 -18q0 -155 -118 -257q-109 -94 -260 -100h-16zM536 242q0 86 -38 186q-54 136 -133 138q-53 0 -75 -58q-9 -24 -9 -49q0 -77 37 -178q59 -139 131 -146 q62 0 81 64q6 21 6 43z" glyph-name="O" horiz-adv-x="818" unicode="O"/>
<glyph d="M474 482q0 78 -54 105q-20 10 -45 10q-18 0 -26.5 -4t-10 -9.5t-1.5 -17.5v-1v-150q0 -26 3 -30q9 -14 42 -14q75 0 89 79q3 16 3 32zM107 158v391q0 37 -37 50q-37 14 -38 14q-17 12 -18 34q1 47 75 48q13 0 37 -1q25 -1 37 -1q86 0 260 14q11 1 15 1q129 0 205 -72 q62 -60 62 -150q0 -123 -104 -187q-70 -42 -161 -42q-15 0 -46 3q-28 2 -41 2q-15 -2 -16 -16v-58q2 -71 40 -91l26 -14q10 -9 10 -26q0 -64 -170 -68h-19q-188 1 -190 66q0 24 25 36q29 14 37 25q11 16 11 42z" glyph-name="P" horiz-adv-x="719" unicode="P"/>
<glyph d="M536 242q0 86 -38 186q-54 136 -133 138q-53 0 -75 -58q-9 -24 -9 -49q0 -77 37 -178q59 -139 131 -146q62 0 81 64q6 21 6 43zM404 -154l-154 63q-108 44 -123 48q-23 6 -43 6q-4 0 -12 -1q-9 -1 -13 -1q-20 4 -23 29q0 43 46 59q17 6 33 6q3 0 11 -1h10q14 2 15 10 q0 5 -28 34q-97 109 -99 255q0 158 112 261q111 101 275 101q194 0 304 -150q70 -95 77 -204q1 -10 1 -18q0 -183 -155 -286q-38 -25 -83 -43q-12 -6 -13 -14q0 -19 41 -33q42 -13 109 -13q24 0 72 16q5 2 7 2q16 0 24 -27q2 -7 2 -12q0 -28 -40 -62q-70 -58 -189 -58 q-74 0 -164 33z" glyph-name="Q" horiz-adv-x="821" unicode="Q"/>
<glyph d="M326 544l-4 -95q-3 -33 3 -41q8 -7 23 -7q74 0 84 70q2 13 2 28q-2 98 -70 99q-31 0 -35 -26q-2 -7 -3 -28zM90 208v285q0 43 -8 69t-19 34.5t-22 13t-19 12t-8 24.5q9 59 118 62q2 0 62 -3q40 -4 61 -4q32 0 97 4l97 3q122 0 191 -62q53 -48 53 -121q0 -82 -58 -128 q-13 -10 -27 -17q-15 -11 -16 -20q0 -2 0.5 -4.5t1.5 -4t1.5 -3t3 -3t3 -2.5t3.5 -2t4 -1.5t5 -1.5l3 -2q67 -25 93 -88q15 -36 22 -92q6 -49 39 -60q26 -8 27 -10q11 -9 11 -28q0 -42 -60 -64q-40 -14 -99 -14q-115 0 -161 72q-23 38 -49 148q-1 3 -1 4q-17 73 -56 87 q-13 4 -27 4q-20 0 -25 -14q-5 -15 -5 -52q0 -58 7 -97q4 -22 29 -37q23 -14 28 -28q2 -7 2 -15q0 -36 -48 -50q-45 -13 -139 -13q-189 1 -190 73q0 20 22 34q29 18 39 36q14 28 14 76z" glyph-name="R" horiz-adv-x="816" unicode="R"/>
<glyph d="M135 305q-94 77 -95 177q0 84 69 151q86 82 225 82q40 0 132 -25q15 -4 19 -4q2 0 29 9q11 3 20 3q28 0 65 -44q45 -55 45 -114q0 -42 -32 -61q-13 -7 -27 -7q-29 0 -74 41q-50 46 -76 59q-29 14 -60 14q-49 0 -61 -33q-3 -9 -3 -17q0 -38 51 -58q15 -6 54 -16 q99 -28 148 -61q90 -68 93 -166q0 -102 -81 -171q-90 -78 -248 -78q-102 0 -194 31q-25 8 -42 17q-45 26 -65 128q-6 32 -6 56q0 45 31 53q6 1 11 1q26 0 52 -39q35 -52 46 -64q54 -56 145 -56q43 0 66 23q11 12 11 26q0 33 -48 53q-13 5 -45 16q-104 34 -155 74z" glyph-name="S" horiz-adv-x="678" unicode="S"/>
<glyph d="M252 701h246q44 0 78 7q25 7 41 7q31 0 69 -45q51 -62 51 -140q0 -69 -56 -81q-11 -2 -21 -2q-47 0 -79 54q-3 5 -10 17q-22 40 -38 45q-5 2 -10 2q-6 0 -10.5 -1.5t-8 -4t-6 -6.5t-4.5 -7.5t-3 -8.5t-1.5 -8.5t-1 -8.5t-0.5 -7.5v-6.5v-3v-307q0 -63 40 -82l15 -6 q28 -10 34 -25q3 -9 3 -19q0 -46 -73 -63q-51 -12 -133 -12q-236 1 -238 75q0 28 30 39q34 13 38 16q9 7 14 15q12 25 15 106l8 221q2 48 -3.5 72.5t-11.5 28t-16 3.5q-19 0 -46 -39q-36 -50 -56 -64q-22 -15 -46 -15q-40 0 -56 41q-6 16 -6 31q0 70 49 139q42 56 80 57 q6 0 37 -7q45 -7 86 -7z" glyph-name="T" horiz-adv-x="737" unicode="T"/>
<glyph d="M629 279v249q0 59 -41 79l-12 6q-27 12 -31 26q-2 6 -2 13q3 60 157 60q147 -1 148 -58q0 -24 -25 -37q-30 -15 -38 -27q-12 -19 -12 -49v-270q0 -180 -149 -249q-80 -36 -196 -36q-261 0 -330 171q-25 60 -20 145v231q2 34 -30 60q-26 22 -31 34q-3 7 -3 15q0 27 21 41 q46 29 174 29q176 0 194 -52q2 -8 2 -17q0 -30 -23 -39q-27 -11 -33 -17q-20 -21 -22 -71v-184q0 -185 137 -195h14q43 0 74 13.5t45.5 30t22.5 40.5t8.5 34.5t0.5 22.5v1z" glyph-name="U" horiz-adv-x="862" unicode="U"/>
<glyph d="M722 532l-225 -456q-28 -54 -45 -69q-22 -18 -50 -18q-27 0 -46 12.5t-26 23.5t-22 43l-1 1l-199 440q-28 60 -45 72q-12 8 -33 11q-29 6 -30 39q0 73 176 80q17 1 34 1q58 0 99 -5.5t60.5 -12t30 -17t11.5 -15.5t1 -13v-2q0 -21 -27 -40q-20 -15 -21 -27q0 -16 59 -141 q2 -6 4 -10t6 -13q19 -42 36 -44q26 -2 50 50q11 23 12 25q57 115 58 138q0 17 -23 30t-27 26q-1 5 -1 10q1 61 166 61q127 0 143 -37q4 -9 4 -21q-2 -37 -44 -43q-35 -4 -45 -13q-14 -13 -40 -66z" glyph-name="V" horiz-adv-x="844" unicode="V"/>
<glyph d="M673 58l-92 219q-1 2 -3 8q-14 33 -26 34q-14 0 -27 -30q-1 -2 -25 -60l-61 -151q-22 -54 -35 -68q-22 -21 -61 -21q-50 0 -74 45q-6 13 -15 36l-186 475q-14 35 -43 51q-19 10 -22 23q-3 10 -3 22q1 71 181 71q142 0 164 -35q7 -12 7 -29q0 -14 -14 -36q-9 -15 -9 -29 q0 -20 34 -111q1 -2 1 -3q27 -84 50 -86q4 0 8.5 2.5t8 7t7 9.5t7 12.5t6 13t5.5 13.5l4.5 12t3.5 11l2 6q12 25 13 39q0 17 -21 54q-15 25 -30 34q-36 20 -37 49q0 30 38 45q51 21 157 21q54 0 92.5 -5t57 -11t28.5 -16t11 -15.5t1 -13.5v-1q0 -18 -25 -39q-19 -17 -20 -28 q0 -20 41 -104q2 -5 3 -7q24 -54 34 -67q11 -10 19 -11q29 0 65 133q12 41 12 51q0 20 -25 30q-28 12 -35 23q-5 10 -5 23q0 58 132 58h5h6q115 -1 116 -61q0 -24 -21 -43q-30 -25 -42 -50q-4 -7 -6 -13l-172 -450q-29 -74 -59 -94q-19 -12 -42 -12q-47 0 -70 41 q-7 11 -14 28z" glyph-name="W" horiz-adv-x="1093" unicode="W"/>
<glyph d="M610 532l-69 -88q-13 -13 -14 -21q1 -6 14 -22l187 -235q23 -29 70 -49q29 -12 34 -28q3 -8 3 -19q0 -35 -31 -51q-57 -30 -217 -30q-121 0 -161 21q-27 16 -28 40q0 22 24 38q16 13 17 21q0 25 -55 99l-1 1q-1 1 -4 5q-8 8 -13 9q-12 0 -53 -63q-20 -33 -21 -42 q0 -10 17 -22q24 -19 25 -44q-3 -63 -167 -63q-160 7 -167 68q0 39 41 47q8 2 17 2q40 0 79 41q18 18 41 47l92 115q14 19 14 21q-1 8 -14 22l-142 184q-24 31 -72 48q-30 11 -36 25q-3 9 -3 20q0 43 61 63q63 20 186 20q142 0 166 -34q8 -12 8 -29q0 -27 -23 -42 q-12 -10 -13 -17q0 -16 28 -47q13 -13 19 -14q13 0 41 40q10 15 11 21q0 10 -17 22q-20 17 -21 39q0 36 49 50q42 11 123 11q145 -1 146 -63q0 -39 -42 -47q-9 -1 -30 -3q-49 -5 -99 -67z" glyph-name="X" horiz-adv-x="835" unicode="X"/>
<glyph d="M697 572l-123 -135q-40 -50 -45 -102q-2 -19 -2 -53q0 -121 14 -151q6 -12 34 -26q29 -14 32 -36q1 -4 1 -8q-1 -72 -207 -72q-221 0 -222 72q0 29 29 42q31 13 38 20q5 7 8 13q16 38 16 166q0 56 -21 90q-9 13 -23 31l-113 131q-23 26 -73 47q-33 14 -39 29q-2 7 -2 14 q0 26 18 38q46 30 208 30q59 0 100.5 -4.5t61.5 -10t30.5 -15.5t12 -15.5t1.5 -14.5v-1q0 -13 -18 -35q-10 -13 -10 -22q0 -22 29 -59q21 -25 36 -26q23 0 52 40q15 22 16 36q0 12 -16 32q-13 17 -13 36q1 59 154 59q125 0 148 -28q10 -12 10 -31q0 -32 -31 -41 q-5 -2 -19 -5q-50 -11 -72 -35z" glyph-name="Y" horiz-adv-x="819" unicode="Y"/>
<glyph d="M638 609l-215 -370q-43 -73 -44 -91q1 -23 69 -23q96 0 131 60q5 9 13 26q15 35 30 42q10 4 20 4q71 -2 72 -77q0 -93 -53 -157q-27 -31 -48 -32q-11 0 -45 5q-42 4 -58 4h-422q-43 0 -49 2q-21 8 -22 36q1 16 21 50l252 428q17 29 18 38q-1 29 -66 29q-66 0 -98 -57 q-5 -8 -13 -25q-19 -41 -36 -49q-9 -4 -19 -4q-39 0 -60 44q-9 20 -9 39q0 64 50 136q28 40 43 41q3 0 11 -2q12 -3 21 -5q50 -7 119 -7q29 0 194 9q131 9 166 9q45 0 50 -37q1 -5 1 -9q-1 -15 -24 -57z" glyph-name="Z" horiz-adv-x="721" unicode="Z"/>
<glyph d="M321 628v-555q0 -56 7 -67q12 -18 59 -18q11 0 31 2t30 2q41 0 48 -26q1 -5 1 -9q0 -43 -58 -53q-31 -5 -135 -5q-95 0 -115 5q-39 10 -51 54q-9 37 -9 115v555q0 120 27 150q20 23 84 24h38h26q122 0 152 -9q40 -14 41 -49q-8 -31 -49 -35q-10 0 -30 2q-21 2 -31 2 q-52 0 -61 -22q-5 -12 -5 -63z" glyph-name="bracketleft" horiz-adv-x="524" unicode="["/>
<glyph d="M393 -56l-276 511q-14 26 -93 158q-23 40 -24 51q3 36 85 37q36 0 51 -21q1 -1 33 -63l4 -8l276 -511q27 -50 75 -126q44 -70 44 -83q-7 -35 -94 -37q-30 0 -44 20q-5 8 -16 31q-12 25 -21 41z" glyph-name="backslash" horiz-adv-x="496" unicode="\"/>
<glyph d="M203 73v555q0 56 -7 67q-12 18 -59 18q-11 0 -31 -2t-30 -2q-41 0 -48 26q-1 5 -1 9q0 43 58 53q31 5 135 5q95 0 115 -5q39 -10 51 -54q9 -37 9 -115v-555q0 -120 -27 -150q-20 -23 -84 -24h-38h-26q-122 0 -152 9q-40 14 -41 49q8 31 49 35q10 0 30 -2q21 -2 31 -2 q52 0 61 22q5 12 5 63z" glyph-name="bracketright" horiz-adv-x="524" unicode="]"/>
<glyph d="M429 204l-114 262l-114 -262q-13 -33 -33 -37q-6 -1 -14 -1h-32q-39 0 -48 15q-1 3 -1 5q0 11 11 38l178 409q6 15 49 17h4q41 -2 49 -11q3 -3 4 -6l178 -409q11 -29 11 -38q-5 -18 -49 -20h-31q-28 0 -40 21q-4 8 -8 17z" glyph-name="asciicircum" unicode="^"/>
<glyph d="M0 -75h500v-50h-500v50z" glyph-name="underscore" horiz-adv-x="500" unicode="_"/>
<glyph d="M284 561q-110 0 -182 69q-31 30 -32 48q0 42 90 54q18 2 32 2q55 0 77 -17q6 -7 7 -13q0 -4 -6 -16q-2 -4 -2 -7q0 -12 29 -32q37 -25 40 -44q1 -4 1 -7q-1 -37 -54 -37z" glyph-name="grave" horiz-adv-x="408" unicode="`"/>
<glyph d="M279 215q-36 0 -51 -36q-6 -14 -6 -28q0 -39 27 -51q8 -3 16 -3q41 1 41 71q0 37 -13 44q-6 3 -14 3zM522 339v-100q0 -41 4.5 -67t11 -34t14.5 -11.5t14.5 -2t11 -3t4.5 -16.5q0 -46 -55 -86q-46 -33 -96 -33t-82 34q-16 16 -24 17q-7 0 -35 -18q-7 -4 -12 -7 q-45 -26 -98 -26q-91 0 -137 57q-29 36 -29 86q0 68 66 114q67 45 178 45q33 0 39 7q6 9 6 27q-1 101 -47 102q-26 0 -55 -38q-31 -42 -47 -54q-24 -16 -53 -16q-38 0 -52 33q-4 11 -4 22q0 61 103 105q82 35 161 35q92 0 152 -45q60 -46 61 -127z" glyph-name="a" horiz-adv-x="596" unicode="a"/>
<glyph d="M298 658l-6 -193q1 -15 7 -16q1 0 29 20q10 6 18 11q51 31 105 31q91 0 148 -74q48 -61 48 -147q0 -134 -92 -222q-86 -82 -208 -82q-93 0 -179 54q-18 11 -22 11q-3 0 -32 -10q-17 -5 -33 -5q-29 2 -30 20q0 4 3 17q17 66 17 161v266q0 28 -31 42q-30 13 -36 21 q-8 11 -8 26q0 49 122 86q87 26 155 26q18 0 22 -10.5t3 -32.5zM422 203q0 88 -34 131q-19 22 -45 23q-46 0 -49 -60v-10q0 -168 18 -196q10 -14 33 -14q76 2 77 126z" glyph-name="b" horiz-adv-x="665" unicode="b"/>
<glyph d="M17 250q0 113 88 189q85 72 205 72q130 0 195 -73q34 -38 34 -80q0 -58 -48 -86q-23 -13 -50 -13q-54 0 -74 47q-3 7 -8 22q-14 41 -31 50q-11 5 -24 5q-43 0 -61 -48q-7 -19 -7 -37q0 -70 50 -116q37 -33 84 -33q39 0 85 20q13 6 20 6q28 0 41 -33q4 -11 4 -21 q0 -47 -60 -88q-70 -47 -170 -47q-122 0 -202 84q-71 75 -71 180z" glyph-name="c" horiz-adv-x="553" unicode="c"/>
<glyph d="M399 278q0 108 -43 122q-7 2 -15 2q-60 0 -76 -114q-3 -25 -3 -48q0 -95 44 -121q14 -8 30 -8q64 0 63 156v11zM620 647v-478q0 -37 26 -56q20 -14 24 -25q3 -8 3 -18q0 -61 -173 -78q-35 -3 -57 -3q-17 0 -24 8.5t-6.5 19t-3 19t-14.5 8.5q-5 0 -37 -22q-6 -4 -10 -7 q-48 -29 -98 -29q-96 0 -168 87q-65 81 -65 175q0 104 73 183q74 79 173 80q48 0 108 -26q8 -4 11 -4q16 1 16 44q0 31 -29.5 42t-33.5 15q-10 10 -10 26q0 59 196 86q44 6 62 7q34 0 37 -42v-12z" glyph-name="d" horiz-adv-x="683" unicode="d"/>
<glyph d="M481 230h-217q-21 0 -25 -5q-2 -5 -2 -9q0 -43 52 -74q31 -18 60 -18q49 0 106 33q20 12 27 12q21 0 34 -29q5 -12 5 -21q0 -56 -88 -99q-73 -34 -143 -34q-146 0 -222 103q-51 69 -51 156q0 119 92 197q81 69 189 69q132 0 204 -96q41 -55 41 -110q0 -68 -47 -74 q-7 -1 -15 -1zM292 326q39 0 47 4q12 8 12 26q0 46 -37 60q-11 4 -22 4q-33 0 -52 -35q-8 -16 -8 -31q0 -29 35 -29q4 0 12.5 0.5t12.5 0.5z" glyph-name="e" horiz-adv-x="557" unicode="e"/>
<glyph d="M83 151l8 108q-3 44 -40 47q-31 0 -36 2q-6 5 -7 11q0 73 2 78q5 11 22 12q27 4 28 19q0 5 -18 41q-20 41 -20 78q0 103 113 142q51 17 110 17q144 0 188 -82q13 -24 13 -47q0 -45 -39 -67q-18 -10 -37 -10q-47 0 -88 44q-30 33 -41 39q-13 7 -26 7q-25 0 -32 -25 q-2 -6 -2 -11q0 -35 53 -70q49 -33 57 -41q8 -9 12 -17q8 -10 14 -11q9 0 28 1q59 3 67 -11q2 -4 2 -9l-5 -73q-3 -17 -26 -17q-48 0 -57 -8q-12 -12 -12 -57q0 -52 10 -89q9 -28 43 -41q32 -12 39 -22q7 -11 7 -27q0 -33 -38 -50q-56 -23 -189 -23q-176 1 -177 71 q0 27 28 40q30 14 37 23q8 12 9 28z" glyph-name="f" horiz-adv-x="446" unicode="f"/>
<glyph d="M350 317q0 98 -49 113q-8 2 -16 2q-41 0 -53 -47q-3 -13 -3 -25q0 -79 32 -109q13 -12 29 -12q52 0 59 62q1 8 1 16zM162 -50q0 -49 79 -63q20 -4 38 -4q102 5 108 51q-7 26 -39 30q-6 0 -28 -2q-39 -4 -58 -4q-14 0 -58 5q-25 3 -30 3q-11 -1 -12 -16zM600 8 q0 -80 -73 -139q-91 -72 -258 -72q-178 0 -236 78q-19 27 -19 56q0 38 37 59q17 11 18 15q0 4 -23 27q-30 31 -31 58q0 49 57 86q23 16 24 20q0 2 -23 30q-44 52 -45 102q0 92 107 144q69 33 145 33q21 0 116 -15q26 -4 39 -4q53 0 109 41q15 12 20 12q24 0 31 -35 q2 -8 2 -14q0 -39 -45 -90q-10 -14 -11 -17q0 -5 1 -15q2 -11 2 -16q0 -108 -124 -156q-66 -25 -143 -25q-8 0 -25 1q-18 2 -27 2q-25 -3 -27 -27q7 -34 67 -37q15 0 83 8q83 9 104 9q104 0 137 -69q11 -24 11 -50z" glyph-name="g" horiz-adv-x="607" unicode="g"/>
<glyph d="M650 310l4 -161q0 -50 28 -72q18 -13 20 -23q1 -5 1 -8q-1 -57 -165 -57q-150 1 -152 51q0 13 15 32q17 21 21 47q7 38 7 100q0 110 -39 135q-15 9 -33 9q-51 0 -57 -54q-2 -13 -2 -43v-116q0 -50 25 -73q15 -16 15 -29q-1 -59 -152 -59q-175 1 -176 61q0 19 18 32 q26 18 35 46q2 5 3 9q12 48 12 234q0 27 -2 82q-2 36 -2 54q-1 38 -31 55q-23 13 -27 21t-4 17q0 63 196 93q43 7 65 8q27 0 31 -16q1 -8 1 -22l-6 -190q-1 -50 24 -51q10 0 31 26q37 47 81 58q20 5 43 5q171 0 172 -196v-5z" glyph-name="h" horiz-adv-x="713" unicode="h"/>
<glyph d="M305 464v-279q0 -69 32 -90q20 -13 23 -19q4 -8 4 -19q-1 -68 -172 -68q-172 8 -179 63q0 20 25 38q23 18 28 31q14 38 11 152q-2 47 -7 65q-4 16 -29 29q-26 13 -30 29q-1 5 -1 11q0 56 191 91q56 10 73 10q30 -9 31 -44zM300 638q0 -65 -114 -89q-41 -9 -79 -9 q-61 0 -80 39q-7 13 -7 29q0 52 100 80q46 13 83 13q72 0 92 -39q5 -11 5 -24z" glyph-name="i" horiz-adv-x="375" unicode="i"/>
<glyph d="M318 455v-430q0 -114 -26 -156q-4 -5 -6 -8q-41 -49 -137 -62q-19 -2 -35 -2q-65 0 -99 30q-18 18 -19 40q0 22 21 30q6 2 11 2t15 -2q10 -1 14 -1q19 0 24 22q1 4 1 7q0 10 -2 20q-3 15 -3 32v313q0 53 -31 67q-24 10 -26 13q-8 9 -8 23q0 72 192 105q51 8 80 10 q30 0 33 -27q1 -8 1 -26zM306 638q0 -65 -114 -89q-41 -9 -79 -9q-61 0 -80 39q-7 13 -7 29q0 52 100 80q46 13 83 13q72 0 92 -39q5 -11 5 -24z" glyph-name="j" horiz-adv-x="388" unicode="j"/>
<glyph d="M461 33l-93 119q-26 38 -38 40q-10 0 -10 -27v-1q-2 -51 22 -71q17 -14 18 -27q1 -4 1 -8q0 -38 -41 -54q-41 -15 -122 -15q-105 0 -137 12q-37 16 -38 51q0 21 19 31q23 12 30 27q6 16 7 39q8 187 8 209v143q0 41 -32 49q-3 1 -12 3q-26 5 -31 18q-2 7 -2 14 q0 49 144 90q88 26 135 26q26 0 28 -25v-13l-5 -212q-2 -72 7 -83q6 -6 15 -6q18 0 58 26q21 15 22 23q0 5 -12 21q-8 12 -8 21q2 55 137 55q149 -1 150 -63q0 -24 -21 -32q-4 -1 -15 -4q-37 -11 -61 -25q-47 -24 -49 -37q0 -27 134 -190q2 -1 2 -2q20 -25 67 -54 q31 -24 33 -43q-2 -57 -100 -58h-141q-37 0 -49 11q-8 7 -20 22z" glyph-name="k" horiz-adv-x="771" unicode="k"/>
<glyph d="M313 373v-194q0 -54 4 -67q5 -17 29 -27q22 -9 26 -24q1 -5 1 -10q0 -63 -151 -62h-14q-113 0 -152 20q-32 17 -33 46q0 18 21 28q26 12 32 26q1 3 2 5q13 42 13 215q0 124 -7 159q-8 38 -40 57q-25 15 -30 26q-4 10 -4 22q0 67 189 98q59 10 85 10q41 -3 42 -52 q0 -7 -3 -40q-10 -135 -10 -236z" glyph-name="l" horiz-adv-x="384" unicode="l"/>
<glyph d="M70 187v92q0 70 -23 91q-3 3 -10 7q-16 13 -17 29q0 59 190 93q44 8 60 9q27 -3 27 -43q0 -35 7 -42q4 -4 10 -4t33 27q12 11 21 18q57 44 127 44q82 0 119 -62q15 -24 19 -26q2 -1 3 -1q4 0 34 27q12 11 21 18q61 44 121 44q113 0 144 -87q10 -29 10 -63v-211 q0 -34 24 -64q13 -17 13 -28q-1 -66 -153 -66q-91 0 -131 28q-17 14 -18 31q0 16 17 38q18 25 18 56v90q0 76 -12 100q-14 25 -40 26q-50 0 -51 -79v-26v-62q0 -79 25 -112q11 -15 11 -27q-1 -63 -156 -63q-144 0 -156 39q-2 7 -2 17q0 21 18 34q22 17 27 48q4 20 3 48v57 q0 76 -13 101q-14 24 -39 25q-50 0 -51 -79v-26v-81q0 -56 19 -93q8 -16 8 -29q-3 -60 -160 -61q-156 1 -157 52q0 17 19 33q30 25 37 65q4 21 4 48z" glyph-name="m" horiz-adv-x="1014" unicode="m"/>
<glyph d="M298 244v-77q0 -60 23 -89q11 -15 11 -29q-1 -60 -174 -60q-141 1 -142 60q0 20 16 29q21 11 27 31q5 17 6 43l4 150q1 39 -27 59q-23 15 -28 24q-4 9 -4 20q0 41 165 85q66 18 85 18q26 0 34 -27q2 -6 2 -12v-9q-1 -6 -1 -9q2 -25 20 -26q11 0 29 23q10 13 16 19 q42 41 107 41q129 0 163 -113q14 -49 17 -178q1 -41 2 -64q3 -45 28 -68q18 -19 18 -36q0 -27 -26 -39q-45 -21 -158 -21q-106 0 -126 33q-6 10 -6 21q0 16 15 29q20 20 23 55q1 9 3 29q12 126 -10 168q-18 33 -54 34q-54 0 -58 -71v-43z" glyph-name="n" horiz-adv-x="705" unicode="n"/>
<glyph d="M292 -14q-134 0 -211 81q-63 66 -63 164q0 138 113 217q89 63 209 63q136 0 216 -99q59 -73 59 -162q0 -118 -110 -196q-97 -68 -213 -68zM385 174q0 72 -24 144q-26 74 -64 75q-34 0 -46 -36q-4 -12 -3 -24q10 -161 60 -207q15 -13 31 -14q44 4 46 62z" glyph-name="o" horiz-adv-x="633" unicode="o"/>
<glyph d="M435 236q0 116 -62 126q-6 1 -11 1q-26 0 -35 -22q-13 -35 -13 -175q0 -40 38 -44q6 -1 13 -1q70 1 70 115zM88 143v55q0 122 -11 133q-3 3 -29 9q-37 12 -38 48q0 48 123 89q92 31 157 31q24 0 27 -17q1 -6 1 -13q1 -20 11 -21q2 0 39 21q59 33 113 33q103 0 161 -98 q40 -68 40 -150q0 -109 -68 -192q-71 -84 -173 -85q-30 0 -93 22q-8 3 -10 3q-16 -1 -16 -32q0 -41 31 -60q22 -15 27 -22q4 -9 4 -19q0 -56 -109 -62q-11 -1 -21 -1q-128 0 -201 47q-37 26 -38 53q0 24 22 35q26 14 34 26q2 3 3 6q14 29 14 151v10z" glyph-name="p" horiz-adv-x="699" unicode="p"/>
<glyph d="M391 241q0 77 -4 98q-13 59 -54 60q-30 0 -49 -38q-16 -33 -16 -85q0 -110 48 -149q16 -12 32 -12q45 0 43 109v17zM17 250q0 144 117 215q78 46 183 46q40 0 137 -20q21 -4 29 -4q18 0 66 16q25 8 42 8q44 -2 45 -36q0 -14 -4 -56q-16 -153 -16 -323q0 -2 3 -104 q2 -66 30 -84q16 -12 19 -19q3 -8 3 -19q-1 -67 -137 -67q-110 0 -175 31q-46 24 -47 58q0 22 24 34q29 14 37 27q9 16 9 40q-1 26 -14 27q-5 0 -41 -16q-41 -18 -82 -18q-121 0 -185 103q-43 70 -43 161z" glyph-name="q" horiz-adv-x="681" unicode="q"/>
<glyph d="M78 243v60q0 53 -29 65q-23 10 -26 13q-7 10 -7 26q0 62 175 92q49 9 68 9q27 0 33.5 -8t9.5 -36q2 -29 10 -33q4 -2 7 -2q8 0 27 24q35 47 78 53q10 2 20 2q68 0 98 -57q13 -27 13 -59q0 -62 -53 -98q-32 -22 -70 -22q-40 0 -78 37q-21 19 -31 20q-25 -5 -23 -85 q0 -50 8 -110q3 -20 33 -29q34 -11 42 -23q7 -11 7 -25q0 -53 -92 -64q-37 -4 -106 -4q-153 0 -177 46q-5 10 -5 21q0 23 26 42q26 21 31 35q11 35 11 110z" glyph-name="r" horiz-adv-x="562" unicode="r"/>
<glyph d="M229 511q23 0 60 -6q31 -7 41 -7q12 0 27 7q18 6 27 6q36 0 70 -62q22 -42 22 -71q0 -31 -29 -43q-10 -4 -20 -4q-30 0 -72 40q-36 35 -54 38q-4 1 -7 1q-23 0 -33 -21q-3 -7 -3 -13q0 -23 50 -50q7 -4 25 -13q83 -42 112 -78q33 -40 33 -90q0 -80 -75 -126 q-53 -33 -120 -33q-31 0 -74 7q-50 6 -53 6q-7 0 -20 -2q-12 -2 -19 -2q-28 1 -44 19q-34 38 -47 97q-3 15 -3 26q2 46 38 47q21 0 58 -41q41 -45 62 -54q11 -4 20 -4q34 0 38 26q1 3 1 6q0 21 -44 46q-67 37 -82 49q-69 54 -70 136q0 90 77 135q47 28 108 28z" glyph-name="s" horiz-adv-x="501" unicode="s"/>
<glyph d="M324 365v-149q1 -82 55 -83q16 0 48 17q12 6 19 6q21 0 31 -29q3 -10 3 -17q0 -50 -75 -90q-66 -34 -140 -34q-85 0 -135 53q-44 47 -44 128v206q-1 25 -5 28q-4 1 -39 1q-40 0 -44 4q-5 10 -5 40q0 23 4 28l5 5l228 145q19 12 36 11h16q33 0 37 -4q5 -8 5 -38 q0 -67 3 -74q13 -8 36 -8h70q34 0 39 -10q4 -8 4 -38q0 -49 -14 -57q-9 -4 -32 -4h-69q-30 0 -34 -8q-3 -8 -3 -29z" glyph-name="t" horiz-adv-x="487" unicode="t"/>
<glyph d="M301 470v-254q0 -92 45 -101q6 -1 12 -1q60 0 62 95q1 11 0 31v16q0 83 -4 108t-30 40q-21 11 -25 22q-2 7 -2 13q0 51 177 66q37 3 62 3q50 -2 51 -56q0 -16 -1 -48q-1 -31 -1 -47v-201q0 -31 25 -44q22 -10 26 -18t4 -18q0 -56 -144 -79q-50 -8 -88 -8q-26 0 -37 9.5 t-10 20.5t-2.5 20.5t-16.5 9.5q-7 0 -39 -22q-7 -5 -12 -8q-49 -30 -100 -30q-127 0 -159 97q-16 48 -15 173v30q0 43 -7 68t-17.5 33t-20.5 12.5t-17 12.5t-7 26q0 53 208 65q32 2 52 2q27 0 30 -21q1 -7 1 -17z" glyph-name="u" horiz-adv-x="712" unicode="u"/>
<glyph d="M245 59l-167 311q-14 26 -50 38q-27 9 -32 23q-3 7 -3 17q0 31 44 45q50 15 157 15q167 -1 169 -51q0 -17 -22 -39q-15 -16 -16 -27q0 -25 28 -68q20 -29 34 -30q28 0 56 62q13 29 13 43q0 12 -19 32q-15 18 -15 32q3 47 140 46q103 -1 104 -44q0 -23 -28 -35 q-37 -15 -46 -23q-13 -10 -20 -24l-164 -319q-41 -76 -83 -77q-41 0 -79 71q-1 1 -1 2z" glyph-name="v" horiz-adv-x="659" unicode="v"/>
<glyph d="M603 99l-51 82q-18 28 -26 32q-4 1 -7 1q-19 0 -41 -40q-2 -4 -3 -5l-73 -127q-25 -41 -44 -49q-9 -4 -18 -4q-34 0 -68 54q-1 2 -8 14l-190 309q-15 25 -51 37q-24 7 -28 21q-2 7 -2 15q0 60 162 68q19 1 37 1q158 -1 160 -60q0 -12 -14 -33q-5 -7 -5 -12q0 -19 31 -68 q25 -37 40 -38q17 0 37 41q9 17 9 25q0 25 -30 46q-27 18 -31 30q-1 5 -1 9q0 30 44 44q51 16 157 16q123 0 141 -37q4 -8 4 -16q0 -20 -20 -40q-12 -13 -12 -22q0 -22 28 -67q19 -30 32 -31q26 0 59 73q8 20 9 25q0 11 -15 31q-13 17 -13 33q1 51 122 51q121 -1 122 -50 q0 -25 -23 -35q-37 -15 -41 -17q-25 -17 -42 -48l-128 -251q-57 -107 -96 -117q-5 -1 -9 -1q-36 0 -101 105q-2 3 -3 5z" glyph-name="w" horiz-adv-x="1039" unicode="w"/>
<glyph d="M482 231l68 -98q23 -30 61 -50q19 -17 21 -32q0 -28 -24 -40q-44 -22 -177 -22q-84 0 -110 6q-57 13 -58 51q0 19 20 30q20 14 21 26q0 21 -27 55q-17 20 -27 21q-15 0 -43 -49q-17 -30 -17 -43q0 -9 12 -24q11 -14 11 -29q-1 -44 -107 -44q-93 0 -104 36q-2 7 -2 13 q0 24 19 30q33 11 40 15q20 14 35 38l81 132q9 10 12 22q0 4 -15 22l-64 79q-16 20 -59 33q-31 9 -35 26q-2 6 -2 12q1 61 215 61q105 0 137 -18q20 -13 21 -32q0 -10 -14 -34q-6 -9 -6 -15q0 -14 23 -40q11 -12 17 -13q13 0 35 35q10 16 10 23q0 6 -14 28q-7 12 -7 19 q1 47 106 47q91 -3 94 -48q0 -19 -29 -34q-39 -22 -51 -35q-3 -4 -5 -7l-57 -83q-23 -29 -24 -38q1 -4 19 -32z" glyph-name="x" horiz-adv-x="632" unicode="x"/>
<glyph d="M504 247l-59 -163q-54 -147 -118 -204q-65 -59 -158 -59q-80 0 -126 45q-31 32 -31 75q0 52 43 79q21 13 46 13q52 0 73 -51l6 -18q11 -33 24 -36q3 -1 5 -1q30 0 37 35q2 7 2 14q0 25 -32 91l-140 293q-9 18 -41 33q-29 13 -34 30q-1 5 -1 11q0 39 56 56q58 18 173 18 q127 -1 128 -61q0 -13 -15 -35q-8 -14 -8 -24q0 -36 35 -84q17 -23 26 -24q26 0 44 57q7 22 7 36q0 24 -19 45q-13 16 -13 31q0 52 110 58q10 1 20 1q103 -4 107 -51q0 -30 -28 -43q-37 -17 -42 -21q-15 -12 -25 -28q-23 -37 -52 -118z" glyph-name="y" horiz-adv-x="651" unicode="y"/>
<glyph d="M483 405l-124 -220q-22 -44 -22 -52q1 -25 36 -25q45 0 69 42q18 32 22 36q9 8 19 8q40 0 48 -47q2 -10 2 -19q0 -66 -52 -117q-28 -26 -48 -27q-3 0 -27 8t-64 8h-244q-80 1 -81 38q0 17 28 58q2 4 4 7l121 195q38 63 39 76q-1 21 -44 21q-38 0 -61 -38q-20 -33 -28 -38 q-11 -8 -24 -8q-33 0 -43 38q-2 10 -2 19q0 60 44 116q25 31 44 32q8 0 22 -4q60 -15 177 -15h111q70 4 85 -3q16 -10 17 -29q0 -18 -24 -60z" glyph-name="z" horiz-adv-x="540" unicode="z"/>
<glyph d="M341 222v-201q0 -41 28 -47q7 -1 15 -1q36 -5 41 -37q0 -29 -27 -35q-7 -2 -14 -2h-93q-139 6 -142 141v229q0 41 -28 47q-7 1 -15 1q-37 5 -41 39q0 31 29 37q6 1 12 1q37 0 42 31q1 8 1 18v218q8 138 142 141h93q37 -5 41 -37q0 -27 -25 -35q-8 -2 -16 -2 q-37 0 -42 -32q-1 -8 -1 -16v-191q0 -84 -38 -112q-22 -15 -57 -20v-3q73 -9 89 -70q6 -24 6 -62z" glyph-name="braceleft" horiz-adv-x="524" unicode="{"/>
<glyph d="M190 -250v1000h116v-1000h-116z" glyph-name="bar" horiz-adv-x="496" unicode="|"/>
<glyph d="M183 21v201q0 84 38 112q22 15 57 20v3q-73 10 -89 70q-6 24 -6 62v191q0 41 -28 47q-7 1 -15 1q-36 5 -41 37q0 29 27 35q7 2 14 2h93q139 -6 142 -141v-218q0 -41 26 -47q8 -2 17 -2q37 -5 41 -38q0 -32 -29 -38q-6 -1 -12 -1q-37 0 -42 -32q-1 -8 -1 -16v-229 q-8 -138 -142 -141h-93q-37 5 -41 37q0 27 25 35q8 2 16 2q37 0 42 32q1 8 1 16z" glyph-name="braceright" horiz-adv-x="524" unicode="}"/>
<glyph d="M469 349q66 0 81 -32q7 -14 7 -33q0 -60 -49 -97q-30 -22 -64 -22q-46 0 -150 44q-55 23 -71 23q-11 -7 -12 -17q0 -44 -41 -49q-5 -1 -9 -1q-66 0 -81 32q-7 14 -7 33q0 60 49 97q30 22 64 22q46 0 150 -44q55 -23 71 -23q11 7 12 17q0 44 41 49q5 1 9 1z" glyph-name="asciitilde" unicode="~"/>
<glyph glyph-name="uni00A0" horiz-adv-x="315" unicode=" "/>
<glyph d="M273 406q0 -58 -49 -92q-28 -19 -62 -19q-58 0 -92 49q-19 28 -19 62q0 58 49 92q28 19 62 19q58 0 92 -49q19 -28 19 -62zM42 -59q0 92 51 192q30 64 58 80q6 4 11 4q26 0 65 -76q3 -5 4 -8q51 -100 51 -192q0 -88 -51 -130q-29 -23 -69 -23q-79 0 -108 82 q-12 33 -12 71z" glyph-name="exclamdown" horiz-adv-x="324" unicode="¡"/>
<glyph d="M268 548q0 34 11 40q9 3 36 3q36 0 42 -4q11 -8 11 -28q0 -22 6 -25q5 -2 12 -3q75 -8 125 -56q38 -37 39 -83q0 -54 -48 -78q-21 -10 -44 -10q-45 0 -63 43l-6 18q-14 38 -31 47q-10 4 -21 4q-44 0 -57 -55q-3 -15 -3 -29q0 -60 48 -100q34 -27 73 -27q27 0 79 20 q11 4 16 4q25 0 36 -32q3 -10 3 -19q0 -40 -53 -77q-42 -29 -97 -39q-14 -3 -14 -19v-5v-6q0 -36 -12 -41q-9 -4 -35 -4q-39 0 -45 7q-8 9 -8 36q0 26 -3 30q-4 4 -8 5q-93 25 -143 107q-34 55 -34 117q0 133 115 203q31 19 56 26q16 4 17 14v16z" glyph-name="cent" unicode="¢"/>
<glyph d="M57 376h17q38 2 39 21q0 5 -5 18q-10 28 -10 48q0 97 112 153q75 37 152 37q126 0 193 -74q31 -36 32 -67q0 -42 -37 -65q-17 -10 -34 -10q-15 0 -28 18q-17 25 -45 29q-11 2 -23 2q-55 0 -72 -38q-5 -12 -5 -25q1 -39 65 -39q9 0 27 3q17 2 25 2q18 -7 17 -41 q0 -39 -9 -47q-6 -5 -13 -5q-10 0 -29 3q-18 2 -27 2q-35 0 -40 -26q-2 -9 -2 -21q0 -47 68 -68q27 -8 51 -8q31 0 69 29q30 22 49 22q35 -1 36 -54q0 -92 -88 -148q-61 -39 -128 -39q-79 0 -139 53q-9 7 -11 8q-2 0 -11 -9q-60 -53 -127 -54q-66 0 -95 58q-15 29 -15 65 q2 104 112 105q6 0 18 -1q13 -1 19 -1q13 7 15 20q0 48 -54 49q-12 0 -37 -3q-22 -2 -32 -2q-34 2 -34 52q2 47 34 48z" glyph-name="sterling" unicode="£"/>
<glyph d="M187 516q60 36 126 36q74 -1 129 -36q29 29 38 31q2 1 4 1q24 0 54 -36q17 -22 18 -36q-1 -11 -27 -37l-5 -5q38 -60 38 -129q-1 -76 -38 -128q28 -28 31 -37q1 -3 1 -5q0 -24 -36 -54q-21 -17 -36 -18q-13 1 -41 31l-1 1q-59 -37 -124 -37q-74 1 -131 37 q-29 -29 -38 -31q-2 -1 -4 -1q-24 0 -54 36q-17 22 -18 36q1 11 27 37l5 5q-37 66 -37 127q1 71 37 130q-28 28 -31 37q-1 3 -1 5q0 24 36 54q21 17 36 18q13 -1 41 -31zM315 182q65 0 102 54q21 32 21 69q0 61 -50 99q-33 24 -73 24q-65 0 -102 -54q-21 -32 -21 -69 q0 -61 50 -99q33 -24 73 -24z" glyph-name="currency" unicode="¤"/>
<glyph d="M544 519l-70 -89q-40 -50 -41 -59q0 -8 22 -8h1q19 0 56 1h56q27 0 33 -19q4 -13 4 -40q0 -42 -21 -48q-11 -3 -37 -2h-81q-51 0 -56 -3q-6 -6 -6 -25v-51q0 -29 30 -49q28 -19 34 -31q7 -12 7 -28q-1 -79 -148 -79q-54 0 -93 6.5t-57.5 14.5t-28.5 20.5t-11 19.5t-1 17 v1q0 35 34 54q27 16 31 24q6 17 6 59q0 45 -12 49q-5 2 -21 2q-58 2 -101 2q-38 0 -45 6q-11 10 -11 38q0 53 17 61q9 3 30 3q31 0 60 -1q13 -1 18 -1q21 1 22 12q0 9 -16 28l-76 97q-13 16 -49 34q-29 15 -34 38q-2 9 -2 18q0 50 64 65q38 9 96 9q107 0 139 -31 q16 -18 16 -42q0 -19 -16 -41q-4 -7 -4 -10q0 -20 27 -57q10 -13 14 -14q12 0 37 40q11 19 12 27q0 2 -13 22q-11 18 -11 36q1 70 160 70q87 0 115 -22q20 -17 20 -44q0 -37 -45 -54q-43 -17 -44 -18q-7 -4 -10 -8z" glyph-name="yen" unicode="¥"/>
<glyph d="M190 378v238q0 39 11 48q13 11 46 11q49 0 56 -24q3 -10 3 -34v-242q0 -32 -12 -41q-15 -9 -47 -9q-48 0 -55 25q-2 9 -2 28zM190 -122v238q0 39 11 48q13 11 46 11q49 0 56 -24q3 -10 3 -34v-242q0 -32 -12 -41q-15 -9 -47 -9q-48 0 -55 25q-2 9 -2 28z" glyph-name="brokenbar" horiz-adv-x="496" unicode="¦"/>
<glyph d="M340 319l72 -22q15 -5 23 -5q16 0 27 39q2 10 2 15q0 28 -37 42q-3 2 -10 4q-6 2 -8 3q-70 24 -93 25q-18 0 -30 -35q-3 -10 -3 -17q0 -30 40 -44q5 -1 17 -5zM170 469q0 3 -21 22q-59 53 -60 126q0 97 97 147q77 40 205 40q168 0 249 -59q35 -27 36 -55q0 -33 -56 -54 q-27 -10 -47 -10q-27 0 -59 29q-38 34 -68 42q-19 5 -40 5q-43 0 -59 -24q-6 -8 -6 -18q0 -34 63 -52q17 -5 57 -14q113 -25 159 -55q68 -48 69 -136q0 -76 -73 -134q-22 -19 -23 -23q0 -5 23 -22q62 -44 68 -110q1 -9 1 -17q0 -121 -125 -172q-70 -28 -165 -28 q-224 0 -302 93q-23 28 -24 50q0 38 84 49q16 2 28 2q31 0 62 -31q35 -35 58 -46q28 -12 65 -12q64 0 74 33q2 5 2 10q0 30 -67 51q-16 5 -54 14q-121 32 -170 65q-72 51 -73 136q0 82 76 143q15 12 16 15z" glyph-name="section" horiz-adv-x="758" unicode="§"/>
<glyph d="M331 656q0 -57 -101 -78q-34 -7 -65 -7q-60 0 -85 34q-10 14 -10 32q0 67 112 80q21 3 42 3q81 0 102 -41q5 -11 5 -23zM636 656q0 -57 -101 -78q-34 -7 -65 -7q-60 0 -85 34q-10 14 -10 32q0 67 112 80q21 3 42 3q81 0 102 -41q5 -11 5 -23z" glyph-name="dieresis" horiz-adv-x="706" unicode="¨"/>
<glyph d="M379 -14q-145 0 -251 100q-104 99 -113 242q-1 12 -1 23q0 145 100 250q99 104 242 113q12 1 23 1q145 0 251 -100q104 -98 113 -241q1 -12 1 -23q0 -146 -101 -252q-99 -104 -242 -112q-11 -1 -22 -1zM379 55q126 0 213 90q83 86 83 206q0 124 -89 211q-87 84 -207 84 q-125 0 -212 -89q-84 -86 -84 -206q0 -126 90 -213q86 -83 206 -83zM489 520q5 0 13 2t12 2q25 0 42 -37q11 -26 11 -59q0 -40 -31 -53q-10 -4 -20 -4q-25 0 -44 32q-24 37 -37 47q-23 18 -58 18q-47 0 -58 -53q-3 -13 -3 -25q0 -75 48 -117q31 -26 72 -26q44 0 82 30 q11 8 15 8q19 0 23 -25q1 -4 1 -7q0 -38 -28 -62q-12 -10 -25 -13q-9 -2 -50 -19q-34 -13 -72 -13q-95 0 -159 70q-51 58 -51 132q0 90 76 150q63 49 139 49q35 0 88 -23q10 -4 14 -4z" glyph-name="copyright" horiz-adv-x="758" unicode="©"/>
<glyph d="M205 604v15q-3 37 -25 40q-15 0 -34 -25q-23 -32 -47 -35q-5 -1 -9 -1q-29 0 -34 26q-1 4 -1 8q0 46 87 71q40 12 70 12q82 0 113 -53q12 -21 12 -46v-64q0 -24 3.5 -37.5t8.5 -16.5t10.5 -3t9 -3t3.5 -12q0 -36 -45 -59q-24 -12 -45 -12q-31 0 -52 22q-7 6 -10 7 q-2 0 -25 -13q-28 -16 -59 -16q-66 0 -90 44q-10 18 -10 40q0 59 75 84q31 10 63 10q24 0 27 2q4 5 4 15zM193 540q-22 0 -29 -24q-1 -5 -1 -10q2 -27 23 -28q20 1 20 36q0 22 -7 25q-3 1 -6 1z" glyph-name="ordfeminine" horiz-adv-x="410" unicode="ª"/>
<glyph d="M100 375q89 95 130 96q29 0 43 -25q6 -10 6 -19q0 -20 -46 -85q-48 -71 -49 -98q0 -27 50 -99q44 -64 45 -84q0 -26 -29 -39q-10 -5 -20 -5q-42 1 -130 96q-61 63 -76 94q-10 21 -10 37q0 43 76 121l3 3zM368 375q89 95 130 96q29 0 43 -25q6 -10 6 -19q0 -20 -46 -85 q-48 -71 -49 -98q0 -27 50 -99q44 -64 45 -84q0 -26 -29 -39q-10 -5 -20 -5q-42 1 -130 96q-61 63 -76 94q-10 21 -10 37q0 43 76 121l3 3z" glyph-name="guillemotleft" horiz-adv-x="561" unicode="«"/>
<glyph d="M441 165v100q0 25 -7 29q-7 2 -27 2h-269q-42 0 -51 6q-14 12 -14 52q0 48 22 55q9 3 43 3h354q61 -10 65 -65v-182q0 -42 -6 -51q-12 -14 -52 -14q-48 0 -55 22q-3 9 -3 43z" glyph-name="logicalnot" unicode="¬"/>
<glyph d="M259 204q-16 -31 -41 -35q-6 -1 -13 -1q-12 0 -37 4q-24 4 -36 4q-33 0 -102 -4q-23 0 -29 22q-1 4 -1 8q0 31 36 114q2 7 4 10q16 31 41 35q6 1 13 1q12 0 36 -4q25 -4 37 -4q33 0 102 4q23 0 29 -22q1 -4 1 -8q0 -31 -36 -114q-2 -7 -4 -10z" glyph-name="uni00AD" horiz-adv-x="299" unicode="­"/>
<glyph d="M379 -14q-145 0 -251 100q-104 99 -113 242q-1 12 -1 23q0 145 100 250q99 104 242 113q12 1 23 1q145 0 251 -100q104 -98 113 -241q1 -12 1 -23q0 -146 -101 -252q-99 -104 -242 -112q-11 -1 -22 -1zM379 55q126 0 213 90q83 86 83 206q0 124 -89 211q-87 84 -207 84 q-125 0 -212 -89q-84 -86 -84 -206q0 -126 90 -213q86 -83 206 -83zM215 303v124q0 27 -4 42.5t-10.5 19.5t-12.5 5.5t-10 6t-4 14.5q1 34 64 34q11 0 34 -2q22 -2 33 -2q17 0 53 2t53 2q80 0 115 -45q18 -24 18 -55q0 -50 -38 -74q-16 -11 -17 -16q0 -5 20 -15 q50 -27 55 -83q1 -7 1 -13q2 -26 23 -33q16 -5 18 -12q1 -4 1 -8q0 -30 -56 -40q-16 -3 -31 -3q-76 0 -100 66q-4 13 -11 40q-11 49 -27 60q-10 6 -22 6t-15 -12q-1 -9 -1 -24q0 -33 4 -53q2 -11 18 -21q13 -10 14 -22q0 -34 -91 -35h-11q-103 1 -104 40q0 12 12 18 q21 11 26 46q3 18 3 42zM343 460v-52q0 -20 1 -22q5 -4 12 -4q46 2 47 53q-2 53 -38 54q-21 -7 -22 -29z" glyph-name="registered" horiz-adv-x="758" unicode="®"/>
<glyph d="M266 704h163q46 0 70 2q8 0 15 1h4q22 -4 26 -22q0 -23 -32 -83l-3 -6q-18 -25 -47 -26q-4 0 -19 1q-48 5 -95 5h-163q-15 0 -89 -3q-23 3 -26 21q0 23 31 83q3 5 4 7q18 25 47 26q4 0 19 -1q48 -5 95 -5z" glyph-name="macron" horiz-adv-x="614" unicode="¯"/>
<glyph d="M339 500q0 -74 -59 -119q-41 -31 -91 -31q-74 0 -119 59q-31 41 -31 91q-1 72 57 118q42 32 93 32q72 0 118 -58q32 -42 32 -92zM268 501q0 47 -41 69q-18 9 -38 9q-47 0 -69 -39q-10 -18 -10 -39q0 -47 40 -70q19 -10 39 -10q46 0 69 41q10 18 10 39z" glyph-name="degree" horiz-adv-x="378" unicode="°"/>
<glyph d="M492 266h-68q-42 0 -46 -4q-5 -7 -5 -47q0 -42 -6 -51q-12 -14 -52 -14q-48 0 -55 22q-3 9 -3 43q-1 43 -4 47q-7 4 -47 4h-68q-42 0 -51 6q-14 12 -14 52q0 48 22 55q9 3 43 3h68q42 0 47 5q4 6 4 46q0 42 6 51q12 14 52 14q48 0 55 -22q3 -9 3 -43q0 -40 5 -46 q6 -5 46 -5h68q42 0 51 -6q14 -12 14 -52q0 -48 -22 -55q-9 -3 -43 -3zM492 0h-354q-42 0 -51 6q-14 12 -14 52q0 48 22 55q9 3 43 3h354q42 0 51 -6q14 -12 14 -52q0 -48 -22 -55q-9 -3 -43 -3z" glyph-name="plusminus" unicode="±"/>
<glyph d="M359 359q28 -1 29 -45q0 -52 -33 -87q-19 -19 -39 -20q-16 0 -23 12q-12 17 -44 17h-212q-35 3 -37 15q0 11 26 33q9 9 21 19q102 90 111 140q1 4 1 7q-5 31 -37 34q-20 0 -46 -21q-18 -14 -31 -14q-23 0 -37 20q-5 8 -5 15q0 29 53 63q67 42 149 42q127 0 151 -71 q4 -12 4 -23q0 -48 -67 -106q-38 -33 -41 -41q-1 -2 -1 -4q6 -18 29 -21q27 0 57 24q14 12 22 12z" glyph-name="twosuperior" horiz-adv-x="378" unicode="²"/>
<glyph d="M386 325q0 -58 -56 -102q-68 -51 -192 -51q-96 0 -133 26q-13 11 -14 23q0 23 25 31q6 2 12 2t23 -4q34 -7 58 -7q72 0 85 45q2 6 2 12q0 38 -46 48q-11 3 -23 3q-13 0 -41 -5q-4 -1 -6 -1q-16 0 -25 36q-2 7 -2 11q0 10 31 22q44 18 53 37q3 8 3 16q0 27 -31 39 q-10 4 -20 4q-18 0 -54 -17q-8 -4 -12 -4q-14 0 -21 25q-2 5 -2 9q0 22 45 43q51 23 122 23q90 0 134 -33q24 -20 25 -46q0 -33 -35 -60q-13 -12 -14 -16q0 -7 28 -14q57 -15 73 -50q8 -20 8 -45z" glyph-name="threesuperior" horiz-adv-x="378" unicode="³"/>
<glyph d="M124 561q-53 2 -54 37q0 23 37 48q30 21 32 31q1 2 1 4q0 4 -4 10q-4 8 -4 13q10 25 84 30q66 0 102 -24q19 -14 20 -32q0 -21 -39 -55q-73 -62 -175 -62z" glyph-name="acute" horiz-adv-x="408" unicode="´"/>
<glyph d="M647 357v-201q0 -31 25 -44q22 -10 26 -18t4 -18q0 -56 -144 -79q-50 -8 -88 -8q-26 0 -37 9.5t-10 20.5t-2.5 20.5t-16.5 9.5q-6 0 -51 -29q-31 -20 -45 -21q2 -12 2 -35q0 -91 -54 -130q-28 -19 -65 -19q-78 0 -108 81q-13 35 -13 75q0 13 7 89q2 16 2 29v200 q0 43 -7 68t-17.5 33t-20.5 12.5t-17 12.5t-7 26q0 53 208 65q32 2 52 2q27 0 30 -21q1 -7 1 -17v-254q0 -92 45 -101q6 -1 12 -1q60 0 62 95q1 11 0 31v16q0 83 -4 108t-30 40q-21 11 -25 22q-2 7 -2 13q0 51 177 66q37 3 62 3q50 -2 51 -56q0 -16 -1 -48q-1 -31 -1 -47z " glyph-name="mu" horiz-adv-x="712" unicode="µ"/>
<glyph d="M285 384q20 9 21 29v149q0 40 -8 45q-5 3 -11 3q-51 0 -79 -53q-14 -27 -14 -56q0 -63 44 -99q23 -18 47 -18zM381 560v-700q0 -34 -9 -40q-9 -5 -29 -5q-31 0 -35 15q-2 8 -2 30v380q-1 46 -1 47q-6 14 -37 14q-8 0 -24 -1h-25q-137 0 -193 93q-27 44 -27 98 q0 107 81 168q59 43 137 43q23 0 147 -11q41 -4 71 -4q25 0 73 3q49 4 73 4q48 -2 49 -38q0 -29 -36 -43q-42 -17 -45 -19q-21 -14 -22 -39v-695q0 -34 -9 -40q-9 -5 -29 -5q-31 0 -35 15q-2 8 -2 30v700q0 34 -9 40q-8 5 -27 5q-29 0 -33 -15q-2 -8 -2 -30z" glyph-name="paragraph" unicode="¶"/>
<glyph d="M278 259q0 -64 -52 -100q-32 -21 -69 -21q-64 0 -100 52q-21 32 -21 69q0 64 52 100q32 21 69 21q64 0 100 -52q21 -32 21 -69z" glyph-name="periodcentered" horiz-adv-x="315" unicode="·"/>
<glyph d="M165 0l63 -61q28 -28 33 -36q7 -12 7 -24q0 -42 -69 -57q-20 -4 -37 -4q-72 0 -89 39q-3 7 -3 12q0 25 36 35q28 8 30 13q1 2 1 3q0 5 -6 16l-1 1l-43 63h78z" glyph-name="cedilla" horiz-adv-x="338" unicode="¸"/>
<glyph d="M112 386v72q0 30 -14 35q-8 3 -20 3q-39 0 -45 5q-5 6 -5 14q0 40 133 63q61 11 109 11q53 -1 54 -27q0 -14 -16 -20q-23 -8 -29 -22q-5 -12 -5 -31v-64q0 -72 6 -102q6 -28 43 -31q32 -3 37 -9t5 -14q0 -24 -48 -34q-42 -8 -122 -8q-149 0 -178 34q-4 6 -4 11 q0 17 21 23q5 1 9 1q5 0 17 -2q11 -2 16 -2q22 0 29 22t7 72z" glyph-name="onesuperior" horiz-adv-x="378" unicode="¹"/>
<glyph d="M186 409q-91 0 -134 63q-24 36 -24 83q0 85 79 131q49 29 108 29q93 0 141 -73q25 -37 25 -76q0 -85 -85 -130q-51 -27 -110 -27zM241 516q0 56 -19 97q-13 25 -29 26q-24 -1 -25 -30q0 -44 22 -101q10 -22 27 -23q23 2 24 31z" glyph-name="ordmasculine" horiz-adv-x="410" unicode="º"/>
<glyph d="M461 113q-89 -95 -130 -96q-29 0 -43 25q-6 10 -6 19q0 20 46 85q48 71 49 98q0 27 -50 99q-44 64 -45 84q0 26 29 39q10 5 20 5q42 -1 130 -96q61 -63 76 -94q10 -21 10 -37q0 -43 -76 -121l-3 -3zM193 113q-89 -95 -130 -96q-29 0 -43 25q-6 10 -6 19q0 20 46 85 q48 71 49 98q0 27 -50 99q-44 64 -45 84q0 26 29 39q10 5 20 5q42 -1 130 -96q61 -63 76 -94q10 -21 10 -37q0 -43 -76 -121l-3 -3z" glyph-name="guillemotright" horiz-adv-x="561" unicode="»"/>
<glyph d="M889 337v-199q0 -20 6 -22q5 -2 13 -2q21 0 23 -7q2 -5 2 -17v-48q0 -21 -11 -25q-4 -1 -7 -1q-16 -2 -17 -9q-1 -4 -1 -18v-8q0 -28 -2 -32q-7 -7 -25 -7h-99q-23 0 -26 8q-1 4 -1 8v20q0 29 -5 34q-8 5 -27 5h-114q-39 0 -47 18q-3 9 -3 22q0 39 20 67q13 18 46 55 l150 160q45 38 94 38q28 0 31 -26v-14zM683 106h20q37 0 42 6q4 7 4 32q0 8 1 25v25q-2 32 -17 33q-14 -1 -29 -18l-41 -47q-26 -30 -27 -43q1 -13 47 -13zM112 383v72q0 30 -14 35q-8 3 -20 3q-39 0 -45 5q-5 6 -5 14q0 40 133 63q61 11 109 11q53 -1 54 -27q0 -14 -16 -20 q-23 -8 -29 -22q-5 -12 -5 -31v-64q0 -72 6 -102q6 -28 43 -31q32 -3 37 -9t5 -14q0 -24 -48 -34q-42 -8 -122 -8q-149 0 -178 34q-4 6 -4 11q0 17 21 23q5 1 9 1q5 0 17 -2q11 -2 16 -2q22 0 29 22t7 72zM625 404l-189 -323q-20 -34 -46 -82q-30 -56 -42 -63q-9 -5 -20 -5 q-51 0 -58 20q-1 3 -1 5q0 14 23 49q63 95 122 196l234 405q18 32 32 39q12 5 29 5q46 -1 47 -23q0 -19 -22 -51q-64 -96 -109 -172z" glyph-name="onequarter" horiz-adv-x="946" unicode="¼"/>
<glyph d="M112 383v72q0 30 -14 35q-8 3 -20 3q-39 0 -45 5q-5 6 -5 14q0 40 133 63q61 11 109 11q53 -1 54 -27q0 -14 -16 -20q-23 -8 -29 -22q-5 -12 -5 -31v-64q0 -72 6 -102q6 -28 43 -31q32 -3 37 -9t5 -14q0 -24 -48 -34q-42 -8 -122 -8q-149 0 -178 34q-4 6 -4 11 q0 17 21 23q5 1 9 1q5 0 17 -2q11 -2 16 -2q22 0 29 22t7 72zM794 0h-214q-37 1 -38 16q0 9 15 23q10 9 32 29q102 90 111 139q1 4 1 7q-5 31 -36 34q-21 0 -48 -21q-17 -13 -30 -13q-25 0 -38 21q-4 7 -4 13q0 39 73 74q67 31 129 31q117 0 148 -61q8 -16 8 -33 q0 -48 -68 -106q-38 -32 -41 -40q-1 -2 -1 -4q6 -18 29 -21q27 0 57 24q14 12 22 12q27 -5 30 -45q0 -63 -43 -96q-17 -12 -30 -12q-16 0 -22 12q-15 16 -42 17zM585 404l-189 -323q-20 -34 -46 -82q-30 -56 -42 -63q-9 -5 -20 -5q-51 0 -58 20q-1 3 -1 5q0 14 23 49 q63 95 122 196l234 405q18 32 32 39q12 5 29 5q46 -1 47 -23q0 -19 -22 -51q-64 -96 -109 -172z" glyph-name="onehalf" horiz-adv-x="946" unicode="½"/>
<glyph d="M897 337v-199q0 -20 6 -22q5 -2 13 -2q21 0 23 -7q2 -5 2 -17v-48q0 -21 -11 -25q-4 -1 -7 -1q-16 -2 -17 -9q-1 -4 -1 -18v-8q0 -28 -2 -32q-7 -7 -25 -7h-99q-23 0 -26 8q-1 4 -1 8v20q0 29 -5 34q-8 5 -27 5h-114q-39 0 -47 18q-3 9 -3 22q0 39 20 67q13 18 46 55 l150 160q45 38 94 38q28 0 31 -26v-14zM691 106h20q37 0 42 6q4 7 4 32q0 8 1 25v25q-2 32 -17 33q-14 -1 -29 -18l-41 -47q-26 -30 -27 -43q1 -13 47 -13zM181 586q89 0 133 -33q24 -20 25 -46q0 -33 -35 -60q-13 -12 -14 -16q0 -6 29 -14q59 -15 74 -53q7 -17 7 -39 q0 -71 -73 -115q-68 -41 -175 -41q-97 0 -134 26q-12 11 -13 23q0 24 25 31q6 2 11 2q8 0 25 -4q32 -7 56 -7q54 0 78 30q9 13 9 27q0 38 -46 48q-11 3 -23 3q-9 0 -47 -6q-15 0 -25 35q-2 8 -2 12q0 10 29 22q45 17 54 37q4 9 4 19q0 25 -30 36q-10 4 -20 4q-18 0 -54 -17 q-8 -4 -12 -4q-15 0 -22 25q-2 5 -2 9q0 26 65 48q51 18 103 18zM650 404l-189 -323q-20 -34 -46 -82q-30 -56 -42 -63q-9 -5 -20 -5q-51 0 -58 20q-1 3 -1 5q0 14 23 49q63 95 122 196l234 405q18 32 32 39q12 5 29 5q46 -1 47 -23q0 -19 -22 -51q-64 -96 -109 -172z" glyph-name="threequarters" horiz-adv-x="946" unicode="¾"/>
<glyph d="M311 -56q9 84 79 103q16 4 34 4q47 0 67 -39q8 -16 8 -34q0 -72 -64 -128q-70 -62 -178 -62q-91 0 -167 52q-79 56 -80 136q2 94 112 137q48 18 68 60q15 34 21 40q17 16 52 16q53 0 65 -46q2 -10 2 -20q0 -42 -39 -101q-38 -58 -44 -89q-3 -13 -3 -26q0 -39 24 -49 q6 -2 11 -2q13 0 20 8t9 16.5t3 22.5v1zM382 406q0 -58 -49 -92q-28 -19 -62 -19q-58 0 -92 49q-19 28 -19 62q0 58 49 92q28 19 62 19q58 0 92 -49q19 -28 19 -62z" glyph-name="questiondown" horiz-adv-x="506" unicode="¿"/>
<glyph d="M339 289h75q39 1 40 13q0 17 -37 81q-22 40 -34 48q-8 5 -14 5t-11.5 -5t-10 -11t-9 -15.5t-6.5 -16t-5 -14.5l-3 -9q-21 -59 -21 -62q3 -15 36 -14zM141 224l63 137q58 128 68 191q4 24 4 45q7 118 121 121q82 0 156 -115q11 -16 25 -40q33 -56 167 -337q26 -54 37 -80 q17 -39 54 -50q24 -7 29 -16q4 -8 4 -21q-9 -70 -192 -70q-150 0 -189 14q-39 15 -40 49q0 25 28 37q26 10 30 17q3 5 3 11q0 30 -25 39q-29 10 -161 10q-58 0 -72 -15q-11 -13 -11 -36q0 -18 24 -25q28 -9 35 -19q5 -9 5 -21q-1 -61 -148 -61q-137 0 -153 38q-3 9 -3 21 q0 26 29 38q37 15 44 21q6 5 10 10q19 24 58 107zM503 745q-110 0 -182 69q-31 30 -32 48q0 42 90 54q18 2 32 2q55 0 77 -17q6 -7 7 -13q0 -4 -6 -16q-2 -4 -2 -7q0 -12 29 -32q37 -25 40 -44q1 -4 1 -7q-1 -37 -54 -37z" glyph-name="Agrave" horiz-adv-x="869" unicode="À"/>
<glyph d="M339 289h75q39 1 40 13q0 17 -37 81q-22 40 -34 48q-8 5 -14 5t-11.5 -5t-10 -11t-9 -15.5t-6.5 -16t-5 -14.5l-3 -9q-21 -59 -21 -62q3 -15 36 -14zM141 224l63 137q58 128 68 191q4 24 4 45q7 118 121 121q82 0 156 -115q11 -16 25 -40q33 -56 167 -337q26 -54 37 -80 q17 -39 54 -50q24 -7 29 -16q4 -8 4 -21q-9 -70 -192 -70q-150 0 -189 14q-39 15 -40 49q0 25 28 37q26 10 30 17q3 5 3 11q0 30 -25 39q-29 10 -161 10q-58 0 -72 -15q-11 -13 -11 -36q0 -18 24 -25q28 -9 35 -19q5 -9 5 -21q-1 -61 -148 -61q-137 0 -153 38q-3 9 -3 21 q0 26 29 38q37 15 44 21q6 5 10 10q19 24 58 107zM355 745q-53 2 -54 37q0 23 37 48q30 21 32 31q1 2 1 4q0 4 -4 10q-4 8 -4 13q10 25 84 30q66 0 102 -24q19 -14 20 -32q0 -21 -39 -55q-73 -62 -175 -62z" glyph-name="Aacute" horiz-adv-x="869" unicode="Á"/>
<glyph d="M339 289h75q39 1 40 13q0 17 -37 81q-22 40 -34 48q-8 5 -14 5t-11.5 -5t-10 -11t-9 -15.5t-6.5 -16t-5 -14.5l-3 -9q-21 -59 -21 -62q3 -15 36 -14zM141 224l63 137q58 128 68 191q4 24 4 45q7 118 121 121q82 0 156 -115q11 -16 25 -40q33 -56 167 -337q26 -54 37 -80 q17 -39 54 -50q24 -7 29 -16q4 -8 4 -21q-9 -70 -192 -70q-150 0 -189 14q-39 15 -40 49q0 25 28 37q26 10 30 17q3 5 3 11q0 30 -25 39q-29 10 -161 10q-58 0 -72 -15q-11 -13 -11 -36q0 -18 24 -25q28 -9 35 -19q5 -9 5 -21q-1 -61 -148 -61q-137 0 -153 38q-3 9 -3 21 q0 26 29 38q37 15 44 21q6 5 10 10q19 24 58 107zM422 934q29 0 104 -52q87 -61 89 -96q0 -31 -26 -40q-7 -2 -13 -2q-19 0 -83 33q-49 24 -71 24t-89 -34q-46 -22 -65 -23q-30 0 -37 29q-2 7 -2 13q0 34 86 94q76 53 107 54z" glyph-name="Acircumflex" horiz-adv-x="869" unicode="Â"/>
<glyph d="M339 289h75q39 1 40 13q0 17 -37 81q-22 40 -34 48q-8 5 -14 5t-11.5 -5t-10 -11t-9 -15.5t-6.5 -16t-5 -14.5l-3 -9q-21 -59 -21 -62q3 -15 36 -14zM141 224l63 137q58 128 68 191q4 24 4 45q7 118 121 121q82 0 156 -115q11 -16 25 -40q33 -56 167 -337q26 -54 37 -80 q17 -39 54 -50q24 -7 29 -16q4 -8 4 -21q-9 -70 -192 -70q-150 0 -189 14q-39 15 -40 49q0 25 28 37q26 10 30 17q3 5 3 11q0 30 -25 39q-29 10 -161 10q-58 0 -72 -15q-11 -13 -11 -36q0 -18 24 -25q28 -9 35 -19q5 -9 5 -21q-1 -61 -148 -61q-137 0 -153 38q-3 9 -3 21 q0 26 29 38q37 15 44 21q6 5 10 10q19 24 58 107zM572 912q66 0 80 -29q5 -12 5 -26q0 -52 -47 -83q-29 -19 -62 -19q-45 0 -150 39q-49 18 -64 18q-11 -5 -12 -14q-7 -39 -48 -43q-68 0 -82 31q-4 11 -4 24q0 52 48 84q29 18 62 18q44 0 148 -38q50 -19 66 -19q11 5 12 14 q7 39 48 43z" glyph-name="Atilde" horiz-adv-x="869" unicode="Ã"/>
<glyph d="M339 289h75q39 1 40 13q0 17 -37 81q-22 40 -34 48q-8 5 -14 5t-11.5 -5t-10 -11t-9 -15.5t-6.5 -16t-5 -14.5l-3 -9q-21 -59 -21 -62q3 -15 36 -14zM141 224l63 137q58 128 68 191q4 24 4 45q7 118 121 121q82 0 156 -115q11 -16 25 -40q33 -56 167 -337q26 -54 37 -80 q17 -39 54 -50q24 -7 29 -16q4 -8 4 -21q-9 -70 -192 -70q-150 0 -189 14q-39 15 -40 49q0 25 28 37q26 10 30 17q3 5 3 11q0 30 -25 39q-29 10 -161 10q-58 0 -72 -15q-11 -13 -11 -36q0 -18 24 -25q28 -9 35 -19q5 -9 5 -21q-1 -61 -148 -61q-137 0 -153 38q-3 9 -3 21 q0 26 29 38q37 15 44 21q6 5 10 10q19 24 58 107zM413 840q0 -57 -101 -78q-34 -7 -65 -7q-60 0 -85 34q-10 14 -10 32q0 67 112 80q21 3 42 3q81 0 102 -41q5 -11 5 -23zM718 840q0 -57 -101 -78q-34 -7 -65 -7q-60 0 -85 34q-10 14 -10 32q0 67 112 80q21 3 42 3 q81 0 102 -41q5 -11 5 -23z" glyph-name="Adieresis" horiz-adv-x="869" unicode="Ä"/>
<glyph d="M339 289h75q39 1 40 13q0 17 -37 81q-22 40 -34 48q-8 5 -14 5t-11.5 -5t-10 -11t-9 -15.5t-6.5 -16t-5 -14.5l-3 -9q-21 -59 -21 -62q3 -15 36 -14zM141 224l63 137q58 128 68 191q4 24 4 45q7 118 121 121q82 0 156 -115q11 -16 25 -40q33 -56 167 -337q26 -54 37 -80 q17 -39 54 -50q24 -7 29 -16q4 -8 4 -21q-9 -70 -192 -70q-150 0 -189 14q-39 15 -40 49q0 25 28 37q26 10 30 17q3 5 3 11q0 30 -25 39q-29 10 -161 10q-58 0 -72 -15q-11 -13 -11 -36q0 -18 24 -25q28 -9 35 -19q5 -9 5 -21q-1 -61 -148 -61q-137 0 -153 38q-3 9 -3 21 q0 26 29 38q37 15 44 21q6 5 10 10q19 24 58 107zM575 848q0 -80 -99 -100q-26 -5 -54 -5q-136 0 -151 85q-2 10 -2 20q0 95 129 104q12 1 24 1q104 0 139 -55q14 -22 14 -50zM472 848q0 44 -33 55q-8 3 -17 3q-39 0 -48 -41q-2 -9 -2 -17q0 -44 33 -55q8 -3 17 -3 q39 0 48 41q2 9 2 17z" glyph-name="Aring" horiz-adv-x="869" unicode="Å"/>
<glyph d="M460 366v45q0 43 -6 53q-6 8 -15 9q-19 0 -41 -45q-2 -4 -3 -5l-37 -66q-21 -40 -21 -53q0 -31 60 -30h5h8q32 0 41 17q9 19 9 75zM359 151h-44q-51 0 -62 -13q-7 -8 -7 -18q0 -15 26 -29q28 -17 33 -33q2 -6 2 -12q-1 -57 -151 -57q-155 1 -156 63q0 28 31 40 q34 15 40 20t9 10q157 256 220 372q15 28 31 58q22 42 24 59q1 8 1 15q0 49 25 62q26 13 123 13h283q96 0 159 18q7 2 10 2q47 0 71 -78q10 -35 10 -64q0 -56 -35 -69q-8 -3 -17 -3q-30 0 -47 26q-20 31 -32 41q-39 29 -126 29q-68 0 -84 -15q-15 -15 -16 -59v-61 q0 -44 10 -52q11 -8 54 -8q35 0 44 38q1 6 3 19q6 41 23 50q9 4 20 4q58 0 62 -136v-16q0 -111 -36 -148q-14 -13 -31 -13q-25 0 -32 29q-1 5 -2 14q-7 41 -26 53q-16 9 -41 9q-38 0 -41 -46v-24q0 -99 15 -120q12 -18 60 -19h40q115 0 157 65q7 10 16 29q19 36 36 43 q9 4 20 4q33 0 45 -41q3 -12 3 -23q0 -61 -39 -134q-30 -55 -55 -56q-4 0 -44 6q-56 5 -84 5h-263q-16 0 -47 -1h-36q-48 -2 -63 -2q-54 0 -66 21q-5 10 -5 22q0 29 33 44q27 13 32 21q3 7 3 13q0 8 -3 14t-10 9.5t-12.5 5.5t-17 3t-15.5 1h-16h-12z" glyph-name="AE" horiz-adv-x="1087" unicode="Æ"/>
<glyph d="M24 353q0 142 110 248q102 97 240 112q21 2 40 2q65 0 151 -37q27 -12 36 -12q6 0 33 6q7 1 12 1q38 0 68 -52q28 -50 28 -122q0 -65 -46 -93q-22 -12 -47 -12q-41 0 -73 47l-15 24q-37 59 -69 80q-41 26 -98 26q-70 0 -98 -70q-11 -28 -11 -57q0 -136 75 -214 q59 -60 144 -60q84 0 141 47q26 22 36 22q30 0 40 -39q3 -11 3 -20q0 -42 -34 -92q-31 -43 -62 -44q-11 0 -66 -23q-81 -34 -153 -35l49 -47q28 -28 33 -36q7 -12 7 -24q0 -42 -69 -57q-20 -4 -37 -4q-72 0 -89 39q-3 7 -3 12q0 25 36 35q28 8 30 13q1 2 1 3q0 5 -6 16l-1 1 l-40 59q-139 31 -223 142q-73 97 -73 215z" glyph-name="Ccedilla" horiz-adv-x="756" unicode="Ç"/>
<glyph d="M139 701h288q96 0 159 18q7 2 10 2q47 0 71 -78q10 -35 10 -64q0 -56 -35 -69q-8 -3 -17 -3q-30 0 -47 26q-20 31 -32 41q-39 29 -126 29q-72 0 -88 -19q-13 -15 -12 -78v-38q0 -44 10 -52q11 -8 54 -8q35 0 44 38q1 6 3 19q6 41 23 50q9 4 20 4q58 0 62 -136v-16 q0 -111 -36 -148q-14 -13 -31 -13q-25 0 -32 29q-1 5 -2 14q-7 41 -26 53q-16 9 -41 9q-38 0 -41 -46v-24q0 -99 15 -120q12 -18 60 -19h40q115 0 157 65q7 10 16 29q19 36 36 43q9 4 20 4q33 0 45 -41q3 -12 3 -23q0 -61 -39 -134q-30 -55 -55 -56q-4 0 -44 6q-56 5 -84 5 h-411q-67 1 -67 43q0 23 22 33q28 14 37 26q13 21 16 58q11 166 9 222q-1 31 -6 123q-2 42 -11.5 66.5t-21 31t-23 9.5t-19.5 11t-8 27q0 51 86 52q8 0 23 -1h16zM443 745q-110 0 -182 69q-31 30 -32 48q0 42 90 54q18 2 32 2q55 0 77 -17q6 -7 7 -13q0 -4 -6 -16 q-2 -4 -2 -7q0 -12 29 -32q37 -25 40 -44q1 -4 1 -7q-1 -37 -54 -37z" glyph-name="Egrave" horiz-adv-x="726" unicode="È"/>
<glyph d="M139 701h288q96 0 159 18q7 2 10 2q47 0 71 -78q10 -35 10 -64q0 -56 -35 -69q-8 -3 -17 -3q-30 0 -47 26q-20 31 -32 41q-39 29 -126 29q-72 0 -88 -19q-13 -15 -12 -78v-38q0 -44 10 -52q11 -8 54 -8q35 0 44 38q1 6 3 19q6 41 23 50q9 4 20 4q58 0 62 -136v-16 q0 -111 -36 -148q-14 -13 -31 -13q-25 0 -32 29q-1 5 -2 14q-7 41 -26 53q-16 9 -41 9q-38 0 -41 -46v-24q0 -99 15 -120q12 -18 60 -19h40q115 0 157 65q7 10 16 29q19 36 36 43q9 4 20 4q33 0 45 -41q3 -12 3 -23q0 -61 -39 -134q-30 -55 -55 -56q-4 0 -44 6q-56 5 -84 5 h-411q-67 1 -67 43q0 23 22 33q28 14 37 26q13 21 16 58q11 166 9 222q-1 31 -6 123q-2 42 -11.5 66.5t-21 31t-23 9.5t-19.5 11t-8 27q0 51 86 52q8 0 23 -1h16zM283 745q-53 2 -54 37q0 23 37 48q30 21 32 31q1 2 1 4q0 4 -4 10q-4 8 -4 13q10 25 84 30q66 0 102 -24 q19 -14 20 -32q0 -21 -39 -55q-73 -62 -175 -62z" glyph-name="Eacute" horiz-adv-x="726" unicode="É"/>
<glyph d="M139 701h288q96 0 159 18q7 2 10 2q47 0 71 -78q10 -35 10 -64q0 -56 -35 -69q-8 -3 -17 -3q-30 0 -47 26q-20 31 -32 41q-39 29 -126 29q-72 0 -88 -19q-13 -15 -12 -78v-38q0 -44 10 -52q11 -8 54 -8q35 0 44 38q1 6 3 19q6 41 23 50q9 4 20 4q58 0 62 -136v-16 q0 -111 -36 -148q-14 -13 -31 -13q-25 0 -32 29q-1 5 -2 14q-7 41 -26 53q-16 9 -41 9q-38 0 -41 -46v-24q0 -99 15 -120q12 -18 60 -19h40q115 0 157 65q7 10 16 29q19 36 36 43q9 4 20 4q33 0 45 -41q3 -12 3 -23q0 -61 -39 -134q-30 -55 -55 -56q-4 0 -44 6q-56 5 -84 5 h-411q-67 1 -67 43q0 23 22 33q28 14 37 26q13 21 16 58q11 166 9 222q-1 31 -6 123q-2 42 -11.5 66.5t-21 31t-23 9.5t-19.5 11t-8 27q0 51 86 52q8 0 23 -1h16zM363 934q29 0 104 -52q87 -61 89 -96q0 -31 -26 -40q-7 -2 -13 -2q-19 0 -83 33q-49 24 -71 24t-89 -34 q-46 -22 -65 -23q-30 0 -37 29q-2 7 -2 13q0 34 86 94q76 53 107 54z" glyph-name="Ecircumflex" horiz-adv-x="726" unicode="Ê"/>
<glyph d="M139 701h288q96 0 159 18q7 2 10 2q47 0 71 -78q10 -35 10 -64q0 -56 -35 -69q-8 -3 -17 -3q-30 0 -47 26q-20 31 -32 41q-39 29 -126 29q-72 0 -88 -19q-13 -15 -12 -78v-38q0 -44 10 -52q11 -8 54 -8q35 0 44 38q1 6 3 19q6 41 23 50q9 4 20 4q58 0 62 -136v-16 q0 -111 -36 -148q-14 -13 -31 -13q-25 0 -32 29q-1 5 -2 14q-7 41 -26 53q-16 9 -41 9q-38 0 -41 -46v-24q0 -99 15 -120q12 -18 60 -19h40q115 0 157 65q7 10 16 29q19 36 36 43q9 4 20 4q33 0 45 -41q3 -12 3 -23q0 -61 -39 -134q-30 -55 -55 -56q-4 0 -44 6q-56 5 -84 5 h-411q-67 1 -67 43q0 23 22 33q28 14 37 26q13 21 16 58q11 166 9 222q-1 31 -6 123q-2 42 -11.5 66.5t-21 31t-23 9.5t-19.5 11t-8 27q0 51 86 52q8 0 23 -1h16zM341 840q0 -57 -101 -78q-34 -7 -65 -7q-60 0 -85 34q-10 14 -10 32q0 67 112 80q21 3 42 3q81 0 102 -41 q5 -11 5 -23zM646 840q0 -57 -101 -78q-34 -7 -65 -7q-60 0 -85 34q-10 14 -10 32q0 67 112 80q21 3 42 3q81 0 102 -41q5 -11 5 -23z" glyph-name="Edieresis" horiz-adv-x="726" unicode="Ë"/>
<glyph d="M97 301v99q0 143 -21 170q-7 9 -37 30q-24 18 -25 40q0 61 176 71q24 1 48 1q182 -1 183 -70q0 -22 -26 -36q-27 -15 -35 -24q-20 -24 -20 -182v-99q0 -155 17 -176q5 -4 15 -10q5 -3 14 -8q28 -15 33 -29q2 -7 2 -14q0 -36 -41 -53q-56 -22 -187 -22q-166 1 -168 65 q0 21 27 38q18 12 23 18q22 28 22 191zM298 745q-110 0 -182 69q-31 30 -32 48q0 42 90 54q18 2 32 2q55 0 77 -17q6 -7 7 -13q0 -4 -6 -16q-2 -4 -2 -7q0 -12 29 -32q37 -25 40 -44q1 -4 1 -7q-1 -37 -54 -37z" glyph-name="Igrave" horiz-adv-x="435" unicode="Ì"/>
<glyph d="M97 301v99q0 143 -21 170q-7 9 -37 30q-24 18 -25 40q0 61 176 71q24 1 48 1q182 -1 183 -70q0 -22 -26 -36q-27 -15 -35 -24q-20 -24 -20 -182v-99q0 -155 17 -176q5 -4 15 -10q5 -3 14 -8q28 -15 33 -29q2 -7 2 -14q0 -36 -41 -53q-56 -22 -187 -22q-166 1 -168 65 q0 21 27 38q18 12 23 18q22 28 22 191zM138 745q-53 2 -54 37q0 23 37 48q30 21 32 31q1 2 1 4q0 4 -4 10q-4 8 -4 13q10 25 84 30q66 0 102 -24q19 -14 20 -32q0 -21 -39 -55q-73 -62 -175 -62z" glyph-name="Iacute" horiz-adv-x="435" unicode="Í"/>
<glyph d="M97 301v99q0 143 -21 170q-7 9 -37 30q-24 18 -25 40q0 61 176 71q24 1 48 1q182 -1 183 -70q0 -22 -26 -36q-27 -15 -35 -24q-20 -24 -20 -182v-99q0 -155 17 -176q5 -4 15 -10q5 -3 14 -8q28 -15 33 -29q2 -7 2 -14q0 -36 -41 -53q-56 -22 -187 -22q-166 1 -168 65 q0 21 27 38q18 12 23 18q22 28 22 191zM217 934q29 0 104 -52q87 -61 89 -96q0 -31 -26 -40q-7 -2 -13 -2q-19 0 -83 33q-49 24 -71 24t-89 -34q-46 -22 -65 -23q-30 0 -37 29q-2 7 -2 13q0 34 86 94q76 53 107 54z" glyph-name="Icircumflex" horiz-adv-x="435" unicode="Î"/>
<glyph d="M97 301v99q0 143 -21 170q-7 9 -37 30q-24 18 -25 40q0 61 176 71q24 1 48 1q182 -1 183 -70q0 -22 -26 -36q-27 -15 -35 -24q-20 -24 -20 -182v-99q0 -155 17 -176q5 -4 15 -10q5 -3 14 -8q28 -15 33 -29q2 -7 2 -14q0 -36 -41 -53q-56 -22 -187 -22q-166 1 -168 65 q0 21 27 38q18 12 23 18q22 28 22 191zM196 840q0 -57 -101 -78q-34 -7 -65 -7q-60 0 -85 34q-10 14 -10 32q0 67 112 80q21 3 42 3q81 0 102 -41q5 -11 5 -23zM501 840q0 -57 -101 -78q-34 -7 -65 -7q-60 0 -85 34q-10 14 -10 32q0 67 112 80q21 3 42 3q81 0 102 -41 q5 -11 5 -23z" glyph-name="Idieresis" horiz-adv-x="435" unicode="Ï"/>
<glyph d="M344 544v-82q1 -31 14 -32h60q19 0 22 -18q1 -9 1 -28q0 -39 -12 -45q-5 -2 -10 -2h-61q-13 -1 -14 -25v-12v-129q0 -52 21 -64q14 -8 41 -8q148 1 148 229q0 253 -141 270q-12 1 -24 1q-37 0 -43 -24q-2 -11 -2 -31zM124 708h326q253 0 335 -181q34 -75 34 -171 q0 -165 -99 -264q-98 -97 -263 -97q-64 0 -110 3q-62 2 -86 2q-30 0 -85 -2q-43 -3 -85 -3q-49 0 -69 30q-8 13 -8 27q0 27 23 36q28 11 35 19q24 25 24 93v106q-1 29 -16 30h-64q-15 0 -17 21q-1 8 -1 29q0 36 8 41q5 3 12 4h64q20 1 22 21v105q0 36 -30 50q-28 13 -32 17 q-11 12 -11 31q1 53 93 53z" glyph-name="Eth" horiz-adv-x="843" unicode="Ð"/>
<glyph d="M312 668l237 -208q47 -38 62 -39q26 1 26 58q0 65 -9 91q-6 19 -34 33q-25 14 -31 30q-2 9 -2 18q0 61 131 61h8h5q90 0 121 -16q31 -17 32 -48q0 -30 -26 -44q-29 -15 -36 -23q-5 -7 -8 -15q-13 -37 -13 -136v-259q0 -105 -14 -142q-17 -39 -47 -40q-24 1 -52 25 l-309 277q-40 36 -61 37q-32 -1 -32 -86q0 -61 7 -91q8 -33 38 -49q23 -13 28 -24q2 -8 2 -16q-4 -72 -150 -73q-142 6 -149 71q0 25 24 40q28 17 35 30q7 11 9 26q9 56 9 151q0 145 -11 217q-9 53 -48 74q-27 15 -32 20q-8 11 -8 27q8 68 180 67q56 0 79 -14q15 -8 39 -30z M586 912q66 0 80 -29q5 -12 5 -26q0 -52 -47 -83q-29 -19 -62 -19q-45 0 -150 39q-49 18 -64 18q-11 -5 -12 -14q-7 -39 -48 -43q-68 0 -82 31q-4 11 -4 24q0 52 48 84q29 18 62 18q44 0 148 -38q50 -19 66 -19q11 5 12 14q7 39 48 43z" glyph-name="Ntilde" horiz-adv-x="873" unicode="Ñ"/>
<glyph d="M399 -14q-159 0 -266 103q-109 106 -109 264t112 261q111 101 275 101q194 0 304 -150q70 -95 77 -204q1 -10 1 -18q0 -155 -118 -257q-109 -94 -260 -100h-16zM536 242q0 86 -38 186q-54 136 -133 138q-53 0 -75 -58q-9 -24 -9 -49q0 -77 37 -178q59 -139 131 -146 q62 0 81 64q6 21 6 43zM489 745q-110 0 -182 69q-31 30 -32 48q0 42 90 54q18 2 32 2q55 0 77 -17q6 -7 7 -13q0 -4 -6 -16q-2 -4 -2 -7q0 -12 29 -32q37 -25 40 -44q1 -4 1 -7q-1 -37 -54 -37z" glyph-name="Ograve" horiz-adv-x="818" unicode="Ò"/>
<glyph d="M399 -14q-159 0 -266 103q-109 106 -109 264t112 261q111 101 275 101q194 0 304 -150q70 -95 77 -204q1 -10 1 -18q0 -155 -118 -257q-109 -94 -260 -100h-16zM536 242q0 86 -38 186q-54 136 -133 138q-53 0 -75 -58q-9 -24 -9 -49q0 -77 37 -178q59 -139 131 -146 q62 0 81 64q6 21 6 43zM329 745q-53 2 -54 37q0 23 37 48q30 21 32 31q1 2 1 4q0 4 -4 10q-4 8 -4 13q10 25 84 30q66 0 102 -24q19 -14 20 -32q0 -21 -39 -55q-73 -62 -175 -62z" glyph-name="Oacute" horiz-adv-x="818" unicode="Ó"/>
<glyph d="M399 -14q-159 0 -266 103q-109 106 -109 264t112 261q111 101 275 101q194 0 304 -150q70 -95 77 -204q1 -10 1 -18q0 -155 -118 -257q-109 -94 -260 -100h-16zM536 242q0 86 -38 186q-54 136 -133 138q-53 0 -75 -58q-9 -24 -9 -49q0 -77 37 -178q59 -139 131 -146 q62 0 81 64q6 21 6 43zM409 934q29 0 104 -52q87 -61 89 -96q0 -31 -26 -40q-7 -2 -13 -2q-19 0 -83 33q-49 24 -71 24t-89 -34q-46 -22 -65 -23q-30 0 -37 29q-2 7 -2 13q0 34 86 94q76 53 107 54z" glyph-name="Ocircumflex" horiz-adv-x="818" unicode="Ô"/>
<glyph d="M399 -14q-159 0 -266 103q-109 106 -109 264t112 261q111 101 275 101q194 0 304 -150q70 -95 77 -204q1 -10 1 -18q0 -155 -118 -257q-109 -94 -260 -100h-16zM536 242q0 86 -38 186q-54 136 -133 138q-53 0 -75 -58q-9 -24 -9 -49q0 -77 37 -178q59 -139 131 -146 q62 0 81 64q6 21 6 43zM559 912q66 0 80 -29q5 -12 5 -26q0 -52 -47 -83q-29 -19 -62 -19q-45 0 -150 39q-49 18 -64 18q-11 -5 -12 -14q-7 -39 -48 -43q-68 0 -82 31q-4 11 -4 24q0 52 48 84q29 18 62 18q44 0 148 -38q50 -19 66 -19q11 5 12 14q7 39 48 43z" glyph-name="Otilde" horiz-adv-x="818" unicode="Õ"/>
<glyph d="M399 -14q-159 0 -266 103q-109 106 -109 264t112 261q111 101 275 101q194 0 304 -150q70 -95 77 -204q1 -10 1 -18q0 -155 -118 -257q-109 -94 -260 -100h-16zM536 242q0 86 -38 186q-54 136 -133 138q-53 0 -75 -58q-9 -24 -9 -49q0 -77 37 -178q59 -139 131 -146 q62 0 81 64q6 21 6 43zM387 840q0 -57 -101 -78q-34 -7 -65 -7q-60 0 -85 34q-10 14 -10 32q0 67 112 80q21 3 42 3q81 0 102 -41q5 -11 5 -23zM692 840q0 -57 -101 -78q-34 -7 -65 -7q-60 0 -85 34q-10 14 -10 32q0 67 112 80q21 3 42 3q81 0 102 -41q5 -11 5 -23z" glyph-name="Odieresis" horiz-adv-x="818" unicode="Ö"/>
<glyph d="M351 374l78 78q29 29 38 31q2 1 4 1q24 0 54 -36q17 -22 18 -36q-1 -11 -27 -37l-5 -5l-78 -78q-28 -30 -29 -36q2 -9 29 -36l78 -78q28 -28 31 -37q1 -3 1 -5q0 -22 -33 -52q-23 -19 -39 -20q-10 0 -37 27l-5 5l-78 78q-30 28 -36 29q-7 0 -33 -26l-3 -3l-78 -78 q-29 -29 -38 -31q-2 -1 -4 -1q-24 0 -54 36q-17 22 -18 36q1 11 27 37l5 5l78 78q28 29 29 36q0 7 -23 30l-6 6l-78 78q-28 28 -31 37q-1 3 -1 5q0 22 33 52q23 19 39 20q10 0 37 -27l5 -5l78 -78q29 -28 36 -29q7 0 30 23z" glyph-name="multiply" unicode="×"/>
<glyph d="M508 396l-176 -152q43 -92 95 -106q11 -3 22 -3q62 0 81 64q6 21 6 43q0 57 -28 154zM763 617l-53 -46q75 -98 82 -209q1 -10 1 -19q0 -155 -118 -257q-109 -94 -260 -100h-16q-112 0 -204 55q-32 19 -54 41l-50 -44q-20 -15 -26 -16q-10 1 -22 13q-13 16 -13 23 q1 13 21 28l49 42q-77 93 -76 225q0 158 112 261q111 101 275 101q151 -1 256 -96l56 50q15 12 24 12q11 -1 23 -17t13 -22q0 -4 -3 -8.5t-10 -10.5zM306 308l176 153q-29 70 -79 95q-19 10 -38 10q-53 0 -75 -58q-9 -24 -9 -49q-1 -58 25 -151z" glyph-name="Oslash" horiz-adv-x="818" unicode="Ø"/>
<glyph d="M629 279v249q0 59 -41 79l-12 6q-27 12 -31 26q-2 6 -2 13q3 60 157 60q147 -1 148 -58q0 -24 -25 -37q-30 -15 -38 -27q-12 -19 -12 -49v-270q0 -180 -149 -249q-80 -36 -196 -36q-261 0 -330 171q-25 60 -20 145v231q2 34 -30 60q-26 22 -31 34q-3 7 -3 15q0 27 21 41 q46 29 174 29q176 0 194 -52q2 -8 2 -17q0 -30 -23 -39q-27 -11 -33 -17q-20 -21 -22 -71v-184q0 -185 137 -195h14q43 0 74 13.5t45.5 30t22.5 40.5t8.5 34.5t0.5 22.5v1zM511 745q-110 0 -182 69q-31 30 -32 48q0 42 90 54q18 2 32 2q55 0 77 -17q6 -7 7 -13q0 -4 -6 -16 q-2 -4 -2 -7q0 -12 29 -32q37 -25 40 -44q1 -4 1 -7q-1 -37 -54 -37z" glyph-name="Ugrave" horiz-adv-x="862" unicode="Ù"/>
<glyph d="M629 279v249q0 59 -41 79l-12 6q-27 12 -31 26q-2 6 -2 13q3 60 157 60q147 -1 148 -58q0 -24 -25 -37q-30 -15 -38 -27q-12 -19 -12 -49v-270q0 -180 -149 -249q-80 -36 -196 -36q-261 0 -330 171q-25 60 -20 145v231q2 34 -30 60q-26 22 -31 34q-3 7 -3 15q0 27 21 41 q46 29 174 29q176 0 194 -52q2 -8 2 -17q0 -30 -23 -39q-27 -11 -33 -17q-20 -21 -22 -71v-184q0 -185 137 -195h14q43 0 74 13.5t45.5 30t22.5 40.5t8.5 34.5t0.5 22.5v1zM351 745q-53 2 -54 37q0 23 37 48q30 21 32 31q1 2 1 4q0 4 -4 10q-4 8 -4 13q10 25 84 30 q66 0 102 -24q19 -14 20 -32q0 -21 -39 -55q-73 -62 -175 -62z" glyph-name="Uacute" horiz-adv-x="862" unicode="Ú"/>
<glyph d="M629 279v249q0 59 -41 79l-12 6q-27 12 -31 26q-2 6 -2 13q3 60 157 60q147 -1 148 -58q0 -24 -25 -37q-30 -15 -38 -27q-12 -19 -12 -49v-270q0 -180 -149 -249q-80 -36 -196 -36q-261 0 -330 171q-25 60 -20 145v231q2 34 -30 60q-26 22 -31 34q-3 7 -3 15q0 27 21 41 q46 29 174 29q176 0 194 -52q2 -8 2 -17q0 -30 -23 -39q-27 -11 -33 -17q-20 -21 -22 -71v-184q0 -185 137 -195h14q43 0 74 13.5t45.5 30t22.5 40.5t8.5 34.5t0.5 22.5v1zM431 934q29 0 104 -52q87 -61 89 -96q0 -31 -26 -40q-7 -2 -13 -2q-19 0 -83 33q-49 24 -71 24 t-89 -34q-46 -22 -65 -23q-30 0 -37 29q-2 7 -2 13q0 34 86 94q76 53 107 54z" glyph-name="Ucircumflex" horiz-adv-x="862" unicode="Û"/>
<glyph d="M629 279v249q0 59 -41 79l-12 6q-27 12 -31 26q-2 6 -2 13q3 60 157 60q147 -1 148 -58q0 -24 -25 -37q-30 -15 -38 -27q-12 -19 -12 -49v-270q0 -180 -149 -249q-80 -36 -196 -36q-261 0 -330 171q-25 60 -20 145v231q2 34 -30 60q-26 22 -31 34q-3 7 -3 15q0 27 21 41 q46 29 174 29q176 0 194 -52q2 -8 2 -17q0 -30 -23 -39q-27 -11 -33 -17q-20 -21 -22 -71v-184q0 -185 137 -195h14q43 0 74 13.5t45.5 30t22.5 40.5t8.5 34.5t0.5 22.5v1zM409 840q0 -57 -101 -78q-34 -7 -65 -7q-60 0 -85 34q-10 14 -10 32q0 67 112 80q21 3 42 3 q81 0 102 -41q5 -11 5 -23zM714 840q0 -57 -101 -78q-34 -7 -65 -7q-60 0 -85 34q-10 14 -10 32q0 67 112 80q21 3 42 3q81 0 102 -41q5 -11 5 -23z" glyph-name="Udieresis" horiz-adv-x="862" unicode="Ü"/>
<glyph d="M697 572l-123 -135q-40 -50 -45 -102q-2 -19 -2 -53q0 -121 14 -151q6 -12 34 -26q29 -14 32 -36q1 -4 1 -8q-1 -72 -207 -72q-221 0 -222 72q0 29 29 42q31 13 38 20q5 7 8 13q16 38 16 166q0 56 -21 90q-9 13 -23 31l-113 131q-23 26 -73 47q-33 14 -39 29q-2 7 -2 14 q0 26 18 38q46 30 208 30q59 0 100.5 -4.5t61.5 -10t30.5 -15.5t12 -15.5t1.5 -14.5v-1q0 -13 -18 -35q-10 -13 -10 -22q0 -22 29 -59q21 -25 36 -26q23 0 52 40q15 22 16 36q0 12 -16 32q-13 17 -13 36q1 59 154 59q125 0 148 -28q10 -12 10 -31q0 -32 -31 -41 q-5 -2 -19 -5q-50 -11 -72 -35zM330 745q-53 2 -54 37q0 23 37 48q30 21 32 31q1 2 1 4q0 4 -4 10q-4 8 -4 13q10 25 84 30q66 0 102 -24q19 -14 20 -32q0 -21 -39 -55q-73 -62 -175 -62z" glyph-name="Yacute" horiz-adv-x="819" unicode="Ý"/>
<glyph d="M107 156v383q0 47 -34 64q-27 14 -31 18q-8 11 -8 25q1 66 190 66q187 -1 189 -67q0 -21 -30 -38q-33 -19 -41 -31q-6 -12 -6 -25q2 -20 28 -21q8 0 29 2q32 2 49 2q150 0 221 -67q44 -42 44 -102q0 -101 -112 -148q-66 -28 -153 -28q-15 0 -45 2t-45 2q-16 -3 -16 -33 q0 -41 36 -60q29 -16 33 -21q8 -10 8 -22q0 -64 -170 -68h-19q-188 1 -190 66q0 24 25 36q29 14 36 23q12 16 12 42zM491 360q0 53 -42 77q-20 11 -45 11q-58 0 -65 -25q-1 -5 -1 -11v-106q2 -31 62 -31t83 50q8 18 8 35z" glyph-name="Thorn" horiz-adv-x="719" unicode="Þ"/>
<glyph d="M73 164v227q0 191 147 263q71 34 162 34q122 0 157 -84q10 -23 10 -44q0 -31 -22 -64q-9 -13 -9 -20q0 -20 46 -87q71 -104 89 -167q11 -38 11 -73q0 -95 -76 -137q-41 -23 -93 -23q-67 0 -106 47q-19 22 -19 42q0 10 20 19q30 15 37 35q3 10 3 22q0 39 -49 116 q-48 75 -54 106q-2 10 -2 18q0 58 53 102q34 29 39 35q6 10 6 18q-3 34 -44 36q-50 0 -77 -64q-22 -56 -20 -151q2 -98 7 -178q4 -75 35 -99q16 -12 18 -20q2 -6 2 -12q0 -66 -164 -72h-25q-144 1 -145 63q0 19 24 38q30 23 36 48q3 12 3 26z" glyph-name="germandbls" horiz-adv-x="678" unicode="ß"/>
<glyph d="M279 215q-36 0 -51 -36q-6 -14 -6 -28q0 -39 27 -51q8 -3 16 -3q41 1 41 71q0 37 -13 44q-6 3 -14 3zM522 339v-100q0 -41 4.5 -67t11 -34t14.5 -11.5t14.5 -2t11 -3t4.5 -16.5q0 -46 -55 -86q-46 -33 -96 -33t-82 34q-16 16 -24 17q-7 0 -35 -18q-7 -4 -12 -7 q-45 -26 -98 -26q-91 0 -137 57q-29 36 -29 86q0 68 66 114q67 45 178 45q33 0 39 7q6 9 6 27q-1 101 -47 102q-26 0 -55 -38q-31 -42 -47 -54q-24 -16 -53 -16q-38 0 -52 33q-4 11 -4 22q0 61 103 105q82 35 161 35q92 0 152 -45q60 -46 61 -127zM378 561q-110 0 -182 69 q-31 30 -32 48q0 42 90 54q18 2 32 2q55 0 77 -17q6 -7 7 -13q0 -4 -6 -16q-2 -4 -2 -7q0 -12 29 -32q37 -25 40 -44q1 -4 1 -7q-1 -37 -54 -37z" glyph-name="agrave" horiz-adv-x="596" unicode="à"/>
<glyph d="M279 215q-36 0 -51 -36q-6 -14 -6 -28q0 -39 27 -51q8 -3 16 -3q41 1 41 71q0 37 -13 44q-6 3 -14 3zM522 339v-100q0 -41 4.5 -67t11 -34t14.5 -11.5t14.5 -2t11 -3t4.5 -16.5q0 -46 -55 -86q-46 -33 -96 -33t-82 34q-16 16 -24 17q-7 0 -35 -18q-7 -4 -12 -7 q-45 -26 -98 -26q-91 0 -137 57q-29 36 -29 86q0 68 66 114q67 45 178 45q33 0 39 7q6 9 6 27q-1 101 -47 102q-26 0 -55 -38q-31 -42 -47 -54q-24 -16 -53 -16q-38 0 -52 33q-4 11 -4 22q0 61 103 105q82 35 161 35q92 0 152 -45q60 -46 61 -127zM218 561q-53 2 -54 37 q0 23 37 48q30 21 32 31q1 2 1 4q0 4 -4 10q-4 8 -4 13q10 25 84 30q66 0 102 -24q19 -14 20 -32q0 -21 -39 -55q-73 -62 -175 -62z" glyph-name="aacute" horiz-adv-x="596" unicode="á"/>
<glyph d="M279 215q-36 0 -51 -36q-6 -14 -6 -28q0 -39 27 -51q8 -3 16 -3q41 1 41 71q0 37 -13 44q-6 3 -14 3zM522 339v-100q0 -41 4.5 -67t11 -34t14.5 -11.5t14.5 -2t11 -3t4.5 -16.5q0 -46 -55 -86q-46 -33 -96 -33t-82 34q-16 16 -24 17q-7 0 -35 -18q-7 -4 -12 -7 q-45 -26 -98 -26q-91 0 -137 57q-29 36 -29 86q0 68 66 114q67 45 178 45q33 0 39 7q6 9 6 27q-1 101 -47 102q-26 0 -55 -38q-31 -42 -47 -54q-24 -16 -53 -16q-38 0 -52 33q-4 11 -4 22q0 61 103 105q82 35 161 35q92 0 152 -45q60 -46 61 -127zM298 750q29 0 104 -52 q87 -61 89 -96q0 -31 -26 -40q-7 -2 -13 -2q-19 0 -83 33q-49 24 -71 24t-89 -34q-46 -22 -65 -23q-30 0 -37 29q-2 7 -2 13q0 34 86 94q76 53 107 54z" glyph-name="acircumflex" horiz-adv-x="596" unicode="â"/>
<glyph d="M279 215q-36 0 -51 -36q-6 -14 -6 -28q0 -39 27 -51q8 -3 16 -3q41 1 41 71q0 37 -13 44q-6 3 -14 3zM522 339v-100q0 -41 4.5 -67t11 -34t14.5 -11.5t14.5 -2t11 -3t4.5 -16.5q0 -46 -55 -86q-46 -33 -96 -33t-82 34q-16 16 -24 17q-7 0 -35 -18q-7 -4 -12 -7 q-45 -26 -98 -26q-91 0 -137 57q-29 36 -29 86q0 68 66 114q67 45 178 45q33 0 39 7q6 9 6 27q-1 101 -47 102q-26 0 -55 -38q-31 -42 -47 -54q-24 -16 -53 -16q-38 0 -52 33q-4 11 -4 22q0 61 103 105q82 35 161 35q92 0 152 -45q60 -46 61 -127zM448 728q66 0 80 -29 q5 -12 5 -26q0 -52 -47 -83q-29 -19 -62 -19q-45 0 -150 39q-49 18 -64 18q-11 -5 -12 -14q-7 -39 -48 -43q-68 0 -82 31q-4 11 -4 24q0 52 48 84q29 18 62 18q44 0 148 -38q50 -19 66 -19q11 5 12 14q7 39 48 43z" glyph-name="atilde" horiz-adv-x="596" unicode="ã"/>
<glyph d="M279 215q-36 0 -51 -36q-6 -14 -6 -28q0 -39 27 -51q8 -3 16 -3q41 1 41 71q0 37 -13 44q-6 3 -14 3zM522 339v-100q0 -41 4.5 -67t11 -34t14.5 -11.5t14.5 -2t11 -3t4.5 -16.5q0 -46 -55 -86q-46 -33 -96 -33t-82 34q-16 16 -24 17q-7 0 -35 -18q-7 -4 -12 -7 q-45 -26 -98 -26q-91 0 -137 57q-29 36 -29 86q0 68 66 114q67 45 178 45q33 0 39 7q6 9 6 27q-1 101 -47 102q-26 0 -55 -38q-31 -42 -47 -54q-24 -16 -53 -16q-38 0 -52 33q-4 11 -4 22q0 61 103 105q82 35 161 35q92 0 152 -45q60 -46 61 -127zM276 656q0 -57 -101 -78 q-34 -7 -65 -7q-60 0 -85 34q-10 14 -10 32q0 67 112 80q21 3 42 3q81 0 102 -41q5 -11 5 -23zM581 656q0 -57 -101 -78q-34 -7 -65 -7q-60 0 -85 34q-10 14 -10 32q0 67 112 80q21 3 42 3q81 0 102 -41q5 -11 5 -23z" glyph-name="adieresis" horiz-adv-x="596" unicode="ä"/>
<glyph d="M279 215q-36 0 -51 -36q-6 -14 -6 -28q0 -39 27 -51q8 -3 16 -3q41 1 41 71q0 37 -13 44q-6 3 -14 3zM522 339v-100q0 -41 4.5 -67t11 -34t14.5 -11.5t14.5 -2t11 -3t4.5 -16.5q0 -46 -55 -86q-46 -33 -96 -33t-82 34q-16 16 -24 17q-7 0 -35 -18q-7 -4 -12 -7 q-45 -26 -98 -26q-91 0 -137 57q-29 36 -29 86q0 68 66 114q67 45 178 45q33 0 39 7q6 9 6 27q-1 101 -47 102q-26 0 -55 -38q-31 -42 -47 -54q-24 -16 -53 -16q-38 0 -52 33q-4 11 -4 22q0 61 103 105q82 35 161 35q92 0 152 -45q60 -46 61 -127zM439 664q0 -80 -99 -100 q-26 -5 -54 -5q-136 0 -151 85q-2 10 -2 20q0 95 129 104q12 1 24 1q104 0 139 -55q14 -22 14 -50zM336 664q0 44 -33 55q-8 3 -17 3q-39 0 -48 -41q-2 -9 -2 -17q0 -44 33 -55q8 -3 17 -3q39 0 48 41q2 9 2 17z" glyph-name="aring" horiz-adv-x="596" unicode="å"/>
<glyph d="M575 326q39 0 47 4q12 8 12 26q0 46 -37 60q-11 4 -22 4q-33 0 -52 -35q-8 -16 -8 -31q0 -29 35 -29q4 0 12.5 0.5t12.5 0.5zM279 215q-36 0 -51 -36q-6 -14 -6 -28q0 -39 27 -51q8 -3 16 -3q41 1 41 71q0 37 -13 44q-6 3 -14 3zM764 230h-217q-21 0 -25 -5q-2 -5 -2 -9 q0 -43 52 -74q31 -18 60 -18q49 0 106 33q20 12 27 12q21 0 34 -29q5 -12 5 -21q0 -56 -88 -99q-73 -34 -143 -34q-90 0 -171 56q-7 5 -9 5l-10 -4q-134 -57 -203 -57q-91 0 -137 57q-29 36 -29 86q0 68 66 114q67 45 178 45q33 0 39 7q6 9 6 27q-1 101 -47 102 q-26 0 -55 -38q-31 -42 -47 -54q-24 -16 -53 -16q-38 0 -52 33q-4 11 -4 22q0 61 103 105q82 35 161 35q20 0 40.5 -3t35.5 -6.5t27 -7.5t19 -7l7 -3q1 0 10 3q70 24 133 24q132 0 204 -96q41 -55 41 -110q0 -68 -47 -74q-7 -1 -15 -1z" glyph-name="ae" horiz-adv-x="840" unicode="æ"/>
<glyph d="M17 250q0 113 88 189q85 72 205 72q130 0 195 -73q34 -38 34 -80q0 -58 -48 -86q-23 -13 -50 -13q-54 0 -74 47q-3 7 -8 22q-14 41 -31 50q-11 5 -24 5q-43 0 -61 -48q-7 -19 -7 -37q0 -70 50 -116q37 -33 84 -33q39 0 85 20q13 6 20 6q28 0 41 -33q4 -11 4 -21 q0 -48 -60 -88q-67 -44 -161 -46l49 -48q28 -28 33 -36q7 -12 7 -24q0 -42 -69 -57q-20 -4 -37 -4q-72 0 -89 39q-3 7 -3 12q0 25 36 35q28 8 30 13q1 2 1 3q0 5 -6 16l-1 1l-42 62q-108 30 -159 124q-32 59 -32 127z" glyph-name="ccedilla" horiz-adv-x="553" unicode="ç"/>
<glyph d="M481 230h-217q-21 0 -25 -5q-2 -5 -2 -9q0 -43 52 -74q31 -18 60 -18q49 0 106 33q20 12 27 12q21 0 34 -29q5 -12 5 -21q0 -56 -88 -99q-73 -34 -143 -34q-146 0 -222 103q-51 69 -51 156q0 119 92 197q81 69 189 69q132 0 204 -96q41 -55 41 -110q0 -68 -47 -74 q-7 -1 -15 -1zM292 326q39 0 47 4q12 8 12 26q0 46 -37 60q-11 4 -22 4q-33 0 -52 -35q-8 -16 -8 -31q0 -29 35 -29q4 0 12.5 0.5t12.5 0.5zM359 561q-110 0 -182 69q-31 30 -32 48q0 42 90 54q18 2 32 2q55 0 77 -17q6 -7 7 -13q0 -4 -6 -16q-2 -4 -2 -7q0 -12 29 -32 q37 -25 40 -44q1 -4 1 -7q-1 -37 -54 -37z" glyph-name="egrave" horiz-adv-x="557" unicode="è"/>
<glyph d="M481 230h-217q-21 0 -25 -5q-2 -5 -2 -9q0 -43 52 -74q31 -18 60 -18q49 0 106 33q20 12 27 12q21 0 34 -29q5 -12 5 -21q0 -56 -88 -99q-73 -34 -143 -34q-146 0 -222 103q-51 69 -51 156q0 119 92 197q81 69 189 69q132 0 204 -96q41 -55 41 -110q0 -68 -47 -74 q-7 -1 -15 -1zM292 326q39 0 47 4q12 8 12 26q0 46 -37 60q-11 4 -22 4q-33 0 -52 -35q-8 -16 -8 -31q0 -29 35 -29q4 0 12.5 0.5t12.5 0.5zM199 561q-53 2 -54 37q0 23 37 48q30 21 32 31q1 2 1 4q0 4 -4 10q-4 8 -4 13q10 25 84 30q66 0 102 -24q19 -14 20 -32 q0 -21 -39 -55q-73 -62 -175 -62z" glyph-name="eacute" horiz-adv-x="557" unicode="é"/>
<glyph d="M481 230h-217q-21 0 -25 -5q-2 -5 -2 -9q0 -43 52 -74q31 -18 60 -18q49 0 106 33q20 12 27 12q21 0 34 -29q5 -12 5 -21q0 -56 -88 -99q-73 -34 -143 -34q-146 0 -222 103q-51 69 -51 156q0 119 92 197q81 69 189 69q132 0 204 -96q41 -55 41 -110q0 -68 -47 -74 q-7 -1 -15 -1zM292 326q39 0 47 4q12 8 12 26q0 46 -37 60q-11 4 -22 4q-33 0 -52 -35q-8 -16 -8 -31q0 -29 35 -29q4 0 12.5 0.5t12.5 0.5zM278 750q29 0 104 -52q87 -61 89 -96q0 -31 -26 -40q-7 -2 -13 -2q-19 0 -83 33q-49 24 -71 24t-89 -34q-46 -22 -65 -23 q-30 0 -37 29q-2 7 -2 13q0 34 86 94q76 53 107 54z" glyph-name="ecircumflex" horiz-adv-x="557" unicode="ê"/>
<glyph d="M481 230h-217q-21 0 -25 -5q-2 -5 -2 -9q0 -43 52 -74q31 -18 60 -18q49 0 106 33q20 12 27 12q21 0 34 -29q5 -12 5 -21q0 -56 -88 -99q-73 -34 -143 -34q-146 0 -222 103q-51 69 -51 156q0 119 92 197q81 69 189 69q132 0 204 -96q41 -55 41 -110q0 -68 -47 -74 q-7 -1 -15 -1zM292 326q39 0 47 4q12 8 12 26q0 46 -37 60q-11 4 -22 4q-33 0 -52 -35q-8 -16 -8 -31q0 -29 35 -29q4 0 12.5 0.5t12.5 0.5zM257 656q0 -57 -101 -78q-34 -7 -65 -7q-60 0 -85 34q-10 14 -10 32q0 67 112 80q21 3 42 3q81 0 102 -41q5 -11 5 -23zM562 656 q0 -57 -101 -78q-34 -7 -65 -7q-60 0 -85 34q-10 14 -10 32q0 67 112 80q21 3 42 3q81 0 102 -41q5 -11 5 -23z" glyph-name="edieresis" horiz-adv-x="557" unicode="ë"/>
<glyph d="M305 464v-279q0 -69 32 -90q20 -13 23 -19q4 -8 4 -19q-1 -68 -172 -68q-172 8 -179 63q0 20 25 38q23 18 28 31q14 38 11 152q-2 47 -7 65q-4 16 -29 29q-26 13 -30 29q-1 5 -1 11q0 56 191 91q56 10 73 10q30 -9 31 -44zM268 561q-110 0 -182 69q-31 30 -32 48 q0 42 90 54q18 2 32 2q55 0 77 -17q6 -7 7 -13q0 -4 -6 -16q-2 -4 -2 -7q0 -12 29 -32q37 -25 40 -44q1 -4 1 -7q-1 -37 -54 -37z" glyph-name="igrave" horiz-adv-x="375" unicode="ì"/>
<glyph d="M305 464v-279q0 -69 32 -90q20 -13 23 -19q4 -8 4 -19q-1 -68 -172 -68q-172 8 -179 63q0 20 25 38q23 18 28 31q14 38 11 152q-2 47 -7 65q-4 16 -29 29q-26 13 -30 29q-1 5 -1 11q0 56 191 91q56 10 73 10q30 -9 31 -44zM108 561q-53 2 -54 37q0 23 37 48q30 21 32 31 q1 2 1 4q0 4 -4 10q-4 8 -4 13q10 25 84 30q66 0 102 -24q19 -14 20 -32q0 -21 -39 -55q-73 -62 -175 -62z" glyph-name="iacute" horiz-adv-x="375" unicode="í"/>
<glyph d="M305 464v-279q0 -69 32 -90q20 -13 23 -19q4 -8 4 -19q-1 -68 -172 -68q-172 8 -179 63q0 20 25 38q23 18 28 31q14 38 11 152q-2 47 -7 65q-4 16 -29 29q-26 13 -30 29q-1 5 -1 11q0 56 191 91q56 10 73 10q30 -9 31 -44zM187 750q29 0 104 -52q87 -61 89 -96 q0 -31 -26 -40q-7 -2 -13 -2q-19 0 -83 33q-49 24 -71 24t-89 -34q-46 -22 -65 -23q-30 0 -37 29q-2 7 -2 13q0 34 86 94q76 53 107 54z" glyph-name="icircumflex" horiz-adv-x="375" unicode="î"/>
<glyph d="M305 464v-279q0 -69 32 -90q20 -13 23 -19q4 -8 4 -19q-1 -68 -172 -68q-172 8 -179 63q0 20 25 38q23 18 28 31q14 38 11 152q-2 47 -7 65q-4 16 -29 29q-26 13 -30 29q-1 5 -1 11q0 56 191 91q56 10 73 10q30 -9 31 -44zM166 656q0 -57 -101 -78q-34 -7 -65 -7 q-60 0 -85 34q-10 14 -10 32q0 67 112 80q21 3 42 3q81 0 102 -41q5 -11 5 -23zM471 656q0 -57 -101 -78q-34 -7 -65 -7q-60 0 -85 34q-10 14 -10 32q0 67 112 80q21 3 42 3q81 0 102 -41q5 -11 5 -23z" glyph-name="idieresis" horiz-adv-x="375" unicode="ï"/>
<glyph d="M393 210q-1 83 -39 143q-26 40 -57 40q-43 0 -54 -71q-2 -17 -2 -36q0 -74 42 -134q29 -39 56 -40q48 0 53 68q1 14 1 30zM162 658q0 24 86 54q35 12 48 12t50 -25q3 -1 4 -2q13 -8 22 -8q14 2 38 15q12 5 35 18q27 16 33 16q20 -1 34 -14q12 -13 12 -23q0 -6 -42 -26 q-40 -19 -41 -31q1 -18 31 -44q110 -92 142 -223q9 -36 9 -66q0 -210 -162 -289q-75 -36 -170 -36q-122 0 -202 78q-71 70 -71 167q0 128 50 185q17 19 41 35q54 36 125 36q6 0 47 -11q5 -1 7 -1q11 1 11 24q0 26 -34 49q-14 10 -22 10q-9 0 -75 -33l-4 -2t-9 -4 q-18 -8 -23 -8q-18 1 -30 13q-16 19 -16 25q0 7 77 43q5 3 8 4q23 12 24 18q0 7 -19 22q-13 13 -14 22z" glyph-name="eth" horiz-adv-x="633" unicode="ð"/>
<glyph d="M298 244v-77q0 -60 23 -89q11 -15 11 -29q-1 -60 -174 -60q-141 1 -142 60q0 20 16 29q21 11 27 31q5 17 6 43l4 150q1 39 -27 59q-23 15 -28 24q-4 9 -4 20q0 41 165 85q66 18 85 18q26 0 34 -27q2 -6 2 -12v-9q-1 -6 -1 -9q2 -25 20 -26q11 0 29 23q10 13 16 19 q42 41 107 41q129 0 163 -113q14 -49 17 -178q1 -41 2 -64q3 -45 28 -68q18 -19 18 -36q0 -27 -26 -39q-45 -21 -158 -21q-106 0 -126 33q-6 10 -6 21q0 16 15 29q20 20 23 55q1 9 3 29q12 126 -10 168q-18 33 -54 34q-54 0 -58 -71v-43zM502 728q66 0 80 -29q5 -12 5 -26 q0 -52 -47 -83q-29 -19 -62 -19q-45 0 -150 39q-49 18 -64 18q-11 -5 -12 -14q-7 -39 -48 -43q-68 0 -82 31q-4 11 -4 24q0 52 48 84q29 18 62 18q44 0 148 -38q50 -19 66 -19q11 5 12 14q7 39 48 43z" glyph-name="ntilde" horiz-adv-x="705" unicode="ñ"/>
<glyph d="M292 -14q-134 0 -211 81q-63 66 -63 164q0 138 113 217q89 63 209 63q136 0 216 -99q59 -73 59 -162q0 -118 -110 -196q-97 -68 -213 -68zM385 174q0 72 -24 144q-26 74 -64 75q-34 0 -46 -36q-4 -12 -3 -24q10 -161 60 -207q15 -13 31 -14q44 4 46 62zM397 561 q-110 0 -182 69q-31 30 -32 48q0 42 90 54q18 2 32 2q55 0 77 -17q6 -7 7 -13q0 -4 -6 -16q-2 -4 -2 -7q0 -12 29 -32q37 -25 40 -44q1 -4 1 -7q-1 -37 -54 -37z" glyph-name="ograve" horiz-adv-x="633" unicode="ò"/>
<glyph d="M292 -14q-134 0 -211 81q-63 66 -63 164q0 138 113 217q89 63 209 63q136 0 216 -99q59 -73 59 -162q0 -118 -110 -196q-97 -68 -213 -68zM385 174q0 72 -24 144q-26 74 -64 75q-34 0 -46 -36q-4 -12 -3 -24q10 -161 60 -207q15 -13 31 -14q44 4 46 62zM237 561 q-53 2 -54 37q0 23 37 48q30 21 32 31q1 2 1 4q0 4 -4 10q-4 8 -4 13q10 25 84 30q66 0 102 -24q19 -14 20 -32q0 -21 -39 -55q-73 -62 -175 -62z" glyph-name="oacute" horiz-adv-x="633" unicode="ó"/>
<glyph d="M292 -14q-134 0 -211 81q-63 66 -63 164q0 138 113 217q89 63 209 63q136 0 216 -99q59 -73 59 -162q0 -118 -110 -196q-97 -68 -213 -68zM385 174q0 72 -24 144q-26 74 -64 75q-34 0 -46 -36q-4 -12 -3 -24q10 -161 60 -207q15 -13 31 -14q44 4 46 62zM316 750 q29 0 104 -52q87 -61 89 -96q0 -31 -26 -40q-7 -2 -13 -2q-19 0 -83 33q-49 24 -71 24t-89 -34q-46 -22 -65 -23q-30 0 -37 29q-2 7 -2 13q0 34 86 94q76 53 107 54z" glyph-name="ocircumflex" horiz-adv-x="633" unicode="ô"/>
<glyph d="M292 -14q-134 0 -211 81q-63 66 -63 164q0 138 113 217q89 63 209 63q136 0 216 -99q59 -73 59 -162q0 -118 -110 -196q-97 -68 -213 -68zM385 174q0 72 -24 144q-26 74 -64 75q-34 0 -46 -36q-4 -12 -3 -24q10 -161 60 -207q15 -13 31 -14q44 4 46 62zM466 728 q66 0 80 -29q5 -12 5 -26q0 -52 -47 -83q-29 -19 -62 -19q-45 0 -150 39q-49 18 -64 18q-11 -5 -12 -14q-7 -39 -48 -43q-68 0 -82 31q-4 11 -4 24q0 52 48 84q29 18 62 18q44 0 148 -38q50 -19 66 -19q11 5 12 14q7 39 48 43z" glyph-name="otilde" horiz-adv-x="633" unicode="õ"/>
<glyph d="M292 -14q-134 0 -211 81q-63 66 -63 164q0 138 113 217q89 63 209 63q136 0 216 -99q59 -73 59 -162q0 -118 -110 -196q-97 -68 -213 -68zM385 174q0 72 -24 144q-26 74 -64 75q-34 0 -46 -36q-4 -12 -3 -24q10 -161 60 -207q15 -13 31 -14q44 4 46 62zM295 656 q0 -57 -101 -78q-34 -7 -65 -7q-60 0 -85 34q-10 14 -10 32q0 67 112 80q21 3 42 3q81 0 102 -41q5 -11 5 -23zM600 656q0 -57 -101 -78q-34 -7 -65 -7q-60 0 -85 34q-10 14 -10 32q0 67 112 80q21 3 42 3q81 0 102 -41q5 -11 5 -23z" glyph-name="odieresis" horiz-adv-x="633" unicode="ö"/>
<glyph d="M492 198h-354q-42 0 -51 6q-14 12 -14 52q0 48 22 55q9 3 43 3h354q42 0 51 -6q14 -12 14 -52q0 -48 -22 -55q-9 -3 -43 -3zM315 164q44 0 65 -39q10 -17 10 -36q0 -44 -39 -65q-17 -10 -36 -10q-44 0 -65 39q-10 17 -10 36q0 44 39 65q17 10 36 10zM315 498q44 0 65 -39 q10 -17 10 -36q0 -44 -39 -65q-17 -10 -36 -10q-44 0 -65 39q-10 17 -10 36q0 44 39 65q17 10 36 10z" glyph-name="divide" unicode="÷"/>
<glyph d="M525 443l22 16q1 1 6 5q26 20 36 21q18 0 29 -23q3 -7 3 -13q0 -12 -26 -31q-5 -3 -7 -5l-21 -15q48 -69 48 -148q0 -118 -110 -196q-97 -68 -213 -68q-121 1 -198 66l-21 -15q-32 -24 -41 -25q-18 0 -28 22q-4 7 -4 13q0 13 26 30q3 2 4 3l25 19q-37 55 -37 132 q0 138 113 217q89 63 209 63q111 0 178 -61zM374 257l-98 -73q28 -67 63 -72q46 2 46 62q0 32 -11 83zM260 248l98 72q-18 51 -34 64q-12 9 -27 9q-36 0 -46 -40q-3 -10 -3 -20q0 -36 12 -85z" glyph-name="oslash" horiz-adv-x="633" unicode="ø"/>
<glyph d="M301 470v-254q0 -92 45 -101q6 -1 12 -1q60 0 62 95q1 11 0 31v16q0 83 -4 108t-30 40q-21 11 -25 22q-2 7 -2 13q0 51 177 66q37 3 62 3q50 -2 51 -56q0 -16 -1 -48q-1 -31 -1 -47v-201q0 -31 25 -44q22 -10 26 -18t4 -18q0 -56 -144 -79q-50 -8 -88 -8q-26 0 -37 9.5 t-10 20.5t-2.5 20.5t-16.5 9.5q-7 0 -39 -22q-7 -5 -12 -8q-49 -30 -100 -30q-127 0 -159 97q-16 48 -15 173v30q0 43 -7 68t-17.5 33t-20.5 12.5t-17 12.5t-7 26q0 53 208 65q32 2 52 2q27 0 30 -21q1 -7 1 -17zM436 561q-110 0 -182 69q-31 30 -32 48q0 42 90 54 q18 2 32 2q55 0 77 -17q6 -7 7 -13q0 -4 -6 -16q-2 -4 -2 -7q0 -12 29 -32q37 -25 40 -44q1 -4 1 -7q-1 -37 -54 -37z" glyph-name="ugrave" horiz-adv-x="712" unicode="ù"/>
<glyph d="M301 470v-254q0 -92 45 -101q6 -1 12 -1q60 0 62 95q1 11 0 31v16q0 83 -4 108t-30 40q-21 11 -25 22q-2 7 -2 13q0 51 177 66q37 3 62 3q50 -2 51 -56q0 -16 -1 -48q-1 -31 -1 -47v-201q0 -31 25 -44q22 -10 26 -18t4 -18q0 -56 -144 -79q-50 -8 -88 -8q-26 0 -37 9.5 t-10 20.5t-2.5 20.5t-16.5 9.5q-7 0 -39 -22q-7 -5 -12 -8q-49 -30 -100 -30q-127 0 -159 97q-16 48 -15 173v30q0 43 -7 68t-17.5 33t-20.5 12.5t-17 12.5t-7 26q0 53 208 65q32 2 52 2q27 0 30 -21q1 -7 1 -17zM276 561q-53 2 -54 37q0 23 37 48q30 21 32 31q1 2 1 4 q0 4 -4 10q-4 8 -4 13q10 25 84 30q66 0 102 -24q19 -14 20 -32q0 -21 -39 -55q-73 -62 -175 -62z" glyph-name="uacute" horiz-adv-x="712" unicode="ú"/>
<glyph d="M301 470v-254q0 -92 45 -101q6 -1 12 -1q60 0 62 95q1 11 0 31v16q0 83 -4 108t-30 40q-21 11 -25 22q-2 7 -2 13q0 51 177 66q37 3 62 3q50 -2 51 -56q0 -16 -1 -48q-1 -31 -1 -47v-201q0 -31 25 -44q22 -10 26 -18t4 -18q0 -56 -144 -79q-50 -8 -88 -8q-26 0 -37 9.5 t-10 20.5t-2.5 20.5t-16.5 9.5q-7 0 -39 -22q-7 -5 -12 -8q-49 -30 -100 -30q-127 0 -159 97q-16 48 -15 173v30q0 43 -7 68t-17.5 33t-20.5 12.5t-17 12.5t-7 26q0 53 208 65q32 2 52 2q27 0 30 -21q1 -7 1 -17zM356 750q29 0 104 -52q87 -61 89 -96q0 -31 -26 -40 q-7 -2 -13 -2q-19 0 -83 33q-49 24 -71 24t-89 -34q-46 -22 -65 -23q-30 0 -37 29q-2 7 -2 13q0 34 86 94q76 53 107 54z" glyph-name="ucircumflex" horiz-adv-x="712" unicode="û"/>
<glyph d="M301 470v-254q0 -92 45 -101q6 -1 12 -1q60 0 62 95q1 11 0 31v16q0 83 -4 108t-30 40q-21 11 -25 22q-2 7 -2 13q0 51 177 66q37 3 62 3q50 -2 51 -56q0 -16 -1 -48q-1 -31 -1 -47v-201q0 -31 25 -44q22 -10 26 -18t4 -18q0 -56 -144 -79q-50 -8 -88 -8q-26 0 -37 9.5 t-10 20.5t-2.5 20.5t-16.5 9.5q-7 0 -39 -22q-7 -5 -12 -8q-49 -30 -100 -30q-127 0 -159 97q-16 48 -15 173v30q0 43 -7 68t-17.5 33t-20.5 12.5t-17 12.5t-7 26q0 53 208 65q32 2 52 2q27 0 30 -21q1 -7 1 -17zM334 656q0 -57 -101 -78q-34 -7 -65 -7q-60 0 -85 34 q-10 14 -10 32q0 67 112 80q21 3 42 3q81 0 102 -41q5 -11 5 -23zM639 656q0 -57 -101 -78q-34 -7 -65 -7q-60 0 -85 34q-10 14 -10 32q0 67 112 80q21 3 42 3q81 0 102 -41q5 -11 5 -23z" glyph-name="udieresis" horiz-adv-x="712" unicode="ü"/>
<glyph d="M504 247l-59 -163q-54 -147 -118 -204q-65 -59 -158 -59q-80 0 -126 45q-31 32 -31 75q0 52 43 79q21 13 46 13q52 0 73 -51l6 -18q11 -33 24 -36q3 -1 5 -1q30 0 37 35q2 7 2 14q0 25 -32 91l-140 293q-9 18 -41 33q-29 13 -34 30q-1 5 -1 11q0 39 56 56q58 18 173 18 q127 -1 128 -61q0 -13 -15 -35q-8 -14 -8 -24q0 -36 35 -84q17 -23 26 -24q26 0 44 57q7 22 7 36q0 24 -19 45q-13 16 -13 31q0 52 110 58q10 1 20 1q103 -4 107 -51q0 -30 -28 -43q-37 -17 -42 -21q-15 -12 -25 -28q-23 -37 -52 -118zM246 561q-53 2 -54 37q0 23 37 48 q30 21 32 31q1 2 1 4q0 4 -4 10q-4 8 -4 13q10 25 84 30q66 0 102 -24q19 -14 20 -32q0 -21 -39 -55q-73 -62 -175 -62z" glyph-name="yacute" horiz-adv-x="651" unicode="ý"/>
<glyph d="M86 143v358q0 28 -31 42q-31 13 -37 21q-8 11 -8 26q0 49 123 85q87 26 155 26q18 0 22 -10t3 -32l-6 -193q1 -15 7 -16q1 0 33 22q8 5 14 9q53 30 105 30q129 0 184 -115q27 -59 28 -133q1 -112 -68 -195q-69 -81 -169 -82q-30 0 -93 22q-8 3 -10 3q-16 -1 -16 -32 q0 -41 31 -60q22 -15 27 -22q4 -9 4 -19q0 -56 -109 -62q-11 -1 -21 -1q-128 0 -201 47q-37 26 -38 53q0 24 22 35q26 14 34 26q2 3 3 6q11 24 12 130v31zM315 302v-132q0 -41 40 -48q5 -1 10 -1q69 4 70 115q0 116 -62 126q-6 1 -11 1q-46 -1 -47 -61z" glyph-name="thorn" horiz-adv-x="699" unicode="þ"/>
</font>
</defs>
</svg>
