<?xml version="1.0" standalone="no"?>
<!DOCTYPE svg PUBLIC "-//W3C//DTD SVG 1.1//EN" "http://www.w3.org/Graphics/SVG/1.1/DTD/svg11.dtd" >
<svg>
<metadata>
Created by FontForge 20090622 at Wed Sep  4 14:29:46 2019
 By deploy user
Copyright &#194;&#169; 1995, 2001 Adobe Systems Incorporated.  All Rights Reserved.
</metadata>
<defs>
<font id="EccentricStd" horiz-adv-x="407" >
  <font-face 
    font-family="Eccentric Std"
    font-weight="400"
    font-stretch="normal"
    units-per-em="1000"
    panose-1="0 0 5 0 0 0 0 0 0 0"
    ascent="708"
    descent="-292"
    x-height="708"
    cap-height="708"
    bbox="-61 -250 900 924"
    underline-thickness="50"
    underline-position="-50"
    unicode-range="U+0020-U+FB02"
  />
<missing-glyph horiz-adv-x="500" 
d="M0 0v700h500v-700h-500zM250 395l170 255h-340zM280 350l170 -255v510zM80 50h340l-170 255zM50 605v-510l170 255z" />
    <glyph glyph-name=".notdef" horiz-adv-x="500" 
d="M0 0v700h500v-700h-500zM250 395l170 255h-340zM280 350l170 -255v510zM80 50h340l-170 255zM50 605v-510l170 255z" />
    <glyph glyph-name=".null" horiz-adv-x="0" 
 />
    <glyph glyph-name="nonmarkingreturn" horiz-adv-x="333" 
 />
    <glyph glyph-name="space" unicode=" " horiz-adv-x="204" 
 />
    <glyph glyph-name="exclam" unicode="!" horiz-adv-x="204" 
d="M119 151h-36l-6 466q0 29 -4.5 34t-27.5 7v50h112v-50q-23 -2 -27.5 -7t-4.5 -34zM101 -12q-15 0 -24 14.5t-9 32.5q0 20 8.5 35t24.5 15t24.5 -15t8.5 -35q0 -18 -9 -32.5t-24 -14.5z" />
    <glyph glyph-name="quotedbl" unicode="&#x22;" horiz-adv-x="315" 
d="M110 533h-28l-22 175h72zM233 533h-28l-22 175h72z" />
    <glyph glyph-name="numbersign" unicode="#" 
d="M91 -12h-53l37 239h-53l7 50h54l27 178h-54l8 50h54l33 215h53l-33 -215h112l34 215h53l-34 -215h50l-8 -50h-49l-28 -178h50l-7 -50h-51l-36 -239h-53l36 239h-112zM163 455l-27 -178h112l28 178h-113z" />
    <glyph glyph-name="dollar" unicode="$" 
d="M164 -58v46q-11 1 -26 8t-20 7q-12 0 -41 -9l-15 111l31 10q26 -72 71 -83v426l-36 55t-43.5 74t-14.5 54q0 34 18.5 56.5t48.5 22.5q15 0 27 -3v28h40v-38q12 0 25 11l28 -87l-23 -10l-28 38h-2v-176q1 -3 15 -25.5l21 -34t21.5 -38.5t23 -45.5l20.5 -46.5t18 -51
t11 -49.5t5 -50.5q0 -44 -13 -75.5t-34.5 -47.5t-43 -23t-44.5 -8v-46h-40zM164 548v128q-14 0 -21.5 -1t-15 -9t-7.5 -23q0 -9 5 -22.5t10 -23l14.5 -26.5t12.5 -23h2zM204 390v-358q19 5 31 10.5t26 16.5t21 30.5t7 47.5q0 95 -83 253h-2z" />
    <glyph glyph-name="percent" unicode="%" horiz-adv-x="556" 
d="M139 343q-54 0 -79.5 40t-25.5 140q0 86 30.5 141.5t74.5 55.5t74.5 -55.5t30.5 -141.5q0 -100 -25.5 -140t-79.5 -40zM139 387q57 0 57 136q0 54 -10 90t-22 49.5t-25 13.5t-25 -13.5t-22 -49.5t-10 -90q0 -136 57 -136zM417 -12q-54 0 -79.5 40t-25.5 140
q0 86 30.5 141.5t74.5 55.5t74.5 -55.5t30.5 -141.5q0 -100 -25.5 -140t-79.5 -40zM417 32q57 0 57 136q0 54 -10 90t-22 49.5t-25 13.5t-25 -13.5t-22 -49.5t-10 -90q0 -136 57 -136zM201 -22h-46l207 752h46z" />
    <glyph glyph-name="ampersand" unicode="&#x26;" horiz-adv-x="444" 
d="M381 547l36 26q4 -12 4 -20q0 -57 -35 -90t-78 -36v-2q39 -23 61 -65t22 -125q0 -98 -43 -172.5t-127 -74.5q-74 0 -128.5 80t-54.5 216q0 113 38 181t92 88v2q-66 11 -66 73q0 40 26.5 66t70.5 26q33 0 56 -15l29 12l29 -15l-27 -78h-21q-12 52 -62 52q-26 0 -41.5 -13
t-15.5 -33q0 -18 18 -35t63 -17l30 3v-51q-82 -2 -128.5 -64.5t-46.5 -178.5q0 -119 44 -187t98 -68q46 0 84.5 54t38.5 149q0 68 -26 117.5t-72 49.5q-32 0 -51 -27t-19 -85q0 -87 40 -87q12 0 20 11.5t8 23.5h38q0 -32 -17 -55.5t-54 -23.5q-79 0 -79 130q0 52 13.5 85
t37 47.5t47 21t53.5 13.5t47 18q48 31 48 73z" />
    <glyph glyph-name="quotesingle" unicode="'" horiz-adv-x="204" 
d="M116 533h-28l-22 175h72z" />
    <glyph glyph-name="parenleft" unicode="(" horiz-adv-x="204" 
d="M192 11v-50q-82 25 -121 115t-39 256q0 175 39 268.5t121 119.5v-50q-57 -35 -83.5 -114.5t-26.5 -223.5q0 -135 26.5 -211t83.5 -110z" />
    <glyph glyph-name="parenright" unicode=")" horiz-adv-x="204" 
d="M12 670v50q82 -26 121 -119.5t39 -268.5q0 -166 -39 -256t-121 -115v50q57 34 83.5 110t26.5 211q0 144 -26.5 223.5t-83.5 114.5z" />
    <glyph glyph-name="asterisk" unicode="*" 
d="M175 457l-64 29l9 23q8 -2 11 -2q7 0 14 16l24 50l-34 10q-7 1 -14.5 4t-10.5 3q-5 0 -14 -15l-22 8l23 69l23 -6v-4v-4t0.5 -4t2 -4l4.5 -3t7 -3l47 -14v52q0 12 -2.5 16t-15.5 8v22h75v-22q-13 -4 -15.5 -8t-2.5 -16v-52l50 18q16 6 16 11t-2 11l23 8l24 -66l-23 -10
q-8 14 -11 14l-9 -3l-49 -18l24 -52q6 -12 12 -12q3 0 9 3l12 -24l-64 -33l-10 25q9 7 9 10q0 5 -4 15l-25 53l-24 -56q-4 -10 -4 -13t10 -11z" />
    <glyph glyph-name="plus" unicode="+" horiz-adv-x="556" 
d="M306 -12h-56v222h-226v56h226v222h56v-222h226v-56h-226v-222z" />
    <glyph glyph-name="comma" unicode="," horiz-adv-x="204" 
d="M106 -55h-34q17 43 19 55q-28 16 -28 42q0 20 10.5 31.5t28.5 11.5q17 0 29 -13t12 -34q0 -23 -37 -93z" />
    <glyph glyph-name="hyphen" unicode="-" horiz-adv-x="204" 
d="M55 310h-48l40 71h88l10 17h52l-39 -68h-91z" />
    <glyph glyph-name="period" unicode="." horiz-adv-x="204" 
d="M102 -12q-15 0 -24 14.5t-9 32.5q0 20 8.5 35t24.5 15t24.5 -15t8.5 -35q0 -18 -9 -32.5t-24 -14.5z" />
    <glyph glyph-name="slash" unicode="/" horiz-adv-x="204" 
d="M58 -12h-47l135 732h47z" />
    <glyph glyph-name="zero" unicode="0" 
d="M203 -12q-48 0 -81 26t-51.5 76t-26 111.5t-7.5 144.5q0 74 8.5 137.5t27 118.5t52 86.5t78.5 31.5q43 0 76 -32t52 -86t29 -119t10 -137q0 -83 -8 -144.5t-26 -111.5t-51.5 -76t-81.5 -26zM90 346q0 -150 25.5 -230t87.5 -80q63 0 88.5 80t25.5 230q0 131 -30 228.5
t-84 97.5q-31 0 -54 -28t-35.5 -76t-18 -103t-5.5 -119z" />
    <glyph glyph-name="one" unicode="1" 
d="M237 708v-627q0 -21 7.5 -27.5t34.5 -9.5v-44h-134v44q27 3 34.5 9.5t7.5 27.5v533l-33 -25l-26 25l74 94h35z" />
    <glyph glyph-name="two" unicode="2" 
d="M305 67l-24 -70q-54 3 -109 3q-64 0 -128 -3v48q247 384 247 541q0 42 -21 64t-53 22q-22 0 -37 -10.5t-15 -24.5q0 -3 3 -8t3 -6l-21 -25l-76 60l21 24l31 -4q2 1 15.5 12.5t34.5 20.5t48 9q53 0 86.5 -34t33.5 -95q0 -163 -236 -543h97q19 0 32 4.5t16.5 7.5t16.5 16z
" />
    <glyph glyph-name="three" unicode="3" 
d="M61 4l-28 27l50 70l29 -12q26 -53 67 -53q43 0 77 52t34 165q0 99 -45.5 171t-119.5 107v38q40 0 71.5 13t31.5 45q0 18 -13.5 31.5t-34.5 13.5q-22 0 -71 -32l-29 17l35 74q34 -17 39 -17q2 0 6 1.5t6 1.5q9 3 20 3q44 0 69.5 -26t25.5 -65q0 -25 -12 -44t-20.5 -24.5
t-30.5 -17.5q53 -55 73 -89q52 -85 52 -207q0 -125 -47.5 -192t-118.5 -67q-37 0 -83 27z" />
    <glyph glyph-name="four" unicode="4" 
d="M315 0h-134v44q27 3 34.5 9.5t7.5 27.5v160h-155l12 49.5l13.5 56t5.5 24.5q0 12 -9.5 15t-31.5 4l10 36h60l24 -35l-22 -106h93v342q0 21 -7.5 27.5t-34.5 9.5v44h134v-44q-27 -3 -34.5 -9.5t-7.5 -27.5v-342h71v-44h-71v-160q0 -21 7.5 -27.5t34.5 -9.5v-44z" />
    <glyph glyph-name="five" unicode="5" 
d="M169 660l-14 -55q64 -38 89 -63q95 -94 95 -290q0 -136 -49.5 -200t-120.5 -64q-38 0 -75 26l-28 -19l-29 20l34 88l39 -12q6 -16 12 -26t19.5 -19.5t32.5 -9.5q43 0 77.5 51t34.5 165q0 65 -12.5 116.5t-29 82.5t-44 57t-46.5 37.5t-48 26.5q-7 3 -10 5l38 131h136
l-11 -48h-90z" />
    <glyph glyph-name="six" unicode="6" 
d="M279 616l-33 18q0 3 0.5 10t0.5 10q0 8 -9 13t-20 5q-8 0 -15.5 -2t-14 -7l-12 -9.5t-10.5 -13t-8.5 -13.5t-8 -15.5l-6.5 -15t-6 -16t-5 -13.5l2 -2q23 26 72 26q73 0 111 -90t38 -228q0 -128 -36.5 -206.5t-113.5 -78.5q-45 0 -77.5 29.5t-47.5 76.5t-21 90.5t-6 87.5
q0 34 1.5 66t5.5 89.5t15 103.5t27 91.5t44.5 71.5t64.5 26q17 0 30 -5l18 -5q9 0 24 11l33 -27zM106 275q0 -106 27.5 -172.5t72.5 -66.5q49 0 72.5 68.5t23.5 177.5q0 113 -26 187t-80 74q-30 0 -49 -19t-27.5 -59.5t-11 -81.5t-2.5 -108z" />
    <glyph glyph-name="seven" unicode="7" 
d="M206 0h-94q0 74 12 154t41 182.5t45 153l56 170.5h-57q-35 0 -47.5 -8.5t-26.5 -34.5h-45l23 94q12 0 33 -1t38.5 -1.5t33.5 -0.5q2 0 119 3q-170 -488 -170 -644q0 -4 1 -6.5t2 -4.5t3.5 -3.5t4.5 -2.5t6 -2l6 -1.5t7.5 -1.5t8.5 -1v-44z" />
    <glyph glyph-name="eight" unicode="8" 
d="M198 -11q-150 0 -150 287q0 224 94 312q-12 9 -17.5 13.5t-12 17t-6.5 28.5q0 30 23 51.5t70 21.5q45 0 68.5 -20t23.5 -50q0 -14 -4.5 -25t-9.5 -17.5t-18 -20.5q101 -101 101 -311q0 -48 -5.5 -90.5t-21 -91t-50 -77t-85.5 -28.5zM101 293q0 -105 23 -180.5t74 -75.5
q48 0 78.5 59t30.5 185q0 104 -34 194.5t-74 90.5q-37 0 -67.5 -90.5t-30.5 -182.5zM156 639q0 -11 13 -21.5t30 -10.5q18 0 30 9.5t12 23.5q0 15 -12 25.5t-30 10.5q-20 0 -31.5 -10t-11.5 -27z" />
    <glyph glyph-name="nine" unicode="9" 
d="M95 -6l-33 30l45 76l29 -18q-1 -9 -1 -20q0 -12 12.5 -19t26.5 -7q12 0 23 3.5t20 11.5l15.5 14t14 19t11 18.5t10.5 21t8 17.5l-2 2q-23 -26 -72 -26q-73 0 -111 90t-38 228q0 128 36.5 206.5t113.5 78.5q74 0 113 -74t39 -210q0 -241 -51 -351q-48 -97 -127 -97
q-18 0 -36 8t-22 8q-10 0 -24 -10zM106 426q0 -113 26 -187t80 -74q30 0 49 19t27.5 59.5t11 81.5t2.5 108q0 107 -27 173t-73 66q-49 0 -72.5 -68.5t-23.5 -177.5z" />
    <glyph glyph-name="colon" unicode=":" horiz-adv-x="204" 
d="M102 263q-15 0 -24 14.5t-9 32.5q0 20 8.5 35t24.5 15t24.5 -15t8.5 -35q0 -18 -9 -32.5t-24 -14.5zM102 -12q-15 0 -24 14.5t-9 32.5q0 20 8.5 35t24.5 15t24.5 -15t8.5 -35q0 -18 -9 -32.5t-24 -14.5z" />
    <glyph glyph-name="semicolon" unicode=";" horiz-adv-x="204" 
d="M111 -55h-34q17 43 19 55q-28 16 -28 42q0 20 10.5 31.5t28.5 11.5q17 0 29 -13t12 -34q0 -23 -37 -93zM102 263q-15 0 -24 14.5t-9 32.5q0 20 8.5 35t24.5 15t24.5 -15t8.5 -35q0 -18 -9 -32.5t-24 -14.5z" />
    <glyph glyph-name="less" unicode="&#x3c;" horiz-adv-x="556" 
d="M521 480v-60l-416 -182l416 -182v-60l-486 217v50z" />
    <glyph glyph-name="equal" unicode="=" horiz-adv-x="556" 
d="M532 285h-508v56h508v-56zM532 136h-508v56h508v-56z" />
    <glyph glyph-name="greater" unicode="&#x3e;" horiz-adv-x="556" 
d="M35 -4v60l416 182l-416 182v60l486 -217v-50z" />
    <glyph glyph-name="question" unicode="?" horiz-adv-x="296" 
d="M117 151h-40v38q0 52 21 108t46.5 97.5t46.5 95.5t21 103q0 35 -16.5 57t-45.5 22q-7 0 -13.5 -1.5t-11 -3.5t-9.5 -6t-7.5 -6.5t-7 -9t-6 -9l-5.5 -9.5t-5 -9l-39 14l36 97q28 -13 39 -13q3 0 13 2q12 2 20 2q48 0 78 -34t30 -88q0 -61 -26 -123.5t-59.5 -120
t-42.5 -85.5q-17 -51 -17 -118zM100 -12q-15 0 -24 14.5t-9 32.5q0 20 8.5 35t24.5 15t24.5 -15t8.5 -35q0 -18 -9 -32.5t-24 -14.5z" />
    <glyph glyph-name="at" unicode="@" horiz-adv-x="556" 
d="M459 499l-84 -232q-5 -13 -5 -29q0 -20 18 -20q34 0 81 51t47 123q0 82 -59.5 136t-143.5 54q-100 0 -174.5 -73.5t-74.5 -176.5q0 -93 65.5 -151t149.5 -58q99 0 212 83l20 -23q-117 -98 -250 -98q-103 0 -176.5 70t-73.5 173q0 116 87 204t206 88q102 0 172.5 -61.5
t71.5 -162.5q0 -84 -59.5 -146t-112.5 -62q-10 0 -18.5 2.5t-13 4.5t-9 8.5t-5.5 8.5t-4.5 11.5t-4.5 10.5q-44 -46 -92 -46q-39 0 -63 27.5t-24 72.5q0 72 49.5 144.5t112.5 72.5q31 0 47.5 -13.5t32.5 -44.5l19 52h56zM315 471q-43 0 -81.5 -75.5t-38.5 -129.5
q0 -48 42 -48q51 0 89.5 72.5t38.5 130.5q0 24 -14 37t-36 13z" />
    <glyph glyph-name="A" unicode="A" horiz-adv-x="481" 
d="M164 0h-137v38q3 0 9 0.5t8 1t7 1.5t7 2t5.5 3t5 5t3.5 7.5t3 10t2 12.5l50 472q9 79 9 97q0 11 -8 14.5t-32 5.5v41q74 -3 146 -3q74 0 143 3v-41q-17 -1 -23.5 -2.5t-11.5 -5.5t-5 -12q0 -18 9 -97l56 -472q1 -9 2.5 -15.5t5 -11t5 -7.5t7 -4.5t7 -2t9 -1.5t8.5 -1v-38
h-131v38q16 1 22 2t11.5 7t5.5 17q-1 14 -4.5 43.5t-4.5 42.5l-47 406h-130l-42 -406q-1 -13 -4.5 -42.5t-4.5 -43.5q0 -11 5.5 -17t11.5 -7t22 -2v-38zM187 664l-7 -64h120l-6 64h-107z" />
    <glyph glyph-name="B" unicode="B" horiz-adv-x="426" 
d="M123 589h88q63 0 63 40q0 20 -14.5 27.5t-48.5 7.5h-88v-75zM123 545v-501q219 24 219 284q0 118 -47 174q-26 30 -56 36.5t-116 6.5zM93 0h-61v38q29 4 35 10t6 29v554q0 23 -6 29.5t-35 9.5v38h170q125 0 125 -76q0 -47 -38 -60q106 -71 106 -244q0 -79 -18.5 -139
t-47.5 -95t-70 -57t-80.5 -29.5t-85.5 -7.5z" />
    <glyph glyph-name="C" unicode="C" horiz-adv-x="370" 
d="M316 110l35 -29q-47 -93 -133 -93q-184 0 -184 378q0 68 10 128t30.5 112.5t58.5 83t89 30.5q22 0 28 2.5t6 12.5l29 11l42 -100l-32 -13q-34 39 -73 39q-58 0 -96.5 -83t-38.5 -231q0 -95 13 -165.5t43 -113.5t75 -43q34 0 59.5 22.5t38.5 51.5z" />
    <glyph glyph-name="D" unicode="D" horiz-adv-x="389" 
d="M110 654v-610h15q77 0 131.5 63.5t54.5 195.5q0 84 -23.5 153.5t-58 109.5t-65.5 62t-54 26zM22 670v38q72 0 128 -24t108 -78q106 -111 106 -303q0 -143 -64 -223t-196 -80h-82v38q27 4 32.5 10t5.5 29v554q0 23 -5.5 29.5t-32.5 9.5z" />
    <glyph glyph-name="E" unicode="E" horiz-adv-x="352" 
d="M170 0h-128v38q32 4 38.5 10t6.5 29v554q0 23 -6.5 29.5t-38.5 9.5v38h121q63 0 99 15l36 -68l-30 -17q-2 2 -8.5 7.5t-9.5 7.5t-9 5.5t-13.5 4.5t-16.5 1h-74v-86h94q23 0 29.5 6.5t7.5 21.5h30v-100h-30q-2 9 -4 14t-10 9.5t-21 4.5h-96v-490h103q13 0 23 2t17.5 7.5
t10.5 8.5t10 12.5t9 11.5l30 -20l-36 -78q-25 7 -68 10q-24 2 -66 2z" />
    <glyph glyph-name="F" unicode="F" horiz-adv-x="333" 
d="M176 0h-132v38q29 3 35 9.5t6 29.5v554q0 23 -6.5 29.5t-38.5 9.5v38h121q63 0 99 15l36 -68l-30 -17q-2 2 -8.5 7.5t-9.5 7.5t-9 5.5t-13.5 4.5t-16.5 1h-74v-86h94q23 0 29.5 6.5t7.5 21.5h30v-100h-30q-2 9 -4 14t-10 9.5t-21 4.5h-96v-457q0 -24 6 -30t35 -9v-38z
" />
    <glyph glyph-name="G" unicode="G" horiz-adv-x="389" 
d="M326 303v-315q-49 5 -99 35t-93.5 81t-71 133t-27.5 180q0 117 48 215q48 88 117 88q10 0 13.5 3t3.5 12l29 11l46 -106l-32 -13q-1 2 -5.5 7.5t-6 7.5l-5.5 7t-6.5 6.5t-6.5 5t-7 5t-7.5 3.5t-9 2.5t-9.5 0.5q-41 0 -75 -72t-34 -192q0 -97 29 -171t67 -113.5t92 -72.5
v252q0 23 -6 29.5t-35 9.5v38h132v-38q-29 -3 -35 -9.5t-6 -29.5z" />
    <glyph glyph-name="H" unicode="H" 
d="M159 0h-129v38q29 4 35 10.5t6 28.5v554q0 23 -6 29.5t-35 9.5v38h129v-38q-27 -3 -32.5 -9.5t-5.5 -29.5v-40h165v40q0 23 -5.5 29.5t-32.5 9.5v38h129v-38q-29 -3 -35 -9.5t-6 -29.5v-554q0 -22 6 -28.5t35 -10.5v-38h-129v38q27 4 32.5 10t5.5 29v470h-165v-470
q0 -23 5.5 -29t32.5 -10v-38z" />
    <glyph glyph-name="I" unicode="I" horiz-adv-x="204" 
d="M168 0h-132v38q29 4 35 10t6 29v554q0 23 -6 29.5t-35 9.5v38h132v-38q-29 -3 -35 -9.5t-6 -29.5v-554q0 -22 6 -28.5t35 -10.5v-38z" />
    <glyph glyph-name="J" unicode="J" horiz-adv-x="278" 
d="M212 631v-521q0 -122 -84 -122q-33 0 -68 29l-20 -7l-25 11l24 84l23 -7q7 -25 22 -43.5t35 -18.5q28 0 35.5 18t7.5 61v516q0 23 -6 29.5t-35 9.5v38h132v-38q-29 -3 -35 -9.5t-6 -29.5z" />
    <glyph glyph-name="K" unicode="K" horiz-adv-x="389" 
d="M153 0h-123v38q27 4 32.5 10t5.5 29v554q0 23 -5.5 29.5t-32.5 9.5v38h123v-38q-25 -3 -30 -9.5t-5 -29.5v-75l121 93q12 10 12 13q0 2 -1.5 3.5t-4.5 2.5t-5.5 1t-6 0.5t-5.5 0.5v38h113v-38q-17 -6 -50 -31l-65 -50q18 -262 59 -424q17 -68 34.5 -95.5t49.5 -31.5v-38
h-76q-38 68 -59 166q-33 156 -51 388l-65 -49v-428q0 -22 5 -28.5t30 -10.5v-38z" />
    <glyph glyph-name="L" unicode="L" horiz-adv-x="352" 
d="M185 0h-149v38q32 4 38 10t6 29v554q0 23 -6.5 29.5t-37.5 9.5v38h135v-38q-29 -3 -35 -9.5t-6 -29.5v-587h104q7 0 13 0.5t11.5 2.5t9 3t8 5t6.5 5.5t6 6.5t5 6.5l5 7.5t5 7l32 -20l-37 -80q-21 7 -53 9q-30 3 -60 3z" />
    <glyph glyph-name="M" unicode="M" horiz-adv-x="500" 
d="M165 0h-135v38q32 4 38 10t6 29v554q0 23 -6.5 29.5t-37.5 9.5v38h98l122 -105l122 105h98v-38q-31 -3 -37.5 -9.5t-6.5 -29.5v-554q0 -23 6 -29t38 -10v-38h-135v38q29 4 35 10.5t6 28.5v578l-126 -112l-126 112v-578q0 -22 6 -28.5t35 -10.5v-38z" />
    <glyph glyph-name="N" unicode="N" horiz-adv-x="426" 
d="M32 0v38q29 4 35 10t6 29v554q0 23 -6 29.5t-35 9.5v38h91v-10q0 -12 2.5 -16.5t14.5 -10.5l163 -91v51q0 23 -6 29.5t-35 9.5v38h132v-38q-29 -3 -35 -9.5t-6 -29.5v-554q0 -22 6 -28.5t35 -10.5v-38h-132v38q29 4 35 10t6 29v452l-180 102v-554q0 -22 6 -28.5t35 -10.5
v-38h-132z" />
    <glyph glyph-name="O" unicode="O" 
d="M209 -12q-85 0 -129 88.5t-44 233.5q0 192 39 301t121 109q83 0 129 -111.5t46 -298.5q0 -145 -41.5 -233.5t-120.5 -88.5zM89 310q0 -122 31 -198t89 -76q52 0 80.5 76t28.5 198q0 155 -33 258.5t-90 103.5q-52 0 -79 -101.5t-27 -260.5z" />
    <glyph glyph-name="P" unicode="P" horiz-adv-x="352" 
d="M127 589h91q31 0 45.5 8.5t14.5 29.5q0 37 -60 37h-91v-75zM127 545v-468q0 -22 6 -28.5t35 -10.5v-38h-132v38q29 4 35 10t6 29v554q0 23 -6 29.5t-35 9.5v38h182q113 0 113 -82q0 -81 -115 -81h-89z" />
    <glyph glyph-name="Q" unicode="Q" 
d="M371 9l31 -15q-18 -50 -65 -50q-28 0 -68 29l-13 10t-13 9.5t-11.5 5t-16.5 2.5q-34 0 -83 -54l-34 28q14 17 34 32q-95 68 -95 304q0 192 39 301t120 109q83 0 129 -111.5t46 -298.5q0 -123 -16.5 -182.5t-63.5 -111.5q28 -24 47 -24q16 0 33 17zM318 310
q0 155 -33 258.5t-90 103.5q-52 0 -78.5 -101t-26.5 -261q0 -228 85 -275q19 13 42 13q18 0 30 -4q38 31 54.5 87t16.5 179z" />
    <glyph glyph-name="R" unicode="R" 
d="M167 0h-132v38q29 4 35 10t6 29v554q0 23 -6 29.5t-35 9.5v38h182q113 0 113 -82q0 -62 -58 -78q0 -90 10 -220.5t27 -193.5q13 -51 28 -71.5t41 -24.5v-38h-76q-24 54 -39 110q-21 80 -31 208t-10 227h-96v-468q0 -22 6 -28.5t35 -10.5v-38zM126 589h91q31 0 45.5 8.5
t14.5 29.5q0 37 -60 37h-91v-75z" />
    <glyph glyph-name="S" unicode="S" horiz-adv-x="333" 
d="M217 640l-33 -12q-5 5 -14.5 13t-13 11.5t-10 8.5t-10 6.5t-8 3t-9.5 1.5q-14 0 -21.5 -8.5t-7.5 -20.5q0 -16 11 -37.5t41 -71t52 -90.5q107 -194 107 -299q0 -73 -41.5 -115t-101.5 -42q-41 0 -77 23l-18 -11h-26l-14 110l32 12q9 -20 15.5 -31.5t18.5 -26t29.5 -21.5
t39.5 -7q40 0 66.5 29.5t26.5 71.5q0 99 -97 274l-46 83.5l-38 67.5t-21 45t-9 42q0 33 19 52t51 19q7 0 23 -2l18 13h30z" />
    <glyph glyph-name="T" unicode="T" horiz-adv-x="333" 
d="M233 0h-132v38q29 3 35 9.5t6 29.5v587q-25 0 -37 -1.5t-26.5 -12.5t-24.5 -33l-32 11l33 86q55 -6 112 -6q38 0 112 6l33 -86l-32 -11q-10 22 -24.5 33t-26.5 12.5t-37 1.5v-587q0 -23 6 -29.5t35 -9.5v-38z" />
    <glyph glyph-name="U" unicode="U" 
d="M345 631v-455q0 -96 -30.5 -142t-113.5 -46q-80 0 -109 46t-29 142v455q0 23 -5.5 29.5t-32.5 9.5v38h127v-38q-28 -3 -33.5 -9.5t-5.5 -29.5v-459q0 -71 19 -103.5t71 -32.5q53 0 72.5 32t19.5 104v459q0 23 -5.5 29.5t-33.5 9.5v38h127v-38q-27 -3 -32.5 -9.5
t-5.5 -29.5z" />
    <glyph glyph-name="V" unicode="V" horiz-adv-x="426" 
d="M296 0h-160v38q3 0 9.5 0.5t10.5 1.5t9 2.5t7.5 4.5t2.5 8q0 6 -21 111l-94 463q-4 21 -12.5 30t-25.5 11v38h114v-38q-2 0 -7.5 -0.5t-7.5 -1t-5.5 -1t-5 -1.5t-3.5 -2.5t-2.5 -3.5t-0.5 -5q0 -5 21 -107l89 -446h2l85 446q21 102 21 107q0 3 -0.5 5t-2.5 3.5t-3.5 2.5
t-5 1.5t-5.5 1t-7.5 1t-7.5 0.5v38h114v-38q-17 -2 -25.5 -11t-12.5 -30l-91 -463q-18 -90 -18 -111q0 -5 2.5 -8t7.5 -4.5t9 -2.5t10.5 -1.5t9.5 -0.5v-38z" />
    <glyph glyph-name="W" unicode="W" horiz-adv-x="648" 
d="M291 0h-117v38q22 7 24 13q0 10 -20 92l-108 479q-7 31 -14 39t-31 9v38h117v-38q-2 0 -6.5 -1t-7.5 -1.5t-6.5 -2t-5 -4t-1.5 -5.5q0 -9 17 -87l101 -473h2l65 264l-75 275q-6 22 -11 27t-22 8v38h109v-38q-28 -5 -28 -17q0 -4 19 -80l31 -130h2l31 130q19 76 19 80
q0 12 -28 17v38h109v-38q-17 -3 -22 -8t-11 -27l-75 -275l65 -264h2l101 473q17 78 17 87q0 3 -1.5 5.5t-5 4t-6.5 2t-7.5 1.5t-6.5 1v38h117v-38q-25 -1 -31.5 -8.5t-13.5 -39.5l-108 -479q-20 -83 -20 -92q0 -2 0.5 -4t2 -3t2.5 -2t4 -1.5t4.5 -1t5.5 -1t5 -0.5v-38h-117
v38q24 2 24 11t-22 94l-34 136h-2l-34 -136q-22 -85 -22 -94t24 -11v-38z" />
    <glyph glyph-name="X" unicode="X" horiz-adv-x="352" 
d="M128 0h-101v38q20 2 25.5 7.5t11.5 27.5l91 367l-43 181q-7 30 -13.5 37.5t-33.5 11.5v38h96v-38q-10 -2 -10 -8l8 -43l19 -97h2l23 97q8 36 8 41q0 8 -8 10v38h88v-38q-22 -2 -28.5 -7.5t-11.5 -28.5l-48 -194l88 -363q5 -21 11.5 -28.5t22.5 -10.5v-38h-107v38
q29 2 29 15q0 1 -13 63l-54 237h-2l-55 -230q-17 -62 -17 -69q0 -13 22 -16v-38z" />
    <glyph glyph-name="Y" unicode="Y" horiz-adv-x="352" 
d="M242 0h-132v38q29 3 35 9.5t6 29.5v482l-80 85q-24 24 -46 26v38h119v-38q-28 -4 -28 -9q0 -4 17 -21l44 -44l48 43q21 19 21 23q0 5 -33 8v38h114v-38q-9 -2 -15 -5.5t-13.5 -11t-11.5 -10.5l-86 -84v-482q0 -23 6 -29.5t35 -9.5v-38z" />
    <glyph glyph-name="Z" unicode="Z" horiz-adv-x="352" 
d="M295 0h-262l203 664h-26q-9 0 -16.5 -1.5t-13 -5.5t-8.5 -7t-8 -9.5t-7 -8.5l-29 16l20 60h151l-200 -664h75q13 0 23.5 0.5t20 2.5t15.5 3t13.5 5.5t11 5.5t10 6.5t8 6.5t8.5 8l8 8h27z" />
    <glyph glyph-name="bracketleft" unicode="[" horiz-adv-x="204" 
d="M184 -106h-114v814h114v-38h-64v-738h64v-38z" />
    <glyph glyph-name="backslash" unicode="\" horiz-adv-x="204" 
d="M193 -12h-47l-135 732h47z" />
    <glyph glyph-name="bracketright" unicode="]" horiz-adv-x="204" 
d="M134 -106h-114v38h64v738h-64v38h114v-814z" />
    <glyph glyph-name="asciicircum" unicode="^" 
d="M202 635l-121 -377h-54l149 450h54l149 -450h-54l-121 377h-2z" />
    <glyph glyph-name="underscore" unicode="_" horiz-adv-x="500" 
d="M0 -125v50h500v-50h-500z" />
    <glyph glyph-name="grave" unicode="`" horiz-adv-x="270" 
d="M181 764h-49l-90 145h75z" />
    <glyph glyph-name="a" unicode="a" horiz-adv-x="481" 
d="M164 0h-137v38q3 0 9 0.5t8 1t7 1.5t7 2t5.5 3t5 5t3.5 7.5t3 10t2 12.5l50 472q9 79 9 97q0 11 -8 14.5t-32 5.5v41q74 -3 146 -3q74 0 143 3v-41q-17 -1 -23.5 -2.5t-11.5 -5.5t-5 -12q0 -18 9 -97l56 -472q1 -9 2.5 -15.5t5 -11t5 -7.5t7 -4.5t7 -2t9 -1.5t8.5 -1v-38
h-131v38q16 1 22 2t11.5 7t5.5 17q-1 14 -4.5 43.5t-4.5 42.5l-47 406h-130l-42 -406q-1 -13 -4.5 -42.5t-4.5 -43.5q0 -11 5.5 -17t11.5 -7t22 -2v-38zM187 664l-7 -64h120l-6 64h-107z" />
    <glyph glyph-name="b" unicode="b" horiz-adv-x="426" 
d="M123 589h88q63 0 63 40q0 20 -14.5 27.5t-48.5 7.5h-88v-75zM123 545v-501q219 24 219 284q0 118 -47 174q-26 30 -56 36.5t-116 6.5zM93 0h-61v38q29 4 35 10t6 29v554q0 23 -6 29.5t-35 9.5v38h170q125 0 125 -76q0 -47 -38 -60q106 -71 106 -244q0 -79 -18.5 -139
t-47.5 -95t-70 -57t-80.5 -29.5t-85.5 -7.5z" />
    <glyph glyph-name="c" unicode="c" horiz-adv-x="370" 
d="M316 110l35 -29q-47 -93 -133 -93q-184 0 -184 378q0 68 10 128t30.5 112.5t58.5 83t89 30.5q22 0 28 2.5t6 12.5l29 11l42 -100l-32 -13q-34 39 -73 39q-58 0 -96.5 -83t-38.5 -231q0 -95 13 -165.5t43 -113.5t75 -43q34 0 59.5 22.5t38.5 51.5z" />
    <glyph glyph-name="d" unicode="d" horiz-adv-x="389" 
d="M110 654v-610h15q77 0 131.5 63.5t54.5 195.5q0 84 -23.5 153.5t-58 109.5t-65.5 62t-54 26zM22 670v38q72 0 128 -24t108 -78q106 -111 106 -303q0 -143 -64 -223t-196 -80h-82v38q27 4 32.5 10t5.5 29v554q0 23 -5.5 29.5t-32.5 9.5z" />
    <glyph glyph-name="e" unicode="e" horiz-adv-x="352" 
d="M170 0h-128v38q32 4 38.5 10t6.5 29v554q0 23 -6.5 29.5t-38.5 9.5v38h121q63 0 99 15l36 -68l-30 -17q-2 2 -8.5 7.5t-9.5 7.5t-9 5.5t-13.5 4.5t-16.5 1h-74v-86h94q23 0 29.5 6.5t7.5 21.5h30v-100h-30q-2 9 -4 14t-10 9.5t-21 4.5h-96v-490h103q13 0 23 2t17.5 7.5
t10.5 8.5t10 12.5t9 11.5l30 -20l-36 -78q-25 7 -68 10q-24 2 -66 2z" />
    <glyph glyph-name="f" unicode="f" horiz-adv-x="333" 
d="M176 0h-132v38q29 3 35 9.5t6 29.5v554q0 23 -6.5 29.5t-38.5 9.5v38h121q63 0 99 15l36 -68l-30 -17q-2 2 -8.5 7.5t-9.5 7.5t-9 5.5t-13.5 4.5t-16.5 1h-74v-86h94q23 0 29.5 6.5t7.5 21.5h30v-100h-30q-2 9 -4 14t-10 9.5t-21 4.5h-96v-457q0 -24 6 -30t35 -9v-38z
" />
    <glyph glyph-name="g" unicode="g" horiz-adv-x="389" 
d="M326 303v-315q-49 5 -99 35t-93.5 81t-71 133t-27.5 180q0 117 48 215q48 88 117 88q10 0 13.5 3t3.5 12l29 11l46 -106l-32 -13q-1 2 -5.5 7.5t-6 7.5l-5.5 7t-6.5 6.5t-6.5 5t-7 5t-7.5 3.5t-9 2.5t-9.5 0.5q-41 0 -75 -72t-34 -192q0 -97 29 -171t67 -113.5t92 -72.5
v252q0 23 -6 29.5t-35 9.5v38h132v-38q-29 -3 -35 -9.5t-6 -29.5z" />
    <glyph glyph-name="h" unicode="h" 
d="M159 0h-129v38q29 4 35 10.5t6 28.5v554q0 23 -6 29.5t-35 9.5v38h129v-38q-27 -3 -32.5 -9.5t-5.5 -29.5v-40h165v40q0 23 -5.5 29.5t-32.5 9.5v38h129v-38q-29 -3 -35 -9.5t-6 -29.5v-554q0 -22 6 -28.5t35 -10.5v-38h-129v38q27 4 32.5 10t5.5 29v470h-165v-470
q0 -23 5.5 -29t32.5 -10v-38z" />
    <glyph glyph-name="i" unicode="i" horiz-adv-x="204" 
d="M168 0h-132v38q29 4 35 10t6 29v554q0 23 -6 29.5t-35 9.5v38h132v-38q-29 -3 -35 -9.5t-6 -29.5v-554q0 -22 6 -28.5t35 -10.5v-38z" />
    <glyph glyph-name="j" unicode="j" horiz-adv-x="278" 
d="M212 631v-521q0 -122 -84 -122q-33 0 -68 29l-20 -7l-25 11l24 84l23 -7q7 -25 22 -43.5t35 -18.5q28 0 35.5 18t7.5 61v516q0 23 -6 29.5t-35 9.5v38h132v-38q-29 -3 -35 -9.5t-6 -29.5z" />
    <glyph glyph-name="k" unicode="k" horiz-adv-x="389" 
d="M153 0h-123v38q27 4 32.5 10t5.5 29v554q0 23 -5.5 29.5t-32.5 9.5v38h123v-38q-25 -3 -30 -9.5t-5 -29.5v-75l121 93q12 10 12 13q0 2 -1.5 3.5t-4.5 2.5t-5.5 1t-6 0.5t-5.5 0.5v38h113v-38q-17 -6 -50 -31l-65 -50q18 -262 59 -424q17 -68 34.5 -95.5t49.5 -31.5v-38
h-76q-38 68 -59 166q-33 156 -51 388l-65 -49v-428q0 -22 5 -28.5t30 -10.5v-38z" />
    <glyph glyph-name="l" unicode="l" horiz-adv-x="352" 
d="M185 0h-149v38q32 4 38 10t6 29v554q0 23 -6.5 29.5t-37.5 9.5v38h135v-38q-29 -3 -35 -9.5t-6 -29.5v-587h104q7 0 13 0.5t11.5 2.5t9 3t8 5t6.5 5.5t6 6.5t5 6.5l5 7.5t5 7l32 -20l-37 -80q-21 7 -53 9q-30 3 -60 3z" />
    <glyph glyph-name="m" unicode="m" horiz-adv-x="500" 
d="M165 0h-135v38q32 4 38 10t6 29v554q0 23 -6.5 29.5t-37.5 9.5v38h98l122 -105l122 105h98v-38q-31 -3 -37.5 -9.5t-6.5 -29.5v-554q0 -23 6 -29t38 -10v-38h-135v38q29 4 35 10.5t6 28.5v578l-126 -112l-126 112v-578q0 -22 6 -28.5t35 -10.5v-38z" />
    <glyph glyph-name="n" unicode="n" horiz-adv-x="426" 
d="M32 0v38q29 4 35 10t6 29v554q0 23 -6 29.5t-35 9.5v38h91v-10q0 -12 2.5 -16.5t14.5 -10.5l163 -91v51q0 23 -6 29.5t-35 9.5v38h132v-38q-29 -3 -35 -9.5t-6 -29.5v-554q0 -22 6 -28.5t35 -10.5v-38h-132v38q29 4 35 10t6 29v452l-180 102v-554q0 -22 6 -28.5t35 -10.5
v-38h-132z" />
    <glyph glyph-name="o" unicode="o" 
d="M209 -12q-85 0 -129 88.5t-44 233.5q0 192 39 301t121 109q83 0 129 -111.5t46 -298.5q0 -145 -41.5 -233.5t-120.5 -88.5zM89 310q0 -122 31 -198t89 -76q52 0 80.5 76t28.5 198q0 155 -33 258.5t-90 103.5q-52 0 -79 -101.5t-27 -260.5z" />
    <glyph glyph-name="p" unicode="p" horiz-adv-x="352" 
d="M127 589h91q31 0 45.5 8.5t14.5 29.5q0 37 -60 37h-91v-75zM127 545v-468q0 -22 6 -28.5t35 -10.5v-38h-132v38q29 4 35 10t6 29v554q0 23 -6 29.5t-35 9.5v38h182q113 0 113 -82q0 -81 -115 -81h-89z" />
    <glyph glyph-name="q" unicode="q" 
d="M371 9l31 -15q-18 -50 -65 -50q-28 0 -68 29l-13 10t-13 9.5t-11.5 5t-16.5 2.5q-34 0 -83 -54l-34 28q14 17 34 32q-95 68 -95 304q0 192 39 301t120 109q83 0 129 -111.5t46 -298.5q0 -123 -16.5 -182.5t-63.5 -111.5q28 -24 47 -24q16 0 33 17zM318 310
q0 155 -33 258.5t-90 103.5q-52 0 -78.5 -101t-26.5 -261q0 -228 85 -275q19 13 42 13q18 0 30 -4q38 31 54.5 87t16.5 179z" />
    <glyph glyph-name="r" unicode="r" 
d="M167 0h-132v38q29 4 35 10t6 29v554q0 23 -6 29.5t-35 9.5v38h182q113 0 113 -82q0 -62 -58 -78q0 -90 10 -220.5t27 -193.5q13 -51 28 -71.5t41 -24.5v-38h-76q-24 54 -39 110q-21 80 -31 208t-10 227h-96v-468q0 -22 6 -28.5t35 -10.5v-38zM126 589h91q31 0 45.5 8.5
t14.5 29.5q0 37 -60 37h-91v-75z" />
    <glyph glyph-name="s" unicode="s" horiz-adv-x="333" 
d="M217 640l-33 -12q-5 5 -14.5 13t-13 11.5t-10 8.5t-10 6.5t-8 3t-9.5 1.5q-14 0 -21.5 -8.5t-7.5 -20.5q0 -16 11 -37.5t41 -71t52 -90.5q107 -194 107 -299q0 -73 -41.5 -115t-101.5 -42q-41 0 -77 23l-18 -11h-26l-14 110l32 12q9 -20 15.5 -31.5t18.5 -26t29.5 -21.5
t39.5 -7q40 0 66.5 29.5t26.5 71.5q0 99 -97 274l-46 83.5l-38 67.5t-21 45t-9 42q0 33 19 52t51 19q7 0 23 -2l18 13h30z" />
    <glyph glyph-name="t" unicode="t" horiz-adv-x="333" 
d="M233 0h-132v38q29 3 35 9.5t6 29.5v587q-25 0 -37 -1.5t-26.5 -12.5t-24.5 -33l-32 11l33 86q55 -6 112 -6q38 0 112 6l33 -86l-32 -11q-10 22 -24.5 33t-26.5 12.5t-37 1.5v-587q0 -23 6 -29.5t35 -9.5v-38z" />
    <glyph glyph-name="u" unicode="u" 
d="M345 631v-455q0 -96 -30.5 -142t-113.5 -46q-80 0 -109 46t-29 142v455q0 23 -5.5 29.5t-32.5 9.5v38h127v-38q-28 -3 -33.5 -9.5t-5.5 -29.5v-459q0 -71 19 -103.5t71 -32.5q53 0 72.5 32t19.5 104v459q0 23 -5.5 29.5t-33.5 9.5v38h127v-38q-27 -3 -32.5 -9.5
t-5.5 -29.5z" />
    <glyph glyph-name="v" unicode="v" horiz-adv-x="426" 
d="M296 0h-160v38q3 0 9.5 0.5t10.5 1.5t9 2.5t7.5 4.5t2.5 8q0 6 -21 111l-94 463q-4 21 -12.5 30t-25.5 11v38h114v-38q-2 0 -7.5 -0.5t-7.5 -1t-5.5 -1t-5 -1.5t-3.5 -2.5t-2.5 -3.5t-0.5 -5q0 -5 21 -107l89 -446h2l85 446q21 102 21 107q0 3 -0.5 5t-2.5 3.5t-3.5 2.5
t-5 1.5t-5.5 1t-7.5 1t-7.5 0.5v38h114v-38q-17 -2 -25.5 -11t-12.5 -30l-91 -463q-18 -90 -18 -111q0 -5 2.5 -8t7.5 -4.5t9 -2.5t10.5 -1.5t9.5 -0.5v-38z" />
    <glyph glyph-name="w" unicode="w" horiz-adv-x="648" 
d="M291 0h-117v38q22 7 24 13q0 10 -20 92l-108 479q-7 31 -14 39t-31 9v38h117v-38q-2 0 -6.5 -1t-7.5 -1.5t-6.5 -2t-5 -4t-1.5 -5.5q0 -9 17 -87l101 -473h2l65 264l-75 275q-6 22 -11 27t-22 8v38h109v-38q-28 -5 -28 -17q0 -4 19 -80l31 -130h2l31 130q19 76 19 80
q0 12 -28 17v38h109v-38q-17 -3 -22 -8t-11 -27l-75 -275l65 -264h2l101 473q17 78 17 87q0 3 -1.5 5.5t-5 4t-6.5 2t-7.5 1.5t-6.5 1v38h117v-38q-25 -1 -31.5 -8.5t-13.5 -39.5l-108 -479q-20 -83 -20 -92q0 -2 0.5 -4t2 -3t2.5 -2t4 -1.5t4.5 -1t5.5 -1t5 -0.5v-38h-117
v38q24 2 24 11t-22 94l-34 136h-2l-34 -136q-22 -85 -22 -94t24 -11v-38z" />
    <glyph glyph-name="x" unicode="x" horiz-adv-x="352" 
d="M128 0h-101v38q20 2 25.5 7.5t11.5 27.5l91 367l-43 181q-7 30 -13.5 37.5t-33.5 11.5v38h96v-38q-10 -2 -10 -8l8 -43l19 -97h2l23 97q8 36 8 41q0 8 -8 10v38h88v-38q-22 -2 -28.5 -7.5t-11.5 -28.5l-48 -194l88 -363q5 -21 11.5 -28.5t22.5 -10.5v-38h-107v38
q29 2 29 15q0 1 -13 63l-54 237h-2l-55 -230q-17 -62 -17 -69q0 -13 22 -16v-38z" />
    <glyph glyph-name="y" unicode="y" horiz-adv-x="352" 
d="M242 0h-132v38q29 3 35 9.5t6 29.5v482l-80 85q-24 24 -46 26v38h119v-38q-28 -4 -28 -9q0 -4 17 -21l44 -44l48 43q21 19 21 23q0 5 -33 8v38h114v-38q-9 -2 -15 -5.5t-13.5 -11t-11.5 -10.5l-86 -84v-482q0 -23 6 -29.5t35 -9.5v-38z" />
    <glyph glyph-name="z" unicode="z" horiz-adv-x="352" 
d="M295 0h-262l203 664h-26q-9 0 -16.5 -1.5t-13 -5.5t-8.5 -7t-8 -9.5t-7 -8.5l-29 16l20 60h151l-200 -664h75q13 0 23.5 0.5t20 2.5t15.5 3t13.5 5.5t11 5.5t10 6.5t8 6.5t8.5 8l8 8h27z" />
    <glyph glyph-name="braceleft" unicode="{" horiz-adv-x="260" 
d="M38 281v38q72 1 72 137v144q0 50 22.5 79t65.5 29h42v-38h-40q-40 0 -40 -86v-142q1 -46 -17 -87t-53 -54v-2q34 -13 52.5 -54t17.5 -86v-141q0 -86 40 -86h40v-38h-42q-43 0 -65.5 29t-22.5 79v142q0 136 -72 137z" />
    <glyph glyph-name="bar" unicode="|" horiz-adv-x="333" 
d="M140 -250v1000h53v-1000h-53z" />
    <glyph glyph-name="braceright" unicode="}" horiz-adv-x="260" 
d="M222 321v-38q-72 -1 -72 -137v-144q0 -50 -22.5 -79t-65.5 -29h-42v38h40q40 0 40 86v142q-1 46 17 87t53 54v2q-34 13 -52.5 54t-17.5 86v141q0 86 -40 86h-40v38h42q43 0 65.5 -29t22.5 -79v-142q0 -136 72 -137z" />
    <glyph glyph-name="asciitilde" unicode="~" horiz-adv-x="556" 
d="M48 176h-35q0 56 35.5 98.5t98.5 42.5q41 0 92 -27.5l101 -54.5t88 -27q36 0 56 26.5t24 64.5h35q0 -56 -35.5 -98.5t-98.5 -42.5q-49 0 -142 54.5t-139 54.5q-36 0 -56 -26.5t-24 -64.5z" />
    <glyph glyph-name="uni00A0" unicode="&#xa0;" horiz-adv-x="204" 
 />
    <glyph glyph-name="exclamdown" unicode="&#xa1;" horiz-adv-x="204" 
d="M159 0h-112v50q23 2 27.5 7t4.5 34l6 466h36l6 -466q0 -29 4.5 -34t27.5 -7v-50zM103 623q-16 0 -24.5 15t-8.5 35q0 18 9 32.5t24 14.5t24 -14.5t9 -32.5q0 -20 -8.5 -35t-24.5 -15z" />
    <glyph glyph-name="cent" unicode="&#xa2;" 
d="M189 193v46q-15 4 -29 14t-31.5 31.5t-28.5 65t-11 102.5q0 182 100 214v54h40v-52l21 -7l15 27l31 6l25 -102l-30 -12q-25 37 -62 44v-344q23 0 44.5 19.5t32.5 41.5l31 -33q-44 -68 -108 -72v-43h-40zM189 283v335q-16 -11 -25 -23t-17 -46.5t-8 -90.5q0 -143 50 -175z
" />
    <glyph glyph-name="sterling" unicode="&#xa3;" 
d="M29 -9v56l15 17l17.5 22.5l17.5 22.5t19 27t17.5 28.5t17.5 32l13.5 32.5t12.5 36.5t7 37t3 40.5q0 27 -9 67h-117v48h99l-15 29t-17 33.5t-12.5 29t-11 33t-3.5 26.5q0 47 34 79t95 32q39 0 88 -29l8 22h32l19 -102l-33 -9q-67 70 -115 70q-36 0 -55.5 -17t-19.5 -45
q0 -25 29 -86.5t30 -65.5h128v-48h-110q9 -45 9 -75q0 -118 -104 -253q-3 -4 -34 -43q50 9 106 9q20 0 65 -4.5t61 -4.5q7 0 13 1t11 3.5l8 4t7 6.5t5 6t5.5 8t5.5 8l28 -17l-38 -68q-75 9 -162 9q-69 0 -170 -9z" />
    <glyph glyph-name="currency" unicode="&#xa4;" horiz-adv-x="518" 
d="M53 118l-30 30l67 67q-47 51 -47 136q0 79 48 138l-70 70l32 31l69 -68q64 46 137 46q72 0 136 -46l69 68l32 -31l-70 -70q48 -49 48 -138q0 -83 -47 -136l67 -67l-30 -30l-66 66q-63 -47 -139 -47q-80 0 -140 47zM259 527q-72 0 -123.5 -52t-51.5 -124t51.5 -122.5
t123.5 -50.5q71 0 122.5 51t51.5 122q0 72 -51 124t-123 52z" />
    <glyph glyph-name="yen" unicode="&#xa5;" 
d="M180 77v238h-126v44h126v63h-126v44h126v93l-80 85q-24 24 -46 26v38h119v-38q-28 -4 -28 -9q0 -4 17 -21l44 -44l48 43q21 19 21 23q0 5 -33 8v38h114v-38q-9 -2 -15 -5.5t-13.5 -11t-11.5 -10.5l-86 -84v-93h126v-44h-126v-63h126v-44h-126v-238q0 -23 6 -29.5t35 -9.5
v-38h-132v38q29 3 35 9.5t6 29.5z" />
    <glyph glyph-name="brokenbar" unicode="&#xa6;" horiz-adv-x="333" 
d="M140 325v350h53v-350h-53zM140 -175v350h53v-350h-53z" />
    <glyph glyph-name="section" unicode="&#xa7;" 
d="M214 500l82 -132q31 -53 31 -80q0 -28 -18.5 -46.5t-41.5 -18.5q-1 0 -22 3q68 -101 78 -127q9 -21 9 -42q0 -58 -37 -97t-95 -39q-26 0 -48 8.5t-29.5 14.5t-29.5 25l-16 -20h-25l-5 130h32q12 -29 18 -41.5t20.5 -33.5t32.5 -30t43 -9q38 0 63.5 26.5t25.5 63.5
q0 12 -7 28t-12.5 25.5t-20.5 31.5t-18 26l-94 143l-13 19t-15 22.5t-11 19.5t-9.5 24.5t-2.5 22.5q0 29 19 49t46 20l21 -3l-28 48t-19 44.5t-10 52.5q0 42 20.5 67t52.5 25q45 0 82 -37l14 25h26l8 -129h-33q-43 97 -84 97q-14 0 -25 -12.5t-11 -32.5q0 -44 56 -131z
M148 381l51 -82q24 -38 42 -38q13 0 23 9t10 21q0 10 -14 36l-51 81q-1 2 -5 8l-6 9t-6.5 8.5t-8 8t-9 4.5t-11.5 2q-13 0 -22 -9t-9 -21q0 -14 16 -37z" />
    <glyph glyph-name="dieresis" unicode="&#xa8;" horiz-adv-x="270" 
d="M69 764q-17 0 -26.5 18t-9.5 40t9.5 40t26.5 18t26.5 -18t9.5 -40t-9.5 -40t-26.5 -18zM201 764q-17 0 -26.5 18t-9.5 40t9.5 40t26.5 18t26.5 -18t9.5 -40t-9.5 -40t-26.5 -18z" />
    <glyph glyph-name="copyright" unicode="&#xa9;" horiz-adv-x="800" 
d="M531 285l34 2q-10 -78 -49 -118t-116 -40q-85 0 -138.5 62t-53.5 157q0 100 56.5 166.5t132.5 66.5q36 0 67 -13t39 -13q6 0 11 2.5t7.5 5.5t6.5 8.5t6 7.5h24v-166l-24 -4q-34 139 -122 139q-129 0 -129 -200q0 -84 34.5 -133.5t98.5 -49.5q52 0 78 32t37 88zM400 -12
q-154 0 -262 106.5t-108 259.5t108 259.5t262 106.5t262 -106.5t108 -259.5t-108 -259.5t-262 -106.5zM82 354q0 -130 93.5 -224t224.5 -94t224.5 94t93.5 224q0 131 -93 224.5t-225 93.5t-225 -93.5t-93 -224.5z" />
    <glyph glyph-name="ordfeminine" unicode="&#xaa;" 
d="M247 361v29h-2q-11 -32 -45 -32q-33 0 -57.5 32.5t-24.5 108.5q0 73 21.5 115t58.5 42q15 0 31 -8q-14 43 -41 43q-10 0 -10 -17l-22 -12l-19 39l21 17l17 -4q12 6 23 6q80 0 80 -198v-111q0 -9 2 -14.5t3 -6t7 -4.5v-25h-43zM156 513q0 -113 40 -113q20 0 32 30.5
t12 82.5q0 107 -39 107q-19 0 -32 -32.5t-13 -74.5z" />
    <glyph glyph-name="guillemotleft" unicode="&#xab;" 
d="M351 157h-50l-119 203l111 186h50l-111 -186zM211 157h-50l-119 203l111 186h50l-111 -186z" />
    <glyph glyph-name="logicalnot" unicode="&#xac;" horiz-adv-x="556" 
d="M24 289v56h508v-201h-56v145h-452z" />
    <glyph glyph-name="uni00AD" unicode="&#xad;" horiz-adv-x="204" 
d="M55 310h-48l40 71h88l10 17h52l-39 -68h-91z" />
    <glyph glyph-name="registered" unicode="&#xae;" horiz-adv-x="500" 
d="M134 371v19q23 2 30 8.5t7 31.5v143q0 23 -6 28t-31 8v20h122q53 0 81 -13.5t28 -51.5q0 -23 -14 -37.5t-25.5 -18.5t-33.5 -9q27 -16 38.5 -39.5t15.5 -38t14 -14.5q16 0 16 33h20q0 -24 -12 -46.5t-41 -22.5t-42.5 19t-15 42t-12.5 42t-36 19h-11v-60q0 -28 5.5 -33.5
t32.5 -9.5v-19h-130zM226 571v-57h21q57 0 57 45q0 50 -43 50q-16 0 -24 -5t-9.5 -11.5t-1.5 -21.5zM250 270q-95 0 -164.5 65.5t-69.5 159.5t69.5 159.5t164.5 65.5t164.5 -65.5t69.5 -159.5t-69.5 -159.5t-164.5 -65.5zM51 495q0 -79 58.5 -134.5t140.5 -55.5t140.5 55.5
t58.5 134.5t-58.5 134.5t-140.5 55.5t-140.5 -55.5t-58.5 -134.5z" />
    <glyph glyph-name="macron" unicode="&#xaf;" horiz-adv-x="270" 
d="M257 791h-244v64h244v-64z" />
    <glyph glyph-name="degree" unicode="&#xb0;" 
d="M204 390q-68 0 -116.5 48.5t-48.5 116.5q0 67 48.5 116t116.5 49t116.5 -49t48.5 -116q0 -68 -48.5 -116.5t-116.5 -48.5zM317 555q0 47 -33 81t-80 34t-80 -33.5t-33 -81.5t33 -81.5t80 -33.5t80 34t33 81z" />
    <glyph glyph-name="plusminus" unicode="&#xb1;" horiz-adv-x="556" 
d="M306 99h-56v167h-226v56h226v167h56v-167h226v-56h-226v-167zM532 -12h-508v56h508v-56z" />
    <glyph glyph-name="twosuperior" unicode="&#xb2;" horiz-adv-x="259" 
d="M32 303v46q1 2 12 17.5t16 23.5l17 26l19.5 30l18.5 31t18 33l15.5 31.5t13.5 31t8 28t3 25.5q0 25 -13.5 37.5t-33.5 12.5q-11 0 -21 -7t-10 -18l-13 -14l-39 35l11 23q19 0 38.5 12.5t39.5 12.5q40 0 64.5 -22.5t24.5 -65.5q0 -91 -136 -283h62q16 0 33 19l23 -8
l-15 -57q-62 2 -85 2q-25 0 -71 -2z" />
    <glyph glyph-name="threesuperior" unicode="&#xb3;" horiz-adv-x="259" 
d="M44 302l-25 15l37 58l17 -11q5 -27 34 -27q12 0 24 5t25.5 26t14.5 56q0 74 -31.5 116t-67.5 54v30q64 0 64 31q0 12 -8.5 19.5t-19.5 7.5q-17 0 -38 -12l-25 14l21 41l18 -13q14 4 22 6q14 2 21 2q25 0 41 -19t16 -47q0 -34 -40 -52l11.5 -12t14.5 -16t13.5 -18
t14 -24.5t10.5 -29t8.5 -38.5t2.5 -46q0 -60 -30 -92.5t-71 -32.5q-27 0 -59 16z" />
    <glyph glyph-name="acute" unicode="&#xb4;" horiz-adv-x="270" 
d="M143 764h-46l59 145h75z" />
    <glyph glyph-name="mu" unicode="&#xb5;" horiz-adv-x="576" 
d="M93 502h56v-320q0 -65 36 -103.5t98 -38.5q65 0 104.5 52t39.5 122v288h56v-502h-56v80h-4q-52 -92 -152 -92q-78 0 -120 56h-2v-236h-56v694z" />
    <glyph glyph-name="paragraph" unicode="&#xb6;" 
d="M207 -217v461q-23 8 -36.5 14t-37 18.5t-38 28.5t-30 39t-23 55t-7.5 71q0 111 76 174.5t211 63.5h60v-38h-47v-887h-35v887h-57v-887h-36z" />
    <glyph glyph-name="periodcentered" unicode="&#xb7;" horiz-adv-x="204" 
d="M67 352q0 23 8.5 40t25.5 17q18 0 27 -17.5t9 -39.5q0 -20 -9.5 -36.5t-26.5 -16.5t-25.5 16t-8.5 37z" />
    <glyph glyph-name="cedilla" unicode="&#xb8;" horiz-adv-x="270" 
d="M44 -176l13 32q33 -7 56 -7q24 0 40 10.5t16 25.5q0 25 -36 25q-19 0 -46 -9l34 120h43l-22 -77q22 0 36 -2.5t27.5 -16t13.5 -38.5q0 -31 -31.5 -53.5t-72.5 -22.5q-36 0 -71 13z" />
    <glyph glyph-name="onesuperior" unicode="&#xb9;" horiz-adv-x="259" 
d="M113 366v286l-27 -10l-16 18l55 49h36v-343q0 -15 4 -18.5t19 -4.5h7v-38h-105v38q22 2 25 6q2 4 2 17z" />
    <glyph glyph-name="ordmasculine" unicode="&#xba;" 
d="M157 514q0 -60 10 -89.5t36 -29.5q27 0 36.5 29.5t9.5 89.5q0 169 -46 169t-46 -169zM203 358q-84 0 -84 156q0 104 19.5 155t64.5 51t64.5 -51t19.5 -155q0 -156 -84 -156z" />
    <glyph glyph-name="guillemotright" unicode="&#xbb;" 
d="M114 157h-50l111 186l-119 203h50l119 -203zM254 157h-50l111 186l-119 203h50l119 -203z" />
    <glyph glyph-name="onequarter" unicode="&#xbc;" horiz-adv-x="556" 
d="M472 342v-167h57v-44h-57v-70q0 -15 4 -18.5t19 -4.5h7v-38h-103v38q22 2 25 6q2 4 2 17v70h-109l23 102l-20 13l21 30l29 -16l12 -20l-14 -65h58v167q0 15 -3.5 18.5t-17.5 4.5h-6v38h103v-38q-25 -2 -28 -6q-2 -4 -2 -17zM136 -12l182 732h52l-182 -732h-52zM69 366
v286l-27 -10l-16 18l55 49h36v-343q0 -15 4 -18.5t19 -4.5h7v-38h-105v38q22 2 25 6q2 4 2 17z" />
    <glyph glyph-name="onehalf" unicode="&#xbd;" horiz-adv-x="556" 
d="M136 -12l182 732h52l-182 -732h-52zM66 366v286l-27 -10l-16 18l55 49h36v-343q0 -15 4 -18.5t19 -4.5h7v-38h-105v38q22 2 25 6q2 4 2 17zM342 -2v46q1 2 12 17.5t16 23.5l17 26l19.5 30l18.5 31t18 33l15.5 31.5t13.5 31t8 28t3 25.5q0 25 -13.5 37.5t-33.5 12.5
q-11 0 -21 -7t-10 -18l-13 -14l-39 35l11 23q19 0 38.5 12.5t39.5 12.5q40 0 64.5 -22.5t24.5 -65.5q0 -91 -136 -283h62q16 0 33 19l23 -8l-15 -57q-62 2 -85 2q-25 0 -71 -2z" />
    <glyph glyph-name="threequarters" unicode="&#xbe;" horiz-adv-x="556" 
d="M484 342v-167h52v-44h-52v-70q0 -15 4 -18.5t19 -4.5h7v-38h-103v38q22 2 25 6q2 4 2 17v70h-94l23 102l-20 13l21 30l29 -16l12 -20l-14 -65h43v167q0 15 -3.5 18.5t-17.5 4.5h-6v38h103v-38q-25 -2 -28 -6q-2 -4 -2 -17zM178 -12l182 732h52l-182 -732h-52zM51 302
l-25 15l37 58l17 -11q5 -27 34 -27q12 0 24 5t25.5 26t14.5 56q0 74 -31.5 116t-67.5 54v30q64 0 64 31q0 12 -8.5 19.5t-19.5 7.5q-17 0 -38 -12l-25 14l21 41l18 -13q14 4 22 6q14 2 21 2q24 0 40.5 -20.5t16.5 -45.5q0 -34 -40 -52l11.5 -12t14.5 -16t13.5 -18t14 -24.5
t10.5 -29t8.5 -38.5t2.5 -46q0 -60 -30 -92.5t-71 -32.5q-27 0 -59 16z" />
    <glyph glyph-name="questiondown" unicode="&#xbf;" horiz-adv-x="296" 
d="M179 557h40v-38q0 -52 -21 -108t-46.5 -97.5t-46.5 -95.5t-21 -103q0 -35 16.5 -57t45.5 -22q7 0 13.5 1.5t11 3.5t9.5 6t7.5 6.5t7 9t6 9l5.5 9.5t5 9l39 -14l-36 -97q-28 13 -39 13q-1 0 -13 -2t-20 -2q-48 0 -78 34t-30 88q0 61 26 123.5t59.5 120t42.5 85.5
q17 51 17 118zM196 720q15 0 24 -14.5t9 -32.5q0 -20 -8.5 -35t-24.5 -15t-24.5 15t-8.5 35q0 18 9 32.5t24 14.5z" />
    <glyph glyph-name="Agrave" unicode="&#xc0;" horiz-adv-x="481" 
d="M164 0h-137v38q3 0 9 0.5t8 1t7 1.5t7 2t5.5 3t5 5t3.5 7.5t3 10t2 12.5l50 472q9 79 9 97q0 11 -8 14.5t-32 5.5v41q74 -3 146 -3q74 0 143 3v-41q-17 -1 -23.5 -2.5t-11.5 -5.5t-5 -12q0 -18 9 -97l56 -472q1 -9 2.5 -15.5t5 -11t5 -7.5t7 -4.5t7 -2t9 -1.5t8.5 -1v-38
h-131v38q16 1 22 2t11.5 7t5.5 17q-1 14 -4.5 43.5t-4.5 42.5l-47 406h-130l-42 -406q-1 -13 -4.5 -42.5t-4.5 -43.5q0 -11 5.5 -17t11.5 -7t22 -2v-38zM187 664l-7 -64h120l-6 64h-107zM287 764h-49l-90 145h75z" />
    <glyph glyph-name="Aacute" unicode="&#xc1;" horiz-adv-x="481" 
d="M164 0h-137v38q3 0 9 0.5t8 1t7 1.5t7 2t5.5 3t5 5t3.5 7.5t3 10t2 12.5l50 472q9 79 9 97q0 11 -8 14.5t-32 5.5v41q74 -3 146 -3q74 0 143 3v-41q-17 -1 -23.5 -2.5t-11.5 -5.5t-5 -12q0 -18 9 -97l56 -472q1 -9 2.5 -15.5t5 -11t5 -7.5t7 -4.5t7 -2t9 -1.5t8.5 -1v-38
h-131v38q16 1 22 2t11.5 7t5.5 17q-1 14 -4.5 43.5t-4.5 42.5l-47 406h-130l-42 -406q-1 -13 -4.5 -42.5t-4.5 -43.5q0 -11 5.5 -17t11.5 -7t22 -2v-38zM187 664l-7 -64h120l-6 64h-107zM249 764h-46l59 145h75z" />
    <glyph glyph-name="Acircumflex" unicode="&#xc2;" horiz-adv-x="481" 
d="M164 0h-137v38q3 0 9 0.5t8 1t7 1.5t7 2t5.5 3t5 5t3.5 7.5t3 10t2 12.5l50 472q9 79 9 97q0 11 -8 14.5t-32 5.5v41q74 -3 146 -3q74 0 143 3v-41q-17 -1 -23.5 -2.5t-11.5 -5.5t-5 -12q0 -18 9 -97l56 -472q1 -9 2.5 -15.5t5 -11t5 -7.5t7 -4.5t7 -2t9 -1.5t8.5 -1v-38
h-131v38q16 1 22 2t11.5 7t5.5 17q-1 14 -4.5 43.5t-4.5 42.5l-47 406h-130l-42 -406q-1 -13 -4.5 -42.5t-4.5 -43.5q0 -11 5.5 -17t11.5 -7t22 -2v-38zM187 664l-7 -64h120l-6 64h-107zM169 764h-50l82 135h80l82 -135h-50l-72 84z" />
    <glyph glyph-name="Atilde" unicode="&#xc3;" horiz-adv-x="481" 
d="M164 0h-137v38q3 0 9 0.5t8 1t7 1.5t7 2t5.5 3t5 5t3.5 7.5t3 10t2 12.5l50 472q9 79 9 97q0 11 -8 14.5t-32 5.5v41q74 -3 146 -3q74 0 143 3v-41q-17 -1 -23.5 -2.5t-11.5 -5.5t-5 -12q0 -18 9 -97l56 -472q1 -9 2.5 -15.5t5 -11t5 -7.5t7 -4.5t7 -2t9 -1.5t8.5 -1v-38
h-131v38q16 1 22 2t11.5 7t5.5 17q-1 14 -4.5 43.5t-4.5 42.5l-47 406h-130l-42 -406q-1 -13 -4.5 -42.5t-4.5 -43.5q0 -11 5.5 -17t11.5 -7t22 -2v-38zM187 664l-7 -64h120l-6 64h-107zM170 769h-44q0 105 70 105q27 0 54 -31q2 -3 7.5 -9t8.5 -8.5t7 -6.5t7.5 -5.5
t6.5 -1.5q4 0 7 1.5t5 4t4 5.5t3 8t2 8.5t1.5 9.5t1 9.5t1 9.5t0.5 9h44q0 -46 -16 -79.5t-52 -33.5q-25 0 -56 31q-27 31 -38 31q-24 0 -24 -57z" />
    <glyph glyph-name="Adieresis" unicode="&#xc4;" horiz-adv-x="481" 
d="M164 0h-137v38q3 0 9 0.5t8 1t7 1.5t7 2t5.5 3t5 5t3.5 7.5t3 10t2 12.5l50 472q9 79 9 97q0 11 -8 14.5t-32 5.5v41q74 -3 146 -3q74 0 143 3v-41q-17 -1 -23.5 -2.5t-11.5 -5.5t-5 -12q0 -18 9 -97l56 -472q1 -9 2.5 -15.5t5 -11t5 -7.5t7 -4.5t7 -2t9 -1.5t8.5 -1v-38
h-131v38q16 1 22 2t11.5 7t5.5 17q-1 14 -4.5 43.5t-4.5 42.5l-47 406h-130l-42 -406q-1 -13 -4.5 -42.5t-4.5 -43.5q0 -11 5.5 -17t11.5 -7t22 -2v-38zM187 664l-7 -64h120l-6 64h-107zM175 764q-17 0 -26.5 18t-9.5 40t9.5 40t26.5 18t26.5 -18t9.5 -40t-9.5 -40
t-26.5 -18zM307 764q-17 0 -26.5 18t-9.5 40t9.5 40t26.5 18t26.5 -18t9.5 -40t-9.5 -40t-26.5 -18z" />
    <glyph glyph-name="Aring" unicode="&#xc5;" horiz-adv-x="481" 
d="M164 0h-137v38q3 0 9 0.5t8 1t7 1.5t7 2t5.5 3t5 5t3.5 7.5t3 10t2 12.5l50 472q9 79 9 97q0 11 -8 14.5t-32 5.5v41q74 -3 146 -3q74 0 143 3v-41q-17 -1 -23.5 -2.5t-11.5 -5.5t-5 -12q0 -18 9 -97l56 -472q1 -9 2.5 -15.5t5 -11t5 -7.5t7 -4.5t7 -2t9 -1.5t8.5 -1v-38
h-131v38q16 1 22 2t11.5 7t5.5 17q-1 14 -4.5 43.5t-4.5 42.5l-47 406h-130l-42 -406q-1 -13 -4.5 -42.5t-4.5 -43.5q0 -11 5.5 -17t11.5 -7t22 -2v-38zM187 664l-7 -64h120l-6 64h-107zM153 836q0 36 25.5 62t62.5 26q36 0 62 -26t26 -62q0 -37 -26 -62.5t-62 -25.5
q-37 0 -62.5 25.5t-25.5 62.5zM241 889q-22 0 -37.5 -15.5t-15.5 -37.5t15.5 -37.5t37.5 -15.5t37.5 15.5t15.5 37.5t-15.5 37.5t-37.5 15.5z" />
    <glyph glyph-name="AE" unicode="&#xc6;" horiz-adv-x="593" 
d="M27 0v38q3 0 9 0.5t8 1t7 1.5t7 2t5.5 3t5 5t3.5 7.5t3 10t2 12.5l50 472q9 79 9 96q0 4 -0.5 6.5t-1.5 4.5t-3 3t-3.5 2t-5.5 1.5t-7 1t-9 1t-10 1.5v38h299q62 0 98 15l36 -68l-30 -17q-2 2 -8.5 7.5t-9.5 7.5t-9 5.5t-13.5 4.5t-16.5 1h-74v-86h94q23 0 29.5 6.5
t7.5 21.5h30v-100h-30q-2 9 -4 14t-10 9.5t-21 4.5h-96v-490h103q13 0 23 2t17.5 7.5t10.5 8.5t10 12.5t9 11.5l30 -20l-36 -78q-25 7 -68 10q-24 2 -66 2h-128v38q32 4 38.5 10t6.5 29v457h-144l-40 -384q-1 -13 -4.5 -42.5t-4.5 -43.5q0 -11 5.5 -17t11.5 -7t22 -2v-38
h-137zM179 578h139v86h-131z" />
    <glyph glyph-name="Ccedilla" unicode="&#xc7;" horiz-adv-x="370" 
d="M316 110l35 -29q-41 -83 -115 -92l-13 -45q22 0 36 -2.5t27.5 -16t13.5 -38.5q0 -31 -31.5 -53.5t-72.5 -22.5q-36 0 -71 13l13 32q33 -7 56 -7q24 0 40 10.5t16 25.5q0 25 -36 25q-19 0 -46 -9l26 89q-160 27 -160 376q0 68 10 128t30.5 112.5t58.5 83t89 30.5
q22 0 28 2.5t6 12.5l29 11l42 -100l-32 -13q-34 39 -73 39q-58 0 -96.5 -83t-38.5 -231q0 -95 13 -165.5t43 -113.5t75 -43q34 0 59.5 22.5t38.5 51.5z" />
    <glyph glyph-name="Egrave" unicode="&#xc8;" horiz-adv-x="352" 
d="M170 0h-128v38q32 4 38.5 10t6.5 29v554q0 23 -6.5 29.5t-38.5 9.5v38h121q63 0 99 15l36 -68l-30 -17q-2 2 -8.5 7.5t-9.5 7.5t-9 5.5t-13.5 4.5t-16.5 1h-74v-86h94q23 0 29.5 6.5t7.5 21.5h30v-100h-30q-2 9 -4 14t-10 9.5t-21 4.5h-96v-490h103q13 0 23 2t17.5 7.5
t10.5 8.5t10 12.5t9 11.5l30 -20l-36 -78q-25 7 -68 10q-24 2 -66 2zM222 764h-49l-90 145h75z" />
    <glyph glyph-name="Eacute" unicode="&#xc9;" horiz-adv-x="352" 
d="M170 0h-128v38q32 4 38.5 10t6.5 29v554q0 23 -6.5 29.5t-38.5 9.5v38h121q63 0 99 15l36 -68l-30 -17q-2 2 -8.5 7.5t-9.5 7.5t-9 5.5t-13.5 4.5t-16.5 1h-74v-86h94q23 0 29.5 6.5t7.5 21.5h30v-100h-30q-2 9 -4 14t-10 9.5t-21 4.5h-96v-490h103q13 0 23 2t17.5 7.5
t10.5 8.5t10 12.5t9 11.5l30 -20l-36 -78q-25 7 -68 10q-24 2 -66 2zM184 764h-46l59 145h75z" />
    <glyph glyph-name="Ecircumflex" unicode="&#xca;" horiz-adv-x="352" 
d="M170 0h-128v38q32 4 38.5 10t6.5 29v554q0 23 -6.5 29.5t-38.5 9.5v38h121q63 0 99 15l36 -68l-30 -17q-2 2 -8.5 7.5t-9.5 7.5t-9 5.5t-13.5 4.5t-16.5 1h-74v-86h94q23 0 29.5 6.5t7.5 21.5h30v-100h-30q-2 9 -4 14t-10 9.5t-21 4.5h-96v-490h103q13 0 23 2t17.5 7.5
t10.5 8.5t10 12.5t9 11.5l30 -20l-36 -78q-25 7 -68 10q-24 2 -66 2zM104 764h-50l82 135h80l82 -135h-50l-72 84z" />
    <glyph glyph-name="Edieresis" unicode="&#xcb;" horiz-adv-x="352" 
d="M170 0h-128v38q32 4 38.5 10t6.5 29v554q0 23 -6.5 29.5t-38.5 9.5v38h121q63 0 99 15l36 -68l-30 -17q-2 2 -8.5 7.5t-9.5 7.5t-9 5.5t-13.5 4.5t-16.5 1h-74v-86h94q23 0 29.5 6.5t7.5 21.5h30v-100h-30q-2 9 -4 14t-10 9.5t-21 4.5h-96v-490h103q13 0 23 2t17.5 7.5
t10.5 8.5t10 12.5t9 11.5l30 -20l-36 -78q-25 7 -68 10q-24 2 -66 2zM110 764q-17 0 -26.5 18t-9.5 40t9.5 40t26.5 18t26.5 -18t9.5 -40t-9.5 -40t-26.5 -18zM242 764q-17 0 -26.5 18t-9.5 40t9.5 40t26.5 18t26.5 -18t9.5 -40t-9.5 -40t-26.5 -18z" />
    <glyph glyph-name="Igrave" unicode="&#xcc;" horiz-adv-x="204" 
d="M168 0h-132v38q29 4 35 10t6 29v554q0 23 -6 29.5t-35 9.5v38h132v-38q-29 -3 -35 -9.5t-6 -29.5v-554q0 -22 6 -28.5t35 -10.5v-38zM148 764h-49l-90 145h75z" />
    <glyph glyph-name="Iacute" unicode="&#xcd;" horiz-adv-x="204" 
d="M168 0h-132v38q29 4 35 10t6 29v554q0 23 -6 29.5t-35 9.5v38h132v-38q-29 -3 -35 -9.5t-6 -29.5v-554q0 -22 6 -28.5t35 -10.5v-38zM110 764h-46l59 145h75z" />
    <glyph glyph-name="Icircumflex" unicode="&#xce;" horiz-adv-x="204" 
d="M168 0h-132v38q29 4 35 10t6 29v554q0 23 -6 29.5t-35 9.5v38h132v-38q-29 -3 -35 -9.5t-6 -29.5v-554q0 -22 6 -28.5t35 -10.5v-38zM30 764h-50l82 135h80l82 -135h-50l-72 84z" />
    <glyph glyph-name="Idieresis" unicode="&#xcf;" horiz-adv-x="204" 
d="M168 0h-132v38q29 4 35 10t6 29v554q0 23 -6 29.5t-35 9.5v38h132v-38q-29 -3 -35 -9.5t-6 -29.5v-554q0 -22 6 -28.5t35 -10.5v-38zM36 764q-17 0 -26.5 18t-9.5 40t9.5 40t26.5 18t26.5 -18t9.5 -40t-9.5 -40t-26.5 -18zM168 764q-17 0 -26.5 18t-9.5 40t9.5 40
t26.5 18t26.5 -18t9.5 -40t-9.5 -40t-26.5 -18z" />
    <glyph glyph-name="Eth" unicode="&#xd0;" 
d="M119 0h-82v38q27 4 32.5 9.5t5.5 27.5v235h-51v44h51v277q0 23 -5.5 29.5t-32.5 9.5v38q72 0 128 -24t108 -78q106 -111 106 -303q0 -143 -64 -223t-196 -80zM125 44h15q77 0 131.5 63.5t54.5 195.5q0 84 -23.5 153.5t-58 109.5t-65.5 62t-54 26v-300h89v-44h-89v-266z
" />
    <glyph glyph-name="Ntilde" unicode="&#xd1;" horiz-adv-x="426" 
d="M32 0v38q29 4 35 10t6 29v554q0 23 -6 29.5t-35 9.5v38h91v-10q0 -12 2.5 -16.5t14.5 -10.5l163 -91v51q0 23 -6 29.5t-35 9.5v38h132v-38q-29 -3 -35 -9.5t-6 -29.5v-554q0 -22 6 -28.5t35 -10.5v-38h-132v38q29 4 35 10t6 29v452l-180 102v-554q0 -22 6 -28.5t35 -10.5
v-38h-132zM142 769h-44q0 105 70 105q27 0 54 -31q2 -3 7.5 -9t8.5 -8.5t7 -6.5t7.5 -5.5t6.5 -1.5q4 0 7 1.5t5 4t4 5.5t3 8t2 8.5t1.5 9.5t1 9.5t1 9.5t0.5 9h44q0 -46 -16 -79.5t-52 -33.5q-25 0 -56 31q-27 31 -38 31q-24 0 -24 -57z" />
    <glyph glyph-name="Ograve" unicode="&#xd2;" 
d="M209 -12q-85 0 -129 88.5t-44 233.5q0 192 39 301t121 109q83 0 129 -111.5t46 -298.5q0 -145 -41.5 -233.5t-120.5 -88.5zM89 310q0 -122 31 -198t89 -76q52 0 80.5 76t28.5 198q0 155 -33 258.5t-90 103.5q-52 0 -79 -101.5t-27 -260.5zM250 764h-49l-90 145h75z" />
    <glyph glyph-name="Oacute" unicode="&#xd3;" 
d="M209 -12q-85 0 -129 88.5t-44 233.5q0 192 39 301t121 109q83 0 129 -111.5t46 -298.5q0 -145 -41.5 -233.5t-120.5 -88.5zM89 310q0 -122 31 -198t89 -76q52 0 80.5 76t28.5 198q0 155 -33 258.5t-90 103.5q-52 0 -79 -101.5t-27 -260.5zM212 764h-46l59 145h75z" />
    <glyph glyph-name="Ocircumflex" unicode="&#xd4;" 
d="M209 -12q-85 0 -129 88.5t-44 233.5q0 192 39 301t121 109q83 0 129 -111.5t46 -298.5q0 -145 -41.5 -233.5t-120.5 -88.5zM89 310q0 -122 31 -198t89 -76q52 0 80.5 76t28.5 198q0 155 -33 258.5t-90 103.5q-52 0 -79 -101.5t-27 -260.5zM132 764h-50l82 135h80l82 -135
h-50l-72 84z" />
    <glyph glyph-name="Otilde" unicode="&#xd5;" 
d="M209 -12q-85 0 -129 88.5t-44 233.5q0 192 39 301t121 109q83 0 129 -111.5t46 -298.5q0 -145 -41.5 -233.5t-120.5 -88.5zM89 310q0 -122 31 -198t89 -76q52 0 80.5 76t28.5 198q0 155 -33 258.5t-90 103.5q-52 0 -79 -101.5t-27 -260.5zM133 769h-44q0 105 70 105
q27 0 54 -31q2 -3 7.5 -9t8.5 -8.5t7 -6.5t7.5 -5.5t6.5 -1.5q4 0 7 1.5t5 4t4 5.5t3 8t2 8.5t1.5 9.5t1 9.5t1 9.5t0.5 9h44q0 -46 -16 -79.5t-52 -33.5q-25 0 -56 31q-27 31 -38 31q-24 0 -24 -57z" />
    <glyph glyph-name="Odieresis" unicode="&#xd6;" 
d="M209 -12q-85 0 -129 88.5t-44 233.5q0 192 39 301t121 109q83 0 129 -111.5t46 -298.5q0 -145 -41.5 -233.5t-120.5 -88.5zM89 310q0 -122 31 -198t89 -76q52 0 80.5 76t28.5 198q0 155 -33 258.5t-90 103.5q-52 0 -79 -101.5t-27 -260.5zM138 764q-17 0 -26.5 18
t-9.5 40t9.5 40t26.5 18t26.5 -18t9.5 -40t-9.5 -40t-26.5 -18zM270 764q-17 0 -26.5 18t-9.5 40t9.5 40t26.5 18t26.5 -18t9.5 -40t-9.5 -40t-26.5 -18z" />
    <glyph glyph-name="multiply" unicode="&#xd7;" horiz-adv-x="556" 
d="M277 196l-208 -204l-40 42l209 203l-209 207l40 41l209 -209l209 209l40 -41l-209 -207l209 -203l-40 -42z" />
    <glyph glyph-name="Oslash" unicode="&#xd8;" 
d="M296 523l-169 -429q13 -23 35 -40.5t47 -17.5q54 0 83 75.5t29 198.5q0 54 -7 118.5t-16 94.5h-2zM375 720l-48 -119q19 -38 33 -127.5t14 -163.5q0 -145 -42 -233.5t-123 -88.5q-66 0 -107 45l-18 -45h-44l36 90q-38 119 -38 232q0 126 17 215.5t55.5 142t96.5 52.5
q61 0 95 -68l28 68h45zM108 156l168 431q-28 85 -69 85q-57 0 -86.5 -102t-29.5 -260q0 -58 15 -154h2z" />
    <glyph glyph-name="Ugrave" unicode="&#xd9;" 
d="M345 631v-455q0 -96 -30.5 -142t-113.5 -46q-80 0 -109 46t-29 142v455q0 23 -5.5 29.5t-32.5 9.5v38h127v-38q-28 -3 -33.5 -9.5t-5.5 -29.5v-459q0 -71 19 -103.5t71 -32.5q53 0 72.5 32t19.5 104v459q0 23 -5.5 29.5t-33.5 9.5v38h127v-38q-27 -3 -32.5 -9.5
t-5.5 -29.5zM250 764h-49l-90 145h75z" />
    <glyph glyph-name="Uacute" unicode="&#xda;" 
d="M345 631v-455q0 -96 -30.5 -142t-113.5 -46q-80 0 -109 46t-29 142v455q0 23 -5.5 29.5t-32.5 9.5v38h127v-38q-28 -3 -33.5 -9.5t-5.5 -29.5v-459q0 -71 19 -103.5t71 -32.5q53 0 72.5 32t19.5 104v459q0 23 -5.5 29.5t-33.5 9.5v38h127v-38q-27 -3 -32.5 -9.5
t-5.5 -29.5zM212 764h-46l59 145h75z" />
    <glyph glyph-name="Ucircumflex" unicode="&#xdb;" 
d="M345 631v-455q0 -96 -30.5 -142t-113.5 -46q-80 0 -109 46t-29 142v455q0 23 -5.5 29.5t-32.5 9.5v38h127v-38q-28 -3 -33.5 -9.5t-5.5 -29.5v-459q0 -71 19 -103.5t71 -32.5q53 0 72.5 32t19.5 104v459q0 23 -5.5 29.5t-33.5 9.5v38h127v-38q-27 -3 -32.5 -9.5
t-5.5 -29.5zM132 764h-50l82 135h80l82 -135h-50l-72 84z" />
    <glyph glyph-name="Udieresis" unicode="&#xdc;" 
d="M345 631v-455q0 -96 -30.5 -142t-113.5 -46q-80 0 -109 46t-29 142v455q0 23 -5.5 29.5t-32.5 9.5v38h127v-38q-28 -3 -33.5 -9.5t-5.5 -29.5v-459q0 -71 19 -103.5t71 -32.5q53 0 72.5 32t19.5 104v459q0 23 -5.5 29.5t-33.5 9.5v38h127v-38q-27 -3 -32.5 -9.5
t-5.5 -29.5zM138 764q-17 0 -26.5 18t-9.5 40t9.5 40t26.5 18t26.5 -18t9.5 -40t-9.5 -40t-26.5 -18zM270 764q-17 0 -26.5 18t-9.5 40t9.5 40t26.5 18t26.5 -18t9.5 -40t-9.5 -40t-26.5 -18z" />
    <glyph glyph-name="Yacute" unicode="&#xdd;" horiz-adv-x="352" 
d="M242 0h-132v38q29 3 35 9.5t6 29.5v482l-80 85q-24 24 -46 26v38h119v-38q-28 -4 -28 -9q0 -4 17 -21l44 -44l48 43q21 19 21 23q0 5 -33 8v38h114v-38q-9 -2 -15 -5.5t-13.5 -11t-11.5 -10.5l-86 -84v-482q0 -23 6 -29.5t35 -9.5v-38zM184 764h-46l59 145h75z" />
    <glyph glyph-name="Thorn" unicode="&#xde;" horiz-adv-x="352" 
d="M127 380h91q31 0 45.5 8.5t14.5 29.5q0 37 -60 37h-91v-75zM168 0h-132v38q29 4 35 10t6 29v554q0 23 -6 29t-35 10v38h132v-38q-29 -4 -35 -10.5t-6 -28.5v-132h91q113 0 113 -82q0 -81 -115 -81h-89v-259q0 -22 6 -28.5t35 -10.5v-38z" />
    <glyph glyph-name="germandbls" unicode="&#xdf;" horiz-adv-x="666" 
d="M217 640l-33 -12q-5 5 -14.5 13t-13 11.5t-10 8.5t-10 6.5t-8 3t-9.5 1.5q-14 0 -21.5 -8.5t-7.5 -20.5q0 -16 11 -37.5t41 -71t52 -90.5q107 -194 107 -299q0 -73 -41.5 -115t-101.5 -42q-41 0 -77 23l-18 -11h-26l-14 110l32 12q9 -20 15.5 -31.5t18.5 -26t29.5 -21.5
t39.5 -7q40 0 66.5 29.5t26.5 71.5q0 99 -97 274l-46 83.5l-38 67.5t-21 45t-9 42q0 33 19 52t51 19q7 0 23 -2l18 13h30zM550 640l-33 -12q-5 5 -14.5 13t-13 11.5t-10 8.5t-10 6.5t-8 3t-9.5 1.5q-14 0 -21.5 -8.5t-7.5 -20.5q0 -16 11 -37.5t41 -71t52 -90.5
q107 -194 107 -299q0 -73 -41.5 -115t-101.5 -42q-41 0 -77 23l-18 -11h-26l-14 110l32 12q9 -20 15.5 -31.5t18.5 -26t29.5 -21.5t39.5 -7q40 0 66.5 29.5t26.5 71.5q0 99 -97 274l-46 83.5l-38 67.5t-21 45t-9 42q0 33 18.5 52t51.5 19q7 0 23 -2l18 13h30z" />
    <glyph glyph-name="agrave" unicode="&#xe0;" horiz-adv-x="481" 
d="M164 0h-137v38q3 0 9 0.5t8 1t7 1.5t7 2t5.5 3t5 5t3.5 7.5t3 10t2 12.5l50 472q9 79 9 97q0 11 -8 14.5t-32 5.5v41q74 -3 146 -3q74 0 143 3v-41q-17 -1 -23.5 -2.5t-11.5 -5.5t-5 -12q0 -18 9 -97l56 -472q1 -9 2.5 -15.5t5 -11t5 -7.5t7 -4.5t7 -2t9 -1.5t8.5 -1v-38
h-131v38q16 1 22 2t11.5 7t5.5 17q-1 14 -4.5 43.5t-4.5 42.5l-47 406h-130l-42 -406q-1 -13 -4.5 -42.5t-4.5 -43.5q0 -11 5.5 -17t11.5 -7t22 -2v-38zM187 664l-7 -64h120l-6 64h-107zM287 764h-49l-90 145h75z" />
    <glyph glyph-name="aacute" unicode="&#xe1;" horiz-adv-x="481" 
d="M164 0h-137v38q3 0 9 0.5t8 1t7 1.5t7 2t5.5 3t5 5t3.5 7.5t3 10t2 12.5l50 472q9 79 9 97q0 11 -8 14.5t-32 5.5v41q74 -3 146 -3q74 0 143 3v-41q-17 -1 -23.5 -2.5t-11.5 -5.5t-5 -12q0 -18 9 -97l56 -472q1 -9 2.5 -15.5t5 -11t5 -7.5t7 -4.5t7 -2t9 -1.5t8.5 -1v-38
h-131v38q16 1 22 2t11.5 7t5.5 17q-1 14 -4.5 43.5t-4.5 42.5l-47 406h-130l-42 -406q-1 -13 -4.5 -42.5t-4.5 -43.5q0 -11 5.5 -17t11.5 -7t22 -2v-38zM187 664l-7 -64h120l-6 64h-107zM249 764h-46l59 145h75z" />
    <glyph glyph-name="acircumflex" unicode="&#xe2;" horiz-adv-x="481" 
d="M164 0h-137v38q3 0 9 0.5t8 1t7 1.5t7 2t5.5 3t5 5t3.5 7.5t3 10t2 12.5l50 472q9 79 9 97q0 11 -8 14.5t-32 5.5v41q74 -3 146 -3q74 0 143 3v-41q-17 -1 -23.5 -2.5t-11.5 -5.5t-5 -12q0 -18 9 -97l56 -472q1 -9 2.5 -15.5t5 -11t5 -7.5t7 -4.5t7 -2t9 -1.5t8.5 -1v-38
h-131v38q16 1 22 2t11.5 7t5.5 17q-1 14 -4.5 43.5t-4.5 42.5l-47 406h-130l-42 -406q-1 -13 -4.5 -42.5t-4.5 -43.5q0 -11 5.5 -17t11.5 -7t22 -2v-38zM187 664l-7 -64h120l-6 64h-107zM169 764h-50l82 135h80l82 -135h-50l-72 84z" />
    <glyph glyph-name="atilde" unicode="&#xe3;" horiz-adv-x="481" 
d="M164 0h-137v38q3 0 9 0.5t8 1t7 1.5t7 2t5.5 3t5 5t3.5 7.5t3 10t2 12.5l50 472q9 79 9 97q0 11 -8 14.5t-32 5.5v41q74 -3 146 -3q74 0 143 3v-41q-17 -1 -23.5 -2.5t-11.5 -5.5t-5 -12q0 -18 9 -97l56 -472q1 -9 2.5 -15.5t5 -11t5 -7.5t7 -4.5t7 -2t9 -1.5t8.5 -1v-38
h-131v38q16 1 22 2t11.5 7t5.5 17q-1 14 -4.5 43.5t-4.5 42.5l-47 406h-130l-42 -406q-1 -13 -4.5 -42.5t-4.5 -43.5q0 -11 5.5 -17t11.5 -7t22 -2v-38zM187 664l-7 -64h120l-6 64h-107zM170 769h-44q0 105 70 105q27 0 54 -31q2 -3 7.5 -9t8.5 -8.5t7 -6.5t7.5 -5.5
t6.5 -1.5q4 0 7 1.5t5 4t4 5.5t3 8t2 8.5t1.5 9.5t1 9.5t1 9.5t0.5 9h44q0 -46 -16 -79.5t-52 -33.5q-25 0 -56 31q-27 31 -38 31q-24 0 -24 -57z" />
    <glyph glyph-name="adieresis" unicode="&#xe4;" horiz-adv-x="481" 
d="M164 0h-137v38q3 0 9 0.5t8 1t7 1.5t7 2t5.5 3t5 5t3.5 7.5t3 10t2 12.5l50 472q9 79 9 97q0 11 -8 14.5t-32 5.5v41q74 -3 146 -3q74 0 143 3v-41q-17 -1 -23.5 -2.5t-11.5 -5.5t-5 -12q0 -18 9 -97l56 -472q1 -9 2.5 -15.5t5 -11t5 -7.5t7 -4.5t7 -2t9 -1.5t8.5 -1v-38
h-131v38q16 1 22 2t11.5 7t5.5 17q-1 14 -4.5 43.5t-4.5 42.5l-47 406h-130l-42 -406q-1 -13 -4.5 -42.5t-4.5 -43.5q0 -11 5.5 -17t11.5 -7t22 -2v-38zM187 664l-7 -64h120l-6 64h-107zM175 764q-17 0 -26.5 18t-9.5 40t9.5 40t26.5 18t26.5 -18t9.5 -40t-9.5 -40
t-26.5 -18zM307 764q-17 0 -26.5 18t-9.5 40t9.5 40t26.5 18t26.5 -18t9.5 -40t-9.5 -40t-26.5 -18z" />
    <glyph glyph-name="aring" unicode="&#xe5;" horiz-adv-x="481" 
d="M164 0h-137v38q3 0 9 0.5t8 1t7 1.5t7 2t5.5 3t5 5t3.5 7.5t3 10t2 12.5l50 472q9 79 9 97q0 11 -8 14.5t-32 5.5v41q74 -3 146 -3q74 0 143 3v-41q-17 -1 -23.5 -2.5t-11.5 -5.5t-5 -12q0 -18 9 -97l56 -472q1 -9 2.5 -15.5t5 -11t5 -7.5t7 -4.5t7 -2t9 -1.5t8.5 -1v-38
h-131v38q16 1 22 2t11.5 7t5.5 17q-1 14 -4.5 43.5t-4.5 42.5l-47 406h-130l-42 -406q-1 -13 -4.5 -42.5t-4.5 -43.5q0 -11 5.5 -17t11.5 -7t22 -2v-38zM187 664l-7 -64h120l-6 64h-107zM153 836q0 36 25.5 62t62.5 26q36 0 62 -26t26 -62q0 -37 -26 -62.5t-62 -25.5
q-37 0 -62.5 25.5t-25.5 62.5zM241 889q-22 0 -37.5 -15.5t-15.5 -37.5t15.5 -37.5t37.5 -15.5t37.5 15.5t15.5 37.5t-15.5 37.5t-37.5 15.5z" />
    <glyph glyph-name="ae" unicode="&#xe6;" horiz-adv-x="593" 
d="M27 0v38q3 0 9 0.5t8 1t7 1.5t7 2t5.5 3t5 5t3.5 7.5t3 10t2 12.5l50 472q9 79 9 96q0 4 -0.5 6.5t-1.5 4.5t-3 3t-3.5 2t-5.5 1.5t-7 1t-9 1t-10 1.5v38h299q62 0 98 15l36 -68l-30 -17q-2 2 -8.5 7.5t-9.5 7.5t-9 5.5t-13.5 4.5t-16.5 1h-74v-86h94q23 0 29.5 6.5
t7.5 21.5h30v-100h-30q-2 9 -4 14t-10 9.5t-21 4.5h-96v-490h103q13 0 23 2t17.5 7.5t10.5 8.5t10 12.5t9 11.5l30 -20l-36 -78q-25 7 -68 10q-24 2 -66 2h-128v38q32 4 38.5 10t6.5 29v457h-144l-40 -384q-1 -13 -4.5 -42.5t-4.5 -43.5q0 -11 5.5 -17t11.5 -7t22 -2v-38
h-137zM179 578h139v86h-131z" />
    <glyph glyph-name="ccedilla" unicode="&#xe7;" horiz-adv-x="370" 
d="M316 110l35 -29q-41 -83 -115 -92l-13 -45q22 0 36 -2.5t27.5 -16t13.5 -38.5q0 -31 -31.5 -53.5t-72.5 -22.5q-36 0 -71 13l13 32q33 -7 56 -7q24 0 40 10.5t16 25.5q0 25 -36 25q-19 0 -46 -9l26 89q-160 27 -160 376q0 68 10 128t30.5 112.5t58.5 83t89 30.5
q22 0 28 2.5t6 12.5l29 11l42 -100l-32 -13q-34 39 -73 39q-58 0 -96.5 -83t-38.5 -231q0 -95 13 -165.5t43 -113.5t75 -43q34 0 59.5 22.5t38.5 51.5z" />
    <glyph glyph-name="egrave" unicode="&#xe8;" horiz-adv-x="352" 
d="M170 0h-128v38q32 4 38.5 10t6.5 29v554q0 23 -6.5 29.5t-38.5 9.5v38h121q63 0 99 15l36 -68l-30 -17q-2 2 -8.5 7.5t-9.5 7.5t-9 5.5t-13.5 4.5t-16.5 1h-74v-86h94q23 0 29.5 6.5t7.5 21.5h30v-100h-30q-2 9 -4 14t-10 9.5t-21 4.5h-96v-490h103q13 0 23 2t17.5 7.5
t10.5 8.5t10 12.5t9 11.5l30 -20l-36 -78q-25 7 -68 10q-24 2 -66 2zM222 764h-49l-90 145h75z" />
    <glyph glyph-name="eacute" unicode="&#xe9;" horiz-adv-x="352" 
d="M170 0h-128v38q32 4 38.5 10t6.5 29v554q0 23 -6.5 29.5t-38.5 9.5v38h121q63 0 99 15l36 -68l-30 -17q-2 2 -8.5 7.5t-9.5 7.5t-9 5.5t-13.5 4.5t-16.5 1h-74v-86h94q23 0 29.5 6.5t7.5 21.5h30v-100h-30q-2 9 -4 14t-10 9.5t-21 4.5h-96v-490h103q13 0 23 2t17.5 7.5
t10.5 8.5t10 12.5t9 11.5l30 -20l-36 -78q-25 7 -68 10q-24 2 -66 2zM184 764h-46l59 145h75z" />
    <glyph glyph-name="ecircumflex" unicode="&#xea;" horiz-adv-x="352" 
d="M170 0h-128v38q32 4 38.5 10t6.5 29v554q0 23 -6.5 29.5t-38.5 9.5v38h121q63 0 99 15l36 -68l-30 -17q-2 2 -8.5 7.5t-9.5 7.5t-9 5.5t-13.5 4.5t-16.5 1h-74v-86h94q23 0 29.5 6.5t7.5 21.5h30v-100h-30q-2 9 -4 14t-10 9.5t-21 4.5h-96v-490h103q13 0 23 2t17.5 7.5
t10.5 8.5t10 12.5t9 11.5l30 -20l-36 -78q-25 7 -68 10q-24 2 -66 2zM104 764h-50l82 135h80l82 -135h-50l-72 84z" />
    <glyph glyph-name="edieresis" unicode="&#xeb;" horiz-adv-x="352" 
d="M170 0h-128v38q32 4 38.5 10t6.5 29v554q0 23 -6.5 29.5t-38.5 9.5v38h121q63 0 99 15l36 -68l-30 -17q-2 2 -8.5 7.5t-9.5 7.5t-9 5.5t-13.5 4.5t-16.5 1h-74v-86h94q23 0 29.5 6.5t7.5 21.5h30v-100h-30q-2 9 -4 14t-10 9.5t-21 4.5h-96v-490h103q13 0 23 2t17.5 7.5
t10.5 8.5t10 12.5t9 11.5l30 -20l-36 -78q-25 7 -68 10q-24 2 -66 2zM110 764q-17 0 -26.5 18t-9.5 40t9.5 40t26.5 18t26.5 -18t9.5 -40t-9.5 -40t-26.5 -18zM242 764q-17 0 -26.5 18t-9.5 40t9.5 40t26.5 18t26.5 -18t9.5 -40t-9.5 -40t-26.5 -18z" />
    <glyph glyph-name="igrave" unicode="&#xec;" horiz-adv-x="204" 
d="M168 0h-132v38q29 4 35 10t6 29v554q0 23 -6 29.5t-35 9.5v38h132v-38q-29 -3 -35 -9.5t-6 -29.5v-554q0 -22 6 -28.5t35 -10.5v-38zM148 764h-49l-90 145h75z" />
    <glyph glyph-name="iacute" unicode="&#xed;" horiz-adv-x="204" 
d="M168 0h-132v38q29 4 35 10t6 29v554q0 23 -6 29.5t-35 9.5v38h132v-38q-29 -3 -35 -9.5t-6 -29.5v-554q0 -22 6 -28.5t35 -10.5v-38zM110 764h-46l59 145h75z" />
    <glyph glyph-name="icircumflex" unicode="&#xee;" horiz-adv-x="204" 
d="M168 0h-132v38q29 4 35 10t6 29v554q0 23 -6 29.5t-35 9.5v38h132v-38q-29 -3 -35 -9.5t-6 -29.5v-554q0 -22 6 -28.5t35 -10.5v-38zM30 764h-50l82 135h80l82 -135h-50l-72 84z" />
    <glyph glyph-name="idieresis" unicode="&#xef;" horiz-adv-x="204" 
d="M168 0h-132v38q29 4 35 10t6 29v554q0 23 -6 29.5t-35 9.5v38h132v-38q-29 -3 -35 -9.5t-6 -29.5v-554q0 -22 6 -28.5t35 -10.5v-38zM36 764q-17 0 -26.5 18t-9.5 40t9.5 40t26.5 18t26.5 -18t9.5 -40t-9.5 -40t-26.5 -18zM168 764q-17 0 -26.5 18t-9.5 40t9.5 40
t26.5 18t26.5 -18t9.5 -40t-9.5 -40t-26.5 -18z" />
    <glyph glyph-name="eth" unicode="&#xf0;" 
d="M119 0h-82v38q27 4 32.5 9.5t5.5 27.5v235h-51v44h51v277q0 23 -5.5 29.5t-32.5 9.5v38q72 0 128 -24t108 -78q106 -111 106 -303q0 -143 -64 -223t-196 -80zM125 44h15q77 0 131.5 63.5t54.5 195.5q0 84 -23.5 153.5t-58 109.5t-65.5 62t-54 26v-300h89v-44h-89v-266z
" />
    <glyph glyph-name="ntilde" unicode="&#xf1;" horiz-adv-x="426" 
d="M32 0v38q29 4 35 10t6 29v554q0 23 -6 29.5t-35 9.5v38h91v-10q0 -12 2.5 -16.5t14.5 -10.5l163 -91v51q0 23 -6 29.5t-35 9.5v38h132v-38q-29 -3 -35 -9.5t-6 -29.5v-554q0 -22 6 -28.5t35 -10.5v-38h-132v38q29 4 35 10t6 29v452l-180 102v-554q0 -22 6 -28.5t35 -10.5
v-38h-132zM142 769h-44q0 105 70 105q27 0 54 -31q2 -3 7.5 -9t8.5 -8.5t7 -6.5t7.5 -5.5t6.5 -1.5q4 0 7 1.5t5 4t4 5.5t3 8t2 8.5t1.5 9.5t1 9.5t1 9.5t0.5 9h44q0 -46 -16 -79.5t-52 -33.5q-25 0 -56 31q-27 31 -38 31q-24 0 -24 -57z" />
    <glyph glyph-name="ograve" unicode="&#xf2;" 
d="M209 -12q-85 0 -129 88.5t-44 233.5q0 192 39 301t121 109q83 0 129 -111.5t46 -298.5q0 -145 -41.5 -233.5t-120.5 -88.5zM89 310q0 -122 31 -198t89 -76q52 0 80.5 76t28.5 198q0 155 -33 258.5t-90 103.5q-52 0 -79 -101.5t-27 -260.5zM250 764h-49l-90 145h75z" />
    <glyph glyph-name="oacute" unicode="&#xf3;" 
d="M209 -12q-85 0 -129 88.5t-44 233.5q0 192 39 301t121 109q83 0 129 -111.5t46 -298.5q0 -145 -41.5 -233.5t-120.5 -88.5zM89 310q0 -122 31 -198t89 -76q52 0 80.5 76t28.5 198q0 155 -33 258.5t-90 103.5q-52 0 -79 -101.5t-27 -260.5zM212 764h-46l59 145h75z" />
    <glyph glyph-name="ocircumflex" unicode="&#xf4;" 
d="M209 -12q-85 0 -129 88.5t-44 233.5q0 192 39 301t121 109q83 0 129 -111.5t46 -298.5q0 -145 -41.5 -233.5t-120.5 -88.5zM89 310q0 -122 31 -198t89 -76q52 0 80.5 76t28.5 198q0 155 -33 258.5t-90 103.5q-52 0 -79 -101.5t-27 -260.5zM132 764h-50l82 135h80l82 -135
h-50l-72 84z" />
    <glyph glyph-name="otilde" unicode="&#xf5;" 
d="M209 -12q-85 0 -129 88.5t-44 233.5q0 192 39 301t121 109q83 0 129 -111.5t46 -298.5q0 -145 -41.5 -233.5t-120.5 -88.5zM89 310q0 -122 31 -198t89 -76q52 0 80.5 76t28.5 198q0 155 -33 258.5t-90 103.5q-52 0 -79 -101.5t-27 -260.5zM133 769h-44q0 105 70 105
q27 0 54 -31q2 -3 7.5 -9t8.5 -8.5t7 -6.5t7.5 -5.5t6.5 -1.5q4 0 7 1.5t5 4t4 5.5t3 8t2 8.5t1.5 9.5t1 9.5t1 9.5t0.5 9h44q0 -46 -16 -79.5t-52 -33.5q-25 0 -56 31q-27 31 -38 31q-24 0 -24 -57z" />
    <glyph glyph-name="odieresis" unicode="&#xf6;" 
d="M209 -12q-85 0 -129 88.5t-44 233.5q0 192 39 301t121 109q83 0 129 -111.5t46 -298.5q0 -145 -41.5 -233.5t-120.5 -88.5zM89 310q0 -122 31 -198t89 -76q52 0 80.5 76t28.5 198q0 155 -33 258.5t-90 103.5q-52 0 -79 -101.5t-27 -260.5zM138 764q-17 0 -26.5 18
t-9.5 40t9.5 40t26.5 18t26.5 -18t9.5 -40t-9.5 -40t-26.5 -18zM270 764q-17 0 -26.5 18t-9.5 40t9.5 40t26.5 18t26.5 -18t9.5 -40t-9.5 -40t-26.5 -18z" />
    <glyph glyph-name="divide" unicode="&#xf7;" horiz-adv-x="556" 
d="M24 266h508v-56h-508v56zM278 339q-18 0 -30.5 12.5t-12.5 30.5q0 17 12.5 30t30.5 13t30.5 -13t12.5 -30q0 -18 -12.5 -30.5t-30.5 -12.5zM278 51q-18 0 -30.5 12.5t-12.5 30.5q0 17 12.5 30t30.5 13t30.5 -13t12.5 -30q0 -18 -12.5 -30.5t-30.5 -12.5z" />
    <glyph glyph-name="oslash" unicode="&#xf8;" 
d="M296 523l-169 -429q13 -23 35 -40.5t47 -17.5q54 0 83 75.5t29 198.5q0 54 -7 118.5t-16 94.5h-2zM375 720l-48 -119q19 -38 33 -127.5t14 -163.5q0 -145 -42 -233.5t-123 -88.5q-66 0 -107 45l-18 -45h-44l36 90q-38 119 -38 232q0 126 17 215.5t55.5 142t96.5 52.5
q61 0 95 -68l28 68h45zM108 156l168 431q-28 85 -69 85q-57 0 -86.5 -102t-29.5 -260q0 -58 15 -154h2z" />
    <glyph glyph-name="ugrave" unicode="&#xf9;" 
d="M345 631v-455q0 -96 -30.5 -142t-113.5 -46q-80 0 -109 46t-29 142v455q0 23 -5.5 29.5t-32.5 9.5v38h127v-38q-28 -3 -33.5 -9.5t-5.5 -29.5v-459q0 -71 19 -103.5t71 -32.5q53 0 72.5 32t19.5 104v459q0 23 -5.5 29.5t-33.5 9.5v38h127v-38q-27 -3 -32.5 -9.5
t-5.5 -29.5zM250 764h-49l-90 145h75z" />
    <glyph glyph-name="uacute" unicode="&#xfa;" 
d="M345 631v-455q0 -96 -30.5 -142t-113.5 -46q-80 0 -109 46t-29 142v455q0 23 -5.5 29.5t-32.5 9.5v38h127v-38q-28 -3 -33.5 -9.5t-5.5 -29.5v-459q0 -71 19 -103.5t71 -32.5q53 0 72.5 32t19.5 104v459q0 23 -5.5 29.5t-33.5 9.5v38h127v-38q-27 -3 -32.5 -9.5
t-5.5 -29.5zM212 764h-46l59 145h75z" />
    <glyph glyph-name="ucircumflex" unicode="&#xfb;" 
d="M345 631v-455q0 -96 -30.5 -142t-113.5 -46q-80 0 -109 46t-29 142v455q0 23 -5.5 29.5t-32.5 9.5v38h127v-38q-28 -3 -33.5 -9.5t-5.5 -29.5v-459q0 -71 19 -103.5t71 -32.5q53 0 72.5 32t19.5 104v459q0 23 -5.5 29.5t-33.5 9.5v38h127v-38q-27 -3 -32.5 -9.5
t-5.5 -29.5zM132 764h-50l82 135h80l82 -135h-50l-72 84z" />
    <glyph glyph-name="udieresis" unicode="&#xfc;" 
d="M345 631v-455q0 -96 -30.5 -142t-113.5 -46q-80 0 -109 46t-29 142v455q0 23 -5.5 29.5t-32.5 9.5v38h127v-38q-28 -3 -33.5 -9.5t-5.5 -29.5v-459q0 -71 19 -103.5t71 -32.5q53 0 72.5 32t19.5 104v459q0 23 -5.5 29.5t-33.5 9.5v38h127v-38q-27 -3 -32.5 -9.5
t-5.5 -29.5zM138 764q-17 0 -26.5 18t-9.5 40t9.5 40t26.5 18t26.5 -18t9.5 -40t-9.5 -40t-26.5 -18zM270 764q-17 0 -26.5 18t-9.5 40t9.5 40t26.5 18t26.5 -18t9.5 -40t-9.5 -40t-26.5 -18z" />
    <glyph glyph-name="yacute" unicode="&#xfd;" horiz-adv-x="352" 
d="M242 0h-132v38q29 3 35 9.5t6 29.5v482l-80 85q-24 24 -46 26v38h119v-38q-28 -4 -28 -9q0 -4 17 -21l44 -44l48 43q21 19 21 23q0 5 -33 8v38h114v-38q-9 -2 -15 -5.5t-13.5 -11t-11.5 -10.5l-86 -84v-482q0 -23 6 -29.5t35 -9.5v-38zM184 764h-46l59 145h75z" />
    <glyph glyph-name="thorn" unicode="&#xfe;" horiz-adv-x="352" 
d="M127 380h91q31 0 45.5 8.5t14.5 29.5q0 37 -60 37h-91v-75zM168 0h-132v38q29 4 35 10t6 29v554q0 23 -6 29t-35 10v38h132v-38q-29 -4 -35 -10.5t-6 -28.5v-132h91q113 0 113 -82q0 -81 -115 -81h-89v-259q0 -22 6 -28.5t35 -10.5v-38z" />
    <glyph glyph-name="ydieresis" unicode="&#xff;" horiz-adv-x="352" 
d="M242 0h-132v38q29 3 35 9.5t6 29.5v482l-80 85q-24 24 -46 26v38h119v-38q-28 -4 -28 -9q0 -4 17 -21l44 -44l48 43q21 19 21 23q0 5 -33 8v38h114v-38q-9 -2 -15 -5.5t-13.5 -11t-11.5 -10.5l-86 -84v-482q0 -23 6 -29.5t35 -9.5v-38zM110 764q-17 0 -26.5 18t-9.5 40
t9.5 40t26.5 18t26.5 -18t9.5 -40t-9.5 -40t-26.5 -18zM242 764q-17 0 -26.5 18t-9.5 40t9.5 40t26.5 18t26.5 -18t9.5 -40t-9.5 -40t-26.5 -18z" />
    <glyph glyph-name="dotlessi" unicode="&#x131;" horiz-adv-x="204" 
d="M168 0h-132v38q29 4 35 10t6 29v554q0 23 -6 29.5t-35 9.5v38h132v-38q-29 -3 -35 -9.5t-6 -29.5v-554q0 -22 6 -28.5t35 -10.5v-38z" />
    <glyph glyph-name="Lslash" unicode="&#x141;" horiz-adv-x="389" 
d="M218 0h-149v38q32 4 38 10t6 29v231l-73 -51l-20 29l93 65v280q0 23 -6.5 29.5t-37.5 9.5v38h135v-38q-29 -3 -35 -9.5t-6 -29.5v-245l110 77l19 -30l-129 -90v-299h104q7 0 13 0.5t11.5 2.5t9 3t8 5t6.5 5.5t6 6.5t5 6.5l5 7.5t5 7l32 -20l-37 -80q-21 7 -53 9
q-30 3 -60 3z" />
    <glyph glyph-name="lslash" unicode="&#x142;" horiz-adv-x="389" 
d="M218 0h-149v38q32 4 38 10t6 29v231l-73 -51l-20 29l93 65v280q0 23 -6.5 29.5t-37.5 9.5v38h135v-38q-29 -3 -35 -9.5t-6 -29.5v-245l110 77l19 -30l-129 -90v-299h104q7 0 13 0.5t11.5 2.5t9 3t8 5t6.5 5.5t6 6.5t5 6.5l5 7.5t5 7l32 -20l-37 -80q-21 7 -53 9
q-30 3 -60 3z" />
    <glyph glyph-name="OE" unicode="&#x152;" horiz-adv-x="556" 
d="M538 66l-36 -78q-30 6 -88 10q-31 2 -82 2q-27 0 -63 -6t-60 -6q-85 0 -129 88.5t-44 233.5q0 192 39 301t121 109q24 0 58 -6t64 -6q93 0 142 15l36 -68l-30 -17q-2 2 -8.5 7.5t-9.5 7.5t-9 5.5t-13.5 4.5t-16.5 1h-74v-86h94q23 0 29.5 6.5t7.5 21.5h30v-100h-30
q-2 9 -4 14t-10 9.5t-21 4.5h-96v-490h103q13 0 23 2t17.5 7.5t10.5 8.5t10 12.5t9 11.5zM285 175v379q0 64 -22.5 91t-67.5 27q-52 0 -79 -101.5t-27 -260.5q0 -122 31 -198t89 -76q26 0 42.5 11t23 33.5t8.5 42t2 52.5z" />
    <glyph glyph-name="oe" unicode="&#x153;" horiz-adv-x="556" 
d="M538 66l-36 -78q-30 6 -88 10q-31 2 -82 2q-27 0 -63 -6t-60 -6q-85 0 -129 88.5t-44 233.5q0 192 39 301t121 109q24 0 58 -6t64 -6q93 0 142 15l36 -68l-30 -17q-2 2 -8.5 7.5t-9.5 7.5t-9 5.5t-13.5 4.5t-16.5 1h-74v-86h94q23 0 29.5 6.5t7.5 21.5h30v-100h-30
q-2 9 -4 14t-10 9.5t-21 4.5h-96v-490h103q13 0 23 2t17.5 7.5t10.5 8.5t10 12.5t9 11.5zM285 175v379q0 64 -22.5 91t-67.5 27q-52 0 -79 -101.5t-27 -260.5q0 -122 31 -198t89 -76q26 0 42.5 11t23 33.5t8.5 42t2 52.5z" />
    <glyph glyph-name="Scaron" unicode="&#x160;" horiz-adv-x="333" 
d="M217 640l-33 -12q-5 5 -14.5 13t-13 11.5t-10 8.5t-10 6.5t-8 3t-9.5 1.5q-14 0 -21.5 -8.5t-7.5 -20.5q0 -16 11 -37.5t41 -71t52 -90.5q107 -194 107 -299q0 -73 -41.5 -115t-101.5 -42q-41 0 -77 23l-18 -11h-26l-14 110l32 12q9 -20 15.5 -31.5t18.5 -26t29.5 -21.5
t39.5 -7q40 0 66.5 29.5t26.5 71.5q0 99 -97 274l-46 83.5l-38 67.5t-21 45t-9 42q0 33 19 52t51 19q7 0 23 -2l18 13h30zM75 899l72 -84l72 84h50l-82 -135h-80l-82 135h50z" />
    <glyph glyph-name="scaron" unicode="&#x161;" horiz-adv-x="333" 
d="M217 640l-33 -12q-5 5 -14.5 13t-13 11.5t-10 8.5t-10 6.5t-8 3t-9.5 1.5q-14 0 -21.5 -8.5t-7.5 -20.5q0 -16 11 -37.5t41 -71t52 -90.5q107 -194 107 -299q0 -73 -41.5 -115t-101.5 -42q-41 0 -77 23l-18 -11h-26l-14 110l32 12q9 -20 15.5 -31.5t18.5 -26t29.5 -21.5
t39.5 -7q40 0 66.5 29.5t26.5 71.5q0 99 -97 274l-46 83.5l-38 67.5t-21 45t-9 42q0 33 19 52t51 19q7 0 23 -2l18 13h30zM75 899l72 -84l72 84h50l-82 -135h-80l-82 135h50z" />
    <glyph glyph-name="Ydieresis" unicode="&#x178;" horiz-adv-x="352" 
d="M242 0h-132v38q29 3 35 9.5t6 29.5v482l-80 85q-24 24 -46 26v38h119v-38q-28 -4 -28 -9q0 -4 17 -21l44 -44l48 43q21 19 21 23q0 5 -33 8v38h114v-38q-9 -2 -15 -5.5t-13.5 -11t-11.5 -10.5l-86 -84v-482q0 -23 6 -29.5t35 -9.5v-38zM110 764q-17 0 -26.5 18t-9.5 40
t9.5 40t26.5 18t26.5 -18t9.5 -40t-9.5 -40t-26.5 -18zM242 764q-17 0 -26.5 18t-9.5 40t9.5 40t26.5 18t26.5 -18t9.5 -40t-9.5 -40t-26.5 -18z" />
    <glyph glyph-name="Zcaron" unicode="&#x17d;" horiz-adv-x="352" 
d="M295 0h-262l203 664h-26q-9 0 -16.5 -1.5t-13 -5.5t-8.5 -7t-8 -9.5t-7 -8.5l-29 16l20 60h151l-200 -664h75q13 0 23.5 0.5t20 2.5t15.5 3t13.5 5.5t11 5.5t10 6.5t8 6.5t8.5 8l8 8h27zM154 899l72 -84l72 84h50l-82 -135h-80l-82 135h50z" />
    <glyph glyph-name="zcaron" unicode="&#x17e;" horiz-adv-x="352" 
d="M295 0h-262l203 664h-26q-9 0 -16.5 -1.5t-13 -5.5t-8.5 -7t-8 -9.5t-7 -8.5l-29 16l20 60h151l-200 -664h75q13 0 23.5 0.5t20 2.5t15.5 3t13.5 5.5t11 5.5t10 6.5t8 6.5t8.5 8l8 8h27zM154 899l72 -84l72 84h50l-82 -135h-80l-82 135h50z" />
    <glyph glyph-name="florin" unicode="&#x192;" 
d="M1 0l10 44q36 2 44 10q8 6 13 23l108 457h-53l11 44h55q4 14 11.5 32.5t22 46t38.5 45.5t51 18q32 0 53 -18l25 18l35 -29l-40 -78l-28 18q0 43 -40 43q-21 0 -39 -19.5t-25.5 -38t-13.5 -38.5h129l-11 -44h-131l-108 -457q-3 -18 -3 -19q0 -14 39 -14l-10 -44h-143z" />
    <glyph glyph-name="circumflex" unicode="&#x2c6;" horiz-adv-x="270" 
d="M63 764h-50l82 135h80l82 -135h-50l-72 84z" />
    <glyph glyph-name="caron" unicode="&#x2c7;" horiz-adv-x="270" 
d="M63 899l72 -84l72 84h50l-82 -135h-80l-82 135h50z" />
    <glyph glyph-name="uni02C9" unicode="&#x2c9;" horiz-adv-x="270" 
d="M257 791h-244v64h244v-64z" />
    <glyph glyph-name="breve" unicode="&#x2d8;" horiz-adv-x="270" 
d="M202 902h57q-2 -16 -8.5 -35.5t-20 -42.5t-38.5 -38t-57 -15t-57 15t-38.5 38t-20 42.5t-8.5 35.5h57q13 -74 67 -74t67 74z" />
    <glyph glyph-name="dotaccent" unicode="&#x2d9;" horiz-adv-x="270" 
d="M135 764q-17 0 -26.5 18t-9.5 40t9.5 40t26.5 18t26.5 -18t9.5 -40t-9.5 -40t-26.5 -18z" />
    <glyph glyph-name="ring" unicode="&#x2da;" horiz-adv-x="270" 
d="M47 836q0 36 25.5 62t62.5 26q36 0 62 -26t26 -62q0 -37 -26 -62.5t-62 -25.5q-37 0 -62.5 25.5t-25.5 62.5zM135 889q-22 0 -37.5 -15.5t-15.5 -37.5t15.5 -37.5t37.5 -15.5t37.5 15.5t15.5 37.5t-15.5 37.5t-37.5 15.5z" />
    <glyph glyph-name="ogonek" unicode="&#x2db;" horiz-adv-x="270" 
d="M136 39l31 -9q-17 -12 -25.5 -20t-15 -22.5t-6.5 -33.5q0 -29 27.5 -51t61.5 -22q26 0 56 11l-41 -59q-10 12 -42.5 14.5t-57.5 14.5q-60 30 -60 81q0 71 72 96z" />
    <glyph glyph-name="tilde" unicode="&#x2dc;" horiz-adv-x="270" 
d="M64 769h-44q0 105 70 105q27 0 54 -31q2 -3 7.5 -9t8.5 -8.5t7 -6.5t7.5 -5.5t6.5 -1.5q4 0 7 1.5t5 4t4 5.5t3 8t2 8.5t1.5 9.5t1 9.5t1 9.5t0.5 9h44q0 -46 -16 -79.5t-52 -33.5q-25 0 -56 31q-27 31 -38 31q-24 0 -24 -57z" />
    <glyph glyph-name="hungarumlaut" unicode="&#x2dd;" horiz-adv-x="270" 
d="M85 764h-46l59 145h75zM204 764h-46l59 145h75z" />
    <glyph glyph-name="uni03A9" unicode="&#x3a9;" horiz-adv-x="525" 
d="M153 45v3q-45 58 -74 145t-29 189q0 156 60.5 245t155.5 89q92 0 150 -91.5t58 -238.5q0 -106 -30.5 -195t-74.5 -143v-3h114v-45h-172v33q49 52 81.5 144t32.5 196q-1 70 -17 135.5t-54 114t-91 48.5q-75 0 -119.5 -83t-44.5 -213q0 -99 33.5 -196.5t79.5 -145.5v-33
h-172v45h113z" />
    <glyph glyph-name="uni03BC" unicode="&#x3bc;" horiz-adv-x="576" 
d="M93 502h56v-320q0 -65 36 -103.5t98 -38.5q65 0 104.5 52t39.5 122v288h56v-502h-56v80h-4q-52 -92 -152 -92q-78 0 -120 56h-2v-236h-56v694z" />
    <glyph glyph-name="pi" unicode="&#x3c0;" horiz-adv-x="422" 
d="M396 478h-59v-340q0 -96 11 -138h-46q-13 30 -13 133v345h-138q-3 -119 -19.5 -264.5t-37.5 -213.5h-47q22 75 37.5 215.5t18.5 262.5q-55 0 -81 -10l-9 33q31 23 103 23h286z" />
    <glyph glyph-name="endash" unicode="&#x2013;" horiz-adv-x="500" 
d="M56 308h-50l40 70h386l12 22h50l-40 -70h-386z" />
    <glyph glyph-name="emdash" unicode="&#x2014;" horiz-adv-x="1000" 
d="M850 400h50l-40 -70h-698l-12 -22h-50l40 70h698z" />
    <glyph glyph-name="quoteleft" unicode="&#x2018;" horiz-adv-x="204" 
d="M108 720l26 -17q-18 -21 -25 -34q30 -21 30 -51q0 -16 -9.5 -27t-23.5 -11q-17 0 -29 12.5t-12 34.5q0 13 2.5 24.5t5.5 19.5t9 17t9 13t9.5 11t7.5 8z" />
    <glyph glyph-name="quoteright" unicode="&#x2019;" horiz-adv-x="204" 
d="M96 580l-26 17q18 21 25 34q-30 21 -30 51q0 16 9.5 27t23.5 11q17 0 29 -12.5t12 -34.5q0 -13 -2.5 -24.5t-5.5 -19.5t-9 -17t-9 -13t-9.5 -11t-7.5 -8z" />
    <glyph glyph-name="quotesinglbase" unicode="&#x201a;" horiz-adv-x="204" 
d="M96 -55l-26 17q18 21 25 34q-30 21 -30 51q0 16 9.5 27t23.5 11q17 0 29 -12.5t12 -34.5q0 -13 -2.5 -24.5t-5.5 -19.5t-9 -17t-9 -13t-9.5 -11t-7.5 -8z" />
    <glyph glyph-name="quotedblleft" unicode="&#x201c;" horiz-adv-x="315" 
d="M219 720l26 -17q-18 -21 -25 -34q30 -21 30 -51q0 -16 -9.5 -27t-23.5 -11q-17 0 -29 12.5t-12 34.5q0 13 2.5 24.5t5.5 19.5t9 17t9 13t9.5 11t7.5 8zM108 720l26 -17q-18 -21 -25 -34q30 -21 30 -51q0 -16 -9.5 -27t-23.5 -11q-17 0 -29 12.5t-12 34.5q0 13 2.5 24.5
t5.5 19.5t9 17t9 13t9.5 11t7.5 8z" />
    <glyph glyph-name="quotedblright" unicode="&#x201d;" horiz-adv-x="315" 
d="M96 580l-26 17q18 21 25 34q-30 21 -30 51q0 16 9.5 27t23.5 11q17 0 29 -12.5t12 -34.5q0 -13 -2.5 -24.5t-5.5 -19.5t-9 -17t-9 -13t-9.5 -11t-7.5 -8zM207 580l-26 17q18 21 25 34q-30 21 -30 51q0 16 9.5 27t23.5 11q17 0 29 -12.5t12 -34.5q0 -13 -2.5 -24.5
t-5.5 -19.5t-9 -17t-9 -13t-9.5 -11t-7.5 -8z" />
    <glyph glyph-name="quotedblbase" unicode="&#x201e;" horiz-adv-x="315" 
d="M96 -55l-26 17q18 21 25 34q-30 21 -30 51q0 16 9.5 27t23.5 11q17 0 29 -12.5t12 -34.5q0 -13 -2.5 -24.5t-5.5 -19.5t-9 -17t-9 -13t-9.5 -11t-7.5 -8zM207 -55l-26 17q18 21 25 34q-30 21 -30 51q0 16 9.5 27t23.5 11q17 0 29 -12.5t12 -34.5q0 -13 -2.5 -24.5
t-5.5 -19.5t-9 -17t-9 -13t-9.5 -11t-7.5 -8z" />
    <glyph glyph-name="dagger" unicode="&#x2020;" 
d="M218 -150h-28l-11 494q0 10 -0.5 16.5t-0.5 10.5t-1.5 6t-2.5 3t-4 3t-5 3v44q1 1 4 2.5t3.5 2t2.5 2t2 3t1 4t1 6.5v8.5v12.5v50h-86q-26 0 -31.5 -4.5t-9.5 -23.5h-34v100h34q3 -19 9.5 -23.5t31.5 -4.5h86v71v9.5t-1 7t-1.5 5.5t-3 4t-3.5 2.5t-5.5 1.5t-7 1.5t-9 1
t-10.5 1.5v38h132v-38q-32 -5 -36 -9q-5 -6 -5 -25v-71h86q25 0 31.5 4.5t9.5 23.5h34v-100h-34q-2 10 -2.5 12t-3 7.5t-6.5 6t-11 1.5t-18 1h-86v-50q0 -19 1.5 -26t2.5 -8.5t10 -6.5v-44q-2 -1 -4.5 -2.5t-3.5 -2t-2.5 -2.5t-2 -4t-1 -6.5t-0.5 -10v-14.5z" />
    <glyph glyph-name="daggerdbl" unicode="&#x2021;" 
d="M270 -150h-132v38q32 5 36 9q5 6 5 25v306h-86q-26 0 -31.5 -4.5t-9.5 -23.5h-34v100h34q3 -19 9.5 -23.5t31.5 -4.5h86v72q0 10 -0.5 16.5t-0.5 10.5t-1.5 6t-2.5 3t-4 3t-5 3v44q1 1 4 2.5t3.5 2t2.5 2t2 3t1 4t1 6.5v8.5v12.5v50h-86q-26 0 -31.5 -4.5t-9.5 -23.5h-34
v100h34q3 -19 9.5 -23.5t31.5 -4.5h86v71v9.5t-1 7t-1.5 5.5t-3 4t-3.5 2.5t-5.5 1.5t-7 1.5t-9 1t-10.5 1.5v38h132v-38q-32 -5 -36 -9q-5 -6 -5 -25v-71h86q25 0 31.5 4.5t9.5 23.5h34v-100h-34q-2 10 -2.5 12t-3 7.5t-6.5 6t-11 1.5t-18 1h-86v-50q0 -19 1.5 -26
t2.5 -8.5t10 -6.5v-44q-2 -1 -4.5 -2.5t-3.5 -2t-2.5 -2.5t-2 -4t-1 -6.5t-0.5 -10v-14.5v-72h86q25 0 31.5 4.5t9.5 23.5h34v-100h-34q-2 10 -2.5 12t-3 7.5t-6.5 6t-11 1.5t-18 1h-86v-306v-9.5t1 -7t1.5 -5.5t3 -4t3.5 -2.5t5.5 -1.5t7 -1.5t9 -1t10.5 -1.5v-38z" />
    <glyph glyph-name="bullet" unicode="&#x2022;" horiz-adv-x="500" 
d="M250 449q41 0 69.5 -28.5t28.5 -69.5t-28.5 -69.5t-69.5 -28.5q-40 0 -69 28.5t-29 69.5q-1 40 28 69t70 29z" />
    <glyph glyph-name="ellipsis" unicode="&#x2026;" horiz-adv-x="612" 
d="M102 -12q-15 0 -24 14.5t-9 32.5q0 20 8.5 35t24.5 15t24.5 -15t8.5 -35q0 -18 -9 -32.5t-24 -14.5zM306 -12q-15 0 -24 14.5t-9 32.5q0 20 8.5 35t24.5 15t24.5 -15t8.5 -35q0 -18 -9 -32.5t-24 -14.5zM510 -12q-15 0 -24 14.5t-9 32.5q0 20 8.5 35t24.5 15t24.5 -15
t8.5 -35q0 -18 -9 -32.5t-24 -14.5z" />
    <glyph glyph-name="perthousand" unicode="&#x2030;" horiz-adv-x="815" 
d="M139 343q-54 0 -79.5 40t-25.5 140q0 86 30.5 141.5t74.5 55.5t74.5 -55.5t30.5 -141.5q0 -100 -25.5 -140t-79.5 -40zM139 387q57 0 57 136q0 54 -10 90t-22 49.5t-25 13.5t-25 -13.5t-22 -49.5t-10 -90q0 -136 57 -136zM417 -12q-54 0 -79.5 40t-25.5 140
q0 86 30.5 141.5t74.5 55.5t74.5 -55.5t30.5 -141.5q0 -100 -25.5 -140t-79.5 -40zM417 32q57 0 57 136q0 54 -10 90t-22 49.5t-25 13.5t-25 -13.5t-22 -49.5t-10 -90q0 -136 57 -136zM676 -12q-54 0 -79.5 40t-25.5 140q0 86 30.5 141.5t74.5 55.5t74.5 -55.5t30.5 -141.5
q0 -100 -25.5 -140t-79.5 -40zM676 32q57 0 57 136q0 53 -10 89.5t-22 50t-25 13.5t-25 -13.5t-22 -50t-10 -89.5q0 -136 57 -136zM201 -22h-46l207 752h46z" />
    <glyph glyph-name="guilsinglleft" unicode="&#x2039;" horiz-adv-x="278" 
d="M214 157h-50l-119 203l111 186h50l-111 -186z" />
    <glyph glyph-name="guilsinglright" unicode="&#x203a;" horiz-adv-x="278" 
d="M122 157h-50l111 186l-119 203h50l119 -203z" />
    <glyph glyph-name="fraction" unicode="&#x2044;" horiz-adv-x="111" 
d="M-61 -12l182 732h52l-182 -732h-52z" />
    <glyph glyph-name="Euro" unicode="&#x20ac;" 
d="M372 686v-52q-35 37 -106 37q-128 0 -138 -231h206l-11 -43h-197q-1 -13 -1 -45q0 -29 1 -41h174l-11 -42h-160q10 -234 136 -234q68 0 107 37v-53q-34 -30 -114 -30q-164 0 -179 280h-56l11 42h41q0 5 -0.5 20t-0.5 21t0.5 22t0.5 23h-52l11 43h44q18 279 182 279
q75 0 112 -33z" />
    <glyph glyph-name="afii61289" unicode="&#x2113;" horiz-adv-x="368" 
d="M323 115l25 -20q-46 -102 -134 -102q-124 0 -124 204v16l-14 -14l-16.5 -16.5l-14.5 -14.5l-18 31q50 52 63 68v279q0 125 32 178t81 53q42 0 65.5 -40t23.5 -108q0 -176 -156 -369v-38q0 -188 86 -188q57 0 101 81zM136 552v-233q122 169 122 309q0 107 -56 107
q-28 0 -47 -45.5t-19 -137.5z" />
    <glyph glyph-name="trademark" unicode="&#x2122;" horiz-adv-x="611" 
d="M50 434v17q18 2 23.5 2.5t15 5t12 14t2.5 25.5v191q-12 -2 -21 -4.5t-16.5 -8t-11.5 -8t-9 -12.5t-6 -12.5t-6.5 -18t-7.5 -19.5h-18l5 102h234l5 -102h-18q-2 5 -6.5 17.5t-6 16t-5.5 12t-6.5 11.5t-8 8.5t-11.5 8t-14.5 5t-19.5 4.5v-191q0 -16 1.5 -25t9.5 -13.5
t13.5 -5.5t23.5 -3v-17h-153zM264 434v17q16 3 22 4.5t13 6t9 13t2 23.5v156q0 25 -5 29t-29 6v19h100l55 -181h2l63 181h108v-19q-31 -4 -36 -11q-6 -8 -6 -30v-150q0 -30 6.5 -37t30.5 -10v-17h-124v17q15 3 20.5 5.5t10 12t4.5 29.5v184h-2l-84 -248h-16l-73 239h-2v-175
q0 -20 3.5 -29.5t8 -12t17.5 -5.5v-17h-98z" />
    <glyph glyph-name="Omega" unicode="&#x2126;" horiz-adv-x="525" 
d="M153 45v3q-45 58 -74 145t-29 189q0 156 60.5 245t155.5 89q92 0 150 -91.5t58 -238.5q0 -106 -30.5 -195t-74.5 -143v-3h114v-45h-172v33q49 52 81.5 144t32.5 196q-1 70 -17 135.5t-54 114t-91 48.5q-75 0 -119.5 -83t-44.5 -213q0 -99 33.5 -196.5t79.5 -145.5v-33
h-172v45h113z" />
    <glyph glyph-name="estimated" unicode="&#x212e;" horiz-adv-x="883" 
d="M847 344h-658q-5 0 -5 -5v-199q0 -12 8 -23q105 -108 249 -108q77 0 145 32.5t117 88.5h59q-56 -65 -141 -103t-181 -38q-168 0 -287 107t-119 258t119 258.5t287 107.5q169 0 288 -107t119 -259v-10zM698 370v200q0 14 -10 24q-106 104 -247 104q-143 0 -248 -107
q-9 -11 -9 -25v-196q0 -7 5 -7h505q4 0 4 7z" />
    <glyph glyph-name="partialdiff" unicode="&#x2202;" horiz-adv-x="409" 
d="M79 701l-19 40q52 50 121 50q80 0 135 -91.5t55 -283.5q0 -203 -50.5 -312.5t-143.5 -109.5q-67 0 -104 60.5t-37 163.5q0 115 50 188.5t117 73.5q43 0 74 -24t45 -54h1q1 10 1 37q0 136 -42.5 221.5t-104.5 85.5q-57 0 -98 -45zM180 38h2q55 0 92 84t44 213
q-12 41 -41 71t-69 30q-50 0 -86.5 -63.5t-36.5 -152.5q0 -87 25.5 -134.5t69.5 -47.5z" />
    <glyph glyph-name="Delta" unicode="&#x2206;" horiz-adv-x="478" 
d="M28 0v36l186 688h52l185 -687v-37h-423zM75 43h325l-114 425q-6 25 -24 86.5t-23 89.5h-3q-4 -27 -21 -86.5t-22 -80.5z" />
    <glyph glyph-name="product" unicode="&#x220f;" horiz-adv-x="518" 
d="M494 658h-77v-756h-48v756h-221v-756h-48v756h-77v48h471v-48z" />
    <glyph glyph-name="summation" unicode="&#x2211;" horiz-adv-x="420" 
d="M402 -98h-382v38l211 362l-201 368v36h356v-44h-291v-4l191 -348l-207 -354v-4h323v-50z" />
    <glyph glyph-name="minus" unicode="&#x2212;" horiz-adv-x="556" 
d="M531 212h-506v56h506v-56z" />
    <glyph glyph-name="uni2215" unicode="&#x2215;" horiz-adv-x="111" 
d="M-61 -12l182 732h52l-182 -732h-52z" />
    <glyph glyph-name="uni2219" unicode="&#x2219;" horiz-adv-x="204" 
d="M67 352q0 23 8.5 40t25.5 17q18 0 27 -17.5t9 -39.5q0 -20 -9.5 -36.5t-26.5 -16.5t-25.5 16t-8.5 37z" />
    <glyph glyph-name="radical" unicode="&#x221a;" horiz-adv-x="449" 
d="M439 838l-170 -995h-44l-130 483l-57 -21l-10 33l102 38l101 -373q10 -43 14 -78l1 -1q4 38 10 74l146 840h37z" />
    <glyph glyph-name="infinity" unicode="&#x221e;" horiz-adv-x="641" 
d="M600 297v-1q0 -57 -37 -93.5t-88 -36.5q-38 0 -72.5 23t-81.5 75q-28 -32 -46 -48.5t-49 -33t-63 -16.5q-51 0 -87 36.5t-36 90.5q0 56 36 92.5t92 36.5q43 0 79 -26.5t77 -74.5q33 37 47.5 51.5t45.5 32t64 17.5q54 0 86.5 -34.5t32.5 -90.5zM168 200h1q13 0 27 4.5
t24 10t23.5 17.5t19.5 18.5l20.5 21.5t17.5 19q-26 32 -40.5 48t-42.5 32.5t-56 16.5q-39 0 -61.5 -28t-21.5 -68q0 -39 25 -65.5t64 -26.5zM477 388h-1q-20 0 -41.5 -12t-33 -22t-34 -34t-24.5 -26q34 -37 51 -53t39.5 -28.5t44.5 -12.5q39 0 62 28t23 65q0 45 -24 70
t-62 25z" />
    <glyph glyph-name="integral" unicode="&#x222b;" horiz-adv-x="286" 
d="M269 847l-11 -36q-14 8 -27 8q-24 0 -41 -26q-27 -41 -27 -183q0 -78 4.5 -259.5t4.5 -260.5q0 -146 -38 -206q-26 -41 -74 -41q-26 0 -46 13l11 39q21 -9 33 -9q23 0 39 27q27 43 27 178q0 80 -4.5 263.5t-4.5 259.5q0 153 41 208q29 37 73 37q24 0 40 -12z" />
    <glyph glyph-name="approxequal" unicode="&#x2248;" horiz-adv-x="439" 
d="M379 406l24 -18q-33 -82 -102 -82q-30 0 -90 34q-46 30 -74 30q-43 0 -78 -65l-25 18q37 82 107 82q11 0 22 -2t22 -7.5l17 -8.5t17 -10t13 -8q50 -28 74 -28q41 0 73 65zM379 271l24 -19q-34 -81 -101 -81q-32 0 -91 34q-49 30 -73 30q-46 0 -79 -65l-25 17
q37 83 108 83q14 0 28.5 -4.5t23 -8.5t21.5 -12t17 -10q2 -1 11 -6.5t11 -6.5t9.5 -5t11 -5.5t9.5 -3.5t11 -2.5t11 -0.5q41 0 73 66z" />
    <glyph glyph-name="notequal" unicode="&#x2260;" horiz-adv-x="439" 
d="M309 463l-35 -80h122v-37h-136l-53 -119h189v-37h-204l-40 -92l-29 13l35 79h-116v37h131l52 119h-183v37h197l41 93z" />
    <glyph glyph-name="lessequal" unicode="&#x2264;" horiz-adv-x="439" 
d="M394 123l-349 196v36l349 196v-46l-308 -166v-2l308 -168v-46zM396 47h-354v38h354v-38z" />
    <glyph glyph-name="greaterequal" unicode="&#x2265;" horiz-adv-x="439" 
d="M46 551l349 -196v-36l-349 -196v46l308 166v2l-308 168v46zM396 47h-354v38h354v-38z" />
    <glyph glyph-name="lozenge" unicode="&#x25ca;" horiz-adv-x="449" 
d="M404 353l-160 -383h-41l-158 383l160 383h41zM357 351l-117 283q-5 12 -15 52h-2q-8 -34 -15 -52l-116 -280l117 -284q9 -22 14 -51h3q5 29 14 51z" />
    <glyph glyph-name="fi" unicode="&#xfb01;" horiz-adv-x="537" 
d="M176 0h-132v38q29 3 35 9.5t6 29.5v554q0 23 -6.5 29.5t-38.5 9.5v38h121q63 0 99 15l36 -68l-30 -17q-2 2 -8.5 7.5t-9.5 7.5t-9 5.5t-13.5 4.5t-16.5 1h-74v-86h94q23 0 29.5 6.5t7.5 21.5h30v-100h-30q-2 9 -4 14t-10 9.5t-21 4.5h-96v-457q0 -24 6 -30t35 -9v-38z
M501 0h-132v38q29 4 35 10t6 29v554q0 23 -6 29.5t-35 9.5v38h132v-38q-29 -3 -35 -9.5t-6 -29.5v-554q0 -22 6 -28.5t35 -10.5v-38z" />
    <glyph glyph-name="fl" unicode="&#xfb02;" horiz-adv-x="685" 
d="M176 0h-132v38q29 3 35 9.5t6 29.5v554q0 23 -6.5 29.5t-38.5 9.5v38h121q63 0 99 15l36 -68l-30 -17q-2 2 -8.5 7.5t-9.5 7.5t-9 5.5t-13.5 4.5t-16.5 1h-74v-86h94q23 0 29.5 6.5t7.5 21.5h30v-100h-30q-2 9 -4 14t-10 9.5t-21 4.5h-96v-457q0 -24 6 -30t35 -9v-38z
M518 0h-149v38q32 4 38 10t6 29v554q0 23 -6.5 29.5t-37.5 9.5v38h135v-38q-29 -3 -35 -9.5t-6 -29.5v-587h104q7 0 13 0.5t11.5 2.5t9 3t8 5t6.5 5.5t6 6.5t5 6.5l5 7.5t5 7l32 -20l-37 -80q-21 7 -53 9q-30 3 -60 3z" />
    </font>
</defs>
</svg>
