<?xml version="1.0" standalone="no"?>
<!DOCTYPE svg PUBLIC "-//W3C//DTD SVG 1.1//EN" "http://www.w3.org/Graphics/SVG/1.1/DTD/svg11.dtd" >
<svg xmlns="http://www.w3.org/2000/svg" xmlns:xlink="http://www.w3.org/1999/xlink" version="1.1">
<metadata></metadata>
<defs>
<font id="frutigerbold" horiz-adv-x="1138" >
<font-face units-per-em="2048" ascent="1638" descent="-410" />
<missing-glyph horiz-adv-x="569" />
<glyph horiz-adv-x="0" />
<glyph unicode="&#xd;" horiz-adv-x="0" />
<glyph unicode=" "  horiz-adv-x="569" />
<glyph unicode="&#x09;" horiz-adv-x="569" />
<glyph unicode="&#xa0;" horiz-adv-x="569" />
<glyph unicode="!" horiz-adv-x="796" d="M239 1422h322l-49 -1010h-230zM256 0v273h282v-273h-282z" />
<glyph unicode="&#x22;" horiz-adv-x="986" d="M203 1413h218l-38 -599h-141zM565 1413h218l-38 -599h-141z" />
<glyph unicode="#" d="M38 389v172h207l53 287h-175v172h207l73 393h202l-73 -393h217l73 393h202l-73 -393h175v-172h-207l-53 -287h175v-172h-207l-72 -389h-202l72 389h-217l-72 -389h-202l72 389h-175zM447 561h217l53 287h-216z" />
<glyph unicode="$" d="M81 1032q0 184 135.5 283t303.5 107v183h111v-176q26 1 30 1q67 0 154.5 -14t152.5 -34l-26 -239q-59 29 -141.5 48t-138.5 19q-12 0 -31 -1v-360q235 -58 333.5 -169t98.5 -270q0 -170 -117 -287t-324 -132v-181h-114v173q-34 -1 -48 -1q-176 0 -355 63l26 258 q68 -37 173 -64.5t177 -27.5q13 0 27 2v394q-248 75 -337.5 176.5t-89.5 248.5zM356 1048q0 -51 32 -87q44 -49 132 -74v322q-79 -13 -121.5 -57.5t-42.5 -103.5zM622 216q82 22 122.5 69.5t40.5 109.5q0 58 -38.5 105t-124.5 76v-360z" />
<glyph unicode="%" horiz-adv-x="2048" d="M218 1071q0 187 83.5 295t248.5 108q159 0 252 -94.5t93 -267.5q0 -105 -34.5 -196.5t-109.5 -143t-189 -51.5q-112 0 -191 46t-116 128.5t-37 175.5zM438 1085q0 -114 33 -157.5t86 -43.5q51 0 83 44.5t32 178.5q0 114 -39 166q-26 35 -78 35q-51 0 -79 -38 q-38 -53 -38 -185zM534 -43l799 1539h168l-798 -1539h-169zM1150 322q0 187 83.5 295t248.5 108q159 0 251.5 -94.5t92.5 -268.5q0 -105 -34 -196t-109.5 -142.5t-189.5 -51.5q-111 0 -190 45.5t-116 128t-37 176.5zM1370 337q0 -115 33 -158.5t85 -43.5q51 0 83 44.5 t32 178.5q0 113 -38 166q-26 35 -78 35t-79 -38q-38 -53 -38 -184z" />
<glyph unicode="&#x26;" horiz-adv-x="1479" d="M123 406q0 96 42.5 177t121.5 137q54 38 137 65q-81 59 -136.5 154t-55.5 179q0 87 50 164.5t149.5 123t232.5 45.5q123 0 217.5 -39t143.5 -115.5t49 -173.5q0 -108 -61 -194t-219 -178l263 -289q35 40 61.5 128.5t26.5 157.5v22h251q-7 -148 -59 -281 q-38 -96 -124 -205l256 -284h-350l-98 123q-61 -65 -165 -107t-228 -42q-149 0 -266.5 56.5t-178 159.5t-60.5 216zM405 406q0 -51 32 -108.5t85.5 -87.5t130.5 -30q66 0 127.5 24.5t108.5 68.5l-318 355q-91 -47 -128.5 -105t-37.5 -117zM500 1115q0 -45 29.5 -96 t105.5 -118q91 47 141.5 106t50.5 109q0 56 -43.5 96t-114.5 40q-76 0 -122.5 -41t-46.5 -96z" />
<glyph unicode="'" horiz-adv-x="569" d="M175 1413h218l-42 -599h-134z" />
<glyph unicode="(" horiz-adv-x="683" d="M83 632q0 223 62.5 412.5t259.5 505.5h261q-159 -265 -228.5 -484.5t-69.5 -431.5q0 -230 73.5 -453.5t227.5 -469.5h-261q-94 130 -154 249q-89 174 -130 333.5t-41 338.5z" />
<glyph unicode=")" horiz-adv-x="683" d="M14 -289q140 217 220.5 453t80.5 463q0 229 -73 451.5t-228 471.5h261q177 -247 262 -511q60 -183 60 -404q0 -164 -32.5 -306t-103 -292.5t-186.5 -325.5h-261z" />
<glyph unicode="*" d="M145 1143l69 220l272 -123l-28 296h225l-31 -294l273 114l64 -216l-285 -61l197 -219l-187 -135l-147 254l-154 -254l-187 135l201 219z" />
<glyph unicode="+" horiz-adv-x="1229" d="M83 428v207h421v428h222v-428h421v-207h-421v-428h-222v428h-421z" />
<glyph unicode="," horiz-adv-x="569" d="M78 -228l130 512h297l-185 -512h-242z" />
<glyph unicode="-" horiz-adv-x="683" d="M76 436v228h538v-228h-538z" />
<glyph unicode="." horiz-adv-x="569" d="M140 0v284h289v-284h-289z" />
<glyph unicode="/" horiz-adv-x="796" d="M24 0l500 1422h244l-497 -1422h-247z" />
<glyph unicode="0" d="M73 709q0 167 24 301.5t87.5 230.5t159 151.5t226.5 55.5q133 0 231.5 -57t158.5 -155.5t84.5 -237t24.5 -281.5q0 -190 -34 -346q-13 -64 -42 -122q-37 -78 -95 -138.5t-138.5 -96t-189.5 -35.5q-135 0 -232 55.5t-155.5 152t-84 234t-25.5 288.5zM365 711 q0 -267 52.5 -392t149.5 -125q52 0 98.5 38t79 150t32.5 327q0 186 -24.5 313t-72 169.5t-107.5 42.5q-66 0 -114.5 -50.5t-71 -187.5t-22.5 -285z" />
<glyph unicode="1" d="M130 1093l420 329h251v-1422h-289v1105l-237 -197z" />
<glyph unicode="2" d="M83 0v239l183 166q69 63 191 202t164.5 206t59.5 119q11 38 11 80q0 89 -58.5 144t-164.5 55q-74 0 -167.5 -33t-161.5 -85l-24 251q89 47 203.5 74.5t226.5 27.5q153 0 251 -52.5t148.5 -145t50.5 -195.5q0 -83 -24.5 -163t-102.5 -198.5t-213 -265.5q-77 -85 -201 -196 h579v-230h-951z" />
<glyph unicode="3" d="M92 31l17 244q168 -69 324 -69q141 0 213 61t72 152q0 90 -65 137q-88 65 -298 65q-37 0 -83 -5v235q42 -5 76 -5q152 0 228.5 29.5t107.5 78t31 95.5q0 44 -25 82.5t-83.5 61.5t-146.5 23q-79 0 -167 -21.5t-139 -51.5l-17 232q185 69 380 69q161 0 277 -51t165 -126.5 t49 -185.5q0 -157 -82.5 -237.5t-184.5 -99.5q50 0 113 -38q83 -49 123 -128t40 -181q0 -180 -123 -282q-158 -132 -438 -132q-79 0 -156.5 10t-207.5 38z" />
<glyph unicode="4" d="M33 289v240l533 893h358v-915h180v-218h-180v-289h-284v289h-607zM291 507h358v628z" />
<glyph unicode="5" d="M147 26l7 258q90 -38 157.5 -54.5t133.5 -16.5q145 0 221 68.5t76 173.5q0 102 -82 172t-242 70q-125 0 -250 -40l15 756h820v-218h-550l-7 -287q43 9 102 9q172 0 283.5 -61.5t162.5 -168.5t51 -227q0 -134 -63 -246.5t-188.5 -171.5t-303.5 -59q-78 0 -186.5 15 t-156.5 28z" />
<glyph unicode="6" d="M88 640q0 202 50 375q37 129 109 225.5t165 145.5q120 64 278 64q151 0 301 -54l-35 -232q-59 28 -124 43.5t-118 15.5q-98 0 -178 -49t-120.5 -143.5t-45.5 -243.5q35 60 107 101t167 41q120 0 215.5 -54t149 -170t53.5 -260q0 -139 -56 -249.5t-166 -166t-255 -55.5 q-156 0 -261 66.5t-170.5 215.5t-65.5 384zM387 460q0 -62 24 -130.5t71 -104.5t102 -36q76 0 134 68.5t58 185.5q0 78 -27.5 142.5t-73.5 94t-99 29.5q-89 0 -139 -73.5t-50 -175.5z" />
<glyph unicode="7" d="M100 1190v223h924v-225l-507 -1188h-313l531 1190h-635z" />
<glyph unicode="8" d="M71 384q0 92 32 166.5t85 117.5t146 76q-104 28 -170.5 118.5t-66.5 213.5q0 158 110 254q134 116 361 116q206 0 334.5 -92t128.5 -251q0 -117 -70 -211.5t-169 -123.5q133 -39 204 -132.5t71 -235.5q0 -192 -128 -309t-367 -117t-370 117.5t-131 292.5zM363 399 q0 -55 26.5 -106.5t75.5 -78.5t112 -27q88 0 143 54t55 137q0 77 -44 133t-113 85.5t-77 29.5q-5 0 -43 -22q-61 -34 -98 -86.5t-37 -118.5zM375 1071q0 -48 24.5 -88.5t75.5 -72.5q25 -16 120 -57q10 0 49 26q50 34 80 85t30 106q0 73 -49 121t-134 48q-88 0 -142 -49.5 t-54 -118.5z" />
<glyph unicode="9" d="M78 974q0 140 56 250.5t166.5 166t254.5 55.5q155 0 260 -65.5t171.5 -215t66.5 -384.5q0 -190 -43 -350q-28 -105 -77 -191t-108 -139t-145 -86q-118 -45 -248 -45q-145 0 -283 54l36 232q126 -59 242 -59q97 0 177.5 48.5t120.5 143.5t45 244q-34 -60 -106 -101.5 t-167 -41.5q-121 0 -216 54.5t-149 170.5t-54 259zM365 977q0 -78 27 -143t73 -94t99 -29q90 0 140 74t50 175q0 63 -24.5 131t-71.5 103.5t-102 35.5q-75 0 -133 -68t-58 -185z" />
<glyph unicode=":" horiz-adv-x="569" d="M140 0v284h289v-284h-289zM140 773v284h289v-284h-289z" />
<glyph unicode=";" horiz-adv-x="569" d="M40 -228l130 512h297l-185 -512h-242zM144 773v284h289v-284h-289z" />
<glyph unicode="&#x3c;" horiz-adv-x="1229" d="M82 424v216l1065 409v-230l-784 -287l784 -286v-233z" />
<glyph unicode="=" horiz-adv-x="1229" d="M83 203v208h1064v-208h-1064zM83 652v207h1064v-207h-1064z" />
<glyph unicode="&#x3e;" horiz-adv-x="1229" d="M82 13v233l783 286l-783 287v230l1065 -409v-216z" />
<glyph unicode="?" horiz-adv-x="1024" d="M102 1380q204 68 398 68q172 0 272.5 -49t151.5 -135t51 -175q0 -76 -30.5 -143.5t-107.5 -156.5l-145 -166q-31 -36 -49 -89.5t-18 -103.5q0 -8 1 -22h-249q-1 17 -1 26q0 45 9.5 100.5t29 102t45.5 76.5l145 171q68 82 68 164q0 75 -59 126.5t-166 51.5 q-68 0 -160 -23.5t-162 -62.5zM358 0v273h284v-273h-284z" />
<glyph unicode="@" horiz-adv-x="1638" d="M84 694q0 199 101.5 378t290.5 280t407 101q189 0 346.5 -75.5t241 -214t83.5 -304.5q0 -129 -50 -243q-37 -84 -92.5 -145t-124.5 -98t-143 -37q-80 0 -124.5 41t-44.5 105q0 17 4 39q-47 -91 -117.5 -138t-156.5 -47q-116 0 -192.5 82t-76.5 225q0 102 38 194.5 t94.5 154.5t122 95.5t144.5 33.5q92 0 152 -41q42 -30 71 -93l29 102h169l-129 -442q-21 -72 -21 -107q0 -39 21.5 -60t58.5 -21q49 0 102 41q70 54 112.5 156.5t42.5 213.5q0 136 -69.5 248.5t-200 172.5t-289.5 60q-192 0 -353.5 -86.5t-248.5 -243.5t-87 -332 q0 -148 56 -261.5t134.5 -185t167.5 -110.5q137 -59 306 -59q143 0 273 44q130 45 269 148l59 -79q-156 -115 -300 -165t-307 -50q-225 0 -399 94.5t-272 263t-98 365.5zM634 628q0 -85 35.5 -127t89.5 -42q56 0 107 51t97 188q35 103 35 171q0 59 -34.5 94.5t-87.5 35.5 q-100 0 -171 -125t-71 -246z" />
<glyph unicode="A" horiz-adv-x="1479" d="M19 0l559 1422h323l562 -1422h-318l-119 325h-587l-121 -325h-299zM526 555h413l-206 583z" />
<glyph unicode="B" horiz-adv-x="1252" d="M149 0v1422h363q171 0 229 -6q95 -11 155.5 -38t107 -75.5t70 -110.5t23.5 -132q0 -122 -71.5 -206.5t-205.5 -111.5q143 -11 234 -107.5t91 -236.5q0 -97 -38.5 -173.5t-110.5 -131.5q-47 -36 -118 -58q-113 -35 -234 -35h-495zM429 220h140q152 0 219.5 58t67.5 151 q0 109 -69.5 157.5t-220.5 48.5h-137v-415zM429 846h137q134 0 189 50t55 130q0 61 -31 102.5t-74 55.5t-125 15l-151 3v-356z" />
<glyph unicode="C" horiz-adv-x="1252" d="M104 705q0 328 202.5 529t537.5 201q191 0 362 -60l-23 -244q-66 32 -157.5 50.5t-166.5 18.5q-127 0 -231 -60.5t-158.5 -173t-54.5 -248.5q0 -221 133 -356t348 -135q157 0 301 60l12 -254q-55 -17 -153 -32t-186 -15q-197 0 -359 66q-195 80 -301 247t-106 406z" />
<glyph unicode="D" horiz-adv-x="1479" d="M168 0v1422h325q223 0 354 -22.5t228 -76.5t170 -145t105 -199.5t32 -249.5q0 -147 -34 -265.5t-103 -209.5t-157 -144t-244 -86q-110 -24 -290 -24h-386zM455 223q38 -4 75 -4q117 0 216 25q73 18 126 51t102 92t78 144t29 184q0 95 -26 175.5t-77 145t-114 100.5 q-62 35 -152 52q-85 16 -239 16h-18v-981z" />
<glyph unicode="E" d="M168 0v1415h841v-237h-552v-337h505v-232h-505v-372h557v-237h-846z" />
<glyph unicode="F" horiz-adv-x="1024" d="M154 0v1415h792v-237h-503v-341h479v-233h-479v-604h-289z" />
<glyph unicode="G" horiz-adv-x="1479" d="M102 714q0 211 90 372.5t279 257t437 95.5q213 0 391 -59l-19 -256q-61 32 -174 58.5t-200 26.5q-141 0 -258 -60t-177.5 -174.5t-60.5 -261.5q0 -149 62 -263t178.5 -169.5t240.5 -55.5q39 0 92.5 7.5t80.5 16.5v346h-301v228h574v-759q-112 -37 -243.5 -56.5 t-240.5 -19.5q-156 0 -294 43.5t-242 139.5t-159.5 236t-55.5 307z" />
<glyph unicode="H" horiz-adv-x="1479" d="M171 0v1422h289v-569h569v569h289v-1422h-289v612h-569v-612h-289z" />
<glyph unicode="I" horiz-adv-x="569" d="M140 0v1422h289v-1422h-289z" />
<glyph unicode="J" horiz-adv-x="796" d="M24 19l7 246q75 -21 137 -21q96 0 144 65q34 46 34 170v943h290v-972q0 -171 -43 -263.5t-141 -145.5t-219 -53q-101 0 -209 31z" />
<glyph unicode="K" horiz-adv-x="1365" d="M168 0v1422h289v-607l515 607h353l-588 -659l611 -763h-374l-517 664v-664h-289z" />
<glyph unicode="L" horiz-adv-x="1024" d="M149 0v1422h289v-1178h550v-244h-839z" />
<glyph unicode="M" horiz-adv-x="1934" d="M161 0v1422h460l341 -1081l351 1081h450v-1422h-272v1185l-403 -1185h-268l-394 1185v-1185h-265z" />
<glyph unicode="N" horiz-adv-x="1479" d="M154 0v1422h346l562 -1090v1090h258v-1422h-348l-562 1090v-1090h-256z" />
<glyph unicode="O" horiz-adv-x="1593" d="M102 718q0 160 47 298t135.5 233t199.5 143q141 61 317 61q204 0 358 -83t242 -260.5t88 -394.5t-85.5 -391t-247.5 -263.5t-364 -89.5q-198 0 -360.5 89.5t-246 259.5t-83.5 398zM410 708q0 -164 52 -281t140.5 -175t194.5 -58q156 0 257 121q127 149 127 397 q0 169 -57.5 292.5t-143 176t-185.5 52.5q-159 0 -260 -121q-125 -149 -125 -404z" />
<glyph unicode="P" d="M142 0v1422h313q183 0 241 -7q103 -14 172 -47t122.5 -90.5t81.5 -131.5t28 -160q0 -96 -34 -175t-89.5 -136.5t-122.5 -87t-158 -43.5q-44 -6 -110 -6h-34l-121 2v-540h-289zM431 761q45 -1 60 -1q105 0 160 17q34 12 69.5 37.5t58 67t22.5 105.5q0 98 -72.5 159.5 t-233.5 61.5q-27 0 -64 -4v-443z" />
<glyph unicode="Q" horiz-adv-x="1593" d="M104 703q0 137 36 272.5t122 243.5t230.5 167.5t302.5 59.5q161 0 297.5 -57t219.5 -149t130 -231t47 -295q0 -146 -41 -286q-27 -95 -71 -166t-123 -141q-59 -52 -133 -85l336 -309h-350l-242 245q-57 -3 -87 -3q-301 0 -487.5 195.5t-186.5 538.5zM410 709 q0 -253 126 -403q98 -116 262 -116q182 0 283.5 148t101.5 378q0 135 -44 251q-24 63 -68 122t-112 98t-159 39q-103 0 -193.5 -57.5t-143.5 -177.5t-53 -282z" />
<glyph unicode="R" horiz-adv-x="1252" d="M156 0v1422h405q175 0 232 -6q85 -10 141 -37t103 -77t71.5 -114.5t24.5 -137.5q0 -83 -28.5 -145.5t-68 -102t-83.5 -61t-110 -32.5q38 -2 77 -36.5t68 -101.5l33 -76l204 -495h-320l-154 401q-27 70 -40 94q-22 42 -43.5 62t-47.5 28q-40 11 -114 11q-26 0 -61 -3v-593 h-289zM445 813h126q137 0 200.5 58t63.5 149q0 78 -56.5 128.5t-167.5 50.5h-166v-386z" />
<glyph unicode="S" d="M119 1030q0 179 129 293t378 114q161 0 334 -53l-26 -237q-57 29 -140.5 48t-153.5 19q-110 0 -168.5 -49t-58.5 -113q0 -49 32.5 -89.5t126.5 -78.5l215 -88q119 -48 186.5 -147t67.5 -226q0 -115 -46.5 -200.5t-119.5 -137t-171 -74.5t-206 -23q-171 0 -355 57l26 261 q66 -39 152 -63.5t166 -24.5q125 0 190.5 55.5t65.5 129.5q0 56 -35.5 97.5t-114.5 75.5l-197 85q-92 40 -142 81q-66 53 -100.5 124t-34.5 164z" />
<glyph unicode="T" d="M24 1178v242h1105v-242h-413v-1178h-289v1178h-403z" />
<glyph unicode="U" horiz-adv-x="1479" d="M159 609v813h289v-837q0 -111 16 -173t53 -107.5t86 -72.5t136 -27q143 0 221 87t78 293v837h278v-837q0 -158 -23.5 -253t-65.5 -152.5t-109.5 -104t-146.5 -68.5q-112 -31 -240 -31q-127 0 -227.5 28.5t-167 78.5t-103.5 110t-59 163q-15 70 -15 253z" />
<glyph unicode="V" horiz-adv-x="1365" d="M17 1422h308l370 -1114l365 1114h284l-481 -1422h-353z" />
<glyph unicode="W" horiz-adv-x="2048" d="M17 1422h301l268 -1100l246 1100h389l254 -1128l270 1128h280l-375 -1422h-367l-261 1138l-256 -1138h-370z" />
<glyph unicode="X" horiz-adv-x="1365" d="M17 0l472 744l-427 678h332l299 -502l305 502h306l-429 -678l469 -744h-339l-329 557l-334 -557h-325z" />
<glyph unicode="Y" horiz-adv-x="1365" d="M17 1422h337l336 -592l344 592h303l-512 -853v-569h-289v569z" />
<glyph unicode="Z" d="M73 0v247l668 938h-642v237h951v-246l-669 -939h683v-237h-991z" />
<glyph unicode="[" horiz-adv-x="683" d="M171 -287v1835h453v-190h-202v-1455h202v-190h-453z" />
<glyph unicode="\" horiz-adv-x="797" d="M35 1422h244l484 -1422h-247z" />
<glyph unicode="]" horiz-adv-x="683" d="M76 -97h202v1455h-202v190h453v-1835h-453v190z" />
<glyph unicode="^" horiz-adv-x="1229" d="M157 539l360 874h194l361 -874h-223l-240 596l-229 -596h-223z" />
<glyph unicode="_" horiz-adv-x="1024" d="M0 -154h1024v-102h-1024v102z" />
<glyph unicode="`" horiz-adv-x="569" d="M59 1498h280l170 -296h-170z" />
<glyph unicode="a" d="M71 315q0 179 163 270q125 69 377 69q63 0 143 -7q1 19 1 29q0 99 -58 153.5t-178 54.5q-87 0 -176 -34t-151 -84l-7 237q53 27 160 50t211 23q133 0 225.5 -37t150.5 -112q40 -53 54 -138.5t14 -250.5v-156l3 -154l4 -162l5 -66h-242l-7 156q-35 -74 -127.5 -124.5 t-206.5 -50.5q-99 0 -183 41t-129.5 117.5t-45.5 175.5zM344 306q0 -60 43 -99t119 -39q67 0 130.5 39.5t91.5 102.5t28 171q-51 4 -69 4q-100 0 -183.5 -18t-121.5 -61.5t-38 -99.5z" />
<glyph unicode="b" horiz-adv-x="1252" d="M140 0v1536h270v-633q47 61 77 85q50 40 112.5 63t141.5 23q186 0 306 -135.5t120 -394.5q0 -172 -52 -300t-153.5 -193t-228.5 -65q-105 0 -191 44t-141 124v-154h-261zM413 524q0 -164 70 -245.5t167 -81.5q96 0 164.5 81.5t68.5 247.5q0 164 -65.5 243.5t-162.5 79.5 q-99 0 -170.5 -83t-71.5 -242z" />
<glyph unicode="c" horiz-adv-x="910" d="M69 528q0 160 66 282t194.5 188t275.5 66q53 0 120.5 -9.5t113.5 -23.5l-23 -220q-68 36 -166 36q-127 0 -212 -88t-85 -226q0 -90 36.5 -164t105 -114t153.5 -40q48 0 103 14t95 34l12 -230q-112 -38 -244 -38q-124 0 -224 36.5t-166.5 101t-102.5 141.5 q-52 113 -52 254z" />
<glyph unicode="d" horiz-adv-x="1252" d="M90 540q0 247 113.5 390.5t310.5 143.5q108 0 186 -41t146 -130v633h270v-1536h-260v154q-53 -78 -140 -123t-192 -45q-87 0 -155.5 27.5t-112 65.5t-81 97.5t-61.5 156t-24 207.5zM373 526q0 -170 70.5 -249.5t162.5 -79.5q97 0 167 81.5t70 242.5q0 143 -64 235.5 t-179 92.5q-95 0 -161 -79.5t-66 -243.5z" />
<glyph unicode="e" d="M81 531q0 168 63.5 297t184.5 194.5t267 65.5q156 0 267 -77.5t155.5 -210.5t44.5 -301q0 -19 -3 -56h-714q3 -71 43.5 -133.5t104.5 -93.5t157 -31q84 0 166 23.5t174 75.5l3 -225q-36 -27 -143.5 -55t-220.5 -28q-168 0 -292.5 62.5t-190.5 192.5t-66 300zM344 633h462 q-6 131 -67 196t-162 65q-94 0 -147 -57q-75 -78 -86 -204z" />
<glyph unicode="f" horiz-adv-x="796" d="M38 844v206h204q3 202 37 297t113.5 147t217.5 52q93 0 168 -22l-22 -225q-48 24 -104 24q-80 0 -105 -52t-30 -221h239v-206h-239v-844h-275v844h-204z" />
<glyph unicode="g" horiz-adv-x="1252" d="M83 542q0 254 125.5 393t308.5 139q83 0 155.5 -29t119.5 -74q33 -32 57 -82v166h263v-927q0 -150 -25 -238.5t-66 -144.5t-101 -97.5t-128 -63.5q-105 -32 -230 -32q-195 0 -370 73l24 240q68 -43 159.5 -68t168.5 -25q97 0 174 45.5t107.5 127t32.5 266.5 q-60 -108 -154 -160.5t-196 -52.5q-112 0 -212.5 61t-156.5 185.5t-56 297.5zM367 564q0 -172 67 -254t166 -82q100 0 172 81.5t72 225.5q0 150 -72 234t-170 84q-64 0 -120 -36.5t-85.5 -105.5t-29.5 -147z" />
<glyph unicode="h" horiz-adv-x="1252" d="M145 0v1536h275v-633q126 168 332 168q99 0 176.5 -37.5t116.5 -94t59 -160.5q10 -57 10 -175v-604h-274v607q0 122 -51.5 182t-126.5 60q-67 0 -125.5 -38t-82.5 -106q-34 -91 -34 -174v-531h-275z" />
<glyph unicode="i" horiz-adv-x="569" d="M147 0v1055h275v-1055h-275zM147 1247v258h275v-258h-275z" />
<glyph unicode="j" horiz-adv-x="569" d="M-28 -424l10 196q12 -2 27 -2q82 0 117 54q26 40 26 150v1081h275v-1119q0 -94 -22 -165.5t-65.5 -118t-106.5 -70t-145 -23.5q-69 0 -116 17zM152 1247v258h275v-258h-275z" />
<glyph unicode="k" d="M152 0v1536h275v-903l332 422h322l-393 -472l443 -583h-348l-356 512v-512h-275z" />
<glyph unicode="l" horiz-adv-x="569" d="M149 0v1536h275v-1536h-275z" />
<glyph unicode="m" horiz-adv-x="1820" d="M128 1055h261l7 -161q52 84 139 130.5t192 46.5q117 0 196 -57q60 -44 99 -130q24 51 59 84q50 48 125 77t154 29q94 0 164 -40t107 -103q27 -46 43 -140q11 -62 11 -182v-609h-275v581q0 113 -16 161.5t-55.5 75t-86.5 26.5q-54 0 -104 -36.5t-74 -110t-24 -142.5v-555 h-275v633q0 107 -45 159t-113 52q-79 0 -142 -76.5t-63 -238.5v-529h-275v794l-4 175q-1 46 -5 86z" />
<glyph unicode="n" horiz-adv-x="1252" d="M135 1055h261l7 -161q113 178 341 178q86 0 154.5 -25t112.5 -68.5t66 -95.5t32 -147q4 -45 5 -238v-498h-273v529q0 172 -30 232q-46 90 -153 90q-67 0 -126 -38t-86 -108t-27 -205v-500h-275v847q0 109 -9 208z" />
<glyph unicode="o" horiz-adv-x="1252" d="M76 525q0 249 154 405t397 156q242 0 394.5 -156t152.5 -416q0 -95 -32 -193.5t-97.5 -173.5t-171 -125.5t-247.5 -50.5q-242 0 -396 154.5t-154 399.5zM365 531q0 -173 75 -262t183 -89q126 0 196 97t70 247q0 136 -67 246t-194 110q-57 0 -102 -22.5t-79 -65.5t-54 -97 q-28 -78 -28 -164z" />
<glyph unicode="p" horiz-adv-x="1252" d="M133 1055h265l5 -164q54 86 139.5 134.5t195.5 48.5q181 0 294 -115q139 -143 139 -416q0 -164 -50 -292t-152 -196.5t-242 -68.5q-108 0 -187 43t-125 116v-579h-273v1181l-4 206l-3 73zM415 521q0 -157 70.5 -239.5t166.5 -82.5q93 0 164 85.5t71 248.5q0 160 -71 248 q-55 68 -148 68q-106 0 -179.5 -84.5t-73.5 -243.5z" />
<glyph unicode="q" horiz-adv-x="1252" d="M71 539q0 264 121.5 399.5t310.5 135.5q219 0 336 -183l5 164l265 -3l-2 -26l-7 -279v-1181h-273v579q-44 -71 -123 -115t-189 -44q-129 0 -231 61.5t-157.5 191.5t-55.5 300zM355 533q0 -162 71 -248t165 -86q59 0 116 37t90 112.5t33 171.5q0 156 -74 242.5t-179 86.5 q-95 0 -158.5 -77.5t-63.5 -238.5z" />
<glyph unicode="r" horiz-adv-x="796" d="M135 1055h251l5 -268q27 128 111 202.5t191 74.5q39 0 75 -7v-258q-31 17 -84 17q-74 0 -124.5 -29t-82.5 -77.5t-45 -109.5t-13 -166v-434h-275v735l-7 291z" />
<glyph unicode="s" horiz-adv-x="910" d="M85 28l17 228q159 -66 266 -66q100 0 152 40q37 28 37 82q0 35 -17 57t-54 34l-119 38q-162 52 -222 126t-60 186q0 135 98 219q123 105 324 105q129 0 282 -41l-19 -209q-125 48 -226 48q-97 0 -143 -35.5t-46 -78.5q0 -33 27.5 -57t48.5 -26l10 -2l192 -67 q95 -33 148 -108t53 -182q0 -89 -33 -148.5t-83.5 -99.5t-100.5 -59q-80 -31 -207 -31q-160 0 -325 47z" />
<glyph unicode="t" horiz-adv-x="796" d="M28 846v204h204v216l263 87v-303h246v-204h-246v-386q0 -139 24 -178q41 -66 136 -66q48 0 98 16l7 -218q-81 -26 -186 -26q-76 0 -132.5 17.5t-96.5 49t-64 71t-40 114.5q-12 55 -12 163v443h-201z" />
<glyph unicode="u" horiz-adv-x="1252" d="M145 521v534h275v-519l2 -93q3 -109 36 -158q52 -76 149 -76q57 0 103 28.5t73.5 77.5t40.5 128q6 37 6 126v486h275v-645l7 -348l7 -62h-265l-7 161q-47 -79 -135.5 -127.5t-205.5 -48.5q-83 0 -149 23.5t-107.5 61.5t-63 83t-33.5 136q-8 61 -8 232z" />
<glyph unicode="v" d="M24 1055h296l263 -771l256 771h275l-388 -1055h-311z" />
<glyph unicode="w" horiz-adv-x="1820" d="M21 1055h289l237 -780l214 780h320l232 -780l220 780h263l-324 -1055h-323l-232 806l-228 -806h-312z" />
<glyph unicode="x" d="M17 0l365 552l-327 503h325l206 -344l204 341h289l-315 -504l358 -548h-330l-235 393l-237 -393h-303z" />
<glyph unicode="y" d="M24 1055h303l256 -775l256 775h280l-424 -1128l-50 -114q-34 -79 -80.5 -132.5t-122 -88.5t-160.5 -35q-33 0 -102 8q-48 6 -90 20l19 204q67 -20 133 -20t120 48t72 128z" />
<glyph unicode="z" horiz-adv-x="1024" d="M73 0v213l536 628h-512v214h834v-223l-524 -619h545v-213h-879z" />
<glyph unicode="{" horiz-adv-x="682" d="M-11 565v131q99 10 160.5 52t84.5 103q11 32 11 146v71q0 190 36 274q36 85 132.5 140.5t280.5 65.5v-131q-91 -9 -144.5 -47.5t-74.5 -105.5q-16 -50 -16 -173v-76q0 -113 -17 -177.5t-57.5 -109.5t-91 -67t-124.5 -31q110 -11 176 -60t90 -122t24 -202v-78 q0 -127 15 -174q20 -63 74.5 -102t145.5 -48v-131q-103 6 -176 24.5t-124.5 53t-85 79.5t-45.5 100q-18 82 -18 221v73q0 105 -10 141q-17 55 -66 94q-64 52 -180 66z" />
<glyph unicode="|" horiz-adv-x="455" d="M119 -439v2048h218v-2048h-218z" />
<glyph unicode="}" horiz-adv-x="682" d="M-11 -156q90 9 144.5 47.5t75.5 100.5q15 48 15 176v78q0 128 24 202q25 75 91.5 122.5t174.5 59.5q-66 9 -104 23q-48 19 -86 53t-62 77q-18 32 -26 77q-12 58 -12 155v76q0 123 -16 173q-22 67 -74.5 105.5t-144.5 47.5v131q144 -8 228 -41t132 -86.5t68 -119.5 t20 -233v-71q0 -104 14 -147t45 -74t83 -51.5t115 -28.5v-131q-106 -16 -163 -54.5t-75.5 -90.5t-18.5 -156v-73q0 -194 -35 -276q-36 -82 -133.5 -137t-279.5 -65v131z" />
<glyph unicode="~" horiz-adv-x="1229" d="M68 359q10 101 40 167q42 91 106.5 134.5t147.5 43.5q38 0 75 -8q38 -9 146 -45q190 -62 234 -73q45 -11 78 -11q49 0 83.5 33.5t47.5 102.5h139q-19 -177 -100 -259.5t-198 -82.5q-41 0 -88 11q-107 25 -295 92q-71 26 -96 32t-47 6q-46 0 -84 -37t-49 -106h-140z" />
<glyph unicode="&#xa0;" />
<glyph unicode="&#xa1;" horiz-adv-x="796" d="M237 -367l50 1009h230l42 -1009h-322zM261 782v273h282v-273h-282z" />
<glyph unicode="&#xa2;" d="M183 528q0 111 34.5 211.5t108.5 174t180.5 113t201.5 39.5q39 0 58 -4l79 246h118l-83 -260q36 -6 74 -17l-24 -220q-68 25 -109 33l-187 -602q48 -26 129 -26q46 0 104.5 14.5t93.5 32.5l12 -230q-117 -38 -253 -38q-80 0 -158 19l-87 -277h-119l100 315 q-73 38 -119 82q-66 63 -110 160.5t-44 233.5zM467 531q0 -65 21 -123.5t48 -89.5l162 523q-102 -23 -166.5 -105.5t-64.5 -204.5z" />
<glyph unicode="&#xa3;" d="M111 0v216h178v452h-154v155h154q-2 42 -2 65q0 162 49 282.5t170 191t306 70.5q126 0 235 -33l-14 -230q-101 35 -193 35q-130 0 -198 -86.5t-68 -239.5q0 -18 2 -55h303v-155h-303v-452h457v-216h-922z" />
<glyph unicode="&#xa4;" d="M64 334l136 136q-74 116 -74 243q0 128 74 244l-136 136l125 125l136 -136q121 73 244 73q122 0 245 -74l134 137l125 -125l-136 -137q35 -49 54.5 -114t19.5 -130q0 -128 -74 -242l136 -136l-125 -125l-137 135q-113 -73 -241 -73q-137 0 -244 74l-137 -136zM314 713 q0 -105 74.5 -179.5t180.5 -74.5q105 0 179 74.5t74 179.5q0 66 -34 127.5t-95 94t-124 32.5q-64 0 -125 -32.5t-95.5 -94t-34.5 -127.5z" />
<glyph unicode="&#xa5;" d="M-26 1416h311l211 -408q21 -41 29 -59l54 -120q42 98 84 179l213 408h288l-353 -665h210v-151h-290l-15 -28v-113h305v-150h-305v-309h-290v309h-304v150h304v104l-19 37h-285v151h205z" />
<glyph unicode="&#xa6;" horiz-adv-x="455" d="M119 -183v512h218v-512h-218zM119 841v512h218v-512h-218z" />
<glyph unicode="&#xa7;" d="M152 597q0 161 145 259q-61 39 -98.5 100.5t-37.5 137.5q0 95 51 178t154 131t236 48q54 0 144.5 -11t180.5 -32l-21 -223q-66 29 -150 44.5t-148 15.5q-101 0 -149.5 -39.5t-48.5 -92.5q0 -45 39 -88t146 -82l133 -47q96 -34 155.5 -77t92 -105t32.5 -135 q0 -82 -41.5 -152t-108.5 -105q131 -86 131 -237q0 -90 -52.5 -180.5t-156 -140t-245.5 -49.5q-70 0 -168.5 14.5t-200.5 45.5l19 234q63 -31 162 -54.5t173 -23.5q75 0 122.5 18t69 50.5t21.5 68.5q0 37 -24.5 70.5t-65.5 51.5l-218 90q-142 58 -207.5 133.5t-65.5 183.5z M353 647q0 -45 35 -88t134 -83l201 -80q74 55 74 137q0 66 -46 107q-35 31 -158 81l-166 66q-33 -28 -53.5 -68.5t-20.5 -71.5z" />
<glyph unicode="&#xa8;" horiz-adv-x="569" d="M-40 1247v237h232v-237h-232zM377 1247v237h232v-237h-232z" />
<glyph unicode="&#xa9;" horiz-adv-x="1638" d="M78 712q0 193 99.5 371t277 274t364.5 96t364.5 -96t277 -274t99.5 -371q0 -122 -37 -233q-38 -112 -103 -200q-65 -89 -156 -159t-207 -109.5t-238 -39.5q-162 0 -297.5 62.5t-226.5 155t-144 203.5q-73 151 -73 320zM180 712q0 -104 33 -204t93.5 -178.5t137 -134.5 t173 -89t202.5 -33q103 0 202.5 33t179 93t135.5 137t89 173q33 97 33 203q0 166 -86 320t-239 236.5t-314 82.5t-314 -82.5t-239 -236.5t-86 -320zM430 714q0 120 50 223.5t140.5 158.5t200.5 55q152 0 253 -89.5t110 -220.5h-159q-14 82 -69 128.5t-133 46.5 q-94 0 -159 -76.5t-65 -219.5q0 -98 31.5 -169t85.5 -104.5t118 -33.5q77 0 127.5 42.5t66.5 123.5h159q-14 -128 -111 -214.5t-238 -86.5q-172 0 -290 122.5t-118 313.5z" />
<glyph unicode="&#xaa;" horiz-adv-x="739" d="M46 988q0 104 91 154t260 50q41 0 93 -5v18q0 58 -37 91.5t-116 33.5q-57 0 -115 -21t-97 -51l-5 143q36 17 105 30.5t138 13.5q98 0 158 -27.5t87 -65.5t34 -82.5t8 -118.5q3 -299 8 -352h-157l-5 94q-23 -44 -83 -74.5t-134 -30.5q-108 0 -170.5 57t-62.5 143zM223 983 q0 -35 27.5 -59t78.5 -24q44 0 85.5 24.5t59 61.5t17.5 102q-31 2 -45 2q-130 0 -185 -37q-38 -26 -38 -70z" />
<glyph unicode="&#xab;" d="M97 529l242 419h256l-223 -419l223 -420h-256zM562 529l241 419h254l-220 -419l220 -420h-254z" />
<glyph unicode="&#xac;" horiz-adv-x="1229" d="M83 652v207h1064v-656h-211v449h-853z" />
<glyph unicode="&#xad;" horiz-adv-x="683" d="M76 436v228h538v-228h-538z" />
<glyph unicode="&#xae;" horiz-adv-x="770" d="M15 1083q0 97 50 185.5t139 136.5t181 48q93 0 182 -48t138.5 -136.5t49.5 -185.5q0 -96 -48.5 -184.5t-137 -137.5t-184.5 -49q-95 0 -183.5 49.5t-137.5 137.5t-49 184zM80 1083q0 -79 40.5 -152t113 -113.5t151.5 -40.5t152 40.5t113.5 113.5t40.5 152t-41.5 152.5 t-114.5 113t-150 39.5q-76 0 -149.5 -39.5t-114.5 -112.5t-41 -153zM230 878v411h147q104 0 143 -32t39 -88q0 -37 -18 -61t-57 -37q38 -15 53 -40t16 -97q1 -34 10 -56h-95q-8 21 -9 59q-1 60 -18.5 77.5t-73.5 17.5h-41v-154h-96zM326 1106h47q53 0 71 14.5t18 39.5 q0 26 -18.5 40.5t-71.5 14.5h-46v-109z" />
<glyph unicode="&#xaf;" horiz-adv-x="569" d="M-12 1292v137h593v-137h-593z" />
<glyph unicode="&#xb0;" horiz-adv-x="819" d="M76 1115q0 87 45 167t124.5 123t163.5 43t164 -43t125 -123t45 -167q0 -86 -44.5 -165.5t-123.5 -123.5t-166 -44q-86 0 -165.5 44t-123.5 123.5t-44 165.5zM253 1115q0 -65 46 -110.5t110 -45.5q65 0 111 45.5t46 110.5t-46 110.5t-111 45.5t-110.5 -45.5t-45.5 -110.5z " />
<glyph unicode="&#xb1;" horiz-adv-x="1229" d="M83 -36v208h1064v-208h-1064zM83 562v208h421v328h222v-328h421v-208h-421v-320h-222v320h-421z" />
<glyph unicode="&#xb2;" horiz-adv-x="740" d="M54 577v144q151 123 248 225t127 162q21 40 21 77q0 52 -37.5 85.5t-108.5 33.5q-48 0 -111.5 -22t-101.5 -49l-15 151q127 61 279 61q142 0 217 -68t75 -168q0 -85 -52 -171q-89 -149 -299 -323h376v-138h-618z" />
<glyph unicode="&#xb3;" horiz-adv-x="740" d="M60 597l11 147q109 -42 211 -42q93 0 139 37t46 91q0 53 -40 81q-57 40 -194 40q-27 0 -56 -3v141q28 -3 48 -3q101 0 150.5 18t69.5 47t20 57q0 42 -38 71t-128 29q-51 0 -108 -12.5t-91 -31.5l-11 140q120 41 247 41q164 0 254 -72q65 -52 65 -146q0 -82 -46.5 -135.5 t-126.5 -66.5q51 0 115 -51.5t64 -156.5q0 -106 -76 -167q-102 -82 -289 -82q-92 0 -236 29z" />
<glyph unicode="&#xb4;" horiz-adv-x="569" d="M59 1202l171 296h279l-289 -296h-161z" />
<glyph unicode="&#xb5;" horiz-adv-x="1251" d="M166 -430v1419h209v-434q0 -173 22 -248q23 -76 78 -114t129 -38q70 0 126 37.5t84.5 113.5t28.5 248v436h209v-990h-185v133q-33 -50 -58 -74q-38 -35 -89.5 -57t-118.5 -22q-78 0 -139 32q-45 24 -87 78v-520h-209z" />
<glyph unicode="&#xb6;" horiz-adv-x="1270" d="M49 927q0 105 31 186.5t84.5 143t114.5 96.5q44 26 124.5 47.5t178.5 21.5h612v-166h-110v-1667h-202v1667h-223v-1667h-202v881q-85 7 -141 28q-79 31 -138 89.5t-94 143.5t-35 196z" />
<glyph unicode="&#xb8;" horiz-adv-x="569" d="M52 -412l40 87q29 -16 71 -27t72 -11q57 0 85 24.5t28 59.5q0 27 -24.5 47.5t-69.5 20.5t-86 -19l-31 55l121 192h104l-101 -154q44 11 85 11q81 0 124.5 -40t43.5 -104q0 -77 -64.5 -131t-190.5 -54q-108 0 -207 43z" />
<glyph unicode="&#xb9;" horiz-adv-x="740" d="M85 1233l273 197h163v-853h-188v663l-154 -118z" />
<glyph unicode="&#xba;" horiz-adv-x="812" d="M49 1109q0 146 98 241t260 95q161 0 258 -95t97 -248q0 -86 -41.5 -163t-125 -120t-189.5 -43q-161 0 -259 94.5t-98 238.5zM237 1112q0 -102 48 -156.5t120 -54.5q76 0 124.5 54.5t48.5 151.5q0 99 -49.5 156.5t-120.5 57.5t-121 -56t-50 -153z" />
<glyph unicode="&#xbb;" d="M78 109l220 420l-220 419h254l241 -419l-241 -420h-254zM540 109l223 420l-223 419h256l242 -419l-242 -420h-256z" />
<glyph unicode="&#xbc;" horiz-adv-x="1708" d="M-19 1233l273 197h163v-853h-188v663l-154 -118zM276 -43l856 1539h168l-855 -1539h-169zM885 174v143l347 536h232v-549h117v-130h-117v-174h-185v174h-394zM1053 304h232v377z" />
<glyph unicode="&#xbd;" horiz-adv-x="1708" d="M2 1233l273 197h163v-853h-188v663l-154 -118zM238 -43l856 1539h168l-856 -1539h-168zM938 0v144q152 123 248 225q97 102 128 161q20 40 20 77q0 53 -37.5 86.5t-107.5 33.5q-48 0 -111.5 -22t-102.5 -49l-15 150q127 62 279 62q142 0 217.5 -68t75.5 -168 q0 -85 -52 -171q-90 -149 -300 -323h376v-138h-618z" />
<glyph unicode="&#xbe;" horiz-adv-x="1708" d="M-4 597l11 147q109 -42 211 -42q93 0 139 37t46 91q0 53 -40 81q-57 40 -194 40q-27 0 -56 -3v141q28 -3 48 -3q101 0 150.5 18t69.5 47t20 57q0 42 -38 71t-128 29q-51 0 -108 -12.5t-91 -31.5l-11 140q120 41 247 41q164 0 254 -72q65 -52 65 -146q0 -82 -46.5 -135.5 t-126.5 -66.5q51 0 115 -51.5t64 -156.5q0 -106 -76 -167q-102 -82 -289 -82q-92 0 -236 29zM322 -43l856 1539h168l-856 -1539h-168zM924 174v143l347 536h233v-549h117v-130h-117v-174h-185v174h-395zM1092 304h233v377z" />
<glyph unicode="&#xbf;" horiz-adv-x="1024" d="M62 -27q0 75 30.5 143.5t107.5 156.5l144 166q31 35 49.5 89t18.5 104q0 8 -2 22h249q1 -17 1 -27q0 -44 -9 -99.5t-29 -102t-46 -77.5l-144 -170q-69 -82 -69 -164q0 -75 59 -126.5t167 -51.5q68 0 160.5 24t161.5 62l23 -240q-205 -68 -397 -68q-173 0 -273 49 t-151 134.5t-51 175.5zM394 785v270h284v-270h-284z" />
<glyph unicode="&#xc0;" horiz-adv-x="1479" d="M19 0l559 1422h323l562 -1422h-318l-119 325h-587l-121 -325h-299zM457 1808h280l170 -296h-170zM526 555h413l-206 583z" />
<glyph unicode="&#xc1;" horiz-adv-x="1479" d="M19 0l559 1422h323l562 -1422h-318l-119 325h-587l-121 -325h-299zM526 555h413l-206 583zM571 1512l171 296h279l-289 -296h-161z" />
<glyph unicode="&#xc2;" horiz-adv-x="1479" d="M19 0l559 1422h323l562 -1422h-318l-119 325h-587l-121 -325h-299zM412 1512l228 296h206l215 -296h-182l-140 173l-142 -173h-185zM526 555h413l-206 583z" />
<glyph unicode="&#xc3;" horiz-adv-x="1479" d="M19 0l559 1422h323l562 -1422h-318l-119 325h-587l-121 -325h-299zM377 1542q10 74 46 133.5t87.5 88t103.5 28.5q26 0 49 -6q11 -2 95 -33q85 -32 102 -37q29 -7 51 -7q33 0 56.5 23t30.5 75h109q-12 -121 -75 -186t-154 -65q-45 0 -91 16l-126 45q-46 17 -79 17 q-36 0 -60.5 -19.5t-40.5 -72.5h-104zM526 555h413l-206 583z" />
<glyph unicode="&#xc4;" horiz-adv-x="1479" d="M19 0l559 1422h323l562 -1422h-318l-119 325h-587l-121 -325h-299zM414 1557v237h232v-237h-232zM526 555h413l-206 583zM831 1557v237h232v-237h-232z" />
<glyph unicode="&#xc5;" horiz-adv-x="1479" d="M19 0l559 1422h323l562 -1422h-318l-119 325h-587l-121 -325h-299zM526 555h413l-206 583zM531 1680q0 88 62 149.5t148 61.5t148 -62t62 -150q0 -86 -62.5 -148t-149.5 -62q-85 0 -146.5 61.5t-61.5 149.5zM626 1682q0 -48 33.5 -83t76.5 -35q48 0 82.5 34t34.5 80 q0 49 -34 83.5t-81 34.5q-46 0 -79 -33.5t-33 -80.5z" />
<glyph unicode="&#xc6;" horiz-adv-x="1934" d="M14 0l780 1417h1010v-239h-548l31 -334h476v-235h-457l35 -370h479v-239h-751l-26 325h-548l-175 -325h-306zM618 555h406l-52 666z" />
<glyph unicode="&#xc7;" horiz-adv-x="1252" d="M104 705q0 328 202.5 529t537.5 201q191 0 362 -60l-23 -244q-66 32 -157.5 50.5t-166.5 18.5q-127 0 -231 -60.5t-158.5 -173t-54.5 -248.5q0 -221 133 -356t348 -135q157 0 301 60l12 -254q-59 -19 -162.5 -34t-200.5 -13l-82 -123q45 11 86 11q81 0 124.5 -40 t43.5 -104q0 -77 -64.5 -131t-190.5 -54q-108 0 -207 43l40 87q28 -16 70.5 -27t71.5 -11q57 0 85.5 24.5t28.5 59.5q0 27 -24.5 47.5t-70.5 20.5q-45 0 -85 -19l-31 55l106 168q-305 37 -474 225t-169 487z" />
<glyph unicode="&#xc8;" d="M168 0v1415h841v-237h-552v-337h505v-232h-505v-372h557v-237h-846zM286 1808h280l170 -296h-170z" />
<glyph unicode="&#xc9;" d="M168 0v1415h841v-237h-552v-337h505v-232h-505v-372h557v-237h-846zM400 1512l171 296h279l-289 -296h-161z" />
<glyph unicode="&#xca;" d="M168 0v1415h841v-237h-552v-337h505v-232h-505v-372h557v-237h-846zM241 1512l228 296h206l215 -296h-182l-140 173l-142 -173h-185z" />
<glyph unicode="&#xcb;" d="M168 0v1415h841v-237h-552v-337h505v-232h-505v-372h557v-237h-846zM243 1557v237h232v-237h-232zM660 1557v237h232v-237h-232z" />
<glyph unicode="&#xcc;" horiz-adv-x="569" d="M3 1808h280l170 -296h-170zM140 0v1422h289v-1422h-289z" />
<glyph unicode="&#xcd;" horiz-adv-x="569" d="M116 1512l171 296h279l-289 -296h-161zM140 0v1422h289v-1422h-289z" />
<glyph unicode="&#xce;" horiz-adv-x="569" d="M-43 1512l228 296h206l215 -296h-182l-140 173l-142 -173h-185zM140 0v1422h289v-1422h-289z" />
<glyph unicode="&#xcf;" horiz-adv-x="569" d="M-40 1557v237h232v-237h-232zM140 0v1422h289v-1422h-289zM377 1557v237h232v-237h-232z" />
<glyph unicode="&#xd0;" horiz-adv-x="1479" d="M21 682v162h144l4 572h324q256 0 413 -39.5t262.5 -131t160 -232t54.5 -300.5q0 -153 -47.5 -285t-126.5 -221q-58 -65 -130.5 -106.5t-193.5 -71t-306 -29.5h-410v682h-148zM456 218q188 0 247 11q96 19 157.5 57t110.5 96t78.5 140.5t29.5 184.5q0 135 -51.5 239.5 t-133 160t-189.5 74.5q-73 12 -249 15v-352h310v-162h-310v-464z" />
<glyph unicode="&#xd1;" horiz-adv-x="1479" d="M154 0v1422h346l562 -1090v1090h258v-1422h-348l-562 1090v-1090h-256zM376 1542q10 74 46 133.5t87.5 88t103.5 28.5q26 0 49 -6q11 -2 95 -33q85 -32 102 -37q29 -7 51 -7q33 0 56.5 23t30.5 75h109q-12 -121 -75 -186t-154 -65q-45 0 -91 16l-126 45q-46 17 -79 17 q-36 0 -60.5 -19.5t-40.5 -72.5h-104z" />
<glyph unicode="&#xd2;" horiz-adv-x="1593" d="M102 718q0 160 47 298t135.5 233t199.5 143q141 61 317 61q204 0 358 -83t242 -260.5t88 -394.5t-85.5 -391t-247.5 -263.5t-364 -89.5q-198 0 -360.5 89.5t-246 259.5t-83.5 398zM410 708q0 -164 52 -281t140.5 -175t194.5 -58q156 0 257 121q127 149 127 397 q0 169 -57.5 292.5t-143 176t-185.5 52.5q-159 0 -260 -121q-125 -149 -125 -404zM514 1808h280l170 -296h-170z" />
<glyph unicode="&#xd3;" horiz-adv-x="1593" d="M102 718q0 160 47 298t135.5 233t199.5 143q141 61 317 61q204 0 358 -83t242 -260.5t88 -394.5t-85.5 -391t-247.5 -263.5t-364 -89.5q-198 0 -360.5 89.5t-246 259.5t-83.5 398zM410 708q0 -164 52 -281t140.5 -175t194.5 -58q156 0 257 121q127 149 127 397 q0 169 -57.5 292.5t-143 176t-185.5 52.5q-159 0 -260 -121q-125 -149 -125 -404zM628 1512l171 296h279l-289 -296h-161z" />
<glyph unicode="&#xd4;" horiz-adv-x="1593" d="M102 718q0 160 47 298t135.5 233t199.5 143q141 61 317 61q204 0 358 -83t242 -260.5t88 -394.5t-85.5 -391t-247.5 -263.5t-364 -89.5q-198 0 -360.5 89.5t-246 259.5t-83.5 398zM410 708q0 -164 52 -281t140.5 -175t194.5 -58q156 0 257 121q127 149 127 397 q0 169 -57.5 292.5t-143 176t-185.5 52.5q-159 0 -260 -121q-125 -149 -125 -404zM469 1512l228 296h206l215 -296h-182l-140 173l-142 -173h-185z" />
<glyph unicode="&#xd5;" horiz-adv-x="1593" d="M102 718q0 160 47 298t135.5 233t199.5 143q141 61 317 61q204 0 358 -83t242 -260.5t88 -394.5t-85.5 -391t-247.5 -263.5t-364 -89.5q-198 0 -360.5 89.5t-246 259.5t-83.5 398zM410 708q0 -164 52 -281t140.5 -175t194.5 -58q156 0 257 121q127 149 127 397 q0 169 -57.5 292.5t-143 176t-185.5 52.5q-159 0 -260 -121q-125 -149 -125 -404zM433 1543q10 74 46 133.5t87.5 88t103.5 28.5q26 0 49 -6q11 -2 95 -33q85 -32 102 -37q29 -7 51 -7q33 0 56.5 23t30.5 75h109q-12 -121 -75 -186t-154 -65q-45 0 -91 16l-126 45 q-46 17 -79 17q-36 0 -60.5 -19.5t-40.5 -72.5h-104z" />
<glyph unicode="&#xd6;" horiz-adv-x="1593" d="M102 718q0 160 47 298t135.5 233t199.5 143q141 61 317 61q204 0 358 -83t242 -260.5t88 -394.5t-85.5 -391t-247.5 -263.5t-364 -89.5q-198 0 -360.5 89.5t-246 259.5t-83.5 398zM410 708q0 -164 52 -281t140.5 -175t194.5 -58q156 0 257 121q127 149 127 397 q0 169 -57.5 292.5t-143 176t-185.5 52.5q-159 0 -260 -121q-125 -149 -125 -404zM471 1557v237h232v-237h-232zM888 1557v237h232v-237h-232z" />
<glyph unicode="&#xd7;" horiz-adv-x="1229" d="M100 169l362 362l-362 363l152 152l362 -363l362 363l153 -152l-363 -363l362 -362l-152 -152l-362 362l-362 -362z" />
<glyph unicode="&#xd8;" horiz-adv-x="1593" d="M102 715q0 185 60 338q44 111 124.5 198.5t181.5 134.5q140 67 326 67q117 0 224 -28t186 -82l109 141l93 -76l-111 -143q96 -105 145 -247.5t49 -301.5q0 -219 -86 -392.5t-248 -263t-360 -89.5q-233 0 -411 118l-121 -155l-92 75l121 156q-91 94 -140.5 236t-49.5 314z M408 703q0 -87 17.5 -167.5t47.5 -136.5l567 732q-98 102 -246 102q-181 0 -283.5 -153.5t-102.5 -376.5zM545 297q46 -47 115 -75t141 -28q152 0 254 122q126 149 126 397q0 177 -69 315z" />
<glyph unicode="&#xd9;" horiz-adv-x="1479" d="M159 609v813h289v-837q0 -111 16 -173t53 -107.5t86 -72.5t136 -27q143 0 221 87t78 293v837h278v-837q0 -158 -23.5 -253t-65.5 -152.5t-109.5 -104t-146.5 -68.5q-112 -31 -240 -31q-127 0 -227.5 28.5t-167 78.5t-103.5 110t-59 163q-15 70 -15 253zM457 1808h280 l170 -296h-170z" />
<glyph unicode="&#xda;" horiz-adv-x="1479" d="M159 609v813h289v-837q0 -111 16 -173t53 -107.5t86 -72.5t136 -27q143 0 221 87t78 293v837h278v-837q0 -158 -23.5 -253t-65.5 -152.5t-109.5 -104t-146.5 -68.5q-112 -31 -240 -31q-127 0 -227.5 28.5t-167 78.5t-103.5 110t-59 163q-15 70 -15 253zM571 1512l171 296 h279l-289 -296h-161z" />
<glyph unicode="&#xdb;" horiz-adv-x="1479" d="M159 609v813h289v-837q0 -111 16 -173t53 -107.5t86 -72.5t136 -27q143 0 221 87t78 293v837h278v-837q0 -158 -23.5 -253t-65.5 -152.5t-109.5 -104t-146.5 -68.5q-112 -31 -240 -31q-127 0 -227.5 28.5t-167 78.5t-103.5 110t-59 163q-15 70 -15 253zM412 1512l228 296 h206l215 -296h-182l-140 173l-142 -173h-185z" />
<glyph unicode="&#xdc;" horiz-adv-x="1479" d="M159 609v813h289v-837q0 -111 16 -173t53 -107.5t86 -72.5t136 -27q143 0 221 87t78 293v837h278v-837q0 -158 -23.5 -253t-65.5 -152.5t-109.5 -104t-146.5 -68.5q-112 -31 -240 -31q-127 0 -227.5 28.5t-167 78.5t-103.5 110t-59 163q-15 70 -15 253zM415 1557v237h232 v-237h-232zM832 1557v237h232v-237h-232z" />
<glyph unicode="&#xdd;" horiz-adv-x="1365" d="M17 1422h337l336 -592l344 592h303l-512 -853v-569h-289v569zM588 1512l171 296h279l-289 -296h-161z" />
<glyph unicode="&#xde;" d="M137 9v1430h289v-218h128q129 0 227.5 -30t160.5 -82t104 -134t42 -192q0 -117 -53.5 -214t-130 -146.5t-180.5 -69.5q-59 -12 -194 -12h-104v-332h-289zM426 559h67q118 0 175.5 25.5t91.5 80t34 119.5q0 114 -96 175q-64 41 -191 41h-81v-441z" />
<glyph unicode="&#xdf;" horiz-adv-x="1252" d="M145 0v991q0 187 59 308t181 187.5t272 66.5q130 0 235.5 -50t160.5 -141.5t55 -201.5q0 -131 -70 -220t-196 -120q160 -30 247 -132.5t87 -252.5q0 -120 -56 -229.5t-170.5 -165t-258.5 -55.5q-93 0 -160 22l7 216q17 -7 52 -13t65 -6q109 0 176.5 70t67.5 184 q0 112 -73 181.5t-211 69.5q-16 0 -34 -3v207q13 -3 29 -3q68 0 118.5 24t78.5 79.5t28 127.5q0 98 -54 155.5t-136 57.5q-87 0 -153 -77t-70 -229l-2 -114v-934h-275z" />
<glyph unicode="&#xe0;" d="M71 315q0 179 163 270q125 69 377 69q63 0 143 -7q1 19 1 29q0 99 -58 153.5t-178 54.5q-87 0 -176 -34t-151 -84l-7 237q53 27 160 50t211 23q133 0 225.5 -37t150.5 -112q40 -53 54 -138.5t14 -250.5v-156l3 -154l4 -162l5 -66h-242l-7 156q-35 -74 -127.5 -124.5 t-206.5 -50.5q-99 0 -183 41t-129.5 117.5t-45.5 175.5zM272 1498h280l170 -296h-170zM344 306q0 -60 43 -99t119 -39q67 0 130.5 39.5t91.5 102.5t28 171q-51 4 -69 4q-100 0 -183.5 -18t-121.5 -61.5t-38 -99.5z" />
<glyph unicode="&#xe1;" d="M71 315q0 179 163 270q125 69 377 69q63 0 143 -7q1 19 1 29q0 99 -58 153.5t-178 54.5q-87 0 -176 -34t-151 -84l-7 237q53 27 160 50t211 23q133 0 225.5 -37t150.5 -112q40 -53 54 -138.5t14 -250.5v-156l3 -154l4 -162l5 -66h-242l-7 156q-35 -74 -127.5 -124.5 t-206.5 -50.5q-99 0 -183 41t-129.5 117.5t-45.5 175.5zM344 306q0 -60 43 -99t119 -39q67 0 130.5 39.5t91.5 102.5t28 171q-51 4 -69 4q-100 0 -183.5 -18t-121.5 -61.5t-38 -99.5zM414 1202l171 296h279l-289 -296h-161z" />
<glyph unicode="&#xe2;" d="M71 315q0 179 163 270q125 69 377 69q63 0 143 -7q1 19 1 29q0 99 -58 153.5t-178 54.5q-87 0 -176 -34t-151 -84l-7 237q53 27 160 50t211 23q133 0 225.5 -37t150.5 -112q40 -53 54 -138.5t14 -250.5v-156l3 -154l4 -162l5 -66h-242l-7 156q-35 -74 -127.5 -124.5 t-206.5 -50.5q-99 0 -183 41t-129.5 117.5t-45.5 175.5zM241 1202l228 296h206l215 -296h-182l-140 173l-142 -173h-185zM344 306q0 -60 43 -99t119 -39q67 0 130.5 39.5t91.5 102.5t28 171q-51 4 -69 4q-100 0 -183.5 -18t-121.5 -61.5t-38 -99.5z" />
<glyph unicode="&#xe3;" d="M71 315q0 179 163 270q125 69 377 69q63 0 143 -7q1 19 1 29q0 99 -58 153.5t-178 54.5q-87 0 -176 -34t-151 -84l-7 237q53 27 160 50t211 23q133 0 225.5 -37t150.5 -112q40 -53 54 -138.5t14 -250.5v-156l3 -154l4 -162l5 -66h-242l-7 156q-35 -74 -127.5 -124.5 t-206.5 -50.5q-99 0 -183 41t-129.5 117.5t-45.5 175.5zM206 1233q10 74 46 133.5t87.5 88t103.5 28.5q26 0 49 -6q11 -2 95 -33q85 -32 102 -37q29 -7 51 -7q33 0 56.5 23t30.5 75h109q-12 -121 -75 -186t-154 -65q-45 0 -91 16l-126 45q-46 17 -79 17q-36 0 -60.5 -19.5 t-40.5 -72.5h-104zM344 306q0 -60 43 -99t119 -39q67 0 130.5 39.5t91.5 102.5t28 171q-51 4 -69 4q-100 0 -183.5 -18t-121.5 -61.5t-38 -99.5z" />
<glyph unicode="&#xe4;" d="M71 315q0 179 163 270q125 69 377 69q63 0 143 -7q1 19 1 29q0 99 -58 153.5t-178 54.5q-87 0 -176 -34t-151 -84l-7 237q53 27 160 50t211 23q133 0 225.5 -37t150.5 -112q40 -53 54 -138.5t14 -250.5v-156l3 -154l4 -162l5 -66h-242l-7 156q-35 -74 -127.5 -124.5 t-206.5 -50.5q-99 0 -183 41t-129.5 117.5t-45.5 175.5zM244 1247v237h232v-237h-232zM344 306q0 -60 43 -99t119 -39q67 0 130.5 39.5t91.5 102.5t28 171q-51 4 -69 4q-100 0 -183.5 -18t-121.5 -61.5t-38 -99.5zM661 1247v237h232v-237h-232z" />
<glyph unicode="&#xe5;" d="M71 315q0 179 163 270q125 69 377 69q63 0 143 -7q1 19 1 29q0 99 -58 153.5t-178 54.5q-87 0 -176 -34t-151 -84l-7 237q53 27 160 50t211 23q133 0 225.5 -37t150.5 -112q40 -53 54 -138.5t14 -250.5v-156l3 -154l4 -162l5 -66h-242l-7 156q-35 -74 -127.5 -124.5 t-206.5 -50.5q-99 0 -183 41t-129.5 117.5t-45.5 175.5zM344 306q0 -60 43 -99t119 -39q67 0 130.5 39.5t91.5 102.5t28 171q-51 4 -69 4q-100 0 -183.5 -18t-121.5 -61.5t-38 -99.5zM360 1370q0 88 62 149.5t148 61.5t148 -62t62 -150q0 -86 -62.5 -148t-149.5 -62 q-85 0 -146.5 61.5t-61.5 149.5zM455 1372q0 -48 33.5 -83t76.5 -35q48 0 82.5 34t34.5 80q0 49 -34 83.5t-81 34.5q-46 0 -79 -33.5t-33 -80.5z" />
<glyph unicode="&#xe6;" horiz-adv-x="1820" d="M78 317q0 70 27.5 129t70 95t88 56.5t114.5 34.5q106 23 242 23q80 0 164 -10q1 14 1 22q0 102 -59.5 158.5t-183.5 56.5q-98 0 -177 -24t-164 -78l-7 213q51 31 165 58.5t211 27.5t176 -24t124 -62q34 -28 61 -83q49 82 120 123q98 55 238 55q98 0 177 -29.5t134 -84 t87.5 -122.5t49 -165t15.5 -241h-707q8 -88 48 -145.5t110.5 -85.5t148.5 -28q74 0 164.5 30.5t142.5 69.5l3 -230q-65 -32 -160.5 -53t-193.5 -21q-130 0 -212 29.5t-140 83.5q-40 37 -65 91q-27 -53 -61 -88t-91 -63t-122.5 -42.5t-128.5 -14.5q-119 0 -218 45.5 t-145.5 123t-46.5 169.5zM358 312q0 -61 45.5 -103.5t122.5 -42.5q71 0 136 39t93 100.5t29 170.5l-113 5q-28 1 -44 1q-133 0 -201 -53t-68 -117zM1043 635h436q-1 76 -31 139t-78.5 91.5t-101.5 28.5q-82 0 -147 -66t-78 -193z" />
<glyph unicode="&#xe7;" horiz-adv-x="910" d="M69 528q0 160 66 282t194.5 188t275.5 66q53 0 120.5 -9.5t113.5 -23.5l-23 -220q-68 36 -166 36q-127 0 -212 -88t-85 -226q0 -90 36.5 -164t105 -114t153.5 -40q48 0 103 14t95 34l12 -230q-112 -38 -253 -38l-88 -132q45 11 86 11q81 0 124.5 -40t43.5 -104 q0 -77 -64.5 -131t-190.5 -54q-108 0 -207 43l40 87q28 -16 70.5 -27t71.5 -11q57 0 85.5 24.5t28.5 59.5q0 27 -24.5 47.5t-70.5 20.5q-45 0 -85 -19l-31 55l112 178q-207 34 -322 171.5t-115 353.5z" />
<glyph unicode="&#xe8;" d="M81 531q0 168 63.5 297t184.5 194.5t267 65.5q156 0 267 -77.5t155.5 -210.5t44.5 -301q0 -19 -3 -56h-714q3 -71 43.5 -133.5t104.5 -93.5t157 -31q84 0 166 23.5t174 75.5l3 -225q-36 -27 -143.5 -55t-220.5 -28q-168 0 -292.5 62.5t-190.5 192.5t-66 300zM273 1498 h280l170 -296h-170zM344 633h462q-6 131 -67 196t-162 65q-94 0 -147 -57q-75 -78 -86 -204z" />
<glyph unicode="&#xe9;" d="M81 531q0 168 63.5 297t184.5 194.5t267 65.5q156 0 267 -77.5t155.5 -210.5t44.5 -301q0 -19 -3 -56h-714q3 -71 43.5 -133.5t104.5 -93.5t157 -31q84 0 166 23.5t174 75.5l3 -225q-36 -27 -143.5 -55t-220.5 -28q-168 0 -292.5 62.5t-190.5 192.5t-66 300zM344 633h462 q-6 131 -67 196t-162 65q-94 0 -147 -57q-75 -78 -86 -204zM424 1202l171 296h279l-289 -296h-161z" />
<glyph unicode="&#xea;" d="M81 531q0 168 63.5 297t184.5 194.5t267 65.5q156 0 267 -77.5t155.5 -210.5t44.5 -301q0 -19 -3 -56h-714q3 -71 43.5 -133.5t104.5 -93.5t157 -31q84 0 166 23.5t174 75.5l3 -225q-36 -27 -143.5 -55t-220.5 -28q-168 0 -292.5 62.5t-190.5 192.5t-66 300zM266 1202 l228 296h206l215 -296h-182l-140 173l-142 -173h-185zM344 633h462q-6 131 -67 196t-162 65q-94 0 -147 -57q-75 -78 -86 -204z" />
<glyph unicode="&#xeb;" d="M81 531q0 168 63.5 297t184.5 194.5t267 65.5q156 0 267 -77.5t155.5 -210.5t44.5 -301q0 -19 -3 -56h-714q3 -71 43.5 -133.5t104.5 -93.5t157 -31q84 0 166 23.5t174 75.5l3 -225q-36 -27 -143.5 -55t-220.5 -28q-168 0 -292.5 62.5t-190.5 192.5t-66 300zM268 1247 v237h232v-237h-232zM344 633h462q-6 131 -67 196t-162 65q-94 0 -147 -57q-75 -78 -86 -204zM685 1247v237h232v-237h-232z" />
<glyph unicode="&#xec;" horiz-adv-x="569" d="M-11 1498h280l170 -296h-170zM147 0v1055h275v-1055h-275z" />
<glyph unicode="&#xed;" horiz-adv-x="569" d="M130 1202l171 296h279l-289 -296h-161zM147 0v1055h275v-1055h-275z" />
<glyph unicode="&#xee;" horiz-adv-x="569" d="M-43 1202l228 296h206l215 -296h-182l-140 173l-142 -173h-185zM147 0v1055h275v-1055h-275z" />
<glyph unicode="&#xef;" horiz-adv-x="569" d="M-40 1247v237h232v-237h-232zM147 0v1055h275v-1055h-275zM377 1247v237h232v-237h-232z" />
<glyph unicode="&#xf0;" horiz-adv-x="1252" d="M116 486q0 254 149 393q119 112 280 112q136 0 235 -88q-12 35 -28 61q-29 44 -101.5 118.5t-162.5 140.5l-180 -121l-95 74l173 116q-77 60 -199 111l199 152q44 -22 107 -62t97 -66l152 107l104 -69l-159 -109q165 -128 260 -245t138 -254t43 -285q0 -298 -154 -449 t-369 -151q-197 0 -332 119q-157 140 -157 395zM396 488q0 -157 71 -245q52 -63 151 -63q94 0 157.5 77t63.5 234q0 101 -27.5 168.5t-77.5 100t-107 32.5q-94 0 -162.5 -79.5t-68.5 -224.5z" />
<glyph unicode="&#xf1;" horiz-adv-x="1252" d="M135 1055h261l7 -161q113 178 341 178q86 0 154.5 -25t112.5 -68.5t66 -95.5t32 -147q4 -45 5 -238v-498h-273v529q0 172 -30 232q-46 90 -153 90q-67 0 -126 -38t-86 -108t-27 -205v-500h-275v847q0 109 -9 208zM263 1233q10 74 46 133.5t87.5 88t103.5 28.5q26 0 49 -6 q11 -2 95 -33q85 -32 102 -37q29 -7 51 -7q33 0 56.5 23t30.5 75h109q-12 -121 -75 -186t-154 -65q-45 0 -91 16l-126 45q-46 17 -79 17q-36 0 -60.5 -19.5t-40.5 -72.5h-104z" />
<glyph unicode="&#xf2;" horiz-adv-x="1252" d="M76 525q0 249 154 405t397 156q242 0 394.5 -156t152.5 -416q0 -95 -32 -193.5t-97.5 -173.5t-171 -125.5t-247.5 -50.5q-242 0 -396 154.5t-154 399.5zM329 1498h280l170 -296h-170zM365 531q0 -173 75 -262t183 -89q126 0 196 97t70 247q0 136 -67 246t-194 110 q-57 0 -102 -22.5t-79 -65.5t-54 -97q-28 -78 -28 -164z" />
<glyph unicode="&#xf3;" horiz-adv-x="1252" d="M76 525q0 249 154 405t397 156q242 0 394.5 -156t152.5 -416q0 -95 -32 -193.5t-97.5 -173.5t-171 -125.5t-247.5 -50.5q-242 0 -396 154.5t-154 399.5zM365 531q0 -173 75 -262t183 -89q126 0 196 97t70 247q0 136 -67 246t-194 110q-57 0 -102 -22.5t-79 -65.5t-54 -97 q-28 -78 -28 -164zM472 1202l171 296h279l-289 -296h-161z" />
<glyph unicode="&#xf4;" horiz-adv-x="1252" d="M76 525q0 249 154 405t397 156q242 0 394.5 -156t152.5 -416q0 -95 -32 -193.5t-97.5 -173.5t-171 -125.5t-247.5 -50.5q-242 0 -396 154.5t-154 399.5zM298 1202l228 296h206l215 -296h-182l-140 173l-142 -173h-185zM365 531q0 -173 75 -262t183 -89q126 0 196 97 t70 247q0 136 -67 246t-194 110q-57 0 -102 -22.5t-79 -65.5t-54 -97q-28 -78 -28 -164z" />
<glyph unicode="&#xf5;" horiz-adv-x="1252" d="M76 525q0 249 154 405t397 156q242 0 394.5 -156t152.5 -416q0 -95 -32 -193.5t-97.5 -173.5t-171 -125.5t-247.5 -50.5q-242 0 -396 154.5t-154 399.5zM263 1233q10 74 46 133.5t87.5 88t103.5 28.5q26 0 49 -6q11 -2 95 -33q85 -32 102 -37q29 -7 51 -7q33 0 56.5 23 t30.5 75h109q-12 -121 -75 -186t-154 -65q-45 0 -91 16l-126 45q-46 17 -79 17q-36 0 -60.5 -19.5t-40.5 -72.5h-104zM365 531q0 -173 75 -262t183 -89q126 0 196 97t70 247q0 136 -67 246t-194 110q-57 0 -102 -22.5t-79 -65.5t-54 -97q-28 -78 -28 -164z" />
<glyph unicode="&#xf6;" horiz-adv-x="1252" d="M76 525q0 249 154 405t397 156q242 0 394.5 -156t152.5 -416q0 -95 -32 -193.5t-97.5 -173.5t-171 -125.5t-247.5 -50.5q-242 0 -396 154.5t-154 399.5zM301 1247v237h232v-237h-232zM365 531q0 -173 75 -262t183 -89q126 0 196 97t70 247q0 136 -67 246t-194 110 q-57 0 -102 -22.5t-79 -65.5t-54 -97q-28 -78 -28 -164zM718 1247v237h232v-237h-232z" />
<glyph unicode="&#xf7;" horiz-adv-x="1229" d="M83 428v207h1064v-207h-1064zM489 17v275h252v-275h-252zM489 771v275h252v-275h-252z" />
<glyph unicode="&#xf8;" horiz-adv-x="1252" d="M76 525q0 247 155.5 404t396.5 157q177 0 314 -90l108 130l83 -66l-110 -132q75 -77 113 -182.5t38 -222.5q0 -121 -39 -222.5t-105.5 -169.5t-148.5 -106q-115 -54 -255 -54q-183 0 -322 93l-114 -137l-83 66l116 140q-147 156 -147 392zM365 525q0 -103 33 -182 l391 469q-65 68 -161 68q-108 0 -185.5 -92.5t-77.5 -262.5zM458 248q62 -68 165 -68q126 0 196 97t70 247q0 104 -40 195z" />
<glyph unicode="&#xf9;" horiz-adv-x="1252" d="M145 521v534h275v-519l2 -93q3 -109 36 -158q52 -76 149 -76q57 0 103 28.5t73.5 77.5t40.5 128q6 37 6 126v486h275v-645l7 -348l7 -62h-265l-7 161q-47 -79 -135.5 -127.5t-205.5 -48.5q-83 0 -149 23.5t-107.5 61.5t-63 83t-33.5 136q-8 61 -8 232zM329 1498h280 l170 -296h-170z" />
<glyph unicode="&#xfa;" horiz-adv-x="1252" d="M145 521v534h275v-519l2 -93q3 -109 36 -158q52 -76 149 -76q57 0 103 28.5t73.5 77.5t40.5 128q6 37 6 126v486h275v-645l7 -348l7 -62h-265l-7 161q-47 -79 -135.5 -127.5t-205.5 -48.5q-83 0 -149 23.5t-107.5 61.5t-63 83t-33.5 136q-8 61 -8 232zM472 1202l171 296 h279l-289 -296h-161z" />
<glyph unicode="&#xfb;" horiz-adv-x="1252" d="M145 521v534h275v-519l2 -93q3 -109 36 -158q52 -76 149 -76q57 0 103 28.5t73.5 77.5t40.5 128q6 37 6 126v486h275v-645l7 -348l7 -62h-265l-7 161q-47 -79 -135.5 -127.5t-205.5 -48.5q-83 0 -149 23.5t-107.5 61.5t-63 83t-33.5 136q-8 61 -8 232zM299 1202l228 296 h206l215 -296h-182l-140 173l-142 -173h-185z" />
<glyph unicode="&#xfc;" horiz-adv-x="1252" d="M145 521v534h275v-519l2 -93q3 -109 36 -158q52 -76 149 -76q57 0 103 28.5t73.5 77.5t40.5 128q6 37 6 126v486h275v-645l7 -348l7 -62h-265l-7 161q-47 -79 -135.5 -127.5t-205.5 -48.5q-83 0 -149 23.5t-107.5 61.5t-63 83t-33.5 136q-8 61 -8 232zM301 1247v237h232 v-237h-232zM718 1247v237h232v-237h-232z" />
<glyph unicode="&#xfd;" d="M24 1055h303l256 -775l256 775h280l-424 -1128l-50 -114q-34 -79 -80.5 -132.5t-122 -88.5t-160.5 -35q-33 0 -102 8q-48 6 -90 20l19 204q67 -20 133 -20t120 48t72 128zM474 1202l171 296h279l-289 -296h-161z" />
<glyph unicode="&#xfe;" horiz-adv-x="1252" d="M142 -420v1944h270v-642q61 93 138 136.5t184 43.5q210 0 321 -148t111 -378q0 -166 -50 -292q-31 -76 -84 -137t-124.5 -94.5t-168.5 -33.5q-98 0 -176.5 37t-150.5 114v-550h-270zM412 518q0 -158 78 -252q59 -72 157 -72q96 0 166.5 83.5t70.5 240.5q0 164 -73 255 q-54 66 -150 66q-105 0 -177 -82.5t-72 -238.5z" />
<glyph unicode="&#xff;" d="M24 1055h303l256 -775l256 775h280l-424 -1128l-50 -114q-34 -79 -80.5 -132.5t-122 -88.5t-160.5 -35q-33 0 -102 8q-48 6 -90 20l19 204q67 -20 133 -20t120 48t72 128zM244 1247v237h232v-237h-232zM661 1247v237h232v-237h-232z" />
<glyph unicode="&#x152;" horiz-adv-x="1934" d="M97 708q0 147 40 271.5t110 210.5t151 131.5t217 77.5q105 25 245 23l553 -7h403v-237h-536v-337h490v-232h-490v-374h545v-235h-417l-503 -5q-165 -1 -286.5 24t-221.5 85t-168.5 153.5t-100 209.5t-31.5 241zM393 707q0 -155 67 -269.5t186 -168.5t247 -54q54 0 100 8 v962q-71 10 -126 10q-93 0 -154 -18q-95 -27 -169 -93.5t-112.5 -165t-38.5 -211.5z" />
<glyph unicode="&#x153;" horiz-adv-x="1934" d="M81 527q0 159 69.5 289t196.5 200t282 70q138 0 232.5 -49t155.5 -132q66 90 161 135.5t213 45.5q123 0 227 -49t163.5 -138.5t84.5 -233.5q14 -83 14 -224h-711q0 -116 77.5 -188.5t222.5 -72.5q86 0 168.5 29.5t140.5 72.5l7 -225q-162 -83 -363 -83q-98 0 -164 17.5 t-117 50.5t-77 61q-17 17 -35 49q-61 -87 -137 -126q-101 -52 -250 -52q-168 0 -297.5 69t-196.5 199t-67 285zM368 530q0 -176 75.5 -265.5t189.5 -89.5q131 0 197 104t66 247q0 98 -33 185t-94.5 129t-131.5 42q-109 0 -189 -92t-80 -260zM1169 631h429q-2 125 -68 200 q-50 58 -142 58q-90 0 -154.5 -71.5t-64.5 -186.5z" />
<glyph unicode="&#x178;" horiz-adv-x="1365" d="M17 1422h337l336 -592l344 592h303l-512 -853v-569h-289v569zM358 1557v237h232v-237h-232zM775 1557v237h232v-237h-232z" />
<glyph unicode="&#x2c6;" horiz-adv-x="569" d="M-43 1202l228 296h206l215 -296h-182l-140 173l-142 -173h-185z" />
<glyph unicode="&#x2dc;" horiz-adv-x="569" d="M-78 1233q10 74 46 133.5t87.5 88t103.5 28.5q26 0 49 -6q11 -2 95 -33q85 -32 102 -37q29 -7 51 -7q33 0 56.5 23t30.5 75h109q-12 -121 -75 -186t-154 -65q-45 0 -91 16l-126 45q-46 17 -79 17q-36 0 -60.5 -19.5t-40.5 -72.5h-104z" />
<glyph unicode="&#x2000;" horiz-adv-x="945" />
<glyph unicode="&#x2001;" horiz-adv-x="1891" />
<glyph unicode="&#x2002;" horiz-adv-x="945" />
<glyph unicode="&#x2003;" horiz-adv-x="1891" />
<glyph unicode="&#x2004;" horiz-adv-x="630" />
<glyph unicode="&#x2005;" horiz-adv-x="472" />
<glyph unicode="&#x2006;" horiz-adv-x="315" />
<glyph unicode="&#x2007;" horiz-adv-x="315" />
<glyph unicode="&#x2008;" horiz-adv-x="236" />
<glyph unicode="&#x2009;" horiz-adv-x="378" />
<glyph unicode="&#x200a;" horiz-adv-x="105" />
<glyph unicode="&#x2010;" horiz-adv-x="683" d="M76 436v228h538v-228h-538z" />
<glyph unicode="&#x2011;" horiz-adv-x="683" d="M76 436v228h538v-228h-538z" />
<glyph unicode="&#x2012;" horiz-adv-x="683" d="M76 436v228h538v-228h-538z" />
<glyph unicode="&#x2013;" horiz-adv-x="1024" d="M-7 462v185h1038v-185h-1038z" />
<glyph unicode="&#x2014;" horiz-adv-x="2048" d="M0 462v185h2048v-185h-2048z" />
<glyph unicode="&#x2018;" horiz-adv-x="569" d="M83 910l180 512h242l-126 -512h-296z" />
<glyph unicode="&#x2019;" horiz-adv-x="569" d="M78 910l130 512h297l-185 -512h-242z" />
<glyph unicode="&#x201a;" horiz-adv-x="569" d="M78 -228l130 512h297l-185 -512h-242z" />
<glyph unicode="&#x201c;" horiz-adv-x="986" d="M88 910l185 512h239l-130 -512h-294zM503 910l185 512h239l-130 -512h-294z" />
<glyph unicode="&#x201d;" horiz-adv-x="986" d="M81 910l130 512h294l-185 -512h-239zM496 910l130 512h294l-185 -512h-239z" />
<glyph unicode="&#x201e;" horiz-adv-x="986" d="M83 -228l130 512h294l-185 -512h-239zM498 -228l130 512h294l-185 -512h-239z" />
<glyph unicode="&#x2022;" horiz-adv-x="1024" d="M157 711q0 93 48 178.5t133 131.5t175 46q89 0 174.5 -46t133 -131.5t47.5 -178.5q0 -92 -47 -176.5t-131.5 -131.5t-176.5 -47q-93 0 -177.5 47t-131.5 131.5t-47 176.5z" />
<glyph unicode="&#x2026;" horiz-adv-x="2048" d="M215 0v275h253v-275h-253zM897 0v275h253v-275h-253zM1579 0v275h253v-275h-253z" />
<glyph unicode="&#x202f;" horiz-adv-x="378" />
<glyph unicode="&#x2039;" horiz-adv-x="683" d="M100 529l242 419h258l-225 -419l225 -420h-258z" />
<glyph unicode="&#x203a;" horiz-adv-x="683" d="M83 109l225 420l-225 419h258l242 -419l-242 -420h-258z" />
<glyph unicode="&#x205f;" horiz-adv-x="472" />
<glyph unicode="&#x2122;" horiz-adv-x="2048" d="M219 1304v118h614v-118h-230v-611h-152v611h-232zM950 693v729h225l178 -502l179 502h221v-729h-137v594l-206 -594h-116l-207 594v-594h-137z" />
<glyph unicode="&#x25fc;" horiz-adv-x="1055" d="M0 0v1055h1055v-1055h-1055z" />
<glyph unicode="&#xfb01;" horiz-adv-x="1365" d="M38 844v206h204q3 202 37 297t113.5 147t217.5 52q93 0 168 -22l-22 -225q-48 24 -104 24q-80 0 -105 -52t-30 -221h239v-206h-239v-844h-275v844h-204zM929 1247v258h280v-258h-280zM934 0v1055h273v-1055h-273z" />
<glyph unicode="&#xfb02;" horiz-adv-x="1365" d="M38 844v206h204q3 202 37 297t113.5 147t217.5 52q93 0 168 -22l-22 -225q-48 24 -104 24q-80 0 -105 -52t-30 -221h239v-206h-239v-844h-275v844h-204zM934 0v1529h273v-1529h-273z" />
</font>
</defs>
</svg>
