<?xml version="1.0" encoding="UTF-8"?>
<!DOCTYPE svg  PUBLIC '-//W3C//DTD SVG 1.1//EN'  'http://www.w3.org/Graphics/SVG/1.1/DTD/svg11.dtd'>
<svg version="1.1" xmlns="http://www.w3.org/2000/svg">
<defs>
<font id="HaloHandletter" horiz-adv-x="400">
<font-face font-family="HaloHandletter" font-weight="500" ascent="800" bbox="-220.136 -434.037 917 812.522" cap-height="654" descent="-200" panose-1="2 0 6 3 3 0 0 2 0 4" underline-position="-133" underline-thickness="20" unicode-range="U+0020-00FE" units-per-em="1000" x-height="243"/>
<missing-glyph/>
<glyph glyph-name="space" horiz-adv-x="140" unicode=" "/>
<glyph d="M39 61q14 -1 21.5 -11.5t7.5 -18.5q-1 -8 -8.5 -17.5t-20.5 -8.5t-21 5.5t-7 20.5q1 9 8 20.5t21 10.5zM56 153q0 -3 0.5 -9t-1 -11.5t-5 -9t-10.5 -1.5q-20 5 -18 27q2 33 3.5 58t3 48t2.5 47.5t3 58.5q1 28 5 62t8 64.5t7.5 52.5t4.5 27q5 33 15.5 42t18.5 8 q7 -2 10 -16t1 -32q-1 -9 -4.5 -30l-8 -48t-9 -58t-7.5 -60q-4 -32 -7.5 -58t-6 -51t-4 -51.5t-1.5 -58.5v-1z" glyph-name="exclam" horiz-adv-x="115" unicode="!"/>
<glyph glyph-name="quotedbl" horiz-adv-x="158" unicode='"'/>
<glyph d="M192 138q-4 33 -15 56.5t-25 38.5t-29.5 22t-28.5 8q-26 2 -46.5 -10.5t-22.5 -37.5q-2 -21 10.5 -37.5t35.5 -27t54 -14.5t67 1v1zM253 276q4 8 10.5 14t14.5 3q10 -3 10 -14.5t-5 -20.5q-17 -33 -27.5 -60t-18.5 -53q25 5 51.5 8.5t51.5 4.5q10 0 19.5 -2.5t15.5 -6 t7.5 -8t-4.5 -8.5q-5 -4 -12 -1.5t-18 2.5q-38 -2 -65 -6.5t-52 -8.5q-5 -23 -8.5 -47t-7.5 -52q-2 -8 -4.5 -17t-11.5 -7q-7 1 -9.5 8.5t-2.5 18t1.5 22.5t2.5 22q1 12 2 23t1 21q-14 -2 -29 -2.5t-32 0.5q-21 0 -46 6t-46 18t-35 31.5t-14 47.5q0 18 9.5 32t23.5 23.5 t30 14.5t29 4q63 -5 92 -37.5t37 -77.5q8 30 18 56.5t21 49.5z" glyph-name="numbersign" horiz-adv-x="373" unicode="#"/>
<glyph d="M116 645q1 11 5.5 15t9.5 3q9 0 10 -10q1 -5 1 -13.5t-2 -34.5q-2 -30 0 -49q10 3 17.5 4.5t14 2.5t15 1h21.5q8 0 18.5 -3.5t8.5 -11.5q-2 -6 -6.5 -9t-14.5 -1q-20 2 -46 -1.5t-50 -12t-42.5 -22t-21.5 -29.5q-2 -10 4 -16.5t16 -11t22 -7.5t22 -5q20 -5 38.5 -10 t32 -12.5t21.5 -19t7 -29.5q-2 -29 -24 -44t-50 -18q0 -2 1 -4q-1 -4 -2 -16t-1.5 -25.5t-0.5 -24.5v-14q0 -5 -1 -9t-9 -1q-8 2 -10 13t-3 17q0 3 -0.5 12t-0.5 19.5v19.5v11q-23 0 -48 3.5t-49 20.5q-4 3 1 10.5t17 2.5q17 -6 37 -10.5t49 -5.5q23 -1 44.5 11t23.5 31 q2 15 -10.5 24t-31.5 15t-41.5 11t-41.5 12t-31 18.5t-10 30.5q1 15 10 26.5t22 21t27.5 16t27.5 10.5q0 9 0.5 23.5t1.5 29.5t1.5 27.5t0.5 17.5z" glyph-name="dollar" horiz-adv-x="250" unicode="$"/>
<glyph glyph-name="percent" horiz-adv-x="387" unicode="%"/>
<glyph d="M278 125q-3 -1 -10 -4.5t-9 -0.5q-4 5 -1 16t8 13q17 8 34.5 14.5t35.5 11.5q-34 26 -68.5 54.5t-60.5 62.5q-24 -11 -53 -27.5t-55 -38t-44 -48t-20 -58.5t13 -51.5t39 -31t53.5 -16.5t58.5 -7q19 -2 46 0.5t57.5 8t61.5 15t60 22.5q9 4 18.5 9t20.5 11q-20 14 -42.5 31 t-54.5 40q-33 -7 -52.5 -14t-36.5 -12h1zM217 333q42 20 81.5 37.5t71 35.5t51.5 39t23 49q3 29 -21 47t-59 20q-33 2 -63 -7.5t-53.5 -26.5t-38.5 -41t-17 -51q-3 -30 4.5 -55t21.5 -47h-1zM498 101q25 16 42.5 30t16.5 20q-2 6 -8.5 9t-14.5 4.5t-16.5 1t-13.5 -0.5 q-29 -1 -52.5 -3t-43.5 -4q23 -16 45.5 -29.5t45.5 -27.5h-1zM595 43q7 -5 7.5 -11.5t-4.5 -11t-15 -5t-24 7.5q-41 21 -66 38q-29 -17 -63.5 -32.5t-71.5 -27t-74 -17.5t-71 -4q-32 1 -69 7.5t-69 22.5t-53 44.5t-20 74.5q1 28 17 54.5t41.5 50.5t58.5 45.5t68 39.5 q-15 25 -23.5 52t-7.5 57q3 40 25 71.5t53.5 52t68 30t67.5 6.5q21 -2 41 -10t35 -20.5t23.5 -29t7.5 -35.5q-2 -33 -24.5 -59.5t-56.5 -48.5t-76 -41.5t-83 -38.5q21 -24 47.5 -46.5t53.5 -45.5q18 -17 36 -30q28 5 56 7l56 4q15 1 32 1t31.5 -4t24 -11.5t10.5 -21.5 q1 -16 -14.5 -35t-42.5 -39l34 -20t35 -21h-1z" glyph-name="ampersand" horiz-adv-x="613" unicode="&amp;"/>
<glyph d="M61 584q8 11 11.5 12.5t13.5 -9.5q5 -6 5.5 -11.5t-0.5 -9.5t-4 -8q-11 -25 -21 -45q-8 -18 -16.5 -34.5t-11.5 -24.5q-14 -30 -27 -20q-6 5 -7 12.5t0 11.5q1 2 8 20t16.5 39.5t18.5 41.5t13 25h1z" glyph-name="quotesingle" horiz-adv-x="94" unicode="'"/>
<glyph d="M102 667q5 10 18 6q4 0 7 -5.5t4.5 -12.5t1.5 -14t-2 -11q-13 -29 -27.5 -74t-27 -94t-21 -95.5t-9.5 -77.5q-1 -50 1 -92.5t8.5 -82t18.5 -79.5t33 -85q4 -7 -7 -15q-8 -6 -16.5 0t-12.5 13q-38 67 -51 153.5t-11 189.5q1 57 10.5 114t23 107.5t29.5 91t30 63.5z" glyph-name="parenleft" horiz-adv-x="142" unicode="("/>
<glyph d="M18 648q-2 8 -2 15t6 12q4 4 9.5 4t10 -3t8.5 -7.5t5 -9.5q16 -69 27 -115.5t17.5 -86t7.5 -79t-2 -94.5q-2 -36 -6 -75.5t-12.5 -81.5t-22.5 -85.5t-36 -88.5q-6 -13 -11.5 -15t-9 2t-4 11.5t2.5 14.5q29 70 42.5 144t18.5 166q5 110 -9.5 203.5t-39.5 168.5z" glyph-name="parenright" horiz-adv-x="119" unicode=")"/>
<glyph glyph-name="asterisk" horiz-adv-x="225" unicode="*"/>
<glyph d="M160 131q-4 -13 -10 -16.5t-12 -5.5q-8 -2 -12 2t-2 19q1 8 0.5 27t-1.5 42q-28 -2 -50 -3t-27 0q-11 0 -16.5 0.5t-13.5 11.5q-8 10 -3 13.5t8 3.5q2 0 11.5 2t23.5 4.5t31 4.5t34 3q-2 26 -3 46.5t0 24.5q0 11 0.5 16.5t11.5 13.5q10 8 13.5 3t3.5 -8q0 -2 2 -10.5 t4.5 -21.5t4.5 -29.5t4 -32.5q20 0 38 -0.5t25 -2.5q13 -4 16.5 -10t5.5 -12q2 -8 -2 -12t-19 -2q-7 1 -24 0.5t-40 -1.5q1 -21 0.5 -41.5t-2.5 -28.5z" glyph-name="plus" horiz-adv-x="260" unicode="+"/>
<glyph d="M38 58q9 12 14.5 5.5t10.5 -14.5t1.5 -15.5t-7.5 -13.5q-2 -3 -12.5 -17t-23 -30.5t-23.5 -31.5t-14 -19q-13 -21 -30 -7q-8 5 -5.5 15.5t8.5 18.5q3 4 15.5 21t26.5 36t25.5 34.5t12.5 17.5h1z" glyph-name="comma" horiz-adv-x="78" unicode=","/>
<glyph d="M225 238q13 -4 16.5 -10t5.5 -13t-2 -11t-19 -2q-9 1 -36.5 0t-58 -2.5t-56 -2.5t-30.5 -1q-10 -1 -15.5 0t-13.5 12q-8 10 -3 13.5t9 4.5q2 0 11.5 2t23.5 4.5t31 4.5t34 3q10 0 25 0.5t31 0.5t29 -1t19 -2h-1z" glyph-name="hyphen" horiz-adv-x="255" unicode="-"/>
<glyph d="M41 62q11 -1 18.5 -8.5t7.5 -18.5q0 -12 -10.5 -19.5t-23.5 -6.5q-11 0 -17 7.5t-6 18.5q0 13 9.5 21t21.5 7v-1z" glyph-name="period" horiz-adv-x="76" unicode="."/>
<glyph glyph-name="slash" horiz-adv-x="490" unicode="/"/>
<glyph d="M3 288q6 74 31 133t64 102t88 70.5t102 38.5q6 2 17 -1t10 -14q0 -5 -3 -7t-7.5 -3.5t-9 -2t-6.5 -0.5q-48 -8 -92 -39t-78 -76t-54.5 -100t-19.5 -110q1 -48 11 -91.5t33 -78t60.5 -58t93.5 -30.5q38 -5 82.5 10.5t83.5 51t66.5 91.5t33.5 133q3 39 -4.5 86t-27 88 t-51 68t-77.5 27q-23 0 -42 -5.5t-35.5 -15.5t-32.5 -22.5t-32 -27.5q-3 -3 -8.5 -4t-10 0t-6 5.5t4.5 12.5q28 39 64.5 62t90.5 25q50 2 89.5 -24.5t66 -70.5t39 -100t8.5 -112q-5 -77 -34 -136.5t-72 -100t-95 -60.5t-103 -18q-46 2 -91 21.5t-79.5 57t-53.5 93.5t-13 132 h-1z" glyph-name="zero" horiz-adv-x="548" unicode="0"/>
<glyph d="M34 480q2 8 6.5 23.5t9.5 29.5q6 17 13 36q3 10 10.5 14.5t15 5t13.5 -3t6 -8.5q-11 -50 -21.5 -131.5t-18.5 -181.5q-4 -42 -4.5 -86t-0.5 -80q0 -42 2 -82q0 -3 -4.5 -5t-10 -0.5t-10 6.5t-4.5 15q1 38 2 145.5t16 273.5q-8 5 -16 9.5t-5 18.5z" glyph-name="one" horiz-adv-x="124" unicode="1"/>
<glyph d="M6 26q-1 11 3 20.5t17.5 17t40 11t71.5 2.5q4 0 26 15.5t53.5 43.5t67.5 66t67.5 84t53.5 98.5t25 108.5q0 10 -6.5 25.5t-19.5 30t-32.5 24.5t-44.5 10q-45 -1 -79.5 -12t-60 -28.5t-43 -38.5t-28 -41t-15.5 -37t-6 -26q0 -6 0.5 -14t5 -15.5t13.5 -12.5t26 -5 q18 -1 34.5 10t30.5 25q15 16 29 35q3 4 8 6t9 0t5 -7.5t-3 -15.5q-5 -7 -14 -21.5t-23.5 -29t-35 -25.5t-47.5 -10q-20 0 -34 8.5t-23 21t-12.5 27t-2.5 26.5q2 30 24 68.5t57.5 72t82.5 55t100 18.5q55 -3 84.5 -24t42 -45t14 -44.5t1.5 -23.5q-2 -45 -18.5 -88.5 t-41.5 -84t-56 -76.5t-62 -66.5t-58.5 -53.5t-46.5 -36h7q54 0 101.5 -11.5t83.5 -25t57 -24.5l21 -11q12 -17 3.5 -25t-20.5 -1q-12 5 -32.5 13t-45 17t-52.5 17t-56 13q-17 3 -36.5 4.5t-36.5 2t-29 1l-12 0.5q-58 -29 -94.5 -35t-38.5 16h1z" glyph-name="two" horiz-adv-x="472" unicode="2"/>
<glyph d="M313 322q-21 6 -37.5 8t-24.5 1q-22 1 -41.5 -6t-18.5 -17q0 -4 6.5 -6t14.5 -2t15 0.5t10 0.5q44 6 77 21h-1zM426 473q1 36 -9 57t-26.5 31.5t-36 13t-37.5 2.5q-71 0 -115 -20.5t-69.5 -48t-36 -54.5t-12.5 -39q0 -12 -5 -16.5t-10 -3t-9 7.5t-3 15q5 50 35 91 q13 18 32.5 35t48 31.5t66 25t87.5 14.5q19 1 43.5 -6t46 -23.5t36 -43t14.5 -63.5q0 -45 -26 -82t-62 -65q51 -28 74.5 -71.5t20.5 -83.5q-3 -46 -25.5 -82t-58.5 -61t-81 -37t-93 -9q-57 3 -96.5 14.5t-65 23.5t-37.5 22l-12 10q-4 6 -4 12t2.5 11t6 8.5t6.5 3.5 q5 0 4.5 -3.5t6.5 -11.5q20 -16 46 -27q22 -10 53.5 -18.5t69.5 -8.5q75 -1 122.5 19.5t74.5 47.5t37 52t10 34q1 28 -7 49.5t-21 37.5t-30 27t-35 19q-40 -24 -78.5 -36t-61.5 -10q-22 2 -41.5 9.5t-21.5 32.5q-1 14 10.5 25t29.5 17.5t39 10t39 2.5q53 -3 90 -16 q22 17 36.5 37t23 38t12 32.5t3.5 21.5v-1z" glyph-name="three" horiz-adv-x="468" unicode="3"/>
<glyph d="M305 188q3 27 10.5 70.5t16.5 93.5t18 101.5t15 93.5q2 11 -0.5 14t-6.5 2.5t-7.5 -3l-3.5 -2.5q-34 -22 -59.5 -42t-47.5 -41t-43.5 -45.5t-46.5 -54.5q-14 -17 -24.5 -32t-20 -29.5t-19.5 -29.5t-23 -33q-22 -29 -13 -40t32 -13q34 -3 63 -4.5t55 -2.5t51.5 -2t53.5 -2 v1zM431 180q9 -1 19.5 -3.5t19 -6.5t13.5 -9t4 -11q-2 -10 -14.5 -10.5t-35.5 1.5q-45 6 -95 9q-3 -25 -4 -45t-1 -38t1.5 -35.5t4.5 -37.5q1 -7 -5 -7.5t-13.5 3.5t-14 11t-6.5 16q-1 18 -2 39q-2 37 0 97q-67 3 -126 3.5t-91 3.5q-48 4 -65.5 30.5t-4.5 54.5q15 23 31 48 q14 21 31 45.5t34 45.5q36 43 89 95t117 109q21 18 39.5 20t32.5 -6.5t21 -23.5t4 -30q-14 -67 -31 -145t-29 -163q-2 -15 -3.5 -28.5t-3.5 -25.5q37 -2 84 -6z" glyph-name="four" horiz-adv-x="453" unicode="4"/>
<glyph d="M370 603q18 -1 20 -6.5t1 -11.5q-2 -6 -10 -11.5t-17 -6.5q-3 -1 -18 -1.5t-37 -1t-47 -1.5t-47.5 -2t-38.5 -1.5t-20 -1.5q-20 -3 -22.5 -8t-6.5 -18q-1 -2 -3.5 -10.5t-5.5 -20t-6 -25t-5 -25.5q-7 -39 -10.5 -61t-2.5 -31.5t6 -8.5t14 9q1 1 13 8.5t31.5 15.5 t45.5 14.5t55 5.5q55 -2 90 -26.5t54 -55.5t25 -61.5t4 -44.5q-7 -53 -24.5 -91t-42 -64.5t-53 -43t-56 -25t-51.5 -11.5t-40 -2q-42 1 -70.5 7t-46 13t-26.5 13t-12 9t-3.5 8.5t1.5 10t6 7t10 -0.5q2 -1 11.5 -6t26.5 -10.5t41.5 -9.5t56.5 -4q29 0 67.5 9t74 31.5t62.5 61 t33 99.5q1 7 -1 31t-15 51t-41 48.5t-79 23.5q-34 1 -60.5 -6t-45.5 -17t-30.5 -19.5t-16.5 -13.5q-6 -4 -15 -5t-17.5 1t-14.5 9t-6 20q1 25 5.5 57.5t10.5 62.5t11 53.5t6 30.5q4 19 7 27t8.5 11t15 4t25.5 5q4 2 22.5 5t48.5 5.5t69.5 3.5t86.5 -1h-1z" glyph-name="five" horiz-adv-x="451" unicode="5"/>
<glyph d="M53 168q4 -30 15 -56.5t30.5 -47t48 -33t67.5 -14.5q44 -2 83.5 15.5t69.5 48t48 71t19 84.5q1 27 -6 51.5t-22.5 43.5t-40 31t-57.5 14q-45 2 -88.5 -13.5t-78.5 -42.5t-57 -63.5t-24 -76.5q0 -8 -7 -13v1zM446 596q9 -3 12.5 -7t2.5 -8.5t-3.5 -10t-5.5 -9.5 q-5 -9 -14 -12.5t-19 1.5q-12 7 -35.5 8.5t-55 -6t-70.5 -25.5t-81 -51q-29 -22 -50.5 -50t-36.5 -57.5t-24 -59.5t-12 -57q16 33 42.5 63t59.5 52.5t70 35t72 10.5q46 -3 80 -20.5t55.5 -43t31.5 -55.5t9 -58q-3 -53 -28.5 -99t-63.5 -80t-84.5 -52.5t-91.5 -15.5 q-47 4 -83.5 22.5t-61.5 48t-38 68t-11 82.5q1 45 11.5 88.5t31.5 85t53.5 79t78.5 69.5q16 11 45 26t64.5 26.5t74.5 16t75 -4.5z" glyph-name="six" horiz-adv-x="496" unicode="6"/>
<glyph d="M218 599q29 0 59.5 -1.5t57.5 -2.5t48.5 -1t32.5 2q9 2 17 4.5t13 -10.5q4 -12 -5.5 -23.5t-13.5 -17.5q-42 -50 -86 -121t-94 -153q-10 -17 -25 -45t-31 -63t-31 -75.5t-25 -82.5q2 -5 -2 -8t-11 -3t-13.5 4.5t-8.5 13.5q-3 12 6 42.5t25 70.5t37 85t44 86 q20 37 43.5 75t45 71.5t39 59.5t26.5 38q8 10 4 12t-14 1q-3 0 -17 1t-33 1.5t-41.5 1t-41.5 0.5q-39 0 -67 -2t-49 -8t-37 -18t-31 -34q-5 -18 -8 -27.5t-17 -9.5t-14 19t6.5 42.5t14.5 44t10 25.5q3 11 9.5 1t7.5 -36q25 17 68 29t101 12h1z" glyph-name="seven" horiz-adv-x="424" unicode="7"/>
<glyph d="M437 554q-20 19 -37.5 30t-36 17.5t-40.5 9t-50 4.5t-57 -6t-53.5 -21.5t-40 -31t-16.5 -34.5q-1 -18 8 -33t24 -27.5t35 -23t41 -19.5q13 9 36.5 25t53.5 35t64 39t69 37v-1zM209 371q-26 -20 -55.5 -46t-54 -56t-41.5 -62t-18 -63q-2 -35 12.5 -59.5t38.5 -39.5t55 -22 t62 -8q39 -2 78 11t69.5 34.5t50.5 50t22 57.5q2 28 -11 55t-35.5 50t-52.5 42t-63 32zM507 515q0 -10 -3.5 -13.5t-9.5 -7.5q-7 -3 -13.5 -3.5t-11.5 4.5q-3 3 -1.5 5t3.5 5t2 7t-5 10l-2 3q-39 -17 -65 -30.5t-48.5 -27.5t-45 -29.5t-54.5 -36.5l3 -2q39 -20 76 -41 t65.5 -47.5t45 -60t16.5 -77.5q-1 -54 -32.5 -92.5t-74.5 -62t-88 -33.5t-73 -7q-102 11 -148.5 57t-46.5 113q0 35 19 70.5t46.5 67.5t58 58.5t53.5 44.5q-49 26 -81 56.5t-29 63.5t23.5 59.5t51 45.5t67.5 28.5t74 7.5q51 -3 101.5 -22t88.5 -60q27 12 52 21t46 12 q10 1 15.5 -2.5t6.5 -10t-4 -13.5t-17 -11q-42 -15 -72 -27q3 -5 6 -10.5t5 -10.5v-1z" glyph-name="eight" horiz-adv-x="513" unicode="8"/>
<glyph d="M352 293q1 5 1.5 10.5t0.5 10.5q4 27 10.5 57t13 60.5t13 59.5t12.5 52q-12 11 -40.5 23.5t-77.5 16.5q-11 1 -31 1t-44 -5t-50 -16.5t-48.5 -34t-39.5 -58t-24 -87.5q-3 -25 0.5 -52t17.5 -49.5t38.5 -37t63.5 -14.5q34 0 62.5 6t52 15.5t40.5 21t29 21.5v-1zM418 604 q1 5 4 8q2 2 6.5 3t12.5 -2q17 -8 17.5 -13t-3.5 -16q-12 -33 -18.5 -55.5t-11 -48.5t-10 -63t-15.5 -101q-19 -115 -22.5 -195.5t1.5 -114.5q1 -10 -1.5 -14t-6.5 -5t-8.5 0.5t-8.5 3.5q-17 8 -18 32v24.5t1 51.5t3 69.5t7 78.5q-15 -9 -36 -18.5t-44 -17t-48 -12t-47 -2.5 q-30 2 -62 14.5t-57.5 35t-40.5 56t-11 77.5q6 57 27.5 102.5t57.5 76.5t85.5 46.5t110.5 13.5q56 -2 88 -9t46 -12l1 6h1z" glyph-name="nine" horiz-adv-x="463" unicode="9"/>
<glyph d="M45 71q17 -2 21 -13.5t4 -19.5q-1 -7 -10.5 -14.5t-20.5 -6.5q-11 0 -17.5 8.5t-7.5 13.5q0 3 2 8.5t5.5 11t9.5 9t14 3.5zM41 225q14 0 19.5 -9t5.5 -17t-7 -18t-21 -10q-14 1 -20 10t-6 16q1 7 7.5 17.5t20.5 10.5h1z" glyph-name="colon" horiz-adv-x="80" unicode=":"/>
<glyph d="M38 235q15 -1 22.5 -10.5t7.5 -18.5q-1 -7 -10.5 -15.5t-20.5 -8.5q-11 -1 -20 7t-9 17q1 6 8.5 18t22.5 11h-1zM37 50q8 8 12.5 3t9.5 -10q5 -6 3.5 -11t-5.5 -13q-2 -4 -12.5 -19.5t-23 -33.5t-23 -33t-13.5 -18q-6 -5 -10 -5.5t-13 7.5q-8 8 -4 17.5t6 13.5q1 1 11 16 t22.5 33t24 34t15.5 19z" glyph-name="semicolon" horiz-adv-x="83" unicode=";"/>
<glyph glyph-name="less" unicode="&lt;"/>
<glyph d="M225 238q13 -4 16.5 -10t5.5 -13t-2 -11t-19 -2q-9 1 -36.5 0t-58 -2.5t-56 -2.5t-30.5 -1q-10 -1 -15.5 0t-13.5 12q-8 10 -3 13.5t9 4.5q2 0 11.5 2t23.5 4.5t31 4.5t34 3q10 0 25 0.5t31 0.5t29 -1t19 -2h-1zM226 148q13 -4 16 -6t5 -9t-3 -13.5t-20 -4.5 q-9 1 -34.5 -0.5t-53 -3.5t-50.5 -3.5t-28 -1.5q-11 1 -16.5 2t-13.5 12q-7 11 -2 14.5t9 4.5q3 0 27.5 4t59.5 6q10 0 25.5 0.5t31.5 0.5t29 -0.5t19 -1.5h-1z" glyph-name="equal" horiz-adv-x="260" unicode="="/>
<glyph glyph-name="greater" unicode="&gt;"/>
<glyph d="M8 458q35 40 72.5 68t76 45t77 25t74.5 10q27 1 51.5 -8t43 -25.5t29 -40t10.5 -51.5q0 -34 -17 -60.5t-41.5 -47t-52.5 -35.5t-50 -25q-25 -12 -48.5 -22t-43 -23t-33 -30.5t-17.5 -44.5q-2 -11 0 -16.5t5 -9.5t5 -6t1 -5q-4 -6 -10 -6t-13 3q-14 8 -16 23.5t-1 31.5 q2 24 15 43t34 35t47 29t53 25q22 10 48.5 25.5t49 35t37.5 43t15 49.5q0 20 -8 34.5t-21.5 24t-30.5 13.5t-35 4q-51 -1 -90 -12t-70.5 -28t-58 -40t-52.5 -48q-11 -11 -20.5 -24t-17.5 -10q-7 2 -9 8.5t-1 14t4.5 15.5t8.5 14v-1zM139 69q11 -3 18 -12t6 -20 q-2 -11 -9 -17t-17 -6t-19 9t-8 23q1 10 12.5 17t16.5 6z" glyph-name="question" horiz-adv-x="449" unicode="?"/>
<glyph glyph-name="at" unicode="@"/>
<glyph d="M576 235q-14 59 -25 115.5t-19 101.5q-10 53 -17 100l-182 -331q23 3 43 5t36 3q10 0 28 1t40 1.5t47 1.5t49 2zM-18 129q4 -27 15 -47q10 -17 27.5 -32t49.5 -14q24 0 47.5 11.5t46 30.5t43.5 44t41 52q-36 -6 -59.5 -10.5t-23.5 -3.5q-7 -3 -13 -3q-5 0 -10.5 2 t-7.5 10t1 12.5t8 6.5q5 3 12 4q17 3 36 7q17 3 39 6.5t46 7.5q14 22 27 42.5t25 39.5q24 37 51 88.5t50 98.5t38 79.5l15 32.5q2 4 3 10.5t4 12t10.5 9t24.5 3.5q17 -1 25.5 -3.5t12.5 -9t4.5 -19.5t0.5 -34q2 -84 15.5 -167.5t33.5 -159.5h34.5t22.5 -1q14 -1 15 -6.5 t-4.5 -11.5t-15 -11.5t-15.5 -5.5l-26 -2q23 -78 48 -140t45 -97q4 -4 -1 -8.5t-13.5 -7t-18.5 -2t-16 8.5q-12 13 -24 38t-23.5 57.5t-22.5 71t-21 79.5q-30 -1 -68 -2t-80 -3q-30 -1 -62.5 -4t-64.5 -7q-15 -23 -40.5 -55t-56.5 -61t-66.5 -49t-70.5 -18q-41 2 -65.5 21.5 t-37.5 42.5q-15 26 -21 60q-1 5 1 9q1 3 4 6t8 3q11 -1 14 -6q2 -3 3 -6h1z" glyph-name="A" horiz-adv-x="735" unicode="A"/>
<glyph d="M122 24q49 0 108 4t112 16q54 12 106 27t94 35.5t69 48t32 66.5q3 28 -22.5 49.5t-69.5 36t-101.5 22.5t-117.5 10q-44 -10 -88.5 -16.5t-82.5 -8.5q-10 -1 -18.5 -1h-16.5q-5 -63 -7 -135.5t3 -153.5zM107 580q-108 -17 -157.5 -35t-56.5 -21q-9 -4 -9 -8q0 -3 2 -5 q-4 -1 -8 1q-3 2 -6 6t-5 13q-2 8 1 13.5t7 9.5t11 6q47 19 109 36q54 14 130.5 28t176.5 19q99 5 165 -5.5t105.5 -29.5t55 -43t14.5 -46q-1 -21 -12.5 -38.5t-29.5 -32.5t-40.5 -28t-44.5 -25q-9 -5 -31 -13t-52 -17l8 -1q66 -10 120 -29q23 -8 45 -19.5t40 -26.5t30 -34 t14 -42q3 -31 -19.5 -61t-64.5 -56.5t-99.5 -48.5t-125 -37.5t-141.5 -24.5t-148 -8q-29 0 -48 4.5t-30 11t-15.5 13.5t-4.5 13q0 5 2.5 9t5.5 7q4 3 8 5q0 -2 1 -5q2 -6 8 -7q5 -2 55 -4q0 90 2.5 161.5t6.5 128.5q-13 1 -19 2.5t-8 3.5q-3 2 -2 4q1 5 5 9q3 4 9.5 9 t17.5 10q7 95 14 148.5t8 79.5zM344 374q33 9 79 24.5t87 34t68.5 40t24.5 43.5q-3 20 -27.5 37t-64 28t-90.5 16.5t-107 2.5q-81 -4 -146 -12q-7 -26 -18 -82.5t-20 -139.5q8 2 16 3t17 1q48 6 95.5 6t86.5 -2h-1z" glyph-name="B" horiz-adv-x="693" unicode="B"/>
<glyph d="M478 370q43 19 76 43q29 20 53 48.5t26 63.5l0.5 9t-9.5 20t-34.5 20.5t-73.5 11.5q-61 2 -119.5 -12t-111.5 -40.5t-97.5 -63t-78 -79t-52.5 -89.5t-21 -93q0 -4 -0.5 -21.5t3.5 -42t14.5 -52.5t33.5 -52t61 -40.5t96 -18.5q43 -2 84.5 4t80 16.5t73 24t63.5 28.5 q69 34 127 79q2 2 5 3q6 2 9 -5q1 0 -3 -13t-29 -35q-4 -4 -38.5 -27t-89.5 -48.5t-124.5 -45t-144.5 -16.5q-56 2 -105 18t-84.5 48t-55 80.5t-16.5 116.5q2 51 23 102.5t57 98t85 86t106 68.5t120 44t127 13q2 0 15 -0.5t30.5 -3.5t37 -8.5t36.5 -16.5t28 -27t11 -39 q0 -35 -22.5 -66t-51 -55.5t-53.5 -40t-30 -18.5t-13 -6.5t-17 -5t-16.5 0t-11.5 9.5q-8 14 -1 17.5t22 8.5v-1z" glyph-name="C" horiz-adv-x="707" unicode="C"/>
<glyph d="M115 35q-5 22 -10 77.5t6 156.5q4 35 9.5 80t11.5 87.5t11 78t8 52.5q-35 -11 -63 -23t-47.5 -21.5t-30 -15l-10.5 -5.5q-8 -7 -12 -12.5t-12 -7.5q-4 -2 -8.5 3t-8.5 13q-5 9 0.5 17.5t14.5 15t18.5 11t12.5 6.5q1 0 33.5 16t88.5 34.5t132 33t164 11.5q63 -2 106.5 -14 t72 -29t44.5 -38t23.5 -42t9 -40t1.5 -32q-2 -60 -26.5 -112t-57.5 -92.5t-66 -68.5t-51 -41q-50 -37 -101.5 -61.5t-102.5 -39.5t-101 -22t-96 -10q-8 -1 -13.5 1.5t-8.5 5.5t-3.5 6l-0.5 3q0 -3 -1.5 0t-1.5 7t3 7.5t13 2.5q11 -1 23.5 -1t26.5 2zM194 580q-3 -8 -7.5 -24 t-9 -42.5t-9.5 -66t-10 -94.5q-7 -77 -9 -131.5t-1 -91.5t4 -58t6 -32q46 8 99 26t106 44.5t102.5 62t88 79t63 95t27.5 110.5q2 37 -14 64.5t-46 46.5t-72 28.5t-92 10.5q-64 2 -121 -6t-105 -20v-1z" glyph-name="D" horiz-adv-x="648" unicode="D"/>
<glyph d="M46 432q1 31 27.5 59.5t70 54t100 46t117 34.5t121 21t112.5 5q42 -2 68 -10t40 -18.5t19 -22t5 -18.5q-1 -18 -15.5 -32.5t-33.5 -25.5t-38 -18t-28 -10q-17 -5 -25 1t-14 15q-2 3 1 5.5t8 4.5t11 3t9 2q43 11 63.5 28.5t20.5 23.5q0 4 -2.5 9.5t-13 10.5t-32.5 8.5 t-60 5.5q-56 2 -114.5 -6t-114 -22.5t-104.5 -34t-85.5 -40t-58.5 -41t-22 -37.5q0 -18 15 -30t40.5 -20t58 -12t66.5 -5q48 18 98.5 31t102.5 20q8 1 29 3.5t43.5 3.5t39.5 -2t17 -13t-18.5 -20t-42 -17.5t-46 -12t-31.5 -4.5q-5 0 -19.5 -1.5t-36 -3.5t-48.5 -3.5 t-56 -2.5q-72 -22 -120 -52.5t-76.5 -61t-40.5 -56.5t-12 -39q0 -12 7.5 -34t33 -43.5t73.5 -38.5t127 -19q89 -2 164 10.5t129.5 29t86 31t32.5 15.5q17 11 21 8t-8 -15q-46 -36 -109 -63q-54 -23 -134.5 -41.5t-187.5 -14.5q-38 1 -86 10t-91 29t-71.5 52.5t-26.5 81.5 q1 30 17 59t43 56t64.5 51.5t81.5 45.5q-33 2 -62.5 7t-52 15.5t-35.5 26t-12 38.5h1z" glyph-name="E" horiz-adv-x="740" unicode="E"/>
<glyph d="M215 557v3q0 4 1 7q-42 -3 -78.5 -6t-59.5 -5q-128 -10 -125 19q2 13 11.5 13h20.5q16 0 32.5 1t42.5 3t64.5 5t98.5 9q3 10 7.5 16.5t11.5 5.5q11 -1 13 -20q60 6 99.5 9t76.5 4.5t82 1t116 -3.5q20 -1 33 -9t12 -19q-1 -5 -8 -7.5t-16 -2.5q-11 -1 -23 1h-150 q-35 0 -95 -3.5t-124 -7.5q0 -6 -0.5 -10t0.5 -5q0 -1 -2 -25.5t-5 -60.5l-6.5 -78t-5.5 -79q35 1 65 1t52.5 -0.5t36 -1.5l13.5 -1q14 0 25 -2q10 -2 17.5 -6t7.5 -12q0 -5 -7 -7.5t-15 -3.5t-14.5 -1h-6.5q-33 0 -65 -1q-27 -1 -57 -1.5t-53 -1.5q-2 -30 -3 -56.5 t-1 -38.5q-2 -26 -2.5 -44.5t0 -34.5t2.5 -32.5t5 -38.5q2 -8 5 -14.5t-2 -10.5q-3 -2 -12.5 -2t-20 9.5t-18.5 32t-6 65.5q2 54 3 94.5t2 68.5q-16 -1 -35.5 -2.5t-38 -3t-33.5 -3t-22 -2.5q-19 -2 -33.5 -3t-16.5 11q-2 11 3.5 14.5t13.5 4.5q27 4 44.5 7t34 5.5t35.5 4.5 t51 4l1 9q0 4 1.5 17t3 30.5t3.5 38.5l4 42q4 49 9 109v1z" glyph-name="F" horiz-adv-x="456" unicode="F"/>
<glyph d="M681 280q-2 -28 -18 -60t-42.5 -64t-62 -61t-78 -51t-90.5 -34.5t-98 -10.5q-58 2 -110.5 18t-92 46t-62 73.5t-20.5 101.5q2 56 30 110.5t73.5 103t104.5 89t122.5 69t127.5 44t121 13.5q37 -1 60.5 -10.5t36 -22t16.5 -26t4 -22.5q-1 -23 -9 -41.5t-21 -33.5 t-28.5 -26.5t-31.5 -20.5q-38 -20 -86 -31q-7 -2 -13 -2q-5 0 -9.5 2.5t-3.5 8.5q0 5 3.5 8.5t8.5 5.5t13 3q39 13 71 31q27 15 49.5 36.5t24.5 47.5q1 19 -8.5 30t-23 17t-27.5 8t-22 2q-39 1 -94 -11t-114.5 -35.5t-118 -58.5t-106 -79t-77.5 -97.5t-32 -113.5 q-2 -47 8 -84t37 -63t72 -39.5t114 -11.5q69 1 123 15t94 35.5t67 47.5t44 52t24.5 48.5t7.5 37.5q-21 -3 -44 -6.5t-44.5 -6.5t-41 -6t-34.5 -4q-38 -3 -82 -7t-84.5 -6.5t-74 -1.5t-49.5 7q-20 8 -16.5 16.5t21.5 6.5h32h29.5t29.5 2q29 2 67 6.5t80 10l84 11t78 8.5 q73 6 114 6q23 0 40 -1q8 0 15 -1q6 -1 10.5 -3.5t4.5 -7.5q-1 -10 -15 -12t-43 -2q-14 0 -35 -3z" glyph-name="G" horiz-adv-x="734" unicode="G"/>
<glyph d="M420 316q-23 -1 -46 -1.5t-37 -1.5q-10 -1 -32 -2.5t-49.5 -5t-57 -8.5t-54.5 -12.5t-41.5 -17t-18.5 -21.5q-1 -8 8.5 -25t26.5 -37.5t40 -42t50 -39.5t53.5 -31.5t51 -21t44.5 -8.5t34 6q14 8 20.5 42.5t8 77.5t0.5 85t-1 64zM54 602q0 4 1.5 15t6.5 19.5t14.5 10.5 t26.5 -11q10 -8 6.5 -15.5t-5.5 -11.5t-6.5 -30t-10.5 -63t-12 -79t-10 -78q-2 -17 -3 -36.5t-3 -39.5q16 13 48.5 23t72.5 17t84 11.5t83 7.5q24 2 41.5 3.5t31.5 2.5q1 29 4.5 70t7.5 80t8.5 70.5t7.5 41.5q4 12 9 23.5t11 20.5t13 12.5t15 -1.5q8 -3 10 -7.5t1 -9.5 t-4 -10q-2 -8 -6 -20q-3 -11 -6.5 -26.5t-8.5 -38.5q-3 -18 -6 -46.5t-5.5 -58.5t-4 -57t-2.5 -42q14 -1 27.5 -3t37.5 -4q8 -1 16 0t7 -11q-1 -11 -5 -11.5t-11 -1.5l-45 -1l-28 -1v-60t-4 -95q-2 -39 -11 -67t-21.5 -46t-27.5 -27.5t-28 -10.5q-13 0 -30.5 1t-40 7.5 t-51 19t-62.5 34.5q-53 33 -85.5 73.5t-45.5 74.5q-3 -48 -4.5 -86t-2.5 -51q-1 -23 3.5 -35t5.5 -20q0 -8 -8.5 -8t-18.5 5q-8 3 -10.5 7t-4.5 8t-1 9q-3 48 -3 99q-1 44 1 96t8 102q3 26 8.5 69t10.5 84t9.5 71t4.5 32z" glyph-name="H" horiz-adv-x="539" unicode="H"/>
<glyph d="M416 654q47 -2 87 -20.5t68.5 -49t43.5 -71.5t13 -89q-3 -84 -39 -162.5t-96 -138t-139 -94t-167 -31.5q-73 3 -116 21t-64.5 40.5t-27.5 43.5t-6 30q1 22 11.5 35.5t10.5 14.5q2 4 6 6q8 4 18 0q9 -6 4.5 -13t-6.5 -11q-1 -2 -4.5 -12t-3.5 -24t6.5 -30t25.5 -30.5 t54 -24.5t92 -12q90 -3 163.5 32t126 92t82 128t32.5 139q2 57 -17 94t-47.5 59t-60 30.5t-52.5 9.5q-48 2 -94 -10t-87.5 -33t-76 -47.5t-59.5 -53.5t-39.5 -52.5t-15.5 -42.5q-2 -52 45.5 -78t137.5 -29q45 -2 82 3t64 12q32 8 57 18q11 6 17 -0.5t-9 -17.5 q-3 -2 -17.5 -11t-40.5 -18t-64.5 -15.5t-89.5 -4.5q-44 1 -82.5 11t-67.5 28t-45.5 44t-14.5 59q1 22 16.5 51.5t43 61t65.5 61.5t82.5 53.5t94 37t101.5 11.5h-1z" glyph-name="I" horiz-adv-x="612" unicode="I"/>
<glyph d="M428 117q6 51 9.5 103.5t4.5 84.5q1 17 4 52t7 70q4 40 10 87l-14 -16q-4 -8 -8 -10t-7.5 1t-4.5 9.5t1 15.5q2 7 8.5 24.5t14.5 36.5q9 22 19 47q1 7 5 11t10.5 5.5t19.5 -2.5t18 -10t6 -12.5t-1.5 -13t-4.5 -11.5t-10 -46.5t-17.5 -104.5t-17.5 -138.5t-10 -148.5 q0 -17 -3 -45q34 -11 49 -19.5t16 -8.5q3 -2 5 -6q4 -8 0 -18q-3 -4 -11 -2q-4 1 -7 4t-10 7q-10 5 -46 16q-5 -34 -13 -75t-21.5 -83t-33 -81t-45 -69t-59 -47.5t-74.5 -15.5q-32 1 -76 12.5t-83.5 38.5t-66.5 73t-27 117q0 27 18.5 60.5t60 62t107.5 46t162 13.5 q35 -2 64 -5.5t52 -8.5zM324 99q-64 6 -122 -4t-103 -33.5t-73 -61t-32 -87.5q-2 -18 10 -44.5t38 -52t67 -46t98 -24.5q36 -3 66.5 13t54.5 44t42 64.5t30 75.5t18 76t7 67q-20 4 -44.5 7t-56.5 6z" glyph-name="J" horiz-adv-x="564" unicode="J"/>
<glyph d="M524 609q6 3 11 6q5 2 9.5 2.5t7.5 -2.5q5 -6 3 -13q-1 -4 -2 -6q-32 -32 -70 -67q-32 -30 -75 -67t-93 -72q-72 -52 -131 -88t-90 -53q106 -47 175 -86.5t110 -68.5q48 -34 72 -62q5 -6 9 -10q7 -11 1 -16q-4 -4 -9 -2t-10 5q-6 4 -12 9q-63 44 -127 84q-55 34 -120 67 t-123 50q-1 -29 -1 -59.5v-57.5t1 -47t1 -29q2 -18 -4 -19.5t-17 1.5t-15.5 9t-4.5 11q-2 12 -3 29q-1 14 -2 34.5t0 46.5q1 20 2 41.5t3 46.5q-33 0 -46.5 6t-10.5 26q2 11 19 18.5t43 0.5l2 30q3 48 10.5 98t16 92t15 69.5t7.5 29.5q2 17 8.5 14t15.5 -9q13 -8 11 -16 t-2 -9q-9 -45 -18 -94q-8 -42 -15.5 -95.5t-11.5 -109.5q44 22 87 48t83.5 53.5t78 55t69.5 53.5q76 60 143 122h-1z" glyph-name="K" horiz-adv-x="481" unicode="K"/>
<glyph d="M307 98q-19 7 -36 14t-36 12.5t-42.5 9t-56.5 4.5q-36 1 -57.5 -6t-32.5 -16.5t-14.5 -20t-3.5 -14.5q0 -5 0.5 -16t9.5 -23t29 -21.5t58 -10.5q33 -1 60.5 6t50.5 20t41 29t30 33zM362 477q0 53 17 92.5t43.5 65t59.5 37.5t66 11t56.5 -15t39 -35.5t22.5 -47t6 -49.5 q-2 -57 -22 -99t-42.5 -69t-41 -40l-18.5 -13q-6 -3 -10 -4q-10 -2 -14 7q-3 6 1 12q2 3 5 4q29 21 54 48q20 23 38 56.5t20 76.5q0 15 -2.5 37t-12 42.5t-29.5 35.5t-54 16q-39 2 -65.5 -13.5t-43.5 -42t-26 -61.5t-12 -73.5t-3 -77t2 -72.5q1 -23 -1.5 -48.5t-7 -51 t-11.5 -49t-15 -42.5q53 -20 96.5 -39.5t69.5 -27.5q51 -17 100.5 -29t77.5 -16q3 0 6 0.5t5 0t2 -3t-3 -8.5l-8 -8q-4 -3 -9.5 -5t-13.5 0q-49 8 -98.5 21.5t-94 28.5t-82.5 29.5t-65 25.5q-12 -18 -32.5 -37.5t-48 -34.5t-62.5 -24.5t-77 -7.5t-67.5 14t-39 28t-17.5 31.5 t-4 24.5q0 13 7 29.5t23.5 31t44 24t69.5 8.5q43 -2 90.5 -14t95.5 -29q13 29 20.5 67.5t11 84t4 95.5t0.5 101v1z" glyph-name="L" horiz-adv-x="687" unicode="L"/>
<glyph d="M181 664q32 -1 56.5 -15t42.5 -35.5t30 -49.5t20 -56q18 -67 19 -152q22 86 51 153q12 28 27.5 55.5t33 48.5t38 34t43.5 12q22 -1 38 -13t27 -31t17 -43t9 -49q7 -59 1 -133q20 73 48 131q12 24 26.5 47.5t32 42t38 29.5t43.5 10q30 -1 49 -20t29.5 -43t13.5 -48t3 -34 q0 -5 -3 -27t-7 -54t-9 -70t-9.5 -73.5t-8 -66t-5.5 -46.5q-4 -38 -1 -63t8 -40t10 -21l5 -6q2 -2 4 -5q3 -5 -2 -12q-2 -3 -6 -2.5t-7.5 2t-6 2.5l-2.5 1q-11 5 -20 17q-8 11 -14.5 30.5t-6.5 52.5q0 25 0.5 79.5t11.5 119.5q10 61 15 115t3 95t-13.5 65t-33.5 25 q-24 1 -46.5 -19.5t-41.5 -53t-35 -72t-28 -77.5t-19.5 -70t-9.5 -48q-3 -24 -5.5 -56.5t-4.5 -61.5t-3 -50.5t-1 -23.5q-1 -2 -2.5 -7.5t-4.5 -11t-8.5 -8.5t-12.5 0q-10 4 -14 9.5t-5 10.5t-0.5 8.5l0.5 3.5q3 34 6 71q2 31 4 69t3 73q0 23 1.5 56t1.5 68t-2 69.5t-8 62 t-17 44.5t-28 18q-26 1 -56 -36t-57 -98.5t-47.5 -139t-27.5 -157.5q-2 -25 -4 -49.5t-3 -44t-1.5 -31.5l-0.5 -12q1 -10 -1 -18q-2 -7 -6 -12.5t-13 -4.5q-25 2 -28 7.5t0 19.5q1 7 4 33t6 59t5 68t2 60v50t-3 73t-10 82t-20.5 76.5t-35 57.5t-54.5 24q-24 1 -47.5 -7 t-45 -21.5t-40.5 -31.5t-35 -36q-39 -43 -71 -99q0 -5 -3 -8q-2 -2 -6 -3.5t-9 1.5q-5 2 -6 7.5t1 10.5q1 6 5 12q30 59 68 105q16 19 35.5 37.5t42.5 33t49 23t55 7.5v-1z" glyph-name="M" horiz-adv-x="937" unicode="M"/>
<glyph d="M123 663q41 -2 69.5 -20.5t48 -47.5t30.5 -66t17 -75q12 -90 2 -202q24 116 61 206q16 38 35.5 74.5t43.5 65t53 45t62 15.5q31 -1 52.5 -20t33.5 -46.5t15 -59t-1 -58.5q-4 -23 -9 -64.5t-10 -87.5t-9.5 -88t-7.5 -65q-6 -49 0 -78.5t16 -45.5q11 -19 28 -27q3 -1 5 -4 q4 -6 1 -13q-1 -2 -8 -2.5t-16.5 1t-19.5 7t-18 15.5q-17 22 -24 84t4 148q4 28 10 65.5t11 78t7 80t-3 71.5t-18.5 52t-39.5 22q-29 2 -56 -17.5t-50 -52t-42.5 -73t-34.5 -79t-24.5 -70.5t-13.5 -48q-6 -24 -12.5 -56t-12 -63.5t-9.5 -57.5t-4 -38q-3 -21 -10 -26.5 t-13 -3.5q-8 2 -17.5 9t-9.5 19q3 17 8.5 62.5t12.5 109.5q2 22 3 58.5t-1.5 79t-10 87t-21.5 80.5t-35.5 60t-53.5 27q-33 3 -64 -8.5t-58 -30.5t-49 -42.5t-38.5 -44t-26.5 -36t-11 -17.5q-5 -7 -6.5 -10.5t-6.5 -7.5q-6 -3 -7 2t0.5 13t4.5 17.5t6 14.5q1 2 11.5 17 t28 35.5t40 44t49 43t55.5 32t58 11.5z" glyph-name="N" horiz-adv-x="678" unicode="N"/>
<glyph d="M505 637q54 -2 97 -22.5t72 -54t44 -78t13 -95.5q-3 -74 -41 -144t-101.5 -124t-146 -85t-173.5 -28q-61 2 -105.5 16.5t-76 37t-51.5 50.5t-30.5 57t-14.5 56.5t-3 49.5q2 48 22 96t52.5 92t74.5 81.5t87.5 64.5t92.5 41.5t89 12.5q11 -1 15.5 -5.5t3.5 -6.5 q0 -2 -3.5 -7t-18.5 -4q-24 1 -60.5 -11t-78 -34t-83 -54.5t-76 -72.5t-56.5 -87t-24 -99q-2 -54 11 -92t34.5 -64t49.5 -41.5t56 -24t53 -11.5t42 -3q77 -3 151.5 22t133.5 71.5t96 109.5t40 137q3 72 -18 115.5t-51 67t-63 31.5t-54 9q-60 2 -103.5 -8t-71.5 -23 q-33 -15 -55 -35q-3 -3 -7 -6q-8 -6 -12 -2q-9 6 -3 17q2 5 7 10q30 23 68 41q32 15 77 27t99 10v-1z" glyph-name="O" horiz-adv-x="714" unicode="O"/>
<glyph d="M74 261q26 -3 67 -1t87 12t94 28t89 47.5t71 70t41 95.5q7 39 -10.5 62t-46 35.5t-60.5 16.5t-53 5q-36 1 -67 -0.5t-59.5 -6.5t-56 -13t-58.5 -18q-5 -20 -8.5 -48.5t-7.5 -61t-8 -67t-8 -67.5q-2 -20 -3.5 -42.5t-2.5 -46.5zM352 663q39 -1 79.5 -14t72 -35t49 -51 t10.5 -60q-13 -59 -47.5 -102.5t-81.5 -75t-100.5 -51.5t-103.5 -31.5t-91.5 -14.5t-64.5 -1q0 -29 1 -60t1.5 -56.5t1.5 -43.5t1 -21q0 -5 1.5 -10t0.5 -8.5t-6.5 -4t-17.5 3.5q-13 4 -18.5 14.5t-7.5 22t-1 20l1 8.5q1 24 2 49q1 21 2 46.5t3 50.5q-24 13 -26.5 22.5 t-2.5 10.5q0 5 2.5 8.5t7.5 -0.5q5 -7 21 -11q2 25 2.5 48t0.5 41q0 21 3 49t7.5 58.5t9 60.5t9.5 55l-6 -1q-33 -11 -64.5 -25t-58 -29t-46 -29t-28.5 -25q-3 -5 -3.5 -8.5t0.5 -6.5t0.5 -6t-3.5 -5q-5 -3 -8.5 0.5t-5.5 10t-3.5 13.5t-1.5 11q1 23 19 36t38 24 q26 15 48 26.5t43 20.5t41.5 16.5t44.5 15.5q2 9 2.5 15.5t1.5 10.5q1 13 4 18.5t7 7t9 0t11 -3.5q3 -2 6.5 -3t5.5 -4t2 -9t-3 -19q33 10 59.5 16.5t51.5 10t53 5t64 0.5v-1z" glyph-name="P" horiz-adv-x="335" unicode="P"/>
<glyph d="M499 634q42 -2 82 -16.5t71.5 -44t50.5 -74.5t20 -108q1 -52 -18 -102.5t-52.5 -95t-79 -82t-98 -64t-109.5 -40t-113 -11.5q-68 3 -119 25.5t-85.5 59t-51 84t-14.5 99.5q2 54 24 104.5t56.5 94.5t77.5 80t87 61.5t86 39t75 12.5q8 0 17.5 -2t7.5 -11q0 -5 -5.5 -10 t-22.5 -5t-49 -10t-71 -30t-80.5 -49t-76.5 -67.5t-59 -86t-29 -104.5q-9 -112 48.5 -173.5t175.5 -71.5q43 -4 91.5 4.5t97 27.5t92.5 49t78.5 69t55.5 87.5t23 105.5q1 56 -9.5 94t-28.5 63.5t-40 39t-44 20t-41 8t-29 1.5q-48 2 -89 -8.5t-71 -24.5q-35 -16 -64 -36 q-5 -4 -9 -7q-9 -5 -9 0q-2 11 18.5 30t56 36t81.5 29t94 10zM312 124q36 -3 59.5 -6.5t38 -7t22 -6.5t13.5 -5q6 -3 5 -6t-5 -6.5t-9.5 -6.5t-9.5 -4q-10 -2 -18 0q-4 1 -9 2q-6 2 -18 5q-11 2 -29 5.5t-47 6.5t-50.5 2.5t-36 -3t-22.5 -5.5t-9 -3q-3 -2 -13.5 -6t-14.5 1 q-4 4 0 10q2 3 4 5l8 5.5t26 11.5t46 10t69 1zM559 57q33 -11 59 -20q23 -8 43.5 -14.5t27.5 -8.5q12 -4 24 -4t12 -8q-1 -6 -9.5 -10t-24.5 -3q-15 0 -37 2.5t-45 11.5q-11 4 -25.5 10t-28.5 11t-25.5 9t-17.5 5q-8 1 -6 7q1 3 4 5q1 2 5 4q3 2 7 4t10 4q11 5 16.5 1 t10.5 -6z" glyph-name="Q" horiz-adv-x="727" unicode="Q"/>
<glyph d="M-104 526q1 0 16.5 8t44 20t68 26t88.5 26q3 12 3 14q4 14 8.5 18t9 2t9.5 -8l10 -12l-1 -5q47 10 98.5 16t108.5 6q59 0 102 -13.5t70.5 -34t39.5 -44.5t9 -45q-6 -38 -25.5 -68.5t-47.5 -55.5t-62 -44.5t-68 -33.5q-81 -33 -181 -51q74 -59 143 -106.5t122 -81t85 -52 l32 -18.5q5 -2 3.5 -6.5t-6.5 -9t-12 -7t-12 0.5q-3 1 -43.5 22.5t-103 60t-140 94t-154.5 125.5q-3 7 -2 10t4 3.5t6 0.5h3q29 -5 71 -1t87.5 16.5t91 33.5t82.5 48.5t60.5 62t25.5 75.5q2 35 -41 57.5t-121 22.5q-68 0 -126 -6.5t-107 -17.5q-8 -40 -18.5 -105.5 t-21.5 -143.5q-12 -83 -16 -141t-4.5 -95t1 -54t1.5 -19q0 -9 -6.5 -9.5t-15 3t-15.5 9.5t-7 11q-2 35 -1 76q1 35 4 83t11 105q5 37 11 75t13 73.5t13.5 67t11.5 55.5q-51 -13 -89.5 -27.5t-64.5 -26.5t-39.5 -20l-13.5 -8q-5 -2 -6.5 -2t-3.5 1t-2 3v27q0 2 2 5q1 4 9 9 h-1z" glyph-name="R" horiz-adv-x="599" unicode="R"/>
<glyph d="M481 648q34 0 72 -6t70 -20.5t52.5 -37.5t18.5 -56q-2 -27 -21.5 -49.5t-46.5 -37.5t-55 -22t-45 -3q-11 1 -14.5 7t-2 12t6.5 10t10 1q7 -2 26.5 1.5t40.5 13t38 25.5t20 40q1 7 -4 20.5t-24.5 27.5t-58.5 24.5t-108 11.5q-54 1 -107.5 -6t-103 -20t-92.5 -29.5 t-74.5 -34.5t-49.5 -36t-19 -33q-1 -34 33.5 -63t88 -54t116.5 -47t119 -41q43 -15 92 -29.5t90.5 -32t68 -39t25.5 -49.5q-1 -13 -15.5 -32t-47 -37t-83.5 -29.5t-125 -9.5q-81 2 -142 21.5t-102 42.5q-48 26 -82 59q1 5 5 8q3 2 8.5 2t13.5 -5q38 -25 85 -44 q40 -17 94.5 -32t120.5 -17q23 -1 60 3t72.5 13.5t61.5 24.5t27 36t-27 38t-70 32t-91.5 29t-91.5 29q-37 13 -77 26.5t-78.5 29t-73 33t-60 37.5t-40 43.5t-13.5 51.5q1 32 26.5 59.5t66 49.5t93 39t108.5 28t111.5 17t102.5 6h1z" glyph-name="S" horiz-adv-x="670" unicode="S"/>
<glyph d="M477 609q48 -2 73.5 -3t37.5 -2q14 -1 16 -2q6 -10 9 -18q2 -7 0.5 -12.5t-9.5 -4.5q-26 1 -60.5 1.5t-72.5 -0.5t-78.5 -3t-79.5 -6q-3 -22 -9.5 -77t-14.5 -151q-8 -86 -9 -149t0.5 -104.5t4 -63.5t2.5 -26q0 -5 -6.5 -6t-15 1.5t-16.5 9t-11 15.5q-2 7 -2.5 36.5 t0.5 70.5t3.5 87.5t5.5 87.5q3 33 6.5 71t7.5 75t8 68.5t6 51.5q-52 -6 -101.5 -12t-93 -10.5t-79 -6t-59.5 1.5q-6 1 -11.5 5.5t-8 10.5t-0.5 10.5t11 5.5q25 1 49 4q20 2 41.5 4t35.5 4q9 1 35 4.5t62 8t79 9t86.5 8t84.5 5.5t73 1z" glyph-name="T" horiz-adv-x="407" unicode="T"/>
<glyph d="M45 581q3 4 7 7q4 2 9 4t13 0q7 -2 11 -6.5t6 -9.5q3 -5 3 -11q-11 -28 -21 -69q-8 -35 -16.5 -88.5t-12.5 -128.5q-2 -29 0 -72t14 -84t37 -71.5t70 -32.5t79 28.5t58.5 78t40.5 105t25.5 110t13.5 92.5t4 53v24t-0.5 35t-1.5 38t-2 33q-1 12 5 9.5t13.5 -10t14 -16.5 t6.5 -11q1 -12 2 -31q1 -17 0 -45t-4 -72q-8 -95 -30.5 -179.5t-57 -147t-79.5 -97t-99 -29.5q-53 5 -83 32t-44.5 67t-18.5 90t-5 101q-2 51 5 104.5t15 98.5q10 52 23 101z" glyph-name="U" horiz-adv-x="424" unicode="U"/>
<glyph d="M156 31q47 138 88.5 234t77 160t63.5 100.5t48.5 55t33 23.5t16.5 7q5 2 7.5 -3t2.5 -11q0 -7 -1 -17l-10 -4.5t-30.5 -27.5t-52.5 -72t-78 -137q-30 -59 -53.5 -115.5t-40 -103.5t-26 -81.5t-11.5 -47.5q-2 -11 -8.5 -15t-14.5 -4t-15.5 2.5t-11.5 5.5 q-21 15 -40.5 60.5t-36.5 106t-30.5 129.5t-23 131t-15 109.5t-5.5 65.5q0 10 8.5 11t19 -4.5t19 -16t8.5 -21.5q-1 -8 1.5 -41t8 -80.5t14 -104.5t21 -112t29.5 -103t38 -79z" glyph-name="V" horiz-adv-x="379" unicode="V"/>
<glyph d="M298 174q19 48 28.5 88.5t11.5 54.5q11 70 13 102t-3 33q-2 0 -7.5 -11t-11.5 -29t-12 -41t-10 -46q-5 -25 -8 -66t0 -85h-1zM147 17q21 0 40 8.5t35.5 23.5t30 35.5t25.5 43.5q-11 43 -13 92t6 97q4 26 11.5 63.5t18 71t23 56.5t26.5 20q28 -6 33 -50.5t-12 -135.5 q-12 -62 -28.5 -117t-37.5 -101q8 -41 28 -68.5t58 -27.5q37 0 69 23t59 60.5t48 85.5t37.5 100t28.5 103t19 94t9.5 73.5t0.5 41.5q1 3 8 3.5t14.5 -2.5t13.5 -9t5 -15q-3 -20 -8.5 -56t-14.5 -81.5t-22 -96.5t-30.5 -102t-39.5 -97.5t-49.5 -82.5t-60.5 -58t-73 -23 q-42 -1 -71 28t-46 76q-29 -51 -63.5 -79.5t-74.5 -25.5q-59 5 -93 45.5t-50.5 100t-18 129t5 132.5t17.5 110.5t20 63.5q1 4 9.5 3t17 -5t14 -9.5t1.5 -11.5q-12 -19 -22.5 -65t-15 -104.5t-2.5 -122t14.5 -116t36.5 -86.5t63 -35z" glyph-name="W" horiz-adv-x="690" unicode="W"/>
<glyph d="M118 588q0 -5 7.5 -25t21 -51.5t32.5 -71.5t41 -84q51 64 113.5 132t136.5 137q2 2 7.5 0.5t10 -5.5t7 -9t-1.5 -9q-36 -36 -77 -80q-35 -38 -80.5 -90t-95.5 -115q24 -46 50 -92t53.5 -88t55 -77.5t53.5 -59.5q9 -6 10.5 -11.5t-4 -9.5t-16 -4.5t-24.5 3.5 q-8 3 -29 27.5t-49.5 64.5t-62 93.5t-67.5 115.5q-51 -68 -100.5 -143t-91.5 -154q-9 1 -15 5q-5 3 -9.5 8t-2.5 13q3 8 16.5 34.5t38 67t60.5 93.5t83 114q-33 63 -63 129.5t-53 132.5q-3 10 2.5 14t14 4.5t17 -2t11.5 -6.5v-1z" glyph-name="X" horiz-adv-x="426" unicode="X"/>
<glyph d="M138 -16q-53 2 -84 36t-44 88t-11.5 121.5t14 134.5t32 127t42.5 101q4 8 10 9q5 1 12.5 -6t18.5 -27q-24 -43 -43 -100.5t-31 -118.5t-15 -120.5t6 -106.5t31.5 -77t61.5 -31q30 -1 56 13t48 38t40.5 54.5t33 62.5t25 61.5t17.5 52.5q3 38 7 72t9 63q2 13 6 36 t10.5 45.5t16.5 38.5t25 15q6 -1 10 -7t5 -19.5t-2 -35t-11 -52.5q-11 -41 -23 -82.5t-26 -83.5q-1 -34 -1 -74t-0.5 -82.5t-0.5 -86.5t-1 -86q-1 -68 -20.5 -120.5t-51.5 -88.5t-73 -54.5t-85 -16.5q-44 1 -74.5 13t-49.5 25.5t-28 25t-9 12.5q-4 6 -0.5 10.5t9 8t11.5 5 t6 0.5q12 -21 30 -37q16 -14 41.5 -25.5t63.5 -11.5q11 0 28.5 1.5t36.5 8t38.5 21.5t36.5 41.5t29.5 67.5t17.5 101q5 59 7.5 124.5t5.5 130.5q-19 -46 -41.5 -86t-48.5 -69t-57 -45t-67 -15z" glyph-name="Y" horiz-adv-x="425" unicode="Y"/>
<glyph d="M36 515q1 0 37 12t99 26t149 25t188 9q6 -2 16.5 -11t18 -21t9.5 -24t-10 -21q-56 -33 -97.5 -61.5t-79.5 -57t-76.5 -60t-86.5 -70.5q-38 -30 -74 -67t-62 -71.5t-40 -61.5t-8 -37q7 -13 27.5 -12.5t52.5 7t75 14.5t96 10q37 1 76 -1.5t71 -6t52.5 -6.5l20.5 -3 q4 -2 4 -7t-2 -11t-5 -11l-3 -5q-11 3 -33 6q-19 2 -52 3.5t-84 -0.5q-61 -2 -103 -5.5t-73 -7.5t-55.5 -8.5t-49.5 -7.5q-8 -1 -16 8.5t-15 21.5q-8 13 -16 31q-6 44 45.5 116.5t150.5 158.5q33 28 69.5 55.5t73 52.5t70 47t59 39t40 27.5t13.5 14.5q-1 3 -20.5 3.5 t-50.5 -1.5t-70.5 -6t-81 -9.5t-82.5 -12t-74.5 -14t-57 -15t-29.5 -14.5q-3 0 -5.5 5.5t-3 13t0 14.5t2.5 8v-1z" glyph-name="Z" horiz-adv-x="501" unicode="Z"/>
<glyph glyph-name="bracketleft" horiz-adv-x="370" unicode="["/>
<glyph glyph-name="backslash" horiz-adv-x="402" unicode="\"/>
<glyph glyph-name="bracketright" horiz-adv-x="289" unicode="]"/>
<glyph glyph-name="asciicircum" unicode="^"/>
<glyph d="M51 202q-26 3 -33.5 9t-12.5 13q-5 8 3 12t40 2q13 -1 44.5 -0.5t71 1.5t82.5 2t80.5 2t64.5 1.5t34 0.5h18.5t14.5 -1t13.5 -3.5t15.5 -8.5q7 -5 7.5 -8t-3 -5.5t-8.5 -3.5t-9 -1t-23.5 -2t-48.5 -4.5t-64 -4.5t-71 -3q-21 0 -53 -0.5t-64.5 -0.5t-60 0.5t-39.5 2.5h1z " glyph-name="underscore" horiz-adv-x="501" unicode="_"/>
<glyph glyph-name="grave" horiz-adv-x="206" unicode="`"/>
<glyph d="M323 136q-5 -10 -17.5 -29t-29.5 -38t-37.5 -33.5t-41.5 -14.5q-23 -1 -36 9t-21 21q-9 13 -12 30q-11 -19 -22 -33q-10 -12 -23 -22.5t-26 -9.5q-7 0 -18 4t-21 16t-15.5 34t-0.5 57q4 35 17 61t29 42.5t32.5 24t28.5 7.5q22 -1 33 -9t15.5 -18t4 -19t-0.5 -11 q-3 -10 -6.5 -14t-6.5 -5t-6 0.5t-6 2.5q2 11 -1 21q-2 8 -8 14.5t-19 7.5q-11 0 -21.5 -7t-19.5 -19.5t-16 -28.5t-11 -33t-5 -34t1.5 -30t8.5 -21t15 -8q14 0 26.5 16t22 37t15.5 42t8 30q1 4 7 4.5t13 -1.5t12.5 -6.5t4.5 -10.5l-5 -16.5t-5.5 -37t7.5 -37t33 -16.5 q23 0 52.5 27.5t69.5 100.5q7 12 12 -2t-10 -44v-1z" glyph-name="a" horiz-adv-x="296" unicode="a"/>
<glyph d="M43 25q-6 -7 -12 -9q-5 -2 -12 1.5t-13 17.5q-5 15 -6.5 36t0.5 41q1 23 5 48q7 41 14 97q6 48 14 118.5t17 162.5q6 13 15.5 14.5t17.5 -4t12.5 -15t2.5 -17.5l-7.5 -32.5t-18 -86.5t-20.5 -124.5t-13 -147.5l3 11t9 27t15.5 34t22 33t29 24t36.5 7q23 -3 33 -21t12 -40 t0 -42t-3 -27q-5 -35 -19 -58.5t-30 -38.5t-31.5 -21.5t-24.5 -5.5t-17.5 3.5t-15.5 5.5q-8 4 -14 8zM52 67q3 -8 7 -14q4 -5 11 -9.5t18 -3.5q18 1 33.5 15.5t27 35.5t18 45.5t6.5 45t-7 33.5t-23 12q-11 -1 -21 -8t-18.5 -18.5t-15.5 -25.5t-13 -29q-13 -34 -23 -78v-1z " glyph-name="b" horiz-adv-x="228" unicode="b"/>
<glyph d="M274 137q-3 -5 -13 -24.5t-30 -41t-50.5 -39.5t-72.5 -19q-48 -2 -79 28t-29 80q1 24 9.5 51.5t23.5 50t37 37t50 13.5q26 -1 39.5 -15t13.5 -36q0 -23 -9.5 -36t-17.5 -21q-4 -5 -11.5 -8t-15.5 2q-4 3 -2.5 12t6.5 15q6 7 9.5 16.5t4 18t-3.5 14.5t-14 7q-14 1 -28 -8 t-25 -24t-18 -35.5t-8 -43.5q-2 -45 13.5 -66t59.5 -22q34 0 60 15.5t45 38t31.5 46.5t21.5 40q4 6 8 5.5t5.5 -7t-0.5 -18t-9 -26.5h-1z" glyph-name="c" horiz-adv-x="250" unicode="c"/>
<glyph d="M102 219q-11 1 -23.5 -10t-23.5 -28t-19 -38t-9 -40q-2 -23 3 -38t22 -16q18 -1 37 19t37 52q-5 22 -6.5 45t-0.5 46q-7 6 -17 8zM151 167q12 25 22.5 51.5t19 49.5t14 41.5t8.5 28.5q6 19 11 47t8.5 54.5t4.5 45t-2 19.5t-10 -5t-16 -23.5t-20.5 -49t-23.5 -82.5 q-11 -46 -15.5 -92t-1.5 -86zM216 53q21 -2 41 12.5t37 36t30 44.5t22 39q3 6 7 5t5.5 -7.5t-0.5 -18t-9 -26.5q-3 -5 -14 -25t-29 -41.5t-41.5 -38t-50.5 -14.5q-28 2 -46.5 18t-29.5 42q-20 -28 -43 -45.5t-46 -15.5q-8 0 -19 3t-20.5 11.5t-15.5 24.5t-4 42q3 42 18 71.5 t34.5 48t38.5 27t30 7.5q7 0 12 -3q6 57 18 111.5t28 97t35.5 67.5t40.5 22q25 -3 29.5 -36.5t-4.5 -83.5t-28 -109.5t-40 -116.5q-8 -22 -18.5 -44.5t-22.5 -42.5q8 -26 21.5 -42.5t33.5 -18.5v-1z" glyph-name="d" horiz-adv-x="324" unicode="d"/>
<glyph d="M11 173l8 24t5 22t-1 17t-9 8q-8 1 -18 -13.5t-18.5 -37t-12.5 -48.5t1 -47q11 14 24.5 35.5t20.5 39.5zM22 54q27 0 49 14.5t39.5 35t30.5 42.5t22 38q3 6 7 5t5.5 -7.5t-0.5 -18t-10 -26.5q-3 -5 -13.5 -24.5t-28.5 -40.5t-42 -37.5t-52 -16.5q-34 1 -54 13.5t-30.5 31 t-13.5 40.5t-2 42t10 47t23 49.5t33 33t39 -2.5q16 -10 20.5 -23.5t2.5 -28.5t-8 -30.5t-11 -28.5q-12 -31 -28 -56t-27 -38q15 -13 39 -13z" glyph-name="e" horiz-adv-x="141" unicode="e"/>
<glyph d="M74 -366q72 -3 88 192q4 45 0.5 78t-11 56t-18 37t-21.5 23q-14 0 -25 3t-16 5q-11 2 -21.5 7t-17.5 13q-6 -42 -11.5 -89.5t-9 -93t-3 -87.5t7 -74t20.5 -51t38 -20v1zM252 185q3 6 7 5t5.5 -7.5t-0.5 -18t-10 -26.5q-2 -3 -9 -18t-20.5 -33.5t-33 -36t-45.5 -24.5 q23 -31 37.5 -83.5t9.5 -131.5q-2 -27 -9 -64t-21 -70t-35.5 -55.5t-51.5 -21.5q-28 1 -49.5 19.5t-35.5 51.5t-19.5 78t-0.5 98q9 94 22 190t29.5 185.5t35 167t37.5 135.5q4 12 12 12.5t15.5 -5t12.5 -15t3 -16.5q-19 -46 -37 -108q-16 -54 -33.5 -132.5t-31.5 -181.5 q8 2 20 0.5t26 -4.5q20 -5 42 -24q24 3 45 20.5t37.5 39.5t28 43t17.5 31z" glyph-name="f" horiz-adv-x="230" unicode="f"/>
<glyph d="M141 169q-3 -2 -5 -2q-5 -3 -5 2q-1 3 -1.5 11t-2 16.5t-5.5 15.5t-12 9q-11 2 -22 -7t-20.5 -24t-16.5 -32.5t-9 -30.5q-3 -14 -5 -29.5t-2 -29t4 -22.5t14 -9q18 -1 34 20t28 46q14 29 26 66zM132 -74q-23 -30 -42 -65.5t-33 -70t-22 -65t-8 -49.5q0 -7 -1 -20t0 -26.5 t5.5 -24.5t15.5 -13q15 -3 29 11t24.5 38t17.5 55.5t9 64.5q3 43 4 85t1 80zM126 64q-10 -18 -22 -31q-11 -11 -25 -19t-31 -4q-21 5 -33 18t-16 31.5t-1 41t11 45.5q7 22 17 41.5t22 34t26.5 22.5t31.5 5q25 -4 37 -18q6 -7 10 -15l12 22q3 5 9 7t12 0.5t9.5 -6t0.5 -10.5 q-1 -2 -10 -31t-20 -72q-5 -19 -5.5 -52.5t0.5 -75.5q23 19 39 20q2 1 4 -2t2.5 -7.5t0.5 -8.5t-3 -4q-19 -11 -42 -34q2 -48 4 -96.5t0 -88.5q-1 -28 -8 -64t-21 -68t-36.5 -55t-54.5 -24q-23 -1 -39.5 25t-11.5 81q4 42 18 84.5t33 81.5t41 72t44 57q-2 46 -3 70 q-1 15 -2 27z" glyph-name="g" horiz-adv-x="210" unicode="g"/>
<glyph d="M321 137q-3 -5 -14 -25.5t-28.5 -43t-41.5 -41t-52 -19.5q-29 -1 -44.5 11t-22.5 30t-7.5 39.5t1 40t3.5 30.5t-1 13q-6 1 -18 -20t-24.5 -47t-22 -49t-9.5 -26q0 -12 -6 -15.5t-13.5 -1.5t-14.5 8t-8 15q-4 17 -2.5 43.5t4.5 51t6.5 43l3.5 18.5q0 20 2 46q2 23 4 56.5 t7 78.5q9 91 30 142.5t50 50.5q4 0 13 -3t17.5 -10.5t13.5 -20.5t2 -33q-2 -14 -8 -35t-14 -46t-17.5 -52.5t-18.5 -53.5q-22 -62 -49 -131l-7 -100q14 38 29 68q13 26 28.5 47t31.5 21q21 0 27.5 -7t6 -18.5t-5 -25.5t-5.5 -27q-1 -10 -1 -26t3.5 -31t12.5 -26.5t26 -11.5 q22 0 41.5 16t36.5 38.5t30 46t22 39.5q3 6 7 5t5.5 -7.5t-0.5 -18t-9 -26.5zM105 529q-7 1 -13 -8.5t-11 -26t-9.5 -38t-7.5 -43.5q-8 -53 -14 -121q25 64 41 116q7 22 12.5 43t8 38t1.5 28t-8 12z" glyph-name="h" horiz-adv-x="298" unicode="h"/>
<glyph d="M33 305q16 -2 19 -14.5t3 -22.5q-1 -10 -12 -17t-19 -5q-14 3 -17.5 12t-3.5 17q1 7 8 19.5t23 11.5zM218 138q-3 -5 -14 -24.5t-28.5 -41t-40.5 -38.5t-50 -17q-29 0 -46 14.5t-26 33.5t-11 37t-1 25q1 6 2.5 17.5t3.5 22.5q2 13 4 27q3 7 9 10t12.5 2.5t11.5 -4 t5 -10.5q0 -1 -2.5 -12.5t-4.5 -27.5t-2 -34.5t4 -33.5t15 -25t30 -9q20 1 39 16t35.5 35.5t29.5 43t22 38.5q3 7 7 6.5t5.5 -7t-0.5 -18t-9 -26.5z" glyph-name="i" horiz-adv-x="193" unicode="i"/>
<glyph d="M54 313q15 -2 19.5 -13t4.5 -21q-1 -17 -14 -25t-21 -6q-14 2 -18 11t-4 17q0 3 2.5 9.5t6.5 13t10 11t14 3.5zM1 -67q0 -23 -1 -45.5t-4 -43.5q-3 -22 -12 -50.5t-24 -53.5t-35.5 -41.5t-46.5 -13.5t-40 12.5t-20 20.5t-6 21.5v16.5q1 24 18.5 50t45 50t60.5 44t65 33z M23 208q-10 -25 -14.5 -54.5t-6 -61t-1.5 -64.5v-66q-34 -12 -72 -33t-70 -48t-54.5 -58.5t-24.5 -64.5q-2 -42 25.5 -68t72.5 -27q14 0 35.5 5t43.5 21t41.5 46.5t30.5 81.5q4 20 5.5 55t2.5 73q15 4 28 5t24 -1q5 3 2.5 7.5t-6.5 8.5l-12 10q-15 1 -36 -3q0 22 -0.5 41.5 t-0.5 34.5v32q0 19 3 38q2 17 6.5 36.5t12.5 38.5q3 6 -2 10t-11.5 6t-13 1.5t-7.5 -3.5z" glyph-name="j" horiz-adv-x="123" unicode="j"/>
<glyph d="M370 139q-3 -5 -13.5 -24.5t-32 -40.5t-56 -38t-84.5 -18q-31 0 -50.5 9t-31 21t-17 23.5t-8.5 16.5q-3 13 -1 20t5.5 10t7.5 4t7 2q17 4 32.5 13t27 21t18 24t6.5 22v9.5t-1.5 10t-6 8t-14.5 3.5q-12 0 -30.5 -17.5t-37 -45t-35 -61.5t-24.5 -67q-3 -14 -6.5 -21.5 t-6.5 -10.5t-5.5 -3.5t-4.5 -0.5q-8 0 -12 9.5t-5.5 24.5t-1.5 34t1 37q1 12 5.5 44.5t10.5 74t13 88t13.5 86.5t11.5 69.5t6 36.5q2 11 2.5 17.5t2.5 9.5t6.5 3t14.5 -3q8 -2 11 -9.5t3 -15.5q0 -10 -2 -20q-14 -59 -26 -123q-11 -55 -20.5 -122.5t-12.5 -134.5q3 3 10 16 t16.5 30.5t21.5 36.5t25.5 34.5t28.5 25.5t30 9q31 -2 41 -22t6 -41q-6 -29 -22.5 -49t-34.5 -33q-21 -15 -45 -25q6 -12 17 -22q10 -8 25.5 -15t40.5 -7q44 0 74 15t50 36t32.5 44t21.5 39q3 6 7 5t5.5 -7.5t-0.5 -18t-9 -26.5z" glyph-name="k" horiz-adv-x="346" unicode="k"/>
<glyph d="M85 371q1 10 5 34t5 48.5t-3.5 43.5t-18.5 20t-30.5 -19.5t-31 -56t-26.5 -82t-17 -97.5q-5 -44 -1.5 -79.5t13.5 -62.5q15 21 30.5 48t29.5 59.5t26 68.5t18 75h1zM69 47q27 0 49.5 15t40.5 36.5t31.5 44.5t22.5 39q3 6 7 5t5.5 -7.5t-0.5 -17.5t-10 -26q-3 -5 -14 -25 t-30.5 -41.5t-48 -38t-64.5 -14.5q-44 2 -68.5 25.5t-36 59t-13.5 78.5t-2 84q0 24 5 55.5t13.5 64t21 63.5t27.5 55.5t32.5 38.5t36.5 13q18 -1 30.5 -10t18.5 -28t6.5 -49t-3.5 -74q-4 -42 -20 -89.5t-36.5 -90t-40.5 -76t-32 -47.5q28 -43 72 -43z" glyph-name="l" horiz-adv-x="190" unicode="l"/>
<glyph d="M495 135q-3 -5 -14 -25t-29 -41t-42.5 -38t-53.5 -16q-27 1 -41.5 14t-21.5 32.5t-7.5 41.5t1 41.5t3.5 32t0 12.5t-6 -12l-10 -30t-13.5 -39.5t-17 -39.5t-20.5 -30t-23 -12q-13 0 -19 10.5t-7.5 26t-0.5 33t1.5 32.5t-1 25.5t-7.5 10.5q-3 0 -8.5 -11t-12.5 -28 t-15.5 -37t-18 -36.5t-20 -27.5t-22.5 -10q-14 1 -19.5 13t-6.5 29t0.5 36.5t3 36.5t1 28t-6.5 11q-3 0 -11 -16q-4 -5 -8.5 -4t-6.5 7t0.5 17.5t11.5 27.5q4 7 10 10t12.5 2t13 -7.5t11.5 -19.5q4 -12 3.5 -32t-2 -39t-2.5 -34t3 -16q6 -3 17 17t22.5 45.5t21 49t12.5 28.5 q6 10 15.5 14t19 1.5t17 -12t7.5 -26.5q0 -6 -1.5 -24t-2.5 -37.5t-0.5 -35t4.5 -16.5q3 -1 12 19t19 45.5t19 50t12 32.5q7 17 23.5 15.5t29.5 -15.5q3 -4 2 -17t-3.5 -31t-4 -38t2 -37t13 -29t29.5 -13q22 -2 41.5 13t36.5 36t30 44t22 39q3 6 7 5t5.5 -7.5t-0.5 -18 t-9 -26.5z" glyph-name="m" horiz-adv-x="471" unicode="m"/>
<glyph d="M366 135q-3 -5 -13.5 -23.5t-27.5 -38.5t-40.5 -35t-51.5 -14q-26 1 -40.5 10.5t-22 23.5t-9 30.5t-1.5 30.5v24t-4 11q-3 1 -9 -18t-16 -42t-24 -42t-33 -18q-15 1 -21 12.5t-7.5 27.5t0.5 34t3 33q2 16 1 26t-6 10q-2 0 -5.5 -7.5t-7.5 -15.5q-4 -5 -8.5 -4t-6 7 t0.5 17.5t11 27.5q4 7 10 11t13 4t14 -5t12 -18q6 -16 5 -36t-3 -38t-2.5 -31t7.5 -15q6 -1 16 18.5t21 45t20 49.5t13 32q7 17 20.5 16t25.5 -15q4 -4 2.5 -17t-4.5 -31t-5.5 -37.5t0 -36.5t11.5 -29t29 -13q23 -2 43 11.5t36.5 33.5t29 42.5t21.5 38.5q3 6 7 5t5.5 -7.5 t-0.5 -18t-9 -26.5z" glyph-name="n" horiz-adv-x="342" unicode="n"/>
<glyph d="M26 105q0 -8 0.5 -18.5t3.5 -20.5t10 -16.5t19 -7.5q9 -1 18 4.5t16 15t13 21t9 23.5q-14 8 -25.5 18t-17.5 21q-11 16 -17 32q-4 -3 -9 -12t-9.5 -19.5t-7.5 -22t-3 -18.5zM121 143q0 13 -0.5 29t-3 29t-7.5 21.5t-14 7.5q-13 -1 -15.5 -15t2.5 -27q8 -26 38 -45z M179 124q17 -1 30.5 6t22.5 15q11 10 18 22l9 15q6 10 10.5 2.5t-0.5 -27.5q-9 -20 -25 -35q-14 -13 -37.5 -22t-58.5 -4h-4q-11 -34 -33.5 -59.5t-60.5 -23.5q-18 1 -30 11.5t-18.5 25t-9 30.5t-0.5 28q6 49 17 72t20 34q5 6 9 8t10 4q3 15 13.5 25.5t31.5 12.5 q10 1 21.5 -5t21.5 -20t15.5 -36.5t2.5 -55.5q0 -5 -0.5 -9t-1.5 -9q15 -5 27 -5z" glyph-name="o" horiz-adv-x="231" unicode="o"/>
<glyph d="M78 51q-10 -28 -14 -39q-6 -15 -17 -43.5t-22.5 -66t-21 -80.5t-12.5 -85q-1 -15 -1 -29t2 -25t6.5 -18t11.5 -7q18 -1 30.5 20t20.5 51.5t12 63.5t6 57q4 53 3 105.5t-4 95.5zM101 110q3 -18 3 -36q8 8 13 8q2 0 4.5 -5t6 -10.5t10 -10.5t16.5 -5q20 -1 34 12t23 31.5 t13 37.5t6 31q2 18 -0.5 29t-8 17.5t-12.5 9t-13 3.5q-14 1 -27 -8.5t-25 -25t-23 -36.5t-20 -42zM-2 147q4 5 8 11t7 15q3 7 4.5 14.5t4.5 14t8 11t14 5.5q20 2 31.5 -16.5t18.5 -46.5q10 19 21.5 36.5t24 31t27 21.5t29.5 7q26 -2 40 -14.5t20 -27.5t7 -28t1 -14 q0 -22 -9.5 -49t-25 -50t-35.5 -38t-41 -13q-18 2 -28.5 8t-15.5 14q4 -36 3 -87.5t-3 -103.5q-2 -27 -6 -65.5t-14.5 -74t-28.5 -59.5t-46 -22t-41 17t-17 33t-3 34.5t2 20.5q3 35 14 82t25.5 94.5t30 89t26.5 65.5q5 11 10 23t12 26q-2 11 -3 18.5t-2 10.5q-3 14 -8.5 28 t-11.5 13q-4 0 -5 -2.5t-3.5 -8.5t-7.5 -16t-18 -26q-6 -5 -10.5 -4t-7.5 4t-3 8t5 10z" glyph-name="p" horiz-adv-x="278" unicode="p"/>
<glyph d="M355 135q-3 -5 -12 -21.5t-26 -37.5t-44 -43.5t-66 -40.5q11 -22 20 -49q8 -23 14 -54.5t6 -68.5q0 -18 -3 -44t-12 -50t-25 -41t-42 -17t-39.5 18t-19.5 43.5t-6.5 52.5t-0.5 44q1 17 6.5 54t12.5 78.5t14 79t11 56.5q-12 -17 -26 -30q-12 -11 -27 -20.5t-31 -7.5 q-20 1 -31.5 9.5t-17.5 19t-7 22.5t-1 21q0 19 9.5 45.5t28 51t46 42t63.5 17.5q17 0 25.5 -9.5t12.5 -14.5q3 5 12 2t14 -9q4 -6 3.5 -12t-3 -12t-6 -13t-5.5 -14q-2 -6 -8 -24.5t-12 -40.5t-11 -43.5t-5 -34.5q-2 -24 14 -22q30 2 57.5 22t50 46t39 53t25.5 43q3 6 7 5 t5.5 -7t-0.5 -17.5t-9 -26.5zM166 214q1 5 0 9q-2 8 -14 9q-12 0 -29 -8t-33 -24.5t-28 -40.5t-15 -55q-2 -23 5.5 -30t15.5 -8q16 -2 31.5 9t28.5 28t22.5 36.5t13.5 34.5q2 8 2 23v17zM228 -185q1 19 -2 41.5t-8.5 45t-13.5 43.5t-17 36q-1 0 -7 -1t-14 1q-4 -5 -8.5 -27 t-8.5 -49.5t-6.5 -55t-2.5 -44.5q-1 -17 0 -36t4 -34.5t9.5 -26t17.5 -10.5q14 0 24.5 12.5t17.5 31t11 39t4 35.5v-1z" glyph-name="q" horiz-adv-x="331" unicode="q"/>
<glyph d="M167 25q-28 1 -44 14.5t-23.5 30t-9.5 32.5t-2 23q-1 17 1.5 29t4.5 20.5t3.5 13t-1.5 6.5q-4 3 -6.5 2.5t-4.5 -2.5t-5 -4.5t-8 -2.5q-10 0 -18 2.5t-10 -5.5q-1 -6 -6.5 -17t-6.5 -11q-1 -3 -4.5 -3t-7 1.5t-5.5 5t0 8.5q0 1 2 6.5t4 13.5t4 17t2 17q0 12 2 24 t5.5 21.5t9 15.5t11.5 5q6 0 10.5 -4.5t7 -9.5t3.5 -10t1 -8q0 -7 -4.5 -13.5t-0.5 -10.5q3 -4 7.5 -3t6.5 2t7 4t11.5 5t14.5 2t17 -5q5 -3 7 -9t2.5 -12t0 -10.5l-0.5 -4.5q-1 -9 -3.5 -14t-5 -11t-4.5 -15t-2 -25q-1 -32 6.5 -55t37.5 -23q18 0 35.5 13.5t32.5 32.5 t27.5 40t21.5 37q3 6 7 5t5.5 -7t-0.5 -17.5t-9 -26.5q-3 -5 -13 -23.5t-26.5 -38t-38.5 -34.5t-48 -13v-1z" glyph-name="r" horiz-adv-x="268" unicode="r"/>
<glyph d="M-12 121q-1 4 1 8q2 8 12 11t13.5 -3t4.5 -11q7 -23 18 -39q2 1 6 1q3 0 10 1.5t15 6.5t14 14t7 25q1 24 -1.5 40.5t-8 28t-11.5 19.5t-10 15q-1 -7 -5.5 -20.5t-10 -27.5t-10 -26t-5.5 -15t-5.5 -3t-8.5 1.5t-7 5t-1 9.5q9 23 16 44q6 17 12 35t9 26q5 16 9 28t18 12 q13 0 19 -6.5t8.5 -15.5t2.5 -18.5v-15.5q0 -8 5 -23.5t10 -32t9.5 -32t3.5 -23.5q-2 -19 -9 -33.5t-17.5 -24t-22.5 -14t-22 -2.5q22 -21 55 -21q28 0 50.5 15.5t40.5 37t31.5 44.5t22.5 39q3 6 7 5t5.5 -7.5t-0.5 -18t-9 -26.5q-3 -5 -14 -25t-31.5 -41.5t-49 -37.5 t-65.5 -14q-51 3 -76 32.5t-35 73.5v-1z" glyph-name="s" horiz-adv-x="235" unicode="s"/>
<glyph d="M218 135q-3 -5 -12 -22t-25 -35t-39 -32t-53 -12q-28 1 -44 17t-23.5 38.5t-9.5 47.5t-1 44q0 12 3 33.5t7 48t8.5 54.5t8.5 53h-155q-9 0 -15 2q-5 2 -9.5 5t-4.5 8q0 8 5.5 10.5t12.5 3.5q8 1 18 -1l153 1q3 18 5 29t3 12q2 13 6 19t16 2q7 -2 11 -14t3 -19l-3 -30 l158 1q7 1 12 0t8.5 -3.5t3.5 -8.5q-1 -7 -6 -10t-11 -5q-7 -2 -16 -2h-154q-2 -13 -4 -28t-4 -32q-1 -7 -4.5 -25.5t-7.5 -39.5t-7.5 -41t-4.5 -30q-1 -11 0.5 -28.5t6 -35t14 -31t24.5 -14.5q23 -2 42 10t34 30.5t26.5 39t20.5 36.5q3 6 7 5t5.5 -7t-0.5 -17.5t-9 -26.5z " glyph-name="t" horiz-adv-x="194" unicode="t"/>
<glyph d="M320 135q-2 -5 -10.5 -21.5t-23.5 -34t-35.5 -31.5t-47.5 -14q-25 -1 -40 11t-23 26q-10 17 -14 38q-8 -21 -19 -38q-10 -14 -23.5 -25.5t-32.5 -9.5q-15 1 -26 12.5t-18 27.5t-9 33t1 29q3 13 6.5 28.5t7.5 29.5q4 16 8 31l1 3.5t4 7t8.5 5.5t13.5 -1t9.5 -9.5 t-0.5 -13.5q-2 -8 -7 -18q-7 -35 -10 -63q-2 -24 1 -45t17 -23q8 -1 17.5 9.5t18 25.5t15.5 30.5t10 24.5q5 12 6 25.5t5 21.5q6 25 25 20q8 -2 10.5 -7.5t1.5 -10.5q-1 -6 -4 -14l-2 -22q-1 -10 -1.5 -22t-0.5 -26q-1 -23 6.5 -41.5t27.5 -20.5q25 -3 44.5 9.5t34.5 31 t26 40t20 37.5q3 6 7 5t5.5 -7t-0.5 -17.5t-9 -26.5h-1z" glyph-name="u" horiz-adv-x="299" unicode="u"/>
<glyph d="M116 60q-12 -18 -23.5 -34t-31.5 -16q-17 0 -29 12.5t-19 31.5t-10 42t-4 44t-0.5 37.5t1.5 22.5q0 8 7 13t14.5 5t13 -5t3.5 -16q-1 -6 -2 -30t1.5 -50t8.5 -47.5t18 -23.5q13 -2 26 23t23 57q-7 17 -5.5 36.5t2.5 41.5q0 11 3.5 22t8 19t9.5 13t8 5q16 -1 18 -19t3 -44 q1 -12 -2.5 -31t-11.5 -41q8 -5 17.5 -5t17.5 -1q17 -1 30.5 6t22.5 15q11 10 18 22l10 15q5 10 10 2.5t0 -27.5q-9 -19 -25 -33q-14 -12 -37.5 -21.5t-59.5 -5.5q-6 0 -14 4q-9 -21 -21 -39h1z" glyph-name="v" horiz-adv-x="241" unicode="v"/>
<glyph d="M309 122q17 -1 30.5 6t22.5 15q11 10 18 22l9 15q6 10 10.5 2.5t-0.5 -26.5q-9 -20 -25 -34q-14 -12 -37.5 -21.5t-58.5 -6.5q-5 1 -9.5 3t-9.5 4q-13 -30 -30 -53t-45 -23q-15 -1 -26 6.5t-18 16.5q-8 11 -13 23q-8 -14 -18 -25q-8 -10 -20.5 -17.5t-26.5 -7.5 q-26 0 -39 18t-18.5 42.5t-5 50t2.5 42.5q3 22 7.5 34t9.5 16.5t11 4t11 -2.5t6 -6.5t-0.5 -8.5t-3.5 -7l-2 -3q-2 -10 -3 -21q-1 -9 -2 -19.5t-1 -18.5q0 -9 -0.5 -23.5t2 -29t9.5 -26t21 -14.5q10 -2 20 8t17.5 26.5t12 37.5t3.5 42q-2 30 7 39t17 8t13.5 -8t7.5 -25 q0 -2 -1 -9.5t-2 -15.5t-2.5 -15.5t-2.5 -10.5q0 -1 -0.5 -13t1 -26t6.5 -25.5t16 -11.5q16 0 31 23t27 52q-7 15 -9.5 31.5t-1.5 31.5q0 11 3.5 24.5t9 25.5t11.5 20t12 8q12 -1 18 -19t5 -35t-2 -27.5t-2.5 -19.5t-4 -17t-6.5 -18q8 -5 18 -6z" glyph-name="w" horiz-adv-x="370" unicode="w"/>
<glyph d="M184 298q2 2 5 4q4 3 13 0q8 -4 6.5 -12t-2.5 -7q-3 -6 -23.5 -38.5t-57.5 -104.5l-2 -5q1 -3 1.5 -5.5t1.5 -5.5q12 -30 27.5 -49.5t42.5 -19.5q16 0 32.5 14t31.5 33.5t27.5 41t21.5 37.5q3 6 7 5t5.5 -7t-0.5 -17.5t-9 -26.5q-3 -5 -13.5 -23t-26 -37t-36 -34.5 t-42.5 -15.5q-32 -1 -54 19t-38 49q-20 -42 -36 -79.5t-23 -49.5q-2 -5 -6 -4t-7 5t-4.5 9t0.5 9q10 21 21 45q9 20 20 44.5t22 47.5q-4 11 -7 23t-6 22t-7 17t-10 7q-4 0 -9 -6.5t-9.5 -14.5t-8 -14.5l-3.5 -6.5q-1 -3 -5 -3t-7.5 3t-5 8.5t1.5 13.5q1 4 6 16t12 24 t15.5 21.5t17.5 9.5q23 -1 32.5 -23.5t16.5 -49.5q11 22 23.5 45t23.5 42q12 22 24 43v1z" glyph-name="x" horiz-adv-x="290" unicode="x"/>
<glyph d="M124 -34q-18 -14 -39 -33.5t-39 -45t-30 -56t-13 -66.5q0 -7 -0.5 -19.5t2 -25t9.5 -22t22 -9.5q21 0 34.5 15.5t21 35t10.5 38t5 25.5q1 6 3.5 27t5 44t4.5 42.5t2 22.5q0 2 0.5 9.5t1.5 18.5v-1zM159 49q0 -12 -3 -28q8 3 15 -0.5t12 -8.5q3 -3 1.5 -5.5t-4.5 -4.5 q-4 -3 -8 -5q-3 -1 -6 -3t-6 -4.5t-8 -5.5q-1 -5 -1.5 -9t0.5 -9q-3 -26 -3 -54.5t-2 -55.5q-1 -27 -6.5 -62.5t-17.5 -67t-32.5 -53t-52.5 -20.5q-19 1 -32.5 11t-22 24.5t-11.5 31t-1 31.5q7 52 26 93t42.5 72.5t47.5 53t41 33.5q2 22 4 47.5t4 51.5q-17 -32 -36 -55 t-44 -22q-28 1 -43 26t-12 68q2 22 6.5 41.5t10 34t12 22t13.5 4.5q6 -2 8.5 -7.5t2.5 -11t-1.5 -9.5l-1.5 -4q-4 -16 -8 -31q-3 -13 -5 -27.5t-2 -25.5q0 -22 2.5 -39.5t13.5 -16.5q14 1 27.5 13.5t24.5 30.5t20.5 39t16.5 39q6 45 19 62t24 13q7 -2 13 -12.5t-2 -31.5 l-2 -1q-3 -11 -8.5 -31.5t-10.5 -43t-9.5 -43.5t-4.5 -34z" glyph-name="y" horiz-adv-x="214" unicode="y"/>
<glyph d="M114 -65q-18 -16 -35 -37t-31.5 -43.5t-25 -45t-15.5 -41.5q-16 -63 -8.5 -93t30.5 -32q18 -2 31.5 14t23 38t15.5 44.5t8 35.5q9 54 10 93t-3 67zM78 53q6 7 12 19.5t11 27.5t8.5 30.5t4.5 27.5q2 29 -5.5 43t-20.5 16q-10 1 -19 -7.5t-17 -19.5q-9 -12 -17 -29 q-3 -9 -8.5 -8.5t-10.5 2.5t-3 11q1 4 3 9q10 23 22 41q11 15 25.5 26.5t31.5 9.5q27 -3 42.5 -23.5t11.5 -61.5q-3 -41 -17.5 -76t-30.5 -55q8 -7 17 -20t16 -35q17 10 34 15q7 1 12.5 -3.5t8.5 -10t3 -10t-5 -4.5q-21 3 -46 -14q6 -31 6.5 -76.5t-9.5 -110.5 q-7 -45 -20 -76.5t-29 -50t-31.5 -26.5t-26.5 -6q-9 1 -25.5 8.5t-28 29.5t-11 63.5t26.5 111.5q6 18 18.5 37.5t28 38t33.5 35.5t36 31q-6 23 -14 36t-16 19l-3 -3q-18 -8 -30.5 -2.5t-11.5 16.5q1 9 14.5 19t30.5 5h-1z" glyph-name="z" horiz-adv-x="173" unicode="z"/>
<glyph glyph-name="braceleft" unicode="{"/>
<glyph glyph-name="bar" unicode="|"/>
<glyph glyph-name="braceright" unicode="}"/>
<glyph glyph-name="asciitilde" unicode="~"/>
<glyph glyph-name="nonbreakingspace" horiz-adv-x="197" unicode=" "/>
<glyph d="M67 527q-14 1 -21.5 11.5t-7.5 18.5q1 8 8.5 17.5t20.5 8.5t21 -5.5t7 -20.5q-1 -9 -8 -20.5t-21 -10.5zM50 434q0 -32 -1.5 -58.5t-4 -51.5t-6 -51t-7.5 -58q-3 -29 -7.5 -60t-9 -58l-8 -48t-4.5 -30q-2 -18 1 -32t10 -16q8 -1 18.5 8t15.5 42q1 5 4.5 27t7.5 52.5 t7.5 64t5.5 62.5q2 34 3 58.5t2.5 47.5t3 48t3.5 58q2 22 -18 27q-8 1 -11 -2t-4.5 -8.5t-1 -11.5t0.5 -9v-1z" glyph-name="exclamdown" horiz-adv-x="111" unicode="¡"/>
<glyph d="M130 305q-1 -7 -2 -17.5t-2.5 -20.5t-2.5 -18t-1 -11q-1 -8 -2 -17.5t-4 -11.5q-4 -2 -8.5 2t-5.5 18q0 3 0.5 13t1 22l1 24t0.5 19q-52 8 -79.5 37t-25.5 74q1 30 14.5 55t33.5 44t42.5 31t42.5 16q1 8 2 20t2.5 24t2.5 22t2 14q3 20 16 17q8 -2 9.5 -9.5t1.5 -11.5 q-5 -23 -8 -42.5t-4 -31.5q32 0 52.5 -13.5t22.5 -43.5q2 -14 -0.5 -21t-6.5 -16q-2 -3 -7 -6t-9.5 -2.5t-6 5.5t4.5 17q3 7 4.5 17t-3 19t-17 14.5t-36.5 3.5q-58 -4 -90 -35t-37 -82t20 -70.5t66 -21.5q30 -2 54.5 3.5t51.5 22.5q5 2 7.5 -5t-6.5 -16q-3 -3 -11.5 -8 t-21.5 -10t-28 -9t-31 -4h1z" glyph-name="cent" horiz-adv-x="269" unicode="¢"/>
<glyph d="M328 520q-5 -14 -5 -20t2.5 -5.5t6.5 7t8 17.5q6 16 6 38q-12 -18 -18 -37zM241 158q-43 14 -79.5 22.5t-52.5 9.5q-23 0 -38.5 -4.5t-25.5 -12t-14 -16.5t-4 -16q0 -8 8.5 -13t21.5 -8.5t27.5 -5t28.5 -2.5q11 0 28 2.5t35 8.5t35.5 14.5t29.5 19.5v1zM377 615 q5 2 9.5 3t6.5 -4t-3.5 -6t-8.5 -5l-9 -10q7 -18 9 -39q1 -18 -3.5 -36t-13.5 -33t-21 -25t-26 -11q-8 -1 -14 4.5t-10 14t-5.5 18.5t0.5 18q8 31 21.5 52.5t31.5 36.5q-5 15 -16 25t-29 11t-33 -7.5t-25.5 -23t-16 -32.5t-6.5 -36q-1 -24 4 -44t13.5 -39t20 -38.5 t23.5 -41.5q43 0 80.5 -0.5t49.5 -0.5t16 -2.5t4.5 -6.5t-2 -8t-3.5 -7q-4 -6 -9 -8.5t-20 -1.5q-8 1 -37 1.5t-63 0.5q15 -39 14.5 -81.5t-12.5 -75.5q32 -15 57.5 -32t52.5 -44q8 -8 16 -16.5t0 -15.5q-8 -8 -16 1t-16 16q-21 17 -49.5 31.5t-60.5 26.5 q-21 -26 -63.5 -44.5t-90.5 -18.5q-51 -1 -85 12.5t-35 50.5q0 18 11.5 33t29 25.5t39 15.5t41.5 4q25 -2 42.5 -4t32 -5t28 -8t31.5 -12q11 41 10 77t-9 59l-2 6q-20 1 -36.5 1.5t-27.5 1.5q-17 1 -33.5 1t-29.5 -1t-21.5 -2.5t-11.5 -2.5q-5 -2 -9.5 0t-1.5 10 q2 8 19.5 15t47.5 9q11 1 36 1h55q-11 24 -23 45.5t-22 42.5t-16 42.5t-4 45.5q3 25 13.5 45.5t26.5 35t35 22t39 6.5q25 -2 42.5 -13.5t28.5 -30.5z" glyph-name="sterling" horiz-adv-x="513" unicode="£"/>
<glyph glyph-name="currency" unicode="¤"/>
<glyph glyph-name="yen" horiz-adv-x="284" unicode="¥"/>
<glyph glyph-name="brokenbar" horiz-adv-x="0" unicode="¦"/>
<glyph glyph-name="section" unicode="§"/>
<glyph d="M60 303q11 -1 18.5 -8t7.5 -18q-2 -11 -12 -18.5t-22 -6.5q-10 1 -15.5 8.5t-5.5 17.5q0 11 9 19t20 6zM172 303q10 -1 17 -8t7 -18t-10 -18.5t-22 -6.5q-11 1 -16.5 8.5t-5.5 17.5q1 11 10.5 19t20.5 6h-1zM61 303q11 -1 18.5 -8t7.5 -18q-2 -11 -12 -18.5t-22 -6.5 q-10 1 -15.5 8.5t-5.5 17.5q0 11 9 19t20 6zM173 303q10 -1 17 -8t7 -18t-10 -18.5t-22 -6.5q-11 1 -16.5 8.5t-5.5 17.5q1 11 10.5 19t20.5 6h-1z" glyph-name="dieresis" horiz-adv-x="323" unicode="¨"/>
<glyph glyph-name="copyright" unicode="©"/>
<glyph glyph-name="ordfeminine" unicode="ª"/>
<glyph glyph-name="guillemotleft" horiz-adv-x="279" unicode="«"/>
<glyph glyph-name="registered" unicode="®"/>
<glyph glyph-name="macron" unicode="¯"/>
<glyph glyph-name="degree" unicode="°"/>
<glyph glyph-name="plusminus" unicode="±"/>
<glyph glyph-name="twosuperior" horiz-adv-x="0" unicode="²"/>
<glyph glyph-name="threesuperior" horiz-adv-x="0" unicode="³"/>
<glyph d="M106 330q1 2 6 13.5t11 25.5t11.5 26t7.5 15q8 13 13 13.5t14 -10.5q9 -12 5 -21q-2 -4 -5 -8l-11 -22q-5 -9 -10 -18.5t-8 -17.5q-14 -30 -27 -20q-6 5 -7 13.5t0 10.5z" glyph-name="acute" horiz-adv-x="215" unicode="´"/>
<glyph glyph-name="paragraph" unicode="¶"/>
<glyph glyph-name="periodcentered" horiz-adv-x="141" unicode="·"/>
<glyph glyph-name="cedilla" unicode="¸"/>
<glyph glyph-name="onesuperior" horiz-adv-x="0" unicode="¹"/>
<glyph glyph-name="ordmasculine" unicode="º"/>
<glyph glyph-name="guillemotright" horiz-adv-x="264" unicode="»"/>
<glyph glyph-name="onequarter" horiz-adv-x="0" unicode="¼"/>
<glyph glyph-name="onehalf" horiz-adv-x="0" unicode="½"/>
<glyph glyph-name="threequarters" horiz-adv-x="0" unicode="¾"/>
<glyph d="M422 -60q-35 -41 -72.5 -68.5t-76 -45t-77 -25.5t-74.5 -9q-27 -1 -51.5 8t-43 26t-29 40.5t-10.5 51.5q0 34 17 60.5t41.5 47t52.5 35t50 25.5q25 12 48.5 22t43 23t33 30.5t17.5 44.5q1 10 -0.5 16t-4.5 9.5t-5 5.5t-1 5q4 6 10 6t13 -3q14 -7 16 -22.5t1 -31.5 q-2 -24 -15 -43t-34 -35t-47 -29t-53 -25q-23 -10 -49 -25.5t-48.5 -35t-37.5 -43t-15 -49.5q0 -20 8 -34.5t21.5 -24t30.5 -13.5t35 -4q51 1 90 11t70.5 27.5t58 40t52.5 48.5q11 11 20.5 23.5t17.5 10.5q7 -2 9 -8.5t1 -14t-4.5 -15t-8.5 -13.5zM291 331q-11 2 -18 11 t-6 20q2 12 9 18t17 6q10 -1 19 -11t8 -24q-1 -8 -12.5 -14.5t-16.5 -5.5z" glyph-name="questiondown" horiz-adv-x="402" unicode="¿"/>
<glyph glyph-name="Agrave" unicode="À"/>
<glyph d="M576 235q-24 -1 -49 -2t-47 -1.5t-40 -1.5t-28 -1q-16 -1 -36 -3t-43 -5l182 331q7 -47 17 -100q8 -45 19 -101.5t25 -115.5zM-19 129q-1 3 -3 6q-3 5 -14 6q-5 0 -8 -3t-4 -6q-2 -4 -1 -9q6 -34 21 -60q13 -23 37.5 -42.5t65.5 -21.5q35 -2 70.5 18t66.5 49t56.5 61 t40.5 55q32 4 64.5 7t62.5 4q42 2 80 3t68 2q10 -41 21 -79.5t22.5 -71t23.5 -57.5t24 -38q6 -8 16 -8.5t18.5 2t13.5 7t1 8.5q-20 35 -45 97t-48 140l26 2q6 0 15.5 5.5t15 11.5t4.5 11.5t-15 6.5q-8 1 -22.5 1h-34.5q-20 76 -33.5 159.5t-15.5 167.5q0 21 -0.5 34 t-4.5 19.5t-12.5 9t-25.5 3.5q-17 0 -24.5 -3.5t-10.5 -9t-4 -12t-3 -10.5l-15 -32.5t-38 -79.5t-50 -98.5t-51 -88.5q-12 -19 -25 -39.5t-27 -42.5q-24 -4 -46 -7.5t-39 -6.5q-19 -4 -36 -7q-7 -1 -12 -4q-5 -2 -8 -6.5t-1 -12.5t7.5 -10t10.5 -2q6 0 13 3q0 -1 23.5 3.5 t59.5 10.5q-20 -27 -41 -52t-43.5 -44t-46 -30.5t-47.5 -11.5q-32 -1 -49.5 14t-27.5 32q-11 20 -15 47h-1zM546 711q1 2 6 13.5t11 25.5t11.5 26t7.5 15q8 13 13 13.5t14 -10.5q9 -12 5 -21q-2 -4 -5 -8l-11 -22q-5 -9 -10 -18.5t-8 -17.5q-14 -30 -27 -20q-6 5 -7 13.5 t0 10.5z" glyph-name="Aacute" horiz-adv-x="735" unicode="Á"/>
<glyph glyph-name="Acircumflex" unicode="Â"/>
<glyph glyph-name="Atilde" unicode="Ã"/>
<glyph glyph-name="Adieresis" unicode="Ä"/>
<glyph glyph-name="Aring" unicode="Å"/>
<glyph glyph-name="AE" unicode="Æ"/>
<glyph d="M321 -103q-6 -28 -30 -40q-13 -7 -27 -7t-31 5q-10 2 -18 5.5t-15 7.5q-12 9 -11 16q1 2 3 4q3 1 6 0q2 0 13 -7t22 -10q21 -4 37 3q16 9 22 29q3 15 -4 24q-4 5 -13.5 9.5t-11.5 6.5t-3 2.5t-2 2.5h-2q-56 0 -105 15.5t-84.5 47.5t-55 81t-16.5 117q2 51 23 102t57 97.5 t85 86.5t106 68.5t120 44t128 13.5q2 0 15 -0.5t30.5 -3t37 -8.5t36.5 -16t28 -26t11 -39t-10.5 -45t-26.5 -41.5t-35.5 -36t-37 -29t-31 -20.5t-16.5 -10q-5 -3 -13.5 -6t-17.5 -4t-16.5 0.5t-11.5 9.5q-7 13 0 16t22 8q42 19 76 43q29 20 53.5 49t26.5 64q1 16 -10 28 q-10 11 -34 20t-73 11q-92 3 -177 -29.5t-151.5 -86.5t-107.5 -122.5t-44 -138.5q0 -3 -1 -20.5t3 -41.5t14.5 -51.5t33.5 -51.5t61 -40.5t96 -18.5q43 -2 84.5 3.5t80 16t73 24t63.5 28.5q69 34 127 78q3 2 6 3q5 2 9 -5q0 -6 -4 -13q-3 -6 -9.5 -15t-18.5 -20 q-4 -3 -34 -23t-77.5 -43t-109 -43.5t-128.5 -25.5q4 -3 10 -11q12 -18 6 -41h-1z" glyph-name="Ccedilla" horiz-adv-x="583" unicode="Ç"/>
<glyph glyph-name="Egrave" unicode="È"/>
<glyph d="M45 432q-1 -23 12 -38.5t35.5 -26t52 -15.5t62.5 -7q-44 -21 -81.5 -45.5t-64.5 -51.5t-43 -56t-17 -59q-2 -49 26.5 -81.5t71.5 -52.5t91 -29t86 -10q107 -4 187.5 14.5t134.5 41.5q63 27 109 63q12 12 8 15t-21 -8q-1 -1 -32.5 -15.5t-86 -31t-129.5 -29t-164 -10.5 q-79 2 -127 19t-73.5 38.5t-33 43.5t-7.5 34q0 13 12 39t40.5 56.5t76.5 61t120 52.5q29 1 56 2.5t48.5 3.5t36 3.5t19.5 1.5q9 0 31.5 4.5t46 12t42 17.5t18.5 20t-17 13t-39.5 2t-43.5 -3.5t-29 -3.5q-52 -7 -102.5 -20t-98.5 -31q-34 1 -66.5 5t-58 12t-40.5 20t-15 30 q0 17 22 37.5t58.5 41t85.5 40t104.5 34t114 22.5t114.5 6q38 -2 60 -5.5t32.5 -8.5t13 -10.5t2.5 -9.5q0 -6 -20.5 -23.5t-63.5 -28.5q-3 -1 -9 -2t-11 -3t-8 -4.5t-1 -5.5q6 -9 14 -15t25 -1q9 3 28 10t38 18t33.5 25.5t15.5 32.5q0 7 -5 18.5t-19 22t-40 18.5t-68 10 q-52 2 -112.5 -5t-121 -21t-117 -34.5t-100 -46t-70 -54t-27.5 -59.5h-1zM442 708q1 2 6 13.5t11 25.5t11.5 26t7.5 15q8 13 13 13.5t14 -10.5q9 -12 5 -21q-2 -4 -5 -8l-11 -22q-5 -9 -10 -18.5t-8 -17.5q-14 -30 -27 -20q-6 5 -7 13.5t0 10.5z" glyph-name="Eacute" horiz-adv-x="740" unicode="É"/>
<glyph glyph-name="Ecircumflex" unicode="Ê"/>
<glyph glyph-name="Edieresis" unicode="Ë"/>
<glyph glyph-name="Igrave" unicode="Ì"/>
<glyph d="M417 654q-52 2 -101.5 -11.5t-94 -37t-82.5 -53.5t-65.5 -61.5t-43 -61t-16.5 -51.5q-2 -33 14.5 -59t45.5 -44t67.5 -28t82.5 -11q51 -2 89.5 4.5t64.5 15.5t40.5 18t17.5 11q15 11 9 17.5t-17 0.5q-25 -10 -57 -18q-27 -7 -64 -12t-82 -3q-90 3 -137.5 29t-45.5 78 q1 17 15.5 42.5t39.5 52.5t59.5 53.5t76 47.5t87.5 33t94 10q21 -1 52.5 -9.5t60 -30.5t47.5 -59t17 -94q-3 -68 -32.5 -139t-82 -128t-126 -92t-163.5 -32q-57 2 -92 12t-54 24.5t-25.5 30.5t-6.5 30t3.5 24t4.5 12q2 4 6.5 11t-4.5 13q-10 4 -18 0q-4 -2 -6 -6 q0 -1 -10.5 -14.5t-11.5 -35.5q0 -9 6 -30t27.5 -43.5t64.5 -40.5t116 -21q88 -3 167 31.5t139 94t96 138t39 162.5q2 48 -13 89t-43.5 71.5t-68.5 49t-87 20.5h1zM462 711q1 2 6 13.5t11 25.5t11.5 26t7.5 15q8 13 13 13.5t14 -10.5q9 -12 5 -21q-2 -4 -5 -8l-11 -22 q-5 -9 -10 -18.5t-8 -17.5q-14 -30 -27 -20q-6 5 -7 13.5t0 10.5z" glyph-name="Iacute" horiz-adv-x="612" unicode="Í"/>
<glyph glyph-name="Icircumflex" unicode="Î"/>
<glyph glyph-name="Idieresis" unicode="Ï"/>
<glyph d="M123 663q41 -2 69.5 -20.5t48 -47.5t30.5 -66t17 -75q12 -90 2 -202q24 116 61 206q16 38 35.5 74.5t43.5 65t53 45t62 15.5q31 -1 52.5 -20t33.5 -46.5t15 -59t-1 -58.5q-4 -23 -9 -64.5t-10 -87.5t-9.5 -88t-7.5 -65q-6 -49 0 -78.5t16 -45.5q11 -19 28 -27q3 -1 5 -4 q4 -6 1 -13q-1 -2 -8 -2.5t-16.5 1t-19.5 7t-18 15.5q-17 22 -24 84t4 148q4 28 10 65.5t11 78t7 80t-3 71.5t-18.5 52t-39.5 22q-29 2 -56 -17.5t-50 -52t-42.5 -73t-34.5 -79t-24.5 -70.5t-13.5 -48q-6 -24 -12.5 -56t-12 -63.5t-9.5 -57.5t-4 -38q-3 -21 -10 -26.5 t-13 -3.5q-8 2 -17.5 9t-9.5 19q3 17 8.5 62.5t12.5 109.5q2 22 3 58.5t-1.5 79t-10 87t-21.5 80.5t-35.5 60t-53.5 27q-33 3 -64 -8.5t-58 -30.5t-49 -42.5t-38.5 -44t-26.5 -36t-11 -17.5q-5 -7 -6.5 -10.5t-6.5 -7.5q-6 -3 -7 2t0.5 13t4.5 17.5t6 14.5q1 2 11.5 17 t28 35.5t40 44t49 43t55.5 32t58 11.5zM149 746q14 8 32.5 17t37.5 9q36 0 62 -7.5t48 -16t42.5 -16t45.5 -7.5q28 0 49.5 8.5t40.5 18.5t37.5 18.5t41.5 7.5q13 0 12 -10t-14 -10q-24 0 -40.5 -9t-34 -20.5t-38.5 -20.5t-53 -9q-26 0 -50.5 7.5t-49.5 16.5t-49.5 16.5 t-49.5 7.5q-16 0 -30.5 -6t-25.5 -13q-5 -3 -10 -2t-7.5 4.5t-2 8t5.5 7.5z" glyph-name="Ntilde" horiz-adv-x="649" unicode="Ñ"/>
<glyph glyph-name="Ograve" unicode="Ò"/>
<glyph d="M505 638q-54 2 -99 -10t-77 -27q-38 -18 -68 -41q-5 -5 -7 -10q-6 -11 3 -17q4 -4 12 2q4 3 7 6q22 20 55 35q28 13 71.5 23t103.5 8q21 -1 54 -9t63 -31.5t51 -67t18 -115.5q-3 -74 -40 -137t-96 -109.5t-133.5 -71.5t-151.5 -22q-17 0 -42 3t-53 11.5t-56 24 t-49.5 41.5t-34.5 64t-11 92q2 52 24 99t56.5 87t76 72.5t83 54.5t78 34t60.5 11q15 -1 18.5 4t3.5 7q1 2 -3.5 6.5t-15.5 5.5q-42 2 -89 -12.5t-92.5 -41.5t-87.5 -64.5t-74.5 -81.5t-52.5 -92t-22 -96q-1 -22 3 -49.5t14.5 -56.5t30.5 -57t51.5 -50.5t76 -37t105.5 -16.5 q91 -3 173.5 28t146 85t101.5 124t41 144q2 51 -13 95.5t-44 78t-72 54t-97 22.5v1zM509 719q1 2 6 13.5t11 25.5t11.5 26t7.5 15q8 13 13 13.5t14 -10.5q9 -12 5 -21q-2 -4 -5 -8l-11 -22q-5 -9 -10 -18.5t-8 -17.5q-14 -30 -27 -20q-6 5 -7 13.5t0 10.5z" glyph-name="Oacute" horiz-adv-x="714" unicode="Ó"/>
<glyph glyph-name="Ocircumflex" unicode="Ô"/>
<glyph glyph-name="Otilde" unicode="Õ"/>
<glyph glyph-name="Odieresis" unicode="Ö"/>
<glyph glyph-name="multiply" horiz-adv-x="0" unicode="×"/>
<glyph glyph-name="Oslash" unicode="Ø"/>
<glyph glyph-name="Ugrave" unicode="Ù"/>
<glyph d="M45 581q3 4 7 7q4 2 9 4t13 0q7 -2 11 -6.5t6 -9.5q3 -5 3 -11q-11 -28 -21 -69q-8 -35 -16.5 -88.5t-12.5 -128.5q-2 -29 0 -72t14 -84t37 -71.5t70 -32.5t79 28.5t58.5 78t40.5 105t25.5 110t13.5 92.5t4 53v24t-0.5 35t-1.5 38t-2 33q-1 12 5 9.5t13.5 -10t14 -16.5 t6.5 -11q1 -12 2 -31q1 -17 0 -45t-4 -72q-8 -95 -30.5 -179.5t-57 -147t-79.5 -97t-99 -29.5q-53 5 -83 32t-44.5 67t-18.5 90t-5 101q-2 51 5 104.5t15 98.5q10 52 23 101zM243 662q1 2 6 13.5t11 25.5t11.5 26t7.5 15q8 13 13 13.5t14 -10.5q9 -12 5 -21q-2 -4 -5 -8 l-11 -22q-5 -9 -10 -18.5t-8 -17.5q-14 -30 -27 -20q-6 5 -7 13.5t0 10.5z" glyph-name="Uacute" horiz-adv-x="424" unicode="Ú"/>
<glyph glyph-name="Ucircumflex" unicode="Û"/>
<glyph glyph-name="Udieresis" unicode="Ü"/>
<glyph glyph-name="Yacute" horiz-adv-x="0" unicode="Ý"/>
<glyph glyph-name="Thorn" horiz-adv-x="0" unicode="Þ"/>
<glyph glyph-name="germandbls" horiz-adv-x="330" unicode="ß"/>
<glyph d="M323 136q-5 -10 -17.5 -29t-29.5 -38t-37.5 -33.5t-41.5 -14.5q-23 -1 -36 9t-21 21q-9 13 -12 30q-11 -19 -22 -33q-10 -12 -23 -22.5t-26 -9.5q-7 0 -18 4t-21 16t-15.5 34t-0.5 57q4 35 17 61t29 42.5t32.5 24t28.5 7.5q22 -1 33 -9t15.5 -18t4 -19t-0.5 -11 q-3 -10 -6.5 -14t-6.5 -5t-6 0.5t-6 2.5q2 11 -1 21q-2 8 -8 14.5t-19 7.5q-11 0 -21.5 -7t-19.5 -19.5t-16 -28.5t-11 -33t-5 -34t1.5 -30t8.5 -21t15 -8q14 0 26.5 16t22 37t15.5 42t8 30q1 4 7 4.5t13 -1.5t12.5 -6.5t4.5 -10.5l-5 -16.5t-5.5 -37t7.5 -37t33 -16.5 q23 0 52.5 27.5t69.5 100.5q7 12 12 -2t-10 -44v-1zM136 331q1 2 6 13.5t11 25.5t11.5 26t7.5 15q8 13 13 13.5t14 -10.5q9 -12 5 -21q-2 -4 -5 -8l-11 -22q-5 -9 -10 -18.5t-8 -17.5q-14 -30 -27 -20q-6 5 -7 13.5t0 10.5z" glyph-name="aacute" horiz-adv-x="296" unicode="á"/>
<glyph d="M11 173q-7 -18 -20.5 -39.5t-24.5 -35.5q-5 21 -1 47t12.5 48.5t18.5 37t18 13.5q7 -1 9 -8t1 -17t-5 -22zM22 54q-24 0 -39 13q11 13 27 38t28 56q5 13 11 28.5t8 30.5t-2.5 28.5t-20.5 23.5q-20 13 -39 2.5t-33 -33t-23 -49.5t-10 -47t2 -42t13.5 -40.5t30.5 -31 t54 -13.5q28 0 52 16.5t42 37.5t28.5 40.5t13.5 24.5q8 15 10 26.5t0.5 18t-5.5 7.5t-7 -5q-9 -16 -22 -38t-30.5 -42.5t-39.5 -35t-49 -14.5zM46 330q1 2 6 13.5t11 25.5t11.5 26t7.5 15q8 13 13 13.5t14 -10.5q9 -12 5 -21q-2 -4 -5 -8l-11 -22q-5 -9 -10 -18.5t-8 -17.5 q-14 -30 -27 -20q-6 5 -7 13.5t0 10.5z" glyph-name="eacute" horiz-adv-x="141" unicode="é"/>
<glyph d="M217 137q-3 -5 -14 -24.5t-28.5 -41t-40.5 -38.5t-50 -17q-29 0 -46 14.5t-26 33.5t-11 37t-1 25q1 6 2.5 17.5t3.5 22.5q2 13 4 27q3 7 9 10t12.5 2.5t11.5 -4t5 -10.5q0 -1 -2.5 -12.5t-4.5 -27.5t-2 -34.5t4 -33.5t15 -25t30 -9q20 1 39 16t35.5 35.5t29.5 43t22 38.5 q3 7 7 6.5t5.5 -7t-0.5 -18t-9 -26.5zM46 270q1 2 6 13.5t11 25.5t11.5 26t7.5 15q8 13 13 13.5t14 -10.5q9 -12 5 -21q-2 -4 -5 -8l-11 -22q-5 -9 -10 -18.5t-8 -17.5q-14 -30 -27 -20q-6 5 -7 13.5t0 10.5z" glyph-name="iacute" horiz-adv-x="193" unicode="í"/>
<glyph glyph-name="eth" horiz-adv-x="0" unicode="ð"/>
<glyph d="M366 135q-3 -5 -13.5 -23.5t-27.5 -38.5t-40.5 -35t-51.5 -14q-26 1 -40.5 10.5t-22 23.5t-9 30.5t-1.5 30.5v24t-4 11q-3 1 -9 -18t-16 -42t-24 -42t-33 -18q-15 1 -21 12.5t-7.5 27.5t0.5 34t3 33q2 16 1 26t-6 10q-2 0 -5.5 -7.5t-7.5 -15.5q-4 -5 -8.5 -4t-6 7 t0.5 17.5t11 27.5q4 7 10 11t13 4t14 -5t12 -18q6 -16 5 -36t-3 -38t-2.5 -31t7.5 -15q6 -1 16 18.5t21 45t20 49.5t13 32q7 17 20.5 16t25.5 -15q4 -4 2.5 -17t-4.5 -31t-5.5 -37.5t0 -36.5t11.5 -29t29 -13q23 -2 43 11.5t36.5 33.5t29 42.5t21.5 38.5q3 6 7 5t5.5 -7.5 t-0.5 -18t-9 -26.5zM39 289q6 12 18 15t24 4q18 -1 29 -9.5t22 -8.5q15 1 24 4.5t18 12.5q4 4 9.5 3.5t8.5 -3.5t3.5 -8.5t-3.5 -9.5q-12 -12 -25.5 -18t-34.5 -5q-17 1 -28 9t-23 7q-3 0 -10 -0.5t-10 -3.5q-3 -6 -7.5 -7t-8.5 1t-6 6.5t1 10.5h-1z" glyph-name="ntilde" horiz-adv-x="342" unicode="ñ"/>
<glyph d="M116 330q1 2 6 13.5t11 25.5t11.5 26t7.5 15q8 13 13 13.5t14 -10.5q9 -12 5 -21q-2 -4 -5 -8l-11 -22q-5 -9 -10 -18.5t-8 -17.5q-14 -30 -27 -20q-6 5 -7 13.5t0 10.5zM26 105q0 7 3 18.5t7.5 22t9.5 19.5t9 12q6 -16 17 -32q6 -11 17.5 -21t25.5 -18q-3 -12 -9 -23.5 t-13 -21t-16 -15t-18 -4.5q-12 1 -19 7.5t-10 16.5t-3.5 20.5t-0.5 18.5zM121 143q-30 19 -38 45q-5 13 -2.5 27t15.5 15q9 1 14 -7.5t7.5 -21.5t3 -29t0.5 -29zM179 124q-12 0 -27 5q1 5 1.5 9t0.5 9q3 33 -2.5 55.5t-15.5 36.5t-21.5 20t-21.5 5q-21 -2 -31.5 -12.5 t-13.5 -25.5q-6 -2 -10 -4t-9 -8q-9 -11 -20 -34t-17 -72q-2 -12 0.5 -28t9 -30.5t18.5 -25t30 -11.5q38 -2 60.5 23.5t33.5 59.5h4q35 -5 58.5 4t37.5 22q16 15 25 35q5 20 0.5 27.5t-10.5 -2.5l-9 -15q-7 -12 -18 -22q-9 -8 -22.5 -15t-30.5 -6z" glyph-name="oacute" horiz-adv-x="231" unicode="ó"/>
<glyph glyph-name="divide" unicode="÷"/>
<glyph d="M320 135q-2 -5 -10.5 -21.5t-23.5 -34t-35.5 -31.5t-47.5 -14q-25 -1 -40 11t-23 26q-10 17 -14 38q-8 -21 -19 -38q-10 -14 -23.5 -25.5t-32.5 -9.5q-15 1 -26 12.5t-18 27.5t-9 33t1 29q3 13 6.5 28.5t7.5 29.5q4 16 8 31l1 3.5t4 7t8.5 5.5t13.5 -1t9.5 -9.5 t-0.5 -13.5q-2 -8 -7 -18q-7 -35 -10 -63q-2 -24 1 -45t17 -23q8 -1 17.5 9.5t18 25.5t15.5 30.5t10 24.5q5 12 6 25.5t5 21.5q6 25 25 20q8 -2 10.5 -7.5t1.5 -10.5q-1 -6 -4 -14l-2 -22q-1 -10 -1.5 -22t-0.5 -26q-1 -23 6.5 -41.5t27.5 -20.5q25 -3 44.5 9.5t34.5 31 t26 40t20 37.5q3 6 7 5t5.5 -7t-0.5 -17.5t-9 -26.5h-1zM97 310q1 2 6 13.5t11 25.5t11.5 26t7.5 15q8 13 13 13.5t14 -10.5q9 -12 5 -21q-2 -4 -5 -8l-11 -22q-5 -9 -10 -18.5t-8 -17.5q-14 -30 -27 -20q-6 5 -7 13.5t0 10.5z" glyph-name="uacute" horiz-adv-x="299" unicode="ú"/>
<glyph d="M320 135q-2 -5 -10.5 -21.5t-23.5 -34t-35.5 -31.5t-47.5 -14q-25 -1 -40 11t-23 26q-10 17 -14 38q-8 -21 -19 -38q-10 -14 -23.5 -25.5t-32.5 -9.5q-15 1 -26 12.5t-18 27.5t-9 33t1 29q3 13 6.5 28.5t7.5 29.5q4 16 8 31l1 3.5t4 7t8.5 5.5t13.5 -1t9.5 -9.5 t-0.5 -13.5q-2 -8 -7 -18q-7 -35 -10 -63q-2 -24 1 -45t17 -23q8 -1 17.5 9.5t18 25.5t15.5 30.5t10 24.5q5 12 6 25.5t5 21.5q6 25 25 20q8 -2 10.5 -7.5t1.5 -10.5q-1 -6 -4 -14l-2 -22q-1 -10 -1.5 -22t-0.5 -26q-1 -23 6.5 -41.5t27.5 -20.5q25 -3 44.5 9.5t34.5 31 t26 40t20 37.5q3 6 7 5t5.5 -7t-0.5 -17.5t-9 -26.5h-1zM64 318q10 -2 16 -10t5 -19q-2 -11 -12.5 -17t-22.5 -4q-9 2 -14 10t-4 18q2 11 11.5 17.5t20.5 4.5zM175 306q10 -2 16.5 -10t5.5 -19q-2 -11 -12.5 -16.5t-22.5 -3.5q-11 1 -16 9t-3 18q2 11 12 17.5t21 4.5h-1z M65 318q10 -2 16 -10t5 -19q-2 -11 -12.5 -17t-22.5 -4q-9 2 -14 10t-4 18q2 11 11.5 17.5t20.5 4.5zM176 306q10 -2 16.5 -10t5.5 -19q-2 -11 -12.5 -16.5t-22.5 -3.5q-11 1 -16 9t-3 18q2 11 12 17.5t21 4.5h-1z" glyph-name="udieresis" horiz-adv-x="299" unicode="ü"/>
<glyph glyph-name="yacute" horiz-adv-x="0" unicode="ý"/>
<glyph glyph-name="thorn" horiz-adv-x="0" unicode="þ"/>
</font>
</defs>
</svg>
