<?xml version="1.0" standalone="no"?>
<!DOCTYPE svg PUBLIC "-//W3C//DTD SVG 1.1//EN" "http://www.w3.org/Graphics/SVG/1.1/DTD/svg11.dtd" >
<svg>
<metadata>
Created by FontForge 20090914 at Tue Dec 10 21:09:37 2019
 By www-data
Copyright &#194;&#169; 1995 Carter &#38; Cone Type Inc. All rights reserved. Portions Copyright The Font Bureau, Inc. 1996 All rights reserved.
</metadata>
<defs>
<font id="Home" horiz-adv-x="655" >
  <font-face 
    font-family="Home"
    font-weight="400"
    font-stretch="normal"
    units-per-em="1000"
    panose-1="2 0 0 0 0 0 0 0 0 0"
    ascent="764"
    descent="-236"
    x-height="461.998"
    cap-height="683"
    bbox="-138.999 -237.002 1202 941.003"
    underline-thickness="24"
    underline-position="-68"
    unicode-range="U+0020-U+2122"
  />
<missing-glyph horiz-adv-x="744" 
d="M705 -203h-672v923h672v-923zM661 -157v831h-584v-831h584z" />
    <glyph glyph-name=".notdef" unicode="&#x131;" horiz-adv-x="744" 
d="M705 -203h-672v923h672v-923zM661 -157v831h-584v-831h584z" />
    <glyph glyph-name=".notdef" unicode="&#xe01e;" horiz-adv-x="744" 
d="M705 -203h-672v923h672v-923zM661 -157v831h-584v-831h584z" />
    <glyph glyph-name=".notdef" unicode="&#x25ca;" horiz-adv-x="744" 
d="M705 -203h-672v923h672v-923zM661 -157v831h-584v-831h584z" />
    <glyph glyph-name=".notdef" unicode="&#x2260;" horiz-adv-x="744" 
d="M705 -203h-672v923h672v-923zM661 -157v831h-584v-831h584z" />
    <glyph glyph-name=".notdef" unicode="&#x2248;" horiz-adv-x="744" 
d="M705 -203h-672v923h672v-923zM661 -157v831h-584v-831h584z" />
    <glyph glyph-name=".notdef" unicode="&#x222b;" horiz-adv-x="744" 
d="M705 -203h-672v923h672v-923zM661 -157v831h-584v-831h584z" />
    <glyph glyph-name=".notdef" unicode="&#x221e;" horiz-adv-x="744" 
d="M705 -203h-672v923h672v-923zM661 -157v831h-584v-831h584z" />
    <glyph glyph-name=".notdef" unicode="&#x221a;" horiz-adv-x="744" 
d="M705 -203h-672v923h672v-923zM661 -157v831h-584v-831h584z" />
    <glyph glyph-name=".notdef" unicode="&#x2211;" horiz-adv-x="744" 
d="M705 -203h-672v923h672v-923zM661 -157v831h-584v-831h584z" />
    <glyph glyph-name=".notdef" unicode="&#x220f;" horiz-adv-x="744" 
d="M705 -203h-672v923h672v-923zM661 -157v831h-584v-831h584z" />
    <glyph glyph-name=".notdef" unicode="&#x2202;" horiz-adv-x="744" 
d="M705 -203h-672v923h672v-923zM661 -157v831h-584v-831h584z" />
    <glyph glyph-name=".notdef" unicode="&#x2044;" horiz-adv-x="744" 
d="M705 -203h-672v923h672v-923zM661 -157v831h-584v-831h584z" />
    <glyph glyph-name=".notdef" unicode="&#x3c0;" horiz-adv-x="744" 
d="M705 -203h-672v923h672v-923zM661 -157v831h-584v-831h584z" />
    <glyph glyph-name=".notdef" unicode="&#x3a9;" horiz-adv-x="744" 
d="M705 -203h-672v923h672v-923zM661 -157v831h-584v-831h584z" />
    <glyph glyph-name=".notdef" unicode="&#x394;" horiz-adv-x="744" 
d="M705 -203h-672v923h672v-923zM661 -157v831h-584v-831h584z" />
    <glyph glyph-name="space" unicode=" " horiz-adv-x="240" 
 />
    <glyph glyph-name="space" unicode="&#xa0;" horiz-adv-x="240" 
 />
    <glyph glyph-name="exclam" unicode="!" horiz-adv-x="365" 
d="M247 633c0 -11.333 -1.33398 -29.001 -4.00098 -53.001s-6.66699 -58 -12 -102l-14.5 -125.5c-4.33301 -38.333 -9.16602 -85.5 -14.499 -141.5h-36c-8.66699 102.667 -18 193.834 -28 273.501s-15 129.167 -15 148.5s5.5 35.5 16.5 48.5s26.167 19.5 45.5 19.5
c18 0 32.833 -6.66699 44.5 -20s17.5 -29.333 17.5 -48zM251.999 53.999c0 -19.333 -6.33301 -35.166 -19 -47.499s-28.667 -18.5 -48 -18.5s-35.333 6.16699 -48 18.5s-19 28.166 -19 47.499s6.33301 35.333 19 48s28.667 19 48 19s35.333 -6.33301 48 -19
s19 -28.667 19 -48z" />
    <glyph glyph-name="quotedbl" unicode="&#x22;" horiz-adv-x="392" 
d="M349 682c0 -12 -4.16797 -35.168 -12.501 -69.501s-17.833 -81.166 -28.5 -140.499h-30c-9.33301 58.667 -18.166 105 -26.499 139s-12.5 57.667 -12.5 71c0 14.667 4.66699 27.5 14 38.5s23 16.5 41 16.5s31.667 -5.5 41 -16.5s14 -23.833 14 -38.5zM152.999 681.999
c0 -12 -4.16797 -35.168 -12.501 -69.501s-17.833 -81.166 -28.5 -140.499h-30c-9.33301 58.667 -18.166 105 -26.499 139s-12.5 57.667 -12.5 71c0 14.667 4.66699 27.5 14 38.5s23 16.5 41 16.5s31.667 -5.5 41 -16.5s14 -23.833 14 -38.5z" />
    <glyph glyph-name="numbersign" unicode="#" horiz-adv-x="580" 
d="M489 221l-108 -27v-201h-32v193l-117 -29v-164h-32v156l-107 -27v91l107 27v111l-107 -27v91l107 27v185h32v-177l117 29v148h32v-140l108 27v-91l-108 -27v-111l108 27v-91zM349 277v111l-117 -29v-111z" />
    <glyph glyph-name="dollar" unicode="$" horiz-adv-x="615" 
d="M537 188c0 -60 -20.1699 -106.5 -60.5029 -139.5s-89.833 -51.167 -148.5 -54.5v-136h-34v135c-61.333 1.33301 -112.666 15.833 -153.999 43.5s-62 64.167 -62 109.5c0 18 5 32.667 15 44s23.333 17 40 17c14.667 0 26.5 -5.33301 35.5 -16s13.5 -23.667 13.5 -39
c0 -14.667 -4 -24.5 -12 -29.5s-13.333 -12.833 -16 -23.5c4 -18.667 17.333 -35.167 40 -49.5s56 -21.5 100 -21.5v237c-55.333 3.33301 -102.666 18.333 -141.999 45s-59 67.667 -59 123c0 20 3.33301 40.167 10 60.5s17.667 39.833 33 58.5c14 17.333 35 32.333 63 45
s59.667 20 95 22v94h34v-93c69.333 -1.33301 119 -14.666 149 -39.999s45 -52.333 45 -81c0 -21.333 -5.16699 -36.666 -15.5 -45.999s-21.166 -14 -32.499 -14c-12.667 0 -23.5 4.16699 -32.5 12.5s-13.5 19.166 -13.5 32.499s2.83301 23.333 8.5 30s9.16699 15 10.5 25
c-4 12.667 -13.5 23.167 -28.5 31.5s-45.167 13.166 -90.5 14.499v-218c64 -4.66699 114.833 -21.667 152.5 -51s56.5 -72 56.5 -128zM293.997 369v215.001c-42.667 -2.66699 -75 -13.5 -97 -32.5s-33 -41.833 -33 -68.5c0 -40 11.333 -67.833 34 -83.5
s54.667 -25.834 96 -30.501zM468.997 145.001c0 34 -11.667 61.333 -35 82s-58.666 33 -105.999 37v-235c47.333 4 82.666 15.5 105.999 34.5s35 46.167 35 81.5z" />
    <glyph glyph-name="percent" unicode="%" horiz-adv-x="878" 
d="M813 143c0 -43.333 -16.667 -80.333 -50 -111s-70.333 -46 -111 -46s-77 13.5 -109 40.5s-48 65.5 -48 115.5c0 44 16.5 82 49.5 114s68.833 48 107.5 48c40.667 0 77.667 -13.333 111 -40s50 -67 50 -121zM671 672l-429 -773l-37 21l427 773zM383 459
c0 -43.333 -16.833 -80.333 -50.5 -111s-70.5 -46 -110.5 -46c-41.333 0 -77.833 13.333 -109.5 40s-47.5 65.334 -47.5 116.001c0 45.333 16.5 83.666 49.5 114.999s68.833 47 107.5 47c41.333 0 78.5 -12.833 111.5 -38.5s49.5 -66.5 49.5 -122.5zM734 141
c0 44 -7.33203 77.001 -21.999 99.001s-34.334 33 -59.001 33s-44.167 -11.333 -58.5 -34s-21.5 -53.667 -21.5 -93c0 -40.667 7.16699 -72.334 21.5 -95.001s34.5 -34 60.5 -34c21.333 0 39.833 9.66699 55.5 29s23.5 51 23.5 95zM304.001 457.001
c0 43.333 -7.33203 76.168 -21.999 98.501s-34.334 33.5 -59.001 33.5s-44.167 -11 -58.5 -33s-21.5 -53.333 -21.5 -94s7.16699 -72.334 21.5 -95.001s34.5 -34 60.5 -34c21.333 0 39.833 9.33301 55.5 28s23.5 50.667 23.5 96z" />
    <glyph glyph-name="ampersand" unicode="&#x26;" horiz-adv-x="745" 
d="M751 399c-32.667 -3.33301 -58.998 -6.49902 -78.998 -9.49902s-37.333 -12.5 -52 -28.5c-15.333 -16 -32.333 -45.167 -51 -87.5s-44 -82.5 -76 -120.5c11.333 -14.667 26.666 -31.334 45.999 -50.001s35.666 -32 48.999 -40c14 -8 35.167 -14.833 63.5 -20.5
s52.5 -8.83398 72.5 -9.50098v-33h-234l-67 83c-26 -26 -53.5 -49 -82.5 -69s-66.5 -30 -112.5 -30c-46.667 0 -90.167 13.167 -130.5 39.5s-60.5 69.166 -60.5 128.499c0 43.333 13 81.833 39 115.5s68.333 69.167 127 106.5c-27.333 42.667 -45.833 74.834 -55.5 96.501
s-14.5 45.834 -14.5 72.501c0 44.667 17.167 81.5 51.5 110.5s74.5 43.5 120.5 43.5c48 0 82.667 -14 104 -42s32 -58 32 -90c0 -36 -12.333 -68.167 -37 -96.5s-56 -53.5 -94 -75.5c32.667 -48 60.5 -86.667 83.5 -116l76.5 -96c25.333 36.667 44.833 70.5 58.5 101.5
s20.5 56.5 20.5 76.5c0 10 -7.83301 17.833 -23.5 23.5s-36.167 11.167 -61.5 16.5v32h287v-32zM383.002 560.001c0 31.333 -7.16602 55.001 -21.499 71.001s-32.5 24 -54.5 24c-32.667 0 -53.834 -11.667 -63.501 -35s-14.5 -41.333 -14.5 -54
c0 -17.333 4.5 -37.5 13.5 -60.5s25.5 -51.167 49.5 -84.5c34 21.333 57.667 42.166 71 62.499s20 45.833 20 76.5zM400.003 110.002l-93.999 123.001c-36 46.667 -64 85 -84 115c-29.333 -18 -50.333 -40.5 -63 -67.5s-19 -57.167 -19 -90.5
c0 -40.667 11.333 -74.334 34 -101.001s55 -40 97 -40c24 0 47.667 5.16699 71 15.5s42.666 25.5 57.999 45.5z" />
    <glyph glyph-name="quotesingle" unicode="'" horiz-adv-x="196" 
d="M153 682c0 -12 -4.16797 -35.168 -12.501 -69.501s-17.833 -81.166 -28.5 -140.499h-30c-9.33301 58.667 -18.166 105 -26.499 139s-12.5 57.667 -12.5 71c0 14.667 4.66699 27.5 14 38.5s23 16.5 41 16.5s31.667 -5.5 41 -16.5s14 -23.833 14 -38.5z" />
    <glyph glyph-name="parenleft" unicode="(" horiz-adv-x="365" 
d="M180 25c22 -35.333 46.498 -65.998 73.498 -91.998s53.167 -48 78.5 -66l-42 -27c-29.333 22 -58.333 46.667 -87 74s-54.667 59.333 -78 96c-24.667 38 -44 80.5 -58 127.5s-21 99.5 -21 157.5s6.66699 109.167 20 153.5s32 85.833 56 124.5
c21.333 35.333 47.333 67.666 78 96.999s60.334 55.333 89.001 78l43 -27c-30 -23.333 -57.5 -47.333 -82.5 -72s-48.833 -55 -71.5 -91c-20 -31.333 -36.667 -70.333 -50 -117s-20 -95.334 -20 -146.001c0 -55.333 6.83301 -105.5 20.5 -150.5
s30.834 -84.833 51.501 -119.5z" />
    <glyph glyph-name="parenright" unicode=")" horiz-adv-x="365" 
d="M243 573c23.333 -36.667 41.834 -77.166 55.501 -121.499s20.5 -96.5 20.5 -156.5c0 -58 -7 -110.667 -21 -158s-33 -89.666 -57 -126.999c-24.667 -37.333 -51.5 -69.833 -80.5 -97.5s-57.5 -51.834 -85.5 -72.501l-42 27c24.667 18 51 40.333 79 67s52.333 57 73 91
c25.333 42 43.666 85 54.999 129s17 91 17 141c0 52.667 -6.16699 100.834 -18.5 144.501s-29.5 83.167 -51.5 118.5c-21.333 34.667 -45.333 65 -72 91s-54 50 -82 72l43 27c30 -22.667 60 -48.834 90 -78.501s55.667 -61.834 77 -96.501z" />
    <glyph glyph-name="asterisk" unicode="*" horiz-adv-x="443" 
d="M387 422c-6.66699 -10 -14.334 -15.9971 -23.001 -17.9971s-17.334 0.333008 -26.001 7c-10.667 6.66699 -24.167 18.334 -40.5 35.001s-38.833 35.667 -67.5 57c2.66699 -28.667 8 -56.667 16 -84s12 -45.666 12 -54.999c0 -10 -3 -18.667 -9 -26s-15 -11 -27 -11
c-11.333 0 -20.166 3.66699 -26.499 11s-9.5 16 -9.5 26s3.83301 28.833 11.5 56.5s12.834 55.167 15.501 82.5c-28.667 -20.667 -51.334 -39.667 -68.001 -57s-29.667 -29 -39 -35c-8.66699 -5.33301 -17.5 -7.33301 -26.5 -6s-16.5 7 -22.5 17
c-6.66699 10 -8.5 19.5 -5.5 28.5s9.16699 15.833 18.5 20.5c10.667 6 26.834 11.333 48.501 16s50.834 15.334 87.501 32.001c-31.333 14 -59.333 24.167 -84 30.5s-42 12.166 -52 17.499s-16 12.333 -18 21s-0.333008 17.667 5 27c5.33301 10 13 15.833 23 17.5
s18.667 -0.166016 26 -5.49902c10 -6.66699 23.667 -18.834 41 -36.501s39.333 -36.167 66 -55.5c-3.33301 26.667 -8.5 54 -15.5 82s-10.833 47 -11.5 57c0 10 3 18.5 9 25.5s15 10.5 27 10.5c11.333 0 20.166 -3.5 26.499 -10.5s9.5 -15.5 9.5 -25.5
c-0.666992 -10 -4.66699 -29 -12 -57s-12.666 -55.333 -15.999 -82c25.333 18.667 47.333 37 66 55s32.667 30.333 42 37c8 6 16.667 8.16699 26 6.5s17 -7.83398 23 -18.501c5.33301 -8.66699 7 -17.667 5 -27s-8 -16.333 -18 -21
c-9.33301 -4.66699 -27.333 -10.834 -54 -18.501s-54 -17.5 -82 -29.5c32 -14 60.333 -24.333 85 -31s41.667 -12.334 51 -17.001c8.66699 -4.66699 14.667 -11.334 18 -20.001s1.66602 -18.334 -5.00098 -29.001z" />
    <glyph glyph-name="plus" unicode="+" horiz-adv-x="580" 
d="M531 234h-214v-215h-54v215h-214v52h214v215h54v-215h214v-52z" />
    <glyph glyph-name="comma" unicode="," horiz-adv-x="250" 
d="M197 18c0 -45.333 -18.166 -85.666 -54.499 -120.999s-64.833 -58.333 -85.5 -69l-21 33c28.667 17.333 53.667 36.333 75 57s33.333 48.667 36 84h-27c-26 0 -44 6.66699 -54 20s-15 27.666 -15 42.999c0 14 5.5 27.333 16.5 40s26.167 19 45.5 19
c29.333 0 50.666 -9.83301 63.999 -29.5s20 -45.167 20 -76.5z" />
    <glyph glyph-name="hyphen" unicode="-" horiz-adv-x="374" 
d="M334 212h-294v77h294v-77z" />
    <glyph glyph-name="period" unicode="." horiz-adv-x="250" 
d="M193 57c0 -19.333 -6.33301 -35.166 -19 -47.499s-28.667 -18.5 -48 -18.5s-35.333 6.16699 -48 18.5s-19 28.166 -19 47.499s6.33301 35.333 19 48s28.667 19 48 19s35.333 -6.33301 48 -19s19 -28.667 19 -48z" />
    <glyph glyph-name="slash" unicode="/" horiz-adv-x="420" 
d="M385 739l-313 -951l-50 13l312 951z" />
    <glyph glyph-name="zero" unicode="0" horiz-adv-x="614" 
d="M564 316c0 -98.667 -25.498 -178.332 -76.498 -238.999s-112.833 -91 -185.5 -91s-132.834 27.667 -180.501 83s-71.5 128.333 -71.5 219c0 101.333 26.833 181.666 80.5 240.999s114.167 89 181.5 89c75.333 0 136.166 -28.167 182.499 -84.5s69.5 -128.833 69.5 -217.5
zM456.002 303.002c0 76.667 -11.999 142.334 -35.999 197.001s-61 82 -111 82c-42 0 -77.667 -25.333 -107 -76s-44 -119 -44 -205c0 -78.667 12.167 -144.834 36.5 -198.501s61.166 -80.5 110.499 -80.5c42 0 77.667 25 107 75s44 118.667 44 206z" />
    <glyph glyph-name="one" unicode="1" horiz-adv-x="424" 
d="M384 0l-309.999 0.000976562v33l41 3c18 1.33301 30.667 3.33301 38 6c10.667 4 18.5 10.333 23.5 19s7.5 18 7.5 28v427c-5.33301 -1.33301 -11 -2.33301 -17 -3s-14 -1 -24 -1c-14.667 0 -33.334 7 -56.001 21s-42.667 28 -60 42l13 23
c17.333 -7.33301 33.333 -13 48 -17s33.667 -6 57 -6c28 0 52.833 4.66699 74.5 14s38.834 18.666 51.501 27.999h23c-4 -24 -7.33301 -50 -10 -78s-4 -52 -4 -72v-373c0 -10 2.5 -19.5 7.5 -28.5s12.167 -15.5 21.5 -19.5c8 -3.33301 20.167 -6.33301 36.5 -9
s29.166 -4 38.499 -4v-33z" />
    <glyph glyph-name="two" unicode="2" horiz-adv-x="561" 
d="M519 171l-58.9971 -170.998h-412v37l140 104c36 28 69.667 59.333 101 94c39.333 43.333 63.166 82.5 71.499 117.5s12.5 65.167 12.5 90.5c0 47.333 -10.5 82.166 -31.5 104.499s-46.833 33.5 -77.5 33.5c-30 0 -56.167 -8.33301 -78.5 -25s-34.166 -36.667 -35.499 -60
c0.666992 -6.66699 5.33398 -14.834 14.001 -24.501s13 -21.5 13 -35.5c0 -11.333 -3 -24.166 -9 -38.499s-22.333 -21.5 -49 -21.5c-20.667 0 -35.5 7.33301 -44.5 22s-13.5 29.667 -13.5 45c0 16 3.66699 33 11 51s21 37.333 41 58c16 17.333 38.833 32.666 68.5 45.999
s62.167 20 97.5 20c57.333 0 104.666 -16.5 141.999 -49.5s56 -76.167 56 -129.5c0 -64 -18.833 -118.5 -56.5 -163.5s-114.834 -101.5 -231.501 -169.5l-27 -25h234c25.333 0 45.666 12.5 60.999 37.5s26.666 45.833 33.999 62.5z" />
    <glyph glyph-name="three" unicode="3" horiz-adv-x="563" 
d="M451 300c16.667 -11.333 29.666 -24.999 38.999 -40.999s14 -39.333 14 -70c0 -68 -26.5 -120.833 -79.5 -158.5s-119.833 -56.5 -200.5 -56.5c-43.333 0 -86.166 12 -128.499 36s-63.5 58.333 -63.5 103c0 26 7.16699 45.833 21.5 59.5s31.5 20.5 51.5 20.5
c17.333 0 30.166 -4.66699 38.499 -14s12.5 -21 12.5 -35c0 -9.33301 -2.33301 -17.166 -7 -23.499s-9.66699 -10.833 -15 -13.5c-5.33301 -3.33301 -10.333 -7.5 -15 -12.5s-7 -11.833 -7 -20.5c0 -18 8.16699 -33 24.5 -45s44.833 -18 85.5 -18
c42.667 0 83 17.167 121 51.5s57 79.166 57 134.499c0 35.333 -7.33301 61.333 -22 78s-35.667 25 -63 25c-15.333 0 -28.833 -3.83301 -40.5 -11.5s-24.167 -18.167 -37.5 -31.5l-23 35c52.667 34 94 62.833 124 86.5s45 59.167 45 106.5c0 30 -8.66699 53.667 -26 71
s-44.666 26 -81.999 26c-30.667 0 -53.667 -7.33301 -69 -22s-24 -25.334 -26 -32.001c0 -6.66699 3 -14.667 9 -24s9 -21.333 9 -36c0 -10.667 -2.5 -23 -7.5 -37s-20.833 -21 -47.5 -21c-20.667 0 -35 7 -43 21s-12 27.667 -12 41c0 30.667 17.167 62.667 51.5 96
s88.166 50 161.499 50c34.667 0 64.167 -4.83301 88.5 -14.5s43.833 -21.5 58.5 -35.5c12.667 -12.667 22.167 -26.5 28.5 -41.5s9.5 -28.833 9.5 -41.5c0 -28 -10.833 -55.333 -32.5 -82s-62.5 -47 -122.5 -61l-18 -15c2.66699 0.666992 8.83398 1.33398 18.501 2.00098
s16.167 1 19.5 1c16 0 33 -2.33301 51 -7s34.333 -12.334 49 -23.001z" />
    <glyph glyph-name="four" unicode="4" horiz-adv-x="569" 
d="M528 111l-27 -0.000976562c-0.666992 14.667 -3.16699 30 -7.5 46s-11.833 28.333 -22.5 37c-8 6.66699 -20.167 10.167 -36.5 10.5s-34.5 0.5 -54.5 0.5v-113c0 -10.667 2.16699 -20.334 6.5 -29.001s11.166 -15 20.499 -19c8 -2.66699 19.333 -5.16699 34 -7.5
s26 -3.5 34 -3.5v-33h-283v33c8.66699 0.666992 20.5 1.33398 35.5 2.00098s25.833 2.33398 32.5 5.00098c10.667 4 18 10.167 22 18.5s6 17.5 6 27.5v119h-264v48l313 374h43v-376c20 0 38.333 0.666992 55 2s28.334 5 35.001 11c8.66699 8 15.667 19.667 21 35s8 29 8 41
h29v-229zM288 250.999v256l-214 -256h214z" />
    <glyph glyph-name="five" unicode="5" horiz-adv-x="522" 
d="M490 612c-14.667 -28 -35.165 -50.833 -61.498 -68.5s-52.833 -30.167 -79.5 -37.5c-32 -8.66699 -58.5 -13.667 -79.5 -15s-35.5 -2 -43.5 -2c-9.33301 0 -20.333 0.166992 -33 0.5s-20.334 0.833008 -23.001 1.5l-37 -147c14.667 11.333 34.5 20.5 59.5 27.5
s48.167 10.5 69.5 10.5c51.333 0 97.666 -16.667 138.999 -50s62 -81 62 -143c0 -60 -25.5 -108.833 -76.5 -146.5s-106.5 -56.5 -166.5 -56.5c-57.333 0 -102.5 11.833 -135.5 35.5s-49.5 51.5 -49.5 83.5c0 26 8 43.167 24 51.5s29 12.5 39 12.5
c14 0 24.5 -4.16699 31.5 -12.5s10.5 -18.833 10.5 -31.5c0 -14.667 -2.33301 -24.834 -7 -30.501s-7 -16.834 -7 -33.501c1.33301 -9.33301 10 -18.5 26 -27.5s38.333 -13.5 67 -13.5s52.167 7.83301 70.5 23.5s32.5 34.167 42.5 55.5c10 22 17.167 44.833 21.5 68.5
s6.5 47.834 6.5 72.501c0 42.667 -13.667 70.834 -41 84.501s-52.333 20.5 -75 20.5s-46.167 -5.33301 -70.5 -16s-41.5 -30 -51.5 -58l-39 8l76 336h32c6.66699 -8 19.667 -16.5 39 -25.5s49.666 -13.5 90.999 -13.5c32.667 0 59.834 4.16699 81.501 12.5
s44.167 21.833 67.5 40.5z" />
    <glyph glyph-name="six" unicode="6" horiz-adv-x="565" 
d="M529 601c0 -18.667 -3.49902 -32.833 -10.499 -42.5s-20.5 -14.5 -40.5 -14.5c-23.333 0 -37.5 10.333 -42.5 31s-11.5 39.334 -19.5 56.001c-4.66699 9.33301 -11.167 15.833 -19.5 19.5s-21.833 5.5 -40.5 5.5c-44.667 0 -84.834 -26.833 -120.501 -80.5
s-60.167 -129.167 -73.5 -226.5l4 -2c20.667 28 44.5 47.833 71.5 59.5s58.167 17.5 93.5 17.5c44 0 84.833 -19 122.5 -57s56.5 -88 56.5 -150c0 -23.333 -3.83301 -48.833 -11.5 -76.5s-20.5 -52.5 -38.5 -74.5c-20 -24 -44 -43.333 -72 -58s-66.667 -22 -116 -22
c-58.667 0 -109 24.5 -151 73.5s-63 119.5 -63 211.5c0 118 36.167 219 108.5 303s149.833 126 232.5 126c50.667 0 85 -12.333 103 -37s27 -45.334 27 -62.001zM380.001 90.001c8.66699 20 14.668 40.832 18.001 62.499s5 43.167 5 64.5c0 52 -9.83301 91.5 -29.5 118.5
s-51.167 40.5 -94.5 40.5c-28.667 0 -56.334 -13 -83.001 -39s-40 -72.667 -40 -140c0 -57.333 12.667 -101.166 38 -131.499s52.333 -45.5 81 -45.5c26.667 0 48.667 6.5 66 19.5s30.333 29.833 39 50.5z" />
    <glyph glyph-name="seven" unicode="7" horiz-adv-x="506" 
d="M518 574c-36.667 -52 -67.833 -100.167 -93.5 -144.5s-49.834 -95.5 -72.501 -153.5c-18 -45.333 -33.833 -93.333 -47.5 -144s-22.5 -106.667 -26.5 -168c-2 -25.333 -7.16699 -46 -15.5 -62s-25.166 -24 -50.499 -24c-17.333 0 -30.166 4.66699 -38.499 14
s-12.5 28 -12.5 56c0 22 10.667 59.833 32 113.5s47.666 111.5 78.999 173.5c28.667 56 55 103.5 79 142.5l78 127.5h-255c-33.333 0 -58.333 -15.167 -75 -45.5s-27.667 -54.5 -33 -72.5l-30 5l60 257h28l8 -56h386v-19z" />
    <glyph glyph-name="eight" unicode="8" horiz-adv-x="558" 
d="M498 178c0 -57.333 -24.999 -103.832 -74.999 -139.499s-104.667 -53.5 -164 -53.5c-58.667 0 -106.5 14.5 -143.5 43.5s-55.5 64.5 -55.5 106.5c0 41.333 13.5 76.833 40.5 106.5s53.833 49.5 80.5 59.5v5c-32.667 16 -57.5 33.667 -74.5 53s-25.5 48.666 -25.5 87.999
c0 50.667 21.833 92.834 65.5 126.501s90.167 50.5 139.5 50.5c58 0 103.833 -13.333 137.5 -40s50.5 -62 50.5 -106c0 -20.667 -9 -45.334 -27 -74.001s-43 -49.667 -75 -63v-5c25.333 -10 52.666 -27 81.999 -51s44 -59.667 44 -107zM409.001 486.001
c0 31.333 -10.832 56.166 -32.499 74.499s-51.5 27.5 -89.5 27.5c-36.667 0 -66.334 -9.5 -89.001 -28.5s-34 -43.167 -34 -72.5c0 -38.667 15 -68.667 45 -90s72.333 -36.333 127 -45c27.333 11.333 46.333 29.333 57 54s16 51.334 16 80.001zM411.002 142.001
c0 43.333 -20.666 76.502 -61.999 99.502s-85.333 39.167 -132 48.5c-24 -12 -44 -32.667 -60 -62s-24 -59 -24 -89c0 -34.667 11.167 -62.834 33.5 -84.501s56.166 -32.5 101.499 -32.5c37.333 0 70.5 9.66699 99.5 29s43.5 49.666 43.5 90.999z" />
    <glyph glyph-name="nine" unicode="9" horiz-adv-x="565" 
d="M434 556c24 -26 41.998 -55.001 53.998 -87.001s18 -80.667 18 -146c0 -54 -7.83301 -107 -23.5 -159s-38.5 -97.667 -68.5 -137c-33.333 -44 -71.166 -76.833 -113.499 -98.5s-89.833 -32.5 -142.5 -32.5c-43.333 0 -76.5 11.333 -99.5 34s-34.5 44.334 -34.5 65.001
c0 21.333 4 36.833 12 46.5s22 14.5 42 14.5c12 0 21.167 -3.33301 27.5 -10s10.833 -14.334 13.5 -23.001c3.33301 -9.33301 6 -19.333 8 -30s4.66699 -19.667 8 -27c4.66699 -10.667 13 -18 25 -22s25 -6 39 -6c54.667 0 100.834 31.167 138.501 93.5
s60.5 138.5 68.5 228.5l-7 1c-17.333 -23.333 -37 -42.666 -59 -57.999s-56.333 -23 -103 -23c-46 0 -87.5 17.833 -124.5 53.5s-55.5 86.834 -55.5 153.501c0 53.333 19 105.166 57 155.499s93.667 75.5 167 75.5c27.333 0 54.333 -4.66699 81 -14s50.667 -25.333 72 -48z
M364.998 267.999c14.667 14.667 26.001 30.832 34.001 48.499s12 44.5 12 80.5c0 62 -13.667 108.667 -41 140s-57 47 -89 47c-22.667 0 -42.167 -5.16699 -58.5 -15.5s-29.5 -25.5 -39.5 -45.5c-8.66699 -17.333 -14.334 -37.166 -17.001 -59.499s-4 -41.5 -4 -57.5
c0 -58 9.33301 -101.333 28 -130s49 -43 91 -43c12 0 26 2.83301 42 8.5s30 14.5 42 26.5z" />
    <glyph glyph-name="colon" unicode=":" horiz-adv-x="332" 
d="M233 387c0 -19.333 -6.33301 -35.166 -19 -47.499s-28.667 -18.5 -48 -18.5s-35.333 6.16699 -48 18.5s-19 28.166 -19 47.499s6.33301 35.333 19 48s28.667 19 48 19s35.333 -6.33301 48 -19s19 -28.667 19 -48zM233 58c0 -19.333 -6.33301 -35.166 -19 -47.499
s-28.667 -18.5 -48 -18.5s-35.333 6.16699 -48 18.5s-19 28.166 -19 47.499s6.33301 35.333 19 48s28.667 19 48 19s35.333 -6.33301 48 -19s19 -28.667 19 -48z" />
    <glyph glyph-name="semicolon" unicode=";" horiz-adv-x="332" 
d="M226 390c0 -18 -4.83105 -33.832 -14.498 -47.499s-25.167 -20.5 -46.5 -20.5c-19.333 0 -34.5 6.16699 -45.5 18.5s-16.5 29.5 -16.5 51.5c0 19.333 6.16699 34.666 18.5 45.999s27.166 17 44.499 17c19.333 0 34.166 -6.66699 44.499 -20s15.5 -28.333 15.5 -45z
M237.002 18.001c0 -45.333 -18.166 -85.666 -54.499 -120.999s-64.833 -58.333 -85.5 -69l-21 33c28.667 17.333 53.667 36.333 75 57s33.333 48.667 36 84h-27c-26 0 -44 6.66699 -54 20s-15 27.666 -15 42.999c0 14 5.5 27.333 16.5 40s26.167 19 45.5 19
c29.333 0 50.666 -9.83301 63.999 -29.5s20 -45.167 20 -76.5z" />
    <glyph glyph-name="less" unicode="&#x3c;" horiz-adv-x="560" 
d="M497 32l-442 205v46l442 205v-57l-374 -171l374 -171v-57z" />
    <glyph glyph-name="equal" unicode="=" horiz-adv-x="580" 
d="M511 325h-442v52h442v-52zM511 143h-442v52h442v-52z" />
    <glyph glyph-name="greater" unicode="&#x3e;" horiz-adv-x="560" 
d="M505 237l-442 -205v57l374 171l-374 171v57l442 -205v-46z" />
    <glyph glyph-name="question" unicode="?" horiz-adv-x="482" 
d="M432 499c0 -56 -21 -103.001 -63 -141.001s-93.333 -60.667 -154 -68l-3 -106h-38v182c20.667 2.66699 41 6.83398 61 12.501s36.667 13.167 50 22.5c16.667 12 29.667 25.167 39 39.5s14 36.5 14 66.5c0 58.667 -11.5 99.167 -34.5 121.5s-51.5 33.5 -85.5 33.5
c-14 0 -27 -1.66699 -39 -5s-21.333 -8.66602 -28 -15.999c1.33301 -4 3.33301 -8.66699 6 -14s4 -18 4 -38c0 -17.333 -7.33301 -29.833 -22 -37.5s-26.334 -11.5 -35.001 -11.5c-17.333 0 -30.166 5.5 -38.499 16.5s-12.5 24.5 -12.5 40.5
c0 25.333 14.333 48.666 43 69.999s70 32 124 32c70 0 122.833 -19.167 158.5 -57.5s53.5 -85.833 53.5 -142.5zM262 53.999c0 -19.333 -6.33301 -35 -19 -47s-28.667 -18 -48 -18s-35.333 6 -48 18s-19 27.667 -19 47s6.33301 35.333 19 48s28.667 19 48 19
s35.333 -6.33301 48 -19s19 -28.667 19 -48z" />
    <glyph glyph-name="at" unicode="@" horiz-adv-x="1000" 
d="M955 114c-30 -102.667 -84.1709 -183.167 -162.504 -241.5s-172.166 -87.5 -281.499 -87.5c-52 0 -104.667 8.66699 -158 26s-99.333 42 -138 74c-40 32.667 -72.167 74 -96.5 124s-36.5 106.667 -36.5 170c0 62 11.5 120.833 34.5 176.5s56.5 106.5 100.5 152.5
c42 44 93.833 79.667 155.5 107s128.834 41 201.501 41c58 0 107.833 -9.16699 149.5 -27.5s76.167 -42.5 103.5 -72.5c27.333 -30.667 47.5 -65 60.5 -103s19.5 -77.667 19.5 -119c0 -86 -26 -157.667 -78 -215s-112 -86 -180 -86c-26.667 0 -48.667 6.83301 -66 20.5
s-27 33.5 -29 59.5l-3 1c-16.667 -25.333 -33.667 -44.833 -51 -58.5s-37.666 -20.5 -60.999 -20.5c-28 0 -53.667 8.83301 -77 26.5s-35 52.5 -35 104.5c0 24 4.5 49 13.5 75s24.5 54.667 46.5 86c18.667 27.333 42.5 50.666 71.5 69.999s61.167 29 96.5 29
c16.667 0 31.834 -5 45.501 -15s22.167 -25 25.5 -45h3l20 54h70l-90 -258c-3.33301 -8.66699 -5.83301 -18.167 -7.5 -28.5s-2.5 -18.166 -2.5 -23.499c0 -16.667 3.66699 -28.834 11 -36.501s17.333 -11.5 30 -11.5c50.667 0 98.834 25 144.501 75s68.5 117.667 68.5 203
c0 75.333 -25.667 141 -77 197s-126 84 -224 84c-52 0 -100.333 -9 -145 -27s-87 -46.667 -127 -86c-36 -35.333 -65.833 -81.333 -89.5 -138s-35.5 -118.667 -35.5 -186c0 -113.333 32.667 -201 98 -263s144.666 -93 237.999 -93c108.667 0 198.167 25.833 268.5 77.5
s120.833 123.834 151.5 216.501zM614.996 323c-4.66699 26.667 -11.668 45.668 -21.001 57.001s-24 17 -44 17c-38 0 -70.667 -27 -98 -81s-41 -106.333 -41 -157c0 -33.333 4.33301 -55.833 13 -67.5s18.334 -17.5 29.001 -17.5c24.667 0 46 9.66699 64 29
s32.333 38.666 43 57.999z" />
    <glyph glyph-name="A" unicode="A" horiz-adv-x="697" 
d="M721 0l-314.997 0.00292969v33c20 1.33301 41.833 4 65.5 8s35.5 10.667 35.5 20c0 3.33301 -0.333008 7.16602 -1 11.499s-1.66699 8.16602 -3 11.499l-60 153h-245c-6.66699 -15.333 -13.334 -32.333 -20.001 -51s-12.667 -36.667 -18 -54
c-4 -12 -6.83301 -22.833 -8.5 -32.5s-2.5 -17.5 -2.5 -23.5c0 -14.667 14.833 -25.334 44.5 -32.001s52.5 -10.334 68.5 -11.001v-33h-285v33c8.66699 0.666992 20.5 2.66699 35.5 6s26.5 7.33301 34.5 12c13.333 8 24.166 16.333 32.499 25s16.5 23 24.5 43l114.5 284
l115.5 291h43l145.5 -371l87.5 -224c3.33301 -9.33301 8.83301 -18.166 16.5 -26.499s17.167 -15.833 28.5 -22.5c8 -4.66699 19.167 -8.66699 33.5 -12s25.166 -5 32.499 -5v-33zM426.003 280.003l-106 267l-105 -267h211z" />
    <glyph glyph-name="B" unicode="B" horiz-adv-x="669" 
d="M544 318c22 -14 40.4971 -31.834 55.4971 -53.501s22.5 -49.5 22.5 -83.5c0 -30 -7.33301 -57 -22 -81s-33.667 -43.333 -57 -58c-23.333 -14 -47.666 -24.5 -72.999 -31.5s-51.333 -10.5 -78 -10.5h-348v33c9.33301 0.666992 22.333 2.16699 39 4.5
s28.334 4.83301 35.001 7.5c11.333 4.66699 19.333 10.667 24 18s7 17.333 7 30v491c0 12 -1.66699 21.833 -5 29.5s-12 14.5 -26 20.5c-10.667 4.66699 -22.667 8.33398 -36 11.001s-24.666 4.33398 -33.999 5.00098v33h342c20.667 0 41.167 -1.83301 61.5 -5.5
s41.833 -11.167 64.5 -22.5c20.667 -10.667 37.5 -24.5 50.5 -41.5s19.5 -39.5 19.5 -67.5c0 -56 -17.167 -95.833 -51.5 -119.5s-74.833 -41.834 -121.5 -54.501v-9c20.667 -2 41.5 -6 62.5 -12s43.833 -17 68.5 -33zM465.997 524.999
c0 49.333 -13.832 81.833 -41.499 97.5s-56.834 23.5 -87.501 23.5c-10 0 -23.833 -0.333008 -41.5 -1s-31.167 -1 -40.5 -1v-264h62c54.667 0 93.167 13.667 115.5 41s33.5 62 33.5 104zM468.998 89.999c12 18 20 35.501 24 52.501s6 37.167 6 60.5
c0 41.333 -13.167 75 -39.5 101s-66.166 39 -119.499 39c-10 0 -24.167 -0.333008 -42.5 -1s-32.5 -1 -42.5 -1v-244c3.33301 -22.667 12.333 -38.334 27 -47.001s37 -13 67 -13s54.667 4.83301 74 14.5s34.666 22.5 45.999 38.5z" />
    <glyph glyph-name="C" unicode="C" 
d="M642 173c-10 -23.333 -22.834 -46.335 -38.501 -69.002s-34.5 -42.667 -56.5 -60s-47.5 -31.5 -76.5 -42.5s-62.833 -16.5 -101.5 -16.5c-98 0 -177.667 31.5 -239 94.5s-92 147.5 -92 253.5c0 102.667 33.667 188.834 101 258.501s151 104.5 251 104.5
c27.333 0 55.5 -5.5 84.5 -16.5s51.167 -23.5 66.5 -37.5l30 51h41l4 -255h-34c-18 56.667 -43.667 107.334 -77 152.001s-82 67 -146 67c-51.333 0 -97.666 -24.667 -138.999 -74s-62 -130 -62 -242c0 -85.333 23.5 -155.833 70.5 -211.5s103.5 -83.5 169.5 -83.5
c60.667 0 106.5 13.667 137.5 41s55.5 61.333 73.5 102z" />
    <glyph glyph-name="D" unicode="D" horiz-adv-x="781" 
d="M608 613c38.667 -26.667 70.8301 -61.6709 96.4971 -105.004s38.5 -100.333 38.5 -171c0 -57.333 -11.5 -107.666 -34.5 -150.999s-52.833 -78.333 -89.5 -105c-38.667 -28 -80.667 -48.5 -126 -61.5s-93 -19.5 -143 -19.5h-306v33c9.33301 0 22.333 0.833008 39 2.5
s28.334 3.83398 35.001 6.50098c11.333 4.66699 19.333 10.834 24 18.501s7 17.834 7 30.501v493c0 12 -1.66699 22 -5 30s-12 15 -26 21c-10 4.66699 -22.333 8.16699 -37 10.5s-25.667 3.83301 -33 4.5v33h322c36.667 0 75.334 -4.83301 116.001 -14.5
s81.334 -28.167 122.001 -55.5zM619.996 337.996c0 90 -25.499 163.667 -76.499 221s-118.167 86 -201.5 86c-13.333 0 -29 -0.333008 -47 -1s-31.333 -1 -40 -1v-527c2.66699 -24.667 11.667 -43.667 27 -57s42.666 -20 81.999 -20c86.667 0 151 27 193 81
s63 126.667 63 218z" />
    <glyph glyph-name="E" unicode="E" horiz-adv-x="668" 
d="M644 202l-13.001 -202.002h-592v33c9.33301 0.666992 23.166 2 41.499 4s30.833 4.33301 37.5 7c11.333 4.66699 19.333 10.834 24 18.501s7 17.834 7 30.501v491c0 11.333 -1.83301 21 -5.5 29s-12.167 14.667 -25.5 20c-11.333 4.66699 -24.833 8.5 -40.5 11.5
s-28.5 4.83301 -38.5 5.5v33h551v-165h-37c-6 23.333 -19.667 49 -41 77s-43.333 43.667 -66 47c-10.667 1.33301 -22.667 2.33301 -36 3s-29 1 -47 1h-108v-273h80c28 0 47.833 3.83301 59.5 11.5s19.834 14.167 24.501 19.5c8 8.66699 14.833 21.667 20.5 39
s9.16699 33.333 10.5 48h37v-279h-37c-1.33301 16 -5.16602 33.5 -11.499 52.5s-12.833 32.167 -19.5 39.5s-15.667 14.333 -27 21s-30.333 10 -57 10h-80v-205c0 -42 6.83301 -67.667 20.5 -77s46.5 -14 98.5 -14c22 0 50.833 1.16699 86.5 3.5s58.167 8.83301 67.5 19.5
c14.667 16 30.667 39.5 48 70.5s28.333 54.167 33 69.5h35z" />
    <glyph glyph-name="F" unicode="F" horiz-adv-x="614" 
d="M597 511l-36.999 0.000976562c-6 23.333 -19.667 50.166 -41 80.499s-43.333 47.166 -66 50.499c-10.667 1.33301 -22.667 2.33301 -36 3s-29 1 -47 1h-115v-276h82c24.667 0 44.5 3.83301 59.5 11.5s24.833 14.167 29.5 19.5c6 6 12.167 17.167 18.5 33.5
s10.5 34.166 12.5 53.499h37v-281h-37c-1.33301 14.667 -4.83301 32 -10.5 52s-12.5 34 -20.5 42c-6.66699 6.66699 -17.334 13.5 -32.001 20.5s-33.667 10.5 -57 10.5h-82v-236c0 -12 2 -21.833 6 -29.5s12.333 -14.167 25 -19.5c6 -2 17.5 -4.83301 34.5 -8.5
s30.833 -5.5 41.5 -5.5v-33h-323v33l41.5 3c18.333 1.33301 30.833 3.33301 37.5 6c11.333 4.66699 19.333 10.834 24 18.501s7 17.834 7 30.501v493c0 11.333 -1.83301 21 -5.5 29s-12.167 14.667 -25.5 20c-11.333 4.66699 -24.833 8.5 -40.5 11.5
s-28.5 4.83301 -38.5 5.5v33h558v-172z" />
    <glyph glyph-name="G" unicode="G" horiz-adv-x="748" 
d="M754 273c-7.33301 -0.666992 -18.1689 -2.00098 -32.502 -4.00098s-27.166 -5 -38.499 -9c-12 -5.33301 -20 -12.666 -24 -21.999s-6 -19.333 -6 -30v-227l-23 -4l-52 58c-33.333 -12 -68.333 -23.333 -105 -34s-79.334 -16 -128.001 -16
c-35.333 0 -71.5 7.33301 -108.5 22s-70.167 36.334 -99.5 65.001c-28.667 28 -52.334 64 -71.001 108s-28 92.667 -28 146c0 102.667 36.167 190 108.5 262s161.833 108 268.5 108c26 0 55.167 -5.33301 87.5 -16s56.5 -23.334 72.5 -38.001l32 51h39l5 -250h-33
c-17.333 54 -45 103 -83 147s-91 66 -159 66c-57.333 0 -107.666 -27.333 -150.999 -82s-65 -135 -65 -241c0 -88.667 22 -161.834 66 -219.501s96.667 -86.5 158 -86.5c54 0 95.333 11.167 124 33.5s44.334 49.833 47.001 82.5v56c0 12.667 -2.16699 24.334 -6.5 35.001
s-13.166 18.667 -26.499 24c-12.667 4.66699 -30 8.16699 -52 10.5s-37.667 3.83301 -47 4.5v34h331v-34z" />
    <glyph glyph-name="H" unicode="H" horiz-adv-x="855" 
d="M807 0l-310.003 -0.00292969v33l37.5 3c16.333 1.33301 27.833 3.33301 34.5 6c11.333 4.66699 19.333 10.834 24 18.501s7 17.834 7 30.501v244h-345v-239c0 -12 2 -21.833 6 -29.5s12.333 -14.167 25 -19.5c5.33301 -2 16.333 -4.83301 33 -8.5s29.667 -5.5 39 -5.5
v-33h-310v33c8.66699 0.666992 20.834 1.66699 36.501 3s26.834 3.33301 33.501 6c11.333 4.66699 19.333 10.834 24 18.501s7 17.834 7 30.501v493c0 12 -1.66699 21.667 -5 29s-12 14 -26 20c-10 4 -21.833 7.66699 -35.5 11s-25.167 5.33301 -34.5 6v33h310v-33
c-8.66699 0 -20.5 -1.33301 -35.5 -4s-27.167 -5.33398 -36.5 -8.00098c-13.333 -4 -21.833 -10.667 -25.5 -20s-5.5 -19 -5.5 -29v-212h345v207c0 12 -1.83301 21.667 -5.5 29s-12.167 14 -25.5 20c-10 4 -22.167 7.66699 -36.5 11s-26.166 5.33301 -35.499 6v33h310v-33
c-7.33301 0 -19 -1.5 -35 -4.5s-27.667 -5.5 -35 -7.5c-13.333 -4 -21.833 -10.667 -25.5 -20s-5.5 -19 -5.5 -29v-493c0 -12 2 -21.667 6 -29s12.333 -14 25 -20c5.33301 -2.66699 15.833 -5.66699 31.5 -9s28.5 -5 38.5 -5v-33z" />
    <glyph glyph-name="I" unicode="I" horiz-adv-x="408" 
d="M361 0h-314.003v33l38 3c16.667 1.33301 28.334 3.33301 35.001 6c11.333 4.66699 19.333 10.667 24 18s7 17.333 7 30v495c0 11.333 -1.83301 20.833 -5.5 28.5s-12.167 14.167 -25.5 19.5c-10.667 4 -23.167 7.66699 -37.5 11s-26.166 5.33301 -35.499 6v33h314v-33
c-8.66699 0 -20.667 -1.33301 -36 -4s-27.666 -5.33398 -36.999 -8.00098c-13.333 -4 -21.833 -10.5 -25.5 -19.5s-5.5 -18.5 -5.5 -28.5v-495c0 -12 2 -21.667 6 -29s12.333 -13.666 25 -18.999c6 -2 17.167 -4.83301 33.5 -8.5s29.5 -5.5 39.5 -5.5v-33z" />
    <glyph glyph-name="J" unicode="J" horiz-adv-x="496" 
d="M469 650c-8.66699 0 -21 -1.33301 -37 -4s-29 -5.33398 -39 -8.00098c-13.333 -4 -21.833 -10.667 -25.5 -20s-5.5 -19 -5.5 -29v-403c0 -16.667 -5 -37.5 -15 -62.5s-23.667 -47.167 -41 -66.5c-20 -21.333 -43 -39 -69 -53s-58.667 -21 -98 -21
c-52.667 0 -88.834 10.833 -108.501 32.5s-29.5 42.167 -29.5 61.5c0 20 6.33301 37 19 51s29.334 21 50.001 21c20 0 35.833 -6 47.5 -18s17.5 -27.333 17.5 -46c0 -11.333 -3 -22.666 -9 -33.999s-16.667 -21 -32 -29v-5c2 0 5 -0.333008 9 -1s7 -1 9 -1
c32.667 0 59 5.83301 79 17.5s34.333 26.834 43 45.501c9.33301 19.333 15.333 40.666 18 63.999s4 49 4 77v365c0 12 -1.66699 21.5 -5 28.5s-12 13.833 -26 20.5c-9.33301 4.66699 -23 8.5 -41 11.5s-31.333 4.83301 -40 5.5v33h325v-33z" />
    <glyph glyph-name="K" unicode="K" horiz-adv-x="740" 
d="M772 0l-366.002 -0.00292969v33c20 1.33301 41 4.16602 63 8.49902s33 12.5 33 24.5c0 9.33301 -9.16699 25.833 -27.5 49.5s-39.833 48.834 -64.5 75.501l-81 85.5l-58 58.5h-16v-239c0 -12 2 -21.833 6 -29.5s12.333 -14.167 25 -19.5
c5.33301 -2 16.333 -4.83301 33 -8.5s29.667 -5.5 39 -5.5v-33h-310v33c8.66699 0.666992 20.834 1.66699 36.501 3s26.834 3.33301 33.501 6c11.333 4.66699 19.333 10.834 24 18.501s7 17.834 7 30.501v493c0 12 -1.66699 21.667 -5 29s-12 14 -26 20
c-10 4 -21.833 7.66699 -35.5 11s-25.167 5.33301 -34.5 6v33h310v-33c-8.66699 0 -20.5 -1.33301 -35.5 -4s-27.167 -5.33398 -36.5 -8.00098c-13.333 -4 -21.833 -10.667 -25.5 -20s-5.5 -19 -5.5 -29v-235h6c64 52 121.5 104.167 172.5 156.5s76.5 90.5 76.5 114.5
c0 10.667 -11.5 17.334 -34.5 20.001s-37.833 4.33398 -44.5 5.00098v33h288v-33c-4 0 -11.833 -0.5 -23.5 -1.5s-24.167 -2.5 -37.5 -4.5c-15.333 -2.66699 -29 -6.33398 -41 -11.001s-23.667 -12.667 -35 -24l-105 -113c-29.333 -32.667 -68 -69.667 -116 -111l131 -137.5
c32 -34.333 71 -79.166 117 -134.499c12.667 -15.333 27.5 -29 44.5 -41s32.5 -20.667 46.5 -26c7.33301 -3.33301 19.333 -6.33301 36 -9s28.667 -4 36 -4v-33z" />
    <glyph glyph-name="L" unicode="L" horiz-adv-x="631" 
d="M632 204l-14.999 -204.002h-571v33c8.66699 0.666992 21.167 1.83398 37.5 3.50098s27.833 3.83398 34.5 6.50098c11.333 4.66699 19.333 11 24 19s7 18.333 7 31v489c0 12 -1.5 21.667 -4.5 29s-11.833 14.333 -26.5 21c-10.667 4.66699 -22.834 8.66699 -36.501 12
s-25.5 5.33301 -35.5 6v33h313v-33c-8 0 -19.833 -1.5 -35.5 -4.5s-28.167 -5.83301 -37.5 -8.5c-13.333 -4 -21.833 -11.167 -25.5 -21.5s-5.5 -19.833 -5.5 -28.5v-458c0 -43.333 5.83301 -69.5 17.5 -78.5s45.5 -13.5 101.5 -13.5c20 0 45.833 2 77.5 6
s51.5 10.667 59.5 20c13.333 15.333 30 38.5 50 69.5s32.333 54.833 37 71.5h34z" />
    <glyph glyph-name="M" unicode="M" horiz-adv-x="966" 
d="M923 0l-330.002 0.00390625v33l44.5 3.5c21 1.66699 35.167 4.5 42.5 8.5c12.667 7.33301 21.334 14.5 26.001 21.5s7 16.833 7 29.5v494l-255 -579h-24c-5.33301 17.333 -13 38.833 -23 64.5l-30 74.5l-189 454v-404c0 -41.333 2.83301 -72.166 8.5 -92.499
s14.167 -35.166 25.5 -44.499c8.66699 -6.66699 24.834 -13.334 48.501 -20.001s40.167 -10 49.5 -10v-33h-305v33c9.33301 1.33301 24 3.16602 44 5.49902s36.333 8.5 49 18.5s21.334 23.667 26.001 41s7 49.666 7 96.999v346c0 19.333 -2.5 35.666 -7.5 48.999
s-12.833 24.333 -23.5 33c-12 9.33301 -26.333 16 -43 20s-32.334 6.33301 -47.001 7v33h240l218 -508l186 423c8.66699 21.333 14.667 39.666 18 54.999s5 25.333 5 30h231v-33c-8.66699 0 -20.667 -1.33301 -36 -4s-28 -5.33398 -38 -8.00098
c-13.333 -4 -21.833 -10.667 -25.5 -20s-5.5 -19 -5.5 -29v-493c0 -12 2 -21.667 6 -29s12.333 -14 25 -20c5.33301 -2.66699 17 -5.66699 35 -9s31.333 -5 40 -5v-33z" />
    <glyph glyph-name="N" unicode="N" horiz-adv-x="798" 
d="M802 650c-9.33301 0 -24.833 -2.83691 -46.5 -8.50391s-36.834 -10.834 -45.501 -15.501c-14 -8 -23 -24.167 -27 -48.5s-6 -52.833 -6 -85.5v-499h-42l-443 558v-350c0 -41.333 2.83301 -72.166 8.5 -92.499s14.167 -35.166 25.5 -44.499
c8.66699 -6.66699 25.667 -13.5 51 -20.5s42.666 -10.5 51.999 -10.5v-33h-310v33c10.667 0.666992 27.834 4.33398 51.501 11.001s37.5 11.667 41.5 15c12.667 10 21.334 23.167 26.001 39.5s7 48.833 7 97.5v332c0 14.667 -2.66699 29.334 -8 44.001
s-13.333 26.334 -24 35.001c-12.667 10 -30.167 19.5 -52.5 28.5s-40.5 13.833 -54.5 14.5v33h211l413 -520v323c0 39.333 -2.83301 69.833 -8.5 91.5s-14.167 36.167 -25.5 43.5c-10.667 6.66699 -27.167 13 -49.5 19s-39.833 9.33301 -52.5 10v33h308v-33z" />
    <glyph glyph-name="O" unicode="O" horiz-adv-x="777" 
d="M738 346c0 -50 -8.49805 -98.499 -25.498 -145.499s-43.167 -87.167 -78.5 -120.5c-36 -32.667 -74.333 -56.834 -115 -72.501s-85.334 -23.5 -134.001 -23.5c-45.333 0 -88.333 8 -129 24s-77.334 39.333 -110.001 70c-33.333 31.333 -59.5 68.333 -78.5 111
s-28.5 91 -28.5 145c0 55.333 8 104.333 24 147s40.333 80.667 73 114c32 32.667 69.5 58.167 112.5 76.5s89.833 27.5 140.5 27.5c48 0 92.667 -8 134 -24s81.333 -42.667 120 -80c29.333 -29.333 52.5 -65.833 69.5 -109.5s25.5 -90.167 25.5 -139.5zM617.002 343.001
c0 38 -4.16699 76.501 -12.5 115.501s-21.5 72.5 -39.5 100.5c-18.667 30 -42.167 53.833 -70.5 71.5s-63.5 26.5 -105.5 26.5c-71.333 0 -127.333 -27.833 -168 -83.5s-61 -133.834 -61 -234.501c0 -94 20.167 -169.667 60.5 -227s96.5 -86 168.5 -86
c76 0 133 30.167 171 90.5s57 135.833 57 226.5z" />
    <glyph glyph-name="P" unicode="P" horiz-adv-x="623" 
d="M591 519c0 -71.333 -26.832 -124.338 -80.499 -159.005s-112.834 -52 -177.501 -52h-78v-215c0 -12 1.83301 -22.167 5.5 -30.5s12.167 -14.833 25.5 -19.5c6 -2 17.333 -4.16699 34 -6.5s31.667 -3.5 45 -3.5v-33h-319v33c8.66699 0.666992 21.167 1.83398 37.5 3.50098
s27.833 3.83398 34.5 6.50098c11.333 4.66699 19.333 11 24 19s7 18.333 7 31v493c0 10.667 -2 20.834 -6 30.501s-12.333 16.5 -25 20.5c-14.667 4.66699 -28.5 7.83398 -41.5 9.50098s-24.5 2.83398 -34.5 3.50098v33h335c58.667 0 109 -14.5 151 -43.5
s63 -69.167 63 -120.5zM440.001 402.995c10 14.667 17.001 29.832 21.001 45.499s6 30.834 6 45.501c0 37.333 -9.83301 71.833 -29.5 103.5s-57.834 47.5 -114.501 47.5h-68v-297h49c36 0 65 5.5 87 16.5s38.333 23.833 49 38.5z" />
    <glyph glyph-name="Q" unicode="Q" horiz-adv-x="785" 
d="M858 -16c-13.333 -20 -38.999 -46.834 -76.999 -80.501s-81.667 -50.5 -131 -50.5c-38 0 -74.667 9.83301 -110 29.5s-61 58.167 -77 115.5c-11.333 -3.33301 -23.666 -6.33301 -36.999 -9s-27 -4 -41 -4c-45.333 0 -88.333 7.83301 -129 23.5
s-77.334 38.834 -110.001 69.501c-33.333 31.333 -59.5 68.333 -78.5 111s-28.5 91 -28.5 145c0 55.333 8 104.333 24 147s40.333 80.667 73 114c32 32.667 69.5 58.167 112.5 76.5s89.833 27.5 140.5 27.5c48 0 92.667 -8 134 -24s81.333 -42.667 120 -80
c29.333 -29.333 52.5 -65.833 69.5 -109.5s25.5 -90.167 25.5 -139.5c0 -61.333 -13.833 -118 -41.5 -170s-71.5 -95.333 -131.5 -130c10.667 -50 32.167 -82.833 64.5 -98.5s61.833 -23.5 88.5 -23.5c22.667 0 44.667 9.83301 66 29.5s36.666 37.167 45.999 52.5z
M617.001 342.999c0 38 -4.16699 76.5 -12.5 115.5s-21.5 72.5 -39.5 100.5c-18.667 30 -42.167 53.833 -70.5 71.5s-63.5 26.5 -105.5 26.5c-71.333 0 -127.333 -27.833 -168 -83.5s-61 -133.834 -61 -234.501c0 -48 4.83301 -92 14.5 -132s25.5 -74.333 47.5 -103
c17.333 44 41.833 74.167 73.5 90.5s62.5 24.5 92.5 24.5c38 0 71.833 -12.667 101.5 -38s50.167 -55.666 61.5 -90.999c24 28.667 41 64 51 106s15 91 15 147zM457.001 29.999c-4.66699 52 -16 87.833 -34 107.5s-42.333 29.5 -73 29.5
c-10.667 0 -26.334 -4.16699 -47.001 -12.5s-37.667 -33.5 -51 -75.5c18.667 -20 38.667 -34.333 60 -43s47 -13 77 -13c10.667 0 22.834 0.833008 36.501 2.5s24.167 3.16699 31.5 4.5z" />
    <glyph glyph-name="R" unicode="R" horiz-adv-x="724" 
d="M744 0h-218.999c-8.66699 42 -17.5 78.667 -26.5 110s-19.167 60.666 -30.5 87.999c-14 35.333 -36 65.666 -66 90.999s-62 38 -96 38h-51v-234c0 -12 1.83301 -22.167 5.5 -30.5s12.167 -14.833 25.5 -19.5c6 -2 17.5 -4.16699 34.5 -6.5s30.833 -3.5 41.5 -3.5v-33
h-316v33c8.66699 0.666992 21.167 1.83398 37.5 3.50098s27.833 3.83398 34.5 6.50098c11.333 4.66699 19.333 11 24 19s7 18.333 7 31v494c0 10.667 -2 20.667 -6 30s-12.333 16 -25 20c-10 3.33301 -22.167 6.16602 -36.5 8.49902s-26.166 3.83301 -35.499 4.5v33h348
c49.333 0 96.5 -12.333 141.5 -37s67.5 -64.334 67.5 -119.001c0 -54 -18.667 -93 -56 -117s-82.333 -43 -135 -57v-10c29.333 -6.66699 60.666 -19.667 93.999 -39s57.666 -48.666 72.999 -87.999c7.33301 -19.333 15.5 -42.166 24.5 -68.499s14.5 -42.833 16.5 -49.5
c8 -24.667 18.5 -40 31.5 -46s23.5 -9.66699 31.5 -11l31.5 -5c13 -2 22.833 -3 29.5 -3v-33zM480.001 517c0 45.333 -13.5 78 -40.5 98s-59.5 30 -97.5 30h-87v-279h64c45.333 0 83.5 13.333 114.5 40s46.5 63.667 46.5 111z" />
    <glyph glyph-name="S" unicode="S" horiz-adv-x="559" 
d="M521 195c0 -60.667 -22.5 -110.501 -67.5 -149.501s-99.5 -58.5 -163.5 -58.5c-38.667 0 -72.667 5.16699 -102 15.5s-51.666 21.833 -66.999 34.5l-35 -47h-34l-7 244h33c20 -52 46.667 -99.333 80 -142s81 -64 143 -64c44 0 75.5 10.833 94.5 32.5
s28.5 50.834 28.5 87.501c0 26.667 -7.83301 51.167 -23.5 73.5s-38.834 39.833 -69.501 52.5c-32.667 13.333 -56.667 22.833 -72 28.5s-39 15.834 -71 30.501c-40 18 -70.5 40.833 -91.5 68.5s-31.5 64.167 -31.5 109.5c0 52.667 20 96.667 60 132s88.333 53 145 53
c26 0 53 -5 81 -15s50.667 -21.667 68 -35l34 47h34l5 -237h-32c-20 56.667 -43.833 104 -71.5 142s-72.5 57 -134.5 57c-14 0 -34 -6.5 -60 -19.5s-39 -38.5 -39 -76.5c0 -28 7 -51.333 21 -70s35 -35.667 63 -51c26 -14 49.333 -24.333 70 -31s42.667 -15.667 66 -27
c43.333 -19.333 78.5 -41.333 105.5 -66s40.5 -64.334 40.5 -119.001z" />
    <glyph glyph-name="T" unicode="T" horiz-adv-x="644" 
d="M635 499l-33.998 0.00195312c-6 23.333 -19.833 52.166 -41.5 86.499s-43.834 53.166 -66.501 56.499c-10.667 1.33301 -23.167 2.33301 -37.5 3s-28.833 1 -43.5 1h-37v-547c0 -12 2 -22 6 -30s12.333 -14.667 25 -20c2.66699 -1.33301 7.66699 -2.83301 15 -4.5
l24 -5.5l24 -4c8 -1.33301 14.333 -2 19 -2v-33h-332v33c9.33301 0.666992 23.666 2 42.999 4s32.333 4.33301 39 7c11.333 4.66699 19.333 11 24 19s7 18.333 7 31v552h-37c-10 0 -22.5 -0.333008 -37.5 -1s-29.5 -1.66699 -43.5 -3
c-21.333 -2.66699 -43.333 -22.167 -66 -58.5s-36.667 -64.5 -42 -84.5h-34v184h626v-184z" />
    <glyph glyph-name="U" unicode="U" horiz-adv-x="798" 
d="M789 650c-10 0 -24.665 -2.00195 -43.998 -6.00195s-35.333 -9.66699 -48 -17c-12 -6.66699 -20.5 -21.834 -25.5 -45.501s-7.5 -52.834 -7.5 -87.501v-294c0 -40.667 -8.83301 -75.167 -26.5 -103.5s-39.167 -50.166 -64.5 -65.499c-28 -17.333 -56.333 -29.5 -85 -36.5
s-56.667 -10.5 -84 -10.5c-86 0 -152.167 19.5 -198.5 58.5s-69.5 84.833 -69.5 137.5v404c0 11.333 -2.16699 20.833 -6.5 28.5s-12.5 14.834 -24.5 21.501c-9.33301 4.66699 -21.333 8.33398 -36 11.001s-26 4.33398 -34 5.00098v33h311v-33
c-8.66699 0 -20.5 -1.33301 -35.5 -4s-27.167 -5.33398 -36.5 -8.00098c-13.333 -4 -21.833 -10.667 -25.5 -20s-5.5 -19 -5.5 -29v-379c0 -19.333 2 -38.666 6 -57.999s12.667 -38 26 -56c13.333 -17.333 31.166 -31.5 53.499 -42.5s54.166 -16.5 95.499 -16.5
c38 0 70 5.83301 96 17.5s46 26.834 60 45.501c12.667 16.667 21.834 34.334 27.501 53.001s8.5 39 8.5 61v274c0 35.333 -2.83301 64.666 -8.5 87.999s-14.167 38.666 -25.5 45.999c-12.667 8 -29.834 14.5 -51.501 19.5s-38.5 7.83301 -50.5 8.5v33h309v-33z" />
    <glyph glyph-name="V" unicode="V" horiz-adv-x="683" 
d="M709 650c-8.66699 0 -19.499 -1.99805 -32.499 -5.99805s-23.833 -8.33301 -32.5 -13c-14.667 -8 -25.5 -17.333 -32.5 -28s-13.5 -22.334 -19.5 -35.001l-105 -244l-140 -332h-42l-129.5 359l-84.5 233c-4 10.667 -9.83301 20 -17.5 28s-16.834 15 -27.501 21
c-10 5.33301 -21 9.33301 -33 12s-23 4.33398 -33 5.00098v33h310v-33c-16 -0.666992 -36.167 -2.83398 -60.5 -6.50098s-36.5 -10.167 -36.5 -19.5c0 -3.33301 0.5 -7.33301 1.5 -12s2.16699 -9 3.5 -13l19.5 -54l38.5 -106l50.5 -139l57.5 -157l89 209.5
c33.333 77.667 56.333 132.834 69 165.501c12.667 33.333 19.667 55.166 21 65.499s2 18.166 2 23.499c0 14 -13.333 24.167 -40 30.5s-51.667 10.5 -75 12.5v33h279v-33z" />
    <glyph glyph-name="W" unicode="W" horiz-adv-x="1000" 
d="M1022 650c-8.66699 0 -19.5 -1.99902 -32.5 -5.99902s-23.833 -8.33301 -32.5 -13c-13.333 -7.33301 -23.833 -15.833 -31.5 -25.5s-14.5 -22.167 -20.5 -37.5l-91 -251.5l-114 -324.5h-41l-84.5 275.5l-74.5 233.5l-186 -509h-43l-107.5 352l-73.5 240
c-3.33301 11.333 -7.66602 20.333 -12.999 27s-14.333 14 -27 22c-10 5.33301 -20.833 9.33301 -32.5 12s-22.5 4.33398 -32.5 5.00098v33h305v-33c-16 -0.666992 -36.5 -2.83398 -61.5 -6.50098s-37.5 -10.167 -37.5 -19.5c0 -2.66699 0.5 -6.83398 1.5 -12.501
s1.83301 -9.83398 2.5 -12.501l45 -146l91 -291l147 399c0 16 -2.33301 30 -7 42s-15.667 22.333 -33 31c-8.66699 4.66699 -21.667 8.33398 -39 11.001s-31.666 4.33398 -42.999 5.00098v33h311v-33c-14.667 -0.666992 -34.334 -3 -59.001 -7s-37 -10.333 -37 -19
c0 -3.33301 0.5 -7.5 1.5 -12.5l2.5 -12.5c3.33301 -11.333 8.83301 -28.333 16.5 -51l32.5 -98l43.5 -133l49.5 -151l70.5 202c18.333 53.333 34.166 103 47.499 149c7.33301 26 12.5 45.167 15.5 57.5s4.5 23.166 4.5 32.499c0 15.333 -12.167 25.833 -36.5 31.5
s-47.833 9.5 -70.5 11.5v33h274v-33z" />
    <glyph glyph-name="X" unicode="X" horiz-adv-x="764" 
d="M768 0l-364.997 -0.00390625v33c23.333 1.33301 46.333 2.5 69 3.5s34 10.833 34 29.5c0 16 -17.333 47.5 -52 94.5l-99 135.5c-31.333 -37.333 -66.5 -82.5 -105.5 -135.5s-58.5 -84.5 -58.5 -94.5c0 -16 10.5 -25.333 31.5 -28s40.833 -4.33398 59.5 -5.00098v-33h-285
v33c10 0.666992 21.667 1.83398 35 3.50098s25.333 4.83398 36 9.50098c18.667 8.66699 34.167 17.834 46.5 27.501s25.166 22.834 38.499 39.501l81 101l92 117l-89 124l-87 117c-12 16 -23.333 28.667 -34 38s-24.667 18.333 -42 27
c-6.66699 3.33301 -18.167 6.16602 -34.5 8.49902s-29.833 3.83301 -40.5 4.5v33h365v-33c-16.667 -0.666992 -37.834 -3 -63.501 -7s-38.5 -12.667 -38.5 -26s13.333 -39.5 40 -78.5l95 -132.5c49.333 60.667 86.166 107.334 110.499 140.001s36.5 56.334 36.5 71.001
c0 14 -10 22.667 -30 26s-40.333 5.66602 -61 6.99902v33h285v-33c-9.33301 0 -21.5 -1.5 -36.5 -4.5s-26.5 -5.83301 -34.5 -8.5c-18 -7.33301 -32.833 -15.666 -44.5 -24.999s-25.167 -23.333 -40.5 -42l-79 -98.5l-78 -98.5l113.5 -156l77.5 -104
c9.33301 -12 20 -23.5 32 -34.5s27 -22.5 45 -34.5c4.66699 -3.33301 15.667 -6 33 -8s31.333 -3 42 -3v-33z" />
    <glyph glyph-name="Y" unicode="Y" horiz-adv-x="627" 
d="M661 650c-6.66699 0 -16.498 -2.33008 -29.498 -6.99707s-22.5 -8.66699 -28.5 -12c-14.667 -8 -25.334 -15.333 -32.001 -22s-15.334 -16.334 -26.001 -29.001c-28 -34.667 -53.833 -73 -77.5 -115l-74.5 -131c-9.33301 -16 -17.5 -35 -24.5 -57
s-10.5 -40.333 -10.5 -55v-123c0 -12.667 2 -22.834 6 -30.501s12.333 -14.167 25 -19.5c2.66699 -1.33301 7.66699 -2.83301 15 -4.5l24 -5.5l24 -4c8 -1.33301 14.333 -2 19 -2v-33h-332v33c9.33301 0.666992 23.666 2 42.999 4s32.333 4.33301 39 7
c11.333 4.66699 19.333 11 24 19s7 18.333 7 31v164c0 10 -2.83301 22.167 -8.5 36.5s-11.5 27.166 -17.5 38.499l-59.5 112l-67.5 121c-11.333 19.333 -22.5 33.833 -33.5 43.5s-21.833 17.834 -32.5 24.501c-10 5.33301 -20.667 9.16602 -32 11.499s-22 3.83301 -32 4.5
v33h322v-33c-14.667 -0.666992 -35.167 -2.5 -61.5 -5.5s-39.5 -9.16699 -39.5 -18.5c0 -2 1 -5.5 3 -10.5s4.66699 -11.167 8 -18.5l14 -27.5l18 -34.5l48 -88l62 -111l114.5 187c30.333 52 45.5 82 45.5 90c0 14.667 -11.167 24 -33.5 28s-45.166 7 -68.499 9v33h260v-33z
" />
    <glyph glyph-name="Z" unicode="Z" horiz-adv-x="628" 
d="M619 215l-23 -215.001h-591v12l462 634h-170c-18.667 0 -34.167 -0.333008 -46.5 -1s-23.833 -2 -34.5 -4c-25.333 -4.66699 -51.666 -24.5 -78.999 -59.5s-46.333 -65.833 -57 -92.5h-34l21 194h539v-12l-462 -634h192c28 0 57.167 2 87.5 6s50.166 10.667 59.499 20
c21.333 20.667 41.5 45.334 60.5 74.001s32.833 54.667 41.5 78h34z" />
    <glyph glyph-name="bracketleft" unicode="[" horiz-adv-x="475" 
d="M415 -136h-335v849h335v-44h-248v-761h248v-44z" />
    <glyph glyph-name="backslash" unicode="\" horiz-adv-x="420" 
d="M398 -199l-50 -13l-313 951l51 13z" />
    <glyph glyph-name="bracketright" unicode="]" horiz-adv-x="475" 
d="M395 -136h-335v44h248v761h-248v44h335v-849z" />
    <glyph glyph-name="asciicircum" unicode="^" horiz-adv-x="540" 
d="M460 456l-23.001 -14l-167 161l-167 -161l-23 14l86 126.5l53 78.5c6.66699 10 13.334 17 20.001 21s17 6 31 6c19.333 0 31.333 -2 36 -6s9.66699 -10 15 -18l58 -87z" />
    <glyph glyph-name="underscore" unicode="_" horiz-adv-x="600" 
d="M605 -157h-610v49h610v-49z" />
    <glyph glyph-name="grave" unicode="`" horiz-adv-x="500" 
d="M358 546l-14.001 -12l-89.5 69.5c-25.667 19 -45.167 33.833 -58.5 44.5s-22.666 19 -27.999 25s-8 16 -8 30c0 10 4 18.833 12 26.5s17.333 11.5 28 11.5c14 0 25 -2.66699 33 -8s17.333 -17 28 -35l42 -69z" />
    <glyph glyph-name="a" unicode="a" horiz-adv-x="498" 
d="M507 119c-2.66699 -47.333 -13.5029 -80.6699 -32.5029 -100.003s-44.833 -29 -77.5 -29c-23.333 0 -41.833 5.33301 -55.5 16s-24.5 27.667 -32.5 51h-3c-19.333 -22 -41.333 -39 -66 -51s-53 -18 -85 -18c-35.333 0 -63.5 9.83301 -84.5 29.5s-31.5 46.5 -31.5 80.5
c0 42.667 10 73.334 30 92.001s42.667 33 68 43c32 12.667 62.667 23.334 92 32.001s55.666 19.334 78.999 32.001v45c0 4.66699 -0.333008 12 -1 22s-4.33398 21.667 -11.001 35c-7.33301 12.667 -15.666 23 -24.999 31s-26 12 -50 12c-16.667 0 -30.5 -2.83301 -41.5 -8.5
s-18.833 -10.834 -23.5 -15.501c0 -7.33301 1.5 -16.833 4.5 -28.5s4.5 -22.834 4.5 -33.501c0 -11.333 -4.83301 -21.5 -14.5 -30.5s-24.167 -13.5 -43.5 -13.5c-16 0 -27.5 5.5 -34.5 16.5s-10.5 23.5 -10.5 37.5c0 29.333 17.833 54.833 53.5 76.5
s72.834 32.5 111.501 32.5c28.667 0 52.334 -1.5 71.001 -4.5s36.334 -10.167 53.001 -21.5s29 -25.5 37 -42.5s12 -44.833 12 -83.5c0 -43.333 -0.833008 -88.666 -2.5 -135.999s-2.5 -78.666 -2.5 -93.999c0 -6 3.33301 -15.667 10 -29s18 -20 34 -20
c12.667 0 21.834 8 27.501 24s8.5 33 8.5 51h32zM308.997 256.996c-50 -14.667 -91.332 -32 -123.999 -52s-49 -50 -49 -90c0 -26 6.16699 -45 18.5 -57s29.166 -18 50.499 -18c25.333 0 45.5 5 60.5 15s28.167 22 39.5 36z" />
    <glyph glyph-name="b" unicode="b" horiz-adv-x="556" 
d="M521 229c0 -68.667 -23.0029 -126.331 -69.0029 -172.998s-98.667 -70 -158 -70c-32.667 0 -61.667 5.16699 -87 15.5s-45.666 19.833 -60.999 28.5l-37 -56l-29 7c1.33301 18 2.33301 43.833 3 77.5s1 69.5 1 107.5v468c0 11.333 -2.16699 22.166 -6.5 32.499
s-11.166 18.5 -20.499 24.5c-6 4 -16.167 7.16699 -30.5 9.5s-26.166 3.83301 -35.499 4.5v30l177 11l7 -7v-325l3 -1c8.66699 10.667 26.667 23.667 54 39s54.333 23 81 23c57.333 0 106.333 -22.333 147 -67s61 -104.334 61 -179.001zM418.997 228.003
c0 48 -10.833 92.499 -32.5 133.499s-57.5 61.5 -107.5 61.5c-24 0 -44.167 -4.16699 -60.5 -12.5s-30.833 -19.5 -43.5 -33.5v-271c4.66699 -14 16.5 -31.667 35.5 -53s44.167 -32 75.5 -32c38 0 69.667 17.833 95 53.5s38 86.834 38 153.501z" />
    <glyph glyph-name="c" unicode="c" horiz-adv-x="450" 
d="M449 107c-20.667 -34.667 -46.833 -63.165 -78.5 -85.498s-69.5 -33.5 -113.5 -33.5c-74 0 -129.667 23.167 -167 69.5s-56 104.833 -56 175.5c0 62 21 117.833 63 167.5s97.333 74.5 166 74.5c52.667 0 92.5 -12 119.5 -36s40.5 -51.333 40.5 -82
c0 -22 -4.5 -38.167 -13.5 -48.5s-23.167 -15.5 -42.5 -15.5c-10 0 -21.833 3.5 -35.5 10.5s-20.5 20.167 -20.5 39.5c0 18.667 2.33301 31.667 7 39s7 14.666 7 21.999c-2.66699 13.333 -9.16699 22.833 -19.5 28.5s-25.166 8.5 -44.499 8.5
c-30.667 0 -59.334 -14.5 -86.001 -43.5s-40 -82.5 -40 -160.5c0 -56.667 13 -103.834 39 -141.501s61.667 -56.5 107 -56.5c32 0 58.667 7.66699 80 23s40.333 37 57 65z" />
    <glyph glyph-name="d" unicode="d" horiz-adv-x="571" 
d="M560 9l-168.002 -11l-7 7v43l-4 1c-12.667 -12.667 -29 -26.167 -49 -40.5s-48 -21.5 -84 -21.5c-58.667 0 -109 22.333 -151 67s-63 105.667 -63 183c0 68.667 23.333 125.5 70 170.5s99.667 67.5 159 67.5c31.333 0 58 -4.16699 80 -12.5s35.667 -13.833 41 -16.5v182
c-1.33301 11.333 -3.66602 22.166 -6.99902 32.499s-9.66602 18.833 -18.999 25.5c-10 6.66699 -23.167 11.334 -39.5 14.001s-32.5 4.66699 -48.5 6v29l198 11l7 -7v-641c0 -11.333 2.83301 -21.333 8.5 -30s11.5 -15 17.5 -19c5.33301 -3.33301 14.5 -5.83301 27.5 -7.5
s23.5 -2.5 31.5 -2.5v-30zM383.998 88v271.998c-6 18 -17.167 35.833 -33.5 53.5s-42.833 26.5 -79.5 26.5c-38 0 -70 -19 -96 -57s-39 -90.333 -39 -157c0 -47.333 11.5 -90.666 34.5 -129.999s60.167 -59 111.5 -59c23.333 0 43.333 5.33301 60 16
s30.667 22.334 42 35.001z" />
    <glyph glyph-name="e" unicode="e" horiz-adv-x="472" 
d="M452 109c-18.667 -36 -44.332 -65.168 -76.999 -87.501s-71 -33.5 -115 -33.5c-76 0 -132.667 24.167 -170 72.5s-56 106.5 -56 174.5c0 60.667 19.5 115.834 58.5 165.501s91.5 74.5 157.5 74.5c68.667 0 117.667 -19.5 147 -58.5s44 -84.833 44 -137.5v-26h-309
c0 -64.667 12.167 -116.5 36.5 -155.5s64.166 -58.5 119.499 -58.5c33.333 0 59.833 7.83301 79.5 23.5s37.5 37.5 53.5 65.5zM345.002 289.999c0 35.333 -6.5 69.332 -19.5 101.999s-38.5 49 -76.5 49c-32 0 -59 -13.667 -81 -41s-34 -64.666 -36 -111.999z" />
    <glyph glyph-name="f" unicode="f" horiz-adv-x="323" 
d="M427 659c0 -9.33301 -4.66602 -20.3359 -13.999 -33.0029s-22.666 -19 -39.999 -19c-11.333 0 -23.833 3.33301 -37.5 10s-20.5 18.334 -20.5 35.001c0 7.33301 1 16.5 3 27.5s3 20.167 3 27.5c-2.66699 2.66699 -6.16699 4.5 -10.5 5.5s-8.83301 1.5 -13.5 1.5
c-32 0 -55.833 -14.167 -71.5 -42.5s-24.834 -81.833 -27.501 -160.5c0 -6.66699 -0.166992 -15.167 -0.5 -25.5s-0.5 -18.833 -0.5 -25.5h124v-44h-124v-330c0 -11.333 2.16699 -20.666 6.5 -27.999s11.166 -12.666 20.499 -15.999
c7.33301 -2.66699 18.166 -5.16699 32.499 -7.5s25.166 -3.5 32.499 -3.5v-31h-254v31c10 0.666992 18 1.16699 24 1.5s12.667 1.83301 20 4.5c10.667 4 17.834 9.83301 21.501 17.5s5.5 16.5 5.5 26.5v335h-100v44h100v21c0 44.667 4.83301 83 14.5 115s27.5 62 53.5 90
c20 22 43.333 37.667 70 47s52.334 14 77.001 14c37.333 0 64.333 -9.33301 81 -28s25 -38.667 25 -60z" />
    <glyph glyph-name="g" unicode="g" horiz-adv-x="513" 
d="M513 426c0 -14.667 -3.5 -26.499 -10.5 -35.499s-17.5 -13.5 -31.5 -13.5c-16 0 -27.167 4.66699 -33.5 14s-9.5 24.666 -9.5 45.999c-18 0 -30.833 -1.66699 -38.5 -5s-15.5 -7.66602 -23.5 -12.999v-3c10.667 -11.333 19.667 -26 27 -44s11 -35 11 -51
c0 -42.667 -17.667 -77.5 -53 -104.5s-74 -40.5 -116 -40.5h-58c-6.66699 -2 -14.167 -7.16699 -22.5 -15.5s-12.5 -17.5 -12.5 -27.5c0 -24.667 12.5 -39 37.5 -43s48.167 -6.33301 69.5 -7c13.333 0 33 -1 59 -3s43.667 -3 53 -3c29.333 -1.33301 58 -13.833 86 -37.5
s42 -56.834 42 -99.501c0 -47.333 -19.5 -86.833 -58.5 -118.5s-103.167 -47.5 -192.5 -47.5c-76.667 0 -132.167 10.833 -166.5 32.5s-51.5 52.5 -51.5 92.5c0 30 10.5 55.167 31.5 75.5s58.833 31.5 113.5 33.5v7c-19.333 6 -39.5 15.167 -60.5 27.5
s-31.5 32.5 -31.5 60.5c0 24 8.5 42.333 25.5 55s34.5 22.667 52.5 30v6c-32 14.667 -57 32.834 -75 54.501s-27 47.5 -27 77.5c0 46 17.5 82.333 52.5 109s77.167 40 126.5 40c33.333 0 63 -5 89 -15s41.333 -15 46 -15c14 9.33301 28.833 16.666 44.5 21.999
s35.167 8 58.5 8c12 0 22.833 -4.66699 32.5 -14s14.5 -21 14.5 -35zM311 323.001c0 31.333 -6.5 59 -19.5 83s-35.167 36 -66.5 36c-32 0 -53.667 -11.667 -65 -35s-17 -50.333 -17 -81c0 -34 7.66699 -62 23 -84s35.333 -33 60 -33c29.333 0 50.833 11.5 64.5 34.5
s20.5 49.5 20.5 79.5zM409 -78.999c0 12.667 -1.66895 25.334 -5.00195 38.001s-18.666 23 -45.999 31c-9.33301 1.33301 -28.166 2.83301 -56.499 4.5s-61.166 2.5 -98.499 2.5c-36 -6.66699 -61.333 -18.334 -76 -35.001s-22 -39 -22 -67
c0 -20.667 10.667 -40.167 32 -58.5s60.666 -27.5 117.999 -27.5c48.667 0 86.5 9 113.5 27s40.5 46.333 40.5 85z" />
    <glyph glyph-name="h" unicode="h" horiz-adv-x="580" 
d="M557 0l-236.001 0.000976562v31c10 0.666992 18.5 1.16699 25.5 1.5s14.167 1.83301 21.5 4.5c10.667 4 17.834 9.83301 21.501 17.5s5.5 16.5 5.5 26.5v231c0 33.333 -8.33301 59.5 -25 78.5s-36 28.5 -58 28.5c-36 0 -64.333 -8.83301 -85 -26.5s-34 -32.5 -40 -44.5
v-262c0 -10.667 2.16699 -19.667 6.5 -27s11.166 -13 20.499 -17c6 -2.66699 13.333 -5.16699 22 -7.5s17 -3.5 25 -3.5v-31h-236v31c10 0.666992 18 1.16699 24 1.5s12.667 1.83301 20 4.5c10.667 4 17.834 9.83301 21.501 17.5s5.5 16.5 5.5 26.5v553
c-1.33301 11.333 -3.83301 22.166 -7.5 32.499s-10.167 18.833 -19.5 25.5c-6 4 -16.167 7 -30.5 9s-26.5 3.33301 -36.5 4v30l178 11l7 -7v-346h2c15.333 16 37.5 33.667 66.5 53s61.5 29 97.5 29c46 0 79.833 -14.333 101.5 -43s32.5 -67 32.5 -115v-232
c0 -10.667 2 -19.667 6 -27s10.667 -13 20 -17l20 -7c6 -2 14 -3 24 -3v-31z" />
    <glyph glyph-name="i" unicode="i" horiz-adv-x="291" 
d="M206 658c0 -17.333 -6 -32.499 -18 -45.499s-27 -19.5 -45 -19.5c-17.333 0 -31.833 5.83301 -43.5 17.5s-17.5 26.167 -17.5 43.5s6 32.166 18 44.499s26.333 18.5 43 18.5c18 0 33 -5.66699 45 -17s18 -25.333 18 -42zM268 0.000976562l-233.001 -0.00195312v31
c10 0.666992 18 1.16699 24 1.5s12.667 1.83301 20 4.5c10.667 4 17.834 9.83301 21.501 17.5s5.5 16.5 5.5 26.5v280c-1.33301 11.333 -4.33301 21.333 -9 30s-10.667 15.334 -18 20.001c-6 4 -15 7.5 -27 10.5s-22.667 4.83301 -32 5.5v30l170 11l7 -7v-374
c0 -12 2 -21.667 6 -29s11 -12.666 21 -15.999c6.66699 -2.66699 14 -5.16699 22 -7.5s15.333 -3.5 22 -3.5v-31z" />
    <glyph glyph-name="j" unicode="j" horiz-adv-x="290" 
d="M216 658c0 -17.333 -6 -32.499 -18 -45.499s-27 -19.5 -45 -19.5c-17.333 0 -31.833 5.83301 -43.5 17.5s-17.5 26.167 -17.5 43.5s6 32.166 18 44.499s26.333 18.5 43 18.5c18 0 33 -5.66699 45 -17s18 -25.333 18 -42zM209 41.001
c0 -38 -4.83105 -76.001 -14.498 -114.001s-25.834 -68.333 -48.501 -91c-22 -22.667 -42.167 -38.667 -60.5 -48s-41.5 -14 -69.5 -14c-32 0 -57.167 7 -75.5 21s-27.5 32 -27.5 54c0 12 4.83301 23.833 14.5 35.5s23.5 17.5 41.5 17.5
c13.333 0 26.166 -3.83301 38.499 -11.5s18.5 -20.167 18.5 -37.5c0 -8.66699 -1.33301 -17.334 -4 -26.001s-4 -14 -4 -16l4 -1c0.666992 0 1.66699 -0.166992 3 -0.5s2.33301 -0.5 3 -0.5c2 0 4.16699 -0.333008 6.5 -1l3.5 -1c30.667 0 51.667 15 63 45s17 84.667 17 164
v341c-1.33301 11.333 -3.83301 21.333 -7.5 30s-10.167 16.334 -19.5 23.001c-6 4 -18.5 7.83301 -37.5 11.5s-33.833 5.83398 -44.5 6.50098v29l193 11l7 -7v-420z" />
    <glyph glyph-name="k" unicode="k" horiz-adv-x="539" 
d="M548 0l-159.001 -0.00292969c-11.333 37.333 -33 83 -65 137s-63.333 81 -94 81c-14 0 -23.833 -1.83301 -29.5 -5.5s-10.167 -6.83398 -13.5 -9.50098v-117c0 -11.333 2.16699 -20.666 6.5 -27.999s11.166 -12.666 20.499 -15.999
c6.66699 -2.66699 14.5 -5.16699 23.5 -7.5s16.833 -3.5 23.5 -3.5v-31h-236v31c10 0.666992 18 1.16699 24 1.5s12.667 1.83301 20 4.5c10.667 4 17.834 9.83301 21.501 17.5s5.5 16.5 5.5 26.5v552c-1.33301 14 -3.83301 25.5 -7.5 34.5s-10.167 16.833 -19.5 23.5
c-7.33301 5.33301 -18.333 8.83301 -33 10.5s-26 2.83398 -34 3.50098v30l178 11l7 -7v-505l77 73.5c32 30.333 57 55.5 75 75.5l8 11c3.33301 4.66699 5 8.33398 5 11.001c0 8 -6.66699 14 -20 18s-27.333 7 -42 9v30h210v-29c-26.667 -7.33301 -50.167 -16.5 -70.5 -27.5
s-37.166 -21.833 -50.499 -32.5c-14 -11.333 -28.5 -24 -43.5 -38l-48.5 -46c49.333 -22.667 86.833 -56 112.5 -100s47.834 -84 66.501 -120c3.33301 -6 9.16602 -12 17.499 -18s16.833 -10.667 25.5 -14c8 -3.33301 16 -5.33301 24 -6s13 -1 15 -1v-30z" />
    <glyph glyph-name="l" unicode="l" horiz-adv-x="284" 
d="M259 0l-233 0.000976562v31c10 0.666992 18 1.16699 24 1.5s12.667 1.83301 20 4.5c10.667 4 17.834 9.83301 21.501 17.5s5.5 16.5 5.5 26.5v550c-1.33301 12.667 -3.83301 23.667 -7.5 33s-10.167 17.333 -19.5 24c-6 4 -16.833 7.66699 -32.5 11
s-28.167 5.33301 -37.5 6v30l181 11l7 -7v-652c0 -10.667 2.16699 -19.834 6.5 -27.501s11.166 -13.5 20.499 -17.5c6 -2.66699 12.833 -5.16699 20.5 -7.5s15.5 -3.5 23.5 -3.5v-31z" />
    <glyph glyph-name="m" unicode="m" horiz-adv-x="879" 
d="M859 0l-234.999 0.00292969v31c10 0.666992 17.833 1.16699 23.5 1.5s12.167 1.83301 19.5 4.5c10.667 4 17.834 9.83301 21.501 17.5s5.5 16.5 5.5 26.5v232c0 33.333 -8 59.333 -24 78s-35 28 -57 28c-35.333 0 -62.833 -8.83301 -82.5 -26.5
s-32.834 -32.167 -39.501 -43.5v-263c0 -10.667 2 -19.834 6 -27.501s10.667 -13.5 20 -17.5l20 -7c6 -2 14 -3 24 -3v-31h-230v31l22.5 1.5c5 0.333008 11.167 1.83301 18.5 4.5c10.667 4 17.834 9.83301 21.501 17.5s5.5 16.5 5.5 26.5v232c0 33.333 -8 59.333 -24 78
s-35 28 -57 28c-35.333 0 -62.833 -9 -82.5 -27s-32.834 -32.667 -39.501 -44v-261c0 -10.667 2.16699 -19.834 6.5 -27.501s11.166 -13.5 20.499 -17.5c6 -2.66699 13 -5.16699 21 -7.5s16 -3.5 24 -3.5v-31h-234v31c10 0.666992 18 1.16699 24 1.5s12.667 1.83301 20 4.5
c10.667 4 17.834 9.83301 21.501 17.5s5.5 16.5 5.5 26.5v282c-1.33301 11.333 -4.33301 21.166 -9 29.499s-10.667 14.833 -18 19.5c-6 4 -13.667 7.33301 -23 10s-18.666 4.33398 -27.999 5.00098v30l161 11l7 -7v-69h3c17.333 18 38.666 36.333 63.999 55
s57.666 28 96.999 28c31.333 0 58.333 -8.5 81 -25.5s38.667 -37.167 48 -60.5c16.667 16.667 39.5 35.167 68.5 55.5s61.5 30.5 97.5 30.5c46 0 79.5 -15.167 100.5 -45.5s31.5 -69.5 31.5 -117.5v-226c0 -10.667 2 -19.834 6 -27.501s10.667 -13.5 20 -17.5
c7.33301 -2.66699 14.5 -5 21.5 -7s15.5 -3 25.5 -3v-31z" />
    <glyph glyph-name="n" unicode="n" horiz-adv-x="589" 
d="M566 0l-236 -0.000976562v31c10 0.666992 18.5 1.16699 25.5 1.5s14.167 1.83301 21.5 4.5c10.667 4 17.834 9.83301 21.501 17.5s5.5 16.5 5.5 26.5v231c0 33.333 -8.33301 59.5 -25 78.5s-36 28.5 -58 28.5c-36 0 -64.333 -8.83301 -85 -26.5s-34 -32.5 -40 -44.5v-262
c0 -10.667 2.16699 -19.667 6.5 -27s11.166 -13 20.499 -17c6 -2.66699 13.667 -5.16699 23 -7.5s17.333 -3.5 24 -3.5v-31h-236v31c10 0.666992 18 1.16699 24 1.5s12.667 1.83301 20 4.5c10.667 4 17.834 9.83301 21.501 17.5s5.5 16.5 5.5 26.5v280
c-1.33301 11.333 -3.83301 21.333 -7.5 30s-10.167 16.334 -19.5 23.001c-5.33301 4 -13 7 -23 9s-18.667 3.33301 -26 4v30l160 11l7 -7v-68h2c15.333 16 37.166 33.667 65.499 53s60.5 29 96.5 29c46 0 80.167 -14.333 102.5 -43s33.5 -67 33.5 -115v-232
c0 -10.667 2 -19.667 6 -27s10.667 -13 20 -17l20 -7c6 -2 14 -3 24 -3v-31z" />
    <glyph glyph-name="o" unicode="o" horiz-adv-x="528" 
d="M494 236c0 -67.333 -20.5 -125.833 -61.5 -175.5s-98.833 -74.5 -173.5 -74.5c-60 0 -112.667 22 -158 66s-68 103 -68 177c0 72 21.333 131 64 177s99 69 169 69c68 0 123 -22.667 165 -68s63 -102.333 63 -171zM393 235c0 50.667 -9.33203 97.667 -27.999 141
s-52 65 -100 65c-26.667 0 -48.334 -6.5 -65.001 -19.5s-29.667 -28.833 -39 -47.5c-10 -19.333 -17 -41.5 -21 -66.5s-6 -48.5 -6 -70.5c0 -57.333 10.333 -107.833 31 -151.5s54 -65.5 100 -65.5c44 0 76.333 21.333 97 64s31 93 31 151z" />
    <glyph glyph-name="p" unicode="p" horiz-adv-x="568" 
d="M533 227c0 -68.667 -23.002 -125.669 -69.002 -171.002s-98.667 -68 -158 -68c-28 0 -51.333 3 -70 9s-33.667 13.333 -45 22h-4v-154c0 -11.333 2.33301 -21 7 -29s11.667 -13.667 21 -17c8 -2.66699 19.5 -5.66699 34.5 -9s26.5 -5 34.5 -5v-31h-269v31
c10 0.666992 19.833 1.5 29.5 2.5s18.167 2.83301 25.5 5.5c9.33301 3.33301 16 8.83301 20 16.5s6 17.5 6 29.5v504c-1.33301 11.333 -3.66602 20.833 -6.99902 28.5s-9.66602 14.834 -18.999 21.501c-6 4 -14.167 7.16699 -24.5 9.5s-20.5 3.83301 -30.5 4.5v30l164 11
l7 -6v-52l4 -1c8.66699 10.667 26.667 24.334 54 41.001s54.333 25 81 25c57.333 0 106.333 -22.667 147 -68s61 -105.333 61 -180zM430.998 227.998c0 48 -10.833 92.5 -32.5 133.5s-57.5 61.5 -107.5 61.5c-26 0 -47 -5.16699 -63 -15.5s-29.667 -21.833 -41 -34.5v-275
c4.66699 -14.667 16.5 -31 35.5 -49s44.167 -27 75.5 -27c38 0 69.667 17.667 95 53s38 86.333 38 153z" />
    <glyph glyph-name="q" unicode="q" horiz-adv-x="556" 
d="M561 -226l-259.998 0.000976562v31c10 0.666992 20 1.5 30 2.5s18.667 2.83301 26 5.5c10 3.33301 17 9 21 17s6 17.667 6 29v186l-3 1c-12.667 -12.667 -29 -25.5 -49 -38.5s-48 -19.5 -84 -19.5c-58 0 -108.167 22.5 -150.5 67.5s-63.5 105.5 -63.5 181.5
c0 68.667 23.667 125.5 71 170.5s100.666 67.5 159.999 67.5c42 0 74.333 -6.33301 97 -19l52 -29l43 62l26 -4l-5 -86c-2 -34 -3 -63.667 -3 -89v-443c0 -10.667 2.16699 -20.334 6.5 -29.001s11.166 -15 20.499 -19c6 -2.66699 15.5 -5.5 28.5 -8.5
s23.167 -4.83301 30.5 -5.5v-31zM384.002 84.001l0.000976562 278c-6 18 -17.167 35.5 -33.5 52.5s-42.833 25.5 -79.5 25.5c-38 0 -70 -19 -96 -57s-39 -90.333 -39 -157c0 -48.667 11.167 -92.167 33.5 -130.5s59.833 -57.5 112.5 -57.5c24 0 44.167 4.5 60.5 13.5
s30.166 19.833 41.499 32.5z" />
    <glyph glyph-name="r" unicode="r" horiz-adv-x="402" 
d="M398 407c0 -19.333 -4.83203 -35.5029 -14.499 -48.5029s-23.5 -19.5 -41.5 -19.5c-16.667 0 -29.334 3.66699 -38.001 11s-13 19.666 -13 36.999c0 4.66699 1.16699 10.667 3.5 18s3.5 12 3.5 14c-25.333 0 -47 -8.66699 -65 -26s-30.333 -31.666 -37 -42.999v-264
c0 -11.333 2.16699 -20.666 6.5 -27.999s11.166 -12.666 20.499 -15.999c6.66699 -2.66699 17.167 -5.16699 31.5 -7.5s25.5 -3.5 33.5 -3.5v-31h-254v31c10 0.666992 18 1.16699 24 1.5s12.667 1.83301 20 4.5c10.667 4 17.834 9.83301 21.501 17.5s5.5 16.5 5.5 26.5v280
c-1.33301 11.333 -3.83301 21.333 -7.5 30s-10.167 16.334 -19.5 23.001c-5.33301 4 -13 7 -23 9s-18.667 3.33301 -26 4v30l160 11l7 -7v-68h2c20 26.667 42.167 46.667 66.5 60s46.5 20 66.5 20c19.333 0 35.333 -6 48 -18s19 -28 19 -48z" />
    <glyph glyph-name="s" unicode="s" horiz-adv-x="410" 
d="M373 132c0 -45.333 -16.667 -81.002 -50 -107.002s-73.333 -39 -120 -39c-23.333 0 -46.833 4.5 -70.5 13.5s-39.834 18.167 -48.501 27.5l-10 -32h-34l-5 162h32c4.66699 -22.667 20 -51 46 -85s57.333 -51 94 -51c34.667 0 59 7 73 21s21 33.667 21 59
c0 26 -9.16699 45.5 -27.5 58.5s-47.833 25.5 -88.5 37.5c-31.333 9.33301 -62.166 24.833 -92.499 46.5s-45.5 54.167 -45.5 97.5c0 38 13.833 69.833 41.5 95.5s64.5 38.5 110.5 38.5c18.667 0 37.334 -2.16699 56.001 -6.5s34.667 -11.166 48 -20.499l8 28h32l7 -145h-32
c-5.33301 29.333 -17.5 54.833 -36.5 76.5s-46.833 32.5 -83.5 32.5c-26 0 -45.667 -6.16699 -59 -18.5s-20 -27.833 -20 -46.5c0 -28 9.5 -47.667 28.5 -59s48.167 -23.333 87.5 -36c41.333 -13.333 74.666 -30.666 99.999 -51.999s38 -53.333 38 -96z" />
    <glyph glyph-name="t" unicode="t" horiz-adv-x="348" 
d="M345 124c-4 -38.667 -16.5 -70.667 -37.5 -96s-51.167 -38 -90.5 -38c-40 0 -70.333 11.667 -91 35s-31 57.333 -31 102v288h-93v45h95v145h87v-145h135v-45h-134v-275c0 -28.667 4.83301 -51.167 14.5 -67.5s28.5 -24.5 56.5 -24.5c20 0 33.833 8.33301 41.5 25
s12.167 33.667 13.5 51h34z" />
    <glyph glyph-name="u" unicode="u" horiz-adv-x="572" 
d="M549 9l-157.002 -11.002l-7 7v61h-3c-22 -21.333 -41.833 -39.666 -59.5 -54.999s-51.167 -23 -100.5 -23c-46 0 -79.167 15.333 -99.5 46s-30.5 69.667 -30.5 117v212c-1.33301 13.333 -4.33301 23.833 -9 31.5s-10.334 13.834 -17.001 18.501
c-5.33301 4 -13.166 7 -23.499 9s-19.166 3.33301 -26.499 4v30l161 12l7 -7v-317c0 -33.333 7.66699 -59.166 23 -77.499s34 -27.5 56 -27.5c36 0 63.833 9.16699 83.5 27.5s32.167 32.166 37.5 41.499v258c-1.33301 11.333 -3.66602 20.833 -6.99902 28.5
s-9.66602 14.834 -18.999 21.501c-5.33301 4 -14.833 6.5 -28.5 7.5s-25.834 1.83301 -36.501 2.5v30l175 12l7 -7v-364c0.666992 -10.667 3.66699 -20.334 9 -29.001s11 -15 17 -19c5.33301 -3.33301 12.5 -5.83301 21.5 -7.5s17.833 -2.5 26.5 -2.5v-30z" />
    <glyph glyph-name="v" unicode="v" horiz-adv-x="475" 
d="M491 433c-14 -2 -27.833 -7.16992 -41.5 -15.5029s-24.834 -21.833 -33.501 -40.5l-56.5 -132.5l-60.5 -143.5c-7.33301 -16 -13.833 -32 -19.5 -48s-12.167 -36 -19.5 -60h-38l-81.5 202l-77.5 187c-6.66699 14.667 -17 25.834 -31 33.501s-28.333 12.834 -43 15.501v31
h222v-33c-10 0 -22 -1.66699 -36 -5s-21 -8.66602 -21 -15.999l2 -6.5c1.33301 -4.33301 3 -9.16602 5 -14.499c10.667 -28.667 25.334 -66.167 44.001 -112.5l61 -153.5h6l52.5 126.5l48.5 120.5c1.33301 3.33301 2.5 7.66602 3.5 12.999s1.5 10.333 1.5 15
c0 10.667 -9.16699 19 -27.5 25s-31.5 9.66699 -39.5 11v30h180v-29z" />
    <glyph glyph-name="w" unicode="w" horiz-adv-x="742" 
d="M760 432c-14.667 -1.33301 -29.834 -7.16699 -45.501 -17.5s-27.167 -24.5 -34.5 -42.5l-55 -138.5l-53 -134.5c-8 -19.333 -14.833 -37.333 -20.5 -54l-17.5 -52h-31l-62.5 167.5l-59.5 154.5c-14.667 -32 -28.667 -67 -42 -105s-27.333 -75 -42 -111
c-7.33301 -16.667 -14.166 -34 -20.499 -52l-18.5 -54h-33l-85 212.5l-73 175.5c-6 14 -16 25.333 -30 34s-28.333 14 -43 16v31h216v-33c-10 0 -21.333 -1.83301 -34 -5.5s-19 -8.83398 -19 -15.501l2 -6.5c1.33301 -4.33301 3 -9.16602 5 -14.499l43 -108.5l61 -154.5h4
l45.5 117.5c13 32.333 27.833 71.833 44.5 118.5l-5 10.5c-2 4.33301 -5 10.166 -9 17.499c-9.33301 16 -19 26.667 -29 32s-22.333 9 -37 11v31h207v-32c-10.667 0 -22 -1.5 -34 -4.5s-18 -8.16699 -18 -15.5l2 -7.5c1.33301 -5 3 -10.167 5 -15.5l42 -111.5l58 -152.5h4
l49 128.5c11.333 29.667 25.333 69.834 42 120.501c1.33301 4.66699 2.5 9.5 3.5 14.5s1.5 8.83301 1.5 11.5c0 11.333 -9 19.833 -27 25.5s-30.333 8.5 -37 8.5v30h180v-30z" />
    <glyph glyph-name="x" unicode="x" horiz-adv-x="476" 
d="M473 0l-217.002 -0.00292969v31c15.333 1.33301 28.166 3.16602 38.499 5.49902s15.5 6.16602 15.5 11.499c0 2 -1.66699 6 -5 12s-6.33301 11.667 -9 17l-32 48l-48 72c-12.667 -16 -27.167 -35.333 -43.5 -58l-43.5 -60c-3.33301 -4 -5.83301 -8.33301 -7.5 -13
s-2.5 -8 -2.5 -10c0 -9.33301 8.33301 -16 25 -20s28 -6 34 -6v-30h-176v29c28 10.667 48.667 20.834 62 30.501s22.666 18.167 27.999 25.5c8 11.333 21.667 28.5 41 51.5s41 51.167 65 84.5l-52.5 78l-62.5 92c-13.333 19.333 -26 30.833 -38 34.5s-24 5.5 -36 5.5v31h206
v-31c-8.66699 0 -18.5 -0.833008 -29.5 -2.5s-16.5 -4.16699 -16.5 -7.5c0 -2.66699 1 -6 3 -10s4 -7.66699 6 -11l32 -49l47 -71l38 53c8.66699 12 21.334 31 38.001 57c0.666992 2 1.66699 4.83301 3 8.5s2 6.83398 2 9.50098c0 6.66699 -6.66699 11.834 -20 15.501
s-23.333 6.5 -30 8.5v30h173v-29c-25.333 -7.33301 -45.166 -15.666 -59.499 -24.999s-25.166 -18.333 -32.499 -27c-11.333 -13.333 -25.666 -31.666 -42.999 -54.999l-52 -70l68 -99.5l54 -79.5c7.33301 -12 16.5 -21.833 27.5 -29.5s27.5 -13.167 49.5 -16.5v-31z" />
    <glyph glyph-name="y" unicode="y" horiz-adv-x="470" 
d="M488 433c-10.667 -1.33301 -23.502 -6.83203 -38.502 -16.499s-26.833 -22.834 -35.5 -39.501l-47.5 -113l-62.5 -150l-33 -83c-10.667 -28 -17 -43.333 -19 -46c-45.333 -101.333 -79.666 -161.833 -102.999 -181.5s-51.666 -29.5 -84.999 -29.5
c-13.333 0 -29 5.16699 -47 15.5s-27 27.833 -27 52.5c0 12.667 5.16699 25.5 15.5 38.5s24.166 19.5 41.499 19.5c10.667 0 22 -3.33301 34 -10s18 -20 18 -40v-25c29.333 6.66699 56.833 37.5 82.5 92.5l38.5 82.5l-80.5 198.5l-76.5 183.5
c-6.66699 14.667 -17 25.834 -31 33.501s-28.333 12.834 -43 15.501v31h219v-33c-10 0 -21.5 -1.83301 -34.5 -5.5s-19.5 -8.83398 -19.5 -15.501l2 -6.5c1.33301 -4.33301 3 -9.16602 5 -14.499c10.667 -28.667 25.167 -65 43.5 -109l63.5 -156h4l51.5 126l47.5 120
c0.666992 3.33301 1.83398 7.66602 3.50098 12.999s2.5 10.333 2.5 15c0 10 -9 18.167 -27 24.5s-30.667 10.166 -38 11.499v30h176v-29z" />
    <glyph glyph-name="z" unicode="z" horiz-adv-x="442" 
d="M415 0l-388.997 0.000976562v25l272 401c-40.667 0 -76 0.166992 -106 0.5s-55 -3.5 -75 -11.5c-10 -3.33301 -19 -14.333 -27 -33s-14.333 -38.667 -19 -60h-27v140h367v-19l-276 -407c11.333 0 24.333 -0.166992 39 -0.5s29.667 -0.5 45 -0.5
c10 0 23.167 0.166992 39.5 0.5s36.166 1.16602 59.499 2.49902c12.667 0.666992 22.5 4.83398 29.5 12.501s12.167 16.5 15.5 26.5c3.33301 9.33301 7.66602 22.166 12.999 38.499s9.66602 31.5 12.999 45.5h26v-161z" />
    <glyph glyph-name="braceleft" unicode="{" horiz-adv-x="430" 
d="M398 -169c-70 0 -124.502 10.335 -163.502 31.002s-58.5 67.334 -58.5 140.001c0 20 2.66699 41.833 8 65.5s8 44.834 8 63.501c0 46.667 -14.667 78.167 -44 94.5s-68.333 26.5 -117 30.5v63c47.333 4 86 14 116 30s45 47.667 45 95c0 18 -2.66699 39.167 -8 63.5
s-8 46.166 -8 65.499c0 72 19.667 118.5 59 139.5s93.666 31.5 162.999 31.5v-33c-30.667 -1.33301 -60 -7.66602 -88 -18.999s-42 -41 -42 -89c0 -18 1.5 -36.5 4.5 -55.5s4.5 -38.5 4.5 -58.5c0 -32.667 -4.66699 -60.834 -14 -84.501s-22.333 -42.167 -39 -55.5
c-15.333 -12 -32.666 -21.833 -51.999 -29.5s-43.666 -14.167 -72.999 -19.5v-25c27.333 -5.33301 50.333 -11 69 -17s37.334 -16.667 56.001 -32c16.667 -14 29.667 -32.5 39 -55.5s14 -51.167 14 -84.5c0 -20 -1.5 -39.5 -4.5 -58.5s-4.5 -37.5 -4.5 -55.5
c0 -24.667 3.83301 -43.834 11.5 -57.501s17.834 -24.167 30.501 -31.5c11.333 -6.66699 24.666 -11.334 39.999 -14.001s31.333 -4.33398 48 -5.00098v-33z" />
    <glyph glyph-name="bar" unicode="|" horiz-adv-x="318" 
d="M185 -207h-52v953h52v-953z" />
    <glyph glyph-name="braceright" unicode="}" horiz-adv-x="430" 
d="M399 256c-46.667 -3.33301 -85.168 -13.1641 -115.501 -29.4971s-45.5 -48.166 -45.5 -95.499c0 -18 2.66699 -39.167 8 -63.5s8 -46.166 8 -65.499c0 -72 -19.667 -118.5 -59 -139.5s-93.666 -31.5 -162.999 -31.5v33c13.333 1.33301 28.833 3.16602 46.5 5.49902
s31.5 6.83301 41.5 13.5c14 8 24.5 17.833 31.5 29.5s10.5 31.5 10.5 59.5c0 18 -1.5 36.5 -4.5 55.5s-4.5 38.5 -4.5 58.5c0 32 4.66699 59.5 14 82.5s22.333 42.167 39 57.5c14.667 12.667 33 22.667 55 30s45.333 13.666 70 18.999v25
c-26.667 5.33301 -49.334 10.833 -68.001 16.5s-37.667 16.5 -57 32.5c-16 13.333 -28.833 31.333 -38.5 54s-14.5 51.334 -14.5 86.001c0 20 1.5 39.5 4.5 58.5s4.5 37.5 4.5 55.5c0 23.333 -3.66699 42.166 -11 56.499s-17.666 25.166 -30.999 32.499
c-12 7.33301 -25.833 12 -41.5 14s-31.167 3.66699 -46.5 5v33c70 0 124.5 -10.333 163.5 -31s58.5 -67.334 58.5 -140.001c0 -20 -2.66699 -41.833 -8 -65.5s-8 -44.834 -8 -63.501c0 -46 15.333 -77.5 46 -94.5s69 -27.167 115 -30.5v-63z" />
    <glyph glyph-name="asciitilde" unicode="~" horiz-adv-x="540" 
d="M484 326c-8 -28.667 -24.999 -56.665 -50.999 -83.998s-55 -41 -87 -41c-39.333 0 -71.666 7.33301 -96.999 22s-50.666 22 -75.999 22c-27.333 0 -47.333 -3.83301 -60 -11.5s-25.334 -22.834 -38.001 -45.501l-20 7c7.33301 28.667 24.333 56.667 51 84
s55.667 41 87 41c37.333 0 69.166 -7.33301 95.499 -22s52.166 -22 77.499 -22c24.667 0 44.5 4.16699 59.5 12.5s27.833 23.166 38.5 44.499z" />
    <glyph glyph-name="Adieresis" unicode="&#xc4;" horiz-adv-x="697" 
d="M721 0l-314.997 0.00292969v33c20 1.33301 41.833 4 65.5 8s35.5 10.667 35.5 20c0 3.33301 -0.333008 7.16602 -1 11.499s-1.66699 8.16602 -3 11.499l-60 153h-245c-6.66699 -15.333 -13.334 -32.333 -20.001 -51s-12.667 -36.667 -18 -54
c-4 -12 -6.83301 -22.833 -8.5 -32.5s-2.5 -17.5 -2.5 -23.5c0 -14.667 14.833 -25.334 44.5 -32.001s52.5 -10.334 68.5 -11.001v-33h-285v33c8.66699 0.666992 20.5 2.66699 35.5 6s26.5 7.33301 34.5 12c13.333 8 24.166 16.333 32.499 25s16.5 23 24.5 43l114.5 284
l115.5 291h43l145.5 -371l87.5 -224c3.33301 -9.33301 8.83301 -18.166 16.5 -26.499s17.167 -15.833 28.5 -22.5c8 -4.66699 19.167 -8.66699 33.5 -12s25.166 -5 32.499 -5v-33zM426.003 280.003l-106 267l-105 -267h211zM517.003 820.003
c0 -17.333 -5.5 -31.832 -16.5 -43.499s-25.167 -17.5 -42.5 -17.5c-16 0 -29.667 5.66699 -41 17s-17 24.666 -17 39.999c0 16 5.66699 29.833 17 41.5s25 17.5 41 17.5c16.667 0 30.667 -5.5 42 -16.5s17 -23.833 17 -38.5zM300.003 820.004
c0 -17.333 -5.49902 -31.832 -16.499 -43.499s-25.5 -17.5 -43.5 -17.5c-15.333 0 -28.666 5.66699 -39.999 17s-17 24.666 -17 39.999c0 16 5.66699 29.833 17 41.5s24.666 17.5 39.999 17.5c17.333 0 31.666 -5.5 42.999 -16.5s17 -23.833 17 -38.5z" />
    <glyph glyph-name="Aring" unicode="&#xc5;" horiz-adv-x="697" 
d="M721 0l-314.997 0.00292969v33c20 1.33301 41.833 4 65.5 8s35.5 10.667 35.5 20c0 3.33301 -0.333008 7.16602 -1 11.499s-1.66699 8.16602 -3 11.499l-60 153h-245c-6.66699 -15.333 -13.334 -32.333 -20.001 -51s-12.667 -36.667 -18 -54
c-4 -12 -6.83301 -22.833 -8.5 -32.5s-2.5 -17.5 -2.5 -23.5c0 -14.667 14.833 -25.334 44.5 -32.001s52.5 -10.334 68.5 -11.001v-33h-283v33c8.66699 0.666992 20.167 2.66699 34.5 6s25.5 7.33301 33.5 12c13.333 8 24.166 16.333 32.499 25s16.5 23 24.5 43l114.5 284
l115.5 291h43l145.5 -371l87.5 -224c3.33301 -9.33301 8.83301 -18.166 16.5 -26.499s17.167 -15.833 28.5 -22.5c8 -4.66699 19.167 -8.66699 33.5 -12s25.166 -5 32.499 -5v-33zM426.003 280.003l-106 267l-105 -267h211zM461.003 829.003
c0 -29.333 -10.502 -53.333 -31.502 -72s-46.5 -28 -76.5 -28c-31.333 0 -57.166 9.16699 -77.499 27.5s-30.5 42.5 -30.5 72.5c0 29.333 10.833 53.333 32.5 72s46.834 28 75.501 28c30 0 55.5 -9.16699 76.5 -27.5s31.5 -42.5 31.5 -72.5zM412.001 829.003
c0 20.667 -5 37.5 -15 50.5s-24.667 19.5 -44 19.5c-17.333 0 -31.5 -6.16699 -42.5 -18.5s-16.5 -29.5 -16.5 -51.5c0 -21.333 4.83301 -38.333 14.5 -51s24.5 -19 44.5 -19c19.333 0 34 6.33301 44 19s15 29.667 15 51z" />
    <glyph glyph-name="Ccedilla" unicode="&#xc7;" 
d="M642 173c-10 -23.333 -22.834 -46.335 -38.501 -69.002s-34.5 -42.667 -56.5 -60s-47.5 -31.5 -76.5 -42.5s-62.833 -16.5 -101.5 -16.5c-98 0 -177.667 31.5 -239 94.5s-92 147.5 -92 253.5c0 102.667 33.667 188.834 101 258.501s151 104.5 251 104.5
c27.333 0 55.5 -5.5 84.5 -16.5s51.167 -23.5 66.5 -37.5l30 51h41l4 -255h-34c-18 56.667 -43.667 107.334 -77 152.001s-82 67 -146 67c-51.333 0 -97.666 -24.667 -138.999 -74s-62 -130 -62 -242c0 -85.333 23.5 -155.833 70.5 -211.5s103.5 -83.5 169.5 -83.5
c60.667 0 106.5 13.667 137.5 41s55.5 61.333 73.5 102zM489.999 -131.002c0 -42 -21.167 -70.167 -63.5 -84.5s-91.833 -21.5 -148.5 -21.5v36c28.667 0 59.167 2.16699 91.5 6.5s48.5 19.5 48.5 45.5c0 17.333 -11.333 27.833 -34 31.5s-42.667 5.5 -60 5.5v120h34v-63
c26 0 54.5 -5.33301 85.5 -16s46.5 -30.667 46.5 -60z" />
    <glyph glyph-name="Eacute" unicode="&#xc9;" horiz-adv-x="668" 
d="M644 202l-13.001 -202.002h-592v33c9.33301 0.666992 23.166 2 41.499 4s30.833 4.33301 37.5 7c11.333 4.66699 19.333 10.834 24 18.501s7 17.834 7 30.501v491c0 11.333 -1.83301 21 -5.5 29s-12.167 14.667 -25.5 20c-11.333 4.66699 -24.833 8.5 -40.5 11.5
s-28.5 4.83301 -38.5 5.5v33h551v-165h-37c-6 23.333 -19.667 49 -41 77s-43.333 43.667 -66 47c-10.667 1.33301 -22.667 2.33301 -36 3s-29 1 -47 1h-108v-273h80c28 0 47.833 3.83301 59.5 11.5s19.834 14.167 24.501 19.5c8 8.66699 14.833 21.667 20.5 39
s9.16699 33.333 10.5 48h37v-279h-37c-1.33301 16 -5.16602 33.5 -11.499 52.5s-12.833 32.167 -19.5 39.5s-15.667 14.333 -27 21s-30.333 10 -57 10h-80v-205c0 -42 6.83301 -67.667 20.5 -77s46.5 -14 98.5 -14c22 0 50.833 1.16699 86.5 3.5s58.167 8.83301 67.5 19.5
c14.667 16 30.667 39.5 48 70.5s28.333 54.167 33 69.5h35zM475.999 895.998c0 -11.333 -2.83203 -21 -8.49902 -29s-14.834 -16.667 -27.501 -26l-52 -39.5l-96 -74.5l-14 12c29.333 43.333 49.833 74.333 61.5 93l35.5 59c9.33301 16.667 18.833 28 28.5 34s20.5 9 32.5 9
c11.333 0 20.833 -4 28.5 -12s11.5 -16.667 11.5 -26z" />
    <glyph glyph-name="Ntilde" unicode="&#xd1;" horiz-adv-x="798" 
d="M802 650c-9.33301 0 -24.833 -2.83691 -46.5 -8.50391s-36.834 -10.834 -45.501 -15.501c-14 -8 -23 -24.167 -27 -48.5s-6 -52.833 -6 -85.5v-499h-42l-443 558v-350c0 -41.333 2.83301 -72.166 8.5 -92.499s14.167 -35.166 25.5 -44.499
c8.66699 -6.66699 25.667 -13.5 51 -20.5s42.666 -10.5 51.999 -10.5v-33h-310v33c10.667 0.666992 27.834 4.33398 51.501 11.001s37.5 11.667 41.5 15c12.667 10 21.334 23.167 26.001 39.5s7 48.833 7 97.5v332c0 14.667 -2.66699 29.334 -8 44.001
s-13.333 26.334 -24 35.001c-12.667 10 -30.167 19.5 -52.5 28.5s-40.5 13.833 -54.5 14.5v33h211l413 -520v323c0 39.333 -2.83301 69.833 -8.5 91.5s-14.167 36.167 -25.5 43.5c-10.667 6.66699 -27.167 13 -49.5 19s-39.833 9.33301 -52.5 10v33h308v-33zM610 880.996
c-7.33301 -25.333 -21.833 -52.499 -43.5 -81.499s-49.834 -43.5 -84.501 -43.5c-18.667 0 -35.667 2.83301 -51 8.5s-28.333 11.834 -39 18.501l-33.5 18c-11.667 6 -24.167 9 -37.5 9c-20.667 0 -35.167 -5.66699 -43.5 -17s-19.5 -29 -33.5 -53l-23 10
c6 19.333 21.667 45 47 77s51.333 48 78 48c18 0 34.167 -2.83301 48.5 -8.5s27.833 -11.834 40.5 -18.501c10.667 -6.66699 21.5 -12.834 32.5 -18.501s22.5 -8.5 34.5 -8.5c30 0 49.333 6.5 58 19.5s17.334 29.5 26.001 49.5z" />
    <glyph glyph-name="Odieresis" unicode="&#xd6;" horiz-adv-x="777" 
d="M738 346c0 -50 -8.49805 -98.499 -25.498 -145.499s-43.167 -87.167 -78.5 -120.5c-36 -32.667 -74.333 -56.834 -115 -72.501s-85.334 -23.5 -134.001 -23.5c-45.333 0 -88.333 8 -129 24s-77.334 39.333 -110.001 70c-33.333 31.333 -59.5 68.333 -78.5 111
s-28.5 91 -28.5 145c0 55.333 8 104.333 24 147s40.333 80.667 73 114c32 32.667 69.5 58.167 112.5 76.5s89.833 27.5 140.5 27.5c48 0 92.667 -8 134 -24s81.333 -42.667 120 -80c29.333 -29.333 52.5 -65.833 69.5 -109.5s25.5 -90.167 25.5 -139.5zM617.002 343.001
c0 38 -4.16699 76.501 -12.5 115.501s-21.5 72.5 -39.5 100.5c-18.667 30 -42.167 53.833 -70.5 71.5s-63.5 26.5 -105.5 26.5c-71.333 0 -127.333 -27.833 -168 -83.5s-61 -133.834 -61 -234.501c0 -94 20.167 -169.667 60.5 -227s96.5 -86 168.5 -86
c76 0 133 30.167 171 90.5s57 135.833 57 226.5zM563.002 821.002c0 -17.333 -5.5 -31.832 -16.5 -43.499s-25.167 -17.5 -42.5 -17.5c-16 0 -29.667 5.66699 -41 17s-17 24.666 -17 39.999c0 16 5.66699 29.833 17 41.5s25 17.5 41 17.5c16.667 0 30.667 -5.5 42 -16.5
s17 -23.833 17 -38.5zM346.002 821.003c0 -17.333 -5.49902 -31.832 -16.499 -43.499s-25.5 -17.5 -43.5 -17.5c-15.333 0 -28.666 5.66699 -39.999 17s-17 24.666 -17 39.999c0 16 5.66699 29.833 17 41.5s24.666 17.5 39.999 17.5c17.333 0 31.666 -5.5 42.999 -16.5
s17 -23.833 17 -38.5z" />
    <glyph glyph-name="Udieresis" unicode="&#xdc;" horiz-adv-x="798" 
d="M582 822c0 -17.333 -5.5 -31.832 -16.5 -43.499s-25.167 -17.5 -42.5 -17.5c-16 0 -29.667 5.66699 -41 17s-17 24.666 -17 39.999c0 16 5.66699 29.833 17 41.5s25 17.5 41 17.5c16.667 0 30.667 -5.5 42 -16.5s17 -23.833 17 -38.5zM365 822.001
c0 -17.333 -5.49902 -31.832 -16.499 -43.499s-25.5 -17.5 -43.5 -17.5c-15.333 0 -28.666 5.66699 -39.999 17s-17 24.666 -17 39.999c0 16 5.66699 29.833 17 41.5s24.666 17.5 39.999 17.5c17.333 0 31.666 -5.5 42.999 -16.5s17 -23.833 17 -38.5zM789.001 650.002
c-10 0 -24.665 -2.00195 -43.998 -6.00195s-35.333 -9.66699 -48 -17c-12 -6.66699 -20.5 -21.834 -25.5 -45.501s-7.5 -52.834 -7.5 -87.501v-294c0 -40.667 -8.83301 -75.167 -26.5 -103.5s-39.167 -50.166 -64.5 -65.499c-28 -17.333 -56.333 -29.5 -85 -36.5
s-56.667 -10.5 -84 -10.5c-86 0 -152.167 19.5 -198.5 58.5s-69.5 84.833 -69.5 137.5v404c0 11.333 -2.16699 20.833 -6.5 28.5s-12.5 14.834 -24.5 21.501c-9.33301 4.66699 -21.333 8.33398 -36 11.001s-26 4.33398 -34 5.00098v33h311v-33
c-8.66699 0 -20.5 -1.33301 -35.5 -4s-27.167 -5.33398 -36.5 -8.00098c-13.333 -4 -21.833 -10.667 -25.5 -20s-5.5 -19 -5.5 -29v-379c0 -19.333 2 -38.666 6 -57.999s12.667 -38 26 -56c13.333 -17.333 31.166 -31.5 53.499 -42.5s54.166 -16.5 95.499 -16.5
c38 0 70 5.83301 96 17.5s46 26.834 60 45.501c12.667 16.667 21.834 34.334 27.501 53.001s8.5 39 8.5 61v274c0 35.333 -2.83301 64.666 -8.5 87.999s-14.167 38.666 -25.5 45.999c-12.667 8 -29.834 14.5 -51.501 19.5s-38.5 7.83301 -50.5 8.5v33h309v-33z" />
    <glyph glyph-name="aacute" unicode="&#xe1;" horiz-adv-x="498" 
d="M364 703c0 -11.333 -2.83203 -21 -8.49902 -29s-14.834 -16.667 -27.501 -26l-52 -39.5l-96 -74.5l-14 12c29.333 43.333 49.833 74.333 61.5 93l35.5 59c9.33301 16.667 18.833 28 28.5 34s20.5 9 32.5 9c11.333 0 20.833 -4 28.5 -12s11.5 -16.667 11.5 -26z
M507.001 119c-2.66699 -47.333 -13.5029 -80.6699 -32.5029 -100.003s-44.833 -29 -77.5 -29c-23.333 0 -41.833 5.33301 -55.5 16s-24.5 27.667 -32.5 51h-3c-19.333 -22 -41.333 -39 -66 -51s-53 -18 -85 -18c-35.333 0 -63.5 9.83301 -84.5 29.5s-31.5 46.5 -31.5 80.5
c0 42.667 10 73.334 30 92.001s42.667 33 68 43c32 12.667 62.667 23.334 92 32.001s55.666 19.334 78.999 32.001v45c0 4.66699 -0.333008 12 -1 22s-4.33398 21.667 -11.001 35c-7.33301 12.667 -15.666 23 -24.999 31s-26 12 -50 12c-16.667 0 -30.5 -2.83301 -41.5 -8.5
s-18.833 -10.834 -23.5 -15.501c0 -7.33301 1.5 -16.833 4.5 -28.5s4.5 -22.834 4.5 -33.501c0 -11.333 -4.83301 -21.5 -14.5 -30.5s-24.167 -13.5 -43.5 -13.5c-16 0 -27.5 5.5 -34.5 16.5s-10.5 23.5 -10.5 37.5c0 29.333 17.833 54.833 53.5 76.5
s72.834 32.5 111.501 32.5c28.667 0 52.334 -1.5 71.001 -4.5s36.334 -10.167 53.001 -21.5s29 -25.5 37 -42.5s12 -44.833 12 -83.5c0 -43.333 -0.833008 -88.666 -2.5 -135.999s-2.5 -78.666 -2.5 -93.999c0 -6 3.33301 -15.667 10 -29s18 -20 34 -20
c12.667 0 21.834 8 27.501 24s8.5 33 8.5 51h32zM308.998 256.996c-50 -14.667 -91.332 -32 -123.999 -52s-49 -50 -49 -90c0 -26 6.16699 -45 18.5 -57s29.166 -18 50.499 -18c25.333 0 45.5 5 60.5 15s28.167 22 39.5 36z" />
    <glyph glyph-name="agrave" unicode="&#xe0;" horiz-adv-x="498" 
d="M507 119c-2.66699 -47.333 -13.5029 -80.6699 -32.5029 -100.003s-44.833 -29 -77.5 -29c-23.333 0 -41.833 5.33301 -55.5 16s-24.5 27.667 -32.5 51h-3c-19.333 -22 -41.333 -39 -66 -51s-53 -18 -85 -18c-35.333 0 -63.5 9.83301 -84.5 29.5s-31.5 46.5 -31.5 80.5
c0 42.667 10 73.334 30 92.001s42.667 33 68 43c32 12.667 62.667 23.334 92 32.001s55.666 19.334 78.999 32.001v45c0 4.66699 -0.333008 12 -1 22s-4.33398 21.667 -11.001 35c-7.33301 12.667 -15.666 23 -24.999 31s-26 12 -50 12c-16.667 0 -30.5 -2.83301 -41.5 -8.5
s-18.833 -10.834 -23.5 -15.501c0 -7.33301 1.5 -16.833 4.5 -28.5s4.5 -22.834 4.5 -33.501c0 -11.333 -4.83301 -21.5 -14.5 -30.5s-24.167 -13.5 -43.5 -13.5c-16 0 -27.5 5.5 -34.5 16.5s-10.5 23.5 -10.5 37.5c0 29.333 17.833 54.833 53.5 76.5
s72.834 32.5 111.501 32.5c28.667 0 52.334 -1.5 71.001 -4.5s36.334 -10.167 53.001 -21.5s29 -25.5 37 -42.5s12 -44.833 12 -83.5c0 -43.333 -0.833008 -88.666 -2.5 -135.999s-2.5 -78.666 -2.5 -93.999c0 -6 3.33301 -15.667 10 -29s18 -20 34 -20
c12.667 0 21.834 8 27.501 24s8.5 33 8.5 51h32zM308.997 256.996c-50 -14.667 -91.332 -32 -123.999 -52s-49 -50 -49 -90c0 -26 6.16699 -45 18.5 -57s29.166 -18 50.499 -18c25.333 0 45.5 5 60.5 15s28.167 22 39.5 36zM310.998 545.996l-14.001 -12l-89.5 69.5
c-25.667 19 -45.167 33.833 -58.5 44.5s-22.666 19 -27.999 25s-8 16 -8 30c0 10 4 18.833 12 26.5s17.333 11.5 28 11.5c14 0 25 -2.66699 33 -8s17.333 -17 28 -35l42 -69z" />
    <glyph glyph-name="acircumflex" unicode="&#xe2;" horiz-adv-x="498" 
d="M507 119c-2.66699 -47.333 -13.5029 -80.6699 -32.5029 -100.003s-44.833 -29 -77.5 -29c-23.333 0 -41.833 5.33301 -55.5 16s-24.5 27.667 -32.5 51h-3c-19.333 -22 -41.333 -39 -66 -51s-53 -18 -85 -18c-35.333 0 -63.5 9.83301 -84.5 29.5s-31.5 46.5 -31.5 80.5
c0 42.667 10 73.334 30 92.001s42.667 33 68 43c32 12.667 62.667 23.334 92 32.001s55.666 19.334 78.999 32.001v45c0 4.66699 -0.333008 12 -1 22s-4.33398 21.667 -11.001 35c-7.33301 12.667 -15.666 23 -24.999 31s-26 12 -50 12c-16.667 0 -30.5 -2.83301 -41.5 -8.5
s-18.833 -10.834 -23.5 -15.501c0 -7.33301 1.5 -16.833 4.5 -28.5s4.5 -22.834 4.5 -33.501c0 -11.333 -4.83301 -21.5 -14.5 -30.5s-24.167 -13.5 -43.5 -13.5c-16 0 -27.5 5.5 -34.5 16.5s-10.5 23.5 -10.5 37.5c0 29.333 17.833 54.833 53.5 76.5
s72.834 32.5 111.501 32.5c28.667 0 52.334 -1.5 71.001 -4.5s36.334 -10.167 53.001 -21.5s29 -25.5 37 -42.5s12 -44.833 12 -83.5c0 -43.333 -0.833008 -88.666 -2.5 -135.999s-2.5 -78.666 -2.5 -93.999c0 -6 3.33301 -15.667 10 -29s18 -20 34 -20
c12.667 0 21.834 8 27.501 24s8.5 33 8.5 51h32zM308.997 256.996c-50 -14.667 -91.332 -32 -123.999 -52s-49 -50 -49 -90c0 -26 6.16699 -45 18.5 -57s29.166 -18 50.499 -18c25.333 0 45.5 5 60.5 15s28.167 22 39.5 36zM398.998 549.996l-19 -12l-141 134l-139 -134
l-19 12l72 105l44 66c5.33301 8.66699 11 14.5 17 17.5s15 4.5 27 4.5c16 0 25.833 -1.66699 29.5 -5s7.5 -8.33301 11.5 -15l49 -72.5z" />
    <glyph glyph-name="adieresis" unicode="&#xe4;" horiz-adv-x="498" 
d="M507 119c-2.66699 -47.333 -13.5029 -80.6699 -32.5029 -100.003s-44.833 -29 -77.5 -29c-23.333 0 -41.833 5.33301 -55.5 16s-24.5 27.667 -32.5 51h-3c-19.333 -22 -41.333 -39 -66 -51s-53 -18 -85 -18c-35.333 0 -63.5 9.83301 -84.5 29.5s-31.5 46.5 -31.5 80.5
c0 42.667 10 73.334 30 92.001s42.667 33 68 43c32 12.667 62.667 23.334 92 32.001s55.666 19.334 78.999 32.001v45c0 4.66699 -0.333008 12 -1 22s-4.33398 21.667 -11.001 35c-7.33301 12.667 -15.666 23 -24.999 31s-26 12 -50 12c-16.667 0 -30.5 -2.83301 -41.5 -8.5
s-18.833 -10.834 -23.5 -15.501c0 -7.33301 1.5 -16.833 4.5 -28.5s4.5 -22.834 4.5 -33.501c0 -11.333 -4.83301 -21.5 -14.5 -30.5s-24.167 -13.5 -43.5 -13.5c-16 0 -27.5 5.5 -34.5 16.5s-10.5 23.5 -10.5 37.5c0 29.333 17.833 54.833 53.5 76.5
s72.834 32.5 111.501 32.5c28.667 0 52.334 -1.5 71.001 -4.5s36.334 -10.167 53.001 -21.5s29 -25.5 37 -42.5s12 -44.833 12 -83.5c0 -43.333 -0.833008 -88.666 -2.5 -135.999s-2.5 -78.666 -2.5 -93.999c0 -6 3.33301 -15.667 10 -29s18 -20 34 -20
c12.667 0 21.834 8 27.501 24s8.5 33 8.5 51h32zM308.997 256.996c-50 -14.667 -91.332 -32 -123.999 -52s-49 -50 -49 -90c0 -26 6.16699 -45 18.5 -57s29.166 -18 50.499 -18c25.333 0 45.5 5 60.5 15s28.167 22 39.5 36zM410.998 658.996
c0 -17.333 -5.5 -31.832 -16.5 -43.499s-25.167 -17.5 -42.5 -17.5c-16 0 -29.667 5.66699 -41 17s-17 24.666 -17 39.999c0 16 5.66699 29.833 17 41.5s25 17.5 41 17.5c16.667 0 30.667 -5.5 42 -16.5s17 -23.833 17 -38.5zM193.998 658.997
c0 -17.333 -5.49902 -31.832 -16.499 -43.499s-25.5 -17.5 -43.5 -17.5c-15.333 0 -28.666 5.66699 -39.999 17s-17 24.666 -17 39.999c0 16 5.66699 29.833 17 41.5s24.666 17.5 39.999 17.5c17.333 0 31.666 -5.5 42.999 -16.5s17 -23.833 17 -38.5z" />
    <glyph glyph-name="atilde" unicode="&#xe3;" horiz-adv-x="498" 
d="M507 119c-2.66699 -47.333 -13.5029 -80.6699 -32.5029 -100.003s-44.833 -29 -77.5 -29c-23.333 0 -41.833 5.33301 -55.5 16s-24.5 27.667 -32.5 51h-3c-19.333 -22 -41.333 -39 -66 -51s-53 -18 -85 -18c-35.333 0 -63.5 9.83301 -84.5 29.5s-31.5 46.5 -31.5 80.5
c0 42.667 10 73.334 30 92.001s42.667 33 68 43c32 12.667 62.667 23.334 92 32.001s55.666 19.334 78.999 32.001v45c0 4.66699 -0.333008 12 -1 22s-4.33398 21.667 -11.001 35c-7.33301 12.667 -15.666 23 -24.999 31s-26 12 -50 12c-16.667 0 -30.5 -2.83301 -41.5 -8.5
s-18.833 -10.834 -23.5 -15.501c0 -7.33301 1.5 -16.833 4.5 -28.5s4.5 -22.834 4.5 -33.501c0 -11.333 -4.83301 -21.5 -14.5 -30.5s-24.167 -13.5 -43.5 -13.5c-16 0 -27.5 5.5 -34.5 16.5s-10.5 23.5 -10.5 37.5c0 29.333 17.833 54.833 53.5 76.5
s72.834 32.5 111.501 32.5c28.667 0 52.334 -1.5 71.001 -4.5s36.334 -10.167 53.001 -21.5s29 -25.5 37 -42.5s12 -44.833 12 -83.5c0 -43.333 -0.833008 -88.666 -2.5 -135.999s-2.5 -78.666 -2.5 -93.999c0 -6 3.33301 -15.667 10 -29s18 -20 34 -20
c12.667 0 21.834 8 27.501 24s8.5 33 8.5 51h32zM308.997 256.996c-50 -14.667 -91.332 -32 -123.999 -52s-49 -50 -49 -90c0 -26 6.16699 -45 18.5 -57s29.166 -18 50.499 -18c25.333 0 45.5 5 60.5 15s28.167 22 39.5 36zM443.998 699.996
c-7.33301 -25.333 -21.833 -52.499 -43.5 -81.499s-49.834 -43.5 -84.501 -43.5c-18.667 0 -35.667 2.83301 -51 8.5s-28.333 11.834 -39 18.501l-33.5 18c-11.667 6 -24.167 9 -37.5 9c-20.667 0 -35.167 -5.66699 -43.5 -17s-19.5 -29 -33.5 -53l-23 10
c6 19.333 21.667 45 47 77s51.333 48 78 48c18 0 34.167 -2.83301 48.5 -8.5s27.833 -11.834 40.5 -18.501c10.667 -6.66699 21.5 -12.834 32.5 -18.501s22.5 -8.5 34.5 -8.5c30 0 49.333 6.5 58 19.5s17.334 29.5 26.001 49.5z" />
    <glyph glyph-name="aring" unicode="&#xe5;" horiz-adv-x="498" 
d="M507 119c-2.66699 -47.333 -13.5029 -80.3359 -32.5029 -99.0029s-44.833 -28 -77.5 -28c-23.333 0 -41.833 5 -55.5 15s-24.5 26.667 -32.5 50h-3c-19.333 -22 -41.333 -38.667 -66 -50s-53 -17 -85 -17c-35.333 0 -63.5 9.5 -84.5 28.5s-31.5 45.5 -31.5 79.5
c0 42.667 10 73.334 30 92.001s42.667 33 68 43c32 12.667 62.667 23.334 92 32.001s55.666 19.334 78.999 32.001v45c0 4.66699 -0.333008 12 -1 22s-4.33398 21.667 -11.001 35c-7.33301 12.667 -15.666 23 -24.999 31s-26 12 -50 12c-16.667 0 -30.5 -2.83301 -41.5 -8.5
s-18.833 -10.834 -23.5 -15.501c0 -7.33301 1.5 -16.833 4.5 -28.5s4.5 -22.834 4.5 -33.501c0 -11.333 -4.83301 -21.5 -14.5 -30.5s-24.167 -13.5 -43.5 -13.5c-16 0 -27.5 5.5 -34.5 16.5s-10.5 23.5 -10.5 37.5c0 29.333 17.833 54.833 53.5 76.5
s72.834 32.5 111.501 32.5c28.667 0 52.334 -1.5 71.001 -4.5s36.334 -10.167 53.001 -21.5s29 -25.5 37 -42.5s12 -44.833 12 -83.5c0 -43.333 -0.833008 -88.666 -2.5 -135.999s-2.5 -78.666 -2.5 -93.999c0 -6 3.33301 -15.667 10 -29s18 -20 34 -20
c12.667 0 21.834 8 27.501 24s8.5 33 8.5 51h32zM308.997 256.997c-50 -14.667 -91.332 -32 -123.999 -52s-49 -50 -49 -90c0 -26 6.16699 -45 18.5 -57s29.166 -18 50.499 -18c25.333 0 45.5 5 60.5 15s28.167 22 39.5 36zM339.998 637.997
c0 -29.333 -10.502 -53.333 -31.502 -72s-46.5 -28 -76.5 -28c-31.333 0 -57.166 9.16699 -77.499 27.5s-30.5 42.5 -30.5 72.5c0 29.333 10.833 53.333 32.5 72s46.834 28 75.501 28c30 0 55.5 -9.16699 76.5 -27.5s31.5 -42.5 31.5 -72.5zM290.996 637.997
c0 20.667 -5 37.5 -15 50.5s-24.667 19.5 -44 19.5c-17.333 0 -31.5 -6.16699 -42.5 -18.5s-16.5 -29.5 -16.5 -51.5c0 -21.333 4.83301 -38.333 14.5 -51s24.5 -19 44.5 -19c19.333 0 34 6.33301 44 19s15 29.667 15 51z" />
    <glyph glyph-name="ccedilla" unicode="&#xe7;" horiz-adv-x="450" 
d="M449 107c-20.667 -34.667 -46.833 -63.165 -78.5 -85.498s-69.5 -33.5 -113.5 -33.5c-74 0 -129.667 23.167 -167 69.5s-56 104.833 -56 175.5c0 62 21 117.833 63 167.5s97.333 74.5 166 74.5c52.667 0 92.5 -12 119.5 -36s40.5 -51.333 40.5 -82
c0 -22 -4.5 -38.167 -13.5 -48.5s-23.167 -15.5 -42.5 -15.5c-10 0 -21.833 3.5 -35.5 10.5s-20.5 20.167 -20.5 39.5c0 18.667 2.33301 31.667 7 39s7 14.666 7 21.999c-2.66699 13.333 -9.16699 22.833 -19.5 28.5s-25.166 8.5 -44.499 8.5
c-30.667 0 -59.334 -14.5 -86.001 -43.5s-40 -82.5 -40 -160.5c0 -56.667 13 -103.834 39 -141.501s61.667 -56.5 107 -56.5c32 0 58.667 7.66699 80 23s40.333 37 57 65zM367.001 -130.998c0 -42 -21.167 -70.167 -63.5 -84.5s-91.833 -21.5 -148.5 -21.5v36
c28.667 0 59.167 2.16699 91.5 6.5s48.5 19.5 48.5 45.5c0 17.333 -11.333 27.833 -34 31.5s-42.667 5.5 -60 5.5v120h34v-63c26 0 54.5 -5.33301 85.5 -16s46.5 -30.667 46.5 -60z" />
    <glyph glyph-name="eacute" unicode="&#xe9;" horiz-adv-x="472" 
d="M452 109c-18.667 -36 -44.332 -65.168 -76.999 -87.501s-71 -33.5 -115 -33.5c-76 0 -132.667 24.167 -170 72.5s-56 106.5 -56 174.5c0 60.667 19.5 115.834 58.5 165.501s91.5 74.5 157.5 74.5c68.667 0 117.667 -19.5 147 -58.5s44 -84.833 44 -137.5v-26h-309
c0 -64.667 12.167 -116.5 36.5 -155.5s64.166 -58.5 119.499 -58.5c33.333 0 59.833 7.83301 79.5 23.5s37.5 37.5 53.5 65.5zM345.002 289.999c0 35.333 -6.5 69.332 -19.5 101.999s-38.5 49 -76.5 49c-32 0 -59 -13.667 -81 -41s-34 -64.666 -36 -111.999z
M391.002 703.998c0 -11.333 -2.83203 -21 -8.49902 -29s-14.834 -16.667 -27.501 -26l-52 -39.5l-96 -74.5l-14 12c29.333 43.333 49.833 74.333 61.5 93l35.5 59c9.33301 16.667 18.833 28 28.5 34s20.5 9 32.5 9c11.333 0 20.833 -4 28.5 -12s11.5 -16.667 11.5 -26z" />
    <glyph glyph-name="egrave" unicode="&#xe8;" horiz-adv-x="472" 
d="M452 109c-18.667 -36 -44.332 -65.168 -76.999 -87.501s-71 -33.5 -115 -33.5c-76 0 -132.667 24.167 -170 72.5s-56 106.5 -56 174.5c0 60.667 19.5 115.834 58.5 165.501s91.5 74.5 157.5 74.5c68.667 0 117.667 -19.5 147 -58.5s44 -84.833 44 -137.5v-26h-309
c0 -64.667 12.167 -116.5 36.5 -155.5s64.166 -58.5 119.499 -58.5c33.333 0 59.833 7.83301 79.5 23.5s37.5 37.5 53.5 65.5zM345.002 289.999c0 35.333 -6.5 69.332 -19.5 101.999s-38.5 49 -76.5 49c-32 0 -59 -13.667 -81 -41s-34 -64.666 -36 -111.999z
M321.002 546.998l-14.001 -12l-89.5 69.5c-25.667 19 -45.167 33.833 -58.5 44.5s-22.666 19 -27.999 25s-8 16 -8 30c0 10 4 18.833 12 26.5s17.333 11.5 28 11.5c14 0 25 -2.66699 33 -8s17.333 -17 28 -35l42 -69z" />
    <glyph glyph-name="ecircumflex" unicode="&#xea;" horiz-adv-x="472" 
d="M452 109c-18.667 -36 -44.332 -65.168 -76.999 -87.501s-71 -33.5 -115 -33.5c-76 0 -132.667 24.167 -170 72.5s-56 106.5 -56 174.5c0 60.667 19.5 115.834 58.5 165.501s91.5 74.5 157.5 74.5c68.667 0 117.667 -19.5 147 -58.5s44 -84.833 44 -137.5v-26h-309
c0 -64.667 12.167 -116.5 36.5 -155.5s64.166 -58.5 119.499 -58.5c33.333 0 59.833 7.83301 79.5 23.5s37.5 37.5 53.5 65.5zM345.002 289.999c0 35.333 -6.5 69.332 -19.5 101.999s-38.5 49 -76.5 49c-32 0 -59 -13.667 -81 -41s-34 -64.666 -36 -111.999z
M409.002 549.998l-19 -12l-141 134l-139 -134l-19 12l72 105l44 66c5.33301 8.66699 11 14.5 17 17.5s15 4.5 27 4.5c16 0 25.833 -1.66699 29.5 -5s7.5 -8.33301 11.5 -15l49 -72.5z" />
    <glyph glyph-name="edieresis" unicode="&#xeb;" horiz-adv-x="472" 
d="M452 109c-18.667 -36 -44.332 -65.168 -76.999 -87.501s-71 -33.5 -115 -33.5c-76 0 -132.667 24.167 -170 72.5s-56 106.5 -56 174.5c0 60.667 19.5 115.834 58.5 165.501s91.5 74.5 157.5 74.5c68.667 0 117.667 -19.5 147 -58.5s44 -84.833 44 -137.5v-26h-309
c0 -64.667 12.167 -116.5 36.5 -155.5s64.166 -58.5 119.499 -58.5c33.333 0 59.833 7.83301 79.5 23.5s37.5 37.5 53.5 65.5zM345.002 289.999c0 35.333 -6.5 69.332 -19.5 101.999s-38.5 49 -76.5 49c-32 0 -59 -13.667 -81 -41s-34 -64.666 -36 -111.999z
M419.002 658.998c0 -17.333 -5.5 -31.832 -16.5 -43.499s-25.167 -17.5 -42.5 -17.5c-16 0 -29.667 5.66699 -41 17s-17 24.666 -17 39.999c0 16 5.66699 29.833 17 41.5s25 17.5 41 17.5c16.667 0 30.667 -5.5 42 -16.5s17 -23.833 17 -38.5zM202.002 658.999
c0 -17.333 -5.49902 -31.832 -16.499 -43.499s-25.5 -17.5 -43.5 -17.5c-15.333 0 -28.666 5.66699 -39.999 17s-17 24.666 -17 39.999c0 16 5.66699 29.833 17 41.5s24.666 17.5 39.999 17.5c17.333 0 31.666 -5.5 42.999 -16.5s17 -23.833 17 -38.5z" />
    <glyph glyph-name="iacute" unicode="&#xed;" horiz-adv-x="291" 
d="M250 703c0 -11.333 -2.83203 -21 -8.49902 -29s-14.834 -16.667 -27.501 -26l-52 -39.5l-96 -74.5l-14 12c29.333 43.333 49.833 74.333 61.5 93l35.5 59c9.33301 16.667 18.833 28 28.5 34s20.5 9 32.5 9c11.333 0 20.833 -4 28.5 -12s11.5 -16.667 11.5 -26zM268.001 0
l-233.001 -0.00195312v31c10 0.666992 18 1.16699 24 1.5s12.667 1.83301 20 4.5c10.667 4 17.834 9.83301 21.501 17.5s5.5 16.5 5.5 26.5v280c-1.33301 11.333 -4.33301 21.333 -9 30s-10.667 15.334 -18 20.001c-6 4 -15 7.5 -27 10.5s-22.667 4.83301 -32 5.5v30l170 11
l7 -7v-374c0 -12 2 -21.667 6 -29s11 -12.666 21 -15.999c6.66699 -2.66699 14 -5.16699 22 -7.5s15.333 -3.5 22 -3.5v-31z" />
    <glyph glyph-name="igrave" unicode="&#xec;" horiz-adv-x="291" 
d="M210 547l-14.001 -12l-89.5 69.5c-25.667 19 -45.167 33.833 -58.5 44.5s-22.666 19 -27.999 25s-8 16 -8 30c0 10 4 18.833 12 26.5s17.333 11.5 28 11.5c14 0 25 -2.66699 33 -8s17.333 -17 28 -35l42 -69zM267.999 0l-233.001 -0.00195312v31
c10 0.666992 18 1.16699 24 1.5s12.667 1.83301 20 4.5c10.667 4 17.834 9.83301 21.501 17.5s5.5 16.5 5.5 26.5v280c-1.33301 11.333 -4.33301 21.333 -9 30s-10.667 15.334 -18 20.001c-6 4 -15 7.5 -27 10.5s-22.667 4.83301 -32 5.5v30l170 11l7 -7v-374
c0 -12 2 -21.667 6 -29s11 -12.666 21 -15.999c6.66699 -2.66699 14 -5.16699 22 -7.5s15.333 -3.5 22 -3.5v-31z" />
    <glyph glyph-name="icircumflex" unicode="&#xee;" horiz-adv-x="291" 
d="M268 0l-233.001 -0.00195312v31c10 0.666992 18 1.16699 24 1.5s12.667 1.83301 20 4.5c10.667 4 17.834 9.83301 21.501 17.5s5.5 16.5 5.5 26.5v280c-1.33301 11.333 -4.33301 21.333 -9 30s-10.667 15.334 -18 20.001c-6 4 -15 7.5 -27 10.5s-22.667 4.83301 -32 5.5
v30l170 11l7 -7v-374c0 -12 2 -21.667 6 -29s11 -12.666 21 -15.999c6.66699 -2.66699 14 -5.16699 22 -7.5s15.333 -3.5 22 -3.5v-31zM262.999 549.998l-19 -12l-116 139l-114 -139l-18 12c22.667 38.667 41.667 72.5 57 101.5l37 69.5
c5.33301 10 9.83301 16.167 13.5 18.5s12.5 3.5 26.5 3.5s22.5 -1.33301 25.5 -4s6.83301 -8 11.5 -16c12 -20.667 24 -43 36 -67s32 -59.333 60 -106z" />
    <glyph glyph-name="idieresis" unicode="&#xef;" horiz-adv-x="291" 
d="M286 659c0 -17.333 -5.33301 -31.667 -16 -43s-24.667 -17 -42 -17c-16 0 -29.5 5.5 -40.5 16.5s-16.5 24.167 -16.5 39.5c0 16 5.5 29.833 16.5 41.5s24.5 17.5 40.5 17.5c16.667 0 30.5 -5.5 41.5 -16.5s16.5 -23.833 16.5 -38.5zM99 658.999
c0 -17.333 -5.33301 -31.832 -16 -43.499s-25 -17.5 -43 -17.5c-15.333 0 -28.333 5.66699 -39 17s-16 24.666 -16 39.999c0 16 5.33301 29.833 16 41.5s23.667 17.5 39 17.5c17.333 0 31.5 -5.5 42.5 -16.5s16.5 -23.833 16.5 -38.5zM268 0l-233.001 -0.00195312v31
c10 0.666992 18 1.16699 24 1.5s12.667 1.83301 20 4.5c10.667 4 17.834 9.83301 21.501 17.5s5.5 16.5 5.5 26.5v280c-1.33301 11.333 -4.33301 21.333 -9 30s-10.667 15.334 -18 20.001c-6 4 -15 7.5 -27 10.5s-22.667 4.83301 -32 5.5v30l170 11l7 -7v-374
c0 -12 2 -21.667 6 -29s11 -12.666 21 -15.999c6.66699 -2.66699 14 -5.16699 22 -7.5s15.333 -3.5 22 -3.5v-31z" />
    <glyph glyph-name="ntilde" unicode="&#xf1;" horiz-adv-x="589" 
d="M566 0l-236 -0.000976562v31c10 0.666992 18.5 1.16699 25.5 1.5s14.167 1.83301 21.5 4.5c10.667 4 17.834 9.83301 21.501 17.5s5.5 16.5 5.5 26.5v231c0 33.333 -8.33301 59.5 -25 78.5s-36 28.5 -58 28.5c-36 0 -64.333 -8.83301 -85 -26.5s-34 -32.5 -40 -44.5v-262
c0 -10.667 2.16699 -19.667 6.5 -27s11.166 -13 20.499 -17c6 -2.66699 13.667 -5.16699 23 -7.5s17.333 -3.5 24 -3.5v-31h-236v31c10 0.666992 18 1.16699 24 1.5s12.667 1.83301 20 4.5c10.667 4 17.834 9.83301 21.501 17.5s5.5 16.5 5.5 26.5v280
c-1.33301 11.333 -3.83301 21.333 -7.5 30s-10.167 16.334 -19.5 23.001c-5.33301 4 -13 7 -23 9s-18.667 3.33301 -26 4v30l160 11l7 -7v-68h2c15.333 16 37.166 33.667 65.499 53s60.5 29 96.5 29c46 0 80.167 -14.333 102.5 -43s33.5 -67 33.5 -115v-232
c0 -10.667 2 -19.667 6 -27s10.667 -13 20 -17l20 -7c6 -2 14 -3 24 -3v-31zM502 699.999c-7.33301 -25.333 -21.833 -52.499 -43.5 -81.499s-49.834 -43.5 -84.501 -43.5c-18.667 0 -35.667 2.83301 -51 8.5s-28.333 11.834 -39 18.501l-33.5 18
c-11.667 6 -24.167 9 -37.5 9c-20.667 0 -35.167 -5.66699 -43.5 -17s-19.5 -29 -33.5 -53l-23 10c6 19.333 21.667 45 47 77s51.333 48 78 48c18 0 34.167 -2.83301 48.5 -8.5s27.833 -11.834 40.5 -18.501c10.667 -6.66699 21.5 -12.834 32.5 -18.501s22.5 -8.5 34.5 -8.5
c30 0 49.333 6.5 58 19.5s17.334 29.5 26.001 49.5z" />
    <glyph glyph-name="oacute" unicode="&#xf3;" horiz-adv-x="528" 
d="M396 703c0 -11.333 -2.83203 -21 -8.49902 -29s-14.834 -16.667 -27.501 -26l-52 -39.5l-96 -74.5l-14 12c29.333 43.333 49.833 74.333 61.5 93l35.5 59c9.33301 16.667 18.833 28 28.5 34s20.5 9 32.5 9c11.333 0 20.833 -4 28.5 -12s11.5 -16.667 11.5 -26z
M494.001 236c0 -67.333 -20.5 -125.833 -61.5 -175.5s-98.833 -74.5 -173.5 -74.5c-60 0 -112.667 22 -158 66s-68 103 -68 177c0 72 21.333 131 64 177s99 69 169 69c68 0 123 -22.667 165 -68s63 -102.333 63 -171zM393.001 235c0 50.667 -9.33203 97.667 -27.999 141
s-52 65 -100 65c-26.667 0 -48.334 -6.5 -65.001 -19.5s-29.667 -28.833 -39 -47.5c-10 -19.333 -17 -41.5 -21 -66.5s-6 -48.5 -6 -70.5c0 -57.333 10.333 -107.833 31 -151.5s54 -65.5 100 -65.5c44 0 76.333 21.333 97 64s31 93 31 151z" />
    <glyph glyph-name="ograve" unicode="&#xf2;" horiz-adv-x="528" 
d="M333 546l-14.001 -12l-89.5 69.5c-25.667 19 -45.167 33.833 -58.5 44.5s-22.666 19 -27.999 25s-8 16 -8 30c0 10 4 18.833 12 26.5s17.333 11.5 28 11.5c14 0 25 -2.66699 33 -8s17.333 -17 28 -35l42 -69zM493.999 236c0 -67.333 -20.5 -125.833 -61.5 -175.5
s-98.833 -74.5 -173.5 -74.5c-60 0 -112.667 22 -158 66s-68 103 -68 177c0 72 21.333 131 64 177s99 69 169 69c68 0 123 -22.667 165 -68s63 -102.333 63 -171zM392.999 235c0 50.667 -9.33203 97.667 -27.999 141s-52 65 -100 65c-26.667 0 -48.334 -6.5 -65.001 -19.5
s-29.667 -28.833 -39 -47.5c-10 -19.333 -17 -41.5 -21 -66.5s-6 -48.5 -6 -70.5c0 -57.333 10.333 -107.833 31 -151.5s54 -65.5 100 -65.5c44 0 76.333 21.333 97 64s31 93 31 151z" />
    <glyph glyph-name="ocircumflex" unicode="&#xf4;" horiz-adv-x="528" 
d="M424 550l-19 -12l-141 134l-139 -134l-19 12l72 105l44 66c5.33301 8.66699 11 14.5 17 17.5s15 4.5 27 4.5c16 0 25.833 -1.66699 29.5 -5s7.5 -8.33301 11.5 -15l49 -72.5zM494 236c0 -67.333 -20.5 -125.833 -61.5 -175.5s-98.833 -74.5 -173.5 -74.5
c-60 0 -112.667 22 -158 66s-68 103 -68 177c0 72 21.333 131 64 177s99 69 169 69c68 0 123 -22.667 165 -68s63 -102.333 63 -171zM393 235c0 50.667 -9.33203 97.667 -27.999 141s-52 65 -100 65c-26.667 0 -48.334 -6.5 -65.001 -19.5s-29.667 -28.833 -39 -47.5
c-10 -19.333 -17 -41.5 -21 -66.5s-6 -48.5 -6 -70.5c0 -57.333 10.333 -107.833 31 -151.5s54 -65.5 100 -65.5c44 0 76.333 21.333 97 64s31 93 31 151z" />
    <glyph glyph-name="odieresis" unicode="&#xf6;" horiz-adv-x="528" 
d="M432 659c0 -17.333 -5.5 -31.832 -16.5 -43.499s-25.167 -17.5 -42.5 -17.5c-16 0 -29.667 5.66699 -41 17s-17 24.666 -17 39.999c0 16 5.66699 29.833 17 41.5s25 17.5 41 17.5c16.667 0 30.667 -5.5 42 -16.5s17 -23.833 17 -38.5zM215 659.001
c0 -17.333 -5.49902 -31.832 -16.499 -43.499s-25.5 -17.5 -43.5 -17.5c-15.333 0 -28.666 5.66699 -39.999 17s-17 24.666 -17 39.999c0 16 5.66699 29.833 17 41.5s24.666 17.5 39.999 17.5c17.333 0 31.666 -5.5 42.999 -16.5s17 -23.833 17 -38.5zM494.001 236.002
c0 -67.333 -20.5 -125.833 -61.5 -175.5s-98.833 -74.5 -173.5 -74.5c-60 0 -112.667 22 -158 66s-68 103 -68 177c0 72 21.333 131 64 177s99 69 169 69c68 0 123 -22.667 165 -68s63 -102.333 63 -171zM393.001 235.002c0 50.667 -9.33203 97.667 -27.999 141
s-52 65 -100 65c-26.667 0 -48.334 -6.5 -65.001 -19.5s-29.667 -28.833 -39 -47.5c-10 -19.333 -17 -41.5 -21 -66.5s-6 -48.5 -6 -70.5c0 -57.333 10.333 -107.833 31 -151.5s54 -65.5 100 -65.5c44 0 76.333 21.333 97 64s31 93 31 151z" />
    <glyph glyph-name="otilde" unicode="&#xf5;" horiz-adv-x="528" 
d="M460 700c-7.33301 -25.333 -21.833 -52.499 -43.5 -81.499s-49.834 -43.5 -84.501 -43.5c-18.667 0 -35.667 2.83301 -51 8.5s-28.333 11.834 -39 18.501l-33.5 18c-11.667 6 -24.167 9 -37.5 9c-20.667 0 -35.167 -5.66699 -43.5 -17s-19.5 -29 -33.5 -53l-23 10
c6 19.333 21.667 45 47 77s51.333 48 78 48c18 0 34.167 -2.83301 48.5 -8.5s27.833 -11.834 40.5 -18.501c10.667 -6.66699 21.5 -12.834 32.5 -18.501s22.5 -8.5 34.5 -8.5c30 0 49.333 6.5 58 19.5s17.334 29.5 26.001 49.5zM494 236.001
c0 -67.333 -20.5 -125.833 -61.5 -175.5s-98.833 -74.5 -173.5 -74.5c-60 0 -112.667 22 -158 66s-68 103 -68 177c0 72 21.333 131 64 177s99 69 169 69c68 0 123 -22.667 165 -68s63 -102.333 63 -171zM393 235.001c0 50.667 -9.33203 97.667 -27.999 141s-52 65 -100 65
c-26.667 0 -48.334 -6.5 -65.001 -19.5s-29.667 -28.833 -39 -47.5c-10 -19.333 -17 -41.5 -21 -66.5s-6 -48.5 -6 -70.5c0 -57.333 10.333 -107.833 31 -151.5s54 -65.5 100 -65.5c44 0 76.333 21.333 97 64s31 93 31 151z" />
    <glyph glyph-name="uacute" unicode="&#xfa;" horiz-adv-x="572" 
d="M412 703c0 -11.333 -2.83203 -21 -8.49902 -29s-14.834 -16.667 -27.501 -26l-52 -39.5l-96 -74.5l-14 12c29.333 43.333 49.833 74.333 61.5 93l35.5 59c9.33301 16.667 18.833 28 28.5 34s20.5 9 32.5 9c11.333 0 20.833 -4 28.5 -12s11.5 -16.667 11.5 -26zM549.001 9
l-157.002 -11.002l-7 7v61h-3c-22 -21.333 -41.833 -39.666 -59.5 -54.999s-51.167 -23 -100.5 -23c-46 0 -79.167 15.333 -99.5 46s-30.5 69.667 -30.5 117v212c-1.33301 13.333 -4.33301 23.833 -9 31.5s-10.334 13.834 -17.001 18.501c-5.33301 4 -13.166 7 -23.499 9
s-19.166 3.33301 -26.499 4v30l161 12l7 -7v-317c0 -33.333 7.66699 -59.166 23 -77.499s34 -27.5 56 -27.5c36 0 63.833 9.16699 83.5 27.5s32.167 32.166 37.5 41.499v258c-1.33301 11.333 -3.66602 20.833 -6.99902 28.5s-9.66602 14.834 -18.999 21.501
c-5.33301 4 -14.833 6.5 -28.5 7.5s-25.834 1.83301 -36.501 2.5v30l175 12l7 -7v-364c0.666992 -10.667 3.66699 -20.334 9 -29.001s11 -15 17 -19c5.33301 -3.33301 12.5 -5.83301 21.5 -7.5s17.833 -2.5 26.5 -2.5v-30z" />
    <glyph glyph-name="ugrave" unicode="&#xf9;" horiz-adv-x="572" 
d="M356 546l-14.001 -12l-89.5 69.5c-25.667 19 -45.167 33.833 -58.5 44.5s-22.666 19 -27.999 25s-8 16 -8 30c0 10 4 18.833 12 26.5s17.333 11.5 28 11.5c14 0 25 -2.66699 33 -8s17.333 -17 28 -35l42 -69zM548.999 9l-157.002 -11.002l-7 7v61h-3
c-22 -21.333 -41.833 -39.666 -59.5 -54.999s-51.167 -23 -100.5 -23c-46 0 -79.167 15.333 -99.5 46s-30.5 69.667 -30.5 117v212c-1.33301 13.333 -4.33301 23.833 -9 31.5s-10.334 13.834 -17.001 18.501c-5.33301 4 -13.166 7 -23.499 9s-19.166 3.33301 -26.499 4v30
l161 12l7 -7v-317c0 -33.333 7.66699 -59.166 23 -77.499s34 -27.5 56 -27.5c36 0 63.833 9.16699 83.5 27.5s32.167 32.166 37.5 41.499v258c-1.33301 11.333 -3.66602 20.833 -6.99902 28.5s-9.66602 14.834 -18.999 21.501c-5.33301 4 -14.833 6.5 -28.5 7.5
s-25.834 1.83301 -36.501 2.5v30l175 12l7 -7v-364c0.666992 -10.667 3.66699 -20.334 9 -29.001s11 -15 17 -19c5.33301 -3.33301 12.5 -5.83301 21.5 -7.5s17.833 -2.5 26.5 -2.5v-30z" />
    <glyph glyph-name="ucircumflex" unicode="&#xfb;" horiz-adv-x="572" 
d="M427 550l-19 -12l-141 134l-139 -134l-19 12l72 105l44 66c5.33301 8.66699 11 14.5 17 17.5s15 4.5 27 4.5c16 0 25.833 -1.66699 29.5 -5s7.5 -8.33301 11.5 -15l49 -72.5zM549 9l-157.002 -11.002l-7 7v61h-3c-22 -21.333 -41.833 -39.666 -59.5 -54.999
s-51.167 -23 -100.5 -23c-46 0 -79.167 15.333 -99.5 46s-30.5 69.667 -30.5 117v212c-1.33301 13.333 -4.33301 23.833 -9 31.5s-10.334 13.834 -17.001 18.501c-5.33301 4 -13.166 7 -23.499 9s-19.166 3.33301 -26.499 4v30l161 12l7 -7v-317
c0 -33.333 7.66699 -59.166 23 -77.499s34 -27.5 56 -27.5c36 0 63.833 9.16699 83.5 27.5s32.167 32.166 37.5 41.499v258c-1.33301 11.333 -3.66602 20.833 -6.99902 28.5s-9.66602 14.834 -18.999 21.501c-5.33301 4 -14.833 6.5 -28.5 7.5s-25.834 1.83301 -36.501 2.5
v30l175 12l7 -7v-364c0.666992 -10.667 3.66699 -20.334 9 -29.001s11 -15 17 -19c5.33301 -3.33301 12.5 -5.83301 21.5 -7.5s17.833 -2.5 26.5 -2.5v-30z" />
    <glyph glyph-name="udieresis" unicode="&#xfc;" horiz-adv-x="572" 
d="M439 659c0 -17.333 -5.5 -31.832 -16.5 -43.499s-25.167 -17.5 -42.5 -17.5c-16 0 -29.667 5.66699 -41 17s-17 24.666 -17 39.999c0 16 5.66699 29.833 17 41.5s25 17.5 41 17.5c16.667 0 30.667 -5.5 42 -16.5s17 -23.833 17 -38.5zM222 659.001
c0 -17.333 -5.49902 -31.832 -16.499 -43.499s-25.5 -17.5 -43.5 -17.5c-15.333 0 -28.666 5.66699 -39.999 17s-17 24.666 -17 39.999c0 16 5.66699 29.833 17 41.5s24.666 17.5 39.999 17.5c17.333 0 31.666 -5.5 42.999 -16.5s17 -23.833 17 -38.5zM549.001 9.00195
l-157.002 -11.002l-7 7v61h-3c-22 -21.333 -41.833 -39.666 -59.5 -54.999s-51.167 -23 -100.5 -23c-46 0 -79.167 15.333 -99.5 46s-30.5 69.667 -30.5 117v212c-1.33301 13.333 -4.33301 23.833 -9 31.5s-10.334 13.834 -17.001 18.501c-5.33301 4 -13.166 7 -23.499 9
s-19.166 3.33301 -26.499 4v30l161 12l7 -7v-317c0 -33.333 7.66699 -59.166 23 -77.499s34 -27.5 56 -27.5c36 0 63.833 9.16699 83.5 27.5s32.167 32.166 37.5 41.499v258c-1.33301 11.333 -3.66602 20.833 -6.99902 28.5s-9.66602 14.834 -18.999 21.501
c-5.33301 4 -14.833 6.5 -28.5 7.5s-25.834 1.83301 -36.501 2.5v30l175 12l7 -7v-364c0.666992 -10.667 3.66699 -20.334 9 -29.001s11 -15 17 -19c5.33301 -3.33301 12.5 -5.83301 21.5 -7.5s17.833 -2.5 26.5 -2.5v-30z" />
    <glyph glyph-name="dagger" unicode="&#x2020;" horiz-adv-x="492" 
d="M464 458c0 -16 -5.50195 -29.1689 -16.502 -39.502s-24.833 -15.5 -41.5 -15.5c-18.667 0 -36.667 9.33301 -54 28s-33 28 -47 28c-10.667 0 -17.667 -2.33301 -21 -7s-5.66602 -16.334 -6.99902 -35.001c-5.33301 -86.667 -9.5 -176.167 -12.5 -268.5
s-5.16699 -167.833 -6.5 -226.5h-24c-2 90.667 -4.66699 179.5 -8 266.5s-7 163.167 -11 228.5c-1.33301 16.667 -3.83301 27.834 -7.5 33.501s-10.5 8.5 -20.5 8.5c-14.667 0 -30.167 -9.33301 -46.5 -28s-34.5 -28 -54.5 -28c-16.667 0 -30.5 5 -41.5 15
s-16.5 23.333 -16.5 40c0 10 3.5 19 10.5 27s15.5 12 25.5 12s19 -3.66699 27 -11s13 -17.333 15 -30c8.66699 0 20.667 4.83301 36 14.5s29 14.5 41 14.5c12.667 0 22.667 -1.83301 30 -5.5s14.333 -9.5 21 -17.5c-2 30.667 -7.83301 67.334 -17.5 110.001
s-14.5 72.334 -14.5 89.001c0 12.667 3.66699 24 11 34s18.333 15 33 15c14 0 24.833 -5 32.5 -15s11.5 -21.333 11.5 -34c0 -20 -4.83301 -49.667 -14.5 -89s-15.5 -76 -17.5 -110c5.33301 6.66699 12.666 12.167 21.999 16.5s19 6.5 29 6.5
c12.667 0 26.334 -4.83301 41.001 -14.5s26.667 -14.5 36 -14.5c2 12.667 6.83301 22.667 14.5 30s16.834 11 27.501 11c10 0 18.5 -4 25.5 -12s10.5 -17 10.5 -27z" />
    <glyph glyph-name="degree" unicode="&#xb0;" horiz-adv-x="410" 
d="M364 550c0 -43.333 -16.833 -80.167 -50.5 -110.5s-70.5 -45.5 -110.5 -45.5c-41.333 0 -77.833 13.167 -109.5 39.5s-47.5 64.833 -47.5 115.5c0 45.333 16.5 83.5 49.5 114.5s68.833 46.5 107.5 46.5c41.333 0 78.5 -12.667 111.5 -38s49.5 -66 49.5 -122zM293 547.999
c0 38 -8.16895 67.667 -24.502 89s-37.833 32 -64.5 32s-48 -11 -64 -33s-24 -49.667 -24 -83c0 -36 7.83301 -64.667 23.5 -86s37.834 -32 66.501 -32c22.667 0 42.834 9.5 60.501 28.5s26.5 47.167 26.5 84.5z" />
    <glyph glyph-name="cent" unicode="&#xa2;" horiz-adv-x="480" 
d="M459 177c-20.667 -34.667 -46.8311 -63.1641 -78.498 -85.4971s-69.5 -33.5 -113.5 -33.5c-8 0 -16.667 0.333008 -26 1s-17.333 1.66699 -24 3l-43 -180l-35 8l43 181c-46.667 16.667 -81.334 45.667 -104.001 87s-34 89.666 -34 144.999c0 62 21 117.833 63 167.5
s97.333 74.5 166 74.5c3.33301 0 6.66602 -0.166992 9.99902 -0.5s6.33301 -0.5 9 -0.5l30 126l36 -8l-29 -122c38.667 -6.66699 69 -20.667 91 -42s33 -45 33 -71c0 -20 -5.16699 -35.667 -15.5 -47s-23.833 -17 -40.5 -17c-14 0 -26 3.66699 -36 11s-15 20.333 -15 39
c0 20 3.16699 33 9.5 39s9.5 13.333 9.5 22c-2 9.33301 -6.5 16.166 -13.5 20.499s-17.167 8.16602 -30.5 11.499l-90 -383c9.33301 -4.66699 18.833 -8.16699 28.5 -10.5s20.167 -3.5 31.5 -3.5c32 0 58.667 7.66699 80 23s40.333 37 57 65zM285.003 511.003h-7h-7
c-30.667 0 -59.5 -14.5 -86.5 -43.5s-40.5 -82.5 -40.5 -160.5c0 -36 4.66699 -67 14 -93s23 -48.333 41 -67z" />
    <glyph glyph-name="sterling" unicode="&#xa3;" horiz-adv-x="705" 
d="M664 191c-3.33301 -24.667 -9.00195 -50.499 -17.002 -77.499s-21 -52.167 -39 -75.5c-20 -26.667 -41.5 -47 -64.5 -61s-58.167 -21 -105.5 -21c-30 0 -62.167 7.33301 -96.5 22s-64.166 29.667 -89.499 45c-16.667 -20 -38.667 -36.333 -66 -49s-52.333 -19 -75 -19
c-37.333 0 -65.5 6.5 -84.5 19.5s-28.5 31.833 -28.5 56.5c0 24 10.833 45.5 32.5 64.5s51.834 28.5 90.501 28.5c23.333 0 48.333 -3.33301 75 -10s48 -13.334 64 -20.001c0 20 -0.666992 47.667 -2 83s-5 62.333 -11 81h-135v39h130c-2 12 -5.33301 28.167 -10 48.5
s-7 46.833 -7 79.5c0 67.333 19.5 127 58.5 179s97.5 78 175.5 78c56 0 98.667 -15.833 128 -47.5s44 -67.167 44 -106.5c0 -18.667 -5 -37 -15 -55s-25.667 -27 -47 -27c-24.667 0 -40.834 6.5 -48.501 19.5s-11.5 25.833 -11.5 38.5c0 20.667 7.83301 34.834 23.5 42.501
s23.5 14.167 23.5 19.5s-1 13 -3 23s-6 19 -12 27c-6.66699 8.66699 -16.667 16.167 -30 22.5s-31.333 9.5 -54 9.5c-14 0 -27.667 -1.83301 -41 -5.5s-28 -12.167 -44 -25.5c-13.333 -10.667 -24.5 -27.167 -33.5 -49.5s-13.5 -49.166 -13.5 -80.499
c0 -20.667 2.5 -50.834 7.5 -90.501s7.5 -72.834 7.5 -99.501h169v-39h-170c-1.33301 -26 -6.66602 -56.333 -15.999 -91s-21 -61.667 -35 -81c41.333 -14 72.166 -25 92.499 -33s54.833 -12 103.5 -12c52 0 87.833 17.167 107.5 51.5s31.834 68.5 36.501 102.5z
M226.998 37.001c-18.667 10.667 -40 20.168 -64 28.501s-46.667 12.5 -68 12.5c-23.333 0 -40 -5.83301 -50 -17.5s-15 -21.167 -15 -28.5c0 -10 7 -19.167 21 -27.5s33.667 -12.5 59 -12.5c20.667 0 42.167 4.16699 64.5 12.5s39.833 19.166 52.5 32.499z" />
    <glyph glyph-name="section" unicode="&#xa7;" horiz-adv-x="570" 
d="M495 177c0 -41.333 -14.498 -70.999 -43.498 -88.999s-58.833 -29.333 -89.5 -34c13.333 -20 24 -39.5 32 -58.5s12 -43.5 12 -73.5c0 -38.667 -15 -73.167 -45 -103.5s-67.667 -45.5 -113 -45.5c-42 0 -75.833 10 -101.5 30s-38.5 43.667 -38.5 71
c0 18 5.5 32.5 16.5 43.5s24.833 16.5 41.5 16.5c13.333 0 24.833 -4.5 34.5 -13.5s14.5 -19.5 14.5 -31.5c0 -11.333 -2.5 -20.333 -7.5 -27s-7.5 -14.667 -7.5 -24c0 -10 4.16699 -18.167 12.5 -24.5s22.5 -9.5 42.5 -9.5c23.333 0 42.666 7.83301 57.999 23.5
s23 42.5 23 80.5c0 23.333 -4.16699 43.666 -12.5 60.999s-22.166 38.333 -41.499 63c-18 24 -38.333 47.5 -61 70.5s-46 48.833 -70 77.5c-24 28 -42.667 53.667 -56 77s-20 50.666 -20 81.999c0 40 14.167 70.5 42.5 91.5s57.5 33.5 87.5 37.5
c-10.667 15.333 -20 33.833 -28 55.5s-12 43.834 -12 66.501c0 39.333 15.833 73.833 47.5 103.5s69.167 44.5 112.5 44.5c40 0 71.833 -11.333 95.5 -34s35.5 -47 35.5 -73c0 -16.667 -4.83301 -30.5 -14.5 -41.5s-22.834 -16.5 -39.501 -16.5
c-12.667 0 -23.834 4.33301 -33.501 13s-14.5 19.334 -14.5 32.001c0 12 2.33301 21.667 7 29s7 16.333 7 27s-3.66699 18.667 -11 24s-21.333 8 -42 8c-26 0 -46.5 -8.66699 -61.5 -26s-22.5 -40.333 -22.5 -69c0 -22 4.5 -41.333 13.5 -58s23.5 -38.667 43.5 -66
c21.333 -28.667 40 -51.334 56 -68.001s40 -43.667 72 -81c28.667 -34 49 -60.5 61 -79.5s18 -46.167 18 -81.5zM424.002 165.001c0 14.667 -3.99902 29.666 -11.999 44.999s-18 30 -30 44l-87.5 102.5c-29.667 33.667 -52.834 61.5 -69.501 83.5
c-27.333 -5.33301 -48 -14.666 -62 -27.999s-21 -32 -21 -56c0 -14 4 -29.167 12 -45.5s18.667 -32.5 32 -48.5c24.667 -30 53.167 -62.333 85.5 -97s55.833 -62.667 70.5 -84c26.667 7.33301 47 17 61 29s21 30.333 21 55z" />
    <glyph glyph-name="bullet" unicode="&#x2022;" horiz-adv-x="589" 
d="M524 366v-229h-230h-229v229v231h229h230v-231z" />
    <glyph glyph-name="paragraph" unicode="&#xb6;" horiz-adv-x="619" 
d="M603 651l-137 -0.000976562v-776h-38v776h-86v-776h-38v467h-25c-42.667 0 -78.667 4.83301 -108 14.5s-52.333 22.834 -69 39.501s-28.167 34.667 -34.5 54s-9.5 39.333 -9.5 60s2.66699 40 8 58s16.333 37 33 57c13.333 16 33 29.667 59 41s54.667 17 86 17h359v-32z
" />
    <glyph glyph-name="germandbls" unicode="&#xdf;" horiz-adv-x="588" 
d="M562 139c0 -40 -14.9971 -75.501 -44.9971 -106.501s-66.333 -46.5 -109 -46.5c-48.667 0 -84.5 10.333 -107.5 31s-34.5 44.667 -34.5 72c0 18 5.16699 32.333 15.5 43s23.833 16 40.5 16c13.333 0 24.166 -4.33301 32.499 -13s12.5 -19 12.5 -31
c0 -11.333 -2.83301 -20.333 -8.5 -27s-8.5 -14.667 -8.5 -24c0 -10 4.5 -18.5 13.5 -25.5s25.833 -10.5 50.5 -10.5c23.333 0 42.666 6.66699 57.999 20s23 32.666 23 57.999c0 22.667 -4.83301 41.667 -14.5 57s-37.5 41 -83.5 77c-27.333 21.333 -50.166 43 -68.499 65
s-27.5 46 -27.5 72c0 24 5 42.167 15 54.5s23 26.833 39 43.5c14 15.333 26.333 30.5 37 45.5s16 42.167 16 81.5c0 42.667 -9.5 73.834 -28.5 93.501s-41.833 29.5 -68.5 29.5c-33.333 0 -59.833 -14.833 -79.5 -44.5s-30.834 -82.5 -33.501 -158.5
c0 -6.66699 -0.166992 -15.167 -0.5 -25.5s-0.5 -18.833 -0.5 -25.5v-460h-166v31c10 0.666992 18.667 1.16699 26 1.5s14.666 1.83301 21.999 4.5c9.33301 3.33301 16.166 8.83301 20.499 16.5s6.5 17.5 6.5 29.5v333h-84v44h84v21c0 44.667 4.83301 83 14.5 115
s27.5 62 53.5 90c20 22 43.333 37.667 70 47s52.334 14 77.001 14c42 0 79.5 -11.667 112.5 -35s49.5 -56 49.5 -98c0 -34 -6.16699 -61.5 -18.5 -82.5s-25.166 -36.833 -38.499 -47.5l-37.5 -30.5c-13 -10.333 -19.5 -20.833 -19.5 -31.5c0 -16 2.66699 -30.167 8 -42.5
s33.666 -39.166 84.999 -80.499c36 -28.667 61.667 -53 77 -73s23 -49 23 -87z" />
    <glyph glyph-name="registered" unicode="&#xae;" horiz-adv-x="630" 
d="M577 443c0 -70.667 -26 -131.834 -78 -183.501s-113.333 -77.5 -184 -77.5c-72 0 -133.667 25.833 -185 77.5s-77 112.834 -77 183.501s25.833 131.667 77.5 183s113.167 77 184.5 77c70.667 0 132 -25.667 184 -77s78 -112.333 78 -183zM549 443
c0 64 -23 119.333 -69 166s-101 70 -165 70c-64.667 0 -119.834 -23.333 -165.501 -70s-68.5 -102 -68.5 -166c0 -64.667 22.833 -120.334 68.5 -167.001s100.834 -70 165.501 -70c64 0 119 23.333 165 70s69 102.334 69 167.001zM483 306l-97.0039 0.00292969l-11 43
c-4 15.333 -8.66699 29.333 -14 42c-5.33301 14 -14.166 26.167 -26.499 36.5s-25.166 15.5 -38.499 15.5h-19v-95c0 -3.33301 0.666992 -6.83301 2 -10.5s4.33301 -6.16699 9 -7.5c2.66699 -0.666992 7.66699 -1.5 15 -2.5s13.666 -1.5 18.999 -1.5v-20h-139v20
c4.66699 0 10.667 0.333008 18 1s12.333 1.66699 15 3c4.66699 2 7.66699 4.33301 9 7s2 6.33398 2 11.001v207c0 4.66699 -0.666992 8.5 -2 11.5s-4.33301 5.16699 -9 6.5c-3.33301 1.33301 -8.33301 2.5 -15 3.5s-12.667 1.83301 -18 2.5v20h150
c22.667 0 43.334 -5.33301 62.001 -16s28 -28.334 28 -53.001c0 -24 -8.5 -41.167 -25.5 -51.5s-35.5 -17.833 -55.5 -22.5v-2c14.667 -2.66699 28.5 -8.16699 41.5 -16.5s22.833 -20.5 29.5 -36.5c2.66699 -6.66699 6 -16 10 -28s6.33301 -19.333 7 -22
c2.66699 -8.66699 6.33398 -14.334 11.001 -17.001s9.33398 -4.33398 14.001 -5.00098c3.33301 -0.666992 7.33301 -1.33398 12 -2.00098s10 -1 16 -1v-20zM365.996 526.003c0 18 -5.5 31.001 -16.5 39.001s-23.833 12 -38.5 12h-34v-111h24
c18.667 0 34.167 5.16699 46.5 15.5s18.5 25.166 18.5 44.499z" />
    <glyph glyph-name="copyright" unicode="&#xa9;" horiz-adv-x="942" 
d="M903 251c0 -119.333 -42.667 -221.167 -128 -305.5s-186.333 -126.5 -303 -126.5c-118 0 -219.667 42.5 -305 127.5s-128 186.5 -128 304.5c0 118.667 42.833 220 128.5 304s187.167 126 304.5 126c116 0 216.833 -42.667 302.5 -128s128.5 -186 128.5 -302zM865 250.999
c0 108 -38.333 200.833 -115 278.5s-169.334 116.5 -278.001 116.5c-109.333 0 -202.5 -38.833 -279.5 -116.5s-115.5 -170.5 -115.5 -278.5c0 -109.333 38.5 -203 115.5 -281s170.167 -117 279.5 -117c108.667 0 201.334 39 278.001 117s115 171.667 115 281zM669 154.999
c-16 -35.333 -38.333 -67.835 -67 -97.502s-70 -44.5 -124 -44.5c-71.333 0 -129 21.167 -173 63.5s-66 99.166 -66 170.499c0 68.667 23.833 126.334 71.5 173.001s108.167 70 181.5 70c19.333 0 39 -2.83301 59 -8.5s36 -12.834 48 -21.501l22 37l29 -1l4 -181h-25
c-12.667 36.667 -29.667 69.334 -51 98.001s-56.333 43 -105 43c-34.667 0 -65.5 -15.667 -92.5 -47s-40.5 -83.666 -40.5 -156.999c0 -58.667 15.167 -105.167 45.5 -139.5s67.833 -51.5 112.5 -51.5c40.667 0 72 10.333 94 31s39.667 45.334 53 74.001z" />
    <glyph glyph-name="trademark" unicode="&#x2122;" horiz-adv-x="830" 
d="M788 368l-156.005 0.00195312v23c6.66699 0 14.5 0.5 23.5 1.5s14.833 2.16699 17.5 3.5c4.66699 3.33301 8 6.16602 10 8.49902s3 5.83301 3 10.5v203l-108 -245h-17c-3.33301 11.333 -7.16602 22.333 -11.499 33l-13.5 33l-77 184v-161c0 -20 1 -33.833 3 -41.5
s5.33301 -13.5 10 -17.5c3.33301 -2 10.333 -4.5 21 -7.5s19.334 -4.5 26.001 -4.5v-23h-146v22c6 1.33301 13.5 2.5 22.5 3.5s16.167 3.5 21.5 7.5s8.83301 9.83301 10.5 17.5s2.5 21.5 2.5 41.5v156c0 8 -1.16699 14.667 -3.5 20s-5.5 9.66602 -9.5 12.999
c-4.66699 4 -10.667 6.83301 -18 8.5s-15 2.83398 -23 3.50098v22h115l95 -221l79 181c2.66699 6.66699 5.16699 14.167 7.5 22.5s3.83301 14.166 4.5 17.499h111v-22c-5.33301 0 -11.666 -0.666992 -18.999 -2s-13.333 -2.66602 -18 -3.99902
c-4 -0.666992 -6.83301 -2.66699 -8.5 -6s-2.5 -7.33301 -2.5 -12v-222c0 -4 0.666992 -7.5 2 -10.5s4.33301 -5.5 9 -7.5c2.66699 -0.666992 7.83398 -1.83398 15.501 -3.50098s14.834 -2.5 21.501 -2.5v-23zM332.995 593.002l-21.9961 0.000976562
c-3.33301 11.333 -9.33301 24.333 -18 39s-18 23 -28 25c-6 0.666992 -12.333 1.16699 -19 1.5s-12.334 0.5 -17.001 0.5h-13v-242c0 -4 0.666992 -7.66699 2 -11s4.33301 -6 9 -8c1.33301 0 3.66602 -0.666992 6.99902 -2s7 -2 11 -2
c3.33301 -0.666992 7.16602 -1.33398 11.499 -2.00098s7.83301 -1 10.5 -1v-23h-157v23c5.33301 0 12.666 0.5 21.999 1.5s15.333 2.16699 18 3.5c4.66699 2 7.66699 4.66699 9 8s2 6.66602 2 9.99902v245h-13c-4.66699 0 -10.834 -0.333008 -18.501 -1s-13.5 -1 -17.5 -1
c-8.66699 -1.33301 -17.667 -9.66602 -27 -24.999s-15.666 -28.333 -18.999 -39h-22v90h289v-90z" />
    <glyph glyph-name="acute" unicode="&#xb4;" horiz-adv-x="500" 
d="M340 703c0 -11.333 -2.83203 -21 -8.49902 -29s-14.834 -16.667 -27.501 -26l-52 -39.5l-96 -74.5l-14 12c29.333 43.333 49.833 74.333 61.5 93l35.5 59c9.33301 16.667 18.833 28 28.5 34s20.5 9 32.5 9c11.333 0 20.833 -4 28.5 -12s11.5 -16.667 11.5 -26z" />
    <glyph glyph-name="dieresis" unicode="&#xa8;" horiz-adv-x="500" 
d="M417 659c0 -17.333 -5.5 -31.832 -16.5 -43.499s-25.167 -17.5 -42.5 -17.5c-16 0 -29.667 5.66699 -41 17s-17 24.666 -17 39.999c0 16 5.66699 29.833 17 41.5s25 17.5 41 17.5c16.667 0 30.667 -5.5 42 -16.5s17 -23.833 17 -38.5zM200 659.001
c0 -17.333 -5.49902 -31.832 -16.499 -43.499s-25.5 -17.5 -43.5 -17.5c-15.333 0 -28.666 5.66699 -39.999 17s-17 24.666 -17 39.999c0 16 5.66699 29.833 17 41.5s24.666 17.5 39.999 17.5c17.333 0 31.666 -5.5 42.999 -16.5s17 -23.833 17 -38.5z" />
    <glyph glyph-name="AE" unicode="&#xc6;" horiz-adv-x="940" 
d="M916 202l-12.999 -202.004h-577v33c9.33301 0.666992 23.166 2 41.499 4s30.833 4.33301 37.5 7c11.333 4.66699 19.333 10.834 24 18.501s7 17.834 7 30.501v176h-225c-13.333 -22.667 -26.833 -47 -40.5 -73s-24.5 -47.333 -32.5 -64
c-4.66699 -8.66699 -8.5 -17.5 -11.5 -26.5s-4.5 -16.5 -4.5 -22.5c0 -18 10.5 -30.667 31.5 -38s41.5 -11.333 61.5 -12v-33h-275v33c8.66699 0.666992 21 2.83398 37 6.50098s28.333 7.83398 37 12.501c11.333 6 22.166 13.833 32.499 23.5s21.166 24.167 32.499 43.5
l146.5 253.5l151.5 266.5c-10 3.33301 -22.5 6 -37.5 8s-28.167 3.33301 -39.5 4v32h562v-165h-37c-6 23.333 -19.667 49 -41 77s-43.333 43.667 -66 47c-10.667 1.33301 -22.667 2.33301 -36 3s-29 1 -47 1h-93v-273h80c28 0 47.833 3.83301 59.5 11.5
s19.834 14.167 24.501 19.5c8 8.66699 14.833 21.667 20.5 39s9.16699 33.333 10.5 48h37v-279h-37c-1.33301 16 -5.16602 33.5 -11.499 52.5s-12.833 32.167 -19.5 39.5s-15.667 14.333 -27 21s-30.333 10 -57 10h-80v-46v-70v-60.5v-28.5c0 -42 6.83301 -67.667 20.5 -77
s46.5 -14 98.5 -14c22 0 48.5 1.5 79.5 4.5s50.833 9.16699 59.5 18.5c14.667 16 30.667 39.5 48 70.5s28.333 54.167 33 69.5h35zM436.001 309.996v330h-13l-187 -330h200z" />
    <glyph glyph-name="Oslash" unicode="&#xd8;" horiz-adv-x="777" 
d="M738 346c0 -50 -8.49805 -98.5 -25.498 -145.5s-43.167 -87.167 -78.5 -120.5c-36 -32.667 -74.333 -56.834 -115 -72.501s-85.334 -23.5 -134.001 -23.5c-40 0 -78.5 6.33301 -115.5 19s-71.167 31.334 -102.5 56.001l-90 -102l-33 27l92 104
c-29.333 29.333 -52.833 65.333 -70.5 108s-26.5 88.667 -26.5 138c0 55.333 8 104.333 24 147s40.333 80.667 73 114c32 32.667 69.5 58.167 112.5 76.5s89.833 27.5 140.5 27.5c43.333 0 81.833 -5.33301 115.5 -16s68.5 -30 104.5 -58l90 102l34 -28l-91 -103
c31.333 -32 55.166 -68.5 71.499 -109.5s24.5 -87.833 24.5 -140.5zM560.002 568c-18 27.333 -41.332 49.001 -69.999 65.001s-62.334 24 -101.001 24c-71.333 0 -127.5 -27.833 -168.5 -83.5s-61.5 -133.834 -61.5 -234.501c0 -39.333 2.5 -73 7.5 -101
s14.167 -56.667 27.5 -86zM618.003 343.001c0 34 -2.66504 66.834 -7.99805 98.501s-14.333 61.5 -27 89.5l-367 -415c19.333 -28.667 43.166 -50.834 71.499 -66.501s62.166 -23.5 101.499 -23.5c76 0 133.167 30.167 171.5 90.5s57.5 135.833 57.5 226.5z" />
    <glyph glyph-name="plusminus" unicode="&#xb1;" horiz-adv-x="580" 
d="M531 19v52h-214v163h214v52h-214v215h-54v-215h-214v-52h214v-163h-214v-52h482z" />
    <glyph glyph-name="yen" unicode="&#xa5;" horiz-adv-x="579" 
d="M588 579c-4.66699 0 -12.832 -2 -24.499 -6s-19.834 -7.33301 -24.501 -10c-14 -7.33301 -23.833 -14.166 -29.5 -20.499l-20.5 -23.5c-25.333 -31.333 -48.666 -65.833 -69.999 -103.5l-61 -108.5c-3.33301 -6 -6.16602 -11.5 -8.49902 -16.5l-7.5 -16.5h152v-39h-161
c-1.33301 -5.33301 -2 -10.666 -2 -15.999v-13v-112c0 -10 2.5 -19.5 7.5 -28.5s12.167 -15.5 21.5 -19.5c8 -3.33301 20.167 -6.33301 36.5 -9s29.166 -4 38.499 -4v-33h-310v33l41.5 3c18.333 1.33301 31.166 3.33301 38.499 6c10.667 4 18.5 10.333 23.5 19
s7.5 18 7.5 28v146h-158v39h152l-6.5 15c-2.33301 5.33301 -5.16602 11 -8.49902 17l-55.5 106l-53.5 95c-8.66699 14.667 -17.834 26.5 -27.501 35.5s-19.5 16.5 -29.5 22.5c-7.33301 4.66699 -16.5 8 -27.5 10s-20.5 3.33301 -28.5 4v28h282v-28
c-12.667 -0.666992 -30.334 -2.33398 -53.001 -5.00098s-34 -8 -34 -16c0 -1.33301 0.833008 -4 2.5 -8l6.5 -15c2.66699 -6 6.33398 -13.333 11.001 -22l15 -28l40.5 -74l51.5 -92l99.5 161c22.333 37.333 33.5 59.666 33.5 66.999c0 12.667 -9.66699 20.667 -29 24
s-39 6 -59 8v28h228v-28z" />
    <glyph glyph-name="mu1" unicode="&#xb5;" 
d="M630 317c0 -83.333 -29.667 -154.666 -89 -213.999s-130.666 -89 -213.999 -89s-154.666 29.667 -213.999 89s-89 130.666 -89 213.999s29.667 154.666 89 213.999s130.666 89 213.999 89s154.666 -29.667 213.999 -89s89 -130.666 89 -213.999zM327 20
c26 0 46 3.33105 60 9.99805s21 16 21 28c0 18 -13.5 47.667 -40.5 89s-40.5 98 -40.5 170s13.5 129.333 40.5 172s40.5 71.667 40.5 87c0 12 -7 21.333 -21 28s-34 10 -60 10c-81.333 0 -151.166 -29.167 -209.499 -87.5s-87.5 -128.166 -87.5 -209.499
s29.167 -151.166 87.5 -209.499s128.166 -87.5 209.499 -87.5z" />
    <glyph glyph-name="ordfeminine" unicode="&#xaa;" horiz-adv-x="450" 
d="M393 376c-2 -32.667 -9.5 -56.667 -22.5 -72s-32.167 -23 -57.5 -23c-16.667 0 -30 3.83301 -40 11.5s-17.333 19.5 -22 35.5h-3c-14 -15.333 -28.833 -27.166 -44.5 -35.499s-35.834 -12.5 -60.501 -12.5s-44.834 7.16699 -60.501 21.5s-23.5 33.5 -23.5 57.5
c0 26.667 7.16699 47 21.5 61s32.5 25.333 54.5 34c20.667 8.66699 41.834 16.5 63.501 23.5s37.834 13.5 48.501 19.5v30v2v3v4.5c0 1.66699 -0.333008 3.16699 -1 4.5c-0.666992 3.33301 -1.5 7 -2.5 11s-2.5 7.66699 -4.5 11c-3.33301 7.33301 -9 14 -17 20
s-18.667 9 -32 9c-11.333 0 -20.333 -1.5 -27 -4.5s-12 -6.16699 -16 -9.5c0 -5.33301 1 -11.833 3 -19.5s3 -15.167 3 -22.5c0 -8 -3.83301 -15.5 -11.5 -22.5s-18.167 -10.5 -31.5 -10.5c-12 0 -20.833 4 -26.5 12s-8.5 17 -8.5 27c0 21.333 12.833 39.833 38.5 55.5
s52.5 23.5 80.5 23.5c36.667 0 66.5 -6 89.5 -18s34.5 -42 34.5 -90c0 -30.667 -0.666992 -61.834 -2 -93.501s-2 -53.167 -2 -64.5c0 -3.33301 1.66699 -9.33301 5 -18s10 -13 20 -13c9.33301 0 16.5 4.66699 21.5 14s7.83301 22 8.5 38h24zM379 155h-313v46h313v-46z
M248 467c-32 -9.33301 -59.667 -21.168 -83 -35.501s-35 -35.5 -35 -63.5c0 -18 4.5 -30.667 13.5 -38s20.5 -11 34.5 -11c16 0 29.167 3.33301 39.5 10s19.5 15.334 27.5 26.001z" />
    <glyph glyph-name="ordmasculine" unicode="&#xba;" horiz-adv-x="450" 
d="M387 453c0 -47.333 -14.5 -88.333 -43.5 -123s-69.833 -52 -122.5 -52c-42 0 -78.833 15.333 -110.5 46s-47.5 72 -47.5 124c0 50.667 14.833 92 44.5 124s69.167 48 118.5 48c48.667 0 87.667 -16 117 -48s44 -71.667 44 -119zM382 155h-314v46h314v-46zM310 452
c0 34 -6.16699 65.501 -18.5 94.501s-34.5 43.5 -66.5 43.5c-34 0 -56.667 -15.5 -68 -46.5s-17 -61.167 -17 -90.5c0 -38.667 6.5 -72.5 19.5 -101.5s34.833 -43.5 65.5 -43.5c29.333 0 50.833 14.667 64.5 44s20.5 62.666 20.5 99.999z" />
    <glyph glyph-name="ae" unicode="&#xe6;" horiz-adv-x="731" 
d="M711 109c-18 -36 -42.3369 -65.166 -73.0039 -87.499s-68.334 -33.5 -113.001 -33.5c-36 0 -69.333 6.5 -100 19.5s-59 37.5 -85 73.5h-3c-27.333 -37.333 -55.666 -62.166 -84.999 -74.499s-60.333 -18.5 -93 -18.5c-35.333 0 -64.166 9.83301 -86.499 29.5
s-33.5 46.5 -33.5 80.5c0 42.667 10 73.334 30 92.001s42.667 33 68 43c22.667 9.33301 52.167 19.5 88.5 30.5l83.5 25.5v53c0 4.66699 -0.333008 12 -1 22s-4.66699 21.667 -12 35c-6 12 -15 22.167 -27 30.5s-28 12.5 -48 12.5c-16.667 0 -30.5 -2.83301 -41.5 -8.5
s-18.833 -10.834 -23.5 -15.501c0 -7.33301 1.5 -16.833 4.5 -28.5s4.5 -22.834 4.5 -33.501c0 -11.333 -4.83301 -21.5 -14.5 -30.5s-24.167 -13.5 -43.5 -13.5c-16 0 -27.5 5.5 -34.5 16.5s-10.5 23.5 -10.5 37.5c0 29.333 17.833 54.833 53.5 76.5
s72.834 32.5 111.501 32.5c36 0 66.667 -3.5 92 -10.5s45 -21.833 59 -44.5c16.667 16 36.834 29.167 60.501 39.5s48.167 15.5 73.5 15.5c68 0 116.333 -19.333 145 -58s43 -83 43 -133v-26h-302c0 -72.667 12.5 -127.334 37.5 -164.001s62.5 -55 112.5 -55
c34 0 60.833 8.16699 80.5 24.5s36.834 37.833 51.501 64.5zM603.996 295.001c0 13.333 -0.99707 28.999 -2.99707 46.999s-6.33301 34 -13 48c-6.66699 14.667 -16.334 26.834 -29.001 36.501s-29.334 14.5 -50.001 14.5c-32.667 0 -59.334 -15 -80.001 -45
s-31 -64.333 -31 -103zM309.999 91l0.000976562 161.001c-48 -8.66699 -89 -23.834 -123 -45.501s-51 -52.167 -51 -91.5c0 -26 6.16699 -45 18.5 -57s29.166 -18 50.499 -18c25.333 0 46.333 5 63 15s30.667 22 42 36z" />
    <glyph glyph-name="oslash" unicode="&#xf8;" horiz-adv-x="528" 
d="M494 236c0 -67.333 -20.501 -125.832 -61.501 -175.499s-98.833 -74.5 -173.5 -74.5c-26 0 -51 4.5 -75 13.5s-45.667 21.5 -65 37.5l-61 -73l-21 20l61 73c-20 21.333 -35.833 46 -47.5 74s-17.5 60.667 -17.5 98c0 72 21.333 131 64 177s99 69 169 69
c30 0 56.833 -4.5 80.5 -13.5s43.834 -20.167 60.501 -33.5l59 70l24 -19l-61 -72c21.333 -22 37.5 -46.833 48.5 -74.5s16.5 -59.834 16.5 -96.501zM365.999 378.001c-10 19.333 -23.333 34.6689 -40 46.002s-37 17 -61 17c-26 0 -47.5 -6.33301 -64.5 -19
s-30.5 -28.667 -40.5 -48c-9.33301 -16 -16.333 -38 -21 -66s-7 -51.667 -7 -71c0 -24.667 1.16699 -46.334 3.5 -65.001s6.5 -37.334 12.5 -56.001zM394.999 235.004c0 17.333 -1.16797 36.833 -3.50098 58.5s-6.16602 40.167 -11.499 55.5l-218 -261
c10.667 -21.333 24 -38 40 -50s37 -18 63 -18c44 0 76.667 21.333 98 64s32 93 32 151z" />
    <glyph glyph-name="questiondown" unicode="&#xbf;" horiz-adv-x="482" 
d="M374 629c0 -19.333 -6.33301 -35.333 -19 -48s-28.667 -19 -48 -19s-35.333 6.33301 -48 19s-19 28.667 -19 48s6.33301 35 19 47s28.667 18 48 18s35.333 -6 48 -18s19 -27.667 19 -47zM449 88c0 -25.333 -14.333 -48.665 -43 -69.998s-70 -32 -124 -32
c-70 0 -122.833 19.167 -158.5 57.5s-53.5 85.833 -53.5 142.5s20.833 103.667 62.5 141s93.167 60 154.5 68l3 110h38v-186c-36.667 -4.66699 -73.167 -16.834 -109.5 -36.501s-54.5 -54.5 -54.5 -104.5c0 -58.667 11.5 -99.167 34.5 -121.5s51.5 -33.5 85.5 -33.5
c10.667 0 23 1.5 37 4.5s24 8.5 30 16.5c-1.33301 3.33301 -3.33301 8.66602 -6 15.999s-4 19.333 -4 36c0 17.333 7.33301 29.833 22 37.5s26.334 11.5 35.001 11.5c17.333 0 30.166 -5.5 38.499 -16.5s12.5 -24.5 12.5 -40.5z" />
    <glyph glyph-name="exclamdown" unicode="&#xa1;" horiz-adv-x="365" 
d="M247 629c0 -19.333 -6.33301 -35.333 -19 -48s-28.667 -19 -48 -19s-35.333 6.33301 -48 19s-19 28.667 -19 48s6.33301 35.166 19 47.499s28.667 18.5 48 18.5s35.333 -6.16699 48 -18.5s19 -28.166 19 -47.499zM242 53c0 -19.333 -5.5 -35.5 -16.5 -48.5
s-26.167 -19.5 -45.5 -19.5c-18 0 -32.833 6.66699 -44.5 20s-17.5 29.333 -17.5 48c0 11.333 1.5 29.833 4.5 55.5l11.5 98.5l14.5 125.5c5.66699 49.667 10.5 96.167 14.5 139.5h36c5.33301 -70 13.833 -153.167 25.5 -249.5s17.5 -152.833 17.5 -169.5z" />
    <glyph glyph-name="logicalnot" unicode="&#xac;" 
d="M630 317c0 -83.333 -29.667 -154.666 -89 -213.999s-130.666 -89 -213.999 -89s-154.666 29.667 -213.999 89s-89 130.666 -89 213.999s29.667 154.666 89 213.999s130.666 89 213.999 89s154.666 -29.667 213.999 -89s89 -130.666 89 -213.999zM327 20
c26 0 46 3.33105 60 9.99805s21 16 21 28c0 18 -13.5 47.667 -40.5 89s-40.5 98 -40.5 170s13.5 129.333 40.5 172s40.5 71.667 40.5 87c0 12 -7 21.333 -21 28s-34 10 -60 10c-81.333 0 -151.166 -29.167 -209.499 -87.5s-87.5 -128.166 -87.5 -209.499
s29.167 -151.166 87.5 -209.499s128.166 -87.5 209.499 -87.5z" />
    <glyph glyph-name="florin" unicode="&#x192;" horiz-adv-x="514" 
d="M522 536c0 -12 -3.99414 -23.501 -11.9941 -34.501s-21 -16.5 -39 -16.5c-16 0 -29.333 3.5 -40 10.5s-16 19.833 -16 38.5c0 7.33301 0.666992 14.166 2 20.499s3.66602 15.5 6.99902 27.5c-2.66699 4 -5.5 7 -8.5 9s-7.5 3 -13.5 3
c-32.667 0 -59.834 -15.167 -81.501 -45.5s-38.834 -81.166 -51.501 -152.499l-10 -59h126l-9 -41h-124l-17.5 -108.5c-6.33301 -39 -14.166 -79.167 -23.499 -120.5c-8.66699 -37.333 -20.834 -74.166 -36.501 -110.499s-37.834 -66.833 -66.501 -91.5
c-22.667 -20.667 -44.834 -35.5 -66.501 -44.5s-45.834 -13.5 -72.501 -13.5c-39.333 0 -67.166 9.16699 -83.499 27.5s-24.5 37.5 -24.5 57.5c0 14 4 26 12 36s21 15 39 15c14.667 0 27.667 -4.83301 39 -14.5s17 -23.5 17 -41.5c0 -8 -1.5 -15.333 -4.5 -22
s-6.5 -12 -10.5 -16c1.33301 -4.66699 3.83301 -8 7.5 -10s7.16699 -3 10.5 -3c36.667 0 66 15.333 88 46s41 83 57 157c13.333 65.333 22.666 115.333 27.999 150l16 107h-106l8 41h105c8.66699 53.333 21 98 37 134s38.333 68.667 67 98c20 20 41.667 34.167 65 42.5
s47.333 12.5 72 12.5c34 0 61.5 -9.5 82.5 -28.5s31.5 -38.833 31.5 -59.5z" />
    <glyph glyph-name="guillemotleft" unicode="&#xab;" horiz-adv-x="560" 
d="M509 33l-21 -18.002l-120 96.5l-87 70.5c-8 6 -13.667 11 -17 15s-5 13 -5 27c0 12.667 1.5 20.834 4.5 24.501s8.16699 8.83398 15.5 15.501l82 64c36.667 28 79 62.667 127 104l21 -18l-157 -192zM300 32.998l-21 -18.002l-120 96.5l-87 70.5c-8 6 -13.667 11 -17 15
s-5 13 -5 27c0 12.667 1.5 20.834 4.5 24.501s8.16699 8.83398 15.5 15.501l82 64c36.667 28 79 62.667 127 104l21 -18l-157 -192z" />
    <glyph glyph-name="guillemotright" unicode="&#xbb;" horiz-adv-x="560" 
d="M510 224c0 -12.667 -1.66699 -21.5 -5 -26.5s-9 -10.167 -17 -15.5l-81.5 -66l-125.5 -101l-21 18l157 189l-157 192l21 18l126.5 -103.5l82.5 -64.5c7.33301 -5.33301 12.5 -10.5 15.5 -15.5s4.5 -13.167 4.5 -24.5zM301 224c0 -12.667 -1.66699 -21.5 -5 -26.5
s-9 -10.167 -17 -15.5l-81.5 -66l-125.5 -101l-21 18l157 189l-157 192l21 18l126.5 -103.5l82.5 -64.5c7.33301 -5.33301 12.5 -10.5 15.5 -15.5s4.5 -13.167 4.5 -24.5z" />
    <glyph glyph-name="ellipsis" unicode="&#x2026;" horiz-adv-x="822" 
d="M749 55c0 -17.333 -6.33301 -32.166 -19 -44.499s-27.667 -18.5 -45 -18.5s-32.333 6.16699 -45 18.5s-19 27.166 -19 44.499s6.33301 32.333 19 45s27.667 19 45 19s32.333 -6.33301 45 -19s19 -27.667 19 -45zM475 55c0 -17.333 -6.33301 -32.166 -19 -44.499
s-27.667 -18.5 -45 -18.5s-32.333 6.16699 -45 18.5s-19 27.166 -19 44.499s6.33301 32.333 19 45s27.667 19 45 19s32.333 -6.33301 45 -19s19 -27.667 19 -45zM201 55c0 -17.333 -6.33301 -32.166 -19 -44.499s-27.667 -18.5 -45 -18.5s-32.333 6.16699 -45 18.5
s-19 27.166 -19 44.499s6.33301 32.333 19 45s27.667 19 45 19s32.333 -6.33301 45 -19s19 -27.667 19 -45z" />
    <glyph glyph-name="Agrave" unicode="&#xc0;" horiz-adv-x="697" 
d="M721 0l-314.997 0.00292969v33c20 1.33301 41.833 4 65.5 8s35.5 10.667 35.5 20c0 3.33301 -0.333008 7.16602 -1 11.499s-1.66699 8.16602 -3 11.499l-60 153h-245c-6.66699 -15.333 -13.334 -32.333 -20.001 -51s-12.667 -36.667 -18 -54
c-4 -12 -6.83301 -22.833 -8.5 -32.5s-2.5 -17.5 -2.5 -23.5c0 -14.667 14.833 -25.334 44.5 -32.001s52.5 -10.334 68.5 -11.001v-33h-285v33c8.66699 0.666992 20.5 2.66699 35.5 6s26.5 7.33301 34.5 12c13.333 8 24.166 16.333 32.499 25s16.5 23 24.5 43l114.5 284
l115.5 291h43l145.5 -371l87.5 -224c3.33301 -9.33301 8.83301 -18.166 16.5 -26.499s17.167 -15.833 28.5 -22.5c8 -4.66699 19.167 -8.66699 33.5 -12s25.166 -5 32.499 -5v-33zM426.003 280.003l-106 267l-105 -267h211zM406.003 737.003l-14.001 -12l-89.5 69.5
c-25.667 19 -45.167 33.833 -58.5 44.5s-22.666 19 -27.999 25s-8 16 -8 30c0 10 4 18.833 12 26.5s17.333 11.5 28 11.5c14 0 25 -2.66699 33 -8s17.333 -17 28 -35l42 -69z" />
    <glyph glyph-name="Atilde" unicode="&#xc3;" horiz-adv-x="697" 
d="M721 0l-314.997 0.00292969v33c20 1.33301 41.833 4 65.5 8s35.5 10.667 35.5 20c0 3.33301 -0.333008 7.16602 -1 11.499s-1.66699 8.16602 -3 11.499l-60 153h-245c-6.66699 -15.333 -13.334 -32.333 -20.001 -51s-12.667 -36.667 -18 -54
c-4 -12 -6.83301 -22.833 -8.5 -32.5s-2.5 -17.5 -2.5 -23.5c0 -14.667 14.833 -25.334 44.5 -32.001s52.5 -10.334 68.5 -11.001v-33h-285v33c8.66699 0.666992 20.5 2.66699 35.5 6s26.5 7.33301 34.5 12c13.333 8 24.166 16.333 32.499 25s16.5 23 24.5 43l114.5 284
l115.5 291h43l145.5 -371l87.5 -224c3.33301 -9.33301 8.83301 -18.166 16.5 -26.499s17.167 -15.833 28.5 -22.5c8 -4.66699 19.167 -8.66699 33.5 -12s25.166 -5 32.499 -5v-33zM426.003 280.003l-106 267l-105 -267h211zM532.003 870.003
c-7.33301 -25.333 -21.833 -52.499 -43.5 -81.499s-49.834 -43.5 -84.501 -43.5c-18.667 0 -35.667 2.83301 -51 8.5s-28.333 11.834 -39 18.501l-33.5 18c-11.667 6 -24.167 9 -37.5 9c-20.667 0 -35.167 -5.66699 -43.5 -17s-19.5 -29 -33.5 -53l-23 10
c6 19.333 21.667 45 47 77s51.333 48 78 48c18 0 34.167 -2.83301 48.5 -8.5s27.833 -11.834 40.5 -18.501c10.667 -6.66699 21.5 -12.834 32.5 -18.501s22.5 -8.5 34.5 -8.5c30 0 49.333 6.5 58 19.5s17.334 29.5 26.001 49.5z" />
    <glyph glyph-name="Otilde" unicode="&#xd5;" horiz-adv-x="777" 
d="M583 886c-7.33301 -25.333 -21.833 -52.499 -43.5 -81.499s-49.834 -43.5 -84.501 -43.5c-18.667 0 -35.667 2.83301 -51 8.5s-28.333 11.834 -39 18.501l-33.5 18c-11.667 6 -24.167 9 -37.5 9c-20.667 0 -35.167 -5.66699 -43.5 -17s-19.5 -29 -33.5 -53l-23 10
c6 19.333 21.667 45 47 77s51.333 48 78 48c18 0 34.167 -2.83301 48.5 -8.5s27.833 -11.834 40.5 -18.501c10.667 -6.66699 21.5 -12.834 32.5 -18.501s22.5 -8.5 34.5 -8.5c30 0 49.333 6.5 58 19.5s17.334 29.5 26.001 49.5zM738 346.001
c0 -50 -8.49805 -98.499 -25.498 -145.499s-43.167 -87.167 -78.5 -120.5c-36 -32.667 -74.333 -56.834 -115 -72.501s-85.334 -23.5 -134.001 -23.5c-45.333 0 -88.333 8 -129 24s-77.334 39.333 -110.001 70c-33.333 31.333 -59.5 68.333 -78.5 111s-28.5 91 -28.5 145
c0 55.333 8 104.333 24 147s40.333 80.667 73 114c32 32.667 69.5 58.167 112.5 76.5s89.833 27.5 140.5 27.5c48 0 92.667 -8 134 -24s81.333 -42.667 120 -80c29.333 -29.333 52.5 -65.833 69.5 -109.5s25.5 -90.167 25.5 -139.5zM617.002 343.002
c0 38 -4.16699 76.501 -12.5 115.501s-21.5 72.5 -39.5 100.5c-18.667 30 -42.167 53.833 -70.5 71.5s-63.5 26.5 -105.5 26.5c-71.333 0 -127.333 -27.833 -168 -83.5s-61 -133.834 -61 -234.501c0 -94 20.167 -169.667 60.5 -227s96.5 -86 168.5 -86
c76 0 133 30.167 171 90.5s57 135.833 57 226.5z" />
    <glyph glyph-name="OE" unicode="&#x152;" horiz-adv-x="1023" 
d="M995 202l-13 -202h-426c-43.333 -0 -82 -0.166992 -116 -0.5s-62 -0.5 -84 -0.5c-40.667 0 -80.5 7.83301 -119.5 23.5s-72.5 37.5 -100.5 65.5c-30 30.667 -53.833 66.167 -71.5 106.5s-26.5 86.833 -26.5 139.5c0 56 7.16699 103.333 21.5 142s36.833 75 67.5 109
c30 32.667 65.667 57.5 107 74.5s83.333 25.5 126 25.5c41.333 0 76.5 -0.333008 105.5 -1s59.167 -1 90.5 -1h390v-165h-37c-6 23.333 -19.667 49 -41 77s-43.333 43.667 -66 47c-10.667 1.33301 -22.667 2.33301 -36 3s-29 1 -47 1h-93v-273h62
c28 0 47.833 3.83301 59.5 11.5s19.834 14.167 24.501 19.5c8 8.66699 14.833 21.667 20.5 39s9.16699 33.333 10.5 48h37v-279h-37c-1.33301 16 -5.16602 33.5 -11.499 52.5s-12.833 32.167 -19.5 39.5s-15.667 14.333 -27 21s-30.333 10 -57 10h-62v-205
c0 -42 6.83301 -67.667 20.5 -77s46.5 -14 98.5 -14c31.333 0 59.166 1.33301 83.499 4s41.166 9 50.499 19c14.667 16 30.667 39.5 48 70.5s28.333 54.167 33 69.5h35zM532 343c0 63.333 -1.99707 116.5 -5.99707 159.5s-16 76.5 -36 100.5
c-13.333 16.667 -30 28.667 -50 36s-43.333 11 -70 11c-68.667 0 -121.167 -29.167 -157.5 -87.5s-54.5 -132.833 -54.5 -223.5c0 -40.667 3.66699 -78.5 11 -113.5s19.666 -67.5 36.999 -97.5s39.666 -53.5 66.999 -70.5s59.666 -25.5 96.999 -25.5
c28 0 51.5 3.83301 70.5 11.5s33.833 17.167 44.5 28.5c19.333 20 32 54.833 38 104.5s9 105.167 9 166.5z" />
    <glyph glyph-name="oe" unicode="&#x153;" horiz-adv-x="814" 
d="M794 109c-18 -36 -42.5039 -64.999 -73.5039 -86.999s-68.833 -33 -113.5 -33c-36 0 -69.667 6.66699 -101 20s-56.666 33 -75.999 59c-21.333 -26 -45.666 -46 -72.999 -60s-60.333 -21 -99 -21c-59.333 0 -111.666 21.667 -156.999 65s-68 102.333 -68 177
c0 67.333 20.333 125.166 61 173.499s97.667 72.5 171 72.5c35.333 0 68 -7 98 -21s55.333 -33.333 76 -58c18 23.333 40 42.333 66 57s55.667 22 89 22c66.667 0 114.834 -19 144.501 -57s44.5 -84.333 44.5 -139v-26h-303c0 -70 12.5 -123.167 37.5 -159.5
s62.5 -54.5 112.5 -54.5c34 0 61 8.16699 81 24.5s37.333 37.833 52 64.5zM686.996 290.001c0 14.667 -1.16797 31.502 -3.50098 50.502s-6.5 35.5 -12.5 49.5c-7.33301 15.333 -17.5 27.666 -30.5 36.999s-29.5 14 -49.5 14c-33.333 0 -60.166 -15.333 -80.499 -46
s-30.5 -66.334 -30.5 -107.001zM382.995 230.003c0 51.333 -8.16699 99.333 -24.5 144s-48.5 67 -96.5 67c-24.667 0 -45.167 -6.16699 -61.5 -18.5s-29.833 -28.833 -40.5 -49.5c-10 -19.333 -16.833 -42.166 -20.5 -68.499s-5.5 -48.833 -5.5 -67.5
c0 -58.667 10.167 -109.5 30.5 -152.5s52.833 -64.5 97.5 -64.5c42.667 0 73.5 19.667 92.5 59s28.5 89.666 28.5 150.999z" />
    <glyph glyph-name="endash" unicode="&#x2013;" horiz-adv-x="542" 
d="M492 240h-442v61h442v-61z" />
    <glyph glyph-name="emdash" unicode="&#x2014;" horiz-adv-x="930" 
d="M856 325h-782v61h782v-61z" />
    <glyph glyph-name="quotedblleft" unicode="&#x201c;" horiz-adv-x="354" 
d="M333 711c-26 -14.667 -47.833 -31.167 -65.5 -49.5s-28.167 -42.833 -31.5 -73.5h25c24 0 40.333 -5.66699 49 -17s13 -24.333 13 -39c0 -13.333 -5 -26 -15 -38s-24 -18 -42 -18c-28 0 -47.5 9.16699 -58.5 27.5s-16.5 42.5 -16.5 72.5c0 42.667 16.167 77.5 48.5 104.5
s58.833 46.5 79.5 58.5zM164 711c-26 -14.667 -47.833 -31.167 -65.5 -49.5s-28.167 -42.833 -31.5 -73.5h25c24 0 40.333 -5.66699 49 -17s13 -24.333 13 -39c0 -13.333 -5 -26 -15 -38s-24 -18 -42 -18c-28 0 -47.5 9.16699 -58.5 27.5s-16.5 42.5 -16.5 72.5
c0 42.667 16.167 77.5 48.5 104.5s58.833 46.5 79.5 58.5z" />
    <glyph glyph-name="quotedblright" unicode="&#x201d;" horiz-adv-x="354" 
d="M333 737c0 -42.667 -17.001 -77.667 -51.001 -105s-60.333 -46 -79 -56l-14 28c26 15.333 48.333 31.333 67 48s29.334 41 32.001 73h-25c-24 0 -40.333 5.66699 -49 17s-13 24.333 -13 39c0 13.333 5 26 15 38s24 18 42 18c28 0 47.5 -9.16699 58.5 -27.5
s16.5 -42.5 16.5 -72.5zM163.999 737c0 -42.667 -17.001 -77.667 -51.001 -105s-60.333 -46 -79 -56l-14 28c26 15.333 48.333 31.333 67 48s29.334 41 32.001 73h-25c-24 0 -40.333 5.66699 -49 17s-13 24.333 -13 39c0 13.333 5 26 15 38s24 18 42 18
c28 0 47.5 -9.16699 58.5 -27.5s16.5 -42.5 16.5 -72.5z" />
    <glyph glyph-name="quoteleft" unicode="&#x2018;" horiz-adv-x="185" 
d="M164 811c-26 -14.667 -47.833 -30.667 -65.5 -48s-28.167 -41.333 -31.5 -72h25c24 0 40.833 -6.16699 50.5 -18.5s14.5 -25.833 14.5 -40.5c0 -13.333 -5.16699 -26 -15.5 -38s-24.5 -18 -42.5 -18c-28 0 -48 9.16699 -60 27.5s-18 42.5 -18 72.5
c0 42.667 16 77.667 48 105s58.333 47 79 59z" />
    <glyph glyph-name="quoteright" unicode="&#x2019;" horiz-adv-x="185" 
d="M164 737c0 -42.667 -16.667 -78.166 -50 -106.499s-59.333 -47.5 -78 -57.5l-15 29c26 15.333 48 31.166 66 47.499s28.333 40.5 31 72.5h-25c-24 0 -40.833 6.16699 -50.5 18.5s-14.5 25.833 -14.5 40.5c0 13.333 5.16699 26 15.5 38s24.5 18 42.5 18
c28 0 48 -9.16699 60 -27.5s18 -42.5 18 -72.5z" />
    <glyph glyph-name="divide" unicode="&#xf7;" horiz-adv-x="542" 
d="M324 421c0 -14 -5 -26 -15 -36s-22.333 -15 -37 -15c-14 0 -26 5 -36 15c-10.667 10 -16 22 -16 36c0 14.667 5.33301 27 16 37c10 10 22 15 36 15c14.667 0 27 -5 37 -15s15 -22.333 15 -37zM492 240h-442v61h442v-61zM324 118c0 -14 -5 -26 -15 -36
c-10 -10.667 -22.333 -16 -37 -16c-14 0 -26 5.33301 -36 16c-10.667 10.667 -16 22.667 -16 36c0 14.667 5 27 15 37c10.667 10 23 15 37 15c14.667 0 27 -5 37 -15s15 -22.333 15 -37z" />
    <glyph glyph-name="ydieresis" unicode="&#xff;" horiz-adv-x="470" 
d="M488 433c-10.667 -1.33301 -23.502 -6.83203 -38.502 -16.499s-26.833 -22.834 -35.5 -39.501l-47.5 -113l-62.5 -150l-33 -83c-10.667 -28 -17 -43.333 -19 -46c-45.333 -101.333 -79.666 -161.833 -102.999 -181.5s-51.666 -29.5 -84.999 -29.5
c-13.333 0 -29 5.16699 -47 15.5s-27 27.833 -27 52.5c0 12.667 5.16699 25.5 15.5 38.5s24.166 19.5 41.499 19.5c10.667 0 22 -3.33301 34 -10s18 -20 18 -40v-25c29.333 6.66699 56.833 37.5 82.5 92.5l38.5 82.5l-80.5 198.5l-76.5 183.5
c-6.66699 14.667 -17 25.834 -31 33.501s-28.333 12.834 -43 15.501v31h219v-33c-10 0 -21.5 -1.83301 -34.5 -5.5s-19.5 -8.83398 -19.5 -15.501l2 -6.5c1.33301 -4.33301 3 -9.16602 5 -14.499c10.667 -28.667 25.167 -65 43.5 -109l63.5 -156h4l51.5 126l47.5 120
c0.666992 3.33301 1.83398 7.66602 3.50098 12.999s2.5 10.333 2.5 15c0 10 -9 18.167 -27 24.5s-30.667 10.166 -38 11.499v30h176v-29zM416.998 659.001c0 -17.333 -5.5 -31.832 -16.5 -43.499s-25.167 -17.5 -42.5 -17.5c-16 0 -29.667 5.66699 -41 17
s-17 24.666 -17 39.999c0 16 5.66699 29.833 17 41.5s25 17.5 41 17.5c16.667 0 30.667 -5.5 42 -16.5s17 -23.833 17 -38.5zM199.998 659.002c0 -17.333 -5.49902 -31.832 -16.499 -43.499s-25.5 -17.5 -43.5 -17.5c-15.333 0 -28.666 5.66699 -39.999 17
s-17 24.666 -17 39.999c0 16 5.66699 29.833 17 41.5s24.666 17.5 39.999 17.5c17.333 0 31.666 -5.5 42.999 -16.5s17 -23.833 17 -38.5z" />
    <glyph glyph-name="Ydieresis" unicode="&#x178;" horiz-adv-x="627" 
d="M500 821c0 -17.333 -5.5 -31.832 -16.5 -43.499s-25.167 -17.5 -42.5 -17.5c-16 0 -29.667 5.66699 -41 17s-17 24.666 -17 39.999c0 16 5.66699 29.833 17 41.5s25 17.5 41 17.5c16.667 0 30.667 -5.5 42 -16.5s17 -23.833 17 -38.5zM283 821.001
c0 -17.333 -5.49902 -31.832 -16.499 -43.499s-25.5 -17.5 -43.5 -17.5c-15.333 0 -28.666 5.66699 -39.999 17s-17 24.666 -17 39.999c0 16 5.66699 29.833 17 41.5s24.666 17.5 39.999 17.5c17.333 0 31.666 -5.5 42.999 -16.5s17 -23.833 17 -38.5zM661.001 650.002
c-6.66699 0 -16.498 -2.33008 -29.498 -6.99707s-22.5 -8.66699 -28.5 -12c-14.667 -8 -25.334 -15.333 -32.001 -22s-15.334 -16.334 -26.001 -29.001c-28 -34.667 -53.833 -73 -77.5 -115l-74.5 -131c-9.33301 -16 -17.5 -35 -24.5 -57s-10.5 -40.333 -10.5 -55v-123
c0 -12.667 2 -22.834 6 -30.501s12.333 -14.167 25 -19.5c2.66699 -1.33301 7.66699 -2.83301 15 -4.5l24 -5.5l24 -4c8 -1.33301 14.333 -2 19 -2v-33h-332v33c9.33301 0.666992 23.666 2 42.999 4s32.333 4.33301 39 7c11.333 4.66699 19.333 11 24 19s7 18.333 7 31v164
c0 10 -2.83301 22.167 -8.5 36.5s-11.5 27.166 -17.5 38.499l-59.5 112l-67.5 121c-11.333 19.333 -22.5 33.833 -33.5 43.5s-21.833 17.834 -32.5 24.501c-10 5.33301 -20.667 9.16602 -32 11.499s-22 3.83301 -32 4.5v33h322v-33
c-14.667 -0.666992 -35.167 -2.5 -61.5 -5.5s-39.5 -9.16699 -39.5 -18.5c0 -2 1 -5.5 3 -10.5s4.66699 -11.167 8 -18.5l14 -27.5l18 -34.5l48 -88l62 -111l114.5 187c30.333 52 45.5 82 45.5 90c0 14.667 -11.167 24 -33.5 28s-45.166 7 -68.499 9v33h260v-33z" />
    <glyph glyph-name="currency" unicode="&#x20ac;" 
d="M630 317c0 -83.333 -29.667 -154.666 -89 -213.999s-130.666 -89 -213.999 -89s-154.666 29.667 -213.999 89s-89 130.666 -89 213.999s29.667 154.666 89 213.999s130.666 89 213.999 89s154.666 -29.667 213.999 -89s89 -130.666 89 -213.999zM327 20
c26 0 46 3.33105 60 9.99805s21 16 21 28c0 18 -13.5 47.667 -40.5 89s-40.5 98 -40.5 170s13.5 129.333 40.5 172s40.5 71.667 40.5 87c0 12 -7 21.333 -21 28s-34 10 -60 10c-81.333 0 -151.166 -29.167 -209.499 -87.5s-87.5 -128.166 -87.5 -209.499
s29.167 -151.166 87.5 -209.499s128.166 -87.5 209.499 -87.5z" />
    <glyph glyph-name="guilsinglleft" unicode="&#x2039;" horiz-adv-x="351" 
d="M300 33l-21 -18.002l-120 96.5l-87 70.5c-8 6 -13.667 11 -17 15s-5 13 -5 27c0 12.667 1.5 20.834 4.5 24.501s8.16699 8.83398 15.5 15.501l82 64c36.667 28 79 62.667 127 104l21 -18l-157 -192z" />
    <glyph glyph-name="guilsinglright" unicode="&#x203a;" horiz-adv-x="542" 
d="M492 340v61h-442v-61h442z" />
    <glyph glyph-name="daggerdbl" unicode="&#x2021;" horiz-adv-x="522" 
d="M469 551c0 -13.333 -3.49902 -23.8379 -10.499 -31.5049s-19.167 -11.5 -36.5 -11.5c-18 0 -34.833 4.33301 -50.5 13s-32.834 13 -51.501 13c-10 0 -17.5 -3.66699 -22.5 -11s-8.83301 -19.666 -11.5 -36.999c-2 -15.333 -4.16699 -36.166 -6.5 -62.499
s-5.16602 -56.166 -8.49902 -89.499h-20l-8.5 90.5c-2.33301 25 -4.5 45.5 -6.5 61.5c-2.66699 17.333 -6.16699 29.666 -10.5 36.999s-12.166 11 -23.499 11c-20.667 0 -38 -4.33301 -52 -13s-30.667 -13 -50 -13c-16 0 -27.833 4 -35.5 12s-11.5 18.333 -11.5 31
c0 10 3.5 18.5 10.5 25.5s15.5 10.5 25.5 10.5s19 -3.66699 27 -11s13 -17.333 15 -30c10.667 1.33301 20.167 4 28.5 8s21.166 6 38.499 6c12.667 0 22.667 -1.83301 30 -5.5s14.333 -9.5 21 -17.5c-1.33301 16.667 -7 36.834 -17 60.501s-15 44.834 -15 63.501
c0 12.667 3.66699 24 11 34s18.333 15 33 15c14 0 24.833 -5 32.5 -15s11.5 -21.333 11.5 -34c0 -18.667 -5 -40.167 -15 -64.5s-15.667 -44.166 -17 -59.499c5.33301 6.66699 12.666 12.167 21.999 16.5s19 6.5 29 6.5c14.667 0 27.667 -2.16699 39 -6.5
s20.666 -6.83301 27.999 -7.5c2 12.667 6.83301 22.667 14.5 30s16.834 11 27.501 11c10 0 18.5 -3.5 25.5 -10.5s10.5 -15.5 10.5 -25.5zM469.001 80.9951c0 -10 -3.50195 -18.501 -10.502 -25.501s-15.5 -10.5 -25.5 -10.5c-11.333 0 -20.5 3.33301 -27.5 10
s-11.833 17 -14.5 31c-7.33301 -0.666992 -16.833 -3.16699 -28.5 -7.5s-24.5 -6.5 -38.5 -6.5c-12 0 -21.833 1.83301 -29.5 5.5s-14.834 9.5 -21.501 17.5c0.666992 -14 6.16699 -33.333 16.5 -58s15.5 -46.667 15.5 -66c0 -12.667 -3.66699 -24 -11 -34
s-18.333 -15 -33 -15c-14 0 -24.833 5 -32.5 15s-11.5 21.333 -11.5 34c0 18.667 5.16699 40.5 15.5 65.5s15.833 44.5 16.5 58.5c-6.66699 -7.33301 -13.5 -13 -20.5 -17s-17.167 -6 -30.5 -6c-12.667 0 -25.167 2 -37.5 6s-22.166 6.66699 -29.499 8
c-2.66699 -14 -7.5 -24.333 -14.5 -31s-16.167 -10 -27.5 -10c-10 0 -18.5 3.5 -25.5 10.5s-10.5 15.5 -10.5 25.5c0 13.333 3.5 23.833 10.5 31.5s19.167 11.5 36.5 11.5c18 0 34.833 -4.33301 50.5 -13s32.834 -13 51.501 -13c10 0 17.667 4 23 12s9 20 11 36
c1.33301 14.667 3.5 35.834 6.5 63.501s5.83301 57.167 8.5 88.5h20c2 -24 4.83301 -52.5 8.5 -85.5s5.83398 -55.167 6.50098 -66.5c2 -16 5.5 -28 10.5 -36s12.833 -12 23.5 -12c20.667 0 38 4.33301 52 13s30.667 13 50 13c16 0 27.833 -4 35.5 -12
s11.5 -18.333 11.5 -31z" />
    <glyph glyph-name="periodcentered" unicode="&#xb7;" 
d="M630 317c0 -83.333 -29.667 -154.666 -89 -213.999s-130.666 -89 -213.999 -89s-154.666 29.667 -213.999 89s-89 130.666 -89 213.999s29.667 154.666 89 213.999s130.666 89 213.999 89s154.666 -29.667 213.999 -89s89 -130.666 89 -213.999zM327 20
c26 0 46 3.33105 60 9.99805s21 16 21 28c0 18 -13.5 47.667 -40.5 89s-40.5 98 -40.5 170s13.5 129.333 40.5 172s40.5 71.667 40.5 87c0 12 -7 21.333 -21 28s-34 10 -60 10c-81.333 0 -151.166 -29.167 -209.499 -87.5s-87.5 -128.166 -87.5 -209.499
s29.167 -151.166 87.5 -209.499s128.166 -87.5 209.499 -87.5z" />
    <glyph glyph-name="quotesinglbase" unicode="&#x201a;" horiz-adv-x="185" 
d="M174 17c0 -42.667 -16.667 -78.166 -50 -106.499s-59.333 -47.5 -78 -57.5l-15 29c26 15.333 48 31.166 66 47.499s28.333 40.5 31 72.5h-25c-24 0 -40.833 6.16699 -50.5 18.5s-14.5 25.833 -14.5 40.5c0 13.333 5.16699 26 15.5 38s24.5 18 42.5 18
c28 0 48 -9.16699 60 -27.5s18 -42.5 18 -72.5z" />
    <glyph glyph-name="quotedblbase" unicode="&#x201e;" horiz-adv-x="354" 
d="M333 114c0 -42 -17.001 -76.667 -51.001 -104s-60.333 -46 -79 -56l-14 28c26 15.333 48.333 31.333 67 48s29.334 40.667 32.001 72h-25c-24 0 -40.333 5.66699 -49 17s-13 24.333 -13 39c0 13.333 5 26 15 38s24 18 42 18c28 0 47.5 -9.16699 58.5 -27.5
s16.5 -42.5 16.5 -72.5zM163.999 114c0 -42 -17.001 -76.667 -51.001 -104s-60.333 -46 -79 -56l-14 28c26 15.333 48.333 31.333 67 48s29.334 40.667 32.001 72h-25c-24 0 -40.333 5.66699 -49 17s-13 24.333 -13 39c0 13.333 5 26 15 38s24 18 42 18
c28 0 47.5 -9.16699 58.5 -27.5s16.5 -42.5 16.5 -72.5z" />
    <glyph glyph-name="perthousand" unicode="&#x2030;" horiz-adv-x="1267" 
d="M1202 143c0 -43.333 -16.667 -80.333 -50 -111s-70.333 -46 -111 -46s-77 13.5 -109 40.5s-48 65.5 -48 115.5c0 44 16.5 82 49.5 114s68.833 48 107.5 48c40.667 0 77.667 -13.333 111 -40s50 -67 50 -121zM813 143c0 -43.333 -16.667 -80.333 -50 -111
s-70.333 -46 -111 -46s-77 13.5 -109 40.5s-48 65.5 -48 115.5c0 44 16.5 82 49.5 114s68.833 48 107.5 48c40.667 0 77.667 -13.333 111 -40s50 -67 50 -121zM671 672l-429 -773l-37 21l427 773zM383 459c0 -43.333 -16.833 -80.333 -50.5 -111s-70.5 -46 -110.5 -46
c-41.333 0 -77.833 13.333 -109.5 40s-47.5 65.334 -47.5 116.001c0 45.333 16.5 83.666 49.5 114.999s68.833 47 107.5 47c41.333 0 78.5 -12.833 111.5 -38.5s49.5 -66.5 49.5 -122.5zM1123 141c0 44 -7.33203 77.001 -21.999 99.001s-34.334 33 -59.001 33
s-44.167 -11.333 -58.5 -34s-21.5 -53.667 -21.5 -93c0 -40.667 7.16699 -72.334 21.5 -95.001s34.5 -34 60.5 -34c21.333 0 39.833 9.66699 55.5 29s23.5 51 23.5 95zM734.001 141.001c0 44 -7.33203 77.001 -21.999 99.001s-34.334 33 -59.001 33
s-44.167 -11.333 -58.5 -34s-21.5 -53.667 -21.5 -93c0 -40.667 7.16699 -72.334 21.5 -95.001s34.5 -34 60.5 -34c21.333 0 39.833 9.66699 55.5 29s23.5 51 23.5 95zM304.002 457.002c0 43.333 -7.33203 76.168 -21.999 98.501s-34.334 33.5 -59.001 33.5
s-44.167 -11 -58.5 -33s-21.5 -53.333 -21.5 -94s7.16699 -72.334 21.5 -95.001s34.5 -34 60.5 -34c21.333 0 39.833 9.33301 55.5 28s23.5 50.667 23.5 96z" />
    <glyph glyph-name="Acircumflex" unicode="&#xc2;" horiz-adv-x="697" 
d="M721 0l-314.997 0.00292969v33c20 1.33301 41.833 4 65.5 8s35.5 10.667 35.5 20c0 3.33301 -0.333008 7.16602 -1 11.499s-1.66699 8.16602 -3 11.499l-60 153h-245c-6.66699 -15.333 -13.334 -32.333 -20.001 -51s-12.667 -36.667 -18 -54
c-4 -12 -6.83301 -22.833 -8.5 -32.5s-2.5 -17.5 -2.5 -23.5c0 -14.667 14.833 -25.334 44.5 -32.001s52.5 -10.334 68.5 -11.001v-33h-285v33c8.66699 0.666992 20.5 2.66699 35.5 6s26.5 7.33301 34.5 12c13.333 8 24.166 16.333 32.499 25s16.5 23 24.5 43l114.5 284
l115.5 291h43l145.5 -371l87.5 -224c3.33301 -9.33301 8.83301 -18.166 16.5 -26.499s17.167 -15.833 28.5 -22.5c8 -4.66699 19.167 -8.66699 33.5 -12s25.166 -5 32.499 -5v-33zM426.003 280.003l-106 267l-105 -267h211zM505.003 740.003l-19 -12l-141 134l-139 -134
l-19 12l72 105l44 66c5.33301 8.66699 11 14.5 17 17.5s15 4.5 27 4.5c16 0 25.833 -1.66699 29.5 -5s7.5 -8.33301 11.5 -15l49 -72.5z" />
    <glyph glyph-name="Ecircumflex" unicode="&#xca;" horiz-adv-x="668" 
d="M499 741l-19 -12l-141 134l-139 -134l-19 12l72 105l44 66c5.33301 8.66699 11 14.5 17 17.5s15 4.5 27 4.5c16 0 25.833 -1.66699 29.5 -5s7.5 -8.33301 11.5 -15l49 -72.5zM644 202l-13.001 -202.002h-592v33c9.33301 0.666992 23.166 2 41.499 4
s30.833 4.33301 37.5 7c11.333 4.66699 19.333 10.834 24 18.501s7 17.834 7 30.501v491c0 11.333 -1.83301 21 -5.5 29s-12.167 14.667 -25.5 20c-11.333 4.66699 -24.833 8.5 -40.5 11.5s-28.5 4.83301 -38.5 5.5v33h551v-165h-37c-6 23.333 -19.667 49 -41 77
s-43.333 43.667 -66 47c-10.667 1.33301 -22.667 2.33301 -36 3s-29 1 -47 1h-108v-273h80c28 0 47.833 3.83301 59.5 11.5s19.834 14.167 24.501 19.5c8 8.66699 14.833 21.667 20.5 39s9.16699 33.333 10.5 48h37v-279h-37c-1.33301 16 -5.16602 33.5 -11.499 52.5
s-12.833 32.167 -19.5 39.5s-15.667 14.333 -27 21s-30.333 10 -57 10h-80v-205c0 -42 6.83301 -67.667 20.5 -77s46.5 -14 98.5 -14c22 0 50.833 1.16699 86.5 3.5s58.167 8.83301 67.5 19.5c14.667 16 30.667 39.5 48 70.5s28.333 54.167 33 69.5h35z" />
    <glyph glyph-name="Aacute" unicode="&#xc1;" horiz-adv-x="697" 
d="M721 0l-314.997 0.00292969v33c20 1.33301 41.833 4 65.5 8s35.5 10.667 35.5 20c0 3.33301 -0.333008 7.16602 -1 11.499s-1.66699 8.16602 -3 11.499l-60 153h-245c-6.66699 -15.333 -13.334 -32.333 -20.001 -51s-12.667 -36.667 -18 -54
c-4 -12 -6.83301 -22.833 -8.5 -32.5s-2.5 -17.5 -2.5 -23.5c0 -14.667 14.833 -25.334 44.5 -32.001s52.5 -10.334 68.5 -11.001v-33h-285v33c8.66699 0.666992 20.5 2.66699 35.5 6s26.5 7.33301 34.5 12c13.333 8 24.166 16.333 32.499 25s16.5 23 24.5 43l114.5 284
l115.5 291h43l145.5 -371l87.5 -224c3.33301 -9.33301 8.83301 -18.166 16.5 -26.499s17.167 -15.833 28.5 -22.5c8 -4.66699 19.167 -8.66699 33.5 -12s25.166 -5 32.499 -5v-33zM426.003 280.003l-106 267l-105 -267h211zM500.003 894.003
c0 -11.333 -2.83203 -21 -8.49902 -29s-14.834 -16.667 -27.501 -26l-52 -39.5l-96 -74.5l-14 12c29.333 43.333 49.833 74.333 61.5 93l35.5 59c9.33301 16.667 18.833 28 28.5 34s20.5 9 32.5 9c11.333 0 20.833 -4 28.5 -12s11.5 -16.667 11.5 -26z" />
    <glyph glyph-name="Edieresis" unicode="&#xcb;" horiz-adv-x="668" 
d="M644 202l-13.001 -202.002h-592v33c9.33301 0.666992 23.166 2 41.499 4s30.833 4.33301 37.5 7c11.333 4.66699 19.333 10.834 24 18.501s7 17.834 7 30.501v491c0 11.333 -1.83301 21 -5.5 29s-12.167 14.667 -25.5 20c-11.333 4.66699 -24.833 8.5 -40.5 11.5
s-28.5 4.83301 -38.5 5.5v33h551v-165h-37c-6 23.333 -19.667 49 -41 77s-43.333 43.667 -66 47c-10.667 1.33301 -22.667 2.33301 -36 3s-29 1 -47 1h-108v-273h80c28 0 47.833 3.83301 59.5 11.5s19.834 14.167 24.501 19.5c8 8.66699 14.833 21.667 20.5 39
s9.16699 33.333 10.5 48h37v-279h-37c-1.33301 16 -5.16602 33.5 -11.499 52.5s-12.833 32.167 -19.5 39.5s-15.667 14.333 -27 21s-30.333 10 -57 10h-80v-205c0 -42 6.83301 -67.667 20.5 -77s46.5 -14 98.5 -14c22 0 50.833 1.16699 86.5 3.5s58.167 8.83301 67.5 19.5
c14.667 16 30.667 39.5 48 70.5s28.333 54.167 33 69.5h35zM506.999 818.998c0 -17.333 -5.5 -31.832 -16.5 -43.499s-25.167 -17.5 -42.5 -17.5c-16 0 -29.667 5.66699 -41 17s-17 24.666 -17 39.999c0 16 5.66699 29.833 17 41.5s25 17.5 41 17.5
c16.667 0 30.667 -5.5 42 -16.5s17 -23.833 17 -38.5zM289.999 818.999c0 -17.333 -5.49902 -31.832 -16.499 -43.499s-25.5 -17.5 -43.5 -17.5c-15.333 0 -28.666 5.66699 -39.999 17s-17 24.666 -17 39.999c0 16 5.66699 29.833 17 41.5s24.666 17.5 39.999 17.5
c17.333 0 31.666 -5.5 42.999 -16.5s17 -23.833 17 -38.5z" />
    <glyph glyph-name="Egrave" unicode="&#xc8;" horiz-adv-x="668" 
d="M644 202l-13.001 -202.002h-592v33c9.33301 0.666992 23.166 2 41.499 4s30.833 4.33301 37.5 7c11.333 4.66699 19.333 10.834 24 18.501s7 17.834 7 30.501v491c0 11.333 -1.83301 21 -5.5 29s-12.167 14.667 -25.5 20c-11.333 4.66699 -24.833 8.5 -40.5 11.5
s-28.5 4.83301 -38.5 5.5v33h551v-165h-37c-6 23.333 -19.667 49 -41 77s-43.333 43.667 -66 47c-10.667 1.33301 -22.667 2.33301 -36 3s-29 1 -47 1h-108v-273h80c28 0 47.833 3.83301 59.5 11.5s19.834 14.167 24.501 19.5c8 8.66699 14.833 21.667 20.5 39
s9.16699 33.333 10.5 48h37v-279h-37c-1.33301 16 -5.16602 33.5 -11.499 52.5s-12.833 32.167 -19.5 39.5s-15.667 14.333 -27 21s-30.333 10 -57 10h-80v-205c0 -42 6.83301 -67.667 20.5 -77s46.5 -14 98.5 -14c22 0 50.833 1.16699 86.5 3.5s58.167 8.83301 67.5 19.5
c14.667 16 30.667 39.5 48 70.5s28.333 54.167 33 69.5h35zM382.999 736.998l-14.001 -12l-89.5 69.5c-25.667 19 -45.167 33.833 -58.5 44.5s-22.666 19 -27.999 25s-8 16 -8 30c0 10 4 18.833 12 26.5s17.333 11.5 28 11.5c14 0 25 -2.66699 33 -8s17.333 -17 28 -35
l42 -69z" />
    <glyph glyph-name="Iacute" unicode="&#xcd;" horiz-adv-x="408" 
d="M361 0h-314.003v33l38 3c16.667 1.33301 28.334 3.33301 35.001 6c11.333 4.66699 19.333 10.667 24 18s7 17.333 7 30v495c0 11.333 -1.83301 20.833 -5.5 28.5s-12.167 14.167 -25.5 19.5c-10.667 4 -23.167 7.66699 -37.5 11s-26.166 5.33301 -35.499 6v33h314v-33
c-8.66699 0 -20.667 -1.33301 -36 -4s-27.666 -5.33398 -36.999 -8.00098c-13.333 -4 -21.833 -10.5 -25.5 -19.5s-5.5 -18.5 -5.5 -28.5v-495c0 -12 2 -21.667 6 -29s12.333 -13.666 25 -18.999c6 -2 17.167 -4.83301 33.5 -8.5s29.5 -5.5 39.5 -5.5v-33zM355.997 893
c0 -11.333 -2.83203 -21 -8.49902 -29s-14.834 -16.667 -27.501 -26l-52 -39.5l-96 -74.5l-14 12c29.333 43.333 49.833 74.333 61.5 93l35.5 59c9.33301 16.667 18.833 28 28.5 34s20.5 9 32.5 9c11.333 0 20.833 -4 28.5 -12s11.5 -16.667 11.5 -26z" />
    <glyph glyph-name="Icircumflex" unicode="&#xce;" horiz-adv-x="408" 
d="M361 0h-314.003v33l38 3c16.667 1.33301 28.334 3.33301 35.001 6c11.333 4.66699 19.333 10.667 24 18s7 17.333 7 30v495c0 11.333 -1.83301 20.833 -5.5 28.5s-12.167 14.167 -25.5 19.5c-10.667 4 -23.167 7.66699 -37.5 11s-26.166 5.33301 -35.499 6v33h314v-33
c-8.66699 0 -20.667 -1.33301 -36 -4s-27.666 -5.33398 -36.999 -8.00098c-13.333 -4 -21.833 -10.5 -25.5 -19.5s-5.5 -18.5 -5.5 -28.5v-495c0 -12 2 -21.667 6 -29s12.333 -13.666 25 -18.999c6 -2 17.167 -4.83301 33.5 -8.5s29.5 -5.5 39.5 -5.5v-33zM368.997 741
l-19 -12l-141 134l-139 -134l-19 12l72 105l44 66c5.33301 8.66699 11 14.5 17 17.5s15 4.5 27 4.5c16 0 25.833 -1.66699 29.5 -5s7.5 -8.33301 11.5 -15l49 -72.5z" />
    <glyph glyph-name="Idieresis" unicode="&#xcf;" horiz-adv-x="408" 
d="M361 0h-314.003v33l38 3c16.667 1.33301 28.334 3.33301 35.001 6c11.333 4.66699 19.333 10.667 24 18s7 17.333 7 30v495c0 11.333 -1.83301 20.833 -5.5 28.5s-12.167 14.167 -25.5 19.5c-10.667 4 -23.167 7.66699 -37.5 11s-26.166 5.33301 -35.499 6v33h314v-33
c-8.66699 0 -20.667 -1.33301 -36 -4s-27.666 -5.33398 -36.999 -8.00098c-13.333 -4 -21.833 -10.5 -25.5 -19.5s-5.5 -18.5 -5.5 -28.5v-495c0 -12 2 -21.667 6 -29s12.333 -13.666 25 -18.999c6 -2 17.167 -4.83301 33.5 -8.5s29.5 -5.5 39.5 -5.5v-33zM373.997 819
c0 -17.333 -5.5 -31.832 -16.5 -43.499s-25.167 -17.5 -42.5 -17.5c-16 0 -29.667 5.66699 -41 17s-17 24.666 -17 39.999c0 16 5.66699 29.833 17 41.5s25 17.5 41 17.5c16.667 0 30.667 -5.5 42 -16.5s17 -23.833 17 -38.5zM156.997 819.001
c0 -17.333 -5.49902 -31.832 -16.499 -43.499s-25.5 -17.5 -43.5 -17.5c-15.333 0 -28.666 5.66699 -39.999 17s-17 24.666 -17 39.999c0 16 5.66699 29.833 17 41.5s24.666 17.5 39.999 17.5c17.333 0 31.666 -5.5 42.999 -16.5s17 -23.833 17 -38.5z" />
    <glyph glyph-name="Igrave" unicode="&#xcc;" horiz-adv-x="408" 
d="M361 0h-314.003v33l38 3c16.667 1.33301 28.334 3.33301 35.001 6c11.333 4.66699 19.333 10.667 24 18s7 17.333 7 30v495c0 11.333 -1.83301 20.833 -5.5 28.5s-12.167 14.167 -25.5 19.5c-10.667 4 -23.167 7.66699 -37.5 11s-26.166 5.33301 -35.499 6v33h314v-33
c-8.66699 0 -20.667 -1.33301 -36 -4s-27.666 -5.33398 -36.999 -8.00098c-13.333 -4 -21.833 -10.5 -25.5 -19.5s-5.5 -18.5 -5.5 -28.5v-495c0 -12 2 -21.667 6 -29s12.333 -13.666 25 -18.999c6 -2 17.167 -4.83301 33.5 -8.5s29.5 -5.5 39.5 -5.5v-33zM251.997 737
l-14.001 -12l-89.5 69.5c-25.667 19 -45.167 33.833 -58.5 44.5s-22.666 19 -27.999 25s-8 16 -8 30c0 10 4 18.833 12 26.5s17.333 11.5 28 11.5c14 0 25 -2.66699 33 -8s17.333 -17 28 -35l42 -69z" />
    <glyph glyph-name="Oacute" unicode="&#xd3;" horiz-adv-x="777" 
d="M738 346c0 -50 -8.49805 -98.499 -25.498 -145.499s-43.167 -87.167 -78.5 -120.5c-36 -32.667 -74.333 -56.834 -115 -72.501s-85.334 -23.5 -134.001 -23.5c-45.333 0 -88.333 8 -129 24s-77.334 39.333 -110.001 70c-33.333 31.333 -59.5 68.333 -78.5 111
s-28.5 91 -28.5 145c0 55.333 8 104.333 24 147s40.333 80.667 73 114c32 32.667 69.5 58.167 112.5 76.5s89.833 27.5 140.5 27.5c48 0 92.667 -8 134 -24s81.333 -42.667 120 -80c29.333 -29.333 52.5 -65.833 69.5 -109.5s25.5 -90.167 25.5 -139.5zM617.002 343.001
c0 38 -4.16699 76.501 -12.5 115.501s-21.5 72.5 -39.5 100.5c-18.667 30 -42.167 53.833 -70.5 71.5s-63.5 26.5 -105.5 26.5c-71.333 0 -127.333 -27.833 -168 -83.5s-61 -133.834 -61 -234.501c0 -94 20.167 -169.667 60.5 -227s96.5 -86 168.5 -86
c76 0 133 30.167 171 90.5s57 135.833 57 226.5z" />
    <glyph glyph-name="Ocircumflex" unicode="&#xd4;" horiz-adv-x="777" 
d="M738 346c0 -50 -8.49805 -98.499 -25.498 -145.499s-43.167 -87.167 -78.5 -120.5c-36 -32.667 -74.333 -56.834 -115 -72.501s-85.334 -23.5 -134.001 -23.5c-45.333 0 -88.333 8 -129 24s-77.334 39.333 -110.001 70c-33.333 31.333 -59.5 68.333 -78.5 111
s-28.5 91 -28.5 145c0 55.333 8 104.333 24 147s40.333 80.667 73 114c32 32.667 69.5 58.167 112.5 76.5s89.833 27.5 140.5 27.5c48 0 92.667 -8 134 -24s81.333 -42.667 120 -80c29.333 -29.333 52.5 -65.833 69.5 -109.5s25.5 -90.167 25.5 -139.5zM617.002 343.001
c0 38 -4.16699 76.501 -12.5 115.501s-21.5 72.5 -39.5 100.5c-18.667 30 -42.167 53.833 -70.5 71.5s-63.5 26.5 -105.5 26.5c-71.333 0 -127.333 -27.833 -168 -83.5s-61 -133.834 -61 -234.501c0 -94 20.167 -169.667 60.5 -227s96.5 -86 168.5 -86
c76 0 133 30.167 171 90.5s57 135.833 57 226.5zM542.002 741.002l-19 -12l-141 134l-139 -134l-19 12l72 105l44 66c5.33301 8.66699 11 14.5 17 17.5s15 4.5 27 4.5c16 0 25.833 -1.66699 29.5 -5s7.5 -8.33301 11.5 -15l49 -72.5z" />
    <glyph glyph-name="Ograve" unicode="&#xd2;" horiz-adv-x="777" 
d="M738 346c0 -50 -8.49805 -98.499 -25.498 -145.499s-43.167 -87.167 -78.5 -120.5c-36 -32.667 -74.333 -56.834 -115 -72.501s-85.334 -23.5 -134.001 -23.5c-45.333 0 -88.333 8 -129 24s-77.334 39.333 -110.001 70c-33.333 31.333 -59.5 68.333 -78.5 111
s-28.5 91 -28.5 145c0 55.333 8 104.333 24 147s40.333 80.667 73 114c32 32.667 69.5 58.167 112.5 76.5s89.833 27.5 140.5 27.5c48 0 92.667 -8 134 -24s81.333 -42.667 120 -80c29.333 -29.333 52.5 -65.833 69.5 -109.5s25.5 -90.167 25.5 -139.5zM617.002 343.001
c0 38 -4.16699 76.501 -12.5 115.501s-21.5 72.5 -39.5 100.5c-18.667 30 -42.167 53.833 -70.5 71.5s-63.5 26.5 -105.5 26.5c-71.333 0 -127.333 -27.833 -168 -83.5s-61 -133.834 -61 -234.501c0 -94 20.167 -169.667 60.5 -227s96.5 -86 168.5 -86
c76 0 133 30.167 171 90.5s57 135.833 57 226.5zM444.002 736.002l-14.001 -12l-89.5 69.5c-25.667 19 -45.167 33.833 -58.5 44.5s-22.666 19 -27.999 25s-8 16 -8 30c0 10 4 18.833 12 26.5s17.333 11.5 28 11.5c14 0 25 -2.66699 33 -8s17.333 -17 28 -35l42 -69z" />
    <glyph glyph-name="Uacute" unicode="&#xda;" horiz-adv-x="798" 
d="M789 650c-10 0 -24.665 -2.00195 -43.998 -6.00195s-35.333 -9.66699 -48 -17c-12 -6.66699 -20.5 -21.834 -25.5 -45.501s-7.5 -52.834 -7.5 -87.501v-294c0 -40.667 -8.83301 -75.167 -26.5 -103.5s-39.167 -50.166 -64.5 -65.499c-28 -17.333 -56.333 -29.5 -85 -36.5
s-56.667 -10.5 -84 -10.5c-86 0 -152.167 19.5 -198.5 58.5s-69.5 84.833 -69.5 137.5v404c0 11.333 -2.16699 20.833 -6.5 28.5s-12.5 14.834 -24.5 21.501c-9.33301 4.66699 -21.333 8.33398 -36 11.001s-26 4.33398 -34 5.00098v33h311v-33
c-8.66699 0 -20.5 -1.33301 -35.5 -4s-27.167 -5.33398 -36.5 -8.00098c-13.333 -4 -21.833 -10.667 -25.5 -20s-5.5 -19 -5.5 -29v-379c0 -19.333 2 -38.666 6 -57.999s12.667 -38 26 -56c13.333 -17.333 31.166 -31.5 53.499 -42.5s54.166 -16.5 95.499 -16.5
c38 0 70 5.83301 96 17.5s46 26.834 60 45.501c12.667 16.667 21.834 34.334 27.501 53.001s8.5 39 8.5 61v274c0 35.333 -2.83301 64.666 -8.5 87.999s-14.167 38.666 -25.5 45.999c-12.667 8 -29.834 14.5 -51.501 19.5s-38.5 7.83301 -50.5 8.5v33h309v-33z
M555.002 893.998c0 -11.333 -2.83203 -21 -8.49902 -29s-14.834 -16.667 -27.501 -26l-52 -39.5l-96 -74.5l-14 12c29.333 43.333 49.833 74.333 61.5 93l35.5 59c9.33301 16.667 18.833 28 28.5 34s20.5 9 32.5 9c11.333 0 20.833 -4 28.5 -12s11.5 -16.667 11.5 -26z" />
    <glyph glyph-name="Ucircumflex" unicode="&#xdb;" horiz-adv-x="798" 
d="M789 650c-10 0 -24.665 -2.00195 -43.998 -6.00195s-35.333 -9.66699 -48 -17c-12 -6.66699 -20.5 -21.834 -25.5 -45.501s-7.5 -52.834 -7.5 -87.501v-294c0 -40.667 -8.83301 -75.167 -26.5 -103.5s-39.167 -50.166 -64.5 -65.499c-28 -17.333 -56.333 -29.5 -85 -36.5
s-56.667 -10.5 -84 -10.5c-86 0 -152.167 19.5 -198.5 58.5s-69.5 84.833 -69.5 137.5v404c0 11.333 -2.16699 20.833 -6.5 28.5s-12.5 14.834 -24.5 21.501c-9.33301 4.66699 -21.333 8.33398 -36 11.001s-26 4.33398 -34 5.00098v33h311v-33
c-8.66699 0 -20.5 -1.33301 -35.5 -4s-27.167 -5.33398 -36.5 -8.00098c-13.333 -4 -21.833 -10.667 -25.5 -20s-5.5 -19 -5.5 -29v-379c0 -19.333 2 -38.666 6 -57.999s12.667 -38 26 -56c13.333 -17.333 31.166 -31.5 53.499 -42.5s54.166 -16.5 95.499 -16.5
c38 0 70 5.83301 96 17.5s46 26.834 60 45.501c12.667 16.667 21.834 34.334 27.501 53.001s8.5 39 8.5 61v274c0 35.333 -2.83301 64.666 -8.5 87.999s-14.167 38.666 -25.5 45.999c-12.667 8 -29.834 14.5 -51.501 19.5s-38.5 7.83301 -50.5 8.5v33h309v-33z
M574.002 739.998l-19 -12l-141 134l-139 -134l-19 12l72 105l44 66c5.33301 8.66699 11 14.5 17 17.5s15 4.5 27 4.5c16 0 25.833 -1.66699 29.5 -5s7.5 -8.33301 11.5 -15l49 -72.5z" />
    <glyph glyph-name="Ugrave" unicode="&#xd9;" horiz-adv-x="798" 
d="M789 650c-10 0 -24.665 -2.00195 -43.998 -6.00195s-35.333 -9.66699 -48 -17c-12 -6.66699 -20.5 -21.834 -25.5 -45.501s-7.5 -52.834 -7.5 -87.501v-294c0 -40.667 -8.83301 -75.167 -26.5 -103.5s-39.167 -50.166 -64.5 -65.499c-28 -17.333 -56.333 -29.5 -85 -36.5
s-56.667 -10.5 -84 -10.5c-86 0 -152.167 19.5 -198.5 58.5s-69.5 84.833 -69.5 137.5v404c0 11.333 -2.16699 20.833 -6.5 28.5s-12.5 14.834 -24.5 21.501c-9.33301 4.66699 -21.333 8.33398 -36 11.001s-26 4.33398 -34 5.00098v33h311v-33
c-8.66699 0 -20.5 -1.33301 -35.5 -4s-27.167 -5.33398 -36.5 -8.00098c-13.333 -4 -21.833 -10.667 -25.5 -20s-5.5 -19 -5.5 -29v-379c0 -19.333 2 -38.666 6 -57.999s12.667 -38 26 -56c13.333 -17.333 31.166 -31.5 53.499 -42.5s54.166 -16.5 95.499 -16.5
c38 0 70 5.83301 96 17.5s46 26.834 60 45.501c12.667 16.667 21.834 34.334 27.501 53.001s8.5 39 8.5 61v274c0 35.333 -2.83301 64.666 -8.5 87.999s-14.167 38.666 -25.5 45.999c-12.667 8 -29.834 14.5 -51.501 19.5s-38.5 7.83301 -50.5 8.5v33h309v-33z
M459.002 735.998l-14.001 -12l-89.5 69.5c-25.667 19 -45.167 33.833 -58.5 44.5s-22.666 19 -27.999 25s-8 16 -8 30c0 10 4 18.833 12 26.5s17.333 11.5 28 11.5c14 0 25 -2.66699 33 -8s17.333 -17 28 -35l42 -69z" />
    <glyph glyph-name="circumflex" unicode="&#x2c6;" horiz-adv-x="500" 
d="M409 550l-19 -12l-141 134l-139 -134l-19 12l72 105l44 66c5.33301 8.66699 11 14.5 17 17.5s15 4.5 27 4.5c16 0 25.833 -1.66699 29.5 -5s7.5 -8.33301 11.5 -15l49 -72.5z" />
    <glyph glyph-name="tilde" unicode="&#x2dc;" horiz-adv-x="500" 
d="M444 700c-7.33301 -25.333 -21.833 -52.499 -43.5 -81.499s-49.834 -43.5 -84.501 -43.5c-18.667 0 -35.667 2.83301 -51 8.5s-28.333 11.834 -39 18.501l-33.5 18c-11.667 6 -24.167 9 -37.5 9c-20.667 0 -35.167 -5.66699 -43.5 -17s-19.5 -29 -33.5 -53l-23 10
c6 19.333 21.667 45 47 77s51.333 48 78 48c18 0 34.167 -2.83301 48.5 -8.5s27.833 -11.834 40.5 -18.501c10.667 -6.66699 21.5 -12.834 32.5 -18.501s22.5 -8.5 34.5 -8.5c30 0 49.333 6.5 58 19.5s17.334 29.5 26.001 49.5z" />
    <glyph glyph-name="macron" unicode="&#xaf;" 
d="M630 317c0 -83.333 -29.667 -154.666 -89 -213.999s-130.666 -89 -213.999 -89s-154.666 29.667 -213.999 89s-89 130.666 -89 213.999s29.667 154.666 89 213.999s130.666 89 213.999 89s154.666 -29.667 213.999 -89s89 -130.666 89 -213.999zM327 20
c26 0 46 3.33105 60 9.99805s21 16 21 28c0 18 -13.5 47.667 -40.5 89s-40.5 98 -40.5 170s13.5 129.333 40.5 172s40.5 71.667 40.5 87c0 12 -7 21.333 -21 28s-34 10 -60 10c-81.333 0 -151.166 -29.167 -209.499 -87.5s-87.5 -128.166 -87.5 -209.499
s29.167 -151.166 87.5 -209.499s128.166 -87.5 209.499 -87.5z" />
    <glyph glyph-name="cedilla" unicode="&#xb8;" horiz-adv-x="500" 
d="M355 -131c0 -42 -21.167 -70.167 -63.5 -84.5s-91.833 -21.5 -148.5 -21.5v36c28.667 0 59.167 2.16699 91.5 6.5s48.5 19.5 48.5 45.5c0 17.333 -11.333 27.833 -34 31.5s-42.667 5.5 -60 5.5v120h34v-63c26 0 54.5 -5.33301 85.5 -16s46.5 -30.667 46.5 -60z" />
    <glyph glyph-name="FL262" horiz-adv-x="500" 
d="M470 99v400l-400 -200z" />
    <glyph glyph-name="FL263" horiz-adv-x="500" 
d="M450 399l-400 200v-400z" />
    <glyph glyph-name="Scaron" horiz-adv-x="559" 
d="M521 195c0 -60.667 -22.5 -110.169 -67.5 -148.502s-99.5 -57.5 -163.5 -57.5c-38.667 0 -72.667 4.83301 -102 14.5s-51.666 20.834 -66.999 33.501l-35 -45h-34l-7 242h33c20 -52 46.667 -99.333 80 -142s81 -64 143 -64c44 0 75.5 10.833 94.5 32.5
s28.5 50.834 28.5 87.501c0 26.667 -7.83301 51.167 -23.5 73.5s-38.834 39.833 -69.501 52.5c-32.667 13.333 -56.667 22.833 -72 28.5s-39 15.834 -71 30.501c-40 18 -70.5 40.833 -91.5 68.5s-31.5 64.167 -31.5 109.5c0 52.667 20 96.667 60 132s88.333 53 145 53
c26 0 53 -5 81 -15s50.667 -21.667 68 -35l34 47h34l5 -237h-32c-20 56.667 -43.833 104 -71.5 142s-72.5 57 -134.5 57c-14 0 -34 -6.5 -60 -19.5s-39 -38.5 -39 -76.5c0 -28 7 -51.333 21 -70s35 -35.667 63 -51c26 -14 49.333 -24.333 70 -31s42.667 -15.667 66 -27
c43.333 -19.333 78.5 -41.333 105.5 -66s40.5 -64.334 40.5 -119.001zM438 923.998l-70.498 -103l-45.5 -68c-6.66699 -9.33301 -11.834 -15.333 -15.501 -18s-13.167 -4 -28.5 -4s-24.833 1.5 -28.5 4.5s-7.83398 8.16699 -12.501 15.5l-49 72.5l-68 100.5l19 12l141 -134
l139 134z" />
    <glyph glyph-name="scaron" horiz-adv-x="410" 
d="M365 711l-70.498 -103l-45.5 -68c-6.66699 -9.33301 -11.834 -15.333 -15.501 -18s-13.167 -4 -28.5 -4s-24.833 1.5 -28.5 4.5s-7.83398 8.16699 -12.501 15.5l-49 72.5l-68 100.5l19 12l141 -134l139 134zM373.002 132c0 -45.333 -16.667 -80.835 -50 -106.502
s-73.333 -38.5 -120 -38.5c-23.333 0 -46.833 4.33301 -70.5 13s-39.834 17.667 -48.501 27l-10 -31h-34l-5 161h32c4.66699 -22.667 20 -51 46 -85s57.333 -51 94 -51c34.667 0 59 7 73 21s21 33.667 21 59c0 26 -9.16699 45.5 -27.5 58.5s-47.833 25.5 -88.5 37.5
c-31.333 9.33301 -62.166 24.833 -92.499 46.5s-45.5 54.167 -45.5 97.5c0 38 13.833 69.833 41.5 95.5s64.5 38.5 110.5 38.5c18.667 0 37.334 -2.16699 56.001 -6.5s34.667 -11.166 48 -20.499l8 28h32l7 -145h-32c-5.33301 29.333 -17.5 54.833 -36.5 76.5
s-46.833 32.5 -83.5 32.5c-26 0 -45.667 -6.16699 -59 -18.5s-20 -27.833 -20 -46.5c0 -28 9.5 -47.667 28.5 -59s48.167 -23.333 87.5 -36c41.333 -13.333 74.666 -30.666 99.999 -51.999s38 -53.333 38 -96z" />
    <glyph glyph-name="brokenbar" horiz-adv-x="318" 
d="M185 356v390h-52v-390h52zM185 -207v390h-52v-390h52z" />
    <glyph glyph-name="twosuperior" horiz-adv-x="441" 
d="M403 345l-48.002 -124.998h-299v38c38.667 24 72.334 45.833 101.001 65.5s52.667 39.167 72 58.5c30 30.667 46.667 55.5 50 74.5s5 39.5 5 61.5c0 26 -7 45.5 -21 58.5s-31.333 19.5 -52 19.5c-22.667 0 -40.667 -4.5 -54 -13.5s-20.666 -21.5 -21.999 -37.5
c0.666992 -4 4.5 -9.33301 11.5 -16s10.5 -14.334 10.5 -23.001c0 -6.66699 -3.33301 -15.167 -10 -25.5s-19 -15.5 -37 -15.5c-14.667 0 -25.334 5.16699 -32.001 15.5s-10 20.166 -10 29.499c0 10.667 2.5 21.667 7.5 33s14.5 24 28.5 38
c10.667 11.333 26.834 21.333 48.501 30s45.5 13 71.5 13c42 0 76.833 -10.833 104.5 -32.5s41.5 -48.5 41.5 -80.5c0 -43.333 -13.667 -79.5 -41 -108.5s-83 -65.167 -167 -108.5l-20 -16h167c16 0 30.5 9.83301 43.5 29.5s22.167 35.167 27.5 46.5z" />
    <glyph glyph-name="threesuperior" 
d="M630 317c0 -83.333 -29.667 -154.666 -89 -213.999s-130.666 -89 -213.999 -89s-154.666 29.667 -213.999 89s-89 130.666 -89 213.999s29.667 154.666 89 213.999s130.666 89 213.999 89s154.666 -29.667 213.999 -89s89 -130.666 89 -213.999zM327 20
c26 0 46 3.33105 60 9.99805s21 16 21 28c0 18 -13.5 47.667 -40.5 89s-40.5 98 -40.5 170s13.5 129.333 40.5 172s40.5 71.667 40.5 87c0 12 -7 21.333 -21 28s-34 10 -60 10c-81.333 0 -151.166 -29.167 -209.499 -87.5s-87.5 -128.166 -87.5 -209.499
s29.167 -151.166 87.5 -209.499s128.166 -87.5 209.499 -87.5z" />
    <glyph glyph-name="onesuperior" horiz-adv-x="399" 
d="M337 220l-251.004 0.00195312v28c8 0.666992 19.167 1.16699 33.5 1.5s24.5 1.83301 30.5 4.5c6.66699 2 12.334 5.66699 17.001 11s7 12 7 20v267c-3.33301 -0.666992 -8.5 -1.33398 -15.5 -2.00098s-13.833 -1 -20.5 -1c-12.667 0 -26.5 4.16699 -41.5 12.5
s-29.167 17.166 -42.5 26.499l9 20l35 -12c10 -3.33301 24 -5 42 -5c21.333 0 42.833 3.66699 64.5 11s36.834 13.333 45.501 18h14c-3.33301 -16 -6 -33.833 -8 -53.5s-3 -36.5 -3 -50.5v-227c0 -7.33301 2.16699 -14 6.5 -20s9.83301 -10 16.5 -12
c4.66699 -2 14.334 -4 29.001 -6s25.334 -3 32.001 -3v-28z" />
    <glyph glyph-name="FL261" 
d="M630 317c0 -83.333 -29.667 -154.666 -89 -213.999s-130.666 -89 -213.999 -89s-154.666 29.667 -213.999 89s-89 130.666 -89 213.999s29.667 154.666 89 213.999s130.666 89 213.999 89s154.666 -29.667 213.999 -89s89 -130.666 89 -213.999zM327 20
c26 0 46 3.33105 60 9.99805s21 16 21 28c0 18 -13.5 47.667 -40.5 89s-40.5 98 -40.5 170s13.5 129.333 40.5 172s40.5 71.667 40.5 87c0 12 -7 21.333 -21 28s-34 10 -60 10c-81.333 0 -151.166 -29.167 -209.499 -87.5s-87.5 -128.166 -87.5 -209.499
s29.167 -151.166 87.5 -209.499s128.166 -87.5 209.499 -87.5z" />
    <glyph glyph-name="Eth" horiz-adv-x="781" 
d="M393 335h-345v42h345v-42zM608 613c38.667 -26.667 70.8301 -61.6709 96.4971 -105.004s38.5 -100.333 38.5 -171c0 -57.333 -11.5 -107.666 -34.5 -150.999s-52.833 -78.333 -89.5 -105c-38.667 -28 -80.667 -48.5 -126 -61.5s-93 -19.5 -143 -19.5h-306v33
c9.33301 0 22.333 0.833008 39 2.5s28.334 3.83398 35.001 6.50098c11.333 4.66699 19.333 10.834 24 18.501s7 17.834 7 30.501v493c0 12 -1.66699 22 -5 30s-12 15 -26 21c-10 4.66699 -22.333 8.16699 -37 10.5s-25.667 3.83301 -33 4.5v33h322
c36.667 0 75.334 -4.83301 116.001 -14.5s81.334 -28.167 122.001 -55.5zM619.996 337.996c0 90 -25.499 163.667 -76.499 221s-118.167 86 -201.5 86c-13.333 0 -29 -0.333008 -47 -1s-31.333 -1 -40 -1v-527c2.66699 -24.667 11.667 -43.667 27 -57s42.666 -20 81.999 -20
c86.667 0 151 27 193 81s63 126.667 63 218z" />
    <glyph glyph-name="multiply" 
d="M630 317c0 -83.333 -29.667 -154.666 -89 -213.999s-130.666 -89 -213.999 -89s-154.666 29.667 -213.999 89s-89 130.666 -89 213.999s29.667 154.666 89 213.999s130.666 89 213.999 89s154.666 -29.667 213.999 -89s89 -130.666 89 -213.999zM327 20
c26 0 46 3.33105 60 9.99805s21 16 21 28c0 18 -13.5 47.667 -40.5 89s-40.5 98 -40.5 170s13.5 129.333 40.5 172s40.5 71.667 40.5 87c0 12 -7 21.333 -21 28s-34 10 -60 10c-81.333 0 -151.166 -29.167 -209.499 -87.5s-87.5 -128.166 -87.5 -209.499
s29.167 -151.166 87.5 -209.499s128.166 -87.5 209.499 -87.5z" />
    <glyph glyph-name="Thorn" horiz-adv-x="633" 
d="M591 374c0 -71.333 -26.834 -124.334 -80.501 -159.001s-112.834 -52 -177.501 -52h-78v-70c0 -12 1.83301 -22.167 5.5 -30.5s12.167 -14.833 25.5 -19.5c6 -2 17.333 -4.16699 34 -6.5s31.667 -3.5 45 -3.5v-33h-319v33c8.66699 0.666992 21.167 1.83398 37.5 3.50098
s27.833 3.83398 34.5 6.50098c11.333 4.66699 19.333 11 24 19s7 18.333 7 31v492c0 11.333 -1.83301 20.833 -5.5 28.5s-12.167 14.167 -25.5 19.5c-10.667 4 -23.167 7.66699 -37.5 11s-26.166 5.33301 -35.499 6v33h314v-33c-8.66699 0 -20.667 -1.33301 -36 -4
s-27.666 -5.33398 -36.999 -8.00098c-13.333 -4 -21.833 -10.5 -25.5 -19.5s-5.5 -18.5 -5.5 -28.5v-52h122c58.667 0 109 -14.5 151 -43.5s63 -69.167 63 -120.5zM439.999 257.999c10 14.667 17.001 29.832 21.001 45.499s6 30.834 6 45.501
c0 37.333 -9.83301 71.833 -29.5 103.5s-57.834 47.5 -114.501 47.5h-68v-297h49c36 0 65 5.5 87 16.5s38.333 23.833 49 38.5z" />
    <glyph glyph-name="yacute" horiz-adv-x="470" 
d="M340 703c0 -11.333 -2.83203 -21 -8.49902 -29s-14.834 -16.667 -27.501 -26l-52 -39.5l-96 -74.5l-14 12c29.333 43.333 49.833 74.333 61.5 93l35.5 59c9.33301 16.667 18.833 28 28.5 34s20.5 9 32.5 9c11.333 0 20.833 -4 28.5 -12s11.5 -16.667 11.5 -26z
M488.001 433c-10.667 -1.33301 -23.502 -6.83203 -38.502 -16.499s-26.833 -22.834 -35.5 -39.501l-47.5 -113l-62.5 -150l-33 -83c-10.667 -28 -17 -43.333 -19 -46c-45.333 -101.333 -79.666 -161.833 -102.999 -181.5s-51.666 -29.5 -84.999 -29.5
c-13.333 0 -29 5.16699 -47 15.5s-27 27.833 -27 52.5c0 12.667 5.16699 25.5 15.5 38.5s24.166 19.5 41.499 19.5c10.667 0 22 -3.33301 34 -10s18 -20 18 -40v-25c29.333 6.66699 56.833 37.5 82.5 92.5l38.5 82.5l-80.5 198.5l-76.5 183.5
c-6.66699 14.667 -17 25.834 -31 33.501s-28.333 12.834 -43 15.501v31h219v-33c-10 0 -21.5 -1.83301 -34.5 -5.5s-19.5 -8.83398 -19.5 -15.501l2 -6.5c1.33301 -4.33301 3 -9.16602 5 -14.499c10.667 -28.667 25.167 -65 43.5 -109l63.5 -156h4l51.5 126l47.5 120
c0.666992 3.33301 1.83398 7.66602 3.50098 12.999s2.5 10.333 2.5 15c0 10 -9 18.167 -27 24.5s-30.667 10.166 -38 11.499v30h176v-29z" />
    <glyph glyph-name="uni20AC" horiz-adv-x="614" 
d="M563 131l-14.498 -23c-9.66699 -15.333 -23.834 -32 -42.501 -50s-41.834 -34.5 -69.501 -49.5s-59.834 -22.5 -96.501 -22.5s-68 6 -94 18s-48.167 27 -66.5 45s-33.166 37.5 -44.499 58.5s-20.166 40.5 -26.499 58.5s-10.5 33.167 -12.5 45.5l-3 18.5h-82l25 50h54v26
c0 4.66699 0.333008 9.83398 1 15.501l1 8.5h-81l25 50h62c0 1.33301 2.16699 9.66602 6.5 24.999s12.166 35 23.499 59s26.833 47.333 46.5 70s45 42.334 76 59.001s67.833 25 110.5 25c14 0 27.5 -1.66699 40.5 -5s25.333 -7.33301 37 -12s22 -9.83398 31 -15.501
s16.167 -10.834 21.5 -15.501l27 45h36v-187h-30c-3.33301 10 -9.16602 23.667 -17.499 41s-19.5 34.5 -33.5 51.5s-30.833 31.667 -50.5 44s-42.5 18.5 -68.5 18.5c-24.667 0 -46 -7 -64 -21s-32.5 -30.833 -43.5 -50.5s-20 -39.667 -27 -60s-11.667 -37 -14 -50
s-3.5 -20.167 -3.5 -21.5h305l-17 -50h-291v-50h272l-21 -50h-250l1.5 -14c1 -9.33301 3 -21.333 6 -36s7.5 -30.5 13.5 -47.5s14.167 -33 24.5 -48s23 -27.667 38 -38s33.167 -16.166 54.5 -17.499c29.333 -2 56.166 2.83301 80.499 14.5s45 25 62 40s30.167 29 39.5 42
l14 19.5z" />
    <glyph glyph-name="FL259" horiz-adv-x="500" 
d="M274 737c0 -42.667 -16.667 -78.166 -50 -106.499s-59.333 -47.5 -78 -57.5l-15 29c26 15.333 48 31.166 66 47.499s28.333 40.5 31 72.5h-25c-24 0 -40.833 6.16699 -50.5 18.5s-14.5 25.833 -14.5 40.5c0 13.333 5.16699 26 15.5 38s24.5 18 42.5 18
c28 0 48 -9.16699 60 -27.5s18 -42.5 18 -72.5z" />
    <glyph glyph-name="FL260" 
d="M630 317c0 -83.333 -29.667 -154.666 -89 -213.999s-130.666 -89 -213.999 -89s-154.666 29.667 -213.999 89s-89 130.666 -89 213.999s29.667 154.666 89 213.999s130.666 89 213.999 89s154.666 -29.667 213.999 -89s89 -130.666 89 -213.999zM327 20
c26 0 46 3.33105 60 9.99805s21 16 21 28c0 18 -13.5 47.667 -40.5 89s-40.5 98 -40.5 170s13.5 129.333 40.5 172s40.5 71.667 40.5 87c0 12 -7 21.333 -21 28s-34 10 -60 10c-81.333 0 -151.166 -29.167 -209.499 -87.5s-87.5 -128.166 -87.5 -209.499
s29.167 -151.166 87.5 -209.499s128.166 -87.5 209.499 -87.5z" />
    <glyph glyph-name="onehalf" horiz-adv-x="883" 
d="M796 602l-670 -713l-30 29l669 713zM337 220l-251.004 0.00195312v28c8 0.666992 19.167 1.16699 33.5 1.5s24.5 1.83301 30.5 4.5c6.66699 2 12.334 5.66699 17.001 11s7 12 7 20v267c-3.33301 -0.666992 -8.5 -1.33398 -15.5 -2.00098s-13.833 -1 -20.5 -1
c-12.667 0 -26.5 4.16699 -41.5 12.5s-29.167 17.166 -42.5 26.499l9 20l35 -12c10 -3.33301 24 -5 42 -5c21.333 0 42.833 3.66699 64.5 11s36.834 13.333 45.501 18h14c-3.33301 -16 -6 -33.833 -8 -53.5s-3 -36.5 -3 -50.5v-227c0 -7.33301 2.16699 -14 6.5 -20
s9.83301 -10 16.5 -12c4.66699 -2 14.334 -4 29.001 -6s25.334 -3 32.001 -3v-28zM870.996 29.002l-48.002 -124.998h-299v38c38.667 24 72.334 45.833 101.001 65.5s52.667 39.167 72 58.5c30 30.667 46.667 55.5 50 74.5s5 39.5 5 61.5c0 26 -7 45.5 -21 58.5
s-31.333 19.5 -52 19.5c-22.667 0 -40.667 -4.5 -54 -13.5s-20.666 -21.5 -21.999 -37.5c0.666992 -4 4.5 -9.33301 11.5 -16s10.5 -14.334 10.5 -23.001c0 -6.66699 -3.33301 -15.167 -10 -25.5s-19 -15.5 -37 -15.5c-14.667 0 -25.334 5.16699 -32.001 15.5
s-10 20.166 -10 29.499c0 10.667 2.5 21.667 7.5 33s14.5 24 28.5 38c10.667 11.333 26.834 21.333 48.501 30s45.5 13 71.5 13c42 0 76.833 -10.833 104.5 -32.5s41.5 -48.5 41.5 -80.5c0 -43.333 -13.667 -79.5 -41 -108.5s-83 -65.167 -167 -108.5l-20 -16h167
c16 0 30.5 9.83301 43.5 29.5s22.167 35.167 27.5 46.5z" />
    <glyph glyph-name="thorn" horiz-adv-x="556" 
d="M522 329c0 -68.667 -23.0029 -125.998 -69.0029 -171.998s-98.667 -69 -158 -69c-28 0 -51.333 3 -70 9s-33.667 13.333 -45 22h-4v-153c0 -11.333 2.33301 -21 7 -29s11.667 -13.667 21 -17c8 -2.66699 19.5 -5.66699 34.5 -9s26.5 -5 34.5 -5v-31h-269v31
c10 0.666992 19.833 1.5 29.5 2.5s18.167 2.83301 25.5 5.5c9.33301 3.33301 16 8.83301 20 16.5s6 17.5 6 29.5v774c0 11.333 -2.16699 22.166 -6.5 32.499s-11.166 18.5 -20.499 24.5c-6 4 -16.167 7.16699 -30.5 9.5s-25.833 3.83301 -34.5 4.5v30l176 13l7 -7v-328h5
c8.66699 12.667 26.334 26.167 53.001 40.5s53.334 21.5 80.001 21.5c57.333 0 106.333 -22.333 147 -67s61 -104.334 61 -179.001zM419.997 328.002c0 48 -10.833 92.499 -32.5 133.499s-57.5 61.5 -107.5 61.5c-24 0 -44.167 -4.16699 -60.5 -12.5
s-30.833 -19.5 -43.5 -33.5v-279c4.66699 -14.667 16.5 -31.167 35.5 -49.5s44.167 -27.5 75.5 -27.5c38 0 69.667 17.833 95 53.5s38 86.834 38 153.501z" />
    <glyph glyph-name="Yacute" horiz-adv-x="627" 
d="M661 650c-6.66699 0 -16.498 -2.33008 -29.498 -6.99707s-22.5 -8.66699 -28.5 -12c-14.667 -8 -25.334 -15.333 -32.001 -22s-15.334 -16.334 -26.001 -29.001c-28 -34.667 -53.833 -73 -77.5 -115l-74.5 -131c-9.33301 -16 -17.5 -35 -24.5 -57
s-10.5 -40.333 -10.5 -55v-123c0 -12.667 2 -22.834 6 -30.501s12.333 -14.167 25 -19.5c2.66699 -1.33301 7.66699 -2.83301 15 -4.5l24 -5.5l24 -4c8 -1.33301 14.333 -2 19 -2v-33h-332v33c9.33301 0.666992 23.666 2 42.999 4s32.333 4.33301 39 7
c11.333 4.66699 19.333 11 24 19s7 18.333 7 31v164c0 10 -2.83301 22.167 -8.5 36.5s-11.5 27.166 -17.5 38.499l-59.5 112l-67.5 121c-11.333 19.333 -22.5 33.833 -33.5 43.5s-21.833 17.834 -32.5 24.501c-10 5.33301 -20.667 9.16602 -32 11.499s-22 3.83301 -32 4.5
v33h322v-33c-14.667 -0.666992 -35.167 -2.5 -61.5 -5.5s-39.5 -9.16699 -39.5 -18.5c0 -2 1 -5.5 3 -10.5s4.66699 -11.167 8 -18.5l14 -27.5l18 -34.5l48 -88l62 -111l114.5 187c30.333 52 45.5 82 45.5 90c0 14.667 -11.167 24 -33.5 28s-45.166 7 -68.499 9v33h260v-33z
M460.002 903.003c0 -11.333 -2.83203 -21 -8.49902 -29s-14.834 -16.667 -27.501 -26l-52 -39.5l-96 -74.5l-14 12c29.333 43.333 49.833 74.333 61.5 93l35.5 59c9.33301 16.667 18.833 28 28.5 34s20.5 9 32.5 9c11.333 0 20.833 -4 28.5 -12s11.5 -16.667 11.5 -26z" />
    <glyph glyph-name="eth" horiz-adv-x="530" 
d="M495 295c0 -90.667 -19.9971 -164.664 -59.9971 -221.997s-98.333 -86 -175 -86c-57.333 0 -109.333 21.667 -156 65s-70 104.333 -70 183c0 71.333 20.667 129.166 62 173.499s94.666 66.5 159.999 66.5c28 0 54.167 -6.66699 78.5 -20s42.166 -29.333 53.499 -48l4 1
c-4.66699 41.333 -14.334 80.666 -29.001 117.999s-31.667 70 -51 98l-115 -70l-22 35l113 66c-11.333 13.333 -23 25.333 -35 36s-28 22.667 -48 36l21 23c17.333 -8.66699 36.333 -20.334 57 -35.001s36.334 -27 47.001 -37l98 60l22 -35l-90 -53
c43.333 -41.333 76.666 -91.333 99.999 -150s35 -127 35 -205zM393.003 247.003c0 52 -10.667 97.167 -32 135.5s-53 57.5 -95 57.5c-50.667 0 -85.167 -21.5 -103.5 -64.5s-27.5 -87.833 -27.5 -134.5c0 -67.333 10.5 -121 31.5 -161s53.833 -60 98.5 -60
c45.333 0 78 23.167 98 69.5s30 98.833 30 157.5z" />
    <glyph glyph-name="onequarter" horiz-adv-x="500" 
d="M470 99v400l-400 -200z" />
    <glyph glyph-name="threequarters" horiz-adv-x="500" 
d="M450 399l-400 200v-400z" />
  </font>
</defs>
</svg>
