<?xml version="1.0" encoding="UTF-8" standalone="no"?>
<!DOCTYPE svg  PUBLIC '-//W3C//DTD SVG 1.1//EN'  'http://www.w3.org/Graphics/SVG/1.1/DTD/svg11.dtd'>
<svg version="1.1" xmlns="http://www.w3.org/2000/svg">
<defs>
<font id="Laurell" horiz-adv-x="496">
<font-face ascent="800" units-per-em="1000" underline-position="-160" unicode-range="U+0020-00FC" descent="-200" font-family="Laurell" bbox="-285 -381 1459 905" font-weight="400" underline-thickness="48" cap-height="738" panose-1="0 0 4 0 0 0 0 0 0 0" x-height="245"/>
<missing-glyph/>
<glyph horiz-adv-x="185" unicode=" " glyph-name="space"/>
<glyph d="M495 632q0 -9 -177 -281q-180 -275 -197 -285q-17 17 -17 25q0 22 181 288l184 266q17 0 26 -12v-1zM106 27q0 -15 -9.5 -26t-23.5 -11q-13 0 -22 9q4 51 35 51q20 0 20 -23z" horiz-adv-x="416" unicode="!" glyph-name="exclam"/>
<glyph d="M418 658v-103q-3 -85 -19 -99q-8 3 -21 18q0 37 6 92q9 90 9 92q6 6 12 7q5 -4 13 -7zM361 669l-11 -180l-11 -9l-20 15v4q0 33 5 91q6 70 13 85z" horiz-adv-x="307" unicode='&quot;' glyph-name="quotedbl"/>
<glyph d="M651 438l-13 -30h-153l-57 -165h154l-11 -29h-155l-76 -214h-31l72 214h-168l-75 -214h-32l73 214h-154l9 29h154l57 165h-153l9 30h156l76 211h32l-71 -211h166l75 210h34l-73 -210h155zM449 408h-167l-59 -165h169z" horiz-adv-x="629" unicode="#" glyph-name="numbersign"/>
<glyph d="M378 472q0 -5 -19 -37q-23 -38 -24 -40q27 -9 38 -30l-14 -16q-31 21 -38 20h-3q-31 -42 -49 -78q33 -40 33 -63q0 -40 -35 -64q-31 -21 -73 -21q-22 0 -26 -4q-1 0 -14 -24q-25 -46 -43 -69l-11 6q7 30 51 102q-2 5 -14.5 18t-12.5 29q0 14 13 21q12 -18 14 -20 q9 -11 19 -15q11 7 28 39q13 22 25 44q-17 30 -17 47q0 75 103 85q15 10 31 36q20 32 28 40l9 -1zM290 370q-4 2 -6 2q-18 0 -29 -15.5t-11 -34.5q0 -10 8 -13q18 28 38 61zM262 222q0 24 -20 30l-48 -74q6 -3 14 -3q21 0 37.5 13.5t16.5 33.5z" horiz-adv-x="249" unicode="$" glyph-name="dollar"/>
<glyph d="M622 424q0 -15 -19 -33l-410 -387q-38 -36 -62 -82q-15 7 -15 24q0 59 408 424q-55 -25 -96 -25q-27 0 -64 7q-25 -46 -40 -63q-29 -34 -64 -34q-78 0 -78 91q0 53 34 111q39 66 88 66q33 0 55.5 -27t22.5 -61q0 -27 -6 -54q26 -7 48 -7q42 0 96 23q46 20 91 40zM518 58 q0 -57 -35 -122q-41 -73 -93 -73q-31 0 -50.5 25t-19.5 57q0 63 33 122q38 69 95 69q28 0 49 -25t21 -53zM354 443q0 19 -10 22q-17 -12 -17 -36q0 -26 18 -34q9 36 9 48zM334 369q-33 29 -33 51q0 29 26 66l-6 7q-51 -2 -82 -53q-28 -45 -28 -99q0 -55 41 -55q45 0 82 83z M493 60q0 20 -12.5 36t-32.5 16q-41 0 -73 -64q-28 -55 -28 -102q0 -21 11 -39t31 -18q41 0 75 67q29 58 29 104z" horiz-adv-x="477" unicode="%" glyph-name="percent"/>
<glyph d="M808 258q-6 -65 -124 -65q-16 0 -43.5 1.5t-35.5 1.5q18 -26 18 -46q0 -74 -105 -128q-89 -45 -171 -45q-75 0 -123 42q-51 45 -51 119q0 91 102 176q22 18 58 35q30 14 61 28q13 7 13 15q0 79 82 133q72 49 156 49q88 0 88 -53q0 -51 -86 -95l-12 22q6 9 37 29 q20 12 23 45q-12 22 -46 22q-59 0 -130 -43q-80 -47 -80 -103q0 -1 1.5 -5.5t1.5 -6.5q20 4 46 4q41 0 77 -12q49 -17 49 -49q0 -47 -71 -47q-45 0 -74 17q-19 11 -58 50q-200 -78 -200 -225q0 -51 40 -83q37 -29 89 -29q70 0 150 40q94 46 94 108q0 16 -30 34q-22 2 -32 2 q-45 0 -83 -20q-22 -12 -51 -37q-23 -21 -31 -21l-4 3q-4 11 -4 10q0 19 26 43q61 55 192 55h46q31 -1 45 -1q91 0 143 35zM578 323q0 37 -93 37q-19 0 -42 -5q8 -17 43 -32t57 -15q25 0 35 15z" horiz-adv-x="745" unicode="&amp;" glyph-name="ampersand"/>
<glyph d="M434 550q-33 -28 -67 -55q-52 -43 -64 -44l-5 8v17q74 72 126 103q10 -8 10 -17v-12z" horiz-adv-x="257" unicode="&apos;" glyph-name="quotesingle"/>
<glyph d="M485 627q-13 -17 -39 -40q-31 -28 -40 -38q-69 -75 -127 -163q-73 -110 -87 -184v-14q-24 -65 -31.5 -106.5t-6.5 -110.5h-15l-16 11l-7 17v10q0 158 107 361q113 213 247 278z" horiz-adv-x="340" unicode="(" glyph-name="parenleft"/>
<glyph d="M528 616q0 -39 -21 -106q-47 -150 -84 -228q-49 -102 -134 -203q-63 -75 -109 -107h-10l-6 6q-1 12 38 56q25 29 51 58q209 266 245 552h4q10 0 18 -9t8 -19z" horiz-adv-x="335" unicode=")" glyph-name="parenright"/>
<glyph d="M460 601q-5 -10 -21 -18q-12 -6 -25 -12q5 -6 21 -9t21 -8l-7 -18q-16 2 -48 10l-3 -1q0 -2 -1 -6t-1 -6q0 -8 4 -18q0 -3 2 -9t2 -10l-4 -10q-6 -2 -9 -2q-11 0 -16 24q-7 31 -8 32l-44 -33h-10l-6 12q-1 13 27 27l5 8l-27 6l-5 10q0 10 8 16l51 -7v57l4 6l21 -6 q0 -36 4 -47l26 14q20 10 26 10q3 0 9 -3z" horiz-adv-x="276" unicode="*" glyph-name="asterisk"/>
<glyph d="M696 270h-268v-270h-30v269h-270v30h270v269h30v-269h268v-29z" horiz-adv-x="556" unicode="+" glyph-name="plus"/>
<glyph d="M192 47q0 -10 -57.5 -59.5t-70.5 -51.5l-13 18q0 22 59 72q56 49 73 49q1 -2 5 -12.5t4 -15.5z" horiz-adv-x="246" unicode="," glyph-name="comma"/>
<glyph d="M375 148v-4q-1 -2 -1 -4q-23 1 -66 2l-82 -1q-9 0 -26.5 -3.5t-26.5 -3.5q-24 0 -34 29q69 18 142 18q44 0 82 -7q12 -19 12 -26z" horiz-adv-x="406" unicode="-" glyph-name="hyphen"/>
<glyph d="M158 15q0 -20 -21 -32q-10 1 -19.5 2.5t-14.5 15.5q0 39 24 39q11 0 21 -7t10 -18z" horiz-adv-x="200" unicode="." glyph-name="period"/>
<glyph d="M585 706l-367 -743h-25l367 743h25z" horiz-adv-x="491" unicode="/" glyph-name="slash"/>
<glyph d="M546 430q0 -120 -81 -260q-91 -158 -200 -158q-38 0 -64 37q-22 33 -22 73q0 110 96 245q102 144 206 144q30 0 49 -26q16 -24 16 -55zM509 424q0 56 -35 56q-78 0 -167 -134q-83 -126 -83 -215q0 -29 13 -53q15 -29 42 -29q76 0 157 153q73 138 73 222z" unicode="0" glyph-name="zero"/>
<glyph d="M547 503q-2 -7 -64 -98q-81 -119 -134 -198q-112 -170 -115 -184l-13 -23h-17l-12 14q10 67 128 226q134 181 153 225l-1 4h-30v15q41 11 85 37z" unicode="1" glyph-name="one"/>
<glyph d="M570 444q0 -65 -86 -163q-39 -43 -140 -135q-27 -20 -81 -63q23 -15 46 -31q31 -19 50 -19q37 0 77 30q44 32 47 33l6 -12q-70 -89 -130 -89q-33 0 -71 20q-32 19 -65 37q-110 -80 -157 -80q-14 0 -23 14.5t-9 29.5q0 45 39 73q35 24 82 24q13 0 37 -7.5t36 -7.5 q5 0 32 23q271 229 271 332q0 41 -40 41q-45 0 -112 -52q-44 -35 -102 -98q-49 -52 -51 -52q-3 0 -7 9t-4 13q0 52 111 131q107 76 164 76q33 0 56.5 -22t23.5 -55zM193 69q-10 10 -39 10q-30 0 -62 -16q-38 -19 -37 -47q7 -7 23 -7q6 0 12 3q16 0 52 23q26 17 51 34z" unicode="2" glyph-name="two"/>
<glyph d="M550 457q0 -47 -36 -93q-14 -17 -72 -73q33 -45 33 -78q0 -88 -98 -164q-92 -72 -182 -72q-43 0 -75 28.5t-32 71.5q0 61 58 128l15 -13l-26 -52q-13 -30 -13 -55q0 -32 23.5 -52t55.5 -20q71 0 151 63q84 66 84 135q0 30 -23 58q-68 -44 -107 -44q-57 0 -57 41 q0 31 30 48q24 14 57 14q38 0 76 -18q101 82 101 144q0 34 -45 34q-40 0 -85 -34q-24 -18 -69 -64q-16 5 -16 24q0 34 68 73q63 36 102 36q33 0 57.5 -17t24.5 -49zM383 287q-30 12 -46 12q-26 0 -62 -28v-4q9 -13 28 -13q21 0 45 10l3 3q26 6 32 20z" unicode="3" glyph-name="three"/>
<glyph d="M618 494q-51 -71 -102 -143q-60 -85 -94 -146l1 -4q26 -2 53 -4q40 -6 40 -22q0 -9 -7 -16h-8q-11 0 -32.5 2t-31.5 2q-23 0 -44 -3q-28 -39 -56 -79q-33 -46 -51 -82q-26 0 -26 22q0 13 34 68q22 36 44 71q-10 4 -16 4q-101 0 -204 -32q-11 9 -11 33q0 66 320 270 q79 50 177 84zM547 456l-6 2q-8 -4 -24 -14l-263 -174q-9 -6 -100 -86l20 -1q34 -2 95 8q65 10 94 10q43 49 95 125q45 65 89 130z" unicode="4" glyph-name="four"/>
<glyph d="M596 488l-1 -6q-126 -13 -138 -16q-38 -9 -63 -41q-40 -60 -80 -119q59 26 81 26q36 0 61.5 -22.5t25.5 -58.5q0 -91 -88 -176t-179 -85q-40 0 -64 33q-23 30 -23 72q0 23 17 60l25 8l6 -4q-14 -40 -14 -70q0 -25 15.5 -42.5t39.5 -17.5q65 0 147 78.5t82 143.5 q0 40 -59 40q-41 0 -116 -44q-18 11 -18 29q0 21 26 47q4 10 36 55q66 92 90 109q39 26 140 26q23 0 45 -7q6 -10 6 -18z" unicode="5" glyph-name="five"/>
<glyph d="M591 500h-14q-76 0 -157 -57q-70 -49 -121 -120q51 29 92 29q36 0 62.5 -28t26.5 -64q0 -83 -74 -173q-77 -95 -157 -95q-41 0 -68 35q-25 32 -25 74q0 82 66 186q63 100 154 168q97 74 179 74q39 0 36 -29zM440 259q0 22 -15.5 40t-37.5 18q-73 0 -135 -77 q-59 -73 -59 -148q0 -24 15 -43q15 -22 38 -22q62 0 130 85q64 82 64 147z" unicode="6" glyph-name="six"/>
<glyph d="M591 484q-14 -15 -42 -47l-351 -445q-21 26 -21 37q0 12 33 52l330 397q-43 0 -105 -11l-104 -20l-4 4q3 31 6 35t31 9q111 20 183 20q21 0 29.5 -5.5t14.5 -25.5z" unicode="7" glyph-name="seven"/>
<glyph d="M547 439q0 -91 -147 -161q40 -67 40 -112q0 -65 -56.5 -121.5t-120.5 -56.5q-50 0 -84 29.5t-34 78.5q0 80 59 128q40 34 130 65l3 9q-22 40 -22 73q0 54 42 102.5t96 48.5q37 0 65.5 -23t28.5 -60zM506 434q0 21 -16 36.5t-37 15.5q-41 0 -70 -36.5t-29 -78.5 q0 -33 23 -70q47 20 83 52q46 41 46 81zM394 157q0 45 -41 106q-97 -46 -115 -59q-58 -43 -58 -109q0 -27 21.5 -49t48.5 -22q53 0 98.5 40t45.5 93z" unicode="8" glyph-name="eight"/>
<glyph d="M553 421q0 -100 -110 -237q-103 -130 -201 -174q-23 -6 -69 -20q-13 8 -16 22q90 36 156 91q60 50 121 133q-61 -43 -109 -43q-37 0 -64 29.5t-27 66.5q0 76 73.5 152t148.5 76q42 0 69.5 -27t27.5 -69zM517 427q0 24 -14 41.5t-38 17.5q-64 0 -130 -64t-66 -127 q0 -30 22 -46.5t52 -16.5q65 0 121 66q53 63 53 129z" unicode="9" glyph-name="nine"/>
<glyph d="M248 157q0 -26 -34 -26q-24 0 -24 27t40 29q18 -13 18 -30zM177 20q0 -27 -41 -29q-19 11 -19 29q0 12 9.5 21t21.5 9q11 0 20 -9.5t9 -20.5z" horiz-adv-x="275" unicode=":" glyph-name="colon"/>
<glyph d="M276 189q-3 -26 -34 -26q-9 0 -16 9t-7 19q0 29 28 29q19 0 29 -31zM195 20q-25 -22 -132 -79q-10 8 -12 31q7 10 65 44t69 36l10 -7v-25z" horiz-adv-x="281" unicode=";" glyph-name="semicolon"/>
<glyph d="M490 67l-448 191v65l448 192v-48l-408 -176l408 -178v-46z" horiz-adv-x="456" unicode="&lt;" glyph-name="less"/>
<glyph d="M928 378h-748v38h748v-38zM928 153h-748v38h748v-38z" horiz-adv-x="846" unicode="=" glyph-name="equal"/>
<glyph d="M496 258l-450 -191v46l405 178l-405 176v48l450 -192v-65z" horiz-adv-x="456" unicode="&gt;" glyph-name="greater"/>
<glyph d="M576 550q0 -49 -56 -107q-41 -42 -117 -93q-51 -33 -103 -66q-97 -65 -161 -164h-7q-15 15 -15 23q0 56 110 134q101 69 203 139q110 83 110 152q0 28 -26 42q-21 12 -51 12q-79 0 -168 -49q-99 -55 -114 -126l10 -9q29 -1 64 16l60 32q3 -9 3 -11q0 -9 -13 -22l-19 -19 q-22 -9 -44 -19q-27 -10 -48 -10q-17 0 -29 18t-12 36q0 78 121 141q105 54 191 54q45 0 78 -29.5t33 -74.5zM113 42q0 -13 -11.5 -31.5t-23.5 -18.5q-21 0 -27 20q14 52 48 53q14 -11 14 -23z" horiz-adv-x="497" unicode="?" glyph-name="question"/>
<glyph d="M976 353q0 -96 -44 -172q-52 -91 -141 -91q-83 0 -90 80q-59 -81 -131 -81q-62 0 -97 41t-35 104q0 86 53 162q57 83 139 83q48 0 83 -30.5t45 -78.5l29 97h26l-48 -148q-30 -98 -30 -146q0 -25 14.5 -40.5t38.5 -15.5q80 0 126 82q39 69 39 157q0 130 -96 205 q-88 70 -220 70q-156 0 -265 -109.5t-109 -266.5q0 -151 108 -245q103 -89 255 -89q135 0 295 97l10 -14q-143 -105 -318 -105q-164 0 -269 97q-108 100 -108 263q0 171 121 284q117 111 288 111q143 0 234 -77q97 -83 97 -224zM738 349q0 43 -28.5 75t-70.5 32 q-77 0 -130 -78q-47 -69 -47 -151q0 -44 28 -76q30 -35 73 -35q75 0 128 81q47 72 47 152z" horiz-adv-x="947" unicode="@" glyph-name="at"/>
<glyph d="M1108 648q0 -44 -71 -153q-8 -12 -104 -148l3 -5l19 -10l5 -12l-4 -12q-12 -2 -54 -2q-40 -50 -69 -106q-39 -72 -39 -117q0 -37 27 -37q38 0 80 30q33 29 67 57q11 0 11 -9q0 -26 -67 -72t-96 -46q-27 0 -43 29q-14 24 -14 52q0 53 30 116q15 32 61 104l-118 1l-62 -1 q-59 -59 -117 -118q-79 -77 -140 -117q-82 -52 -151 -52q-47 0 -107 44q-63 46 -63 91q0 10 9 19t19 10q40 -67 59 -87q38 -39 94 -39q69 0 177 93q53 45 150 149l-63 -4q0 1 -1 4t-1 4q0 30 48 39q35 3 69 6q69 86 197 200q156 140 215 140q15 0 29.5 -13t14.5 -28z M1071 649q-7 9 -17 9q-19 0 -77 -47q-41 -34 -72 -65l-172 -174q-8 -8 -21 -23q19 -2 56 -2q12 0 54 1q33 1 54 0l112 148q75 106 83 153z" horiz-adv-x="896" unicode="A" glyph-name="A"/>
<glyph d="M1048 587q0 -84 -108 -154q-76 -50 -183 -82q130 -57 130 -143q0 -91 -86 -152q-77 -54 -173 -54q-85 0 -153 57q-100 -63 -174 -63q-71 0 -117 53q-43 50 -43 123v8q0 117 133 250q107 108 241 174q190 94 344 94q68 0 120 -22q69 -30 69 -89zM1011 591q0 41 -60 61 q-43 15 -94 15q-113 0 -274 -75q-165 -78 -277 -188q-126 -125 -126 -243q0 -52 36.5 -88t88.5 -36q64 0 135 56q-35 48 -46 87l20 16q12 -25 60 -77q32 28 95 107q67 84 77 112q-4 2 -27 6q-17 3 -24 11l12 15h35q19 0 28 7q6 5 17 25q2 3 54 111q34 70 64 105q19 2 19 -13 q0 -29 -106 -226q95 21 180 71q113 66 113 141zM842 204q0 87 -152 127q-34 -57 -180 -245q62 -43 130 -43q76 0 136 41q66 46 66 120z" horiz-adv-x="899" unicode="B" glyph-name="B"/>
<glyph d="M758 594q0 -66 -89 -153.5t-155 -87.5q-18 0 -30.5 16t-12.5 34q0 38 33.5 79t70.5 41q9 0 16 -20q-39 -26 -52 -38q-28 -26 -28 -54q0 -12 18 -12q53 0 124 75.5t71 129.5q0 59 -87 59q-100 0 -216 -75q-111 -73 -186 -180q-79 -114 -79 -215q0 -151 137 -151 q108 0 246 112l11 -9q-33 -65 -112 -107q-74 -40 -151 -40q-81 0 -129 59q-46 56 -46 139q0 111 83 231q79 112 198 187q123 77 233 77q50 0 87 -23q45 -27 45 -74z" horiz-adv-x="569" unicode="C" glyph-name="C"/>
<glyph d="M903 431q0 -151 -122 -287q-125 -140 -273 -140q-97 0 -156 32q-119 -87 -208 -87q-40 0 -76 21q-41 24 -41 62q0 45 42 66q33 17 83 17q39 0 94 -11q46 -11 92 -21q8 11 192 269q151 212 178 233q14 -4 14 -17q0 -29 -148 -243q-119 -172 -185 -257q70 -24 120 -24 q126 0 244 131q115 129 115 257q0 104 -67 162q-64 54 -169 54q-184 0 -351 -140h-6q-9 7 -9 13q0 64 159 117q131 44 215 44q117 0 190 -67t73 -184zM298 48q-101 33 -155 33q-32 0 -56 -9q-35 -13 -35 -39q0 -21 38 -36q31 -12 56 -12q68 0 152 63z" horiz-adv-x="815" unicode="D" glyph-name="D"/>
<glyph d="M810 632q0 -42 -60 -86q-56 -41 -100 -41q-21 0 -25 20q47 17 88 41q61 35 61 62q0 31 -72 31q-93 0 -189 -51q-100 -54 -144 -133q-17 -30 -17 -53q0 -1 1 -4t1 -5q49 14 107 14q44 0 77 -12q47 -17 47 -53q0 -37 -36 -55q-29 -15 -70 -15q-79 0 -125 42q-9 11 -30 30 q-69 -29 -120 -92q-55 -68 -55 -138q0 -130 139 -130q80 0 163 43q28 15 143 92l9 -10q-73 -83 -139 -122q-82 -50 -176 -50q-71 0 -128 48t-57 120q0 96 65 169q49 55 147 109q2 123 132 212q117 80 245 80q40 0 73 -13q45 -17 45 -50zM549 361q-15 34 -87 34 q-90 0 -97 -18q48 -51 115 -51q70 0 69 35z" horiz-adv-x="521" unicode="E" glyph-name="E"/>
<glyph d="M1177 634q0 -50 -59 -77q-45 -21 -101 -21q-39 0 -113 12q-24 -23 -79 -95q-58 -76 -67 -100q24 -3 48 -7q35 -6 35 -21q0 -10 -9 -19q-10 0 -31.5 1t-32.5 1h-11q-28 0 -39 -11l-22 -35q-91 -146 -138 -197q-96 -104 -204 -104q-86 0 -141 67q-52 62 -52 151q0 81 43 81 l6 -3q-14 -58 -14 -88q0 -67 45 -117t110 -50q104 0 195 111q32 39 127 200h-145q2 40 91 40q17 0 42.5 -1.5t30.5 -1.5q11 0 24 19t144 193q-76 29 -153 58q-92 30 -158 30q-90 0 -138.5 -54.5t-42.5 -145.5l-7 -15l-7 -1q-27 0 -27 56q0 96 77 148q67 44 167 44 q96 0 232 -52q37 -15 95 -33q117 87 198 87q29 0 52 -11q29 -13 29 -39zM1142 628q0 25 -53 25q-57 0 -140 -68q39 -14 80 -14q36 0 69 12q44 16 44 45z" horiz-adv-x="821" unicode="F" glyph-name="F"/>
<glyph d="M963 666q0 -33 -35 -45l-2 3q1 7 1 19q0 42 -71 42q-119 0 -286 -88t-281 -212q-127 -138 -127 -261q0 -27 15 -48t41 -21q74 0 222 113q101 77 199 175q33 33 93 122q56 83 97 119q15 13 33 13t18 -13q-21 -22 -57 -69l-275 -431q62 28 123 56q89 40 120 46l5 -1 q0 -14 -13 -21q-23 -23 -136 -72q-116 -51 -141 -72q-9 -8 -43 -60l-112 -171q-102 -156 -216 -156q-36 0 -60.5 20t-24.5 56q0 59 43 102q19 19 93 67q56 36 232 138q49 28 102 106q14 20 79 130q-143 -124 -183 -153q-128 -95 -205 -95q-45 0 -71 40q-22 35 -22 82 q0 71 54 166q44 80 105 143q110 114 260 197q170 94 306 94q42 0 74 -11q46 -16 46 -49zM418 -34q-73 -37 -214 -118q-69 -43 -74 -47q-39 -32 -39 -72v-13q0 -45 44 -45q62 0 132 75q36 40 96 129q16 23 31 45q23 34 24 46z" horiz-adv-x="695" unicode="G" glyph-name="G"/>
<glyph d="M1093 681q0 -10 -93 -126q-96 -119 -101 -146l20 -7v-9q6 -8 6 -16q0 -7 -5 -14h-53q-107 -167 -107 -249q0 -31 17 -56q20 -29 50 -29q36 0 81 35q65 49 74 54l5 -8v-8q-97 -110 -170 -110q-43 0 -73 48q-25 41 -25 87q0 70 89 230l-5 6l-229 -8l-134 -206 q-97 -149 -166 -149q-53 0 -95 59q-38 53 -38 109q0 30 17 30l5 -1q15 -47 29 -94q25 -57 69 -57q40 0 87 54q22 26 63 89q27 40 55 80q38 56 47 79l-1 5q-36 -1 -83 -8q-1 2 -1.5 3.5t-1.5 3.5q0 26 55 37q66 13 70 16v4q9 6 57 84q59 96 88 136q53 71 80 71q6 0 14 -6 q-4 -11 -18 -25q-15 -17 -19 -24l-146 -242q154 6 230 6l134 179q27 31 80 92q14 17 31 15l9 -6q2 -4 2 -8z" horiz-adv-x="909" unicode="H" glyph-name="H"/>
<glyph d="M855 722q0 -9 -55 -34q-64 -28 -69 -32q-15 -12 -36 -47q-16 -28 -31 -55l-214 -361q-117 -197 -216 -197q-57 0 -92 61q-30 52 -30 114q0 61 44 87l6 -4q-10 -38 -10 -71q0 -46 22 -89q26 -51 67 -51q62 0 144 132l234 375q23 27 63 84l-114 -48q-77 -35 -118 -71 q-54 -47 -54 -102q0 -59 38 -104q-15 -11 -24 -11q-23 0 -39 50q-12 39 -12 69q0 75 64 130q48 42 142 77q71 25 143 50q11 4 67 38q44 26 69 26q2 0 5 -2l4 -3l2 -5v-6z" horiz-adv-x="483" unicode="I" glyph-name="I"/>
<glyph d="M848 267q-59 -28 -117 -55q-87 -43 -103 -62q-75 -92 -149 -185q-88 -103 -172 -165q-174 -129 -254 -129q-21 0 -35.5 19t-14.5 41q0 99 180 224q80 55 269 156l80 40q49 26 73 48q54 49 121 202.5t67 228.5q0 88 -65 88q-82 0 -170 -81q-79 -73 -134 -181t-55 -188 q0 -30 12 -59q15 -38 40 -38q16 0 32 6q-23 -37 -48 -37q-37 0 -58 52q-16 40 -16 83q0 128 81 246q53 77 142 147q105 83 179 83q46 0 75 -41q26 -36 26 -84q0 -87 -57 -209q-50 -99 -101 -197q31 16 81 35l82 32l9 -7v-13zM563 127q-10 2 -148 -77q-81 -46 -161 -92 q-70 -39 -134 -96q-85 -76 -85 -128q0 -12 11 -21.5t23 -9.5q81 0 270 172q175 160 224 252z" horiz-adv-x="727" unicode="J" glyph-name="J"/>
<glyph d="M1035 725q-36 -18 -107 -59l-411 -268q65 -185 74 -206q66 -152 122 -152q39 0 95.5 44.5t60.5 44.5q8 0 8 -11q0 -28 -65.5 -72t-98.5 -44q-66 0 -117 73q-39 54 -73 156q-21 73 -43 146q-24 -8 -66 -32q-5 -4 -34 -49l-148 -227q-27 -42 -69 -57q-22 11 -22 20v5 q30 17 45 41l160 251q-23 -5 -44 -5q-34 0 -59 12q-33 16 -33 47q0 48 58 73q43 19 99 19q38 0 72 -9l120 183q58 89 81 89q7 0 29 -11q-49 -49 -103 -133q-44 -72 -88 -143l19 -21q81 48 195 125q96 66 192 131q83 56 122 56q5 0 29 -17zM458 408l-7 8l-11 -18zM413 433 q-45 8 -52 8q-27 0 -65 -13q-47 -16 -47 -37q0 -30 66 -30q41 0 61 18q11 10 37 54z" horiz-adv-x="801" unicode="K" glyph-name="K"/>
<glyph d="M1115 652q0 -74 -110 -116q-87 -34 -186 -34q-14 0 -26 1q-40 -51 -156 -209q-95 -131 -159 -207q92 -57 156 -57q52 0 104 36q23 16 83 74l18 -10q-33 -61 -86 -100q-58 -43 -122 -43q-41 0 -96 23l-90 44q-116 -94 -207 -94q-50 0 -87 20q-46 26 -46 72q0 52 50 81 q42 24 98 24q88 0 183 -54q21 16 46 51l255 352q-187 55 -187 129q0 20 17 30q38 -69 82.5 -94.5t123.5 -27.5q58 62 126 106q85 56 149 56q27 0 47 -13.5t20 -39.5zM1087 651q-7 15 -35 15q-103 0 -219 -127l37 -1q57 -2 125 30q75 35 92 83zM405 72q-94 51 -153 51 q-108 0 -108 -68q0 -30 38 -47q29 -13 63 -13q71 0 160 77z" horiz-adv-x="745" unicode="L" glyph-name="L"/>
<glyph d="M1235 659q0 -47 -124 -237q-71 -105 -142 -209q-46 -69 -46 -130q0 -18 12 -32t30 -14q34 0 78 31q15 11 67 56q12 -5 12 -12q0 -28 -67.5 -71.5t-98.5 -43.5q-28 0 -53 36q-23 32 -23 62q0 66 68 172q8 13 137 189q81 112 100 174l-6 6q-49 1 -239 -223q-8 -9 -230 -285 q-77 -95 -108 -95q-14 0 -24 16q-9 13 -9 28q0 62 58 190q15 33 107 216q58 115 58 144q0 13 -9 13q-28 0 -181 -216q-92 -133 -183 -266q-110 -155 -201 -155q-31 0 -55 29.5t-24 61.5q0 9 2 27q1 0 3 1h3q7 0 26 -40.5t45 -40.5q72 0 191 165q103 154 207 308 q118 165 189 165q28 0 28 -34q0 -62 -113 -278t-113 -270q0 -10 11 -10q-2 0 24 27l268 328q213 247 292 247q12 0 22.5 -9t10.5 -21z" horiz-adv-x="1043" unicode="M" glyph-name="M"/>
<glyph d="M1069 651q0 -20 -126 -242q-76 -133 -153 -267q-25 -44 -56 -86q-46 -61 -70 -61q-28 0 -28 77q0 95 39 269q40 184 44 268l-6 4q-9 0 -13 -11q-11 -11 -19 -23l-299 -443q-51 -76 -67 -93q-47 -52 -97 -52q-40 0 -66 36q-24 33 -24 74q0 14 5 23q7 5 13 4h5q5 -3 12 -29 q7 -31 16 -45q14 -23 38 -23q29 0 60 34q12 13 44 59l298 430q22 32 53 65q42 47 61 47q27 0 27 -48q0 -3 -11 -72l-70 -438q-2 -13 -2 -22q0 -20 8 -24q19 12 180 292q92 163 185 327q19 -7 19 -30z" horiz-adv-x="839" unicode="N" glyph-name="N"/>
<glyph d="M752 535q0 -97 -76.5 -231t-183.5 -227q-116 -101 -214 -101q-69 0 -117.5 51.5t-48.5 121.5q0 112 87 257q91 154 192 183l7 -17q-98 -91 -161 -187q-82 -125 -82 -227q0 -53 30 -95q33 -48 84 -48q86 0 195 94q101 87 175.5 209.5t74.5 207.5q0 47 -29.5 76.5 t-76.5 29.5q-56 0 -135 -62q-61 -49 -107 -109q-20 -29 -64 -84l-14 14q30 96 130 184q105 94 200 94q61 0 97.5 -36t36.5 -98z" horiz-adv-x="624" unicode="O" glyph-name="O"/>
<glyph d="M966 533q0 -96 -107 -181q-95 -76 -197 -91q-50 -7 -99 -3q-174 -283 -307 -283q-69 0 -115 58q-42 54 -42 125q0 134 116 259q102 111 263 183q154 69 283 69q78 0 134 -29q71 -36 71 -107zM928 533q0 55 -59 80q-43 19 -105 19q-178 0 -347 -101q-174 -103 -249 -260 q-26 -54 -26 -115q0 -55 29 -96q33 -46 86 -46q62 0 132 76q38 41 97 130q13 17 28 50q-46 28 -62 69h14q42 -31 67 -35l2 -3q55 84 110 167q85 116 148 139l6 -5v-10q-46 -43 -115.5 -139.5t-96.5 -156.5h15q96 0 205 70q121 77 121 167z" horiz-adv-x="701" unicode="P" glyph-name="P"/>
<glyph d="M913 535q0 -103 -83 -236q-79 -126 -195 -221q-122 -99 -227 -114q24 -78 74 -78q39 0 95 41q59 45 66 46l4 -3q-18 -45 -67 -83q-51 -41 -97 -41q-53 0 -83 44q-20 40 -41 79q-64 14 -102 67q-36 50 -36 118q0 111 93 238t198 162l8 -8q-100 -73 -171 -172 q-86 -119 -86 -221q0 -52 25 -88q27 -39 75 -48q13 53 17 65q12 36 29 59h15l6 -5q-22 -74 -22 -113v-13q138 33 266 167q114 119 175 267q22 54 22 94q0 41 -27.5 69t-68.5 28q-72 0 -155 -66q-57 -44 -121 -122q-54 -66 -56 -66q-2 1 -5 2t-5 2q2 79 132 185 q127 103 212 103q56 0 96 -41t40 -97z" horiz-adv-x="784" unicode="Q" glyph-name="Q"/>
<glyph d="M986 566q0 -76 -67 -138q-51 -48 -149 -93q-74 -32 -149 -64q41 -66 82 -131q72 -105 110 -105q28 0 68 32q51 40 64 46l7 -10q-1 -20 -57.5 -62.5t-78.5 -44.5l-6 -4q-68 5 -115 81q-32 55 -63 109q-53 85 -73 85q-4 0 -16 -3q-40 -59 -79 -118q-56 -80 -103 -121 q-63 -56 -120 -56q-64 0 -105.5 38t-41.5 101q0 148 125 285q111 122 285 201q168 76 310 76q172 0 172 -104zM945 556q0 50 -45 68q-29 11 -87 11q-124 0 -284 -73q-166 -75 -274 -187q-123 -127 -123 -256q0 -42 28.5 -78t69.5 -36q50 0 104 48q40 36 87 105q34 52 67 103 q-114 13 -114 61q0 54 74 54q43 0 97 -33q83 114 105 142q63 79 123 125q14 2 18 -15q-2 -6 -104.5 -131t-107.5 -142l12 -14q104 18 216 83q138 80 138 165zM522 312q-50 29 -79 29q-24 0 -31 -10v-8q18 -26 73 -24l27 1z" horiz-adv-x="883" unicode="R" glyph-name="R"/>
<glyph d="M776 631q0 -37 -64 -84q-52 -38 -99 -53l-11 21q135 78 135 110q0 22 -42 22q-74 0 -206 -55q-150 -62 -150 -123q0 -39 69 -68q127 -54 128 -55q69 -40 69 -108q0 -98 -96 -179q-92 -77 -191 -77q-79 0 -144 58q-69 59 -69 138q0 51 15 100q20 67 59 67q2 0 11 -3l1 -10 q-47 -61 -47 -133q0 -69 53 -118t122 -49q80 0 158 60q83 64 83 142q0 49 -68 82q-63 27 -126 55q-68 36 -68 93q0 87 152 158q130 62 229 62q33 0 60 -11q37 -14 37 -42z" horiz-adv-x="614" unicode="S" glyph-name="S"/>
<glyph d="M1000 646q0 -78 -151 -78q-30 0 -78 11q-74 -65 -111 -128l-138 -236q-63 -107 -98 -149q-72 -86 -145 -86q-75 0 -113 79q-30 62 -30 146q0 59 33 59l6 -1l-1 -33q-2 -68 19 -128q27 -80 84 -80q77 0 174 162l171 285q29 48 110 127q-105 30 -130 36q-74 18 -133 18 q-83 0 -142 -38q-69 -44 -69 -123q0 -50 36 -103q-5 -4 -13 -4q-27 0 -45 38q-16 32 -16 62q0 100 82 158q73 51 177 51q73 0 166 -29l62 -22q46 -16 59 -16q103 70 162 70q26 0 47 -11q25 -13 25 -37zM965 641q0 17 -31 17q-54 0 -122 -48q23 -6 48 -6q30 0 60 7 q45 10 45 30z" horiz-adv-x="628" unicode="T" glyph-name="T"/>
<glyph d="M999 653l-200 -252q-119 -167 -119 -286q0 -86 46 -86q50 0 136 89l14 -17q-73 -110 -161 -110q-34 0 -57 39q-19 34 -19 70q0 69 41 163q-2 -2 -69 -79q-50 -57 -120 -111q-89 -69 -140 -69q-33 0 -66 44q-31 41 -31 76q0 90 90 214q48 66 168 195q90 96 90 118 q0 15 -16 15q-26 0 -90 -44q-51 -34 -85 -65l-20 5q15 43 88 90t120 47q16 0 31 -10.5t15 -26.5q0 -42 -90 -147q-157 -183 -167 -196q-90 -119 -90 -197q0 -26 17.5 -46.5t42.5 -20.5q78 0 228 159q84 89 248 298q127 163 146 166l19 -17v-8z" horiz-adv-x="806" unicode="U" glyph-name="U"/>
<glyph d="M736 646q0 -99 -186 -355q-58 -79 -155 -178q-126 -127 -177 -127q-18 0 -32 19q-12 16 -12 36q0 37 27 108l135 355q13 34 13 75q0 26 -18 26q-56 0 -140 -128q-10 7 -10 26q0 36 60 89t96 53q51 0 51 -70q0 -60 -35 -149l-122 -311q-18 -63 -18 -70q0 -16 10 -23h8 q109 77 243 237.5t187 280.5q19 43 19 124q0 23 29 23q27 0 27 -41z" unicode="V" glyph-name="V"/>
<glyph d="M1102 626q0 -85 -81 -202q-303 -439 -432 -439q-28 0 -49.5 30t-21.5 59q0 78 70 202q35 62 131 199q70 101 70 123q0 13 -9 13q-24 0 -198 -237q-107 -149 -214 -299q-34 -47 -52 -64q-34 -32 -72 -32q-24 0 -50 17q-24 35 -24 77q0 78 70 195q23 38 130 189 q70 99 70 132q0 15 -18 15q-33 0 -130 -109q-19 6 -19 16q0 32 65.5 82.5t99.5 50.5q16 0 29.5 -13.5t13.5 -30.5q0 -53 -70 -160q-65 -96 -131 -193q-70 -112 -70 -178q0 -16 10 -32.5t25 -16.5q40 0 154 163q105 151 211 303q123 163 186 163q11 0 22.5 -11.5t11.5 -23.5 q0 -37 -70 -148q-65 -102 -131 -205q-70 -121 -70 -184q0 -17 11 -32.5t27 -15.5q50 0 167 127q106 116 198 257q95 148 95 202q0 9 -6.5 27.5t-6.5 28.5q0 11 15 17h10q17 0 26 -23q7 -19 7 -39z" horiz-adv-x="872" unicode="W" glyph-name="W"/>
<glyph d="M1197 581q0 -69 -85 -157.5t-153 -88.5q-18 0 -31.5 16t-13.5 34q0 34 33.5 78t66.5 44l5 -1q13 -9 14 -22q-78 -48 -78 -90q0 -13 18 -13q55 0 122 77.5t67 134.5q0 54 -80 54q-97 0 -213 -79q-111 -75 -186 -185q-80 -116 -80 -214q0 -69 33 -110q35 -44 102 -44 q103 0 248 118h16q-13 -61 -108 -113q-87 -47 -156 -47q-85 0 -135 60q-47 57 -47 142q0 11 1 23q-58 -86 -138 -147q-97 -74 -183 -74q-72 0 -120 51t-48 124q0 15 2 45l5 6h16l19 -16v-23q0 -58 28 -98q32 -46 87 -46q88 0 197 95q99 86 172 210.5t73 211.5q0 44 -27 71.5 t-70 27.5q-79 0 -177 -96q-39 -38 -138 -161l-14 14q25 97 131.5 190t203.5 93q62 0 98 -42q33 -40 33 -104q0 -21 -5 -48q73 78 165 131q107 62 197 62q48 0 87 -22q46 -26 46 -72z" horiz-adv-x="931" unicode="X" glyph-name="X"/>
<glyph d="M920 650q0 -12 -24 -43q-16 -21 -33 -42l-321 -438q-116 -158 -211 -158q-45 0 -76.5 36t-31.5 83q0 29 12 75q14 58 33 58q15 0 11 -1l6 -9q1 -18 -10 -53t-11 -53q0 -87 79 -87q65 0 162 133l146 201q25 30 73 90q-10 -2 -25 -16q-110 -106 -230 -183h-14q-9 -1 -14 -1 q-32 0 -52.5 22.5t-20.5 55.5q0 54 53 138q29 47 97 133q53 67 53 78q0 2 -7.5 6.5t-10.5 4.5q-29 0 -100 -46q-60 -40 -92 -71l-8 3q0 -2 -3 8q0 40 92 95q86 53 130 53q45 0 45 -42q0 -34 -54 -104q-51 -63 -102 -127q-54 -74 -54 -119q0 -15 12.5 -31t27.5 -16 q48 0 161 100q66 59 191 187q97 100 106 100q5 0 10 -7t5 -13z" horiz-adv-x="608" unicode="Y" glyph-name="Y"/>
<glyph d="M832 624q0 -68 -64 -156q-29 -41 -114 -132q34 -56 34 -97q0 -29 -10 -64l114 45v-24q-42 -15 -115 -54q-11 -8 -23 -34q-63 -134 -226 -279q-180 -160 -308 -160q-32 0 -54.5 20t-22.5 53q0 80 109 165q80 63 227 134q99 46 199 91q41 20 54 37q15 21 15 63q0 37 -23 68 q-86 -63 -171 -125q-118 -83 -183 -83q-26 0 -46 14t-20 39q0 80 131 156q119 69 206 69q33 0 77 -14q44 36 105 122q69 96 69 138q0 26 -22.5 41t-49.5 15q-154 0 -378 -222q-10 -8 -16 -8q-7 0 -12 9q33 75 182.5 168.5t232.5 93.5q103 0 103 -89zM587 325q-21 3 -43 3 q-113 0 -224 -86q-36 -28 -48 -40q-29 -28 -31 -51l11 -15l13 -1q64 -5 170 69q47 32 152 121zM607 111q-221 -105 -303 -153q-221 -129 -221 -211q0 -41 40 -41q88 0 274 159q180 156 210 246z" horiz-adv-x="727" unicode="Z" glyph-name="Z"/>
<glyph d="M393 -159h-171v871h171v-23h-120v-826h120v-22z" horiz-adv-x="291" unicode="[" glyph-name="bracketleft"/>
<glyph d="M630 -32h-26l-367 744h24z" horiz-adv-x="655" unicode="\" glyph-name="backslash"/>
<glyph d="M287 -159h-172v22h121v826h-121v23h172v-871z" horiz-adv-x="291" unicode="]" glyph-name="bracketright"/>
<glyph d="M282 306h-27l-59 83l-102 -83h-28l116 126h50z" horiz-adv-x="242" unicode="^" glyph-name="asciicircum"/>
<glyph d="M575 -140h-550v25h550v-25z" horiz-adv-x="432" unicode="_" glyph-name="underscore"/>
<glyph d="M397 306h-30l-72 48q-54 40 -54 57q0 25 28 25q19 0 67 -55q31 -38 61 -75z" horiz-adv-x="291" unicode="`" glyph-name="grave"/>
<glyph d="M441 103q0 -22 -66.5 -68t-102.5 -46q-54 0 -56 89q-93 -93 -140 -93q-18 0 -31.5 19t-13.5 37q0 62 72.5 133.5t133.5 71.5q39 0 55 -37q23 22 53 45l20 -26q-114 -117 -114 -166q0 -34 32 -34q30 0 77 35q70 51 71 52q10 -5 10 -12zM268 181q0 13 -10.5 22t-23.5 9 q-44 0 -104 -61.5t-60 -105.5q0 -19 13 -19q51 0 185 155z" horiz-adv-x="377" unicode="a" glyph-name="a"/>
<glyph d="M466 527q0 -40 -99 -148q-13 -15 -183 -187q-99 -101 -99 -122q0 -43 30 -43q25 0 65 26t51 49q-14 40 -14 53q0 31 25 63.5t56 32.5q14 0 23.5 -13t9.5 -28q0 -30 -40 -92h10q36 0 73 17q34 18 67 36q11 -7 11 -15q0 -12 -42 -35q-32 -18 -55 -26q-18 -6 -86 -14 q-28 -23 -55 -46q-55 -44 -94 -44q-29 0 -49.5 20.5t-20.5 49.5q0 113 116 266q103 137 214 206q35 22 61 22q25 0 25 -28zM433 520l-5 8q-75 -29 -182 -154.5t-130 -207.5l260 269q32 33 57 85zM297 213l-6 7q-31 -2 -38 -75l8 -9q31 45 36 77z" horiz-adv-x="352" unicode="b" glyph-name="b"/>
<glyph d="M354 105q0 -35 -85 -78q-78 -40 -120 -40q-39 0 -69 21q-33 24 -33 62q0 64 66 125t130 61q51 0 51 -36q0 -33 -50 -70l-18 13q0 9 14 22.5t14 29.5q-5 11 -16 11q-44 0 -97.5 -57t-53.5 -101q0 -22 24 -34q19 -11 43 -11q48 0 101 31q22 13 88 62q11 -2 11 -11z" horiz-adv-x="289" unicode="c" glyph-name="c"/>
<glyph d="M600 530q0 -85 -351 -436q2 -59 41 -59q30 0 75 33q11 8 65 54q11 -4 11 -14q0 -23 -68 -68.5t-95 -45.5q-39 0 -64 68q-46 -34 -59 -42q-38 -23 -68 -23q-20 0 -32.5 17t-12.5 37q0 64 59.5 129.5t122.5 65.5q15 0 35 -9q33 50 66 99q40 59 74 95.5t81 75.5q64 52 91 52 q11 0 20 -9t9 -20zM567 524q-76 -27 -176 -152q-91 -115 -123 -205l2 -3q71 64 165 173q112 129 132 187zM241 200q-2 19 -19 19q-43 0 -92 -65q-46 -61 -49 -107q6 -12 15 -12q15 0 60 28q42 27 53 41z" horiz-adv-x="381" unicode="d" glyph-name="d"/>
<glyph d="M324 104q-34 -43 -86 -79q-61 -44 -105 -44q-38 0 -63 26t-25 65q0 60 60.5 122.5t120.5 62.5q14 0 25.5 -9.5t11.5 -23.5q0 -69 -175 -176q13 -28 45 -28q40 0 96 38q42 32 85 64q11 -8 10 -18zM225 224q-8 4 -10 4q-21 0 -78 -56q-35 -35 -53 -86q63 43 81 59 q44 39 60 79z" horiz-adv-x="259" unicode="e" glyph-name="e"/>
<glyph d="M497 537q0 -114 -378 -453q34 -17 44 -74q72 23 180 108q10 -3 10 -16q0 -19 -70 -65q-64 -43 -91 -50q-10 0 -25 -9q-7 -34 -18 -81q-28 -91 -90 -175q-78 -103 -153 -103q-22 0 -39 17t-17 40q0 99 162 360q113 183 237 346q144 189 224 189q24 0 24 -34zM470 531v7 l-3 1q-80 0 -348 -404q102 84 194 183q113 121 157 213zM128 13q-7 26 -9 31q-8 16 -25 16q-14 0 -14 -14q0 -12 11 -24.5t23 -12.5q9 0 14 4zM135 -46q0 10 -12 20q-29 5 -43 13.5t-32 32.5q-71 -117 -98 -168q-63 -119 -63 -175q0 -28 23 -28q62 0 146 122q79 116 79 183z " horiz-adv-x="279" unicode="f" glyph-name="f"/>
<glyph d="M431 99q-70 -76 -165 -126q-24 -10 -67 -36q-10 -9 -50 -83q-36 -66 -90 -130q-73 -86 -120 -86q-20 0 -35 15.5t-15 35.5q0 91 86 162q56 47 166 94q19 8 54 72q23 43 45 86q-38 -34 -76 -67q-53 -44 -84 -44q-18 0 -31.5 18.5t-13.5 37.5q0 65 74 132t139 67 q39 0 46 -47q31 37 51 50l27 -11q-61 -70 -154 -251q29 4 102 56q87 63 104 71l7 -8v-8zM273 178q-9 22 -11 25q-8 12 -23 12q-39 0 -101.5 -61t-62.5 -100q0 -15 11 -20q58 12 187 144zM133 -95q-75 -33 -110 -59q-44 -34 -82 -96q-19 -31 -19 -50q0 -24 17 -24 q46 0 114 92q51 70 80 137z" horiz-adv-x="368" unicode="g" glyph-name="g"/>
<glyph d="M455 543q0 -40 -85 -133q-10 -11 -167 -170q-99 -99 -119 -141q40 50 99 100q77 65 117 65q12 0 22 -9.5t10 -21.5q0 -30 -45 -94t-45 -81q0 -22 29 -22q28 0 76 34q34 26 69 53l10 -20q-103 -106 -167 -106q-22 0 -37.5 20t-15.5 42q0 33 36 83q40 58 47 81l-6 5 q-47 -19 -130 -105q-19 -20 -117 -132q-17 -1 -17 31q0 26 38 100q96 186 155 273q124 183 221 187q22 -14 22 -39zM423 543q0 8 -7 11q-74 -26 -155 -142q-19 -27 -113 -189q130 135 219 237q13 17 41 47q15 25 15 36z" horiz-adv-x="360" unicode="h" glyph-name="h"/>
<glyph d="M229 310q-12 -46 -43 -46q-30 0 -30 30q0 15 11.5 27t27.5 12q19 0 34 -23zM250 110l-1 -6q-53 -51 -77 -69q-53 -40 -91 -40q-19 0 -35.5 16.5t-16.5 35.5q0 33 44.5 111t73.5 90q9 -1 20 -14q-6 -24 -57 -89q-46 -59 -46 -92q0 -1 1.5 -4.5t1.5 -4.5q10 -12 24 -12 q28 0 76 36q35 29 69 57q14 0 14 -15z" horiz-adv-x="174" unicode="i" glyph-name="i"/>
<glyph d="M209 286q0 -12 -10.5 -21t-23.5 -9t-23 8.5t-10 21.5q0 27 33 27q12 0 23 -7.5t11 -19.5zM260 104q0 -15 -23 -30q-12 -16 -60.5 -49.5t-65.5 -34.5q-36 -14 -101 -48q-26 -19 -70 -97q-53 -96 -78 -127q-50 -63 -102 -63q-18 0 -31.5 13.5t-13.5 32.5q0 51 71 126 q56 58 118 97q24 14 49 27q28 17 40 38l68 134q55 105 72 114q19 -2 21 -20q-66 -141 -126 -229v-5q139 67 220 132h4q8 -5 8 -11zM-62 -94q-68 -42 -88 -58q-41 -32 -71.5 -78.5t-30.5 -61.5q0 -14 10 -18q82 24 180 216z" horiz-adv-x="189" unicode="j" glyph-name="j"/>
<glyph d="M450 528q0 -40 -82 -131l-165 -165q-98 -99 -122 -145q49 48 128 103q98 69 139 69q13 0 26 -9.5t13 -22.5q0 -44 -72 -92q-55 -36 -113 -54q50 -52 76 -52q38 0 82 35q59 47 73 54q7 -3 7 -13t-31 -36.5t-60 -52.5q-35 -26 -73 -26q-37 0 -68 33q-40 44 -55 51l-29 -1 q-26 10 -102 -86q-16 0 -16 16q0 21 26 63q3 19 82 147l98 156q38 63 91 118q71 75 118 75q12 0 20.5 -10.5t8.5 -23.5zM422 522l-3 11q-1 0 -3.5 1t-3.5 1q-5 0 -21 -7q-11 -7 -25 -25q-66 -57 -124 -148q-7 -14 -27 -41q-5 -13 -23.5 -37.5t-22.5 -40.5q92 92 117 118 q110 115 122 144q3 2 14 24zM341 214q0 2 -2 6l-8 4q-45 1 -176 -113l5 -3h3l17 -9q26 0 93.5 46t67.5 69z" horiz-adv-x="370" unicode="k" glyph-name="k"/>
<glyph d="M449 512q0 -79 -308 -363q-18 -16 -36 -33q-20 -22 -20 -43q0 -41 30 -41q52 0 145 87q13 0 13 -16q0 -25 -69 -68t-98 -43q-26 0 -43 26q-15 23 -15 50q0 64 66.5 180t150.5 201q93 94 157 94q27 0 27 -31zM418 505q0 3 -2 5q-74 -8 -180 -141q-89 -112 -126 -205 l166 160q142 144 142 181z" horiz-adv-x="208" unicode="l" glyph-name="l"/>
<glyph d="M540 106q0 -25 -67 -69t-95 -44q-24 0 -45.5 18.5t-21.5 41.5q0 31 43 85t43 72l-7 6q-51 -13 -122 -89l-102 -122l-26 9q0 9 50.5 86t50.5 100q0 9 -7 14q-47 -16 -129 -116q-78 -94 -89 -94q-13 5 -13 13q0 20 70 127.5t85 108.5l8 -17q-18 -37 -36 -68q66 84 114 84 q12 0 22.5 -12.5t10.5 -25.5q0 -21 -13 -54q79 92 134 92q15 0 25.5 -12.5t10.5 -27.5q0 -27 -40.5 -80.5t-40.5 -72.5q0 -24 32 -24t76 30q14 10 66 53h3q10 -4 10 -12z" horiz-adv-x="466" unicode="m" glyph-name="m"/>
<glyph d="M392 95q-99 -107 -166 -107q-20 0 -39 17.5t-19 37.5q0 37 35 88q42 59 49 83l-9 6q-29 1 -114 -94q-52 -64 -105 -127l-23 13q-1 17 70 126q68 108 87 123h5l8 -10q-7 -34 -34 -76q68 76 114 76q38 0 38 -35q0 -31 -41.5 -87.5t-41.5 -74.5q0 -12 7 -18q2 -1 18 -8 q42 7 81 32q19 12 68 53z" horiz-adv-x="321" unicode="n" glyph-name="n"/>
<glyph d="M419 151q-62 -64 -181 -69q-76 -96 -133 -96q-25 0 -44.5 24.5t-19.5 50.5q0 34 41 97q45 68 79 68q8 0 14 -4q39 61 83 61q20 0 32.5 -17t12.5 -38q0 -38 -37 -110q52 1 147 54zM268 226q0 26 -22 26t-38 -34q-14 -30 -14 -56q0 -13 8 -26.5t21 -13.5q45 68 45 104z M200 93q-40 27 -34 102q-28 -8 -59 -56t-31 -78q0 -14 10 -25.5t23 -11.5q35 0 91 69z" horiz-adv-x="316" unicode="o" glyph-name="o"/>
<glyph d="M297 204q0 -58 -57 -132q-60 -78 -116 -78q-16 0 -42 34q-93 -193 -111 -225q-93 -168 -148 -168q-18 0 -29 20q-10 17 -10 37q0 96 110 237q22 27 183 203q44 48 84 167q3 11 6.5 20.5t17.5 9.5q9 0 17 -8q0 -15 -17 -60q-13 -30 -25 -61q63 47 98 47q15 0 27 -13.5 t12 -29.5zM256 199q0 15 -15 15q-42 0 -90.5 -55.5t-48.5 -98.5q0 -11 9.5 -23t20.5 -12q32 0 79 71q45 68 45 103zM61 73q-42 -15 -145 -172.5t-103 -206.5q0 -32 22 -29q48 35 92 113q27 49 70 150t63 137z" horiz-adv-x="287" unicode="p" glyph-name="p"/>
<glyph d="M425 149q-44 -38 -88 -58q-36 -16 -100 -31q0 -2 2.5 -12.5t2.5 -11.5q0 -88 -55 -233q-64 -168 -133 -168q-17 0 -30 20q-12 17 -12 35q0 59 64 179q28 51 103 170q-61 -53 -90 -53q-20 0 -33 21t-13 42q0 64 68.5 131.5t132.5 67.5q25 0 43 -21l9 -5q13 17 21 25 q15 16 27 17l17 -13q-33 -41 -108 -153q46 9 165 66zM275 187q-8 35 -33 35q-44 0 -104 -68.5t-60 -113.5q0 -8 11 -15q46 8 105 65q45 44 81 97zM219 25l-7 8q-38 -45 -103 -168q-70 -134 -70 -176q0 -18 10 -24q58 28 115 162q53 122 55 198z" horiz-adv-x="342" unicode="q" glyph-name="q"/>
<glyph d="M368 101q-106 -106 -167 -106q-22 0 -39 21t-17 44q0 36 18 66q9 16 35 43q21 23 25 36q-30 -9 -62 -7q-77 -99 -130 -134l-10 19q53 55 67 72q42 51 44 82q3 58 11 85q15 53 53 53q12 0 21 -12.5t9 -24.5q0 -29 -45 -111q34 1 109 31l13 -15q-40 -38 -76 -85 q-48 -64 -48 -98q0 -27 33 -27t77 34q58 45 71 51zM197 337l-1 5l-6 1q-28 -21 -36 -89q11 7 27 38t16 45z" horiz-adv-x="304" unicode="r" glyph-name="r"/>
<glyph d="M335 119q1 -23 -49 -39q-56 -18 -58 -21q-29 -37 -42 -48q-26 -24 -58 -24q-37 0 -63 32q-24 29 -24 68q0 61 35 76l9 -8l71 73q-4 22 -4 33q0 41 27 82q30 46 69 46q14 0 24.5 -10.5t10.5 -24.5q0 -29 -41.5 -81l-41.5 -52q0 -8 16 -54t18 -65l6 -2q19 -1 48.5 15 t38.5 16zM252 352l-6 5q-23 0 -42 -34q-16 -29 -18 -56h6l5 6q12 7 33 37t22 42zM196 89q-1 40 -4.5 55t-21.5 49l-63 -64q3 -15 18 -22q19 -19 52 -19q3 0 9 1h10zM183 51l-1 4q-34 3 -52.5 12t-40.5 34q-5 -18 -5 -34q0 -20 17 -34.5t37 -14.5q24 0 45 33z" horiz-adv-x="263" unicode="s" glyph-name="s"/>
<glyph d="M531 360q0 -8 -5 -13q-8 0 -26 1h-26q-24 0 -139 -5q-56 -58 -170 -171q-22 -20 -45 -40q-25 -26 -25 -53q0 -49 40 -49q28 0 74 35q57 44 72 50l6 -16q-100 -109 -161 -109q-34 0 -52 31q-16 26 -16 62q0 57 44 129q59 95 68 119l-104 -8v3q-1 2 -1 3q0 18 23 22 q6 1 37 1q50 0 77 18q6 4 56 53q25 25 61 47q44 28 70 28q7 0 12.5 -11t5.5 -19q0 -24 -15 -48q-14 -20 -29 -41l2 -5q20 0 59.5 2.5t59.5 2.5q47 0 47 -19zM374 461l-9 4q-15 -1 -62 -42.5t-52 -57.5q53 0 80 23q23 19 43 73zM282 338q-15 0 -44 -2q-23 -5 -67 -70 q-30 -44 -53 -89q16 2 83 72q52 53 81 89z" horiz-adv-x="227" unicode="t" glyph-name="t"/>
<glyph d="M395 99q-100 -108 -164 -108q-56 0 -58 78q-66 -71 -101 -71q-15 0 -26.5 14.5t-11.5 30.5q0 47 39 111t81 90l21 -13q-104 -120 -104 -178q0 -18 11 -18q28 0 104 92q94 117 100 122l26 -15q-49 -71 -61 -91q-37 -61 -40 -99q7 -13 20 -13q37 0 82 31q36 27 71 54z" horiz-adv-x="329" unicode="u" glyph-name="u"/>
<glyph d="M323 255q-20 -60 -95 -159q-85 -111 -132 -111q-23 0 -39 21.5t-16 45.5q0 82 113 195h3l20 -17v-5q-31 -36 -62 -86q-40 -65 -40 -93q0 -20 22 -20q34 0 110 98q66 85 87 134q10 6 17 6q8 0 12 -9z" horiz-adv-x="284" unicode="v" glyph-name="v"/>
<glyph d="M449 263q-1 -59 -84 -165q-86 -109 -142 -109q-49 0 -46 79l-7 -2q-68 -73 -105 -73q-17 0 -28 23q-9 19 -9 39q0 35 48 109q50 78 81 78q11 0 15 -15q-107 -135 -107 -178q0 -8 6 -13q51 15 110 91q74 97 94 114l26 -14v-5q-27 -40 -54 -81q-35 -56 -35 -85 q0 -26 17 -26q33 0 112 99q68 83 93 134h15z" horiz-adv-x="417" unicode="w" glyph-name="w"/>
<glyph d="M409 90q-98 -108 -170 -108q-64 0 -59 94q-25 -12 -86 -64q-57 -50 -80 -77q-19 16 -19 25q0 20 139 129q27 20 53 40q18 19 20 65q-34 -9 -72 -40l-62 -56h-13l-6 9q17 30 77 82q65 55 91 55q27 0 27 -51q0 -15 -4 -22l3 -4q106 78 138 78q3 0 7 -2q11 -8 11 -20 q-57 -32 -115 -65q-73 -48 -73 -97q0 -16 10 -28.5t26 -12.5q31 0 77 35q61 48 71 53z" horiz-adv-x="356" unicode="x" glyph-name="x"/>
<glyph d="M329 236q-35 -58 -95 -180q15 11 47 29l7 -17q-8 -20 -31 -37q-20 -13 -41 -28t-70 -113q-58 -117 -94 -164q-62 -83 -127 -83q-16 0 -27 13t-11 29q0 63 101 165q25 26 154 138q21 18 42 57q18 31 35 63q-32 -34 -65 -68q-47 -45 -75 -45q-16 0 -27 18t-11 34 q0 38 43 116q45 83 78 83q10 0 18 -10v-5q-98 -126 -98 -175q0 -13 10 -13q27 0 110 90q52 60 104 119h8zM138 -59l-4 3q-64 -62 -128 -123q-87 -89 -87 -139q0 -14 13 -14q42 0 115 115q46 79 91 158z" horiz-adv-x="288" unicode="y" glyph-name="y"/>
<glyph d="M342 192q0 -33 -44 -72q-18 -16 -72 -52q15 -15 33 -42l46 25h3q14 0 14 -13l-1 -10q-24 -15 -32 -22q-20 -14 -27 -28q0 -90 -118 -217.5t-207 -127.5q-31 0 -31 38q0 67 130 183q47 42 190 150q-18 41 -42 39q-62 -35 -119 -46q-11 7 -11 17q0 21 46 38q33 11 65 21 q58 24 104 64q36 31 36 50q0 12 -8 22t-19 10q-50 0 -113 -46q-87 -66 -98 -71l-11 13q24 36 103 84t120 48q24 0 43.5 -15.5t19.5 -39.5zM228 -36l-2 1q-39 -6 -165 -129t-126 -162l6 -13q78 6 178 116q98 107 109 187z" horiz-adv-x="341" unicode="z" glyph-name="z"/>
<glyph d="M473 690q-92 0 -136 -46q-35 -36 -35 -116q0 -17 2 -49t2 -45q0 -68 -20 -103q-18 -30 -59 -48q-5 -3 -94 -33q91 -19 128 -55q33 -32 39 -93q2 -16 2 -142q0 -153 170 -153v-21q-108 8 -151.5 33t-54.5 83q-6 35 -6 156q0 95 -38 131q-33 31 -131 47v26q101 18 131 46 q37 35 37 134q0 106 6 141q10 65 48 95q45 34 140 34h20v-22z" horiz-adv-x="459" unicode="{" glyph-name="braceleft"/>
<glyph d="M135 -160h-19v872h19v-872z" horiz-adv-x="151" unicode="|" glyph-name="bar"/>
<glyph d="M473 235q-90 -12 -127 -46q-32 -30 -38 -91q-2 -15 -2 -140q0 -96 -61 -136q-50 -33 -153 -33v17q88 7 126 38q33 26 40 83q3 22 3 131q0 94 41 136q35 36 131 55q-89 21 -126 53q-34 29 -42 85q-3 26 -3 139q0 93 -40 129q-36 33 -130 35v22q102 0 149 -29 q43 -26 56 -88q8 -40 8 -150q0 -100 37 -135q30 -30 131 -48v-27z" horiz-adv-x="459" unicode="}" glyph-name="braceright"/>
<glyph d="M418 390q-22 -85 -70 -85q-21 0 -52.5 18.5t-47.5 18.5q-25 0 -40 -37h-22q21 82 71 82q20 0 50 -18t45 -18q22 0 29.5 12.5t15.5 26.5h21z" horiz-adv-x="286" unicode="~" glyph-name="asciitilde"/>
<glyph horiz-adv-x="536" unicode=" " glyph-name="nonbreakingspace"/>
<glyph d="M358 461l-50 -86q34 -30 34 -37q0 -3 -4 -15l-9 -2l-17 17q-12 10 -21 11q-88 -145 -88 -152v-3q28 6 48.5 24.5t31.5 22.5q0 -2 1 -5t1 -4q0 -9 -11 -22q-24 -29 -39 -37.5t-51 -8.5q-15 -11 -35 -49q-15 -29 -29 -58q-10 7 -10 11q0 16 24.5 54.5t24.5 51.5 q0 -1 -12 29t-12 52q0 59 48 95q43 31 104 31q8 5 32 47q22 38 33 38zM270 355l-6 1q-34 0 -66.5 -40.5t-32.5 -76.5q0 -28 15 -36z" horiz-adv-x="218" unicode="¢" glyph-name="cent"/>
<glyph d="M897 321q0 -19 -17 -19q-12 0 -13 21q-2 65 -31 106q-33 49 -94 49q-76 0 -134 -76q-23 -29 -81 -141h123q-1 -11 -19 -24q-13 -2 -116 -2q-9 0 -19 -15q-24 -37 -96 -133q54 -17 107 -34q72 -22 107 -22q54 0 74 38q15 28 15 87q0 14 18 14q24 0 24 -46q0 -51 -40 -85 t-92 -34q-45 0 -128.5 28t-112.5 28q-89 -60 -155 -60q-25 0 -47 8q-30 11 -30 31q0 65 129 65q38 0 92 -9q16 13 55 68t42 70l-42 4q-30 4 -31 17l6 12q48 -3 50 -3h13q22 0 30 7q2 2 16 26q61 105 97 142q65 68 151 68q149 0 149 -186zM327 71q-40 10 -72 10 q-85 0 -85 -45q15 -12 50 -12q48 0 107 47z" horiz-adv-x="878" unicode="£" glyph-name="sterling"/>
<glyph d="M289 344q0 -39 -42 -39q-11 0 -24 12t-13 23q0 45 42 45q15 0 26 -12.5t11 -28.5zM429 347q0 -17 -12 -29.5t-28 -12.5q-15 0 -27.5 11t-12.5 26q0 44 41 44q16 0 27.5 -12t11.5 -27z" horiz-adv-x="319" unicode="¨" glyph-name="dieresis"/>
<glyph d="M335 108q-15 -14 -49 -36l-34 -8q-22 -6 -26 -21q-30 -30 -41 -38q-26 -19 -52 -19q-38 0 -59 26q-19 23 -19 62q-7 0 -18.5 -9.5t-19.5 -9.5q-13 0 -17 13l163 156q-4 22 -4 34q0 41 27 81q30 44 69 44q14 0 25.5 -9.5t11.5 -23.5q0 -29 -33 -72q-8 -10 -55 -62 q33 -74 35 -117l5 -5q27 0 83 32l8 -2v-16zM261 345l-5 8q-26 0 -46 -33q-16 -29 -18 -58l5 -1q47 47 64 84zM204 101q0 14 -10 48q-10 38 -19 40l-65 -61q3 -18 28 -30.5t45 -12.5q3 0 10 1h9q2 5 2 15zM187 51q-36 5 -53.5 14t-40.5 35q-9 -7 -9 -28t16.5 -38t38.5 -17 q40 0 48 34z" horiz-adv-x="266" unicode="©" glyph-name="copyright"/>
<glyph d="M301 232q0 -20 -12 -39q-14 -22 -33 -22q-11 0 -15 7q14 17 28 49q-6 10 -13 9h-13q-56 -37 -113 -107q-48 -63 -95 -126q-18 0 -18 20q0 14 62 125t72 116h16l5 -7q-7 -29 -23 -62q74 77 117 77q14 0 24.5 -13t10.5 -27z" horiz-adv-x="231" unicode="®" glyph-name="registered"/>
<glyph d="M387 410q0 -16 -55 -55q-36 -25 -72 -49h-30l62 76q47 54 70 54q9 0 17 -9t8 -17z" horiz-adv-x="291" unicode="´" glyph-name="acute"/>
<glyph d="M646 105q0 -7 -7 -12q-16 -27 -71.5 -64t-85.5 -37q-23 0 -44.5 18t-21.5 41q0 31 43 84.5t43 75.5l-7 4q-52 -15 -122 -90q-3 -3 -101 -121l-26 8q2 13 46 82t53 109l-8 10q-44 -20 -127 -118q-77 -91 -88 -91t-15 13l2 11q101 143 101 172q0 11 -9 16q-27 0 -73.5 -54 t-57.5 -54l-8 20q29 40 65 75q51 49 79 49q15 0 26 -13t11 -28q0 -19 -9 -44q70 84 112 84q16 0 26 -14t10 -30q0 -17 -14 -47q81 91 134 91q15 0 25.5 -12t10.5 -27q0 -30 -39 -82.5t-39 -72.5q0 -24 27 -24q33 0 78 34q65 48 71 51q10 -4 10 -13z" horiz-adv-x="556" unicode="µ" glyph-name="mu"/>
<glyph d="M322 -122q0 -43 -35 -67q-30 -21 -76 -21q-43 0 -99 21l13 25q42 -15 79 -15q74 0 74 52q0 20 -18.5 32t-39.5 12t-52 -11l-15 12l60 82h35l-45 -58q18 3 35 3q31 0 56 -17q28 -20 28 -50z" horiz-adv-x="262" unicode="¸" glyph-name="cedilla"/>
<glyph d="M1122 736h-30q-36 25 -72 49q-55 40 -55 56q0 25 29 25q27 0 128 -130zM1108 648q0 -44 -71 -153q-8 -12 -104 -148l3 -5l19 -10l5 -12l-4 -12q-12 -2 -54 -2q-40 -50 -69 -106q-39 -72 -39 -117q0 -37 27 -37q38 0 80 30q33 29 67 57q11 0 11 -9q0 -26 -67 -72t-96 -46 q-27 0 -43 29q-14 24 -14 52q0 53 30 116q15 32 61 104l-118 1l-62 -1q-59 -59 -117 -118q-79 -77 -140 -117q-82 -52 -151 -52q-47 0 -107 44q-63 46 -63 91q0 10 9 19t19 10q40 -67 59 -87q38 -39 94 -39q69 0 177 93q53 45 150 149l-63 -4q0 1 -1 4t-1 4q0 30 48 39 q35 3 69 6q69 86 197 200q156 140 215 140q15 0 29.5 -13t14.5 -28zM1071 649q-7 9 -17 9q-19 0 -77 -47q-41 -34 -72 -65l-172 -174q-8 -8 -21 -23q19 -2 56 -2q12 0 54 1q33 1 54 0l112 148q75 106 83 153z" horiz-adv-x="896" unicode="À" glyph-name="Agrave"/>
<glyph d="M1161 840q0 -15 -55 -55q-36 -24 -72 -49h-31l62 76q48 54 70 54q10 0 18 -8t8 -18zM1108 648q0 -44 -71 -153q-8 -12 -104 -148l3 -5l19 -10l5 -12l-4 -12q-12 -2 -54 -2q-40 -50 -69 -106q-39 -72 -39 -117q0 -37 27 -37q38 0 80 30q33 29 67 57q11 0 11 -9 q0 -26 -67 -72t-96 -46q-27 0 -43 29q-14 24 -14 52q0 53 30 116q15 32 61 104l-118 1l-62 -1q-59 -59 -117 -118q-79 -77 -140 -117q-82 -52 -151 -52q-47 0 -107 44q-63 46 -63 91q0 10 9 19t19 10q40 -67 59 -87q38 -39 94 -39q69 0 177 93q53 45 150 149l-63 -4 q0 1 -1 4t-1 4q0 30 48 39q35 3 69 6q69 86 197 200q156 140 215 140q15 0 29.5 -13t14.5 -28zM1071 649q-7 9 -17 9q-19 0 -77 -47q-41 -34 -72 -65l-172 -174q-8 -8 -21 -23q19 -2 56 -2q12 0 54 1q33 1 54 0l112 148q75 106 83 153z" horiz-adv-x="896" unicode="Á" glyph-name="Aacute"/>
<glyph d="M1169 736h-28l-59 83l-101 -83h-28l116 126h50zM1108 648q0 -44 -71 -153q-8 -12 -104 -148l3 -5l19 -10l5 -12l-4 -12q-12 -2 -54 -2q-40 -50 -69 -106q-39 -72 -39 -117q0 -37 27 -37q38 0 80 30q33 29 67 57q11 0 11 -9q0 -26 -67 -72t-96 -46q-27 0 -43 29 q-14 24 -14 52q0 53 30 116q15 32 61 104l-118 1l-62 -1q-59 -59 -117 -118q-79 -77 -140 -117q-82 -52 -151 -52q-47 0 -107 44q-63 46 -63 91q0 10 9 19t19 10q40 -67 59 -87q38 -39 94 -39q69 0 177 93q53 45 150 149l-63 -4q0 1 -1 4t-1 4q0 30 48 39q35 3 69 6 q69 86 197 200q156 140 215 140q15 0 29.5 -13t14.5 -28zM1071 649q-7 9 -17 9q-19 0 -77 -47q-41 -34 -72 -65l-172 -174q-8 -8 -21 -23q19 -2 56 -2q12 0 54 1q33 1 54 0l112 148q75 106 83 153z" horiz-adv-x="896" unicode="Â" glyph-name="Acircumflex"/>
<glyph d="M1182 820q-20 -84 -70 -84q-22 0 -53.5 18t-46.5 18q-24 0 -41 -37h-21q18 83 70 83q21 0 51 -18.5t46 -18.5q21 0 29 12.5t16 26.5h20zM1108 648q0 -44 -71 -153q-8 -12 -104 -148l3 -5l19 -10l5 -12l-4 -12q-12 -2 -54 -2q-40 -50 -69 -106q-39 -72 -39 -117 q0 -37 27 -37q38 0 80 30q33 29 67 57q11 0 11 -9q0 -26 -67 -72t-96 -46q-27 0 -43 29q-14 24 -14 52q0 53 30 116q15 32 61 104l-118 1l-62 -1q-59 -59 -117 -118q-79 -77 -140 -117q-82 -52 -151 -52q-47 0 -107 44q-63 46 -63 91q0 10 9 19t19 10q40 -67 59 -87 q38 -39 94 -39q69 0 177 93q53 45 150 149l-63 -4q0 1 -1 4t-1 4q0 30 48 39q35 3 69 6q69 86 197 200q156 140 215 140q15 0 29.5 -13t14.5 -28zM1071 649q-7 9 -17 9q-19 0 -77 -47q-41 -34 -72 -65l-172 -174q-8 -8 -21 -23q19 -2 56 -2q12 0 54 1q33 1 54 0l112 148 q75 106 83 153z" horiz-adv-x="896" unicode="Ã" glyph-name="Atilde"/>
<glyph d="M1165 777q0 -17 -12 -29t-28 -12t-28 10.5t-12 26.5q0 44 41 44q16 0 27.5 -12t11.5 -28zM1026 777q0 -16 -11 -29t-28 -13q-16 0 -28.5 12t-12.5 28t11 28.5t28 12.5q16 0 28.5 -11.5t12.5 -27.5zM1108 648q0 -44 -71 -153q-8 -12 -104 -148l3 -5l19 -10l5 -12l-4 -12 q-12 -2 -54 -2q-40 -50 -69 -106q-39 -72 -39 -117q0 -37 27 -37q38 0 80 30q33 29 67 57q11 0 11 -9q0 -26 -67 -72t-96 -46q-27 0 -43 29q-14 24 -14 52q0 53 30 116q15 32 61 104l-118 1l-62 -1q-59 -59 -117 -118q-79 -77 -140 -117q-82 -52 -151 -52q-47 0 -107 44 q-63 46 -63 91q0 10 9 19t19 10q40 -67 59 -87q38 -39 94 -39q69 0 177 93q53 45 150 149l-63 -4q0 1 -1 4t-1 4q0 30 48 39q35 3 69 6q69 86 197 200q156 140 215 140q15 0 29.5 -13t14.5 -28zM1071 649q-7 9 -17 9q-19 0 -77 -47q-41 -34 -72 -65l-172 -174q-8 -8 -21 -23 q19 -2 56 -2q12 0 54 1q33 1 54 0l112 148q75 106 83 153z" horiz-adv-x="896" unicode="Ä" glyph-name="Adieresis"/>
<glyph d="M1134 803q0 -29 -19.5 -47.5t-49.5 -18.5q-28 0 -47.5 19t-19.5 47q0 29 20 49t48 20t48 -20.5t20 -48.5zM1108 648q0 -44 -71 -153q-8 -12 -104 -148l3 -5l19 -10l5 -12l-4 -12q-12 -2 -54 -2q-40 -50 -69 -106q-39 -72 -39 -117q0 -37 27 -37q38 0 80 30q33 29 67 57 q11 0 11 -9q0 -26 -67 -72t-96 -46q-27 0 -43 29q-14 24 -14 52q0 53 30 116q15 32 61 104l-118 1l-62 -1q-59 -59 -117 -118q-79 -77 -140 -117q-82 -52 -151 -52q-47 0 -107 44q-63 46 -63 91q0 10 9 19t19 10q40 -67 59 -87q38 -39 94 -39q69 0 177 93q53 45 150 149 l-63 -4q0 1 -1 4t-1 4q0 30 48 39q35 3 69 6q69 86 197 200q156 140 215 140q15 0 29.5 -13t14.5 -28zM1106 803q0 17 -12 29t-28 12q-17 0 -28.5 -12t-11.5 -29q0 -16 12 -28t28 -12t28 12t12 28zM1071 649q-7 9 -17 9q-19 0 -77 -47q-41 -34 -72 -65l-172 -174 q-8 -8 -21 -23q19 -2 56 -2q12 0 54 1q33 1 54 0l112 148q75 106 83 153z" horiz-adv-x="896" unicode="Å" glyph-name="Aring"/>
<glyph d="M1459 632q0 -43 -58.5 -85t-102.5 -42q-20 0 -24 20q47 17 88 41q61 36 61 63q0 29 -74 29q-94 0 -188 -51.5t-142 -131.5q-18 -30 -18 -53q0 -1 1 -4t1 -5q49 14 107 14q45 0 78 -12q47 -17 47 -53q0 -37 -37 -55q-29 -15 -70 -15q-79 0 -125 42q-8 12 -30 30 q-69 -29 -120 -92q-55 -68 -55 -138q0 -130 139 -130q80 0 163 43q28 15 143 92l9 -10q-74 -83 -139 -123q-82 -50 -175 -50q-72 0 -127 47q-59 50 -59 122q0 46 21.5 97t54.5 85l-105 1l-53 -1q-59 -59 -117 -118q-79 -77 -140 -117q-82 -52 -151 -52q-47 0 -107 44 q-63 46 -63 91q0 10 9 19t19 10q40 -67 59 -87q38 -39 94 -39q69 0 177 93q53 45 150 149l-63 -4q0 1 -1 4t-1 4q0 30 48 39q35 3 69 6q70 87 195 199q157 141 217 141q16 0 30 -13.5t14 -29.5q0 -13 -7 -29q131 78 239 78q41 0 74 -12q45 -17 45 -51zM1198 361 q-15 34 -86 34q-91 0 -98 -18q48 -51 114 -51q70 0 70 35zM1071 649q-7 9 -16 9q-20 0 -77 -47q-42 -33 -73 -65l-172 -174q-8 -8 -21 -23q53 0 160 -2q19 15 92 56q1 95 78 168q22 45 29 78z" horiz-adv-x="1218" unicode="Æ" glyph-name="AE"/>
<glyph d="M758 594q0 -66 -89 -153.5t-155 -87.5q-18 0 -30.5 16t-12.5 34q0 38 33.5 79t70.5 41q13 0 16 -20q-39 -26 -52 -38q-28 -26 -28 -54q0 -12 18 -12q53 0 124 75.5t71 129.5q0 59 -87 59q-100 0 -216 -75q-111 -73 -186 -180q-79 -114 -79 -215q0 -151 137 -151 q108 0 246 112l11 -9q-32 -62 -104 -103q-67 -38 -140 -43l-42 -57q17 3 31 3q87 0 87 -80q0 -35 -39 -57q-33 -18 -71 -18q-44 0 -100 21l14 25q38 -15 79 -15q72 0 72 55q0 17 -17 29t-34 12q-27 0 -58 -11l-15 12l60 81q-74 1 -119 63q-42 56 -42 134q0 111 83 231 q79 112 198 187q123 77 233 77q50 0 87 -23q45 -27 45 -74z" horiz-adv-x="569" unicode="Ç" glyph-name="Ccedilla"/>
<glyph d="M755 736h-30q-36 25 -72 49q-55 40 -55 56q0 25 28 25q20 0 68 -55q31 -37 61 -75zM810 632q0 -42 -60 -86q-56 -41 -100 -41q-21 0 -25 20q47 17 88 41q61 35 61 62q0 31 -72 31q-93 0 -189 -51q-100 -54 -144 -133q-17 -30 -17 -53q0 -1 1 -4t1 -5q49 14 107 14 q44 0 77 -12q47 -17 47 -53q0 -37 -36 -55q-29 -15 -70 -15q-79 0 -125 42q-9 11 -30 30q-69 -29 -120 -92q-55 -68 -55 -138q0 -130 139 -130q80 0 163 43q28 15 143 92l9 -10q-73 -83 -139 -122q-82 -50 -176 -50q-71 0 -128 48t-57 120q0 96 65 169q49 55 147 109 q2 123 132 212q117 80 245 80q40 0 73 -13q45 -17 45 -50zM549 361q-15 34 -87 34q-90 0 -97 -18q48 -51 115 -51q70 0 69 35z" horiz-adv-x="521" unicode="È" glyph-name="Egrave"/>
<glyph d="M821 840q0 -15 -55 -55q-36 -24 -72 -49h-30l62 76q47 54 70 54q10 0 17.5 -8t7.5 -18zM810 632q0 -42 -60 -86q-56 -41 -100 -41q-21 0 -25 20q47 17 88 41q61 35 61 62q0 31 -72 31q-93 0 -189 -51q-100 -54 -144 -133q-17 -30 -17 -53q0 -1 1 -4t1 -5q49 14 107 14 q44 0 77 -12q47 -17 47 -53q0 -37 -36 -55q-29 -15 -70 -15q-79 0 -125 42q-9 11 -30 30q-69 -29 -120 -92q-55 -68 -55 -138q0 -130 139 -130q80 0 163 43q28 15 143 92l9 -10q-73 -83 -139 -122q-82 -50 -176 -50q-71 0 -128 48t-57 120q0 96 65 169q49 55 147 109 q2 123 132 212q117 80 245 80q40 0 73 -13q45 -17 45 -50zM549 361q-15 34 -87 34q-90 0 -97 -18q48 -51 115 -51q70 0 69 35z" horiz-adv-x="521" unicode="É" glyph-name="Eacute"/>
<glyph d="M782 736h-27l-59 83l-102 -83h-28l116 126h50zM810 632q0 -42 -60 -86q-56 -41 -100 -41q-21 0 -25 20q47 17 88 41q61 35 61 62q0 31 -72 31q-93 0 -189 -51q-100 -54 -144 -133q-17 -30 -17 -53q0 -1 1 -4t1 -5q49 14 107 14q44 0 77 -12q47 -17 47 -53q0 -37 -36 -55 q-29 -15 -70 -15q-79 0 -125 42q-9 11 -30 30q-69 -29 -120 -92q-55 -68 -55 -138q0 -130 139 -130q80 0 163 43q28 15 143 92l9 -10q-73 -83 -139 -122q-82 -50 -176 -50q-71 0 -128 48t-57 120q0 96 65 169q49 55 147 109q2 123 132 212q117 80 245 80q40 0 73 -13 q45 -17 45 -50zM549 361q-15 34 -87 34q-90 0 -97 -18q48 -51 115 -51q70 0 69 35z" horiz-adv-x="521" unicode="Ê" glyph-name="Ecircumflex"/>
<glyph d="M806 778q0 -16 -11 -29t-28 -13q-16 0 -28.5 10.5t-12.5 26.5q0 44 42 44q15 0 26.5 -12t11.5 -27zM667 777q0 -17 -10.5 -29.5t-27.5 -12.5q-16 0 -29 12t-13 28q0 41 43 41q14 0 25.5 -12t11.5 -27zM810 632q0 -42 -60 -86q-56 -41 -100 -41q-21 0 -25 20q47 17 88 41 q61 35 61 62q0 31 -72 31q-93 0 -189 -51q-100 -54 -144 -133q-17 -30 -17 -53q0 -1 1 -4t1 -5q49 14 107 14q44 0 77 -12q47 -17 47 -53q0 -37 -36 -55q-29 -15 -70 -15q-79 0 -125 42q-9 11 -30 30q-69 -29 -120 -92q-55 -68 -55 -138q0 -130 139 -130q80 0 163 43 q28 15 143 92l9 -10q-73 -83 -139 -122q-82 -50 -176 -50q-71 0 -128 48t-57 120q0 96 65 169q49 55 147 109q2 123 132 212q117 80 245 80q40 0 73 -13q45 -17 45 -50zM549 361q-15 34 -87 34q-90 0 -97 -18q48 -51 115 -51q70 0 69 35z" horiz-adv-x="521" unicode="Ë" glyph-name="Edieresis"/>
<glyph d="M821 774h-31q-36 24 -72 49q-54 40 -54 56q0 10 8.5 18t19.5 8q23 0 129 -131zM855 722q0 -9 -55 -34q-64 -28 -69 -32q-15 -12 -36 -47q-16 -28 -31 -55l-214 -361q-117 -197 -216 -197q-57 0 -92 61q-30 52 -30 114q0 61 44 87l6 -4q-10 -38 -10 -71q0 -46 22 -89 q26 -51 67 -51q62 0 144 132l234 375q23 27 63 84l-114 -48q-77 -35 -118 -71q-54 -47 -54 -102q0 -59 38 -104q-15 -11 -24 -11q-23 0 -39 50q-12 39 -12 69q0 75 64 130q48 42 142 77q71 25 143 50q11 4 67 38q44 26 69 26q2 0 5 -2l4 -3l2 -5v-6z" horiz-adv-x="483" unicode="Ì" glyph-name="Igrave"/>
<glyph d="M859 878q0 -15 -55 -55q-36 -24 -72 -49h-30l62 76q48 55 70 55q9 0 17 -9t8 -18zM855 722q0 -9 -55 -34q-64 -28 -69 -32q-15 -12 -36 -47q-16 -28 -31 -55l-214 -361q-117 -197 -216 -197q-57 0 -92 61q-30 52 -30 114q0 61 44 87l6 -4q-10 -38 -10 -71q0 -46 22 -89 q26 -51 67 -51q62 0 144 132l234 375q23 27 63 84l-114 -48q-77 -35 -118 -71q-54 -47 -54 -102q0 -59 38 -104q-15 -11 -24 -11q-23 0 -39 50q-12 39 -12 69q0 75 64 130q48 42 142 77q71 25 143 50q11 4 67 38q44 26 69 26q2 0 5 -2l4 -3l2 -5v-6z" horiz-adv-x="483" unicode="Í" glyph-name="Iacute"/>
<glyph d="M838 774h-26l-59 83l-102 -83h-29l117 126h50zM855 722q0 -9 -55 -34q-64 -28 -69 -32q-15 -12 -36 -47q-16 -28 -31 -55l-214 -361q-117 -197 -216 -197q-57 0 -92 61q-30 52 -30 114q0 61 44 87l6 -4q-10 -38 -10 -71q0 -46 22 -89q26 -51 67 -51q62 0 144 132l234 375 q23 27 63 84l-114 -48q-77 -35 -118 -71q-54 -47 -54 -102q0 -59 38 -104q-15 -11 -24 -11q-23 0 -39 50q-12 39 -12 69q0 75 64 130q48 42 142 77q71 25 143 50q11 4 67 38q44 26 69 26q2 0 5 -2l4 -3l2 -5v-6z" horiz-adv-x="483" unicode="Î" glyph-name="Icircumflex"/>
<glyph d="M835 815q0 -18 -12.5 -29.5t-30.5 -11.5q-14 0 -25.5 11.5t-11.5 25.5q0 44 42 44q15 0 26.5 -12.5t11.5 -27.5zM695 815q0 -42 -41 -42q-13 0 -25.5 12.5t-12.5 25.5q0 43 41 43q14 0 26 -12.5t12 -26.5zM855 722q0 -9 -55 -34q-64 -28 -69 -32q-15 -12 -36 -47 q-16 -28 -31 -55l-214 -361q-117 -197 -216 -197q-57 0 -92 61q-30 52 -30 114q0 61 44 87l6 -4q-10 -38 -10 -71q0 -46 22 -89q26 -51 67 -51q62 0 144 132l234 375q23 27 63 84l-114 -48q-77 -35 -118 -71q-54 -47 -54 -102q0 -59 38 -104q-15 -11 -24 -11q-23 0 -39 50 q-12 39 -12 69q0 75 64 130q48 42 142 77q71 25 143 50q11 4 67 38q44 26 69 26q2 0 5 -2l4 -3l2 -5v-6z" horiz-adv-x="483" unicode="Ï" glyph-name="Idieresis"/>
<glyph d="M1041 820q-20 -84 -71 -84q-21 0 -52.5 18t-47.5 18q-25 0 -40 -37h-22q21 83 71 83q20 0 50 -18.5t46 -18.5q20 0 28 12.5t16 26.5h22zM1069 651q0 -20 -126 -242q-76 -133 -153 -267q-25 -44 -56 -86q-46 -61 -70 -61q-28 0 -28 77q0 95 39 269q40 184 44 268l-6 4 q-9 0 -13 -11q-11 -11 -19 -23l-299 -443q-51 -76 -67 -93q-47 -52 -97 -52q-40 0 -66 36q-24 33 -24 74q0 14 5 23q7 5 13 4h5q5 -3 12 -29q7 -31 16 -45q14 -23 38 -23q29 0 60 34q12 13 44 59l298 430q22 32 53 65q42 47 61 47q27 0 27 -48q0 -3 -11 -72l-70 -438 q-2 -13 -2 -22q0 -20 8 -24q19 12 180 292q92 163 185 327q19 -7 19 -30z" horiz-adv-x="839" unicode="Ñ" glyph-name="Ntilde"/>
<glyph d="M708 736h-30q-36 25 -72 49q-55 40 -55 56q0 25 28 25q19 0 68 -55q30 -38 61 -75zM752 535q0 -97 -76.5 -231t-183.5 -227q-116 -101 -214 -101q-69 0 -117.5 51.5t-48.5 121.5q0 112 87 257q91 154 192 183l7 -17q-98 -91 -161 -187q-82 -125 -82 -227q0 -53 30 -95 q33 -48 84 -48q86 0 195 94q101 87 175.5 209.5t74.5 207.5q0 47 -29.5 76.5t-76.5 29.5q-56 0 -135 -62q-61 -49 -107 -109q-20 -29 -64 -84l-14 14q30 96 130 184q105 94 200 94q61 0 97.5 -36t36.5 -98z" horiz-adv-x="624" unicode="Ò" glyph-name="Ograve"/>
<glyph d="M736 840q0 -15 -55 -55q-36 -24 -72 -49h-30l62 76q47 54 70 54q9 0 17 -8.5t8 -17.5zM752 535q0 -97 -76.5 -231t-183.5 -227q-116 -101 -214 -101q-69 0 -117.5 51.5t-48.5 121.5q0 112 87 257q91 154 192 183l7 -17q-98 -91 -161 -187q-82 -125 -82 -227q0 -53 30 -95 q33 -48 84 -48q86 0 195 94q101 87 175.5 209.5t74.5 207.5q0 47 -29.5 76.5t-76.5 29.5q-56 0 -135 -62q-61 -49 -107 -109q-20 -29 -64 -84l-14 14q30 96 130 184q105 94 200 94q61 0 97.5 -36t36.5 -98z" horiz-adv-x="624" unicode="Ó" glyph-name="Oacute"/>
<glyph d="M734 736h-26l-59 83l-102 -83h-28l116 126h50zM752 535q0 -97 -76.5 -231t-183.5 -227q-116 -101 -214 -101q-69 0 -117.5 51.5t-48.5 121.5q0 112 87 257q91 154 192 183l7 -17q-98 -91 -161 -187q-82 -125 -82 -227q0 -53 30 -95q33 -48 84 -48q86 0 195 94 q101 87 175.5 209.5t74.5 207.5q0 47 -29.5 76.5t-76.5 29.5q-56 0 -135 -62q-61 -49 -107 -109q-20 -29 -64 -84l-14 14q30 96 130 184q105 94 200 94q61 0 97.5 -36t36.5 -98z" horiz-adv-x="624" unicode="Ô" glyph-name="Ocircumflex"/>
<glyph d="M748 820q-20 -84 -70 -84q-22 0 -53.5 18t-46.5 18q-24 0 -41 -37h-21q21 83 70 83q20 0 50 -18.5t46 -18.5q21 0 29 12.5t16 26.5h21zM752 535q0 -97 -76.5 -231t-183.5 -227q-116 -101 -214 -101q-69 0 -117.5 51.5t-48.5 121.5q0 112 87 257q91 154 192 183l7 -17 q-98 -91 -161 -187q-82 -125 -82 -227q0 -53 30 -95q33 -48 84 -48q86 0 195 94q101 87 175.5 209.5t74.5 207.5q0 47 -29.5 76.5t-76.5 29.5q-56 0 -135 -62q-61 -49 -107 -109q-20 -29 -64 -84l-14 14q30 96 130 184q105 94 200 94q61 0 97.5 -36t36.5 -98z" horiz-adv-x="624" unicode="Õ" glyph-name="Otilde"/>
<glyph d="M731 777q0 -17 -12 -29t-28 -12t-28 10.5t-12 26.5q0 44 41 44q16 0 27.5 -12t11.5 -28zM591 775q0 -16 -11 -28t-27 -12q-14 0 -27.5 11t-13.5 25q0 18 10 31.5t27 13.5q42 0 42 -41zM752 535q0 -97 -76.5 -231t-183.5 -227q-116 -101 -214 -101q-69 0 -117.5 51.5 t-48.5 121.5q0 112 87 257q91 154 192 183l7 -17q-98 -91 -161 -187q-82 -125 -82 -227q0 -53 30 -95q33 -48 84 -48q86 0 195 94q101 87 175.5 209.5t74.5 207.5q0 47 -29.5 76.5t-76.5 29.5q-56 0 -135 -62q-61 -49 -107 -109q-20 -29 -64 -84l-14 14q30 96 130 184 q105 94 200 94q61 0 97.5 -36t36.5 -98z" horiz-adv-x="624" unicode="Ö" glyph-name="Odieresis"/>
<glyph d="M753 536q0 -97 -76.5 -231t-183.5 -227q-117 -101 -215 -101q-61 0 -100 35l-31 -36h-36l47 53q-45 51 -45 119q0 112 86 258q91 154 192 183l7 -17q-98 -91 -161 -187q-82 -125 -82 -227q0 -55 31 -98l484 554q-31 18 -63 18q-56 0 -134 -62q-59 -47 -107 -109 q-20 -29 -64 -84l-14 14q30 96 130 184q105 94 200 94q48 0 81 -22l19 22h35l-35 -39q35 -38 35 -94zM714 526q0 43 -24 70l-487 -554q34 -28 66 -28q86 0 195 95q101 86 175.5 209t74.5 208z" horiz-adv-x="624" unicode="Ø" glyph-name="Oslash"/>
<glyph d="M877 736h-30q-36 25 -72 49q-55 40 -55 56q0 25 29 25q20 0 67 -55q31 -37 61 -75zM999 653l-200 -252q-119 -167 -119 -286q0 -86 46 -86q50 0 136 89l14 -17q-73 -110 -161 -110q-34 0 -57 39q-19 34 -19 70q0 69 41 163q-2 -2 -69 -79q-50 -57 -120 -111 q-89 -69 -140 -69q-33 0 -66 44q-31 41 -31 76q0 90 90 214q48 66 168 195q90 96 90 118q0 15 -16 15q-26 0 -90 -44q-51 -34 -85 -65l-20 5q15 43 88 90t120 47q16 0 31 -10.5t15 -26.5q0 -42 -90 -147q-157 -183 -167 -196q-90 -119 -90 -197q0 -26 17.5 -46.5t42.5 -20.5 q78 0 228 159q84 89 248 298q127 163 146 166l19 -17v-8z" horiz-adv-x="806" unicode="Ù" glyph-name="Ugrave"/>
<glyph d="M877 840q0 -15 -54 -55q-36 -24 -72 -49h-30q30 38 61 76q47 54 71 54t24 -26zM999 653l-200 -252q-119 -167 -119 -286q0 -86 46 -86q50 0 136 89l14 -17q-73 -110 -161 -110q-34 0 -57 39q-19 34 -19 70q0 69 41 163q-2 -2 -69 -79q-50 -57 -120 -111q-89 -69 -140 -69 q-33 0 -66 44q-31 41 -31 76q0 90 90 214q48 66 168 195q90 96 90 118q0 15 -16 15q-26 0 -90 -44q-51 -34 -85 -65l-20 5q15 43 88 90t120 47q16 0 31 -10.5t15 -26.5q0 -42 -90 -147q-157 -183 -167 -196q-90 -119 -90 -197q0 -26 17.5 -46.5t42.5 -20.5q78 0 228 159 q84 89 248 298q127 163 146 166l19 -17v-8z" horiz-adv-x="806" unicode="Ú" glyph-name="Uacute"/>
<glyph d="M905 736h-28l-58 83l-102 -83h-29l117 126h49zM999 653l-200 -252q-119 -167 -119 -286q0 -86 46 -86q50 0 136 89l14 -17q-73 -110 -161 -110q-34 0 -57 39q-19 34 -19 70q0 69 41 163q-2 -2 -69 -79q-50 -57 -120 -111q-89 -69 -140 -69q-33 0 -66 44q-31 41 -31 76 q0 90 90 214q48 66 168 195q90 96 90 118q0 15 -16 15q-26 0 -90 -44q-51 -34 -85 -65l-20 5q15 43 88 90t120 47q16 0 31 -10.5t15 -26.5q0 -42 -90 -147q-157 -183 -167 -196q-90 -119 -90 -197q0 -26 17.5 -46.5t42.5 -20.5q78 0 228 159q84 89 248 298q127 163 146 166 l19 -17v-8z" horiz-adv-x="806" unicode="Û" glyph-name="Ucircumflex"/>
<glyph d="M910 777q0 -17 -11.5 -29t-28.5 -12q-16 0 -28 10.5t-12 26.5q0 44 42 44q15 0 26.5 -12.5t11.5 -27.5zM771 777q0 -16 -11 -29t-27 -13t-29 12t-13 28q0 41 42 41q15 0 26.5 -12t11.5 -27zM999 653l-200 -252q-119 -167 -119 -286q0 -86 46 -86q50 0 136 89l14 -17 q-73 -110 -161 -110q-34 0 -57 39q-19 34 -19 70q0 69 41 163q-2 -2 -69 -79q-50 -57 -120 -111q-89 -69 -140 -69q-33 0 -66 44q-31 41 -31 76q0 90 90 214q48 66 168 195q90 96 90 118q0 15 -16 15q-26 0 -90 -44q-51 -34 -85 -65l-20 5q15 43 88 90t120 47q16 0 31 -10.5 t15 -26.5q0 -42 -90 -147q-157 -183 -167 -196q-90 -119 -90 -197q0 -26 17.5 -46.5t42.5 -20.5q78 0 228 159q84 89 248 298q127 163 146 166l19 -17v-8z" horiz-adv-x="806" unicode="Ü" glyph-name="Udieresis"/>
<glyph d="M525 504q0 -47 -59 -103q-55 -47 -110 -95q-59 -56 -59 -101q0 -27 10 -61q12 -44 31 -44q25 0 56 15.5t39 15.5l8 -12q1 -22 -48 -39q-56 -18 -58 -21q-20 -24 -40 -49q-23 -22 -59 -22q-41 0 -66 32q-23 29 -23 72q0 62 29 62q13 0 42 -34.5t59 -31.5l12 1 q-11 14 -21 55q-9 37 -9 58q0 56 60 116q55 47 111 95q60 53 60 92q0 12 -9 22t-21 10q-40 0 -173 -167q-93 -116 -160 -216q-45 -67 -119 -188q-16 -33 -56 -91q-7 -8 -17 -8q-19 0 -19 20q0 55 345 516q126 168 204 168q26 0 43 -20t17 -47zM294 55q-52 5 -69 20 q-27 25 -33 28q-11 0 -11 -28q0 -18 20 -37.5t38 -19.5q32 0 55 37z" horiz-adv-x="368" unicode="ß" glyph-name="germandbls"/>
<glyph d="M340 306h-30l-72 48q-54 40 -54 57q0 10 9 17.5t19 7.5q20 0 68 -55q30 -37 60 -75zM441 103q0 -22 -66.5 -68t-102.5 -46q-54 0 -56 89q-93 -93 -140 -93q-18 0 -31.5 19t-13.5 37q0 62 72.5 133.5t133.5 71.5q39 0 55 -37q23 22 53 45l20 -26q-114 -117 -114 -166 q0 -34 32 -34q30 0 77 35q70 51 71 52q10 -5 10 -12zM268 181q0 13 -10.5 22t-23.5 9q-44 0 -104 -61.5t-60 -105.5q0 -19 13 -19q51 0 185 155z" horiz-adv-x="377" unicode="à" glyph-name="agrave"/>
<glyph d="M369 410q0 -17 -127 -104h-31l62 76q48 54 70 54q10 0 18 -8t8 -18zM441 103q0 -22 -66.5 -68t-102.5 -46q-54 0 -56 89q-93 -93 -140 -93q-18 0 -31.5 19t-13.5 37q0 62 72.5 133.5t133.5 71.5q39 0 55 -37q23 22 53 45l20 -26q-114 -117 -114 -166q0 -34 32 -34 q30 0 77 35q70 51 71 52q10 -5 10 -12zM268 181q0 13 -10.5 22t-23.5 9q-44 0 -104 -61.5t-60 -105.5q0 -19 13 -19q51 0 185 155z" horiz-adv-x="377" unicode="á" glyph-name="aacute"/>
<glyph d="M377 306h-28l-59 83l-102 -83h-27l115 126h51zM441 103q0 -22 -66.5 -68t-102.5 -46q-54 0 -56 89q-93 -93 -140 -93q-18 0 -31.5 19t-13.5 37q0 62 72.5 133.5t133.5 71.5q39 0 55 -37q23 22 53 45l20 -26q-114 -117 -114 -166q0 -34 32 -34q30 0 77 35q70 51 71 52 q10 -5 10 -12zM268 181q0 13 -10.5 22t-23.5 9q-44 0 -104 -61.5t-60 -105.5q0 -19 13 -19q51 0 185 155z" horiz-adv-x="377" unicode="â" glyph-name="acircumflex"/>
<glyph d="M408 390q-19 -85 -70 -85q-21 0 -52.5 18.5t-47.5 18.5q-23 0 -40 -37h-21q19 82 70 82q20 0 50 -18t46 -18q21 0 29 12.5t16 26.5h20zM441 103q0 -22 -66.5 -68t-102.5 -46q-54 0 -56 89q-93 -93 -140 -93q-18 0 -31.5 19t-13.5 37q0 62 72.5 133.5t133.5 71.5 q39 0 55 -37q23 22 53 45l20 -26q-114 -117 -114 -166q0 -34 32 -34q30 0 77 35q70 51 71 52q10 -5 10 -12zM268 181q0 13 -10.5 22t-23.5 9q-44 0 -104 -61.5t-60 -105.5q0 -19 13 -19q51 0 185 155z" horiz-adv-x="377" unicode="ã" glyph-name="atilde"/>
<glyph d="M382 347q0 -17 -12 -29.5t-28 -12.5q-15 0 -27.5 11t-12.5 26q0 44 41 44q16 0 27.5 -12t11.5 -27zM242 344q0 -16 -11 -27.5t-27 -11.5q-14 0 -27.5 10.5t-13.5 24.5q0 18 10 31.5t27 13.5q42 0 42 -41zM441 103q0 -22 -66.5 -68t-102.5 -46q-54 0 -56 89 q-93 -93 -140 -93q-18 0 -31.5 19t-13.5 37q0 62 72.5 133.5t133.5 71.5q39 0 55 -37q23 22 53 45l20 -26q-114 -117 -114 -166q0 -34 32 -34q30 0 77 35q70 51 71 52q10 -5 10 -12zM268 181q0 13 -10.5 22t-23.5 9q-44 0 -104 -61.5t-60 -105.5q0 -19 13 -19q51 0 185 155z " horiz-adv-x="377" unicode="ä" glyph-name="adieresis"/>
<glyph d="M364 373q0 -29 -19.5 -48t-48.5 -19t-48.5 19t-19.5 48q0 28 20 48t49 20q28 0 47.5 -20t19.5 -48zM441 103q0 -22 -66.5 -68t-102.5 -46q-54 0 -56 89q-93 -93 -140 -93q-18 0 -31.5 19t-13.5 37q0 62 72.5 133.5t133.5 71.5q39 0 55 -37q23 22 53 45l20 -26 q-114 -117 -114 -166q0 -34 32 -34q30 0 77 35q70 51 71 52q10 -5 10 -12zM337 373q0 16 -12 28t-28 12q-17 0 -29 -11.5t-12 -28.5q0 -16 12 -28t29 -12q16 0 28 12t12 28zM268 181q0 13 -10.5 22t-23.5 9q-44 0 -104 -61.5t-60 -105.5q0 -19 13 -19q51 0 185 155z" horiz-adv-x="377" unicode="å" glyph-name="aring"/>
<glyph d="M499 104q-35 -44 -86 -79q-62 -44 -106 -44q-41 0 -66 31t-20 72q-15 -26 -66 -61q-53 -38 -79 -38q-18 0 -31.5 19t-13.5 37q0 62 72.5 133.5t133.5 71.5q39 0 55 -37l-4 -8q58 56 112 56q15 0 26.5 -9.5t11.5 -23.5q0 -70 -176 -176q13 -28 44 -28q41 0 97 37 q6 4 85 65q11 -6 11 -18zM399 224q-8 4 -9 4q-20 0 -78 -56q-35 -33 -54 -86q60 41 81 59q44 38 60 79zM268 181q0 13 -10.5 22t-23.5 9q-44 0 -104 -61.5t-60 -105.5q0 -19 13 -19q51 0 185 155z" horiz-adv-x="442" unicode="æ" glyph-name="ae"/>
<glyph d="M355 105q0 -32 -80 -75q-71 -37 -111 -42l-34 -46q17 3 34 3q35 0 59 -20t24 -55q0 -40 -38 -62q-32 -18 -75 -18t-97 21l14 25q38 -15 80 -15q71 0 71 55q0 19 -18.5 30t-38.5 11q-21 0 -52 -11l-15 12l52 70q-32 4 -57 27t-25 55q0 65 65.5 125t131.5 60q50 0 50 -34 q0 -36 -50 -71l-19 13q0 9 14.5 22.5t14.5 29.5q-5 11 -16 11q-42 0 -96.5 -56t-54.5 -98q0 -49 67 -49q48 0 101 31q22 13 88 62q11 -2 11 -11z" horiz-adv-x="289" unicode="ç" glyph-name="ccedilla"/>
<glyph d="M266 306h-32q-36 25 -72 49q-54 40 -54 56q0 10 9 17.5t20 7.5q18 0 67 -56zM324 104q-34 -43 -86 -79q-61 -44 -105 -44q-38 0 -63 26t-25 65q0 60 60.5 122.5t120.5 62.5q14 0 25.5 -9.5t11.5 -23.5q0 -69 -175 -176q13 -28 45 -28q40 0 96 38q42 32 85 64 q11 -8 10 -18zM225 224q-8 4 -10 4q-21 0 -78 -56q-35 -35 -53 -86q63 43 81 59q44 39 60 79z" horiz-adv-x="259" unicode="è" glyph-name="egrave"/>
<glyph d="M321 410q0 -21 -127 -104h-30l62 76q48 54 70 54q10 0 17.5 -8t7.5 -18zM324 104q-34 -43 -86 -79q-61 -44 -105 -44q-38 0 -63 26t-25 65q0 60 60.5 122.5t120.5 62.5q14 0 25.5 -9.5t11.5 -23.5q0 -69 -175 -176q13 -28 45 -28q40 0 96 38q42 32 85 64q11 -8 10 -18z M225 224q-8 4 -10 4q-21 0 -78 -56q-35 -35 -53 -86q63 43 81 59q44 39 60 79z" horiz-adv-x="259" unicode="é" glyph-name="eacute"/>
<glyph d="M329 306h-27l-59 83l-102 -83h-28l116 126h50zM324 104q-34 -43 -86 -79q-61 -44 -105 -44q-38 0 -63 26t-25 65q0 60 60.5 122.5t120.5 62.5q14 0 25.5 -9.5t11.5 -23.5q0 -69 -175 -176q13 -28 45 -28q40 0 96 38q42 32 85 64q11 -8 10 -18zM225 224q-8 4 -10 4 q-21 0 -78 -56q-35 -35 -53 -86q63 43 81 59q44 39 60 79z" horiz-adv-x="259" unicode="ê" glyph-name="ecircumflex"/>
<glyph d="M335 347q0 -17 -12 -29t-28 -12q-40 0 -40 36q0 44 41 44q16 0 27.5 -12t11.5 -27zM195 346q0 -16 -10.5 -28.5t-27.5 -12.5q-14 0 -27.5 10.5t-13.5 24.5q0 18 10 31.5t27 13.5t29.5 -11t12.5 -28zM324 104q-34 -43 -86 -79q-61 -44 -105 -44q-38 0 -63 26t-25 65 q0 60 60.5 122.5t120.5 62.5q14 0 25.5 -9.5t11.5 -23.5q0 -69 -175 -176q13 -28 45 -28q40 0 96 38q42 32 85 64q11 -8 10 -18zM225 224q-8 4 -10 4q-21 0 -78 -56q-35 -35 -53 -86q63 43 81 59q44 39 60 79z" horiz-adv-x="259" unicode="ë" glyph-name="edieresis"/>
<glyph d="M245 306h-30q-126 84 -126 105q0 25 27 25q21 0 69 -55q30 -37 60 -75zM248 103q-103 -108 -167 -108q-19 0 -35.5 16.5t-16.5 35.5q0 33 45 111.5t73 89.5q9 -1 20 -14q-3 -16 -51 -83q-46 -62 -49 -107q13 -5 25 -5q36 0 78 31q67 49 70 51z" horiz-adv-x="174" unicode="ì" glyph-name="igrave"/>
<glyph d="M283 410q0 -16 -55 -55q-36 -25 -72 -49h-30l62 76q47 54 71 54q9 0 16.5 -8.5t7.5 -17.5zM250 110l-1 -6q-53 -51 -77 -69q-53 -40 -91 -40q-19 0 -35.5 16.5t-16.5 35.5q0 33 44.5 111t73.5 90q9 -1 20 -14q-6 -24 -57 -89q-46 -59 -46 -92q0 -1 1.5 -4.5t1.5 -4.5 q10 -12 24 -12q28 0 76 36q35 29 69 57q14 0 14 -15z" horiz-adv-x="174" unicode="í" glyph-name="iacute"/>
<glyph d="M282 306h-27l-59 83l-102 -83h-28l116 126h50zM250 110l-1 -6q-53 -51 -77 -69q-53 -40 -91 -40q-19 0 -35.5 16.5t-16.5 35.5q0 33 44.5 111t73.5 90q9 -1 20 -14q-6 -24 -57 -89q-46 -59 -46 -92q0 -1 1.5 -4.5t1.5 -4.5q10 -12 24 -12q28 0 76 36q35 29 69 57 q14 0 14 -15z" horiz-adv-x="174" unicode="î" glyph-name="icircumflex"/>
<glyph d="M278 347q0 -17 -12 -29.5t-28 -12.5q-15 0 -27.5 11t-12.5 26q0 44 41 44q16 0 27.5 -12t11.5 -27zM139 342q0 -16 -13 -26.5t-30 -10.5q-13 0 -24.5 12.5t-11.5 26.5q0 41 41 41q16 0 27 -13.5t11 -29.5zM250 110l-1 -6q-53 -51 -77 -69q-53 -40 -91 -40 q-19 0 -35.5 16.5t-16.5 35.5q0 33 44.5 111t73.5 90q9 -1 20 -14q-6 -24 -57 -89q-46 -59 -46 -92q0 -1 1.5 -4.5t1.5 -4.5q10 -12 24 -12q28 0 76 36q35 29 69 57q14 0 14 -15z" horiz-adv-x="174" unicode="ï" glyph-name="idieresis"/>
<glyph d="M370 390q-19 -85 -69 -85q-21 0 -52.5 18.5t-47.5 18.5q-25 0 -40 -37h-22q21 82 70 82q21 0 50.5 -18t45.5 -18q22 0 29.5 12.5t15.5 26.5h20zM392 95q-99 -107 -166 -107q-20 0 -39 17.5t-19 37.5q0 37 35 88q42 59 49 83l-9 6q-29 1 -114 -94q-52 -64 -105 -127 l-23 13q-1 17 70 126q68 108 87 123h5l8 -10q-7 -34 -34 -76q68 76 114 76q38 0 38 -35q0 -31 -41.5 -87.5t-41.5 -74.5q0 -12 7 -18q2 -1 18 -8q42 7 81 32q19 12 68 53z" horiz-adv-x="321" unicode="ñ" glyph-name="ntilde"/>
<glyph d="M330 306h-30q-127 85 -127 105q0 10 9 17.5t19 7.5q20 0 68 -55q31 -37 61 -75zM419 151q-62 -64 -181 -69q-76 -96 -133 -96q-25 0 -44.5 24.5t-19.5 50.5q0 34 41 97q45 68 79 68q8 0 14 -4q39 61 83 61q20 0 32.5 -17t12.5 -38q0 -38 -37 -110q52 1 147 54zM268 226 q0 26 -22 26t-38 -34q-14 -30 -14 -56q0 -13 8 -26.5t21 -13.5q45 68 45 104zM200 93q-40 27 -34 102q-28 -8 -59 -56t-31 -78q0 -14 10 -25.5t23 -11.5q35 0 91 69z" horiz-adv-x="316" unicode="ò" glyph-name="ograve"/>
<glyph d="M369 410q0 -17 -127 -104h-31l62 76q48 54 70 54q10 0 18 -8t8 -18zM419 151q-62 -64 -181 -69q-76 -96 -133 -96q-25 0 -44.5 24.5t-19.5 50.5q0 34 41 97q45 68 79 68q8 0 14 -4q39 61 83 61q20 0 32.5 -17t12.5 -38q0 -38 -37 -110q52 1 147 54zM268 226q0 26 -22 26 t-38 -34q-14 -30 -14 -56q0 -13 8 -26.5t21 -13.5q45 68 45 104zM200 93q-40 27 -34 102q-28 -8 -59 -56t-31 -78q0 -14 10 -25.5t23 -11.5q35 0 91 69z" horiz-adv-x="316" unicode="ó" glyph-name="oacute"/>
<glyph d="M358 306h-28l-58 83l-102 -83h-29l117 126h49zM419 151q-62 -64 -181 -69q-76 -96 -133 -96q-25 0 -44.5 24.5t-19.5 50.5q0 34 41 97q45 68 79 68q8 0 14 -4q39 61 83 61q20 0 32.5 -17t12.5 -38q0 -38 -37 -110q52 1 147 54zM268 226q0 26 -22 26t-38 -34 q-14 -30 -14 -56q0 -13 8 -26.5t21 -13.5q45 68 45 104zM200 93q-40 27 -34 102q-28 -8 -59 -56t-31 -78q0 -14 10 -25.5t23 -11.5q35 0 91 69z" horiz-adv-x="316" unicode="ô" glyph-name="ocircumflex"/>
<glyph d="M370 390q-19 -85 -69 -85q-21 0 -52.5 18.5t-47.5 18.5q-25 0 -40 -37h-22q21 82 70 82q21 0 50.5 -18t45.5 -18q22 0 29.5 12.5t15.5 26.5h20zM419 151q-62 -64 -181 -69q-76 -96 -133 -96q-25 0 -44.5 24.5t-19.5 50.5q0 34 41 97q45 68 79 68q8 0 14 -4q39 61 83 61 q20 0 32.5 -17t12.5 -38q0 -38 -37 -110q52 1 147 54zM268 226q0 26 -22 26t-38 -34q-14 -30 -14 -56q0 -13 8 -26.5t21 -13.5q45 68 45 104zM200 93q-40 27 -34 102q-28 -8 -59 -56t-31 -78q0 -14 10 -25.5t23 -11.5q35 0 91 69z" horiz-adv-x="316" unicode="õ" glyph-name="otilde"/>
<glyph d="M363 347q0 -17 -11.5 -29t-28.5 -12q-16 0 -28 10t-12 26q0 44 41 44q16 0 27.5 -12t11.5 -27zM224 346q0 -16 -11 -28.5t-28 -12.5q-16 0 -28.5 11.5t-12.5 27.5q0 41 42 41q15 0 26.5 -12t11.5 -27zM419 151q-62 -64 -181 -69q-76 -96 -133 -96q-25 0 -44.5 24.5 t-19.5 50.5q0 34 41 97q45 68 79 68q8 0 14 -4q39 61 83 61q20 0 32.5 -17t12.5 -38q0 -38 -37 -110q52 1 147 54zM268 226q0 26 -22 26t-38 -34q-14 -30 -14 -56q0 -13 8 -26.5t21 -13.5q45 68 45 104zM200 93q-40 27 -34 102q-28 -8 -59 -56t-31 -78q0 -14 10 -25.5 t23 -11.5q35 0 91 69z" horiz-adv-x="316" unicode="ö" glyph-name="odieresis"/>
<glyph d="M419 151q-62 -64 -181 -69q-76 -96 -133 -96q-24 0 -44 24l-24 -24h-25l39 39q-11 17 -11 36q0 35 42 97q44 67 79 67q8 0 14 -3q37 61 83 61q17 0 32 -17l17 17h25l-33 -33q4 -14 4 -22q0 -38 -37 -110q50 0 147 54zM266 240q-8 12 -20 12q-39 0 -52 -83zM268 219 l-71 -73q9 -24 26 -24q46 66 45 97zM167 141q-5 17 -1 54q-27 -8 -58.5 -56.5t-31.5 -77.5q0 -1 1 -4v-5zM200 93q-16 12 -25 31l-88 -88q8 -12 26 -12q33 0 87 69z" horiz-adv-x="316" unicode="ø" glyph-name="oslash"/>
<glyph d="M321 306h-31q-36 25 -72 49q-54 40 -54 56q0 10 9 17.5t19 7.5q19 0 68 -56q30 -37 61 -74zM395 99q-100 -108 -164 -108q-56 0 -58 78q-66 -71 -101 -71q-15 0 -26.5 14.5t-11.5 30.5q0 47 39 111t81 90l21 -13q-104 -120 -104 -178q0 -18 11 -18q28 0 104 92 q94 117 100 122l26 -15q-49 -71 -61 -91q-37 -61 -40 -99q7 -13 20 -13q37 0 82 31q36 27 71 54z" horiz-adv-x="329" unicode="ù" glyph-name="ugrave"/>
<glyph d="M340 410q0 -16 -55 -55q-36 -25 -72 -49h-30q60 75 61 76q48 54 71 54q9 0 17 -9t8 -17zM395 99q-100 -108 -164 -108q-56 0 -58 78q-66 -71 -101 -71q-15 0 -26.5 14.5t-11.5 30.5q0 47 39 111t81 90l21 -13q-104 -120 -104 -178q0 -18 11 -18q28 0 104 92 q94 117 100 122l26 -15q-49 -71 -61 -91q-37 -61 -40 -99q7 -13 20 -13q37 0 82 31q36 27 71 54z" horiz-adv-x="329" unicode="ú" glyph-name="uacute"/>
<glyph d="M358 306h-28l-58 83l-102 -83h-29l117 126h49zM395 99q-100 -108 -164 -108q-56 0 -58 78q-66 -71 -101 -71q-15 0 -26.5 14.5t-11.5 30.5q0 47 39 111t81 90l21 -13q-104 -120 -104 -178q0 -18 11 -18q28 0 104 92q94 117 100 122l26 -15q-49 -71 -61 -91 q-37 -61 -40 -99q7 -13 20 -13q37 0 82 31q36 27 71 54z" horiz-adv-x="329" unicode="û" glyph-name="ucircumflex"/>
<glyph d="M363 347q0 -17 -11.5 -29t-28.5 -12q-16 0 -28 10t-12 26q0 44 41 44q16 0 27.5 -12t11.5 -27zM224 346q0 -16 -11 -28.5t-28 -12.5q-16 0 -28.5 11.5t-12.5 27.5q0 41 42 41q15 0 26.5 -12t11.5 -27zM395 99q-100 -108 -164 -108q-56 0 -58 78q-66 -71 -101 -71 q-15 0 -26.5 14.5t-11.5 30.5q0 47 39 111t81 90l21 -13q-104 -120 -104 -178q0 -18 11 -18q28 0 104 92q94 117 100 122l26 -15q-49 -71 -61 -91q-37 -61 -40 -99q7 -13 20 -13q37 0 82 31q36 27 71 54z" horiz-adv-x="329" unicode="ü" glyph-name="udieresis"/>
</font>
</defs>
</svg>
