<?xml version="1.0" standalone="no"?>
<!DOCTYPE svg PUBLIC "-//W3C//DTD SVG 1.1//EN" "http://www.w3.org/Graphics/SVG/1.1/DTD/svg11.dtd" >
<svg xmlns="http://www.w3.org/2000/svg" xmlns:xlink="http://www.w3.org/1999/xlink" version="1.1">
<metadata>
Created by FontForge 20170731 at Sun Aug 24 07:32:35 2014
 By Aleksey,,,
Copyright (c) 2014 by Laura Worthington. All rights reserved.
</metadata>
<defs>
<font id="Milkshake" horiz-adv-x="466" >
  <font-face 
    font-family="Milkshake"
    font-weight="400"
    font-stretch="normal"
    units-per-em="1000"
    panose-1="2 0 5 5 0 0 0 2 0 3"
    ascent="800"
    descent="-200"
    x-height="391"
    cap-height="724"
    bbox="-947 -498 1575 1049"
    underline-thickness="50"
    underline-position="-150"
    unicode-range="U+000D-F8FF"
  />
<missing-glyph horiz-adv-x="253" 
 />
    <glyph glyph-name="T_b" unicode="Tb" horiz-adv-x="932" 
d="M603 116q0 -31 11.5 -52t31.5 -21q16 0 32 13q-7 9 -7 18q0 8 5.5 17t13.5 16t16.5 11.5t14.5 4.5h3q17 35 27 75.5t10 75.5q0 29 -7 45t-32 16q-13 0 -33.5 -13.5t-39.5 -40.5t-32.5 -68t-13.5 -97zM801 609q0 20 -19 20q-14 0 -33 -24.5t-39.5 -64.5t-40 -92
t-33.5 -107q25 24 54 60.5t54 75t41 74t16 58.5zM767 30q-25 -19 -55.5 -29.5t-65.5 -10.5q-26 0 -53 11.5t-50 32t-37.5 48t-14.5 59.5q0 54 8.5 112t23.5 115t37 110t49 96q-18 5 -38.5 10.5t-38.5 10.5q-21 5 -42 11q-4 -2 -10 -9t-14 -24.5t-17.5 -48t-19.5 -78.5
q-9 -40 -17.5 -89.5t-21 -100t-30.5 -98.5t-44.5 -85.5t-64 -60t-88.5 -22.5q-30 0 -56.5 6.5t-46 16.5t-30.5 21.5t-11 20.5q0 10 5 14.5t13 4.5q10 0 19.5 -2.5t23.5 -2.5q51 0 88 37.5t65 95t48 125.5t37 129q15 57 35 89t37 49q20 19 42 24q-23 12 -72.5 23.5
t-109.5 11.5q-45 0 -73.5 -20.5t-28.5 -55.5q0 -23 7.5 -38.5t17 -26t17 -17.5t7.5 -12q0 -19 -21 -19q-20 0 -45.5 9t-48.5 26t-39 40.5t-16 53.5q0 39 20 64t49.5 40t64 21t63.5 6q50 0 103 -9.5t107.5 -21.5t110.5 -21.5t112 -9.5q15 0 30.5 5.5t30 11.5t28 11.5
t24.5 5.5q16 0 32.5 -8.5t29 -22t20.5 -29t8 -28.5q0 -21 -10.5 -46.5t-26 -52t-34.5 -52t-35 -45.5t-27 -32.5t-12 -13.5q1 1 8 5t16.5 8.5t22 8t25.5 3.5q20 0 38 -9.5t31.5 -25t21.5 -34.5t8 -38q0 -51 -18.5 -107.5t-53.5 -101.5q26 0 47 10.5t37 23.5q18 15 34 34
q1 3 5 7q2 2 6 4.5t9 2.5q8 0 14.5 -6t6.5 -14q0 -4 -1.5 -7.5t-3.5 -7.5t-4 -9q-17 -25 -43 -43q-22 -17 -54.5 -30t-76.5 -13h-6.5t-7.5 1t-9 2z" />
    <glyph glyph-name="T_f" unicode="Tf" horiz-adv-x="774" 
d="M803 609q0 20 -21 20q-14 0 -34.5 -31.5t-44 -82.5t-46.5 -115.5t-42 -130.5q16 12 36.5 38t41.5 58.5t40.5 69t35 70t25 61.5t9.5 43zM558 33q-2 -20 -4 -41q-2 -18 -3 -39.5t-1 -41.5q0 -59 13.5 -82t26.5 -23q9 0 15.5 6.5t10.5 16.5t6 22.5t2 24.5q0 32 -10.5 61
t-22.5 50q-15 25 -33 46zM806 113q-11 -15 -25 -32.5t-34.5 -32.5t-49 -25t-66.5 -10q16 -14 28 -34q11 -17 20 -42.5t9 -57.5q0 -19 -7 -39.5t-20 -38t-32 -28.5t-43 -11q-22 0 -48 8.5t-48 28.5t-37 52.5t-15 80.5q0 81 13 168.5t36 171.5t54 160t67 134q-22 5 -43 12
t-38 13q-19 7 -37 15q-4 -2 -10 -9t-14 -24.5t-17.5 -48t-19.5 -78.5q-9 -40 -17.5 -89.5t-21 -100t-30.5 -98.5t-44.5 -85.5t-64 -60t-88.5 -22.5q-30 0 -56.5 6.5t-46 16.5t-30.5 21.5t-11 20.5q0 10 5 14.5t13 4.5q10 0 19.5 -2.5t23.5 -2.5q51 0 88 37.5t65 95t48 125.5
t37 129q15 57 35 89t37 49q20 19 42 24q-23 12 -72.5 23.5t-109.5 11.5q-45 0 -73.5 -20.5t-28.5 -55.5q0 -23 7.5 -38.5t17 -26t17 -17.5t7.5 -12q0 -19 -21 -19q-20 0 -45.5 9t-48.5 26t-39 40.5t-16 53.5q0 39 20 64t49.5 40t64 21t63.5 6q50 0 98.5 -9.5t99.5 -21.5
t106.5 -21.5t119.5 -9.5q11 0 25 5.5t29 11.5t30.5 11.5t29.5 5.5q17 0 33.5 -8.5t29.5 -22t21 -29t8 -28.5q0 -21 -12 -54t-32.5 -72.5t-47 -82.5t-56 -82.5t-60 -73.5t-57.5 -56q-8 -23 -13 -49t-7 -52q7 -9 17 -15q8 -5 20 -9.5t28 -4.5q26 0 47 8t38 20.5t30.5 28
t24.5 29.5q1 3 5 7q2 2 6 4.5t9 2.5q8 0 14.5 -6t6.5 -14q0 -4 -1.5 -7.5t-3.5 -7.5t-4 -9z" />
    <glyph glyph-name="T_k" unicode="Tk" horiz-adv-x="918" 
d="M818 609q0 20 -18 20q-14 0 -33.5 -22t-42 -62t-47 -95.5t-48.5 -121.5q17 15 37 37t41 48.5t41 54.5t35.5 54t25 49t9.5 38zM778 -10q-27 0 -56.5 16.5t-54.5 41t-41 52.5t-16 51q0 10 22.5 22.5t49 29.5t49 39t22.5 52q0 28 -23 28q-27 0 -55.5 -22t-52.5 -62.5
t-39 -98t-15 -129.5q0 -9 -3.5 -14.5t-14.5 -5.5q-10 0 -26.5 2.5t-32.5 8.5t-27.5 16t-11.5 26q0 44 11 109.5t32 138.5t50.5 145t65.5 130q-22 5 -43.5 11t-38.5 13q-20 7 -39 16q-4 -2 -10 -9t-14 -24.5t-17.5 -48t-19.5 -78.5q-9 -40 -17.5 -89.5t-21 -100t-30.5 -98.5
t-44.5 -85.5t-64 -60t-88.5 -22.5q-30 0 -56.5 6.5t-46 16.5t-30.5 21.5t-11 20.5q0 10 5 14.5t13 4.5q10 0 19.5 -2.5t23.5 -2.5q51 0 88 37.5t65 95t48 125.5t37 129q15 57 35 89t37 49q20 19 42 24q-23 12 -72.5 23.5t-109.5 11.5q-45 0 -73.5 -20.5t-28.5 -55.5
q0 -23 7.5 -38.5t17 -26t17 -17.5t7.5 -12q0 -19 -21 -19q-20 0 -45.5 9t-48.5 26t-39 40.5t-16 53.5q0 39 20 64t49.5 40t64 21t63.5 6q50 0 98.5 -9.5t99.5 -21.5t106.5 -21.5t119.5 -9.5q19 0 35 5.5t31.5 11.5t31 11.5t32.5 5.5q16 0 32 -8.5t29 -22t20.5 -29t7.5 -28.5
q0 -21 -10.5 -46.5t-26 -52t-33.5 -51.5t-34 -44.5t-27 -32t-12 -13.5q1 1 9 4.5t19.5 7.5t26.5 7.5t31 3.5q26 0 46.5 -23t20.5 -54q0 -29 -25 -54t-55 -45q-35 -23 -79 -43q0 -8 7 -23t20.5 -31t32.5 -27.5t42 -11.5q22 0 40 10t31 22q15 14 27 32q1 3 5 7q2 2 6 4.5
t9 2.5q8 0 14.5 -6t6.5 -14q0 -4 -1.5 -7.5t-3.5 -7.5t-4 -9q-23 -35 -50 -62q-23 -23 -54.5 -42t-67.5 -19z" />
    <glyph glyph-name="T_l" unicode="Tl" horiz-adv-x="754" 
d="M808 615q0 14 -12 14q-14 0 -36.5 -31t-47 -81t-48.5 -112t-39 -125q17 14 37.5 40t40.5 58.5t39 67.5t33.5 67.5t23.5 59.5t9 42zM614 -10q-25 0 -49 10t-42.5 28t-30 43.5t-11.5 56.5q0 49 10 107t28 117t43 115t54 102q-20 5 -42 11.5t-41 12.5q-22 6 -43 13
q-4 -2 -10 -9t-14 -24.5t-17.5 -48t-19.5 -78.5q-9 -40 -17.5 -89.5t-21 -100t-30.5 -98.5t-44.5 -85.5t-64 -60t-88.5 -22.5q-30 0 -56.5 6.5t-46 16.5t-30.5 21.5t-11 20.5q0 10 5 14.5t13 4.5q10 0 19.5 -2.5t23.5 -2.5q51 0 88 37.5t65 95t48 125.5t37 129q15 57 35 89
t37 49q20 19 42 24q-23 12 -72.5 23.5t-109.5 11.5q-45 0 -73.5 -20.5t-28.5 -55.5q0 -23 7.5 -38.5t17 -26t17 -17.5t7.5 -12q0 -19 -21 -19q-20 0 -45.5 9t-48.5 26t-39 40.5t-16 53.5q0 39 20 64t49.5 40t64 21t63.5 6q50 0 101.5 -9.5t106.5 -21.5t113.5 -21.5
t122.5 -9.5q14 0 25.5 5.5t23 11.5t25 11.5t32.5 5.5q17 0 32 -8t26.5 -20t18.5 -26.5t7 -27.5q0 -21 -11.5 -53.5t-30.5 -70t-44.5 -77.5t-53 -77.5t-55.5 -70t-53 -53.5q-3 -15 -6 -31q-2 -14 -3.5 -29.5t-1.5 -28.5q0 -35 13 -50.5t35 -15.5q20 0 39.5 13t34.5 30
q18 18 33 43q1 3 5 7q2 2 6 4.5t9 2.5q8 0 14.5 -6t6.5 -14q0 -4 -1.5 -7.5t-3.5 -7.5t-4 -9q-22 -35 -49 -62q-23 -23 -54.5 -42t-68.5 -19z" />
    <glyph glyph-name="g_j" unicode="gj" horiz-adv-x="675" 
d="M107 -285q-23 0 -43.5 7.5t-36 20t-24.5 30t-9 37.5q0 28 16 50t43.5 39.5t65 30.5t81.5 25q10 35 17 67t11 53q-20 -25 -43 -43q-20 -16 -45 -29t-54 -13q-20 0 -38.5 7.5t-32 21.5t-21.5 33t-8 42q0 54 20.5 107t53.5 95.5t74 68.5t82 26q30 0 51 -7.5t34 -16.5
q15 -11 24 -23q11 0 23.5 -2.5t23 -8t17.5 -14.5t7 -22q0 -8 -4.5 -28t-12 -50t-17.5 -67.5t-22 -80.5q-5 -20 -10.5 -42.5t-12.5 -45.5l97 24q15 50 30.5 104t29 105.5t25 97t18.5 78.5q2 9 10 14t18 5q11 0 24.5 -7t25.5 -16t20 -18.5t8 -15.5q0 -8 -6.5 -35.5
t-17.5 -68.5t-26.5 -93t-33.5 -108q43 18 78 41t58 53q2 3 6 7q3 2 7 4.5t9 2.5q9 0 15 -6t6 -14q0 -4 -2 -7.5t-4 -7.5q-3 -4 -5 -9q-32 -43 -80.5 -71t-105.5 -48q-26 -78 -53 -153q-20 -54 -39.5 -96t-43.5 -71t-55 -44t-74 -15q-27 0 -51.5 9t-44 23.5t-32 32.5
t-13.5 36q-2 0 -4 -0.5t-4 -0.5zM304 -64q-11 -35 -24 -68.5t-30.5 -62t-40 -50t-51.5 -31.5q2 -8 6 -18t11.5 -18.5t19 -14t28.5 -5.5q73 0 158 237l18 54zM274 290q0 22 -11 32.5t-26 10.5q-22 0 -45 -23t-41.5 -56.5t-30.5 -72.5t-12 -70q0 -45 29 -45q18 0 41.5 24
t45 59t36 73.5t14.5 67.5zM701 576q0 -20 -6.5 -38.5t-18 -33t-26 -23t-30.5 -8.5q-22 0 -38 15t-16 42q0 19 7 37t18.5 32.5t26.5 23t32 8.5q22 0 36.5 -15t14.5 -40zM82 -232q16 0 30 11t27 30t24 43t20 51q-54 -19 -86.5 -45.5t-32.5 -69.5q0 -10 5 -15t13 -5z" />
    <glyph glyph-name="j_j" unicode="jj" horiz-adv-x="390" 
d="M59 372q2 8 10 13.5t18 5.5q11 0 24.5 -7t25.5 -16t20 -18.5t8 -15.5t-7 -38.5t-19 -81.5t-29 -109t-37 -123q-2 -5 -3.5 -9.5t-3.5 -9.5q21 7 40 12.5t36 10.5l4 2q16 51 32.5 107.5t31 111t26 103t19.5 82.5q2 9 10 14t18 5q11 0 24.5 -7t25.5 -16t20 -18.5t8 -15.5
q0 -8 -6.5 -36.5t-18 -71t-27.5 -95.5t-35 -111q41 23 68 48.5t48 54.5q2 3 6 7q3 2 7 4.5t9 2.5q9 0 15 -6t6 -14q0 -4 -2 -8l-4 -8q-3 -4 -5 -8q-30 -38 -67 -69t-100 -61q-12 -36 -24 -71.5t-25 -70.5q-20 -54 -39.5 -96t-43.5 -71t-55 -44t-74 -15q-32 0 -61 12.5
t-49 32.5q-26 -13 -49 -13t-46.5 10t-43 26.5t-32 36.5t-12.5 40q0 24 20.5 46.5t54.5 42.5t77.5 38.5t89.5 35.5q8 20 14.5 40.5t13.5 42.5q39 128 56.5 220t31.5 146zM45 -97q-28 -72 -59.5 -129t-67.5 -90q8 -7 18.5 -11.5t24.5 -4.5q73 0 158 237l8 25zM436 596
q0 -20 -6.5 -38.5t-18 -33t-26 -23t-30.5 -8.5q-22 0 -40.5 18t-18.5 45q0 16 7.5 33t20.5 31t28.5 22.5t32.5 8.5q22 0 36.5 -15t14.5 -40zM241 576q0 -20 -6.5 -38.5t-18 -33t-26 -23t-30.5 -8.5q-22 0 -38 15t-16 42q0 19 7 37t18.5 32.5t26.5 23t32 8.5q22 0 36.5 -15
t14.5 -40zM-208 -282q32 0 63 38t60 100q-30 -12 -57.5 -25.5t-48 -27.5t-32.5 -29t-12 -30q0 -11 8 -18.5t19 -7.5z" />
    <glyph glyph-name="y_j" unicode="yj" horiz-adv-x="681" 
d="M346 71q-6 -20 -11.5 -42.5t-12.5 -45.5l98 24q15 50 30.5 104t29 105.5t25 97t18.5 78.5q2 9 10 14t18 5q11 0 24.5 -7t25.5 -16t20 -18.5t8 -15.5q0 -8 -6.5 -35.5t-17.5 -68.5t-26.5 -93t-33.5 -108q43 18 78 41t58 53q2 3 6 7q3 2 7 4.5t9 2.5q9 0 15 -6t6 -14
q0 -4 -2 -7.5t-4 -7.5q-3 -4 -5 -9q-32 -43 -80.5 -71t-105.5 -48q-26 -78 -53 -153q-20 -54 -39.5 -96t-43.5 -71t-55 -44t-74 -15q-27 0 -51.5 9t-44 23.5t-32 32.5t-13.5 36q-2 0 -4 -0.5t-4 -0.5q-23 0 -43.5 7.5t-36 20t-24.5 30t-9 37.5q0 28 15.5 50t43.5 39.5
t65 30.5t81 25q9 32 15.5 61t10.5 49q-12 -14 -27.5 -27.5t-33.5 -24t-37.5 -17t-38.5 -6.5q-17 0 -35.5 7.5t-33.5 20.5t-25 31t-10 38q0 27 9 67t21 81.5t25.5 78.5t22.5 58q4 8 11 13.5t16 5.5q11 0 25 -7t26 -16t20 -18.5t8 -15.5q0 -23 -10 -51t-22.5 -60.5t-22.5 -68
t-10 -71.5q0 -12 6 -21t17 -9q12 0 24.5 7t24.5 17.5t22 23t17 23.5q17 27 29 61t21 68.5t17 66t17 52.5q4 8 11 13.5t17 5.5q11 0 24.5 -7t25.5 -16t20 -18.5t8 -15.5q0 -11 -6 -39t-15 -65.5t-20.5 -79.5t-22.5 -79zM405 -41q-24 -6 -48.5 -11.5t-47.5 -11.5
q-11 -34 -24 -67.5t-30.5 -62t-40 -50t-50.5 -32.5q2 -8 6 -18t11.5 -18.5t19 -14t28.5 -5.5q73 0 158 237zM707 576q0 -20 -6.5 -38.5t-18 -33t-26 -23t-30.5 -8.5q-22 0 -38 15t-16 42q0 19 7 37t18.5 32.5t26.5 23t32 8.5q22 0 36.5 -15t14.5 -40zM88 -232q16 0 30.5 11
t27 30t24 43t20.5 51q-54 -19 -87 -45t-33 -70q0 -20 18 -20z" />
    <glyph glyph-name="f_j" unicode="fj" horiz-adv-x="522" 
d="M366 372q2 8 10 13.5t18 5.5q11 0 24.5 -7t25.5 -16t20 -18.5t8 -15.5q0 -8 -4.5 -28t-12 -47t-16.5 -58.5t-18.5 -62t-18.5 -57.5t-16 -45q48 24 81 50.5t55 56.5q2 3 6 7q3 2 7 4.5t9 2.5q9 0 15 -6t6 -14q0 -4 -2 -8l-4 -8q-3 -4 -5 -8q-30 -38 -71.5 -67.5
t-108.5 -60.5q-31 -130 -68 -231q-16 -44 -34.5 -85.5t-39 -73.5t-43 -52t-46.5 -20t-44 16.5t-20 37.5q0 18 11.5 35.5t28.5 36t38 38t40 41.5q13 31 26 70t26 82.5t25 90t23 92.5q-22 -20 -54 -35t-79 -15q12 -21 22 -47q8 -22 15.5 -50t7.5 -60q0 -18 -7 -34.5t-19 -30
t-28.5 -21.5t-35.5 -8q-22 0 -48 8.5t-48 28.5t-37 52.5t-15 80.5q0 81 13.5 169.5t36.5 173.5t54.5 161.5t67.5 134t75 91.5t77 34q17 0 33.5 -8.5t29.5 -22t21 -29t8 -28.5q0 -21 -12 -54t-32.5 -72.5t-47 -82.5t-56 -82.5t-60 -73.5t-57.5 -56q-8 -23 -13 -49t-7 -52
q7 -9 17 -15q8 -5 20 -9.5t28 -4.5q26 0 47 8t38 20.5t30.5 28t24.5 29.5q1 2 3 4l3.5 3.5t4.5 3.5q9 40 16.5 75.5t13.5 64t10.5 49t7.5 29.5zM336 609q0 20 -21 20q-14 0 -34.5 -31.5t-44 -82.5t-46.5 -115.5t-42 -130.5q16 12 36.5 38t41.5 58.5t40.5 69t35 70t25 61.5
t9.5 43zM548 576q0 -20 -6.5 -38.5t-18 -33t-26 -23t-30.5 -8.5q-22 0 -38 15t-16 42q0 19 7 37t18.5 32.5t26.5 23t32 8.5q22 0 36.5 -15t14.5 -40zM91 33q-2 -20 -4 -41q-2 -18 -3 -39.5t-1 -41.5q0 -59 13.5 -82t26.5 -23q26 0 26 46q0 32 -9 64.5t-20 58.5
q-13 30 -29 58z" />
    <glyph glyph-name="T_h" unicode="Th" horiz-adv-x="975" 
d="M836 95q0 -17 8.5 -27.5t23.5 -10.5q20 0 39.5 13t34.5 30q18 18 33 43q1 3 5 7q2 2 6 4.5t9 2.5q8 0 14.5 -6t6.5 -14q0 -4 -1.5 -7.5t-3.5 -7.5t-4 -9q-22 -35 -49 -62q-23 -23 -54.5 -42t-68.5 -19q-57 0 -92 30.5t-35 79.5q0 31 8 58t18 50t18 41.5t8 32.5
q0 29 -22 29q-26 0 -53 -21.5t-48.5 -61t-35 -95t-13.5 -123.5q0 -9 -3.5 -14.5t-14.5 -5.5q-15 0 -32 3t-32 9.5t-24.5 17t-9.5 24.5q0 42 11 107t32 137.5t50.5 145.5t65.5 132q-22 5 -46.5 11t-45.5 13q-25 7 -49 16q-4 -2 -10 -9t-14 -24.5t-17.5 -48t-19.5 -78.5
q-9 -40 -17.5 -89.5t-21 -100t-30.5 -98.5t-44.5 -85.5t-64 -60t-88.5 -22.5q-30 0 -56.5 6.5t-46 16.5t-30.5 21.5t-11 20.5q0 10 5 14.5t13 4.5q10 0 19.5 -2.5t23.5 -2.5q51 0 88 37.5t65 95t48 125.5t37 129q15 57 35 89t37 49q20 19 42 24q-23 12 -72.5 23.5
t-109.5 11.5q-45 0 -73.5 -20.5t-28.5 -55.5q0 -23 7.5 -38.5t17 -26t17 -17.5t7.5 -12q0 -19 -21 -19q-20 0 -45.5 9t-48.5 26t-39 40.5t-16 53.5q0 39 20 64t49.5 40t64 21t63.5 6q50 0 101.5 -9.5t106.5 -21.5t113.5 -21.5t122.5 -9.5q19 0 35 5.5t31.5 11.5t30.5 11.5
t32 5.5t33 -8.5t29 -22t20.5 -29t7.5 -28.5q0 -21 -9 -46t-23.5 -50.5t-31 -50.5t-31.5 -45t-26 -33.5t-13 -16.5q5 3 28 14t55 11q11 0 22.5 -6t20.5 -16t15 -22t6 -25q0 -23 -10 -50.5t-22 -57t-22 -60t-10 -59.5zM838 609q0 20 -19 20q-14 0 -33.5 -23.5t-42 -65
t-47 -98.5t-48.5 -124q17 14 38 37t42 50t41 57t35 57.5t24.5 51t9.5 38.5z" />
    <glyph glyph-name=".notdef" horiz-adv-x="253" 
 />
    <glyph glyph-name=".null" horiz-adv-x="0" 
 />
    <glyph glyph-name="nonmarkingreturn" unicode="&#xd;" horiz-adv-x="230" 
 />
    <glyph glyph-name="NULL" horiz-adv-x="0" 
 />
    <glyph glyph-name="NULL" horiz-adv-x="0" 
 />
    <glyph glyph-name="space" unicode=" " horiz-adv-x="210" 
 />
    <glyph glyph-name="exclam" unicode="!" horiz-adv-x="288" 
d="M52 44q0 13 6.5 27.5t17 26.5t25 20t29.5 8q23 0 37.5 -13.5t14.5 -37.5q0 -14 -5.5 -28.5t-16 -27t-25 -20.5t-31.5 -8q-24 0 -38 14.5t-14 38.5zM238 678q0 17 28 17q12 0 28.5 -7.5t32 -19t26 -26t10.5 -28.5q0 -10 -8.5 -34.5t-23 -58t-32 -74t-36 -82t-35.5 -82
t-29 -73.5q-9 -26 -28 -35q-14 -7 -29.5 -10t-22.5 -3q-19 0 -19 17q0 6 10 40.5t25.5 84t33.5 107.5t33.5 111.5t25.5 95.5t10 60z" />
    <glyph glyph-name="quotedbl" unicode="&#x22;" horiz-adv-x="272" 
d="M77 478q-17 0 -21 8t-4 22q0 6 3 28t7 47.5t7.5 47.5t4.5 28q4 21 19.5 30.5t41.5 9.5q29 0 41 -9t12 -26q0 -11 -10 -34t-23 -48t-25 -46t-15 -28q-7 -13 -14.5 -21.5t-23.5 -8.5zM227 478q-17 0 -21 8t-4 22q0 6 3 28t7 47.5t7.5 47.5t4.5 28q4 21 19.5 30.5t41.5 9.5
q29 0 41 -9t12 -26q0 -11 -10 -34t-23 -48t-25 -46t-15 -28q-7 -13 -14.5 -21.5t-23.5 -8.5z" />
    <glyph glyph-name="numbersign" unicode="#" horiz-adv-x="452" 
d="M343 581q3 9 17.5 12t20.5 3q11 0 19 -8t8 -19q0 -3 -3.5 -13t-8 -24t-10 -29t-9.5 -27h56q8 0 15.5 -4t7.5 -14q0 -13 -7.5 -28.5t-21.5 -15.5h-71l-34 -97h49q11 0 13.5 -8.5t2.5 -17.5q0 -11 -7.5 -23t-21.5 -12h-61l-34 -102q-7 -17 -32 -17q-11 0 -22.5 6t-11.5 17
q0 4 3.5 15.5t8 25t10 28.5t9.5 27h-86l-41 -107q-4 -8 -16.5 -10t-20.5 -2q-12 0 -19 7.5t-7 18.5q0 3 3 12.5t8 22t10.5 28t11.5 30.5h-42q-10 0 -15.5 7t-5.5 13q0 13 10 27.5t24 14.5h54l40 96h-56q-18 0 -18 21q0 12 6.5 26.5t20.5 14.5h69l41 103q4 11 16.5 14t19.5 3
q12 0 20.5 -8t8.5 -19l-36 -93h77zM286 413h-78l-40 -95h83z" />
    <glyph glyph-name="dollar" unicode="$" horiz-adv-x="460" 
d="M325 563q-27 0 -45.5 -17.5t-18.5 -52.5q0 -30 19.5 -58t43 -58t43 -65t19.5 -78q0 -36 -12 -67t-33.5 -54.5t-50.5 -40t-63 -23.5l-11 -33q-4 -12 -13.5 -18.5t-35.5 -6.5q-28 0 -39.5 6.5t-11.5 18.5l10 32q-25 5 -47 15t-38 24.5t-25.5 32.5t-9.5 39q0 25 13.5 47.5
t34.5 38.5t45.5 25.5t46.5 9.5q6 0 10.5 -2.5t4.5 -7.5t-5.5 -12t-12 -18t-12 -27.5t-5.5 -41.5q0 -32 17 -51.5t48 -19.5q29 0 47.5 22.5t18.5 58.5q0 40 -20 73t-44 64t-44 62.5t-20 69.5q0 28 11.5 55.5t32.5 50t50 38.5t64 23l13 37q4 12 13.5 18.5t35.5 6.5
q28 0 39.5 -6.5t11.5 -18.5l-12 -38q24 -6 40.5 -16t27 -22t15 -25.5t4.5 -26.5q0 -22 -13 -41.5t-32 -34.5t-39 -24t-34 -9q-15 0 -15 15q0 4 3.5 11t8 17t8 24t3.5 33q0 46 -40 46z" />
    <glyph glyph-name="percent" unicode="%" horiz-adv-x="594" 
d="M557 693q0 -10 -3.5 -18.5t-12.5 -24.5l-357 -639q-4 -9 -11.5 -13t-15.5 -4q-7 0 -20.5 0.5t-26.5 3.5t-23 9.5t-10 17.5q0 5 2 10t4 11l361 652q4 6 10.5 12t15.5 6q33 0 60 -7t27 -16zM91 561q0 -26 17.5 -43.5t43.5 -17.5t43.5 17.5t17.5 43.5t-17.5 43.5t-43.5 17.5
t-43.5 -17.5t-17.5 -43.5zM12 561q0 29 11 55t30 45t44.5 30t54.5 11t55 -11t45 -30t30 -45t11 -55t-11 -54.5t-30 -44.5t-45 -30t-55 -11t-54.5 11t-44.5 30t-30 44.5t-11 54.5zM422 143q0 -26 18 -44t44 -18t43 18t17 44t-17 43t-43 17t-44 -17t-18 -43zM343 143
q0 29 11 54.5t30 44.5t45 30t55 11t54.5 -11t44.5 -30t30 -44.5t11 -54.5t-11 -55t-30 -45t-44.5 -30t-54.5 -11t-55 11t-45 30t-30 45t-11 55z" />
    <glyph glyph-name="ampersand" unicode="&#x26;" horiz-adv-x="713" 
d="M297 25q36 0 68 14.5t58 38.5t44.5 53.5t27.5 59.5q-30 -14 -58 -22.5t-51 -8.5q-38 0 -55.5 14.5t-17.5 36.5q0 24 19 47t47 40.5t60 28t58 10.5q24 0 44 -6t34 -19q17 21 27 42t10 39q0 14 -7.5 21.5t-19.5 7.5q-9 0 -19 -4t-19 -9t-16 -9t-10 -4q-7 0 -12 3t-5 13
q0 7 14 20.5t35 26.5t46 23t47 10q27 0 45.5 -16.5t18.5 -45.5q0 -42 -31.5 -86.5t-77.5 -82.5q1 -5 1 -9.5v-9.5q0 -45 -28.5 -93t-76 -87.5t-109.5 -65t-130 -25.5q-42 0 -84 10t-75.5 32t-55 56.5t-21.5 82.5q0 33 9 61t23.5 51t33.5 41.5t39 33.5q47 34 106 56
q-20 13 -36 31q-14 15 -25.5 36.5t-11.5 49.5q-61 13 -100.5 37t-39.5 60q0 19 13 38t31 34t37 24.5t30 9.5q5 0 7 -3t2 -6q0 -5 -9 -17.5t-9 -30.5q0 -24 14 -44.5t39 -36.5q16 31 45.5 58t66 47t77.5 31t80 11q27 0 50.5 -6.5t41 -18t27.5 -28t10 -36.5q0 -28 -21.5 -53
t-58 -43.5t-85.5 -29t-104 -10.5h-18q0 -19 3.5 -34t8.5 -26q5 -13 12 -23q8 1 19 3q9 1 21.5 2t28.5 1q59 0 59 -35q0 -15 -17.5 -30.5t-46.5 -15.5q-18 0 -33 2.5t-26 6.5q-12 4 -22 10q-37 -22 -66 -52q-25 -26 -45.5 -64t-20.5 -89q0 -63 36.5 -96.5t99.5 -33.5z
M441 681q-23 0 -46 -10t-43 -27.5t-36 -42t-24 -53.5q43 0 79.5 7t63.5 20t42 31t15 40q0 16 -15 25.5t-36 9.5zM416 213q19 0 41 8.5t45 23.5q-2 29 -13.5 39t-28.5 10q-9 0 -20.5 -6t-22 -15t-17.5 -20t-7 -21q0 -19 23 -19z" />
    <glyph glyph-name="quotesingle" unicode="'" horiz-adv-x="146" 
d="M76 478q-17 0 -21 8t-4 22q0 6 3 28t7 47.5t7.5 47.5t4.5 28q4 21 19.5 30.5t41.5 9.5q29 0 41 -9t12 -26q0 -11 -10 -34t-23 -48t-25 -46t-15 -28q-7 -13 -14.5 -21.5t-23.5 -8.5z" />
    <glyph glyph-name="parenleft" unicode="(" horiz-adv-x="192" 
d="M327 749q9 8 16.5 12.5t15.5 4.5q9 0 15.5 -7t6.5 -15t-6 -15.5t-15 -17.5q-33 -36 -74 -91.5t-77 -124t-60.5 -146t-24.5 -158.5q0 -39 3 -68t9 -51.5t14.5 -41.5t18.5 -37q2 -4 4 -9t2 -10q0 -7 -6 -13t-14 -6q-5 0 -11.5 4.5t-11.5 8.5q-6 4 -27 24.5t-44.5 53.5
t-42 77.5t-18.5 97.5q0 85 34.5 164.5t85 148.5t107 124t100.5 91z" />
    <glyph glyph-name="parenright" unicode=")" horiz-adv-x="301" 
d="M34 -28q-9 -8 -16.5 -12.5t-15.5 -4.5q-9 0 -15.5 7t-6.5 15t6 15.5t15 17.5q33 36 74 91.5t77 124t60.5 146t24.5 158.5q0 39 -3 68t-9 51.5t-14.5 41.5t-18.5 37q-2 4 -4 9t-2 10q0 7 6 13t14 6q5 0 11.5 -4.5t11.5 -8.5q6 -5 27 -25t44.5 -53t42 -77.5t18.5 -97.5
q0 -85 -34.5 -164.5t-85 -148.5t-107 -124t-100.5 -91z" />
    <glyph glyph-name="asterisk" unicode="*" horiz-adv-x="270" 
d="M170 706q0 -3 -0.5 -14t-1.5 -24t-1.5 -25t-0.5 -18q6 4 15.5 12t20 16t20 13.5t16.5 5.5q6 0 11.5 -5t10 -12t7.5 -15t3 -14q0 -14 -11 -18q-20 -9 -41.5 -17.5t-32.5 -10.5q18 -7 40.5 -16.5t31.5 -13.5q6 -3 9.5 -7t3.5 -13q0 -12 -9 -28t-23 -16q-4 0 -14 5t-21.5 12
t-22 14.5t-16.5 12.5q1 -17 3 -33q1 -14 2 -27.5t1 -21.5t-8 -17t-27 -9q-17 0 -26 9t-9 17q0 17 1.5 41t3.5 42q-6 -6 -15 -14t-19.5 -15t-20.5 -12t-17 -5q-6 0 -12 4.5t-10.5 11t-7.5 13.5t-3 13q0 14 13 21q21 12 40.5 19t27.5 11q-24 12 -40 19t-27 12q-13 6 -13 20
q0 12 10 28t24 16q6 0 14.5 -5.5t18 -13t18.5 -15.5t17 -14q0 14 -1.5 38t-1.5 43q0 9 9 17t26 8q18 0 26.5 -8t8.5 -17z" />
    <glyph glyph-name="plus" unicode="+" horiz-adv-x="458" 
d="M181 541q0 11 15.5 16t29.5 5t30.5 -5t16.5 -14v-148h146q11 0 16 -15.5t5 -29.5t-5 -30.5t-14 -16.5h-148v-145q0 -5 -5 -9t-12 -6.5t-15 -4t-15 -1.5q-14 0 -29.5 5t-15.5 14v147h-145q-5 0 -9 5t-6.5 12t-4 15t-1.5 15q0 14 5 29.5t14 15.5h147v146z" />
    <glyph glyph-name="comma" unicode="," horiz-adv-x="180" 
d="M50 51q0 23 16 38t41 15q53 0 53 -54q0 -27 -14.5 -53.5t-34 -47.5t-38 -34t-25.5 -13q-15 0 -15 13q0 7 5 15t11 18.5t11 24t5 31.5q0 14 -7.5 23t-7.5 24z" />
    <glyph glyph-name="hyphen" unicode="-" horiz-adv-x="435" 
d="M95 304q38 0 72.5 3.5t65.5 8t57.5 8t49.5 3.5q13 0 28 -10.5t27.5 -24t21 -27t8.5 -19.5t-5.5 -11t-9.5 -5q-6 0 -23.5 10t-42.5 10q-36 0 -67 -8.5t-59.5 -18t-53.5 -18t-49 -8.5q-20 0 -37.5 15.5t-31 35.5t-21.5 39t-8 27q0 6 4 10t9 4t11 -4t13.5 -8.5t17.5 -8
t23 -3.5z" />
    <glyph glyph-name="period" unicode="." horiz-adv-x="246" 
d="M59 44q0 13 6.5 27.5t17 26.5t25 20t29.5 8q23 0 37.5 -13.5t14.5 -37.5q0 -14 -5.5 -28.5t-16 -27t-25 -20.5t-31.5 -8q-24 0 -38 14.5t-14 38.5z" />
    <glyph glyph-name="slash" unicode="/" horiz-adv-x="363" 
d="M410 708q0 -6 -2 -12t-4 -11l-265 -677q-6 -14 -22 -14h-42q-13 0 -23.5 2.5t-10.5 13.5q0 5 5 17l264 688q2 5 8 10t14 5q13 0 26.5 -2t25 -5t19 -7t7.5 -8z" />
    <glyph glyph-name="zero" unicode="0" horiz-adv-x="617" 
d="M451 705q33 0 61.5 -9.5t49.5 -28t33 -47t12 -65.5q0 -45 -16 -104.5t-44 -122.5t-67.5 -124t-86 -108.5t-99.5 -77t-108 -29.5q-35 0 -67 11t-56 34t-38.5 57.5t-14.5 81.5q0 65 20.5 130t54.5 124t79 110t94 88t99 58.5t94 21.5zM427 635q-25 0 -56 -20t-62 -55
t-60.5 -81.5t-52 -99.5t-36.5 -110t-14 -112q0 -50 21 -76t53 -26q33 0 64.5 28t60 73t52.5 101.5t41 113t27 108t10 87.5q0 35 -13.5 52t-34.5 17z" />
    <glyph glyph-name="one" unicode="1" horiz-adv-x="328" 
d="M66 446q-21 0 -37.5 13.5t-16.5 36.5q0 17 7.5 33.5t18.5 31t22.5 26.5t20.5 20q6 6 9.5 8t7.5 2q10 0 10 -10q0 -24 10.5 -39.5t31.5 -15.5q13 0 24.5 2t21.5 5q11 3 21 7q18 36 39 64q18 24 41.5 44.5t49.5 20.5q20 0 35.5 -14.5t15.5 -34.5q0 -21 -22 -52t-59 -60
q-12 -10 -31.5 -41t-42 -75.5t-45 -99t-40.5 -109.5t-29.5 -107t-11.5 -92q0 -9 -3 -14.5t-15 -5.5q-9 0 -23.5 8t-28.5 20.5t-24 27t-10 27.5q0 28 11.5 68t29 84.5t38 88.5t38.5 80.5t30.5 60t14.5 27.5q-2 -1 -12 -7t-25 -12.5t-34 -11.5t-38 -5z" />
    <glyph glyph-name="two" unicode="2" horiz-adv-x="560" 
d="M432 705q39 0 72 -10.5t57 -31t37.5 -49t13.5 -64.5q0 -43 -28.5 -98t-75 -112.5t-105.5 -114.5t-120 -104q29 -7 57.5 -11t55.5 -4q28 0 50 8t37.5 18t25.5 18t15 8q12 0 12 -10q0 -4 -6 -17.5t-17 -31t-26 -37t-34 -35.5t-40.5 -26.5t-44.5 -10.5q-37 0 -83 21t-94 45
q-48 -31 -89.5 -48.5t-70.5 -17.5q-50 0 -80 27t-30 63q0 19 8.5 37.5t24 32.5t36.5 22.5t47 8.5q29 0 69.5 -10.5t86.5 -24.5q49 41 98 95.5t88 112.5t63 116t24 107q0 32 -22 51t-54 19q-28 0 -61.5 -18.5t-63 -49t-49 -68.5t-19.5 -77q0 -21 5 -33.5t12.5 -18.5t14.5 -8
t12 -2q12 0 12 -10q0 -5 -5.5 -12t-15.5 -14.5t-25.5 -12.5t-34.5 -5q-20 0 -40 6.5t-36.5 19t-27 30.5t-10.5 41q0 63 35.5 116.5t90.5 92t121 60t127 21.5zM36 114q-23 0 -34 -8.5t-11 -18.5q0 -15 11.5 -21.5t24.5 -6.5q19 0 42 8.5t49 24.5q-23 10 -44 16t-38 6z" />
    <glyph glyph-name="three" unicode="3" horiz-adv-x="550" 
d="M412 606q18 27 39 49q18 19 40.5 34.5t47.5 15.5q23 0 36 -12.5t13 -33.5q0 -31 -32.5 -56.5t-92.5 -39.5q-6 -6 -23.5 -22t-35.5 -33q-21 -19 -46 -42q28 0 57.5 -8t54 -27t40 -49t15.5 -75q0 -66 -31.5 -124t-81 -100.5t-110.5 -67.5t-121 -25q-44 0 -81.5 9t-65 25.5
t-43 40t-15.5 51.5q0 24 19.5 44.5t44.5 36t47 24t28 8.5q15 0 15 -11q0 -5 -2 -8t-6 -8q-8 -11 -20.5 -32t-12.5 -44q0 -14 6 -27.5t17 -24.5t28 -18t39 -7q36 0 71.5 20t64 56t46 86t17.5 111q0 42 -19.5 67t-56.5 25q-9 -10 -24 -23.5t-34 -25.5t-40 -20.5t-42 -8.5
t-34 11.5t-13 30.5q0 25 22.5 41.5t49.5 26.5q32 11 72 18l91 84q-23 0 -60.5 2t-73.5 9t-62 20.5t-26 37.5q0 19 18 35.5t42.5 28t49 18t36.5 6.5q16 0 16 -13q0 -4 -3.5 -7.5t-7 -8t-7 -9.5t-3.5 -12q0 -11 12 -20t32.5 -15.5t46 -10t52.5 -3.5z" />
    <glyph glyph-name="four" unicode="4" horiz-adv-x="647" 
d="M355 705q37 0 65.5 -18.5t28.5 -58.5q0 -18 -7 -40t-18.5 -45.5t-26.5 -47t-30 -45.5q-36 -52 -81 -106q16 -8 34 -16q16 -7 37 -14.5t46 -12.5q21 52 46.5 106t51 101.5t50.5 85.5t46 59q14 14 33.5 24t39 16t35.5 9t23 3q9 0 9 -10q0 -6 -18.5 -26t-45.5 -62
q-8 -12 -26 -42t-40.5 -71.5t-47.5 -92t-47 -105.5q33 6 54 17.5t34 21.5q9 7 14 7t8 -3.5t3 -6.5q0 -6 -5 -15q-8 -13 -22 -33t-33.5 -40.5t-43 -36t-49.5 -19.5q-14 -48 -23 -93.5t-9 -86.5q0 -18 -17 -18q-10 0 -25.5 6.5t-30.5 17.5t-25.5 26.5t-10.5 33.5q0 17 10 53.5
t27 84.5q-24 12 -47 25.5t-42.5 25.5t-34.5 20t-22 8q-17 -12 -37 -21q-17 -8 -39.5 -14t-45.5 -6q-27 0 -49 18.5t-22 44.5q0 16 8 28.5t20 20.5t27.5 12t30.5 4q18 0 34.5 -2t29.5 -4q15 -3 28 -6q33 36 59 76q22 33 40.5 74t18.5 79q0 18 -11 28.5t-26 10.5q-11 0 -22 -4
t-20.5 -8.5t-16.5 -8.5t-11 -4q-5 0 -10 5t-5 10q0 7 14.5 21t37 27t49.5 23t51 10z" />
    <glyph glyph-name="five" unicode="5" horiz-adv-x="515" 
d="M150 49q37 0 71.5 19.5t60 54t41 80.5t15.5 100q0 36 -9.5 57.5t-23.5 32.5t-30.5 14.5t-31.5 3.5q-8 0 -15 -2t-12 -4q-6 -3 -12 -5q-15 -27 -33 -48q-15 -18 -34 -33t-39 -15q-21 0 -33.5 13t-12.5 32q0 17 14.5 33.5t31.5 28.5q20 14 46 26l66 137q-13 12 -23 24
q-9 11 -16 23t-7 25q0 29 19 44t40 15q22 0 35 -12.5t20 -26.5q8 -18 11 -39q6 -2 14 -4q7 -2 15 -3t17 -1q30 0 61.5 6.5t61 17t55.5 24.5t45 29q12 9 20 9q5 0 10.5 -5t5.5 -10q0 -6 -3 -12t-7 -12q-14 -22 -33.5 -47t-42 -46t-45.5 -35t-43 -14q-18 0 -42.5 4t-47.5 9
q-26 6 -53 14l-45 -101q5 2 14 5q7 2 18 3.5t25 1.5q34 0 69 -9.5t63 -28.5t46 -48t18 -68q0 -66 -31.5 -123.5t-81 -100t-110.5 -67.5t-121 -25q-44 0 -81.5 9t-65 25.5t-43 40t-15.5 51.5q0 24 19.5 44.5t44.5 36t47 24t28 8.5q15 0 15 -11q0 -5 -2 -8t-6 -8
q-8 -11 -20.5 -32t-12.5 -44q0 -14 6 -27.5t18.5 -24.5t31.5 -18t45 -7z" />
    <glyph glyph-name="six" unicode="6" horiz-adv-x="564" 
d="M468 705q56 0 78 -18.5t22 -46.5q0 -22 -12.5 -42.5t-29.5 -37t-34 -26.5t-26 -10q-19 0 -19 17q0 5 4.5 11.5t9.5 16t9.5 21.5t4.5 28q0 11 -8 19t-21 8q-28 0 -60.5 -18t-65 -49t-62 -73t-52.5 -91t-37 -102t-14 -106q0 -40 8.5 -69.5t23 -48.5t33 -28.5t39.5 -9.5
q31 0 62 22.5t56 59.5t40.5 85.5t15.5 101.5q0 32 -17 46t-37 14q-35 0 -70.5 -20t-61.5 -46q-3 -3 -7 -6t-7 -3q-5 0 -10 3.5t-5 10.5q0 14 20 39t52 49t72 42t81 18q25 0 47.5 -7t39.5 -22t27 -37.5t10 -53.5q0 -66 -30.5 -130t-78.5 -114.5t-107.5 -81t-118.5 -30.5
q-32 0 -70 11t-71.5 37.5t-56 69.5t-22.5 107q0 61 21 121t56.5 114.5t81.5 101t97 80.5t102.5 53.5t97.5 19.5z" />
    <glyph glyph-name="seven" unicode="7" horiz-adv-x="392" 
d="M150 705q13 0 13 -11q0 -6 -9 -17t-9 -27q0 -30 42.5 -51.5t140.5 -21.5q42 54 78.5 86t74.5 32q21 0 35 -12.5t14 -34.5q0 -31 -36 -62.5t-105 -59.5q-35 -41 -73 -102t-70 -126.5t-53 -127.5t-21 -104q0 -20 4 -37t4 -25q0 -14 -15 -14q-20 0 -42.5 7.5t-41.5 22
t-31.5 34.5t-12.5 45q0 22 10.5 51t27.5 62t38.5 68t44.5 68q53 77 121 163q-44 0 -91 1.5t-87 9t-65.5 23.5t-25.5 45q0 22 17 42.5t40 36.5t46.5 26t36.5 10z" />
    <glyph glyph-name="eight" unicode="8" horiz-adv-x="508" 
d="M404 705q25 0 54.5 -6.5t54.5 -19t42 -31t17 -42.5q0 -26 -19 -52.5t-50.5 -53.5t-72 -55.5t-83.5 -58.5q16 -17 32 -34.5t28.5 -36.5t20 -40.5t7.5 -46.5q0 -62 -21.5 -106.5t-56.5 -74t-78.5 -43.5t-87.5 -14q-37 0 -76 9.5t-70.5 27t-52 43t-20.5 57.5q0 36 21.5 68.5
t56 62.5t78.5 59t90 58q-14 15 -27.5 29t-24 28.5t-17 30.5t-6.5 35q0 38 26 68.5t61 51.5t71.5 32t57.5 11q22 0 22 -14q0 -7 -4.5 -10.5t-14.5 -8.5q-6 -3 -22.5 -11t-34 -20.5t-31 -29t-13.5 -35.5q0 -29 12 -53.5t31 -47.5q31 21 57.5 43t46.5 45.5t31.5 48t11.5 51.5
q0 13 -5.5 23t-13.5 17t-16.5 11.5t-14.5 7.5q-14 7 -14 14q0 13 17 13zM110 98q0 -25 18.5 -40.5t42.5 -15.5t47 13t41 36t29 53.5t11 65.5t-10 62.5t-26 50.5q-32 -25 -60 -51.5t-48.5 -54.5t-32.5 -58t-12 -61z" />
    <glyph glyph-name="nine" unicode="9" horiz-adv-x="576" 
d="M441 705q37 0 67 -9t52 -27.5t34 -47.5t12 -69q0 -65 -22 -131.5t-60.5 -129t-91 -117.5t-113 -96t-126.5 -64.5t-133 -23.5q-22 0 -36 5.5t-14 16.5q0 6 5.5 11t12.5 5q52 0 104 24t99 64t88 93t71 112t47 119.5t17 116.5q0 41 -20 62.5t-49 21.5q-34 0 -68 -22
t-61.5 -57.5t-44.5 -80t-17 -88.5q0 -55 22 -84t54 -43q10 -5 15 -8.5t5 -11.5q0 -15 -34 -15q-28 0 -63 10t-66 31t-52.5 54t-21.5 79q0 50 31 103.5t84 97t123.5 71.5t149.5 28z" />
    <glyph glyph-name="colon" unicode=":" horiz-adv-x="244" 
d="M79 123q0 13 6 26.5t15.5 24.5t22.5 18.5t28 7.5q20 0 32 -14t12 -34q0 -13 -5.5 -27t-15 -25t-23.5 -18.5t-30 -7.5q-18 0 -30 14t-12 35zM129 291q0 13 6 26.5t15.5 24.5t22.5 18.5t28 7.5q20 0 32 -14t12 -34q0 -13 -5.5 -27t-15.5 -25t-24 -18.5t-30 -7.5
q-18 0 -29.5 14t-11.5 35z" />
    <glyph glyph-name="semicolon" unicode=";" horiz-adv-x="235" 
d="M78 141q0 23 15.5 38t40.5 15q53 0 53 -54q0 -27 -14.5 -53.5t-34 -47.5t-38 -34t-25.5 -13q-15 0 -15 13q0 7 5 15t11 18.5t11 24t5 31.5q0 14 -7 23t-7 24zM119 311q0 13 6 26.5t15.5 24.5t22.5 18.5t28 7.5q20 0 32 -14t12 -34q0 -13 -5.5 -27t-15.5 -25t-24 -18.5
t-30 -7.5q-18 0 -29.5 14t-11.5 35z" />
    <glyph glyph-name="less" unicode="&#x3c;" horiz-adv-x="312" 
d="M30 390q62 45 112 80q21 15 41.5 29.5t37 25.5l27 18t12.5 7q6 0 11.5 -8.5t9 -19.5t6 -22t2.5 -16q0 -6 -1.5 -9t-7.5 -8l-170 -114l168 -110q9 -6 9 -19q0 -3 -1.5 -13.5t-5 -22t-8.5 -21t-12 -9.5q-2 0 -12.5 6.5t-27.5 18t-38 25.5t-43 29l-116 80q-8 7 -11.5 17
t-3.5 18q0 6 4 16t18 22z" />
    <glyph glyph-name="equal" unicode="=" horiz-adv-x="455" 
d="M35 233q-15 0 -15 16q0 5 4 17.5t10.5 25.5t14 23t13.5 10h335q11 0 14.5 -3t3.5 -11q0 -5 -4.5 -17.5t-11.5 -26t-15 -24t-14 -10.5h-335zM55 377q-15 0 -15 16q0 5 4 17.5t10.5 25.5t14 23t13.5 10h335q11 0 14.5 -3t3.5 -11q0 -5 -4.5 -17.5t-11.5 -26t-15 -24
t-14 -10.5h-335z" />
    <glyph glyph-name="greater" unicode="&#x3e;" horiz-adv-x="332" 
d="M289 400q14 -12 18 -22t4 -16q0 -8 -3.5 -18t-11.5 -17l-116 -80q-22 -15 -43 -29t-38 -25.5t-28 -18t-12 -6.5q-7 0 -12 9.5t-8.5 21t-5 22t-1.5 13.5q0 13 9 19l168 110l-170 114q-6 5 -7.5 8t-1.5 9q0 5 2.5 16t6 22t9 19.5t11.5 8.5q1 0 11.5 -7l27 -18t37.5 -25.5
t42 -29.5q50 -35 112 -80z" />
    <glyph glyph-name="question" unicode="?" horiz-adv-x="436" 
d="M279 639q-19 0 -37 -7.5t-32.5 -21.5t-23 -33.5t-8.5 -44.5q0 -18 3.5 -31t8 -22t8 -15t3.5 -10q0 -10 -17 -10q-19 0 -41 8.5t-41.5 23t-32.5 35t-13 44.5q0 32 17.5 58.5t47.5 46t70.5 30t85.5 10.5q99 0 154 -40t55 -117q0 -39 -17.5 -71.5t-44.5 -61t-60 -54
t-63.5 -49t-55.5 -47t-35 -48.5q-5 -12 -11.5 -17.5t-17.5 -7.5q-21 -3 -36.5 -9t-24.5 -6q-5 0 -10 4t-5 12q0 24 17.5 51t43.5 56.5t57 61.5t57 66.5t43.5 72t17.5 78.5q0 32 -19 48.5t-43 16.5zM62 44q0 13 6.5 27.5t17 26.5t25 20t29.5 8q23 0 37.5 -13.5t14.5 -37.5
q0 -14 -5.5 -28.5t-16 -27t-25 -20.5t-31.5 -8q-24 0 -38 14.5t-14 38.5z" />
    <glyph glyph-name="at" unicode="@" horiz-adv-x="687" 
d="M520 49q20 0 37 15t29.5 39t19.5 54.5t7 61.5q0 38 -15.5 69t-43 52.5t-64.5 33t-79 11.5q-72 0 -127.5 -25t-93 -65.5t-56.5 -92t-19 -103.5q0 -69 43.5 -103t117.5 -34q16 0 30.5 3.5t25.5 8t18.5 8.5t9.5 5t6.5 2.5t6.5 1.5q8 0 8 -12q0 -4 -10.5 -16.5t-28.5 -26
t-41.5 -24t-49.5 -10.5q-42 0 -80 12.5t-67 37t-46.5 61t-17.5 83.5q0 67 27 129.5t76 111t117 77.5t151 29q55 0 103 -16.5t83 -46.5t55.5 -71.5t20.5 -92.5q0 -39 -12.5 -79.5t-36.5 -73t-57.5 -53t-75.5 -20.5q-74 0 -84 75q-17 -21 -37 -38q-17 -14 -39.5 -25.5
t-47.5 -11.5q-36 0 -62 25.5t-26 65.5q0 48 18 94.5t46.5 83.5t65 60t72.5 23q26 0 45 -6.5t30 -14.5q13 -9 21 -20q10 0 21 -2t20 -7t15 -13t6 -19q0 -10 -8.5 -32.5t-18 -50t-18 -56t-8.5 -50.5t18 -22zM447 253q0 20 -9 29t-23 9q-19 0 -39 -20t-36.5 -49.5t-27 -63.5
t-10.5 -62q0 -39 26 -39q16 0 36.5 21t39 51.5t31 64.5t12.5 59z" />
    <glyph glyph-name="A" unicode="A" horiz-adv-x="976" 
d="M836 -10q-28 0 -54 10t-45.5 28t-31 43.5t-11.5 56.5q0 59 15 127q-31 15 -64 34t-70 39q-43 -77 -78 -139.5t-72 -106.5t-80 -68t-102 -24q-44 0 -87.5 21.5t-78 58t-56 84t-21.5 99.5q0 49 17.5 91.5t50 74t78.5 49.5t103 18q69 0 136 -19t132 -45q46 75 85 132
t75.5 94.5t72 56.5t74.5 19q31 0 53 -12t27 -17q21 13 43 17.5t38 4.5q30 0 30 -14q0 -5 -5.5 -11.5t-18.5 -21.5q-10 -12 -27.5 -47.5t-37.5 -84.5t-41 -107t-38 -116h12q14 0 26.5 4t23 8.5t18 8.5t12.5 4q3 0 6 -3t3 -9q0 -7 -10.5 -22t-27.5 -31t-39 -30t-46 -18
q-6 -29 -9.5 -55.5t-3.5 -48.5q0 -35 17 -50.5t40 -15.5q20 0 39.5 13t34.5 30q18 18 33 43q1 3 5 7q2 2 6 4.5t9 2.5q8 0 14.5 -6t6.5 -14q0 -4 -1.5 -7.5t-3.5 -7.5t-4 -9q-22 -35 -49 -62q-23 -23 -54.5 -42t-68.5 -19zM220 91q36 0 66 17t60.5 51.5t64 87t75.5 122.5
q-38 15 -78.5 24.5t-83.5 9.5q-108 0 -169 -51.5t-61 -137.5q0 -27 10 -50t27 -39t40 -25t49 -9zM607 384q32 -13 62.5 -25t60.5 -21q26 89 63.5 173.5t74.5 151.5q-5 2 -9.5 3t-12.5 1q-27 0 -51.5 -16t-52 -50t-60 -88t-75.5 -129z" />
    <glyph glyph-name="B" unicode="B" horiz-adv-x="848" 
d="M622 379q26 15 47 37q17 19 32 46t15 65q0 34 -15 60t-40 44t-57 27t-66 9q-69 0 -123.5 -18t-92 -48.5t-57 -71.5t-19.5 -86q0 -23 7.5 -38.5t17 -26t17 -17t7.5 -11.5q0 -19 -21 -19q-20 0 -47.5 9t-52 25.5t-42 40t-17.5 53.5q0 56 36.5 104.5t96 84t136 56
t156.5 20.5q57 0 109.5 -12t93 -36.5t65 -61t24.5 -84.5q0 -29 -10.5 -54t-26 -45.5t-33.5 -36t-34 -26.5t-27.5 -17t-13.5 -6q1 0 19 -9.5t39 -29t38.5 -50.5t17.5 -76q0 -50 -21 -86t-54 -59t-73.5 -34t-79.5 -11q-68 0 -129 24t-116 53q-34 -38 -74 -57.5t-94 -19.5
q-31 0 -59.5 8t-51 23t-36 36t-13.5 47q0 28 12 50t30.5 37t41 23t44.5 8q39 0 76.5 -13t74.5 -32l11 19q14 25 29 61.5t30.5 77t30.5 82t29 76t27 59t23 30.5q36 24 70.5 32.5t51.5 8.5q11 0 14 -4t3 -10t-20 -29t-38 -63q-5 -11 -18.5 -50.5t-33.5 -91.5t-44 -108.5
t-49 -100.5q-6 -11 -12 -21l-12 -20q42 -23 82 -40t82 -17q28 0 53 9.5t44.5 27.5t31 43.5t11.5 57.5q0 49 -20.5 77.5t-41.5 30.5q-8 -3 -17 -6q-8 -2 -17 -4t-17 -2q-22 0 -37.5 11.5t-15.5 31.5q0 22 15.5 33.5t35.5 11.5q11 0 21.5 -2t19.5 -4q11 -3 21 -5zM135 146
q-23 0 -38 -15t-15 -35t17.5 -32.5t41.5 -12.5q31 0 53.5 15.5t45.5 47.5q-29 14 -55 23t-50 9z" />
    <glyph glyph-name="C" unicode="C" horiz-adv-x="659" 
d="M433 -29q-47 0 -93 14.5t-82.5 44t-59.5 75t-23 108.5q0 28 4 56t12 56q-45 11 -80 28.5t-60 39t-38 45.5t-13 48q0 42 25.5 78t60 62t70.5 41t57 15q17 0 17 -11q0 -7 -5 -11t-14 -11q-11 -8 -24.5 -19.5t-25.5 -28t-20 -39t-8 -53.5q0 -33 16.5 -65.5t63.5 -52.5
q28 68 72.5 128.5t96 106t106 72t102.5 26.5q30 0 56.5 -14t45.5 -35t30 -45.5t11 -45.5q0 -39 -28.5 -86t-81 -88t-127 -69t-167.5 -30q-12 -51 -12 -101q0 -96 38.5 -137.5t110.5 -41.5q27 0 54 9t52.5 24t47.5 35.5t39 43.5q1 3 5 7q2 2 6 4.5t9 2.5q9 0 15 -6t6 -14
q0 -4 -1.5 -7.5t-3.5 -7.5t-4 -9q-17 -26 -42 -51t-58 -45.5t-72.5 -33t-85.5 -12.5zM601 656q-33 0 -69 -23t-70.5 -62.5t-64.5 -91t-50 -108.5q68 2 122.5 27.5t92.5 62.5t58 79t20 78q0 17 -10 27.5t-29 10.5z" />
    <glyph glyph-name="D" unicode="D" horiz-adv-x="928" 
d="M530 77q54 0 99 30.5t77.5 79.5t50.5 111.5t18 127.5q0 63 -20 108.5t-53 75t-76 43.5t-88 14q-69 0 -123.5 -18t-92 -48.5t-57 -71.5t-19.5 -86q0 -23 7.5 -38.5t17 -26t17 -17t7.5 -11.5q0 -19 -21 -19q-20 0 -47.5 9t-52 26t-42 40.5t-17.5 53.5q0 56 36.5 104
t96 83.5t136 56t156.5 20.5q57 0 121 -19t118 -59t89.5 -102.5t35.5 -149.5q0 -76 -24 -148.5t-67 -129.5t-102 -91.5t-129 -34.5q-65 0 -124.5 22t-114.5 50q-38 -37 -84 -54.5t-99 -17.5q-31 0 -59.5 8t-51 23t-36 36t-13.5 47q0 28 12 50t30.5 37t41 23t44.5 8
q45 0 86 -15.5t82 -36.5q4 6 7 12.5t6 13.5q12 27 26 64.5t28.5 78t28.5 81.5t28 74.5t26.5 57.5t22.5 30q36 24 70.5 32.5t51.5 8.5q10 0 13 -4t3 -10t-19.5 -29t-37.5 -63q-5 -11 -18 -48t-31.5 -88t-40.5 -108t-45 -107q-6 -13 -12.5 -24.5t-13.5 -22.5q35 -18 70 -30
t71 -12zM135 146q-23 0 -38 -15t-15 -35t17.5 -32.5t41.5 -12.5q33 0 61 13.5t54 43.5q-34 17 -64 27.5t-57 10.5z" />
    <glyph glyph-name="E" unicode="E" horiz-adv-x="476" 
d="M258 -29q-42 0 -84 10t-75.5 32t-55 56.5t-21.5 82.5q0 43 15 77t37.5 61t49 46t49.5 32t39.5 19.5t19.5 7.5q-1 0 -11 5.5t-22 17t-23 29.5t-15 44q-76 7 -113.5 30t-37.5 59q0 25 14.5 49t34.5 43t40.5 31t31.5 12q5 0 7 -3t2 -6q0 -5 -9 -17.5t-9 -30.5
q0 -24 14 -44.5t39 -36.5q16 31 45.5 58t66 47t77.5 31t80 11q27 0 50.5 -6.5t41 -18t27.5 -28t10 -36.5q0 -26 -20 -50t-57.5 -43.5t-90.5 -33t-119 -17.5q1 -17 4.5 -30.5t8.5 -23.5q5 -11 11 -21q8 1 19 3q9 1 21.5 2t28.5 1q59 0 59 -35q0 -15 -17.5 -30.5t-46.5 -15.5
q-18 0 -33 2.5t-26 6.5q-12 4 -22 10q-37 -22 -66 -52q-25 -26 -45.5 -64t-20.5 -89q0 -63 34 -93.5t97 -30.5q54 0 102 30t82 82q1 3 5 7q2 2 6 4.5t9 2.5q9 0 15 -6t6 -14q0 -5 -4 -15l-4 -8q-16 -27 -40 -52.5t-55.5 -45.5t-70.5 -32.5t-85 -12.5zM441 681q-23 0 -46 -10
t-43 -27.5t-36 -42t-24 -53.5q43 0 79.5 7t63.5 20t42 31t15 40q0 16 -15 25.5t-36 9.5z" />
    <glyph glyph-name="F" unicode="F" horiz-adv-x="665" 
d="M574 285q0 20 -11.5 29.5t-39.5 11.5q-7 -53 -23.5 -112t-48.5 -109t-83.5 -82.5t-127.5 -32.5q-52 0 -96 18.5t-75.5 45.5t-49 58.5t-17.5 57.5t19 49.5t46.5 41.5t57.5 29t52 11q25 0 25 -17q0 -7 -3.5 -10.5t-14.5 -11.5q-12 -8 -24.5 -20t-22 -27t-16 -31.5
t-6.5 -34.5q0 -19 7 -36t19.5 -29.5t29.5 -20t37 -7.5q42 0 73.5 23t54 60.5t38 84.5t26.5 94q-23 -2 -42 -4.5t-29 -2.5q-35 0 -55.5 15t-20.5 38q0 19 12.5 36t29 29.5t32.5 19.5t24 7q10 0 10 -10q0 -5 -7.5 -16t-7.5 -28t20 -24t44 -7h1l14 85q8 50 20 82t23 51
q12 22 26 34q-23 12 -67.5 21t-104.5 9q-45 0 -73.5 -20.5t-28.5 -55.5q0 -23 8 -38.5t17 -26t17 -17.5t8 -12q0 -19 -21 -19q-20 0 -46 9t-49 26t-39 40.5t-16 53.5q0 39 20 64t49.5 40t64 21t63.5 6q51 0 94.5 -8.5t75.5 -18.5q38 -11 70 -26q17 12 35 22q16 8 36.5 15
t43.5 7q25 0 39 -13t14 -31q0 -12 -7.5 -23t-19 -19.5t-26 -13.5t-28.5 -5h-12.5t-12.5 1q-4 -2 -15 -8.5t-23 -24t-21 -49t-9 -83.5q0 -12 -0.5 -28.5t-1.5 -36.5q23 4 46 7t52 3q22 0 40 -5.5t18 -30.5q0 -11 -11.5 -25t-27 -27t-31.5 -21.5t-26 -8.5q-14 0 -14 12z" />
    <glyph glyph-name="G" unicode="G" horiz-adv-x="705" 
d="M616 241q-11 -107 -33 -195q45 18 74 42.5t48 54.5q1 3 5 7q2 2 6 4.5t9 2.5q9 0 15 -6t6 -14q0 -6 -4 -14l-4 -8q-24 -38 -64.5 -69.5t-108.5 -58.5q-21 -63 -49.5 -113.5t-62 -85.5t-71.5 -54t-79 -19q-39 0 -71 12t-55 31.5t-35.5 43.5t-12.5 48q0 39 25.5 66t68 45.5
t97.5 29.5t113 19l40 6q14 34 23.5 68.5t13.5 69.5q-25 -24 -54 -42q-25 -16 -56.5 -28.5t-63.5 -12.5q-39 0 -71 12t-55.5 34.5t-36.5 54t-13 71.5q0 50 15 98q-38 8 -70 21t-55 31.5t-36.5 41.5t-13.5 51q0 42 24 78t57 62t67 41t55 15q17 0 17 -11q0 -7 -5.5 -12
t-13.5 -11q-10 -8 -23.5 -19t-25.5 -27.5t-20 -39t-8 -53.5t19 -59t57 -45q30 65 78 123t103.5 101.5t112.5 69t105 25.5q30 0 55.5 -10.5t44 -28t28.5 -39t10 -42.5q0 -44 -32 -90.5t-88 -86t-132.5 -66.5t-166.5 -31q-10 -37 -10 -77q0 -48 21.5 -73t60.5 -25
q26 0 52 14.5t47 32.5q25 20 47 47q12 37 28 66q14 25 33.5 46t44.5 21q17 0 27.5 -9.5t10.5 -29.5q0 -19 -10 -37.5t-22 -32.5q-14 -17 -32 -32zM609 658q-33 0 -72 -22.5t-76.5 -60t-70.5 -86.5t-54 -103q58 6 114 30t100 58t71 72.5t27 72.5q0 17 -10 28t-29 11z
M271 -222q18 0 39.5 13t43.5 36t44 54t42 67l-16 -5q-38 -10 -73 -23t-61.5 -28.5t-42 -33.5t-15.5 -37q0 -43 39 -43z" />
    <glyph glyph-name="H" unicode="H" horiz-adv-x="959" 
d="M1007 703q0 -8 -24 -36q-10 -12 -28.5 -47t-39.5 -83.5t-43 -106t-40 -114.5h9q17 0 31.5 4t26.5 9.5t20.5 9.5t12.5 4q10 0 10 -12q0 -8 -11.5 -24t-30.5 -32.5t-42.5 -30t-48.5 -16.5q-14 -61 -14 -105q0 -35 11.5 -50.5t34.5 -15.5t44 13t38 30q19 18 36 43q2 3 6 7
q3 2 6.5 4.5t8.5 2.5q7 0 13.5 -5.5t6.5 -14.5q0 -4 -1.5 -8t-3.5 -8q-3 -4 -5 -10q-22 -35 -50 -61q-24 -23 -57 -41.5t-74 -18.5q-25 0 -49.5 10t-44 28t-31.5 43.5t-12 56.5q0 25 4 55.5t12 63.5q-36 11 -75 24t-79 24q-21 -70 -48.5 -126.5t-63.5 -96t-82.5 -61
t-106.5 -21.5q-52 0 -95 15t-73.5 41.5t-47.5 61.5t-17 75q0 55 27.5 91.5t72 58t100 30.5t112.5 9q31 0 59.5 -1.5t55.5 -3.5q26 76 50.5 136.5t56.5 111.5q-14 0 -31.5 2t-34.5 5t-33 5t-28 2q-41 0 -69.5 -24t-28.5 -58q0 -23 7.5 -38.5t17 -26t17 -17t7.5 -11.5
q0 -19 -21 -19q-20 0 -46.5 10.5t-50.5 29t-40.5 43.5t-16.5 55q0 34 16.5 59t42 41.5t56 24t58.5 7.5q45 0 76 -5t54 -11t42.5 -11t40.5 -5q22 31 46.5 41t49.5 10q22 0 36 -13.5t14 -31.5q0 -12 -7.5 -24.5t-19 -22t-24.5 -16.5t-25 -9q-14 -20 -34 -81.5t-54 -174.5
q41 -7 80 -14t78 -12q15 48 32.5 96.5t36 92t35.5 79t30 58.5q12 20 30 32.5t37 20t37 10.5t31 3q29 0 29 -14zM198 58q42 0 73.5 22t56.5 58.5t45 83.5t38 97q-10 1 -19.5 1.5t-19.5 0.5q-59 0 -107 -14.5t-82 -38.5t-52.5 -56t-18.5 -67q0 -19 7 -35t19 -27.5t27.5 -18
t32.5 -6.5z" />
    <glyph glyph-name="I" unicode="I" horiz-adv-x="537" 
d="M582 724q17 0 30 -10.5t13 -30.5q0 -14 -6.5 -25.5t-16 -20.5t-21.5 -15t-23 -8q-6 -6 -12 -22.5t-12 -46.5t-14 -76t-19 -111q-13 -81 -37 -148.5t-60 -116t-85 -76t-113 -27.5q-44 0 -80.5 18t-62.5 44t-40.5 55.5t-14.5 52.5q0 8 3.5 14t11.5 6q7 0 10 -4l6 -8
q7 -11 18 -23.5t26 -24t33.5 -19t41.5 -7.5q45 0 81 21t64.5 57.5t50 87.5t37.5 111t29.5 104.5t24.5 74.5q12 35 23 60q-67 -19 -120 -52q-23 -14 -44 -32.5t-38 -42t-27 -52.5t-10 -64q0 -32 12 -48t23 -25q5 -5 10.5 -9t5.5 -10q0 -13 -20 -13q-18 0 -43 11t-48 31
t-39 48.5t-16 63.5q0 38 17.5 70t47 58t68 46t80 36t83.5 27t78 18q23 31 47 42t47 11z" />
    <glyph glyph-name="J" unicode="J" horiz-adv-x="584" 
d="M420 371q17 60 27.5 98t18.5 60q8 26 14 38q-64 -34 -114 -79q-21 -19 -41.5 -42.5t-36.5 -51t-25.5 -58.5t-9.5 -66q0 -32 12 -48t23 -26q5 -4 10.5 -8t5.5 -10q0 -13 -20 -13q-19 0 -44 11t-47.5 31t-38.5 48.5t-16 63.5q0 38 17.5 72.5t47 65t67.5 57.5t78.5 50
t81 42.5t74.5 35.5q23 31 47.5 56.5t50.5 25.5q24 0 38 -13t14 -32q0 -14 -7 -27t-17.5 -23t-23 -16.5t-23.5 -9.5q-6 -6 -13.5 -23t-15.5 -48t-16.5 -77.5t-17.5 -111.5q-11 -79 -24 -156t-32 -147q45 20 72.5 46t47.5 57q1 3 5 7q2 2 6 4.5t9 2.5q9 0 15 -6t6 -14
q0 -3 -1.5 -7t-3.5 -8t-4 -9q-25 -40 -63 -74t-107 -60q-19 -58 -43.5 -106.5t-56.5 -83.5t-72 -54.5t-90 -19.5q-39 0 -72.5 12.5t-58.5 33t-39 45.5t-14 49q0 39 26.5 63t70 39t98.5 24t112 18q29 81 57 176.5t56 195.5zM148 -228q37 0 70 44.5t64 118.5q-39 -9 -72 -21
t-58 -27t-39 -32t-14 -35q0 -20 15 -34t34 -14z" />
    <glyph glyph-name="K" unicode="K" horiz-adv-x="904" 
d="M936 113q-23 -35 -49 -62q-23 -23 -53.5 -42t-65.5 -19q-46 0 -74 16.5t-43 44.5t-19.5 66t-4.5 81q0 28 -3.5 48t-8 33.5t-10 21.5t-9.5 13h-1h-36q-12 -59 -29 -117t-45.5 -104t-73.5 -74.5t-112 -28.5q-46 0 -88 17.5t-74 43.5t-51 56t-19 56q0 30 19 55.5t46.5 43.5
t57.5 28.5t52 10.5q11 0 18 -4.5t7 -10.5q0 -8 -5 -13.5t-15 -15.5q-8 -7 -19 -19t-20.5 -27.5t-16.5 -32.5t-7 -35q0 -38 22.5 -59.5t51.5 -21.5q43 0 74 29t54 74t40 99.5t31 106.5q20 70 34.5 115.5t25.5 71.5q12 31 22 46q-66 -2 -117 -19q-22 -7 -43 -18t-37.5 -26.5
t-26.5 -37.5t-10 -50q0 -32 12 -48t23 -26q5 -4 10.5 -8t5.5 -10q0 -13 -20 -13q-18 0 -44 9t-51 26.5t-42.5 43.5t-17.5 61q0 33 18 59t47.5 46.5t68.5 34.5t81 23.5t85 14.5t80 6q23 31 44 41.5t44 10.5t36 -12t13 -32q0 -14 -7.5 -25.5t-19 -20.5t-24.5 -15t-24 -9
q-6 -6 -11 -22t-10.5 -44t-12.5 -69.5t-18 -99.5q27 12 51.5 32t46.5 45t42 53t38 54q30 44 56 74t49 48t45 26t45 8q11 0 22 -5.5t19.5 -13t13.5 -15.5t5 -12q0 -13 -15 -13q-13 0 -29 -4.5t-35.5 -18.5t-41.5 -39.5t-46 -68.5q-20 -34 -37 -64t-35 -54.5t-37 -43
t-43 -30.5q6 -4 13.5 -12t15.5 -22t14.5 -36.5t11.5 -54.5q9 -69 29.5 -97t46.5 -28q22 0 45 17t43 43q1 3 5 7q2 2 6 4.5t9 2.5q8 0 14.5 -6t6.5 -14q0 -4 -1.5 -7.5t-3.5 -7.5t-4 -9z" />
    <glyph glyph-name="L" unicode="L" horiz-adv-x="874" 
d="M906 113q-21 -35 -49 -62q-24 -23 -58 -42t-77 -19q-38 0 -72 11.5t-66 30t-63 42t-61 47.5q-39 -56 -96.5 -93.5t-139.5 -37.5q-47 0 -88 15.5t-71.5 41.5t-48 59.5t-17.5 70.5q0 34 13.5 61.5t36 47t52 30t61.5 10.5q57 0 114.5 -19.5t114.5 -48.5q12 25 23 51l22 52
q-62 9 -116.5 28.5t-95.5 47.5t-65 62t-24 70q0 38 15.5 65.5t40.5 45.5t56 26.5t62 8.5q56 0 93.5 -22.5t66.5 -51.5q6 -6 10 -12.5t4 -11.5q0 -6 -4 -11t-9 -5q-7 0 -12.5 3.5t-13.5 8.5q-22 16 -46 25t-50 9q-35 0 -56.5 -16t-21.5 -53q0 -26 12.5 -51t36.5 -46t60 -37
t83 -23l9 18q35 77 68 131t67 88.5t70.5 50t78.5 15.5q35 0 62 -12t46 -30.5t28.5 -42t9.5 -45.5q0 -39 -23.5 -79t-67 -73t-105 -56t-136.5 -29q-13 -36 -28.5 -77.5t-36.5 -83.5q71 -39 138 -69.5t130 -30.5q24 0 41.5 5t29 12t19 15.5t12.5 14.5q1 3 5 7q2 2 6 4.5t9 2.5
q8 0 14.5 -6t6.5 -14q0 -4 -1.5 -7.5t-3.5 -7.5t-4 -9zM186 68q57 0 98.5 36t74.5 93q-35 22 -71 35.5t-75 13.5q-55 0 -87 -25.5t-32 -71.5q0 -35 26.5 -58t65.5 -23zM777 659q-21 0 -40.5 -9.5t-41 -35.5t-45.5 -72t-54 -118q45 10 84 32.5t68.5 51t46 59.5t16.5 58
q0 13 -9 23.5t-25 10.5z" />
    <glyph glyph-name="M" unicode="M" horiz-adv-x="1083" 
d="M976 57q20 0 39.5 13t34.5 30q18 18 33 43q1 3 5 7q2 2 6 4.5t9 2.5q8 0 14.5 -6t6.5 -14q0 -4 -1.5 -7.5t-3.5 -7.5t-4 -9q-22 -35 -49 -62q-23 -23 -54.5 -42t-68.5 -19q-26 0 -51.5 10t-45.5 28t-32.5 43.5t-12.5 56.5q0 37 9.5 85t25.5 99.5t35.5 104t39.5 99.5
q-20 -26 -44 -64.5t-48.5 -83t-48.5 -91t-44 -88t-35.5 -73t-22.5 -47.5t-20 -30t-27.5 -25t-27 -17.5t-18.5 -6.5q-12 0 -24.5 9t-23.5 25t-18 36t-7 43q0 15 2 42t5 61t7 71.5t7 73.5t5 67.5t2 52.5q-14 -44 -30.5 -97t-37 -106.5t-45 -103.5t-53 -88.5t-61.5 -62
t-70 -23.5q-46 0 -88 17.5t-74.5 43.5t-51.5 56t-19 56q0 30 19 55.5t46.5 43.5t57.5 28.5t52 10.5q25 0 25 -15q0 -9 -4.5 -14.5t-15.5 -14.5q-8 -6 -19 -17.5t-21 -26t-16.5 -32.5t-6.5 -38q0 -32 20.5 -52.5t49.5 -20.5q28 0 62.5 32t69.5 82.5t68 113.5t59 124
t41.5 113.5t15.5 83.5q0 18 -12 31.5t-40 13.5q-23 0 -55.5 -15.5t-62 -41.5t-50.5 -60t-21 -70q0 -23 8 -40t17 -29t17 -20t8 -13q0 -20 -21 -20q-20 0 -47.5 10.5t-52.5 29.5t-42 44t-17 55q0 46 32.5 88t82 73.5t109 50t114.5 18.5q24 0 54.5 -10.5t57.5 -31.5
t45.5 -53.5t18.5 -75.5q0 -49 -4 -111.5t-8.5 -122t-8.5 -107t-4 -66.5q7 12 22 40.5t35.5 68.5t46.5 88t55 98.5t60.5 100.5t64.5 94q18 25 41 40.5t48.5 24.5t53 12.5t54.5 3.5q29 0 29 -14q0 -5 -5.5 -13t-19.5 -23q-10 -12 -27.5 -46t-38 -81.5t-42 -103.5t-39.5 -112.5
t-29 -109t-11 -91.5q0 -35 16 -50.5t41 -15.5z" />
    <glyph glyph-name="N" unicode="N" horiz-adv-x="855" 
d="M716 69q-7 -16 -20.5 -30t-27.5 -25t-27 -17.5t-19 -6.5q-11 0 -23 9t-22 25t-17 36t-10 43t-5 70.5t-4 101t-3 105t-1 83.5q-13 -43 -29 -94.5t-36.5 -104t-45 -102t-54 -88t-64.5 -61.5t-75 -23q-46 0 -88 17.5t-74.5 43.5t-51.5 56t-19 56q0 30 19 55.5t46.5 43.5
t57.5 28.5t52 10.5q11 0 18 -4.5t7 -10.5q0 -8 -4.5 -14t-15.5 -15q-8 -7 -19 -17t-21 -24.5t-16.5 -32.5t-6.5 -40q0 -32 20.5 -52.5t49.5 -20.5q28 0 62.5 32t69.5 82.5t68 113.5t59 124t41.5 113.5t15.5 83.5q0 18 -12 31.5t-40 13.5q-23 0 -55.5 -15.5t-62 -41.5
t-50.5 -60t-21 -70q0 -23 8 -40t17 -29t17 -20t8 -13q0 -20 -21 -20q-20 0 -47.5 10.5t-52.5 29.5t-42 44t-17 55q0 46 32.5 88t82 73.5t109 50t114.5 18.5q24 0 54 -10.5t57 -31.5t46 -53.5t21 -75.5q2 -46 3 -97.5t3.5 -104t6 -104.5t10.5 -98q5 13 14.5 44t22.5 73.5
t29.5 92t35.5 99.5t39.5 96.5t41.5 82t42.5 57t41.5 21.5q21 0 42 -7t37.5 -17t27 -21.5t10.5 -20.5t-5 -14t-13 -5q-39 0 -74.5 -33.5t-66.5 -86.5t-58.5 -117.5t-50 -127t-40.5 -115t-31 -81.5z" />
    <glyph glyph-name="O" unicode="O" horiz-adv-x="577" 
d="M381 724q48 0 89.5 -17t72.5 -47t48.5 -71t17.5 -90q0 -56 -13.5 -116t-38.5 -116.5t-60.5 -107t-79 -88t-94 -59.5t-106.5 -22q-43 0 -82 17.5t-69 48t-47.5 73t-17.5 93.5q0 66 16 129t44 118.5t65 102.5t79 80.5t87 52.5t89 19zM409 669q-29 0 -57 -15t-50 -41
t-35.5 -61t-13.5 -75q0 -23 6 -41.5t16 -31.5t23 -20t26 -7q11 0 15 2t9 2q12 0 12 -12q0 -5 -5 -11.5t-15 -13.5t-26.5 -11.5t-38.5 -4.5q-20 0 -40.5 10.5t-37 29.5t-27 45t-10.5 57q-11 -24 -19 -57q-8 -29 -13.5 -70.5t-5.5 -97.5q0 -46 10 -82t26.5 -60.5t37.5 -37.5
t43 -13q34 0 65 23.5t58 63t49.5 92.5t38 111.5t24 119.5t8.5 118q0 43 -22 66t-51 23z" />
    <glyph glyph-name="P" unicode="P" horiz-adv-x="814" 
d="M588 239q-42 0 -57.5 8.5t-15.5 16.5q0 7 4.5 12t10.5 5q40 0 79 16.5t70 46.5t50 71.5t19 91.5q0 73 -52 116t-148 43q-70 0 -124.5 -15t-92 -42t-57 -64.5t-19.5 -82.5q0 -23 8 -38.5t17 -26t17 -17t8 -11.5q0 -19 -21 -19q-20 0 -47.5 9t-52 25.5t-42 40t-17.5 53.5
q0 56 36.5 101.5t96 77.5t136 49.5t156.5 17.5q76 0 138 -17.5t105 -48.5t66.5 -72t23.5 -89q0 -62 -31 -110t-76 -81t-96.5 -50t-91.5 -17zM458 573q12 12 31 21.5t38 16t34.5 9.5t20.5 3q19 0 19 -14q0 -3 -5.5 -9t-13.5 -17t-18.5 -27t-19.5 -39q-8 -19 -14.5 -36
t-13 -39.5t-15 -55t-19.5 -83.5q-20 -89 -44.5 -149t-54.5 -96.5t-66.5 -52t-79.5 -15.5q-52 0 -96 18.5t-75.5 45.5t-49 58.5t-17.5 57.5t19 49.5t46.5 41.5t57.5 29t52 11q25 0 25 -16q0 -8 -3.5 -12t-14.5 -11q-26 -17 -47.5 -47.5t-21.5 -65.5q0 -19 7 -36t19.5 -29.5
t29.5 -20t37 -7.5q46 0 85.5 63t74.5 203q13 56 23.5 95.5t20.5 68t21.5 49t27.5 38.5z" />
    <glyph glyph-name="Q" unicode="Q" horiz-adv-x="642" 
d="M545 571q0 45 -26.5 70.5t-65.5 25.5q-65 0 -124 -34t-103.5 -88.5t-70.5 -122.5t-26 -135q0 -41 18 -62t46 -21t52 21.5t42 54.5t28 72t10 74q0 19 -4 33t-9.5 23t-9.5 15t-4 11q0 6 6.5 11.5t11.5 5.5q14 0 33 -9.5t36.5 -26t29.5 -38.5t12 -46q0 -42 -20.5 -87
t-55 -82.5t-80.5 -61.5t-97 -24q-24 0 -54.5 9.5t-57 29t-44.5 50t-18 73.5q0 46 16 94.5t45.5 94.5t71 86.5t92 71t109 48t121.5 17.5q50 0 92 -16t72 -44t47 -64.5t17 -76.5q0 -71 -31 -144t-82 -139.5t-117 -122t-135 -90.5q26 -20 50.5 -39t48.5 -34t47.5 -24t47.5 -9
q20 0 36.5 5t28.5 11.5t21 11.5t14 5t10 -3t5 -10q0 -8 -14 -30t-35.5 -45.5t-47.5 -41.5t-51 -18q-29 0 -58 18.5t-59 47t-60 61.5t-60 62q-26 -8 -52 -13t-51 -5q-38 0 -67 16t-29 48q0 22 22.5 40t57.5 18q62 0 129 -40q57 35 110 94t93.5 129.5t65 146t24.5 142.5z" />
    <glyph glyph-name="R" unicode="R" horiz-adv-x="875" 
d="M735 -10q-56 0 -94.5 20t-54.5 62q-9 24 -12 58.5t-3 82.5q0 26 -6 42t-14 25q-27 -3 -55 -3h-20q-20 -81 -44 -136t-53.5 -88.5t-64.5 -48t-77 -14.5q-52 0 -96 18.5t-75.5 45.5t-49 58.5t-17.5 57.5q0 31 19 57t46.5 44.5t57.5 29t52 10.5q11 0 18 -5t7 -11
q0 -8 -3.5 -11.5t-14.5 -11.5q-9 -7 -20.5 -20t-21 -29t-16 -34.5t-6.5 -36.5q0 -19 6.5 -36t18 -30.5t27.5 -21.5t36 -8q46 0 85.5 63t74.5 203q13 55 23.5 94.5t20.5 68.5t21.5 49.5t27.5 38.5q12 12 31 21.5t38 16t34.5 9.5t20.5 3q19 0 19 -14q0 -3 -5.5 -9t-13.5 -17
t-18.5 -27t-19.5 -39q-7 -18 -13 -33t-12 -34.5t-13.5 -46t-16.5 -66.5q48 1 91.5 17t76.5 43t52.5 63t19.5 77q0 60 -42.5 94.5t-138.5 34.5q-70 0 -124.5 -14.5t-92 -40t-57 -59t-19.5 -71.5q0 -23 8 -38.5t17 -26t17 -17t8 -11.5q0 -19 -21 -19q-20 0 -47.5 9t-52 25.5
t-42 40t-17.5 53.5q0 47 36.5 88.5t96 72t136 48.5t156.5 18q76 0 135 -15t98.5 -40.5t60 -61t20.5 -75.5q0 -41 -18.5 -77.5t-50 -66.5t-73.5 -53t-88 -37q14 -8 27.5 -27.5t18.5 -57.5q12 -83 31 -119.5t57 -36.5q20 0 39.5 13t34.5 30q18 18 33 43q1 3 5 7q2 2 6 4.5
t9 2.5q8 0 14.5 -6t6.5 -14q0 -4 -1.5 -7.5t-3.5 -7.5t-4 -9q-22 -35 -49 -62q-23 -23 -54.5 -42t-68.5 -19z" />
    <glyph glyph-name="S" unicode="S" horiz-adv-x="584" 
d="M502 665q-26 0 -48 -9.5t-38 -25t-25 -36t-9 -42.5q0 -31 11 -61t27 -59t35 -58t35 -58t27 -58t11 -59q0 -45 -21 -83t-55.5 -66t-78 -44t-88.5 -16q-64 0 -114 17.5t-84 44.5t-52 60t-18 65q0 31 23 59.5t55.5 49.5t67.5 33.5t59 12.5q17 0 17 -17q0 -7 -5 -11.5
t-16 -12.5q-12 -10 -24 -20.5t-21.5 -23.5t-15.5 -29.5t-6 -38.5q0 -20 8.5 -40.5t24 -37.5t37.5 -28t49 -11q57 0 92 33t35 90q0 37 -22.5 77t-49 82.5t-49 88t-22.5 93.5q0 47 24 83.5t61.5 62t84 39t91.5 13.5q28 0 53 -5t44 -15t30.5 -25.5t11.5 -36.5q0 -27 -17 -53
t-40 -47t-47 -34t-37 -13q-7 0 -12 5t-5 10t2.5 9.5t10.5 14.5q14 17 28 41.5t14 48.5q0 20 -13.5 30.5t-35.5 10.5z" />
    <glyph glyph-name="T" unicode="T" horiz-adv-x="467" 
d="M37 74q10 0 19.5 -2.5t23.5 -2.5q51 0 88 37.5t65 95t48 125.5t37 129q15 57 35 89t37 49q20 19 42 24q-23 12 -72.5 23.5t-109.5 11.5q-45 0 -73.5 -20.5t-28.5 -55.5q0 -23 7.5 -38.5t17 -26t17 -17.5t7.5 -12q0 -19 -21 -19q-20 0 -45.5 9t-48.5 26t-39 40.5t-16 53.5
q0 39 20 64t49.5 40t64 21t63.5 6q50 0 90 -5t81 -11.5t88 -11.5t111 -5q39 0 62 5t36 11.5t19.5 11.5t11.5 5q9 0 15 -6t6 -14q0 -7 -11.5 -26t-31 -38.5t-44 -35t-51.5 -15.5q-24 0 -45 2.5t-37 5.5q-18 4 -34 9q-4 -2 -10 -9t-14 -24.5t-17.5 -48t-19.5 -78.5
q-9 -40 -17.5 -89.5t-21 -100t-30.5 -98.5t-44.5 -85.5t-64 -60t-88.5 -22.5q-30 0 -56.5 6.5t-46 16.5t-30.5 21.5t-11 20.5q0 10 5 14.5t13 4.5z" />
    <glyph glyph-name="U" unicode="U" horiz-adv-x="836" 
d="M696 -10q-27 0 -53 10t-46.5 28t-33.5 43.5t-13 56.5v17t2 19q-18 -27 -43.5 -57.5t-57 -56.5t-68 -43t-76.5 -17q-28 0 -53 9t-44 25t-30.5 37t-11.5 44q0 32 14.5 74.5t36 89.5t46.5 96t46.5 95t36 87t14.5 72q0 18 -7.5 31.5t-35.5 13.5q-23 0 -56.5 -15.5t-65 -41.5
t-54 -60t-22.5 -70q0 -23 8 -40t17 -29t17 -20t8 -13q0 -20 -21 -20q-20 0 -47.5 10.5t-52.5 29.5t-42.5 44t-17.5 55q0 46 35.5 88t89 73.5t116 50t117.5 18.5q61 0 100.5 -28.5t39.5 -76.5q0 -33 -13.5 -75.5t-34 -88.5t-44 -94t-44 -93.5t-34 -85t-13.5 -69.5
q0 -43 44 -43q24 0 55.5 25.5t64 63t63 78.5t51.5 73q14 50 32.5 101t37.5 96.5t36.5 83t31.5 60.5q12 20 30 32.5t37 20t37 10.5t31 3q29 0 29 -14q0 -8 -24 -36q-10 -12 -27.5 -46t-38.5 -81.5t-42.5 -103.5t-39.5 -112.5t-29 -109t-11 -91.5q0 -35 16.5 -50.5t39.5 -15.5
q20 0 39.5 13t34.5 30q18 18 33 43q1 3 5 7q2 2 6 4.5t9 2.5q8 0 14.5 -6t6.5 -14q0 -4 -1.5 -7.5t-3.5 -7.5t-4 -9q-22 -35 -49 -62q-23 -23 -54.5 -42t-68.5 -19z" />
    <glyph glyph-name="V" unicode="V" horiz-adv-x="739" 
d="M419 121q51 45 107 109.5t103.5 137.5t78.5 149.5t31 145.5q0 17 -4 29.5t-4 18.5q0 13 12 13q14 0 35 -8t40 -21.5t32.5 -31.5t13.5 -39q0 -43 -20 -92.5t-53.5 -102.5t-77 -107t-91 -105.5t-96 -98t-90.5 -84.5q-20 -18 -37 -31t-31 -13q-10 0 -24 10.5t-26.5 27
t-21.5 35.5t-9 37q0 35 10 79t24.5 91t31.5 96t31.5 95t24.5 86.5t10 71.5q0 18 -10 31.5t-33 13.5q-38 0 -78 -24.5t-73 -61.5t-54 -80t-21 -79q0 -29 7.5 -48t17 -32t17 -20t7.5 -12q0 -19 -21 -19q-20 0 -48.5 12t-55 32t-45.5 47t-19 57q0 35 19 70.5t51 67.5t73 59.5
t85 47.5t87 31.5t80 11.5q30 0 55 -9t43 -24t28 -36t10 -45q0 -35 -9 -77.5t-22.5 -88t-29.5 -92t-29.5 -89t-22.5 -79.5t-9 -63z" />
    <glyph glyph-name="W" unicode="W" horiz-adv-x="1003" 
d="M929 621q0 43 -6 62.5t-6 27.5q0 13 12 13q14 0 35.5 -8t41.5 -21.5t34.5 -31.5t14.5 -39q0 -62 -13.5 -132.5t-38.5 -141t-59 -135.5t-74.5 -115t-87 -80t-94.5 -30q-42 0 -66.5 17.5t-38.5 39.5q-16 26 -22 58q-30 -32 -63 -58q-29 -22 -65 -39.5t-75 -17.5
q-24 0 -46 7.5t-39.5 21.5t-27.5 34t-10 46q0 35 13.5 77t34 88t44.5 93.5t44.5 94t34 89t13.5 78.5q0 18 -10 31.5t-33 13.5q-30 0 -69.5 -24.5t-74 -61.5t-58.5 -80t-24 -79q0 -29 7.5 -48t17 -32t17 -20t7.5 -12q0 -19 -21 -19q-20 0 -48.5 12t-55 32t-45.5 47t-19 57
q0 35 19 70.5t51 67.5t73 59.5t85 47.5t87.5 31.5t79.5 11.5q61 0 98.5 -30.5t37.5 -92.5q0 -31 -12.5 -70.5t-31.5 -84t-41 -91t-41 -90t-31.5 -81.5t-12.5 -66q0 -20 12 -31.5t31 -11.5t43 17t45 38q25 24 50 55q10 88 31 158q9 30 20.5 58t27.5 50.5t36 36t44 13.5
q25 0 40.5 -15.5t15.5 -38.5q0 -18 -6 -40t-16 -45.5t-22.5 -47t-25.5 -45.5q-31 -52 -70 -105q4 -25 12 -44q7 -17 18 -30t29 -13q32 0 63 25.5t58 67.5t49.5 98t38.5 116t25 121.5t9 115.5z" />
    <glyph glyph-name="X" unicode="X" horiz-adv-x="861" 
d="M721 -10q-39 0 -72 12t-57.5 33.5t-38 51.5t-13.5 66v89q-36 -50 -69 -96t-64 -80.5t-60 -55t-57 -20.5q-46 0 -88 17.5t-74.5 43.5t-51.5 56t-19 56q0 30 19 55.5t46.5 43.5t58 28.5t52.5 10.5q11 0 17.5 -4.5t6.5 -10.5q0 -8 -4.5 -14t-15.5 -16q-8 -7 -19 -18.5
t-20.5 -26t-16.5 -32t-7 -36.5q0 -36 17 -52t43 -16q31 0 62.5 19.5t67.5 56.5t78.5 91.5t96.5 123.5q-1 56 -1 114.5v126.5q0 29 -9.5 43t-37.5 14q-23 0 -52.5 -14t-55.5 -38.5t-44 -56.5t-18 -68q0 -23 8 -40t17 -29.5t17 -20.5t8 -13q0 -19 -21 -19q-20 0 -47.5 10.5
t-52.5 29t-42 43.5t-17 55q0 47 31 87.5t79 70t106 46.5t112 17q30 0 56.5 -8t46 -23t31 -36t12.5 -47q1 -13 1 -33.5t1 -46.5q32 39 64.5 74.5t64 62t61.5 42t57 15.5q15 0 29.5 -8t26.5 -18.5t19 -21.5t7 -17q0 -10 -6 -15t-14 -5q-36 0 -73.5 -17t-76.5 -47t-79 -71
t-79 -89v-205q0 -69 24 -111t62 -42q20 0 39.5 13t34.5 30q18 18 33 43q1 3 5 7q2 2 6 4.5t9 2.5q8 0 14.5 -6t6.5 -14q0 -4 -1.5 -7.5t-3.5 -7.5t-4 -9q-22 -35 -49 -62q-23 -23 -54.5 -42t-68.5 -19z" />
    <glyph glyph-name="Y" unicode="Y" horiz-adv-x="773" 
d="M805 113q-23 -38 -68.5 -72.5t-126.5 -62.5q-22 -60 -47.5 -108.5t-57.5 -83t-71.5 -53t-89.5 -18.5q-39 0 -72.5 12.5t-58.5 33t-39 45.5t-14 49q0 39 27.5 64t72.5 40.5t101.5 24.5t114.5 16q5 0 8 1q16 40 32.5 86.5t33.5 100.5q-17 -16 -39 -34t-47.5 -33t-54 -25
t-56.5 -10q-26 0 -50.5 9.5t-44 25.5t-31.5 37.5t-12 44.5q0 45 23 98.5t50.5 108.5t50.5 109t23 100q0 18 -7.5 31.5t-35.5 13.5q-23 0 -56.5 -15.5t-65 -41.5t-54 -60t-22.5 -70q0 -23 8 -40t17 -29t17 -20t8 -13q0 -20 -21 -20q-20 0 -46 10.5t-49 29.5t-39 44t-16 55
q0 46 34 88t85.5 73.5t112.5 50t116 18.5q30 0 57 -9t46.5 -24t31 -36t11.5 -45q0 -51 -20 -103t-43.5 -101t-43.5 -93t-20 -78q0 -23 12 -40.5t35 -17.5q24 0 50 17t51 41.5t46.5 51.5t35.5 47l12 37q18 56 31.5 94t27 67.5t28.5 56.5t35 62q12 20 28 32.5t33.5 20t34 10.5
t29.5 3q29 0 29 -14q0 -8 -24 -36q-9 -11 -25 -40t-35.5 -70t-39.5 -91t-35 -102q-26 -91 -49.5 -173.5t-46.5 -154.5q56 21 90 49.5t53 57.5q1 3 5 7q2 2 6 4.5t9 2.5q8 0 14.5 -6t6.5 -14q0 -4 -1.5 -7.5t-3.5 -7.5t-4 -9zM308 -228q42 0 78 42t72 125q-42 -8 -78 -20.5
t-63 -28t-42.5 -33.5t-15.5 -37q0 -20 15 -34t34 -14z" />
    <glyph glyph-name="Z" unicode="Z" horiz-adv-x="612" 
d="M644 113q-22 -35 -50 -62q-24 -23 -58 -42t-76 -19t-69.5 7t-52.5 16t-53.5 16t-71.5 7q-21 0 -40 -7.5t-35 -16.5t-29.5 -16.5t-25.5 -7.5t-26.5 8t-27.5 20.5t-21.5 28t-8.5 29.5q0 11 13.5 33t36.5 51.5t53 64t63.5 70.5t67.5 72t65 68q46 47 80.5 81.5l58.5 58.5
t40 38t25 20q-34 0 -87 8.5t-113 8.5q-45 0 -75.5 -18t-30.5 -53q0 -23 8 -38.5t17 -26t17 -17.5t8 -12q0 -19 -21 -19q-20 0 -48 10t-54 27.5t-44.5 42t-18.5 54.5q0 26 14 49t39 40t58.5 27t72.5 10q100 0 171 -10t104 -10q17 0 31.5 3t28 7t26.5 7t26 3q10 0 22.5 -7
t23 -16.5t17.5 -19t7 -14.5q0 -10 -6 -15.5t-19 -13.5q-16 -10 -45 -35.5t-67 -61.5t-83 -81.5t-92 -94.5q-51 -53 -96 -103t-80 -90q-41 -47 -77 -89q23 10 49 18q23 7 52 12.5t61 5.5t58.5 -3.5t51 -8t49 -8t53.5 -3.5q26 0 45 7t32 16q15 11 25 24q1 3 5 7q2 2 6 4.5
t9 2.5q8 0 14.5 -6t6.5 -14q0 -4 -1.5 -7.5t-3.5 -7.5t-4 -9z" />
    <glyph glyph-name="bracketleft" unicode="[" horiz-adv-x="219" 
d="M-2 729q0 14 7.5 21t18.5 7h152q6 1 10 -2q4 -2 7.5 -7t3.5 -13q0 -17 -6.5 -22.5t-17.5 -5.5h-65v-728h65q11 0 17.5 -5.5t6.5 -22.5q0 -9 -3.5 -13.5t-7.5 -6.5q-4 -3 -10 -2h-65q-26 0 -51 0.5t-36 0.5q-18 0 -22 10t-4 15v774z" />
    <glyph glyph-name="backslash" unicode="\" horiz-adv-x="337" 
d="M-19 705q0 4 7.5 8t19 7t25 5t26.5 2q8 0 14 -5t8 -10l244 -685q5 -12 5 -17q0 -11 -10.5 -13.5t-23.5 -2.5h-42q-16 0 -22 14l-245 674q-2 5 -4 11t-2 12z" />
    <glyph glyph-name="bracketright" unicode="]" horiz-adv-x="275" 
d="M225 -43q0 -14 -7.5 -20.5t-18.5 -6.5t-36 -0.5t-51 -0.5h-65q-7 -1 -11 2q-4 2 -7 6.5t-3 13.5q0 17 6.5 22.5t17.5 5.5h65v728h-65q-11 0 -17.5 5.5t-6.5 22.5q0 8 3 13t7 7q4 3 11 2h152q18 0 22 -10.5t4 -15.5v-774z" />
    <glyph glyph-name="asciicircum" unicode="^" horiz-adv-x="411" 
d="M244 635q45 -62 80 -112q15 -21 29.5 -42t25.5 -37.5l18 -27t7 -11.5q0 -6 -8.5 -11.5t-19.5 -9t-22 -6t-16 -2.5q-6 0 -9 1.5t-8 7.5l-114 170l-110 -168q-6 -9 -19 -9q-3 0 -13.5 1.5t-22 5t-21 8.5t-9.5 12q0 1 6.5 12t18 28t25.5 38t29 43l80 116q7 8 17 11.5t18 3.5
q6 0 16 -4t22 -18z" />
    <glyph glyph-name="underscore" unicode="_" horiz-adv-x="635" 
d="M45 -109q-15 0 -15 16q0 5 2.5 14.5t7 18.5t10.5 16t12 7h533q11 0 14.5 -3t3.5 -11q0 -5 -3 -14.5t-8 -19.5t-11.5 -17t-12.5 -7h-533z" />
    <glyph glyph-name="grave" unicode="`" horiz-adv-x="202" 
d="M63 656q16 0 24 -20q7 -17 17.5 -36t23.5 -35.5t26 -30t24 -20.5q10 -5 13 -9t3 -10t-4.5 -10.5t-13.5 -4.5q-11 0 -28.5 5.5t-37.5 15t-39.5 21.5t-35.5 26q-15 13 -19.5 21.5t-4.5 20.5q0 8 6 19.5t14 22t17 17.5t15 7z" />
    <glyph glyph-name="a" unicode="a" horiz-adv-x="475" 
d="M507 113q-22 -35 -49 -62q-23 -23 -54.5 -42t-68.5 -19q-42 0 -71 21.5t-34 63.5q-20 -25 -43 -43q-20 -16 -45 -29t-54 -13q-20 0 -38.5 7.5t-32 21.5t-21.5 33t-8 42q0 54 20.5 107t53.5 95.5t74 68.5t82 26q30 0 51 -7.5t34 -16.5q15 -11 24 -23q11 0 23.5 -2.5t23 -8
t17.5 -14.5t7 -22q0 -11 -9 -36t-20 -55.5t-20 -63t-9 -57.5q0 -12 7.5 -20t20.5 -8q20 0 39.5 13t34.5 30q18 18 33 43q1 3 5 7q2 2 6 4.5t9 2.5q8 0 14.5 -6t6.5 -14q0 -4 -1.5 -7.5t-3.5 -7.5t-4 -9zM275 290q0 22 -10.5 32.5t-25.5 10.5q-22 0 -45 -23t-41.5 -56.5
t-30.5 -72.5t-12 -70q0 -45 29 -45q18 0 41.5 24t44.5 59t35.5 73.5t14.5 67.5z" />
    <glyph glyph-name="b" unicode="b" horiz-adv-x="445" 
d="M477 113q-17 -25 -43 -43q-22 -17 -54.5 -30t-76.5 -13h-16.5t-17.5 2q-51 -39 -120 -39q-26 0 -53 11.5t-50 32t-37.5 48t-14.5 59.5q0 58 10 122t28 126t43.5 117.5t56.5 97.5t66.5 67t74.5 25q16 0 32.5 -8.5t29 -22t20.5 -29t8 -28.5q0 -21 -10.5 -46.5t-26 -52
t-34.5 -52t-35 -45.5t-27 -32.5t-12 -13.5q1 1 8 5t16.5 8.5t22 8t25.5 3.5q20 0 38 -9.5t31.5 -25t21.5 -34.5t8 -38q0 -51 -18 -107t-54 -101q3 -1 10 -1q26 0 47 10.5t37 23.5q18 15 34 34q1 3 5 7q2 2 6 4.5t9 2.5q8 0 14.5 -6t6.5 -14q0 -4 -1.5 -7.5t-3.5 -7.5t-4 -9z
M106 116q0 -31 11.5 -52t31.5 -21q16 0 33 14q-8 8 -8 17q0 8 5.5 17t13.5 16t16.5 11.5t14.5 4.5h3q17 35 27 75.5t10 75.5q0 29 -7 45t-32 16q-13 0 -33.5 -13.5t-39.5 -40.5t-32.5 -68t-13.5 -97zM304 609q0 20 -19 20q-14 0 -33 -24.5t-39.5 -64.5t-40 -92t-33.5 -107
q25 24 54 60.5t54 75t41 74t16 58.5z" />
    <glyph glyph-name="c" unicode="c" horiz-adv-x="370" 
d="M402 113q-26 -35 -59 -62q-29 -23 -70.5 -42t-95.5 -19q-32 0 -64.5 8t-58.5 26t-42 47t-16 71q0 50 20.5 95.5t53 79.5t72.5 54t78 20q27 0 48 -8.5t35.5 -22.5t22.5 -31.5t8 -34.5q0 -13 -5.5 -26.5t-14.5 -24.5t-19.5 -18t-20.5 -7q-20 0 -35.5 12.5t-15.5 29.5
q0 13 6 21t13.5 14.5t14 12t6.5 13.5t-8.5 14.5t-20.5 6.5q-22 0 -42.5 -16.5t-36.5 -43.5t-26 -60.5t-10 -67.5q0 -52 28.5 -77t70.5 -25q34 0 62 14t48 31q24 20 42 46q2 3 6 7q3 2 7 4.5t9 2.5q9 0 15 -6t6 -14q0 -4 -2 -7.5t-4 -7.5q-3 -4 -5 -9z" />
    <glyph glyph-name="d" unicode="d" horiz-adv-x="539" 
d="M282 319l-8 8q-4 3 -9 5.5t-11 2.5q-24 0 -48.5 -23t-44 -56.5t-31.5 -71.5t-12 -69q0 -27 10 -42t27 -15q16 0 35 12.5t36 28.5q19 18 39 42q1 45 5.5 88.5t11.5 89.5zM389 277q44 72 79 138q15 28 29.5 57.5t25.5 56.5t18 50t7 40t-14 17q-13 0 -32 -31.5t-40 -82.5
t-40.5 -115t-32.5 -130zM399 -10q-28 0 -51 10.5t-39.5 25.5t-26 32t-10.5 30q-24 -28 -51 -49q-23 -19 -52.5 -34t-60.5 -15q-21 0 -41.5 9t-36.5 25t-26 39t-10 50q0 61 24 112.5t60 88t77.5 57t76.5 20.5q14 0 26 -2.5t20 -5.5q10 -4 17 -8q17 61 41 119t52.5 103
t60.5 72t67 27q15 0 30.5 -8t28 -21t20.5 -30t8 -34q0 -18 -9.5 -45t-25 -58.5t-35 -65.5t-40.5 -67q-48 -77 -110 -164q-2 -13 -3 -25.5t-1 -24.5q0 -42 13 -69t41 -27q20 0 39 13t34 30q18 18 33 43q1 3 5 7q2 2 6 4.5t9 2.5q8 0 14.5 -6t6.5 -14q0 -4 -1.5 -7.5
t-3.5 -7.5t-4 -9q-22 -35 -49 -62q-23 -23 -54.5 -42t-68.5 -19z" />
    <glyph glyph-name="e" unicode="e" horiz-adv-x="357" 
d="M120 185q27 0 51 15t41.5 36.5t27.5 44.5t10 39q0 20 -18 20q-21 0 -41 -17t-35.5 -41t-25.5 -51t-10 -46zM389 113q-22 -35 -55 -62q-28 -23 -69.5 -42t-98.5 -19q-38 0 -70 11t-55 30.5t-36 46.5t-13 59q0 57 21 104t53 80.5t69.5 51.5t70.5 18q23 0 43 -9t35 -23.5
t23.5 -33.5t8.5 -39q0 -18 -8 -43.5t-26.5 -48.5t-50 -39.5t-78.5 -16.5q-11 0 -23 3q-7 1 -15 3q0 -45 26 -69t62 -24q35 0 64 14.5t49 31.5q24 20 41 46q1 3 5 7q2 2 6 4.5t9 2.5q8 0 14.5 -6t6.5 -14q0 -4 -1.5 -7.5t-3.5 -7.5t-4 -9z" />
    <glyph glyph-name="f" unicode="f" horiz-adv-x="307" 
d="M91 33q-2 -20 -4 -41q-2 -18 -3 -39.5t-1 -41.5q0 -59 13.5 -82t26.5 -23q9 0 15.5 6.5t10.5 16.5t6 22.5t2 24.5q0 32 -10.5 61t-22.5 50q-15 25 -33 46zM336 609q0 20 -21 20q-14 0 -34.5 -31.5t-44 -82.5t-46.5 -115.5t-42 -130.5q16 12 36.5 38t41.5 58.5t40.5 69
t35 70t25 61.5t9.5 43zM339 113q-10 -14 -24.5 -31.5t-35 -32.5t-49 -25.5t-66.5 -10.5q16 -14 28 -34q11 -17 20 -42.5t9 -57.5q0 -19 -7 -39.5t-20 -38t-32 -28.5t-43 -11q-22 0 -48 8.5t-48 28.5t-37 52.5t-15 80.5q0 81 13.5 169.5t36.5 173.5t54.5 161.5t67.5 134
t75 91.5t77 34q17 0 33.5 -8.5t29.5 -22t21 -29t8 -28.5q0 -21 -12 -54t-32.5 -72.5t-47 -82.5t-56 -82.5t-60 -73.5t-57.5 -56q-8 -23 -13 -49t-7 -52q7 -9 17 -15q8 -5 20 -9.5t28 -4.5q26 0 47 8t38 20.5t30.5 28t24.5 29.5q1 3 5 7q2 2 6 4.5t9 2.5q8 0 14.5 -6t6.5 -14
q0 -4 -1.5 -7.5t-3.5 -7.5t-4 -9z" />
    <glyph glyph-name="g" unicode="g" horiz-adv-x="460" 
d="M396 297q0 -8 -4.5 -28t-12 -50t-17.5 -67.5t-22 -80.5l-9 -33q46 25 77 50.5t52 54.5q2 3 6 7q3 2 7 4.5t9 2.5q9 0 15 -6t6 -14q0 -3 -2 -7l-4 -8q-3 -4 -5 -9q-13 -17 -28.5 -33t-36.5 -32t-48 -32t-62 -33q-12 -47 -28.5 -94.5t-41 -86t-58.5 -63t-82 -24.5
q-23 0 -43.5 7.5t-36 20t-24.5 30t-9 37.5q0 26 15.5 50t43.5 45.5t67.5 41.5t87.5 38q7 26 12 49.5t8 40.5q-20 -25 -43 -43q-20 -16 -45 -29t-54 -13q-20 0 -38.5 7.5t-32 21.5t-21.5 33t-8 42q0 54 20.5 107t53.5 95.5t74 68.5t82 26q30 0 51 -7.5t34 -16.5
q15 -11 24 -23q11 0 23.5 -2.5t23 -8t17.5 -14.5t7 -22zM274 290q0 22 -11 32.5t-26 10.5q-22 0 -45 -23t-41.5 -56.5t-30.5 -72.5t-12 -70q0 -45 29 -45q18 0 41.5 24t45 59t36 73.5t14.5 67.5zM82 -232q17 0 32.5 13.5t29.5 35.5t25.5 50.5t21.5 58.5q-29 -16 -52.5 -35.5
t-40 -38.5t-25.5 -36t-9 -28q0 -20 18 -20z" />
    <glyph glyph-name="h" unicode="h" horiz-adv-x="488" 
d="M348 -10q-57 0 -92 30.5t-35 79.5q0 27 8 53.5t18 50.5t18 44t8 34q0 29 -22 29q-26 0 -53 -21.5t-48.5 -61t-35 -95t-13.5 -123.5q0 -9 -3.5 -14.5t-14.5 -5.5q-15 0 -32 3t-32 9.5t-24.5 17t-9.5 24.5q0 42 11 106.5t32 137t50 145.5t65 131.5t78 95t89 36.5
q17 0 33 -8.5t29 -22t20.5 -29t7.5 -28.5q0 -31 -20 -71.5t-44.5 -77.5t-45.5 -63.5t-24 -29.5q1 1 8.5 5t18.5 8.5t25.5 8t30.5 3.5q11 0 22.5 -6t20.5 -16t15 -22t6 -25q0 -23 -10 -50.5t-22 -57t-22 -60t-10 -59.5q0 -17 8.5 -27.5t23.5 -10.5q20 0 39.5 13t34.5 30
q18 18 33 43q1 3 5 7q2 2 6 4.5t9 2.5q8 0 14.5 -6t6.5 -14q0 -4 -1.5 -7.5t-3.5 -7.5t-4 -9q-22 -35 -49 -62q-23 -23 -54.5 -42t-68.5 -19zM351 609q0 20 -19 20q-14 0 -33.5 -23.5t-42 -65t-47 -98.5t-48.5 -124q17 14 38 37t42 50t41 57t35 57.5t24.5 51t9.5 38.5z" />
    <glyph glyph-name="i" unicode="i" horiz-adv-x="253" 
d="M258 576q0 -20 -6.5 -38.5t-18 -33t-26 -23t-30.5 -8.5q-22 0 -38 15t-16 42q0 19 7 37t18.5 32.5t26.5 23t32 8.5q22 0 36.5 -15t14.5 -40zM114 95q0 -17 8.5 -27.5t23.5 -10.5q20 0 39.5 13t34.5 30q18 18 33 43q1 3 5 7q2 2 6 4.5t9 2.5q8 0 14.5 -6t6.5 -14
q0 -4 -1.5 -7.5t-3.5 -7.5t-4 -9q-22 -35 -49 -62q-23 -23 -54.5 -42t-68.5 -19q-57 0 -92 30.5t-35 79.5q0 27 9 65t21 77t25.5 74t22.5 56q4 8 11 13.5t16 5.5q11 0 25 -7t26 -16t20 -18.5t8 -15.5q0 -23 -9 -49.5t-19.5 -56.5t-19 -63.5t-8.5 -69.5z" />
    <glyph glyph-name="j" unicode="j" horiz-adv-x="215" 
d="M59 372q7 19 28 19q11 0 24.5 -7t25.5 -16t20 -18.5t8 -15.5q0 -12 -6.5 -39.5t-18 -65.5t-26.5 -84.5t-31 -95.5q-2 -3 -2.5 -6.5t-1.5 -6.5q48 24 81 50.5t55 56.5q2 3 6 7q3 2 7 4.5t9 2.5q9 0 15 -6t6 -14q0 -4 -2 -8l-4 -8q-3 -4 -5 -8q-30 -38 -74.5 -69.5
t-113.5 -62.5q-18 -51 -39.5 -99t-49.5 -85t-64 -59.5t-82 -22.5q-23 0 -43.5 7.5t-36 20t-24.5 30t-9 37.5q0 27 16.5 52t47.5 46.5t74 41t96 36.5q5 13 8.5 25.5t7.5 26.5q36 120 59 199.5t39 134.5zM241 576q0 -20 -6.5 -38.5t-18 -33t-26 -23t-30.5 -8.5q-22 0 -38 15
t-16 42q0 19 7 37t18.5 32.5t26.5 23t32 8.5q22 0 36.5 -15t14.5 -40zM-204 -232q20 0 38 12.5t34 33.5t30 49.5t26 60.5q-31 -15 -57 -33.5t-45 -37.5t-30 -37t-11 -32q0 -16 15 -16z" />
    <glyph glyph-name="k" unicode="k" 
d="M498 113q-23 -35 -50 -62q-23 -23 -54.5 -42t-67.5 -19q-27 0 -59 16.5t-59.5 41t-46 52.5t-18.5 51q0 10 22.5 22.5t49 29.5t49 39t22.5 52q0 28 -23 28q-27 0 -55.5 -22t-52.5 -62.5t-39 -98t-15 -129.5q0 -9 -3.5 -14.5t-14.5 -5.5q-10 0 -26.5 2.5t-32.5 8.5
t-27.5 16t-11.5 26q0 44 11 110t32 138.5t50.5 145t65.5 130t78 93.5t89 36q16 0 32 -8.5t29 -22t20.5 -29t7.5 -28.5q0 -21 -10.5 -46.5t-26 -52t-33.5 -51.5t-34 -44.5t-27 -32t-12 -13.5q1 1 9 4.5t19.5 7.5t26.5 7.5t31 3.5q26 0 46.5 -23t20.5 -54q0 -29 -25 -54
t-55 -45q-35 -23 -79 -43q0 -8 9.5 -23t25.5 -31t37.5 -27.5t44.5 -11.5q22 0 40 10t31 22q15 14 27 32q1 3 5 7q2 2 6 4.5t9 2.5q8 0 14.5 -6t6.5 -14q0 -4 -1.5 -7.5t-3.5 -7.5t-4 -9zM351 609q0 20 -18 20q-14 0 -33.5 -22t-42 -62t-47 -95.5t-48.5 -121.5q16 15 36.5 37
t41.5 48.5t41 54.5t35.5 54t25 49t9.5 38z" />
    <glyph glyph-name="l" unicode="l" horiz-adv-x="286" 
d="M321 615q0 14 -12 14q-14 0 -36.5 -31t-47 -81t-48.5 -112t-39 -125q17 14 37.5 40t40.5 58.5t39 67.5t33.5 67.5t23.5 59.5t9 42zM146 -10q-30 0 -57.5 10t-48.5 29.5t-33.5 47.5t-12.5 63q0 50 11.5 111t32.5 122.5t48.5 119.5t60.5 103.5t68.5 72.5t71.5 27
q17 0 32 -8t26.5 -20t18.5 -26.5t7 -27.5q0 -21 -11.5 -53.5t-30.5 -70t-44.5 -77.5t-53 -77.5t-55.5 -70t-53 -53.5q-2 -12 -4 -25q-2 -11 -3 -24.5t-1 -26.5q0 -35 16.5 -57t47.5 -22q20 0 39.5 13t34.5 30q18 18 33 43q1 3 5 7q2 2 6 4.5t9 2.5q8 0 14.5 -6t6.5 -14
q0 -4 -1.5 -7.5t-3.5 -7.5t-4 -9q-22 -35 -49 -62q-23 -23 -54.5 -42t-68.5 -19z" />
    <glyph glyph-name="m" unicode="m" horiz-adv-x="684" 
d="M417 100q0 34 8 62t17.5 51t17.5 43t8 37q0 10 -5 14.5t-13 4.5q-17 0 -46 -31.5t-54 -93.5q-22 -53 -32 -97.5t-10 -79.5q0 -13 -5.5 -16.5t-16.5 -3.5q-40 0 -67 15.5t-27 39.5q0 31 9 66.5t20.5 69.5t20.5 63t9 47q0 21 -18 21t-41.5 -20t-44 -58.5t-34.5 -95
t-14 -128.5q0 -13 -5.5 -16.5t-16.5 -3.5q-40 0 -67 15.5t-27 39.5q0 44 9.5 91t22.5 90t26.5 79t22.5 57q8 19 27 19q11 0 29 -9t41 -45q21 18 44 32q20 12 44.5 22t50.5 10q33 0 52 -21t30 -53q23 20 48 37q21 14 47.5 25.5t54.5 11.5q13 0 26.5 -6.5t24.5 -17t17.5 -23.5
t6.5 -26q0 -20 -9.5 -46t-21.5 -55.5t-21.5 -60.5t-9.5 -61q0 -17 8.5 -27.5t23.5 -10.5q20 0 39.5 13t34.5 30q18 18 33 43q1 3 5 7q2 2 6 4.5t9 2.5q8 0 14.5 -6t6.5 -14q0 -4 -1.5 -7.5t-3.5 -7.5t-4 -9q-22 -35 -49 -62q-23 -23 -54.5 -42t-68.5 -19q-57 0 -92 30.5
t-35 79.5z" />
    <glyph glyph-name="n" unicode="n" horiz-adv-x="489" 
d="M350 95q0 -17 8.5 -27.5t23.5 -10.5q20 0 39.5 13t34.5 30q18 18 33 43q1 3 5 7q2 2 6 4.5t9 2.5q8 0 14.5 -6t6.5 -14q0 -4 -1.5 -7.5t-3.5 -7.5t-4 -9q-22 -35 -49 -62q-23 -23 -54.5 -42t-68.5 -19q-57 0 -92 29.5t-35 71.5q0 31 8 59.5t17.5 55.5t17.5 51.5t8 47.5
q0 7 -6 11.5t-14 4.5q-23 0 -49.5 -21.5t-50 -62t-39 -98t-15.5 -129.5q0 -13 -5.5 -16.5t-16.5 -3.5q-40 0 -67 15.5t-27 39.5q0 42 9.5 88.5t22.5 90t26.5 80.5t22.5 58q8 19 27 19q11 0 29 -9t41 -45q21 18 47 32q22 12 50 22t60 10q16 0 31.5 -8t27.5 -20.5t19 -27.5
t7 -30q0 -23 -8.5 -48.5t-18 -52.5t-18 -54.5t-8.5 -54.5z" />
    <glyph glyph-name="o" unicode="o" horiz-adv-x="445" 
d="M477 113q-17 -25 -43 -43q-22 -17 -54.5 -30t-76.5 -13q-18 0 -39 3q-24 -19 -53 -29.5t-61 -10.5q-31 0 -59.5 11t-50 30t-34 45t-12.5 55q0 63 21.5 111.5t55.5 81.5t75 50t80 17q31 0 58 -10t46.5 -29.5t31 -47t11.5 -61.5q0 -40 -16.5 -84t-45.5 -82q4 -1 7.5 -1.5
t8.5 -0.5q26 0 47 10.5t37 23.5q18 15 34 34q1 3 5 7q2 2 6 4.5t9 2.5q8 0 14.5 -6t6.5 -14q0 -4 -1.5 -7.5t-3.5 -7.5t-4 -9zM112 106q0 -30 12.5 -49t35.5 -19q16 0 31 12q-17 11 -17 24q0 8 5.5 17t13.5 16t16.5 11.5t14.5 4.5q5 0 11 -2q15 38 23 80.5t8 75.5
q0 34 -11 48.5t-28 14.5t-37 -17.5t-37.5 -49t-29 -74t-11.5 -93.5z" />
    <glyph glyph-name="p" unicode="p" horiz-adv-x="465" 
d="M497 113q-17 -25 -43 -43q-22 -17 -54.5 -30t-76.5 -13q-7 0 -15 0.5t-16 1.5q-23 -18 -50 -28.5t-57 -10.5q-24 0 -42.5 7.5t-31.5 17.5q-15 11 -26 26q-9 -22 -18.5 -58.5t-17.5 -77.5t-13 -81t-5 -69q0 -22 -19 -22q-14 0 -30 3.5t-29.5 11.5t-22.5 22t-9 34
q0 18 7 56.5t18 88.5t26 107.5t30.5 114t31 106.5t28.5 85q8 19 28 19q11 0 28.5 -9t40.5 -45q21 18 43 32q19 12 41.5 22t45.5 10q27 0 49 -11.5t37.5 -29.5t24.5 -40t9 -44q0 -42 -18.5 -94t-52.5 -96q3 -1 9 -1q26 0 47 10.5t37 23.5q18 15 34 34q1 3 5 7q2 2 6 4.5
t9 2.5q8 0 14.5 -6t6.5 -14q0 -4 -1.5 -7.5t-3.5 -7.5t-4 -9zM111 122q0 -29 15 -53t40 -24q16 0 33 15q-5 7 -5 14q0 8 5.5 16.5t13 15.5t16 12t14.5 5q10 20 18 41.5t13.5 42t8.5 38t3 29.5q0 27 -8.5 38t-25.5 11q-20 0 -44 -21.5t-46 -52.5t-36.5 -65.5t-14.5 -61.5z
" />
    <glyph glyph-name="q" unicode="q" horiz-adv-x="463" 
d="M275 -205q14 20 25 42q10 19 18 42t8 46q0 9 -2.5 17t-5.5 15l-8 14q-9 -29 -15.5 -60t-11.5 -57q-5 -31 -8 -59zM274 290q0 22 -11 32.5t-26 10.5q-22 0 -45 -23t-41.5 -56.5t-30.5 -72.5t-12 -70q0 -45 29 -45q18 0 41.5 24t45 59t36 73.5t14.5 67.5zM349 -11
q11 -13 20 -28q8 -13 14.5 -30t6.5 -36q0 -12 -9.5 -30.5t-24.5 -38.5t-33.5 -40t-36.5 -35.5t-33.5 -25.5t-24.5 -10q-20 0 -35 18.5t-15 43.5q0 36 5.5 76t13.5 80t16.5 76.5t14.5 65.5q-20 -25 -43 -43q-20 -16 -45 -29t-54 -13q-20 0 -38.5 7.5t-32 21.5t-21.5 33t-8 42
q0 54 20.5 107t53.5 95.5t74 68.5t82 26q30 0 51 -7.5t34 -16.5q15 -11 24 -23q11 0 23.5 -2.5t23 -8t17.5 -14.5t7 -22q0 -8 -7 -34t-17 -62t-21.5 -78.5t-20.5 -84.5q25 0 49 16t43 36q22 23 41 53q1 3 5 7q2 2 6 4.5t9 2.5q8 0 14.5 -6t6.5 -14q0 -4 -1.5 -7.5t-3.5 -7.5
t-4 -9q-18 -29 -41 -54q-20 -21 -46.5 -41.5t-58.5 -28.5z" />
    <glyph glyph-name="r" unicode="r" horiz-adv-x="393" 
d="M253 92q0 -17 9 -26t24 -9q20 0 39.5 13t34.5 30q18 18 33 43q1 3 5 7q2 2 6 4.5t9 2.5q8 0 14.5 -6t6.5 -14q0 -4 -1.5 -7.5t-3.5 -7.5t-4 -9q-22 -35 -49 -62q-23 -23 -54.5 -42t-68.5 -19q-29 0 -52 8t-40 21.5t-26 31.5t-9 39q0 33 10 62t21.5 53t21.5 42.5t10 30.5
q0 8 -9.5 12t-20.5 7q-13 3 -30 5q-29 -73 -55 -119.5t-42 -69.5q-2 -3 -7.5 -9t-14.5 -6q-8 0 -14.5 6.5t-6.5 14.5q0 7 4.5 13.5t6.5 10.5q14 20 39.5 63.5t47.5 114.5q-10 7 -17 18q-6 9 -11 23t-5 33q0 15 5.5 28.5t14.5 23.5t19 16t19 6q10 0 21 -5.5t20 -13t15 -17
t6 -16.5q0 -20 -6.5 -33t-6.5 -25q0 -11 12 -16t30 -5q17 0 28.5 2t20.5 4.5t17 4.5t17 2q18 0 29.5 -14t11.5 -34q0 -17 -11.5 -40.5t-25.5 -51.5t-25.5 -58.5t-11.5 -60.5z" />
    <glyph glyph-name="s" unicode="s" horiz-adv-x="409" 
d="M159 267q-21 -32 -37 -58q-14 -23 -25.5 -43t-11.5 -25q0 -22 2.5 -42.5t8.5 -36.5t15 -25.5t23 -9.5q23 0 39.5 25t16.5 59q0 19 -5 40t-10.5 41.5t-10.5 40t-5 34.5zM441 113q-25 -37 -65 -65q-34 -25 -87.5 -45t-130.5 -20q-37 0 -70 14.5t-57.5 36.5t-39 48t-14.5 48
t15 37t33 25q21 11 48 18q6 10 16 25q8 13 21 32.5t30 46.5q35 53 60 73.5t44 20.5q8 0 16.5 -4.5t16 -10.5t12 -12t4.5 -10q0 -5 -4 -12.5t-8.5 -16t-8 -18t-3.5 -19.5q0 -30 6 -52t13.5 -41.5t13.5 -38t6 -41.5q0 -20 -3.5 -33.5t-8.5 -23.5q-5 -11 -11 -19
q29 8 52.5 22.5t39.5 28.5q18 17 32 36q1 3 5 7q2 2 6 4.5t9 2.5q8 0 14.5 -6t6.5 -14q0 -4 -1.5 -7.5t-3.5 -7.5t-4 -9z" />
    <glyph glyph-name="t" unicode="t" horiz-adv-x="272" 
d="M165 57q20 0 39.5 13t34.5 30q18 18 33 43q1 3 5 7q2 2 6 4.5t9 2.5q8 0 14.5 -6t6.5 -14q0 -4 -1.5 -7.5t-3.5 -7.5t-4 -9q-22 -35 -49 -62q-23 -23 -54.5 -42t-68.5 -19q-24 0 -49 8.5t-45.5 24.5t-34 38t-13.5 48q0 21 5 51.5t14 66.5t20.5 76t24.5 79h-27q-8 0 -8 9
q0 8 9.5 21.5t20.5 13.5h20q15 41 29.5 75.5t28.5 58.5q4 8 11 13.5t16 5.5q11 0 24.5 -7t25.5 -16.5t20 -19.5t8 -17t-9.5 -31.5t-23.5 -61.5h67q8 0 8 -9q0 -4 -3 -10t-7.5 -11.5t-9.5 -9.5t-10 -4h-62q-12 -33 -24.5 -70t-22.5 -73t-16.5 -69.5t-6.5 -60.5
q0 -23 15.5 -37.5t37.5 -14.5z" />
    <glyph glyph-name="u" unicode="u" horiz-adv-x="488" 
d="M349 95q0 -17 8.5 -27.5t23.5 -10.5q20 0 39.5 13t34.5 30q18 18 33 43q1 3 5 7q2 2 6 4.5t9 2.5q8 0 14.5 -6t6.5 -14q0 -4 -1.5 -7.5t-3.5 -7.5t-4 -9q-22 -35 -49 -62q-23 -23 -54.5 -42t-68.5 -19q-29 0 -49.5 6.5t-35 17t-23.5 24t-13 27.5q-12 -14 -27.5 -27.5
t-33.5 -24t-37.5 -17t-38.5 -6.5q-17 0 -35.5 7.5t-33.5 20.5t-25 31t-10 38q0 27 9 67t21 81.5t25.5 78.5t22.5 58q4 8 11 13.5t16 5.5q11 0 25 -7t26 -16t20 -18.5t8 -15.5q0 -23 -10 -51t-22.5 -60.5t-22.5 -68t-10 -71.5q0 -12 6 -21t17 -9q12 0 25 6.5t25 17t22 23
t16 24.5q8 16 19 49t22.5 70t22.5 72.5t20 56.5q4 8 11 13.5t17 5.5q11 0 24.5 -7t25.5 -16t20 -18.5t8 -15.5q0 -23 -9 -49.5t-19.5 -56.5t-19.5 -63.5t-9 -69.5z" />
    <glyph glyph-name="v" unicode="v" horiz-adv-x="416" 
d="M448 113q-17 -25 -43 -43q-22 -17 -54.5 -30t-76.5 -13q-21 0 -49.5 6t-51.5 16q-54 -34 -86 -46.5t-51 -12.5q-8 0 -17 6t-16.5 16t-12 22.5t-4.5 25.5q0 42 9 88t21 89t25.5 78.5t22.5 56.5q4 8 11 13.5t16 5.5q11 0 25 -8.5t26 -19.5t20 -22t8 -17q0 -23 -10 -51.5
t-22.5 -58.5t-22.5 -59.5t-10 -53.5q0 -11 4.5 -19t12.5 -8q6 0 14 5v5q0 8 5.5 17t13.5 16t16.5 11.5t14.5 4.5h1q16 22 31.5 49.5t28 58.5t20 64t7.5 66q0 20 21 20q12 0 26 -6t26 -17t20 -26t8 -32q0 -19 -10.5 -45.5t-29 -55t-43.5 -57.5t-53 -54q11 -9 24.5 -16
t34.5 -7q26 0 47 10.5t37 23.5q18 15 34 34q1 3 5 7q2 2 6 4.5t9 2.5q8 0 14.5 -6t6.5 -14q0 -4 -1.5 -7.5t-3.5 -7.5t-4 -9z" />
    <glyph glyph-name="w" unicode="w" horiz-adv-x="673" 
d="M705 113q-17 -25 -43 -43q-22 -17 -54.5 -30t-76.5 -13q-31 0 -68 8q-26 -21 -55.5 -33t-59.5 -12q-28 0 -49.5 12.5t-36.5 27.5q-18 18 -32 40q-19 -22 -41 -40q-19 -15 -44.5 -27.5t-54.5 -12.5q-17 0 -35.5 7.5t-33.5 20.5t-25 31t-10 38q0 27 9 67t21 81.5t25.5 78.5
t22.5 58q4 8 11 13.5t16 5.5q11 0 25 -7t26 -16t20 -18.5t8 -15.5q0 -23 -10 -51t-22.5 -60.5t-22.5 -68t-10 -71.5q0 -12 6 -21t17 -9q12 0 25 8t26.5 21.5t25.5 32.5t21 41q10 27 20.5 56.5t20.5 59t18.5 55.5t16.5 45q4 8 11 13.5t17 5.5q11 0 24.5 -7t25.5 -16t20 -18.5
t8 -15.5q0 -22 -9.5 -50.5t-21.5 -61.5t-21.5 -69.5t-9.5 -73.5q0 -30 26 -30q16 0 34 13q-4 5 -4 12q0 8 5.5 16.5t13 15.5t16 12t14.5 5q13 24 23.5 53.5t18 62t12 66t4.5 66.5q0 20 21 20q11 0 25 -6t26 -17t20.5 -26t8.5 -32q0 -25 -6.5 -53.5t-19 -58t-29.5 -58.5
t-38 -54q8 -5 17 -8t21 -3q26 0 47 10.5t37 23.5q18 15 34 34q1 3 5 7q2 2 6 4.5t9 2.5q8 0 14.5 -6t6.5 -14q0 -4 -1.5 -7.5t-3.5 -7.5t-4 -9z" />
    <glyph glyph-name="x" unicode="x" horiz-adv-x="454" 
d="M119 279q-24 -62 -47.5 -102.5t-39.5 -63.5q-2 -3 -7.5 -9t-14.5 -6q-8 0 -14.5 6.5t-6.5 14.5q0 7 4.5 13.5t6.5 10.5q14 20 39.5 63.5t47.5 114.5q5 16 18.5 29t30 22t34.5 14t33 5q37 0 51 -38t18 -128q26 34 37.5 67t11.5 47q0 9 13.5 18.5t30.5 17t33 12t21 4.5
q19 0 19 -18q0 -10 -14.5 -35t-38 -55t-52.5 -60.5t-59 -52.5q4 -59 22.5 -86t50.5 -27q20 0 39.5 13t34.5 30q18 18 33 43q1 3 5 7q2 2 6 4.5t9 2.5q8 0 14.5 -6t6.5 -14q0 -4 -1.5 -7.5t-3.5 -7.5t-4 -9q-22 -35 -49 -62q-23 -23 -54.5 -42t-68.5 -19q-53 0 -92.5 23.5
t-55.5 80.5q-17 -17 -37.5 -35t-41 -33.5t-39.5 -25.5t-33 -10q-7 0 -10.5 3t-3.5 12q0 7 4.5 19t12 24.5t16 22.5t16.5 12q27 6 55.5 24t51.5 36q-5 42 -8 70t-5 45.5t-5 25t-8 7.5q-7 0 -12 -12z" />
    <glyph glyph-name="y" unicode="y" 
d="M334 26q48 28 79 57.5t53 59.5q2 3 6 7q3 2 7 4.5t9 2.5q9 0 15 -6t6 -14q0 -4 -2 -7.5t-4 -7.5q-3 -4 -5 -9q-26 -35 -68 -71.5t-111 -72.5q-13 -45 -29.5 -90.5t-40.5 -81.5t-57.5 -59t-78.5 -23q-23 0 -43.5 7.5t-36 20t-24.5 30t-9 37.5q0 25 15.5 46.5t43.5 40.5
t66.5 36.5t83.5 35.5q8 28 13 53t9 43q-12 -14 -27.5 -27.5t-33.5 -24t-37.5 -17t-38.5 -6.5q-17 0 -35.5 7.5t-33.5 20.5t-25 31t-10 38q0 27 9 67t21 81.5t25.5 78.5t22.5 58q4 8 11 13.5t16 5.5q11 0 25 -7t26 -16t20 -18.5t8 -15.5q0 -20 -10 -49t-22.5 -63t-22.5 -70
t-10 -69q0 -12 6 -21t17 -9q12 0 25 6.5t25 17t22 23t16 24.5q14 26 26 58.5t22.5 66t19 65.5t16.5 58q2 9 10 14t18 5q11 0 24.5 -7t25.5 -16t20 -18.5t8 -15.5q0 -11 -6 -39t-15 -65.5t-20.5 -79.5t-22.5 -79zM88 -232q16 0 31 11.5t28 30.5t24 44.5t20 52.5
q-27 -15 -49 -31.5t-38 -32.5t-25 -30.5t-9 -24.5q0 -20 18 -20z" />
    <glyph glyph-name="z" unicode="z" horiz-adv-x="470" 
d="M95 225q-39 -78 -63 -112q-2 -3 -7.5 -9t-14.5 -6q-8 0 -14.5 6.5t-6.5 14.5q0 7 4.5 13.5t6.5 10.5q14 20 39.5 63.5t47.5 114.5q14 45 36.5 57.5t56.5 12.5q24 0 44.5 -3t38.5 -6.5t34.5 -6.5t33.5 -3q23 0 39 9.5t27 9.5q7 0 14.5 -6t13.5 -14.5t9.5 -18t3.5 -17.5
q0 -11 -29 -36t-70 -57t-85.5 -67.5t-76.5 -67.5q34 0 58.5 -8t45 -17t39.5 -17t43 -8q20 0 39.5 13t34.5 30q18 18 33 43q1 3 5 7q2 2 6 4.5t9 2.5q8 0 14.5 -6t6.5 -14q0 -4 -1.5 -7.5t-3.5 -7.5t-4 -9q-22 -35 -49 -62q-23 -23 -54.5 -42t-68.5 -19q-21 0 -37 3t-32 6.5
t-34 6.5t-42 3q-35 0 -59 -9.5t-42 -9.5q-9 0 -17.5 5t-15.5 12.5t-11 16t-4 15.5q0 10 13.5 26t35.5 36t49 42t54 44.5t51 44t39 39.5q-29 0 -56 10t-56 10q-22 0 -37.5 -15.5t-33.5 -50.5z" />
    <glyph glyph-name="braceleft" unicode="{" horiz-adv-x="271" 
d="M48 380q26 14 53 44.5t48 84.5q13 34 22.5 60.5t18.5 47.5t19 38t23 31q17 19 38.5 31t42 19t38 9.5t27.5 2.5q20 0 20 -14q0 -8 -7 -12t-16 -7q-26 -8 -44 -26t-33 -58q-9 -24 -13.5 -42.5t-8 -36.5t-8 -36.5t-13.5 -40.5q-11 -27 -34 -49t-46 -38q-27 -18 -59 -33
q15 -11 26 -24q10 -11 18 -27.5t8 -36.5q0 -33 -12.5 -62t-27 -57.5t-27 -57t-12.5 -59.5q0 -14 4.5 -28t15.5 -25q6 -6 10 -9.5t4 -11.5q0 -15 -19 -15q-20 0 -40 7.5t-36 22.5t-26 37t-10 50q0 33 8.5 60t19 52.5t19 52t8.5 58.5q0 14 -4.5 24t-10.5 17.5t-10.5 13
t-4.5 10.5q0 13 11 20.5t20 12.5z" />
    <glyph glyph-name="bar" unicode="|" horiz-adv-x="260" 
d="M180 -31q0 -11 -9.5 -16.5t-38.5 -5.5q-52 0 -52 24v728q0 25 49 25q28 0 39.5 -6.5t11.5 -18.5v-730z" />
    <glyph glyph-name="braceright" unicode="}" horiz-adv-x="271" 
d="M342 310q-26 -14 -53 -44.5t-48 -84.5q-13 -34 -23 -60.5t-19 -47.5t-18.5 -38t-22.5 -31q-17 -19 -38.5 -31t-42 -19t-38 -9.5t-27.5 -2.5q-20 0 -20 14q0 8 7 12t16 7q26 8 44 26t33 58q9 24 13.5 42.5t8 36.5t8 36t13.5 41q11 26 34 48.5t46 38.5q27 18 59 33
q-15 11 -26 24q-10 11 -18 27.5t-8 36.5q0 33 12.5 62t27 57.5t27 56.5t12.5 60q0 14 -4.5 28t-15.5 25q-6 6 -10 9.5t-4 11.5q0 15 19 15q20 0 40 -7.5t36 -22.5t26 -37t10 -50q0 -33 -8.5 -60t-19 -52.5t-19 -52.5t-8.5 -58q0 -14 4.5 -24t10.5 -17.5t10.5 -13t4.5 -10.5
q0 -13 -11 -20.5t-20 -12.5z" />
    <glyph glyph-name="asciitilde" unicode="~" 
d="M114 279q-16 0 -29 -5t-23.5 -11t-18 -11t-10.5 -5q-12 0 -12 11q0 7 6 21.5t18 30.5q17 23 41 39t69 16q27 0 49 -8.5t43.5 -18.5t44 -18.5t48.5 -8.5q22 0 38 5.5t27.5 11.5t18 11.5t10.5 5.5q5 0 8.5 -3t3.5 -8q0 -10 -9 -27.5t-24 -34.5q-19 -20 -40 -36t-57 -16
q-25 0 -49 9t-48.5 20.5t-50 20.5t-54.5 9z" />
    <glyph glyph-name="exclamdown" unicode="&#xa1;" horiz-adv-x="288" 
d="M314 509q0 -14 -6.5 -28.5t-17 -26.5t-25 -19.5t-29.5 -7.5q-23 0 -37.5 13.5t-14.5 37.5q0 13 5.5 28t16 27.5t25 20.5t31.5 8q24 0 38 -14.5t14 -38.5zM128 -125q0 -17 -28 -17q-12 0 -28.5 7.5t-32 19t-26 26t-10.5 28.5q0 10 8.5 34.5t23 58t32 74t36 82t35.5 81.5
t29 74q9 26 28 35q14 7 29.5 10t22.5 3q19 0 19 -17q0 -6 -10 -40.5t-25.5 -84t-33.5 -107.5t-33.5 -111.5t-25.5 -95.5t-10 -60z" />
    <glyph glyph-name="cent" unicode="&#xa2;" horiz-adv-x="355" 
d="M260 343q41 -5 58.5 -22.5t17.5 -38.5q0 -17 -9.5 -26.5t-22.5 -9.5q-11 0 -18.5 8t-7.5 21q0 7 -3.5 13.5t-14.5 8.5v-214q15 4 27 10.5t20 12.5t13.5 9.5t10.5 3.5q7 0 10.5 -4t3.5 -9q0 -8 -5 -15.5t-18 -19.5q-11 -11 -25.5 -23t-36.5 -21v-37q0 -11 -9.5 -18.5
t-24.5 -7.5q-13 0 -26 6.5t-13 18.5v20h-10q-36 0 -67 9.5t-53 27t-34.5 43.5t-12.5 59q0 36 12 69t35 58.5t56 43t74 23.5v26q0 13 12.5 19.5t23.5 6.5q14 0 25.5 -6.5t11.5 -19.5v-25zM146 169q0 -30 13 -49.5t28 -29.5v174q-14 -17 -27.5 -41.5t-13.5 -53.5z" />
    <glyph glyph-name="sterling" unicode="&#xa3;" horiz-adv-x="439" 
d="M289 590q-33 0 -53.5 -33t-20.5 -88q0 -29 -0.5 -55t-1.5 -50h50q17 0 17 -14q0 -5 -3 -14.5t-7.5 -18.5t-11 -16t-12.5 -7h-39q-12 -121 -47 -172q8 1 16.5 1.5t17.5 0.5q29 0 60.5 -2.5t51.5 -2.5q16 0 27 2t19.5 6t15 10.5t14.5 15.5q13 16 20 16q15 0 15 -18
q0 -15 -9.5 -41.5t-28 -52t-46 -44t-64.5 -18.5q-25 0 -45 4t-38.5 9t-38 9t-43.5 4q-17 0 -32 -10.5t-31 -10.5q-8 0 -15 7t-12.5 17.5t-8.5 22t-3 19.5q0 9 6.5 17.5t16 20t19.5 28t17 41.5q6 22 8 51t4 70h-47q-14 0 -14 15q0 5 2.5 14t6.5 18t10 16t12 7h31v26
q0 127 54.5 195t151.5 68q46 0 78.5 -9t53.5 -24.5t30.5 -35t9.5 -40.5q0 -28 -13.5 -54t-33.5 -45.5t-42 -31.5t-38 -12q-15 0 -15 17q0 5 3.5 15.5t7 25t7 32.5t3.5 38q0 31 -11 46t-31 15z" />
    <glyph glyph-name="yen" unicode="&#xa5;" horiz-adv-x="465" 
d="M125 -5q-20 0 -30.5 4.5t-15.5 9.5q-5 6 -6 14l28 139h-77q-3 1 -6 5q-2 3 -4 9t-2 17q0 18 11 27q5 4 12 7h78l10 46h-87l-6.5 6.5t-5.5 23.5q0 12 3 19t8 11t12 6h81l-100 273q0 9 4 17q3 6 11 11.5t22 5.5q23 0 35.5 -5t19.5 -10q8 -7 11 -15l75 -205l139 205
q4 9 15 16q8 6 23.5 11t39.5 5q22 0 28 -8.5t6 -16.5q0 -3 -0.5 -5t-0.5 -4q-1 -2 -1 -3l-202 -272h71q6 0 10 -4q4 -3 7 -9.5t3 -18.5q0 -13 -5 -20t-11 -10q-7 -4 -15 -4h-90l-10 -46h103q4 0 10 -4t6 -29q0 -12 -5 -18.5t-10 -9.5q-7 -4 -15 -4h-100l-28 -139
q-2 -8 -8 -14q-5 -5 -14.5 -9.5t-26.5 -4.5z" />
    <glyph glyph-name="brokenbar" unicode="&#xa6;" horiz-adv-x="125" 
d="M23 138q0 6 9 12.5t20.5 11.5t22.5 8t16 3q8 0 11 -3.5t3 -14.5v-295q0 -6 -8.5 -12t-19.5 -10.5t-22 -7t-16 -2.5q-16 0 -16 15v295zM23 588q0 6 9 12.5t20.5 11.5t22.5 8t16 3q8 0 11 -3.5t3 -14.5v-295q0 -6 -8.5 -12t-19.5 -10.5t-22 -7t-16 -2.5q-16 0 -16 15v295z
" />
    <glyph glyph-name="section" unicode="&#xa7;" horiz-adv-x="377" 
d="M295 607q32 0 52 -15t20 -39t-13 -38t-33 -14t-29 8.5t-13.5 19t-8.5 19.5t-14 9q-19 0 -27 -15.5t-8 -34.5q0 -27 18.5 -51.5t40 -54t40 -67t18.5 -89.5t-20 -101t-54.5 -86.5t-80.5 -60.5t-98 -23q-38 0 -56.5 15.5t-18.5 39.5t16 37.5t33 13.5q16 0 24.5 -9t14 -19.5
t10.5 -19.5t15 -9q20 0 27 16.5t7 36.5q0 27 -19 54t-41.5 59t-41 70.5t-18.5 87.5q0 52 21.5 99.5t57.5 83t82.5 56.5t96.5 21zM162 501q-6 -5 -14.5 -15.5t-16 -25.5t-12.5 -33.5t-5 -39.5q0 -34 17 -65t37.5 -61.5t37.5 -63t17 -70.5q0 -9 -1 -17.5t-3 -16.5
q-2 -9 -3 -16q13 16 24 34q9 16 16.5 36.5t7.5 44.5q0 30 -17 61t-38 62.5t-38 64.5t-17 68q0 12 1 21.5t3 16.5q2 8 4 15z" />
    <glyph glyph-name="dieresis" unicode="&#xa8;" horiz-adv-x="298" 
d="M21 530q0 13 5.5 26.5t15 24.5t22 18.5t26.5 7.5q19 0 30.5 -14t11.5 -34q0 -13 -5 -27t-14.5 -25t-22.5 -18.5t-29 -7.5q-17 0 -28.5 14t-11.5 35zM166 530q0 13 5.5 26.5t15 24.5t22 18.5t26.5 7.5q19 0 30.5 -14t11.5 -34q0 -13 -5 -27t-14.5 -25t-22.5 -18.5
t-29 -7.5q-17 0 -28.5 14t-11.5 35z" />
    <glyph glyph-name="copyright" unicode="&#xa9;" horiz-adv-x="500" 
d="M329 357q20 0 20 -29q0 -11 -10 -18.5t-24.5 -12t-31 -6.5t-29.5 -2q-33 0 -60.5 8.5t-47.5 26.5t-31.5 44.5t-11.5 62.5q0 33 11.5 60t32.5 46.5t50.5 30t64.5 10.5q14 0 28.5 -3t26 -7.5t19 -10t7.5 -10.5q0 -40 -19 -40q-8 0 -22.5 9t-37.5 9q-45 0 -71.5 -24.5
t-26.5 -67.5q0 -44 25 -68.5t69 -24.5q15 0 26 2.5t18.5 6t13 6t11.5 2.5zM12 434q0 48 18.5 90.5t51 75t75.5 51t91 18.5q49 0 92 -18.5t75 -51t51 -75t19 -90.5q0 -49 -19 -92t-51 -75.5t-75 -51t-92 -18.5q-48 0 -91 18.5t-75.5 51t-51 75.5t-18.5 92zM71 434
q0 -38 14 -70.5t38 -56.5t56 -37.5t69 -13.5t70 13.5t57 37.5t38 56.5t14 70.5q0 37 -14 69t-38 56t-57 38t-70 14t-69 -14t-56 -38t-38 -56t-14 -69z" />
    <glyph glyph-name="ordfeminine" unicode="&#xaa;" horiz-adv-x="330" 
d="M322 524q-13 -21 -30 -38q-14 -14 -33.5 -26t-42.5 -12q-26 0 -44 13t-21 39q-12 -15 -26 -26q-12 -10 -28.5 -18t-33.5 -8q-25 0 -43 17.5t-18 46.5q0 33 12.5 66t33 59t45.5 42t51 16q19 0 31.5 -5t20.5 -10q9 -6 15 -14q14 0 29 -6.5t15 -22.5q0 -7 -5.5 -22.5
t-12.5 -34.5t-12.5 -38.5t-5.5 -35.5q0 -7 4.5 -12t12.5 -5q13 0 25 8t21 18q11 11 20 27q1 2 3 4q5 5 10 5t9 -4t4 -9q0 -2 -1 -4.5t-2 -4.5q-2 -3 -3 -5zM179 633q0 13 -6.5 19.5t-15.5 6.5q-14 0 -28 -14t-25.5 -35t-19 -45t-7.5 -43q0 -27 18 -27q11 0 25.5 15t27.5 36
t22 45t9 42z" />
    <glyph glyph-name="guillemotleft" unicode="&#xab;" horiz-adv-x="551" 
d="M238 543q6 5 13 10.5t18 5.5q6 0 15 -5.5t17.5 -14t14 -18t5.5 -17.5q0 -9 -4.5 -14t-11.5 -12q-59 -54 -99 -92.5t-52 -51.5q-11 -11 -18.5 -23.5t-7.5 -26.5q0 -11 6.5 -21.5t15.5 -20.5q34 -37 74 -76.5t82 -78.5q8 -8 11.5 -12t3.5 -14q0 -7 -5 -16t-13 -17.5
t-17 -14.5t-17 -6t-14.5 3t-11.5 8q-33 29 -81 74t-98 99q-14 15 -29 36.5t-15 55.5q0 17 3 29t9 23t15 21.5t20 24.5q21 26 67 68.5t104 93.5zM448 543q6 5 13 10.5t18 5.5q6 0 15 -5.5t17.5 -14t14 -18t5.5 -17.5q0 -9 -4.5 -14t-11.5 -12q-59 -54 -99 -92.5t-52 -51.5
q-11 -11 -18.5 -23.5t-7.5 -26.5q0 -11 6.5 -21.5t15.5 -20.5q34 -37 74 -76.5t82 -78.5q8 -8 11.5 -12t3.5 -14q0 -7 -5 -16t-13 -17.5t-17 -14.5t-17 -6t-14.5 3t-11.5 8q-33 29 -81 74t-98 99q-14 15 -29 36.5t-15 55.5q0 17 3 29t9 23t15 21.5t20 24.5q21 26 67 68.5
t104 93.5z" />
    <glyph glyph-name="registered" unicode="&#xae;" horiz-adv-x="491" 
d="M6 434q0 48 18.5 91t50.5 75.5t75 51t91 18.5q49 0 92 -18.5t75 -51t51 -75.5t19 -91t-19 -91t-51 -75t-75 -50.5t-92 -18.5q-48 0 -91 18.5t-75 50.5t-50.5 75t-18.5 91zM62 434q0 -37 14.5 -69.5t39 -56.5t57 -37.5t68.5 -13.5q37 0 69.5 13.5t57 37.5t38.5 56.5
t14 69.5t-14 69.5t-38.5 57t-57 38.5t-69.5 14q-36 0 -68.5 -14t-57 -38.5t-39 -57t-14.5 -69.5zM146 558q0 10 11 12q13 2 32.5 4t38.5 2q31 0 51.5 -6t36.5 -17q26 -18 26 -56q0 -22 -9.5 -37t-27.5 -27q18 -16 25 -44l20 -66q1 -2 1 -5q0 -11 -11 -11h-38q-2 0 -5 2t-3 4
q-10 14 -22 61q-10 38 -44 39h-23v-93q0 -13 -11 -13h-36q-12 0 -12 13v238zM230 460q24 0 38 9t14 24q0 17 -15 25t-38 8h-12.5t-11.5 -2v-64h25z" />
    <glyph glyph-name="macron" unicode="&#xaf;" horiz-adv-x="359" 
d="M46 487q-16 0 -16 16q0 5 2.5 15t6.5 20t9.5 17.5t12.5 7.5h255q11 0 15 -3t4 -12q0 -5 -3 -15.5t-7.5 -20.5t-10.5 -17.5t-13 -7.5h-255z" />
    <glyph glyph-name="degree" unicode="&#xb0;" horiz-adv-x="242" 
d="M75 515q0 -20 13.5 -33.5t33.5 -13.5t33 13.5t13 33.5t-13 33t-33 13t-33.5 -13t-13.5 -33zM15 515q0 22 8.5 41.5t23 34t34 23t41.5 8.5t41.5 -8.5t34 -23t23 -34t8.5 -41.5t-8.5 -41.5t-23 -34t-34 -23t-41.5 -8.5t-41.5 8.5t-34 23t-23 34t-8.5 41.5z" />
    <glyph glyph-name="plusminus" unicode="&#xb1;" horiz-adv-x="496" 
d="M35 1q-15 0 -15 16q0 5 4 17.5t10.5 25.5t14 23t13.5 10h365q11 0 14.5 -3t3.5 -11q0 -5 -4.5 -17.5t-11.5 -26t-15 -24t-14 -10.5h-365zM201 531q0 11 15.5 16t29.5 5t30.5 -5t16.5 -14v-148h146q11 0 16 -15.5t5 -29.5t-5 -30.5t-14 -16.5h-148v-145q0 -5 -5 -9
t-12 -6.5t-15 -4t-15 -1.5q-14 0 -29.5 5t-15.5 14v147h-145q-5 0 -9 5t-6.5 12t-4 15t-1.5 15q0 14 5 29.5t14 15.5h147v146z" />
    <glyph glyph-name="twosuperior" unicode="&#xb2;" horiz-adv-x="403" 
d="M299 706q57 0 86.5 -25t29.5 -72q0 -25 -16.5 -55.5t-43.5 -63t-61 -64.5t-70 -59q28 -6 57 -6q17 0 29 4t20 9t13 9t8 4q10 0 10 -9q0 -4 -7.5 -19t-21 -31.5t-31.5 -29.5t-39 -13q-22 0 -48.5 12t-54.5 26q-29 -18 -54 -28t-42 -10q-29 0 -47 16t-18 37q0 23 19.5 41.5
t49.5 18.5q18 0 42.5 -5.5t52.5 -12.5q28 25 56.5 56.5t50.5 65.5t36 67.5t14 61.5q0 19 -13 30t-31 11q-17 0 -36.5 -11t-37 -28.5t-29 -40t-11.5 -45.5q0 -25 10.5 -31t15.5 -6q7 0 7 -6q0 -5 -12.5 -15.5t-35.5 -10.5q-12 0 -23.5 4t-21.5 11t-16 17.5t-6 24.5
q0 37 21 68.5t53.5 54.5t71 35.5t74.5 12.5zM66 358q-13 0 -19.5 -5t-6.5 -11q0 -9 6.5 -12.5t14.5 -3.5q21 0 53 19q-14 5 -26 9t-22 4z" />
    <glyph glyph-name="threesuperior" unicode="&#xb3;" horiz-adv-x="379" 
d="M264 648q11 16 23 29q11 11 24.5 20t27.5 9t23 -7.5t9 -20.5q0 -18 -16 -32.5t-51 -22.5l-61 -58q16 0 33.5 -4.5t32 -15.5t23.5 -29t9 -44q0 -39 -20 -73t-51 -59.5t-69 -40t-73 -14.5q-52 0 -86 20.5t-34 53.5q0 16 12 29t27.5 22t29.5 13.5t19 4.5q13 0 13 -10
q0 -5 -6 -11q-8 -8 -13.5 -18t-5.5 -24q0 -17 13.5 -31t39.5 -14q21 0 40.5 11.5t34.5 33t23.5 51t8.5 65.5q0 25 -11.5 39.5t-32.5 14.5q-5 -6 -13.5 -15t-19 -17t-22 -14t-23.5 -6q-15 0 -23.5 8.5t-8.5 22.5t13 24t29 16q18 7 42 10l54 50q-14 0 -36 1t-43 5t-36.5 12
t-15.5 22q0 12 11 21.5t25 16t28.5 10.5t21.5 4q10 0 10 -8q0 -4 -6.5 -8.5t-6.5 -12.5q0 -6 7 -11.5t19 -9.5t27 -6t31 -2z" />
    <glyph glyph-name="acute" unicode="&#xb4;" horiz-adv-x="197" 
d="M143 642q6 0 14.5 -7t17 -17.5t14 -22t5.5 -19.5q0 -12 -4.5 -20.5t-19.5 -21.5q-16 -14 -36.5 -24t-41 -16.5t-38.5 -10t-30 -3.5q-8 0 -13 4.5t-5 10.5t3 10t13 9q23 14 48.5 42.5t48.5 65.5q6 10 11 15t13 5z" />
    <glyph glyph-name="paragraph" unicode="&#xb6;" horiz-adv-x="464" 
d="M5 500q0 43 20 73.5t51.5 50t70.5 28.5t78 9h207q13 0 18.5 -7.5t5.5 -28.5q0 -34 -23 -34h-46v-575q0 -11 -13 -17t-24 -6q-12 0 -24 6t-12 17v575h-56v-575q0 -11 -13.5 -17t-23.5 -6q-13 0 -26 6t-13 17v319q-36 1 -68 12.5t-56 32.5t-38.5 51t-14.5 69z" />
    <glyph glyph-name="periodcentered" unicode="&#xb7;" horiz-adv-x="146" 
d="M20 302q0 12 5 25t14 23.5t21 17.5t26 7q18 0 29 -13t11 -33q0 -12 -5 -25.5t-14 -24t-21.5 -17.5t-27.5 -7q-17 0 -27.5 13.5t-10.5 33.5z" />
    <glyph glyph-name="cedilla" unicode="&#xb8;" horiz-adv-x="262" 
d="M152 0q0 -5 0.5 -12.5t2.5 -15t5.5 -13t10.5 -5.5q13 0 27.5 2t25.5 2q15 0 22.5 -10t7.5 -26q0 -20 -10.5 -44.5t-32 -46t-54 -36t-75.5 -14.5q-32 0 -54 13t-22 35q0 17 12 30.5t27 13.5q11 0 17 -5t12 -11t14.5 -11t24.5 -5t32 6.5t28.5 15t20 17t7.5 13.5t-5 5
q-23 0 -47 -7.5t-41 -7.5q-13 0 -20 9t-7 17q0 11 2 26.5t5 29.5q4 17 8 35h56z" />
    <glyph glyph-name="onesuperior" unicode="&#xb9;" horiz-adv-x="250" 
d="M110 579q-10 -7 -21 -11q-9 -5 -21 -8t-24 -3t-22 8t-10 22q0 10 4.5 20t10.5 18.5t12.5 15.5t11.5 12q6 6 13 6q6 0 6 -6q0 -14 6 -23t19 -9q8 0 14.5 1t12.5 3t13 4q11 21 23 38q11 14 25 26.5t30 12.5q19 0 29 -10.5t10 -27.5q0 -13 -13 -31.5t-35 -35.5
q-8 -6 -19.5 -24t-24.5 -43.5t-26.5 -56.5t-24.5 -63t-17.5 -62.5t-6.5 -54.5q0 -5 -1.5 -8.5t-9.5 -3.5q-5 0 -15.5 5t-20.5 12.5t-17.5 16t-7.5 16.5q0 26 15 66.5t33 80.5q21 46 49 97z" />
    <glyph glyph-name="ordmasculine" unicode="&#xba;" horiz-adv-x="258" 
d="M10 533q0 39 13.5 69.5t34.5 51t46.5 31t49.5 10.5q39 0 65.5 -24.5t26.5 -67.5q0 -25 -10 -52.5t-28.5 -51t-44 -39t-56.5 -15.5q-20 0 -37.5 7t-30.5 19t-21 28t-8 34zM83 518q0 -19 8 -31t22 -12q15 0 27 15.5t21 38.5t13.5 49t4.5 46q0 21 -6.5 30t-17.5 9t-23.5 -11
t-23 -30t-18 -46t-7.5 -58z" />
    <glyph glyph-name="guillemotright" unicode="&#xbb;" horiz-adv-x="551" 
d="M313 543q58 -51 104 -93.5t67 -68.5q11 -14 20 -24.5t15 -21.5t9 -23t3 -29q0 -34 -15 -55.5t-29 -36.5q-50 -54 -98 -99t-81 -74q-5 -5 -11.5 -8t-14.5 -3t-17 6t-17 14.5t-13 17.5t-5 16q0 10 3.5 14t11.5 12q42 39 82 78.5t74 76.5q9 10 15.5 20.5t6.5 21.5
q0 14 -7.5 26.5t-18.5 23.5q-12 13 -52 51.5t-99 92.5q-7 7 -11.5 12t-4.5 14q0 8 5.5 17.5t14 18t17.5 14t15 5.5q11 0 18 -5.5t13 -10.5zM103 543q58 -51 104 -93.5t67 -68.5q11 -14 20 -24.5t15 -21.5t9 -23t3 -29q0 -34 -15 -55.5t-29 -36.5q-50 -54 -98 -99t-81 -74
q-5 -5 -11.5 -8t-14.5 -3t-17 6t-17 14.5t-13 17.5t-5 16q0 10 3.5 14t11.5 12q42 39 82 78.5t74 76.5q9 10 15.5 20.5t6.5 21.5q0 14 -7.5 26.5t-18.5 23.5q-12 13 -52 51.5t-99 92.5q-7 7 -11.5 12t-4.5 14q0 8 5.5 17.5t14 18t17.5 14t15 5.5q11 0 18 -5.5t13 -10.5z" />
    <glyph glyph-name="onequarter" unicode="&#xbc;" horiz-adv-x="631" 
d="M110 579q-10 -7 -21 -11q-9 -5 -21 -8t-24 -3t-22 8t-10 22q0 10 4.5 20t10.5 18.5t12.5 15.5t11.5 12q6 6 13 6q6 0 6 -6q0 -14 6 -23t19 -9q8 0 14.5 1t12.5 3t13 4q11 21 23 38q11 14 25 26.5t30 12.5q19 0 29 -10.5t10 -27.5q0 -13 -13 -31.5t-35 -35.5
q-8 -6 -19.5 -24t-24.5 -43.5t-26.5 -56.5t-24.5 -63t-17.5 -62.5t-6.5 -54.5q0 -5 -1.5 -8.5t-9.5 -3.5q-5 0 -15.5 5t-20.5 12.5t-17.5 16t-7.5 16.5q0 26 15 66.5t33 80.5q21 46 49 97zM399 694q0 -11 -5 -23l-265 -657q-2 -8 -7.5 -11t-10.5 -3h-34q-11 0 -19.5 2.5
t-8.5 13.5q0 4 1 7.5t3 8.5l265 669q2 5 7 9.5t11 4.5q21 0 42 -6.5t21 -14.5zM429 425q22 0 39 -11t17 -34q0 -22 -15.5 -51t-33.5 -55q-21 -31 -48 -62q9 -6 20 -10q10 -5 22.5 -9t27.5 -7q12 31 27 63t30 60.5t30 51t27 34.5q8 8 19.5 14t23 9.5t21 5t14.5 1.5t5 -6
q0 -3 -11 -15t-27 -37q-5 -8 -15 -25t-23.5 -41.5t-28.5 -54.5t-28 -63q20 4 32 10.5t20 12.5q4 4 9 4q6 0 6 -5q0 -4 -3 -10q-5 -8 -13.5 -19.5t-19.5 -23.5t-25 -21t-29 -11q-9 -29 -14 -56t-5 -51q0 -11 -11 -11q-6 0 -15 3.5t-18 10.5t-15 15.5t-6 19.5t5.5 33t16.5 49
q-15 7 -28.5 15.5t-25 15.5t-20.5 12t-13 5q-11 -8 -22 -13q-10 -5 -23 -8.5t-27 -3.5q-16 0 -29 11t-13 26q0 20 16.5 29.5t33.5 9.5q11 0 21 -1t18 -3q9 -2 16 -3q19 22 35 45q13 20 24 43.5t11 46.5q0 11 -6.5 17t-15.5 6q-14 0 -25 -7.5t-16 -7.5q-3 0 -6 3t-3 6
q0 4 8.5 12.5t22 16t29.5 13.5t30 6z" />
    <glyph glyph-name="onehalf" unicode="&#xbd;" horiz-adv-x="622" 
d="M486 422q57 0 86.5 -25t29.5 -72q0 -25 -16.5 -55.5t-43.5 -63t-61 -64.5t-70 -59q28 -6 57 -6q17 0 29 4t20 9t13 9t8 4q10 0 10 -9q0 -4 -7.5 -19t-21 -31.5t-31.5 -29.5t-39 -13q-22 0 -48.5 12t-54.5 26q-29 -18 -54 -28t-42 -10q-29 0 -47 16t-18 37q0 23 19.5 41.5
t49.5 18.5q18 0 42.5 -5.5t52.5 -12.5q28 25 56.5 56.5t50.5 65.5t36 67.5t14 61.5q0 19 -13 30t-31 11q-17 0 -36.5 -11t-37 -28.5t-29 -40t-11.5 -45.5q0 -25 10.5 -31t15.5 -6q7 0 7 -6q0 -5 -12.5 -15.5t-35.5 -10.5q-12 0 -23.5 4t-21.5 11t-16 17.5t-6 24.5
q0 37 21 68.5t53.5 54.5t71 35.5t74.5 12.5zM399 694q0 -11 -5 -23l-265 -657q-2 -8 -7.5 -11t-10.5 -3h-34q-11 0 -19.5 2.5t-8.5 13.5q0 4 1 7.5t3 8.5l265 669q2 5 7 9.5t11 4.5q21 0 42 -6.5t21 -14.5zM110 579q-10 -7 -21 -11q-9 -5 -21 -8t-24 -3t-22 8t-10 22
q0 10 4.5 20t10.5 18.5t12.5 15.5t11.5 12q6 6 13 6q6 0 6 -6q0 -14 6 -23t19 -9q8 0 14.5 1t12.5 3t13 4q11 21 23 38q11 14 25 26.5t30 12.5q19 0 29 -10.5t10 -27.5q0 -13 -13 -31.5t-35 -35.5q-8 -6 -19.5 -24t-24.5 -43.5t-26.5 -56.5t-24.5 -63t-17.5 -62.5
t-6.5 -54.5q0 -5 -1.5 -8.5t-9.5 -3.5q-5 0 -15.5 5t-20.5 12.5t-17.5 16t-7.5 16.5q0 26 15 66.5t33 80.5q21 46 49 97zM253 74q-13 0 -19.5 -5t-6.5 -11q0 -9 6.5 -12.5t14.5 -3.5q21 0 53 19q-14 5 -26 9t-22 4z" />
    <glyph glyph-name="threequarters" unicode="&#xbe;" horiz-adv-x="812" 
d="M264 648q11 16 23 29q11 11 24.5 20t27.5 9t23 -7.5t9 -20.5q0 -18 -16 -32.5t-51 -22.5l-61 -58q16 0 33.5 -4.5t32 -15.5t23.5 -29t9 -44q0 -39 -20 -73t-51 -59.5t-69 -40t-73 -14.5q-52 0 -86 20.5t-34 53.5q0 16 12 29t27.5 22t29.5 13.5t19 4.5q13 0 13 -10
q0 -5 -6 -11q-8 -8 -13.5 -18t-5.5 -24q0 -17 13.5 -31t39.5 -14q21 0 40.5 11.5t34.5 33t23.5 51t8.5 65.5q0 25 -11.5 39.5t-32.5 14.5q-5 -6 -13.5 -15t-19 -17t-22 -14t-23.5 -6q-15 0 -23.5 8.5t-8.5 22.5t13 24t29 16q18 7 42 10l54 50q-14 0 -36 1t-43 5t-36.5 12
t-15.5 22q0 12 11 21.5t25 16t28.5 10.5t21.5 4q10 0 10 -8q0 -4 -6.5 -8.5t-6.5 -12.5q0 -6 7 -11.5t19 -9.5t27 -6t31 -2zM569 694q0 -11 -5 -23l-265 -657q-2 -8 -7.5 -11t-10.5 -3h-34q-11 0 -19.5 2.5t-8.5 13.5q0 4 1 7.5t3 8.5l265 669q2 5 7 9.5t11 4.5
q21 0 42 -6.5t21 -14.5zM599 425q22 0 39 -11t17 -34q0 -22 -15.5 -51t-33.5 -55q-21 -31 -48 -62q9 -6 20 -10q10 -5 22.5 -9t27.5 -7q12 31 27 63t30 60.5t30 51t27 34.5q8 8 19.5 14t23 9.5t21 5t14.5 1.5t5 -6q0 -3 -11 -15t-27 -37q-5 -8 -15 -25t-23.5 -41.5
t-28.5 -54.5t-28 -63q20 4 32 10.5t20 12.5q4 4 9 4q6 0 6 -5q0 -4 -3 -10q-5 -8 -13.5 -19.5t-19.5 -23.5t-25 -21t-29 -11q-9 -29 -14 -56t-5 -51q0 -11 -11 -11q-6 0 -15 3.5t-18 10.5t-15 15.5t-6 19.5t5.5 33t16.5 49q-15 7 -28.5 15.5t-25 15.5t-20.5 12t-13 5
q-11 -8 -22 -13q-10 -5 -23 -8.5t-27 -3.5q-16 0 -29 11t-13 26q0 20 16.5 29.5t33.5 9.5q11 0 21 -1t18 -3q9 -2 16 -3q19 22 35 45q13 20 24 43.5t11 46.5q0 11 -6.5 17t-15.5 6q-14 0 -25 -7.5t-16 -7.5q-3 0 -6 3t-3 6q0 4 8.5 12.5t22 16t29.5 13.5t30 6z" />
    <glyph glyph-name="questiondown" unicode="&#xbf;" horiz-adv-x="436" 
d="M209 -75q19 0 37 7.5t32 21.5t23 33.5t9 44.5q0 18 -3.5 31t-8 22t-8 14.5t-3.5 10.5q0 10 17 10q19 0 41 -8.5t41.5 -23t32.5 -35t13 -44.5q0 -32 -17.5 -58.5t-47.5 -46t-70.5 -30t-85.5 -10.5q-99 0 -154 40t-55 117q0 39 17.5 71.5t44.5 61t60 54t63.5 49t55 47
t35.5 48.5q5 12 11.5 17.5t17.5 7.5q21 3 36.5 9t24.5 6q5 0 10 -4t5 -12q0 -24 -17.5 -51t-43.5 -56.5t-57 -61.5t-57 -66.5t-43.5 -72.5t-17.5 -78q0 -32 19 -48.5t43 -16.5zM426 520q0 -14 -6.5 -28.5t-17 -26.5t-25 -19.5t-29.5 -7.5q-23 0 -37.5 13.5t-14.5 37.5
q0 13 5.5 28t16 27.5t25 20.5t31.5 8q24 0 38 -14.5t14 -38.5z" />
    <glyph glyph-name="Agrave" unicode="&#xc0;" horiz-adv-x="976" 
d="M836 -10q-28 0 -54 10t-45.5 28t-31 43.5t-11.5 56.5q0 59 15 127q-31 15 -64 34t-70 39q-43 -77 -78 -139.5t-72 -106.5t-80 -68t-102 -24q-44 0 -87.5 21.5t-78 58t-56 84t-21.5 99.5q0 49 17.5 91.5t50 74t78.5 49.5t103 18q69 0 136 -19t132 -45q46 75 85 132
t75.5 94.5t72 56.5t74.5 19q31 0 53 -12t27 -17q21 13 43 17.5t38 4.5q30 0 30 -14q0 -5 -5.5 -11.5t-18.5 -21.5q-10 -12 -27.5 -47.5t-37.5 -84.5t-41 -107t-38 -116h12q14 0 26.5 4t23 8.5t18 8.5t12.5 4q3 0 6 -3t3 -9q0 -7 -10.5 -22t-27.5 -31t-39 -30t-46 -18
q-6 -29 -9.5 -55.5t-3.5 -48.5q0 -35 17 -50.5t40 -15.5q20 0 39.5 13t34.5 30q18 18 33 43q1 3 5 7q2 2 6 4.5t9 2.5q8 0 14.5 -6t6.5 -14q0 -4 -1.5 -7.5t-3.5 -7.5t-4 -9q-22 -35 -49 -62q-23 -23 -54.5 -42t-68.5 -19zM220 91q36 0 66 17t60.5 51.5t64 87t75.5 122.5
q-38 15 -78.5 24.5t-83.5 9.5q-108 0 -169 -51.5t-61 -137.5q0 -27 10 -50t27 -39t40 -25t49 -9zM607 384q32 -13 62.5 -25t60.5 -21q13 44 29.5 87.5t33.5 84t34.5 76.5t33.5 65l7 12q-5 2 -9.5 3t-12.5 1q-27 0 -51.5 -16t-52 -50t-60 -88t-75.5 -129zM818 933
q16 0 24 -20q7 -17 17.5 -36t23.5 -35.5t26 -30t24 -20.5q10 -5 13 -9t3 -10t-4.5 -10.5t-13.5 -4.5q-11 0 -28.5 5.5t-37.5 15t-39.5 21.5t-35.5 26q-15 13 -19.5 21.5t-4.5 20.5q0 8 6 19.5t14 22t17 17.5t15 7z" />
    <glyph glyph-name="Aacute" unicode="&#xc1;" horiz-adv-x="976" 
d="M836 -10q-28 0 -54 10t-45.5 28t-31 43.5t-11.5 56.5q0 59 15 127q-31 15 -64 34t-70 39q-43 -77 -78 -139.5t-72 -106.5t-80 -68t-102 -24q-44 0 -87.5 21.5t-78 58t-56 84t-21.5 99.5q0 49 17.5 91.5t50 74t78.5 49.5t103 18q69 0 136 -19t132 -45q46 75 85 132
t75.5 94.5t72 56.5t74.5 19q31 0 53 -12t27 -17q21 13 43 17.5t38 4.5q30 0 30 -14q0 -5 -5.5 -11.5t-18.5 -21.5q-10 -12 -27.5 -47.5t-37.5 -84.5t-41 -107t-38 -116h12q14 0 26.5 4t23 8.5t18 8.5t12.5 4q3 0 6 -3t3 -9q0 -7 -10.5 -22t-27.5 -31t-39 -30t-46 -18
q-6 -29 -9.5 -55.5t-3.5 -48.5q0 -35 17 -50.5t40 -15.5q20 0 39.5 13t34.5 30q18 18 33 43q1 3 5 7q2 2 6 4.5t9 2.5q8 0 14.5 -6t6.5 -14q0 -4 -1.5 -7.5t-3.5 -7.5t-4 -9q-22 -35 -49 -62q-23 -23 -54.5 -42t-68.5 -19zM220 91q36 0 66 17t60.5 51.5t64 87t75.5 122.5
q-38 15 -78.5 24.5t-83.5 9.5q-108 0 -169 -51.5t-61 -137.5q0 -27 10 -50t27 -39t40 -25t49 -9zM607 384q32 -13 62.5 -25t60.5 -21q13 44 29.5 87.5t33.5 84t34.5 76.5t33.5 65l7 12q-5 2 -9.5 3t-12.5 1q-27 0 -51.5 -16t-52 -50t-60 -88t-75.5 -129zM998 918
q6 0 14.5 -7t17 -17.5t14 -22t5.5 -19.5q0 -12 -4.5 -20.5t-19.5 -21.5q-16 -14 -36.5 -24t-41 -16.5t-38.5 -10t-30 -3.5q-8 0 -13 4.5t-5 10.5t3 10t13 9q23 14 48.5 42.5t48.5 65.5q6 10 11 15t13 5z" />
    <glyph glyph-name="Acircumflex" unicode="&#xc2;" horiz-adv-x="976" 
d="M836 -10q-28 0 -54 10t-45.5 28t-31 43.5t-11.5 56.5q0 59 15 127q-31 15 -64 34t-70 39q-43 -77 -78 -139.5t-72 -106.5t-80 -68t-102 -24q-44 0 -87.5 21.5t-78 58t-56 84t-21.5 99.5q0 49 17.5 91.5t50 74t78.5 49.5t103 18q69 0 136 -19t132 -45q46 75 85 132
t75.5 94.5t72 56.5t74.5 19q31 0 53 -12t27 -17q21 13 43 17.5t38 4.5q30 0 30 -14q0 -5 -5.5 -11.5t-18.5 -21.5q-10 -12 -27.5 -47.5t-37.5 -84.5t-41 -107t-38 -116h12q14 0 26.5 4t23 8.5t18 8.5t12.5 4q3 0 6 -3t3 -9q0 -7 -10.5 -22t-27.5 -31t-39 -30t-46 -18
q-6 -29 -9.5 -55.5t-3.5 -48.5q0 -35 17 -50.5t40 -15.5q20 0 39.5 13t34.5 30q18 18 33 43q1 3 5 7q2 2 6 4.5t9 2.5q8 0 14.5 -6t6.5 -14q0 -4 -1.5 -7.5t-3.5 -7.5t-4 -9q-22 -35 -49 -62q-23 -23 -54.5 -42t-68.5 -19zM220 91q36 0 66 17t60.5 51.5t64 87t75.5 122.5
q-38 15 -78.5 24.5t-83.5 9.5q-108 0 -169 -51.5t-61 -137.5q0 -27 10 -50t27 -39t40 -25t49 -9zM607 384q32 -13 62.5 -25t60.5 -21q13 44 29.5 87.5t33.5 84t34.5 76.5t33.5 65l7 12q-5 2 -9.5 3t-12.5 1q-27 0 -51.5 -16t-52 -50t-60 -88t-75.5 -129zM894 823q-2 0 -6 -2
l-8 -4q-17 -10 -36 -19.5t-36 -17t-29.5 -12.5t-17.5 -5q-8 0 -13 5.5t-5 11.5q0 13 16 24q26 17 47.5 34.5t50.5 48.5q11 14 20.5 24t29.5 10q11 0 16.5 -3t9.5 -8t7 -12t8 -15q16 -26 32.5 -45t33.5 -33q10 -7 14 -11t4 -12q0 -6 -5.5 -12.5t-13.5 -6.5q-4 0 -14 2.5
t-24.5 8.5t-32.5 16.5t-37 26.5q-6 6 -11 6z" />
    <glyph glyph-name="Atilde" unicode="&#xc3;" horiz-adv-x="976" 
d="M836 -10q-28 0 -54 10t-45.5 28t-31 43.5t-11.5 56.5q0 59 15 127q-31 15 -64 34t-70 39q-43 -77 -78 -139.5t-72 -106.5t-80 -68t-102 -24q-44 0 -87.5 21.5t-78 58t-56 84t-21.5 99.5q0 49 17.5 91.5t50 74t78.5 49.5t103 18q69 0 136 -19t132 -45q46 75 85 132
t75.5 94.5t72 56.5t74.5 19q31 0 53 -12t27 -17q21 13 43 17.5t38 4.5q30 0 30 -14q0 -5 -5.5 -11.5t-18.5 -21.5q-10 -12 -27.5 -47.5t-37.5 -84.5t-41 -107t-38 -116h12q14 0 26.5 4t23 8.5t18 8.5t12.5 4q3 0 6 -3t3 -9q0 -7 -10.5 -22t-27.5 -31t-39 -30t-46 -18
q-6 -29 -9.5 -55.5t-3.5 -48.5q0 -35 17 -50.5t40 -15.5q20 0 39.5 13t34.5 30q18 18 33 43q1 3 5 7q2 2 6 4.5t9 2.5q8 0 14.5 -6t6.5 -14q0 -4 -1.5 -7.5t-3.5 -7.5t-4 -9q-22 -35 -49 -62q-23 -23 -54.5 -42t-68.5 -19zM220 91q36 0 66 17t60.5 51.5t64 87t75.5 122.5
q-38 15 -78.5 24.5t-83.5 9.5q-108 0 -169 -51.5t-61 -137.5q0 -27 10 -50t27 -39t40 -25t49 -9zM607 384q32 -13 62.5 -25t60.5 -21q13 44 29.5 87.5t33.5 84t34.5 76.5t33.5 65l7 12q-5 2 -9.5 3t-12.5 1q-27 0 -51.5 -16t-52 -50t-60 -88t-75.5 -129zM972 755
q-18 0 -41 5.5t-47 12.5t-46.5 12.5t-40.5 5.5q-19 0 -36 -10t-25 -10q-5 0 -9 3.5t-4 9.5q0 5 3.5 11.5t7.5 11.5q6 9 16.5 20t22.5 20t25.5 15.5t26.5 6.5q18 0 39.5 -6t43.5 -13t43.5 -13t40.5 -6q12 0 22.5 3.5t19.5 8l16 8t11 3.5q5 0 9 -2.5t4 -7.5t-2 -10t-4 -9
q-17 -25 -41 -47.5t-55 -22.5z" />
    <glyph glyph-name="Adieresis" unicode="&#xc4;" horiz-adv-x="976" 
d="M836 -10q-28 0 -54 10t-45.5 28t-31 43.5t-11.5 56.5q0 59 15 127q-31 15 -64 34t-70 39q-43 -77 -78 -139.5t-72 -106.5t-80 -68t-102 -24q-44 0 -87.5 21.5t-78 58t-56 84t-21.5 99.5q0 49 17.5 91.5t50 74t78.5 49.5t103 18q69 0 136 -19t132 -45q46 75 85 132
t75.5 94.5t72 56.5t74.5 19q31 0 53 -12t27 -17q21 13 43 17.5t38 4.5q30 0 30 -14q0 -5 -5.5 -11.5t-18.5 -21.5q-10 -12 -27.5 -47.5t-37.5 -84.5t-41 -107t-38 -116h12q14 0 26.5 4t23 8.5t18 8.5t12.5 4q3 0 6 -3t3 -9q0 -7 -10.5 -22t-27.5 -31t-39 -30t-46 -18
q-6 -29 -9.5 -55.5t-3.5 -48.5q0 -35 17 -50.5t40 -15.5q20 0 39.5 13t34.5 30q18 18 33 43q1 3 5 7q2 2 6 4.5t9 2.5q8 0 14.5 -6t6.5 -14q0 -4 -1.5 -7.5t-3.5 -7.5t-4 -9q-22 -35 -49 -62q-23 -23 -54.5 -42t-68.5 -19zM220 91q36 0 66 17t60.5 51.5t64 87t75.5 122.5
q-38 15 -78.5 24.5t-83.5 9.5q-108 0 -169 -51.5t-61 -137.5q0 -27 10 -50t27 -39t40 -25t49 -9zM607 384q32 -13 62.5 -25t60.5 -21q13 44 29.5 87.5t33.5 84t34.5 76.5t33.5 65l7 12q-5 2 -9.5 3t-12.5 1q-27 0 -51.5 -16t-52 -50t-60 -88t-75.5 -129zM932 827
q0 13 5.5 26.5t15 24.5t22 18.5t26.5 7.5q19 0 30.5 -14t11.5 -34q0 -13 -5 -27t-14.5 -25t-22.5 -18.5t-29 -7.5q-17 0 -28.5 14t-11.5 35zM787 827q0 13 5.5 26.5t15 24.5t22 18.5t26.5 7.5q19 0 30.5 -14t11.5 -34q0 -13 -5 -27t-14.5 -25t-22.5 -18.5t-29 -7.5
q-17 0 -28.5 14t-11.5 35z" />
    <glyph glyph-name="Aring" unicode="&#xc5;" horiz-adv-x="976" 
d="M836 -10q-28 0 -54 10t-45.5 28t-31 43.5t-11.5 56.5q0 59 15 127q-31 15 -64 34t-70 39q-43 -77 -78 -139.5t-72 -106.5t-80 -68t-102 -24q-44 0 -87.5 21.5t-78 58t-56 84t-21.5 99.5q0 49 17.5 91.5t50 74t78.5 49.5t103 18q69 0 136 -19t132 -45q46 75 85 132
t75.5 94.5t72 56.5t74.5 19q31 0 53 -12t27 -17q21 13 43 17.5t38 4.5q30 0 30 -14q0 -5 -5.5 -11.5t-18.5 -21.5q-10 -12 -27.5 -47.5t-37.5 -84.5t-41 -107t-38 -116h12q14 0 26.5 4t23 8.5t18 8.5t12.5 4q3 0 6 -3t3 -9q0 -7 -10.5 -22t-27.5 -31t-39 -30t-46 -18
q-6 -29 -9.5 -55.5t-3.5 -48.5q0 -35 17 -50.5t40 -15.5q20 0 39.5 13t34.5 30q18 18 33 43q1 3 5 7q2 2 6 4.5t9 2.5q8 0 14.5 -6t6.5 -14q0 -4 -1.5 -7.5t-3.5 -7.5t-4 -9q-22 -35 -49 -62q-23 -23 -54.5 -42t-68.5 -19zM220 91q36 0 66 17t60.5 51.5t64 87t75.5 122.5
q-38 15 -78.5 24.5t-83.5 9.5q-108 0 -169 -51.5t-61 -137.5q0 -27 10 -50t27 -39t40 -25t49 -9zM807 868q0 44 30 74t74 30t74 -30t30 -74t-30 -74t-74 -30t-74 30t-30 74zM607 384q32 -13 62.5 -25t60.5 -21q13 44 29.5 87.5t33.5 84t34.5 76.5t33.5 65l7 12q-5 2 -9.5 3
t-12.5 1q-27 0 -51.5 -16t-52 -50t-60 -88t-75.5 -129zM867 868q0 -18 13 -31t31 -13t30 13t12 31t-12 30t-30 12t-31 -12t-13 -30z" />
    <glyph glyph-name="AE" unicode="&#xc6;" horiz-adv-x="1151" 
d="M932 671q35 26 81.5 39.5t105.5 13.5q27 0 50.5 -6.5t41 -18t27.5 -28t10 -36.5t-14 -40t-32.5 -36t-36.5 -26t-25 -10q-9 0 -13 3.5t-4 8.5q0 7 7 17t15 23.5t15 31t7 39.5q0 16 -15 25.5t-36 9.5q-27 0 -54.5 -14t-50 -38t-36.5 -57.5t-14 -72.5q0 -19 3.5 -34t8.5 -26
q5 -13 12 -23q8 1 19 3q9 1 21.5 2t28.5 1q59 0 59 -35q0 -15 -17.5 -30.5t-46.5 -15.5q-18 0 -33 2.5t-26 6.5q-12 4 -22 10q-37 -22 -66 -52q-25 -26 -45.5 -64t-20.5 -89q0 -63 34 -93.5t97 -30.5q27 0 53.5 10.5t50.5 26.5t44.5 36t35.5 39q2 3 6 7q3 2 6.5 4.5t8.5 2.5
q9 0 15 -6t6 -14q0 -4 -2 -7.5t-4 -7.5q-3 -4 -5 -9q-14 -20 -37.5 -44.5t-55.5 -46t-71 -36.5t-85 -15q-42 0 -84 10t-75.5 32t-55 56.5t-21.5 82.5q0 22 5 47q2 14 4.5 27.5t4.5 27.5q-31 15 -64.5 34.5t-71.5 39.5q-43 -77 -78 -139.5t-72 -106.5t-80 -68t-102 -24
q-44 0 -87.5 21.5t-78 58t-56 84t-21.5 99.5q0 49 17.5 91.5t50 74t78.5 49.5t103 18q69 0 136 -19t132 -45q46 75 85 132t75.5 94.5t72 56.5t74.5 19q15 0 33 -7.5t33.5 -17t27 -18t14.5 -10.5zM220 91q36 0 66 17t60.5 51.5t64 87t75.5 122.5q-38 15 -78.5 24.5t-83.5 9.5
q-108 0 -169 -51.5t-61 -137.5q0 -27 10 -50t27 -39t40 -25t49 -9zM868 663q-5 2 -9.5 3t-12.5 1q-27 0 -51.5 -16t-52 -50t-60 -88t-75.5 -129q32 -13 63 -25t61 -22q13 44 28.5 87.5t33 84t35 76.5t33.5 66zM866 378q17 8 28 12t13 5q-1 0 -9 5t-19 14z" />
    <glyph glyph-name="Ccedilla" unicode="&#xc7;" horiz-adv-x="659" 
d="M691 113q-16 -24 -38.5 -47.5t-51.5 -43t-64 -33t-75 -17.5q0 -11 3.5 -25.5t15.5 -14.5q13 0 27.5 2t25.5 2q15 0 22.5 -10t7.5 -26q0 -20 -10.5 -44.5t-32 -46t-54 -36t-75.5 -14.5q-32 0 -54 13t-22 35q0 17 12 30.5t27 13.5q11 0 17 -5t12 -11t14.5 -11t24.5 -5
t32 6.5t28.5 15t20 17t7.5 13.5t-5 5q-23 0 -47 -7.5t-41 -7.5q-13 0 -20 9t-7 17q0 10 1.5 22.5t4 25t4.5 23t3 15.5q-43 4 -84 20t-73.5 45.5t-52 73t-19.5 101.5q0 28 4 56t12 56q-45 11 -80 28.5t-60 39t-38 45.5t-13 48q0 42 25.5 78t60 62t70.5 41t57 15q17 0 17 -11
q0 -7 -5.5 -11t-13.5 -11q-11 -8 -24.5 -19.5t-25.5 -28t-20 -39t-8 -53.5q0 -33 16.5 -65.5t63.5 -52.5q28 68 72.5 128.5t96 106t106 72t102.5 26.5q30 0 56.5 -14t45.5 -35t30 -45.5t11 -45.5q0 -39 -28.5 -86t-81 -88t-127 -69t-167.5 -30q-12 -51 -12 -101
q0 -96 38.5 -137.5t110.5 -41.5q27 0 54 9t52.5 24t47.5 35.5t39 43.5q1 3 5 7q2 2 6 4.5t9 2.5q9 0 15 -6t6 -14q0 -4 -1.5 -7.5t-3.5 -7.5t-4 -9zM601 656q-33 0 -69 -23t-70.5 -62.5t-64.5 -91t-50 -108.5q68 2 122.5 27.5t92.5 62.5t58 79t20 78q0 17 -10 27.5t-29 10.5
z" />
    <glyph glyph-name="Egrave" unicode="&#xc8;" horiz-adv-x="476" 
d="M258 -29q-42 0 -84 10t-75.5 32t-55 56.5t-21.5 82.5q0 43 15 77t37.5 61t49 46t49.5 32t39.5 19.5t19.5 7.5q-1 0 -11 5.5t-22 17t-23 29.5t-15 44q-76 7 -113.5 30t-37.5 59q0 25 14.5 49t34.5 43t40.5 31t31.5 12q5 0 7 -3t2 -6q0 -5 -9 -17.5t-9 -30.5
q0 -24 14 -44.5t39 -36.5q16 31 45.5 58t66 47t77.5 31t80 11q27 0 50.5 -6.5t41 -18t27.5 -28t10 -36.5q0 -26 -20 -50t-57.5 -43.5t-90.5 -33t-119 -17.5q1 -17 4.5 -30.5t8.5 -23.5q5 -11 11 -21q8 1 19 3q9 1 21.5 2t28.5 1q59 0 59 -35q0 -15 -17.5 -30.5t-46.5 -15.5
q-18 0 -33 2.5t-26 6.5q-12 4 -22 10q-37 -22 -66 -52q-25 -26 -45.5 -64t-20.5 -89q0 -63 34 -93.5t97 -30.5q54 0 102 30t82 82q1 3 5 7q2 2 6 4.5t9 2.5q9 0 15 -6t6 -14q0 -5 -4 -15l-4 -8q-16 -27 -40 -52.5t-55.5 -45.5t-70.5 -32.5t-85 -12.5zM441 681q-23 0 -46 -10
t-43 -27.5t-36 -42t-24 -53.5q43 0 79.5 7t63.5 20t42 31t15 40q0 16 -15 25.5t-36 9.5zM401 941q16 0 24 -20q7 -17 17.5 -36t23.5 -35.5t26 -30t24 -20.5q10 -5 13 -9t3 -10t-4.5 -10.5t-13.5 -4.5q-11 0 -28.5 5.5t-37.5 15t-39.5 21.5t-35.5 26q-15 13 -19.5 21.5
t-4.5 20.5q0 8 6 19.5t14 22t17 17.5t15 7z" />
    <glyph glyph-name="Eacute" unicode="&#xc9;" horiz-adv-x="476" 
d="M258 -29q-42 0 -84 10t-75.5 32t-55 56.5t-21.5 82.5q0 43 15 77t37.5 61t49 46t49.5 32t39.5 19.5t19.5 7.5q-1 0 -11 5.5t-22 17t-23 29.5t-15 44q-76 7 -113.5 30t-37.5 59q0 25 14.5 49t34.5 43t40.5 31t31.5 12q5 0 7 -3t2 -6q0 -5 -9 -17.5t-9 -30.5
q0 -24 14 -44.5t39 -36.5q16 31 45.5 58t66 47t77.5 31t80 11q27 0 50.5 -6.5t41 -18t27.5 -28t10 -36.5q0 -26 -20 -50t-57.5 -43.5t-90.5 -33t-119 -17.5q1 -17 4.5 -30.5t8.5 -23.5q5 -11 11 -21q8 1 19 3q9 1 21.5 2t28.5 1q59 0 59 -35q0 -15 -17.5 -30.5t-46.5 -15.5
q-18 0 -33 2.5t-26 6.5q-12 4 -22 10q-37 -22 -66 -52q-25 -26 -45.5 -64t-20.5 -89q0 -63 34 -93.5t97 -30.5q54 0 102 30t82 82q1 3 5 7q2 2 6 4.5t9 2.5q9 0 15 -6t6 -14q0 -5 -4 -15l-4 -8q-16 -27 -40 -52.5t-55.5 -45.5t-70.5 -32.5t-85 -12.5zM441 681q-23 0 -46 -10
t-43 -27.5t-36 -42t-24 -53.5q43 0 79.5 7t63.5 20t42 31t15 40q0 16 -15 25.5t-36 9.5zM501 927q6 0 14.5 -7t17 -17.5t14 -22t5.5 -19.5q0 -12 -4.5 -20.5t-19.5 -21.5q-16 -14 -36.5 -24t-41 -16.5t-38.5 -10t-30 -3.5q-8 0 -13 4.5t-5 10.5t3 10t13 9q23 14 48.5 42.5
t48.5 65.5q6 10 11 15t13 5z" />
    <glyph glyph-name="Ecircumflex" unicode="&#xca;" horiz-adv-x="476" 
d="M258 -29q-42 0 -84 10t-75.5 32t-55 56.5t-21.5 82.5q0 43 15 77t37.5 61t49 46t49.5 32t39.5 19.5t19.5 7.5q-1 0 -11 5.5t-22 17t-23 29.5t-15 44q-76 7 -113.5 30t-37.5 59q0 25 14.5 49t34.5 43t40.5 31t31.5 12q5 0 7 -3t2 -6q0 -5 -9 -17.5t-9 -30.5
q0 -24 14 -44.5t39 -36.5q16 31 45.5 58t66 47t77.5 31t80 11q27 0 50.5 -6.5t41 -18t27.5 -28t10 -36.5q0 -26 -20 -50t-57.5 -43.5t-90.5 -33t-119 -17.5q1 -17 4.5 -30.5t8.5 -23.5q5 -11 11 -21q8 1 19 3q9 1 21.5 2t28.5 1q59 0 59 -35q0 -15 -17.5 -30.5t-46.5 -15.5
q-18 0 -33 2.5t-26 6.5q-12 4 -22 10q-37 -22 -66 -52q-25 -26 -45.5 -64t-20.5 -89q0 -63 34 -93.5t97 -30.5q54 0 102 30t82 82q1 3 5 7q2 2 6 4.5t9 2.5q9 0 15 -6t6 -14q0 -5 -4 -15l-4 -8q-16 -27 -40 -52.5t-55.5 -45.5t-70.5 -32.5t-85 -12.5zM445 810q-2 0 -6 -2
l-8 -4q-17 -10 -36 -19.5t-36 -17t-29.5 -12.5t-17.5 -5q-8 0 -13 5.5t-5 11.5q0 13 16 24q26 17 47.5 34.5t50.5 48.5q11 14 20.5 24t29.5 10q11 0 16.5 -3t9.5 -8t7 -12t8 -15q16 -26 32.5 -45t33.5 -33q10 -7 14 -11t4 -12q0 -6 -5.5 -12.5t-13.5 -6.5q-4 0 -14 2.5
t-24.5 8.5t-32.5 16.5t-37 26.5q-6 6 -11 6zM441 681q-23 0 -46 -10t-43 -27.5t-36 -42t-24 -53.5q43 0 79.5 7t63.5 20t42 31t15 40q0 16 -15 25.5t-36 9.5z" />
    <glyph glyph-name="Edieresis" unicode="&#xcb;" horiz-adv-x="476" 
d="M258 -29q-42 0 -84 10t-75.5 32t-55 56.5t-21.5 82.5q0 43 15 77t37.5 61t49 46t49.5 32t39.5 19.5t19.5 7.5q-1 0 -11 5.5t-22 17t-23 29.5t-15 44q-76 7 -113.5 30t-37.5 59q0 25 14.5 49t34.5 43t40.5 31t31.5 12q5 0 7 -3t2 -6q0 -5 -9 -17.5t-9 -30.5
q0 -24 14 -44.5t39 -36.5q16 31 45.5 58t66 47t77.5 31t80 11q27 0 50.5 -6.5t41 -18t27.5 -28t10 -36.5q0 -26 -20 -50t-57.5 -43.5t-90.5 -33t-119 -17.5q1 -17 4.5 -30.5t8.5 -23.5q5 -11 11 -21q8 1 19 3q9 1 21.5 2t28.5 1q59 0 59 -35q0 -15 -17.5 -30.5t-46.5 -15.5
q-18 0 -33 2.5t-26 6.5q-12 4 -22 10q-37 -22 -66 -52q-25 -26 -45.5 -64t-20.5 -89q0 -63 34 -93.5t97 -30.5q54 0 102 30t82 82q1 3 5 7q2 2 6 4.5t9 2.5q9 0 15 -6t6 -14q0 -5 -4 -15l-4 -8q-16 -27 -40 -52.5t-55.5 -45.5t-70.5 -32.5t-85 -12.5zM441 681q-23 0 -46 -10
t-43 -27.5t-36 -42t-24 -53.5q43 0 79.5 7t63.5 20t42 31t15 40q0 16 -15 25.5t-36 9.5zM332 810q0 13 5.5 26.5t15 24.5t22 18.5t26.5 7.5q19 0 30.5 -14t11.5 -34q0 -13 -5 -27t-14.5 -25t-22.5 -18.5t-29 -7.5q-17 0 -28.5 14t-11.5 35zM477 810q0 13 5.5 26.5t15 24.5
t22 18.5t26.5 7.5q19 0 30.5 -14t11.5 -34q0 -13 -5 -27t-14.5 -25t-22.5 -18.5t-29 -7.5q-17 0 -28.5 14t-11.5 35z" />
    <glyph glyph-name="Igrave" unicode="&#xcc;" horiz-adv-x="537" 
d="M582 724q17 0 30 -10.5t13 -30.5q0 -14 -6.5 -25.5t-16 -20.5t-21.5 -15t-23 -8q-6 -6 -12 -22.5t-12 -46.5t-14 -76t-19 -111q-13 -81 -37 -148.5t-60 -116t-85 -76t-113 -27.5q-44 0 -80.5 18t-62.5 44t-40.5 55.5t-14.5 52.5q0 8 3.5 14t11.5 6q7 0 10 -4l6 -8
q7 -11 18 -23.5t26 -24t33.5 -19t41.5 -7.5q45 0 81 21t64.5 57.5t50 87.5t37.5 111t29.5 104.5t24.5 74.5q12 35 23 60q-67 -19 -120 -52q-23 -14 -44 -32.5t-38 -42t-27 -52.5t-10 -64q0 -32 12 -48t23 -25q5 -5 10.5 -9t5.5 -10q0 -13 -20 -13q-18 0 -43 11t-48 31
t-39 48.5t-16 63.5q0 38 17.5 70t47 58t68 46t80 36t83.5 27t78 18q23 31 47 42t47 11zM513 945q16 0 24 -20q7 -17 17.5 -36t23.5 -35.5t26 -30t24 -20.5q10 -5 13 -9t3 -10t-4.5 -10.5t-13.5 -4.5q-11 0 -28.5 5.5t-37.5 15t-39.5 21.5t-35.5 26q-15 13 -19.5 21.5
t-4.5 20.5q0 8 6 19.5t14 22t17 17.5t15 7z" />
    <glyph glyph-name="Iacute" unicode="&#xcd;" horiz-adv-x="537" 
d="M582 724q17 0 30 -10.5t13 -30.5q0 -14 -6.5 -25.5t-16 -20.5t-21.5 -15t-23 -8q-6 -6 -12 -22.5t-12 -46.5t-14 -76t-19 -111q-13 -81 -37 -148.5t-60 -116t-85 -76t-113 -27.5q-44 0 -80.5 18t-62.5 44t-40.5 55.5t-14.5 52.5q0 8 3.5 14t11.5 6q7 0 10 -4l6 -8
q7 -11 18 -23.5t26 -24t33.5 -19t41.5 -7.5q45 0 81 21t64.5 57.5t50 87.5t37.5 111t29.5 104.5t24.5 74.5q12 35 23 60q-67 -19 -120 -52q-23 -14 -44 -32.5t-38 -42t-27 -52.5t-10 -64q0 -32 12 -48t23 -25q5 -5 10.5 -9t5.5 -10q0 -13 -20 -13q-18 0 -43 11t-48 31
t-39 48.5t-16 63.5q0 38 17.5 70t47 58t68 46t80 36t83.5 27t78 18q23 31 47 42t47 11zM573 909q6 0 14.5 -7t17 -17.5t14 -22t5.5 -19.5q0 -12 -4.5 -20.5t-19.5 -21.5q-16 -14 -36.5 -24t-41 -16.5t-38.5 -10t-30 -3.5q-8 0 -13 4.5t-5 10.5t3 10t13 9q23 14 48.5 42.5
t48.5 65.5q6 10 11 15t13 5z" />
    <glyph glyph-name="Icircumflex" unicode="&#xce;" horiz-adv-x="537" 
d="M582 724q17 0 30 -10.5t13 -30.5q0 -14 -6.5 -25.5t-16 -20.5t-21.5 -15t-23 -8q-6 -6 -12 -22.5t-12 -46.5t-14 -76t-19 -111q-13 -81 -37 -148.5t-60 -116t-85 -76t-113 -27.5q-44 0 -80.5 18t-62.5 44t-40.5 55.5t-14.5 52.5q0 8 3.5 14t11.5 6q7 0 10 -4l6 -8
q7 -11 18 -23.5t26 -24t33.5 -19t41.5 -7.5q45 0 81 21t64.5 57.5t50 87.5t37.5 111t29.5 104.5t24.5 74.5q12 35 23 60q-67 -19 -120 -52q-23 -14 -44 -32.5t-38 -42t-27 -52.5t-10 -64q0 -32 12 -48t23 -25q5 -5 10.5 -9t5.5 -10q0 -13 -20 -13q-18 0 -43 11t-48 31
t-39 48.5t-16 63.5q0 38 17.5 70t47 58t68 46t80 36t83.5 27t78 18q23 31 47 42t47 11zM577 806q-2 0 -6 -2l-8 -4q-17 -10 -36 -19.5t-36 -17t-29.5 -12.5t-17.5 -5q-8 0 -13 5.5t-5 11.5q0 13 16 24q26 17 47.5 34.5t50.5 48.5q11 14 20.5 24t29.5 10q11 0 16.5 -3t9.5 -8
t7 -12t8 -15q16 -26 32.5 -45t33.5 -33q10 -7 14 -11t4 -12q0 -6 -5.5 -12.5t-13.5 -6.5q-4 0 -14 2.5t-24.5 8.5t-32.5 16.5t-37 26.5q-6 6 -11 6z" />
    <glyph glyph-name="Idieresis" unicode="&#xcf;" horiz-adv-x="537" 
d="M582 724q17 0 30 -10.5t13 -30.5q0 -14 -6.5 -25.5t-16 -20.5t-21.5 -15t-23 -8q-6 -6 -12 -22.5t-12 -46.5t-14 -76t-19 -111q-13 -81 -37 -148.5t-60 -116t-85 -76t-113 -27.5q-44 0 -80.5 18t-62.5 44t-40.5 55.5t-14.5 52.5q0 8 3.5 14t11.5 6q7 0 10 -4l6 -8
q7 -11 18 -23.5t26 -24t33.5 -19t41.5 -7.5q45 0 81 21t64.5 57.5t50 87.5t37.5 111t29.5 104.5t24.5 74.5q12 35 23 60q-67 -19 -120 -52q-23 -14 -44 -32.5t-38 -42t-27 -52.5t-10 -64q0 -32 12 -48t23 -25q5 -5 10.5 -9t5.5 -10q0 -13 -20 -13q-18 0 -43 11t-48 31
t-39 48.5t-16 63.5q0 38 17.5 70t47 58t68 46t80 36t83.5 27t78 18q23 31 47 42t47 11zM458 812q0 13 5.5 26.5t15 24.5t22 18.5t26.5 7.5q19 0 30.5 -14t11.5 -34q0 -13 -5 -27t-14.5 -25t-22.5 -18.5t-29 -7.5q-17 0 -28.5 14t-11.5 35zM603 812q0 13 5.5 26.5t15 24.5
t22 18.5t26.5 7.5q19 0 30.5 -14t11.5 -34q0 -13 -5 -27t-14.5 -25t-22.5 -18.5t-29 -7.5q-17 0 -28.5 14t-11.5 35z" />
    <glyph glyph-name="Eth" unicode="&#xd0;" horiz-adv-x="928" 
d="M292 326h36.5t30.5 2l30 84t29.5 77.5t27 60.5t23.5 32q36 24 70.5 32.5t51.5 8.5q10 0 13 -4t3 -10t-19.5 -29t-37.5 -63q-3 -6 -9 -22.5t-14.5 -40.5t-19 -53.5t-22.5 -61.5h2q13 0 28 -10.5t27.5 -24t21 -27t8.5 -19.5t-5.5 -11t-9.5 -5q-6 0 -23.5 10t-42.5 10
q-20 0 -36 -3q-10 -24 -20 -47.5t-20 -45.5q-6 -13 -12.5 -24.5t-13.5 -22.5q35 -18 70 -30t71 -12q54 0 99 30.5t77.5 79.5t50.5 111.5t18 127.5q0 63 -20 108.5t-53 75t-76 43.5t-88 14q-140 0 -215 -42.5t-75 -133.5q0 -23 7.5 -38.5t17 -26t17 -17t7.5 -11.5
q0 -19 -21 -19q-20 0 -47.5 9t-52 26t-42 40.5t-17.5 53.5q0 56 36 96.5t95.5 67t135.5 39.5t156 13q57 0 121 -19t118 -59t89.5 -102.5t35.5 -149.5q0 -76 -24 -148.5t-67 -129.5t-102 -91.5t-129 -34.5q-65 0 -124.5 22t-114.5 50q-38 -37 -84 -54.5t-99 -17.5
q-31 0 -59.5 8t-51 23t-36 36t-13.5 47q0 28 12 50t30.5 37t41 23t44.5 8q45 0 86 -15.5t82 -36.5q4 6 7 12.5t6 13.5l10 23h-7q-20 0 -37.5 15.5t-31 35.5t-21.5 39t-8 27q0 6 4 10t9 4t11 -4t13.5 -8.5t17.5 -8t23 -3.5zM135 146q-23 0 -38 -15t-15 -35t17.5 -32.5
t41.5 -12.5q33 0 61 13.5t54 43.5q-34 17 -64 27.5t-57 10.5z" />
    <glyph glyph-name="Ntilde" unicode="&#xd1;" horiz-adv-x="855" 
d="M716 69q-7 -16 -20.5 -30t-27.5 -25t-27 -17.5t-19 -6.5q-11 0 -23 9t-22 25t-17 36t-10 43t-5 70.5t-4 101t-3 105t-1 83.5q-13 -43 -29 -94.5t-36.5 -104t-45 -102t-54 -88t-64.5 -61.5t-75 -23q-46 0 -88 17.5t-74.5 43.5t-51.5 56t-19 56q0 30 19 55.5t46.5 43.5
t57.5 28.5t52 10.5q11 0 18 -4.5t7 -10.5q0 -8 -4.5 -14t-15.5 -15q-8 -7 -19 -17t-21 -24.5t-16.5 -32.5t-6.5 -40q0 -32 20.5 -52.5t49.5 -20.5q28 0 62.5 32t69.5 82.5t68 113.5t59 124t41.5 113.5t15.5 83.5q0 18 -12 31.5t-40 13.5q-23 0 -55.5 -15.5t-62 -41.5
t-50.5 -60t-21 -70q0 -23 8 -40t17 -29t17 -20t8 -13q0 -20 -21 -20q-20 0 -47.5 10.5t-52.5 29.5t-42 44t-17 55q0 46 32.5 88t82 73.5t109 50t114.5 18.5q24 0 54 -10.5t57 -31.5t46 -53.5t21 -75.5q2 -46 3 -97.5t3.5 -104t6 -104.5t10.5 -98q5 13 14.5 44t22.5 73.5
t29.5 92t35.5 99.5t39.5 96.5t41.5 82t42.5 57t41.5 21.5q21 0 42 -7t37.5 -17t27 -21.5t10.5 -20.5t-5 -14t-13 -5q-39 0 -74.5 -33.5t-66.5 -86.5t-58.5 -117.5t-50 -127t-40.5 -115t-31 -81.5zM815 743q-18 0 -41 5.5t-47 12.5t-46.5 12.5t-40.5 5.5q-19 0 -36 -10
t-25 -10q-5 0 -9 3.5t-4 9.5q0 5 3.5 11.5t7.5 11.5q6 9 16.5 20t22.5 20t25.5 15.5t26.5 6.5q18 0 39.5 -6t43.5 -13t43.5 -13t40.5 -6q12 0 22.5 3.5t19.5 8l16 8t11 3.5q5 0 9 -2.5t4 -7.5t-2 -10t-4 -9q-17 -25 -41 -47.5t-55 -22.5z" />
    <glyph glyph-name="Ograve" unicode="&#xd2;" horiz-adv-x="577" 
d="M381 724q48 0 89.5 -17t72.5 -47t48.5 -71t17.5 -90q0 -56 -13.5 -116t-38.5 -116.5t-60.5 -107t-79 -88t-94 -59.5t-106.5 -22q-43 0 -82 17.5t-69 48t-47.5 73t-17.5 93.5q0 66 16 129t44 118.5t65 102.5t79 80.5t87 52.5t89 19zM409 669q-29 0 -57 -15t-50 -41
t-35.5 -61t-13.5 -75q0 -23 6 -41.5t16 -31.5t23 -20t26 -7q11 0 15 2t9 2q12 0 12 -12q0 -5 -5 -11.5t-15 -13.5t-26.5 -11.5t-38.5 -4.5q-20 0 -40.5 10.5t-37 29.5t-27 45t-10.5 57q-11 -24 -19 -57q-8 -29 -13.5 -70.5t-5.5 -97.5q0 -46 10 -82t26.5 -60.5t37.5 -37.5
t43 -13q34 0 65 23.5t58 63t49.5 92.5t38 111.5t24 119.5t8.5 118q0 43 -22 66t-51 23zM410 932q16 0 24 -20q7 -17 17.5 -36t23.5 -35.5t26 -30t24 -20.5q10 -5 13 -9t3 -10t-4.5 -10.5t-13.5 -4.5q-11 0 -28.5 5.5t-37.5 15t-39.5 21.5t-35.5 26q-15 13 -19.5 21.5
t-4.5 20.5q0 8 6 19.5t14 22t17 17.5t15 7z" />
    <glyph glyph-name="Oacute" unicode="&#xd3;" horiz-adv-x="577" 
d="M381 724q48 0 89.5 -17t72.5 -47t48.5 -71t17.5 -90q0 -56 -13.5 -116t-38.5 -116.5t-60.5 -107t-79 -88t-94 -59.5t-106.5 -22q-43 0 -82 17.5t-69 48t-47.5 73t-17.5 93.5q0 66 16 129t44 118.5t65 102.5t79 80.5t87 52.5t89 19zM409 669q-29 0 -57 -15t-50 -41
t-35.5 -61t-13.5 -75q0 -23 6 -41.5t16 -31.5t23 -20t26 -7q11 0 15 2t9 2q12 0 12 -12q0 -5 -5 -11.5t-15 -13.5t-26.5 -11.5t-38.5 -4.5q-20 0 -40.5 10.5t-37 29.5t-27 45t-10.5 57q-11 -24 -19 -57q-8 -29 -13.5 -70.5t-5.5 -97.5q0 -46 10 -82t26.5 -60.5t37.5 -37.5
t43 -13q34 0 65 23.5t58 63t49.5 92.5t38 111.5t24 119.5t8.5 118q0 43 -22 66t-51 23zM472 933q6 0 14.5 -7t17 -17.5t14 -22t5.5 -19.5q0 -12 -4.5 -20.5t-19.5 -21.5q-16 -14 -36.5 -24t-41 -16.5t-38.5 -10t-30 -3.5q-8 0 -13 4.5t-5 10.5t3 10t13 9q23 14 48.5 42.5
t48.5 65.5q6 10 11 15t13 5z" />
    <glyph glyph-name="Ocircumflex" unicode="&#xd4;" horiz-adv-x="577" 
d="M381 724q48 0 89.5 -17t72.5 -47t48.5 -71t17.5 -90q0 -56 -13.5 -116t-38.5 -116.5t-60.5 -107t-79 -88t-94 -59.5t-106.5 -22q-43 0 -82 17.5t-69 48t-47.5 73t-17.5 93.5q0 66 16 129t44 118.5t65 102.5t79 80.5t87 52.5t89 19zM409 669q-29 0 -57 -15t-50 -41
t-35.5 -61t-13.5 -75q0 -23 6 -41.5t16 -31.5t23 -20t26 -7q11 0 15 2t9 2q12 0 12 -12q0 -5 -5 -11.5t-15 -13.5t-26.5 -11.5t-38.5 -4.5q-20 0 -40.5 10.5t-37 29.5t-27 45t-10.5 57q-11 -24 -19 -57q-8 -29 -13.5 -70.5t-5.5 -97.5q0 -46 10 -82t26.5 -60.5t37.5 -37.5
t43 -13q34 0 65 23.5t58 63t49.5 92.5t38 111.5t24 119.5t8.5 118q0 43 -22 66t-51 23zM410 823q-2 0 -6 -2l-8 -4q-17 -10 -36 -19.5t-36 -17t-29.5 -12.5t-17.5 -5q-8 0 -13 5.5t-5 11.5q0 13 16 24q26 17 47.5 34.5t50.5 48.5q11 14 20.5 24t29.5 10q11 0 16.5 -3t9.5 -8
t7 -12t8 -15q16 -26 32.5 -45t33.5 -33q10 -7 14 -11t4 -12q0 -6 -5.5 -12.5t-13.5 -6.5q-4 0 -14 2.5t-24.5 8.5t-32.5 16.5t-37 26.5q-6 6 -11 6z" />
    <glyph glyph-name="Otilde" unicode="&#xd5;" horiz-adv-x="577" 
d="M381 724q48 0 89.5 -17t72.5 -47t48.5 -71t17.5 -90q0 -56 -13.5 -116t-38.5 -116.5t-60.5 -107t-79 -88t-94 -59.5t-106.5 -22q-43 0 -82 17.5t-69 48t-47.5 73t-17.5 93.5q0 66 16 129t44 118.5t65 102.5t79 80.5t87 52.5t89 19zM409 669q-29 0 -57 -15t-50 -41
t-35.5 -61t-13.5 -75q0 -23 6 -41.5t16 -31.5t23 -20t26 -7q11 0 15 2t9 2q12 0 12 -12q0 -5 -5 -11.5t-15 -13.5t-26.5 -11.5t-38.5 -4.5q-20 0 -40.5 10.5t-37 29.5t-27 45t-10.5 57q-11 -24 -19 -57q-8 -29 -13.5 -70.5t-5.5 -97.5q0 -46 10 -82t26.5 -60.5t37.5 -37.5
t43 -13q34 0 65 23.5t58 63t49.5 92.5t38 111.5t24 119.5t8.5 118q0 43 -22 66t-51 23zM529 760q-18 0 -41 5.5t-47 12.5t-46.5 12.5t-40.5 5.5q-19 0 -36 -10t-25 -10q-5 0 -9 3.5t-4 9.5q0 5 3.5 11.5t7.5 11.5q6 9 16.5 20t22.5 20t25.5 15.5t26.5 6.5q18 0 39.5 -6
t43.5 -13t43.5 -13t40.5 -6q12 0 22.5 3.5t19.5 8l16 8t11 3.5q5 0 9 -2.5t4 -7.5t-2 -10t-4 -9q-17 -25 -41 -47.5t-55 -22.5z" />
    <glyph glyph-name="Odieresis" unicode="&#xd6;" horiz-adv-x="577" 
d="M381 724q48 0 89.5 -17t72.5 -47t48.5 -71t17.5 -90q0 -56 -13.5 -116t-38.5 -116.5t-60.5 -107t-79 -88t-94 -59.5t-106.5 -22q-43 0 -82 17.5t-69 48t-47.5 73t-17.5 93.5q0 66 16 129t44 118.5t65 102.5t79 80.5t87 52.5t89 19zM409 669q-29 0 -57 -15t-50 -41
t-35.5 -61t-13.5 -75q0 -23 6 -41.5t16 -31.5t23 -20t26 -7q11 0 15 2t9 2q12 0 12 -12q0 -5 -5 -11.5t-15 -13.5t-26.5 -11.5t-38.5 -4.5q-20 0 -40.5 10.5t-37 29.5t-27 45t-10.5 57q-11 -24 -19 -57q-8 -29 -13.5 -70.5t-5.5 -97.5q0 -46 10 -82t26.5 -60.5t37.5 -37.5
t43 -13q34 0 65 23.5t58 63t49.5 92.5t38 111.5t24 119.5t8.5 118q0 43 -22 66t-51 23zM289 817q0 13 5.5 26.5t15 24.5t22 18.5t26.5 7.5q19 0 30.5 -14t11.5 -34q0 -13 -5 -27t-14.5 -25t-22.5 -18.5t-29 -7.5q-17 0 -28.5 14t-11.5 35zM434 817q0 13 5.5 26.5t15 24.5
t22 18.5t26.5 7.5q19 0 30.5 -14t11.5 -34q0 -13 -5 -27t-14.5 -25t-22.5 -18.5t-29 -7.5q-17 0 -28.5 14t-11.5 35z" />
    <glyph glyph-name="multiply" unicode="&#xd7;" horiz-adv-x="382" 
d="M288 467q3 3 9 3q9 0 19.5 -6t18.5 -14t15 -20t7 -20q0 -4 -2 -6l-105 -105l103 -103q3 -3 3 -9q0 -9 -6 -19.5t-14 -18.5t-20 -15t-20 -7q-4 0 -6 2l-105 105l-103 -103q-3 -3 -8 -3q-9 0 -20.5 7t-19.5 15t-14 19t-6 19q0 5 2 7l104 104l-103 103q-3 3 -3 8q0 9 7 20.5
t15 19.5t19 14t19 6q5 0 7 -2l104 -104z" />
    <glyph glyph-name="Oslash" unicode="&#xd8;" horiz-adv-x="577" 
d="M495 749q0 -7 -1 -13.5t-3 -12.5l-9 -21q57 -26 92 -79.5t35 -123.5q0 -56 -13.5 -116t-38.5 -116.5t-60.5 -107t-79 -88t-94 -59.5t-106.5 -22q-17 0 -33 3l-11 -27q-2 -8 -6.5 -12t-9.5 -4h-30q-9 0 -17 2.5t-8 15.5q0 5 1 9.5t3 10.5l11 27q-51 29 -83.5 82.5
t-32.5 124.5q0 66 16 129t44 118.5t65 102.5t79 80.5t87 52.5t89 19q7 0 14 -0.5t14 -1.5l15 35q2 6 6 11.5t9 5.5q19 0 37.5 -7t18.5 -18zM482 580q0 22 -6 39t-17 28l-248 -590q15 -5 28 -5q34 0 65 23.5t58 63t49.5 92.5t38 111.5t24 119.5t8.5 118zM122 245q0 -45 9 -79
t24 -59l232 560q-58 -6 -106.5 -43t-84 -95t-55 -131.5t-19.5 -152.5z" />
    <glyph glyph-name="Ugrave" unicode="&#xd9;" horiz-adv-x="836" 
d="M696 -10q-27 0 -53 10t-46.5 28t-33.5 43.5t-13 56.5v17t2 19q-18 -27 -43.5 -57.5t-57 -56.5t-68 -43t-76.5 -17q-28 0 -53 9t-44 25t-30.5 37t-11.5 44q0 32 14.5 74.5t36 89.5t46.5 96t46.5 95t36 87t14.5 72q0 18 -7.5 31.5t-35.5 13.5q-23 0 -56.5 -15.5t-65 -41.5
t-54 -60t-22.5 -70q0 -23 8 -40t17 -29t17 -20t8 -13q0 -20 -21 -20q-20 0 -47.5 10.5t-52.5 29.5t-42.5 44t-17.5 55q0 46 35.5 88t89 73.5t116 50t117.5 18.5q61 0 100.5 -28.5t39.5 -76.5q0 -33 -13.5 -75.5t-34 -88.5t-44 -94t-44 -93.5t-34 -85t-13.5 -69.5
q0 -43 44 -43q24 0 55.5 25.5t64 63t63 78.5t51.5 73q14 50 32.5 101t37.5 96.5t36.5 83t31.5 60.5q12 20 30 32.5t37 20t37 10.5t31 3q29 0 29 -14q0 -8 -24 -36q-10 -12 -27.5 -46t-38.5 -81.5t-42.5 -103.5t-39.5 -112.5t-29 -109t-11 -91.5q0 -35 16.5 -50.5t39.5 -15.5
q20 0 39.5 13t34.5 30q18 18 33 43q1 3 5 7q2 2 6 4.5t9 2.5q8 0 14.5 -6t6.5 -14q0 -4 -1.5 -7.5t-3.5 -7.5t-4 -9q-22 -35 -49 -62q-23 -23 -54.5 -42t-68.5 -19zM553 900q16 0 24 -20q7 -17 17.5 -36t23.5 -35.5t26 -30t24 -20.5q10 -5 13 -9t3 -10t-4.5 -10.5
t-13.5 -4.5q-11 0 -28.5 5.5t-37.5 15t-39.5 21.5t-35.5 26q-15 13 -19.5 21.5t-4.5 20.5q0 8 6 19.5t14 22t17 17.5t15 7z" />
    <glyph glyph-name="Uacute" unicode="&#xda;" horiz-adv-x="836" 
d="M696 -10q-27 0 -53 10t-46.5 28t-33.5 43.5t-13 56.5v17t2 19q-18 -27 -43.5 -57.5t-57 -56.5t-68 -43t-76.5 -17q-28 0 -53 9t-44 25t-30.5 37t-11.5 44q0 32 14.5 74.5t36 89.5t46.5 96t46.5 95t36 87t14.5 72q0 18 -7.5 31.5t-35.5 13.5q-23 0 -56.5 -15.5t-65 -41.5
t-54 -60t-22.5 -70q0 -23 8 -40t17 -29t17 -20t8 -13q0 -20 -21 -20q-20 0 -47.5 10.5t-52.5 29.5t-42.5 44t-17.5 55q0 46 35.5 88t89 73.5t116 50t117.5 18.5q61 0 100.5 -28.5t39.5 -76.5q0 -33 -13.5 -75.5t-34 -88.5t-44 -94t-44 -93.5t-34 -85t-13.5 -69.5
q0 -43 44 -43q24 0 55.5 25.5t64 63t63 78.5t51.5 73q14 50 32.5 101t37.5 96.5t36.5 83t31.5 60.5q12 20 30 32.5t37 20t37 10.5t31 3q29 0 29 -14q0 -8 -24 -36q-10 -12 -27.5 -46t-38.5 -81.5t-42.5 -103.5t-39.5 -112.5t-29 -109t-11 -91.5q0 -35 16.5 -50.5t39.5 -15.5
q20 0 39.5 13t34.5 30q18 18 33 43q1 3 5 7q2 2 6 4.5t9 2.5q8 0 14.5 -6t6.5 -14q0 -4 -1.5 -7.5t-3.5 -7.5t-4 -9q-22 -35 -49 -62q-23 -23 -54.5 -42t-68.5 -19zM705 880q6 0 14.5 -7t17 -17.5t14 -22t5.5 -19.5q0 -12 -4.5 -20.5t-19.5 -21.5q-16 -14 -36.5 -24
t-41 -16.5t-38.5 -10t-30 -3.5q-8 0 -13 4.5t-5 10.5t3 10t13 9q23 14 48.5 42.5t48.5 65.5q6 10 11 15t13 5z" />
    <glyph glyph-name="Ucircumflex" unicode="&#xdb;" horiz-adv-x="836" 
d="M696 -10q-27 0 -53 10t-46.5 28t-33.5 43.5t-13 56.5v17t2 19q-18 -27 -43.5 -57.5t-57 -56.5t-68 -43t-76.5 -17q-28 0 -53 9t-44 25t-30.5 37t-11.5 44q0 32 14.5 74.5t36 89.5t46.5 96t46.5 95t36 87t14.5 72q0 18 -7.5 31.5t-35.5 13.5q-23 0 -56.5 -15.5t-65 -41.5
t-54 -60t-22.5 -70q0 -23 8 -40t17 -29t17 -20t8 -13q0 -20 -21 -20q-20 0 -47.5 10.5t-52.5 29.5t-42.5 44t-17.5 55q0 46 35.5 88t89 73.5t116 50t117.5 18.5q61 0 100.5 -28.5t39.5 -76.5q0 -33 -13.5 -75.5t-34 -88.5t-44 -94t-44 -93.5t-34 -85t-13.5 -69.5
q0 -43 44 -43q24 0 55.5 25.5t64 63t63 78.5t51.5 73q14 50 32.5 101t37.5 96.5t36.5 83t31.5 60.5q12 20 30 32.5t37 20t37 10.5t31 3q29 0 29 -14q0 -8 -24 -36q-10 -12 -27.5 -46t-38.5 -81.5t-42.5 -103.5t-39.5 -112.5t-29 -109t-11 -91.5q0 -35 16.5 -50.5t39.5 -15.5
q20 0 39.5 13t34.5 30q18 18 33 43q1 3 5 7q2 2 6 4.5t9 2.5q8 0 14.5 -6t6.5 -14q0 -4 -1.5 -7.5t-3.5 -7.5t-4 -9q-22 -35 -49 -62q-23 -23 -54.5 -42t-68.5 -19zM631 811q-2 0 -6 -2l-8 -4q-17 -10 -36 -19.5t-36 -17t-29.5 -12.5t-17.5 -5q-8 0 -13 5.5t-5 11.5
q0 13 16 24q26 17 47.5 34.5t50.5 48.5q11 14 20.5 24t29.5 10q11 0 16.5 -3t9.5 -8t7 -12t8 -15q16 -26 32.5 -45t33.5 -33q10 -7 14 -11t4 -12q0 -6 -5.5 -12.5t-13.5 -6.5q-4 0 -14 2.5t-24.5 8.5t-32.5 16.5t-37 26.5q-6 6 -11 6z" />
    <glyph glyph-name="Udieresis" unicode="&#xdc;" horiz-adv-x="836" 
d="M696 -10q-27 0 -53 10t-46.5 28t-33.5 43.5t-13 56.5v17t2 19q-18 -27 -43.5 -57.5t-57 -56.5t-68 -43t-76.5 -17q-28 0 -53 9t-44 25t-30.5 37t-11.5 44q0 32 14.5 74.5t36 89.5t46.5 96t46.5 95t36 87t14.5 72q0 18 -7.5 31.5t-35.5 13.5q-23 0 -56.5 -15.5t-65 -41.5
t-54 -60t-22.5 -70q0 -23 8 -40t17 -29t17 -20t8 -13q0 -20 -21 -20q-20 0 -47.5 10.5t-52.5 29.5t-42.5 44t-17.5 55q0 46 35.5 88t89 73.5t116 50t117.5 18.5q61 0 100.5 -28.5t39.5 -76.5q0 -33 -13.5 -75.5t-34 -88.5t-44 -94t-44 -93.5t-34 -85t-13.5 -69.5
q0 -43 44 -43q24 0 55.5 25.5t64 63t63 78.5t51.5 73q14 50 32.5 101t37.5 96.5t36.5 83t31.5 60.5q12 20 30 32.5t37 20t37 10.5t31 3q29 0 29 -14q0 -8 -24 -36q-10 -12 -27.5 -46t-38.5 -81.5t-42.5 -103.5t-39.5 -112.5t-29 -109t-11 -91.5q0 -35 16.5 -50.5t39.5 -15.5
q20 0 39.5 13t34.5 30q18 18 33 43q1 3 5 7q2 2 6 4.5t9 2.5q8 0 14.5 -6t6.5 -14q0 -4 -1.5 -7.5t-3.5 -7.5t-4 -9q-22 -35 -49 -62q-23 -23 -54.5 -42t-68.5 -19zM634 784q0 13 5.5 26.5t15 24.5t22 18.5t26.5 7.5q19 0 30.5 -14t11.5 -34q0 -13 -5 -27t-14.5 -25
t-22.5 -18.5t-29 -7.5q-17 0 -28.5 14t-11.5 35zM489 784q0 13 5.5 26.5t15 24.5t22 18.5t26.5 7.5q19 0 30.5 -14t11.5 -34q0 -13 -5 -27t-14.5 -25t-22.5 -18.5t-29 -7.5q-17 0 -28.5 14t-11.5 35z" />
    <glyph glyph-name="Yacute" unicode="&#xdd;" horiz-adv-x="773" 
d="M805 113q-23 -38 -68.5 -72.5t-126.5 -62.5q-22 -60 -47.5 -108.5t-57.5 -83t-71.5 -53t-89.5 -18.5q-39 0 -72.5 12.5t-58.5 33t-39 45.5t-14 49q0 39 27.5 64t72.5 40.5t101.5 24.5t114.5 16q5 0 8 1q16 40 32.5 86.5t33.5 100.5q-17 -16 -39 -34t-47.5 -33t-54 -25
t-56.5 -10q-26 0 -50.5 9.5t-44 25.5t-31.5 37.5t-12 44.5q0 45 23 98.5t50.5 108.5t50.5 109t23 100q0 18 -7.5 31.5t-35.5 13.5q-23 0 -56.5 -15.5t-65 -41.5t-54 -60t-22.5 -70q0 -23 8 -40t17 -29t17 -20t8 -13q0 -20 -21 -20q-20 0 -46 10.5t-49 29.5t-39 44t-16 55
q0 46 34 88t85.5 73.5t112.5 50t116 18.5q30 0 57 -9t46.5 -24t31 -36t11.5 -45q0 -51 -20 -103t-43.5 -101t-43.5 -93t-20 -78q0 -23 12 -40.5t35 -17.5q24 0 50 17t51 41.5t46.5 51.5t35.5 47q22 70 38.5 115.5t31 78.5t29.5 60.5t35 62.5q12 20 28 32.5t33.5 20t34 10.5
t29.5 3q29 0 29 -14q0 -8 -24 -36q-9 -11 -25 -40t-35.5 -70t-39.5 -91t-35 -102q-26 -91 -49.5 -173.5t-46.5 -154.5q56 21 90 49.5t53 57.5q1 3 5 7q2 2 6 4.5t9 2.5q8 0 14.5 -6t6.5 -14q0 -4 -1.5 -7.5t-3.5 -7.5t-4 -9zM308 -228q42 0 78 42t72 125q-42 -8 -78 -20.5
t-63 -28t-42.5 -33.5t-15.5 -37q0 -20 15 -34t34 -14zM691 832q6 0 14.5 -7t17 -17.5t14 -22t5.5 -19.5q0 -12 -4.5 -20.5t-19.5 -21.5q-16 -14 -36.5 -24t-41 -16.5t-38.5 -10t-30 -3.5q-8 0 -13 4.5t-5 10.5t3 10t13 9q23 14 48.5 42.5t48.5 65.5q6 10 11 15t13 5z" />
    <glyph glyph-name="germandbls" unicode="&#xdf;" horiz-adv-x="485" 
d="M198 99q14 0 26.5 -5t23.5 -11q12 -7 24 -15q3 5 6 12q2 6 4 13.5t2 16.5q0 35 -10.5 63t-23 53t-23 47.5t-10.5 46.5q0 30 21.5 65t48 72t48 74.5t21.5 72.5q0 11 -7.5 18t-16.5 7q-30 0 -59 -33.5t-54.5 -88t-47 -122.5t-37.5 -137t-24.5 -131.5t-8.5 -106.5
q0 -9 -3.5 -14.5t-14.5 -5.5q-15 0 -32 3t-32 9.5t-24.5 17t-9.5 24.5q0 42 11 106.5t32 136.5t50 145t65 131.5t78 95t89 36.5q23 0 48.5 -10t47 -27.5t35.5 -40.5t14 -49q0 -41 -25.5 -77.5t-56.5 -66.5t-56.5 -52.5t-25.5 -37.5q0 -14 16 -33.5t35.5 -45t36 -58.5
t16.5 -73q0 -7 -2.5 -16t-4.5 -18q-4 -11 -7 -22q22 5 41 17.5t33 25.5q17 15 30 32q1 3 5 7q2 2 6 4.5t9 2.5q8 0 14.5 -6t6.5 -14q0 -4 -1.5 -7.5t-3.5 -7.5t-4 -9q-11 -18 -39 -39.5t-64.5 -40.5t-79 -31.5t-82.5 -12.5q-28 0 -48 6t-33.5 15t-20 19t-6.5 18t6 17.5
t14.5 17t18 12.5t15.5 5z" />
    <glyph glyph-name="agrave" unicode="&#xe0;" horiz-adv-x="475" 
d="M507 113q-22 -35 -49 -62q-23 -23 -54.5 -42t-68.5 -19q-42 0 -71 21.5t-34 63.5q-20 -25 -43 -43q-20 -16 -45 -29t-54 -13q-20 0 -38.5 7.5t-32 21.5t-21.5 33t-8 42q0 54 20.5 107t53.5 95.5t74 68.5t82 26q30 0 51 -7.5t34 -16.5q15 -11 24 -23q11 0 23.5 -2.5t23 -8
t17.5 -14.5t7 -22q0 -11 -9 -36t-20 -55.5t-20 -63t-9 -57.5q0 -12 7.5 -20t20.5 -8q20 0 39.5 13t34.5 30q18 18 33 43q1 3 5 7q2 2 6 4.5t9 2.5q8 0 14.5 -6t6.5 -14q0 -4 -1.5 -7.5t-3.5 -7.5t-4 -9zM275 290q0 22 -10.5 32.5t-25.5 10.5q-22 0 -45 -23t-41.5 -56.5
t-30.5 -72.5t-12 -70q0 -45 29 -45q18 0 41.5 24t44.5 59t35.5 73.5t14.5 67.5zM224 589q16 0 24 -20q7 -17 17.5 -36t23.5 -35.5t26 -30t24 -20.5q10 -5 13 -9t3 -10t-4.5 -10.5t-13.5 -4.5q-11 0 -28.5 5.5t-37.5 15t-39.5 21.5t-35.5 26q-15 13 -19.5 21.5t-4.5 20.5
q0 8 6 19.5t14 22t17 17.5t15 7z" />
    <glyph glyph-name="aacute" unicode="&#xe1;" horiz-adv-x="475" 
d="M507 113q-22 -35 -49 -62q-23 -23 -54.5 -42t-68.5 -19q-42 0 -71 21.5t-34 63.5q-20 -25 -43 -43q-20 -16 -45 -29t-54 -13q-20 0 -38.5 7.5t-32 21.5t-21.5 33t-8 42q0 54 20.5 107t53.5 95.5t74 68.5t82 26q30 0 51 -7.5t34 -16.5q15 -11 24 -23q11 0 23.5 -2.5t23 -8
t17.5 -14.5t7 -22q0 -11 -9 -36t-20 -55.5t-20 -63t-9 -57.5q0 -12 7.5 -20t20.5 -8q20 0 39.5 13t34.5 30q18 18 33 43q1 3 5 7q2 2 6 4.5t9 2.5q8 0 14.5 -6t6.5 -14q0 -4 -1.5 -7.5t-3.5 -7.5t-4 -9zM275 290q0 22 -10.5 32.5t-25.5 10.5q-22 0 -45 -23t-41.5 -56.5
t-30.5 -72.5t-12 -70q0 -45 29 -45q18 0 41.5 24t44.5 59t35.5 73.5t14.5 67.5zM353 591q6 0 14.5 -7t17 -17.5t14 -22t5.5 -19.5q0 -12 -4.5 -20.5t-19.5 -21.5q-16 -14 -36.5 -24t-41 -16.5t-38.5 -10t-30 -3.5q-8 0 -13 4.5t-5 10.5t3 10t13 9q23 14 48.5 42.5t48.5 65.5
q6 10 11 15t13 5z" />
    <glyph glyph-name="acircumflex" unicode="&#xe2;" horiz-adv-x="475" 
d="M507 113q-22 -35 -49 -62q-23 -23 -54.5 -42t-68.5 -19q-42 0 -71 21.5t-34 63.5q-20 -25 -43 -43q-20 -16 -45 -29t-54 -13q-20 0 -38.5 7.5t-32 21.5t-21.5 33t-8 42q0 54 20.5 107t53.5 95.5t74 68.5t82 26q30 0 51 -7.5t34 -16.5q15 -11 24 -23q11 0 23.5 -2.5t23 -8
t17.5 -14.5t7 -22q0 -11 -9 -36t-20 -55.5t-20 -63t-9 -57.5q0 -12 7.5 -20t20.5 -8q20 0 39.5 13t34.5 30q18 18 33 43q1 3 5 7q2 2 6 4.5t9 2.5q8 0 14.5 -6t6.5 -14q0 -4 -1.5 -7.5t-3.5 -7.5t-4 -9zM275 290q0 22 -10.5 32.5t-25.5 10.5q-22 0 -45 -23t-41.5 -56.5
t-30.5 -72.5t-12 -70q0 -45 29 -45q18 0 41.5 24t44.5 59t35.5 73.5t14.5 67.5zM289 482q-2 0 -6 -2l-8 -4q-17 -10 -36 -19.5t-36 -17t-29.5 -12.5t-17.5 -5q-8 0 -13 5.5t-5 11.5q0 13 16 24q26 17 47.5 34.5t50.5 48.5q11 14 20.5 24t29.5 10q11 0 16.5 -3t9.5 -8t7 -12
t8 -15q16 -26 32.5 -45t33.5 -33q10 -7 14 -11t4 -12q0 -6 -5.5 -12.5t-13.5 -6.5q-4 0 -14 2.5t-24.5 8.5t-32.5 16.5t-37 26.5q-6 6 -11 6z" />
    <glyph glyph-name="atilde" unicode="&#xe3;" horiz-adv-x="475" 
d="M507 113q-22 -35 -49 -62q-23 -23 -54.5 -42t-68.5 -19q-42 0 -71 21.5t-34 63.5q-20 -25 -43 -43q-20 -16 -45 -29t-54 -13q-20 0 -38.5 7.5t-32 21.5t-21.5 33t-8 42q0 54 20.5 107t53.5 95.5t74 68.5t82 26q30 0 51 -7.5t34 -16.5q15 -11 24 -23q11 0 23.5 -2.5t23 -8
t17.5 -14.5t7 -22q0 -11 -9 -36t-20 -55.5t-20 -63t-9 -57.5q0 -12 7.5 -20t20.5 -8q20 0 39.5 13t34.5 30q18 18 33 43q1 3 5 7q2 2 6 4.5t9 2.5q8 0 14.5 -6t6.5 -14q0 -4 -1.5 -7.5t-3.5 -7.5t-4 -9zM275 290q0 22 -10.5 32.5t-25.5 10.5q-22 0 -45 -23t-41.5 -56.5
t-30.5 -72.5t-12 -70q0 -45 29 -45q18 0 41.5 24t44.5 59t35.5 73.5t14.5 67.5zM356 418q-18 0 -41 5.5t-47 12.5t-46.5 12.5t-40.5 5.5q-19 0 -36 -10t-25 -10q-5 0 -9 3.5t-4 9.5q0 5 3.5 11.5t7.5 11.5q6 9 16.5 20t22.5 20t25.5 15.5t26.5 6.5q18 0 39.5 -6t43.5 -13
t43.5 -13t40.5 -6q12 0 22.5 3.5t19.5 8l16 8t11 3.5q5 0 9 -2.5t4 -7.5t-2 -10t-4 -9q-17 -25 -41 -47.5t-55 -22.5z" />
    <glyph glyph-name="adieresis" unicode="&#xe4;" horiz-adv-x="475" 
d="M507 113q-22 -35 -49 -62q-23 -23 -54.5 -42t-68.5 -19q-42 0 -71 21.5t-34 63.5q-20 -25 -43 -43q-20 -16 -45 -29t-54 -13q-20 0 -38.5 7.5t-32 21.5t-21.5 33t-8 42q0 54 20.5 107t53.5 95.5t74 68.5t82 26q30 0 51 -7.5t34 -16.5q15 -11 24 -23q11 0 23.5 -2.5t23 -8
t17.5 -14.5t7 -22q0 -11 -9 -36t-20 -55.5t-20 -63t-9 -57.5q0 -12 7.5 -20t20.5 -8q20 0 39.5 13t34.5 30q18 18 33 43q1 3 5 7q2 2 6 4.5t9 2.5q8 0 14.5 -6t6.5 -14q0 -4 -1.5 -7.5t-3.5 -7.5t-4 -9zM275 290q0 22 -10.5 32.5t-25.5 10.5q-22 0 -45 -23t-41.5 -56.5
t-30.5 -72.5t-12 -70q0 -45 29 -45q18 0 41.5 24t44.5 59t35.5 73.5t14.5 67.5zM119 470q0 13 5.5 26.5t15 24.5t22 18.5t26.5 7.5q19 0 30.5 -14t11.5 -34q0 -13 -5 -27t-14.5 -25t-22.5 -18.5t-29 -7.5q-17 0 -28.5 14t-11.5 35zM264 470q0 13 5.5 26.5t15 24.5t22 18.5
t26.5 7.5q19 0 30.5 -14t11.5 -34q0 -13 -5 -27t-14.5 -25t-22.5 -18.5t-29 -7.5q-17 0 -28.5 14t-11.5 35z" />
    <glyph glyph-name="aring" unicode="&#xe5;" horiz-adv-x="475" 
d="M507 113q-22 -35 -49 -62q-23 -23 -54.5 -42t-68.5 -19q-42 0 -71 21.5t-34 63.5q-20 -25 -43 -43q-20 -16 -45 -29t-54 -13q-20 0 -38.5 7.5t-32 21.5t-21.5 33t-8 42q0 54 20.5 107t53.5 95.5t74 68.5t82 26q30 0 51 -7.5t34 -16.5q15 -11 24 -23q11 0 23.5 -2.5t23 -8
t17.5 -14.5t7 -22q0 -11 -9 -36t-20 -55.5t-20 -63t-9 -57.5q0 -12 7.5 -20t20.5 -8q20 0 39.5 13t34.5 30q18 18 33 43q1 3 5 7q2 2 6 4.5t9 2.5q8 0 14.5 -6t6.5 -14q0 -4 -1.5 -7.5t-3.5 -7.5t-4 -9zM275 290q0 22 -10.5 32.5t-25.5 10.5q-22 0 -45 -23t-41.5 -56.5
t-30.5 -72.5t-12 -70q0 -45 29 -45q18 0 41.5 24t44.5 59t35.5 73.5t14.5 67.5zM253 535q0 -18 13 -31t31 -13t30 13t12 31t-12 30t-30 12t-31 -12t-13 -30zM193 535q0 44 30 74t74 30t74 -30t30 -74t-30 -74t-74 -30t-74 30t-30 74z" />
    <glyph glyph-name="ae" unicode="&#xe6;" horiz-adv-x="602" 
d="M633 113q-22 -35 -54 -62q-28 -23 -69.5 -42t-98.5 -19q-64 0 -105.5 29.5t-54.5 78.5q-5 -6 -21.5 -23.5t-39 -36.5t-49.5 -33.5t-53 -14.5q-20 0 -38.5 7.5t-32 21.5t-21.5 33t-8 42q0 54 20.5 107t53.5 95.5t74 68.5t82 26q30 0 51.5 -8.5t35.5 -18.5q16 -11 26 -26
q8 9 23.5 18t34 17t37.5 13t35 5q23 0 43 -9t35 -23.5t23.5 -33.5t8.5 -39q0 -18 -8 -43.5t-26.5 -48.5t-50 -39.5t-78.5 -16.5q-11 0 -23 3q-7 1 -15 3q0 -45 21 -69t57 -24q35 0 64 14.5t49 31.5q24 20 41 46q2 3 6 7q3 2 7 4.5t9 2.5q8 0 14.5 -6t6.5 -14q0 -4 -2 -7.5
t-4 -7.5q-3 -4 -6 -9zM275 290q0 22 -10.5 32.5t-25.5 10.5q-22 0 -45 -23t-41.5 -56.5t-30.5 -72.5t-12 -70q0 -45 29 -45q18 0 41.5 24t44.5 59t35.5 73.5t14.5 67.5zM375 185q27 0 51 15t41.5 36.5t27.5 44.5t10 39q0 20 -18 20q-21 0 -41 -17t-35.5 -41t-25.5 -51
t-10 -46z" />
    <glyph glyph-name="ccedilla" unicode="&#xe7;" horiz-adv-x="370" 
d="M402 113q-22 -28 -50 -53q-24 -21 -59 -40.5t-80 -26.5q0 -11 3.5 -23.5t14.5 -12.5q12 0 25.5 2t24.5 2q14 0 21 -9.5t7 -24.5q0 -19 -10 -42t-30.5 -43t-50.5 -33.5t-70 -13.5q-31 0 -51 12.5t-20 32.5q0 16 11 28.5t25 12.5q10 0 16 -4.5t11.5 -10.5t13.5 -10.5
t23 -4.5t30 6t26.5 14.5t18.5 16.5t7 12q0 5 -5 5q-22 0 -43.5 -7.5t-38.5 -7.5q-12 0 -18.5 8.5t-6.5 16.5q0 16 4 39t7 37q-30 2 -59 11t-52 27t-37 46t-14 67q0 50 20.5 95.5t53 79.5t72.5 54t78 20q27 0 48 -8.5t35.5 -22.5t22.5 -31.5t8 -34.5q0 -13 -5.5 -26.5
t-14.5 -24.5t-19.5 -18t-20.5 -7q-20 0 -35.5 12.5t-15.5 29.5q0 13 6 21t13.5 14.5t14 12t6.5 13.5t-8.5 14.5t-20.5 6.5q-22 0 -42.5 -16.5t-36.5 -43.5t-26 -60.5t-10 -67.5q0 -52 28.5 -77t70.5 -25q34 0 62 14t48 31q24 20 42 46q2 3 6 7q3 2 7 4.5t9 2.5q9 0 15 -6
t6 -14q0 -4 -2 -7.5t-4 -7.5q-3 -4 -5 -9z" />
    <glyph glyph-name="egrave" unicode="&#xe8;" horiz-adv-x="357" 
d="M120 185q27 0 51 15t41.5 36.5t27.5 44.5t10 39q0 20 -18 20q-21 0 -41 -17t-35.5 -41t-25.5 -51t-10 -46zM389 113q-22 -35 -55 -62q-28 -23 -69.5 -42t-98.5 -19q-38 0 -70 11t-55 30.5t-36 46.5t-13 59q0 57 21 104t53 80.5t69.5 51.5t70.5 18q23 0 43 -9t35 -23.5
t23.5 -33.5t8.5 -39q0 -18 -8 -43.5t-26.5 -48.5t-50 -39.5t-78.5 -16.5q-11 0 -23 3q-7 1 -15 3q0 -45 26 -69t62 -24q35 0 64 14.5t49 31.5q24 20 41 46q1 3 5 7q2 2 6 4.5t9 2.5q8 0 14.5 -6t6.5 -14q0 -4 -1.5 -7.5t-3.5 -7.5t-4 -9zM175 602q16 0 24 -20
q7 -17 17.5 -36t23.5 -35.5t26 -30t24 -20.5q10 -5 13 -9t3 -10t-4.5 -10.5t-13.5 -4.5q-11 0 -28.5 5.5t-37.5 15t-39.5 21.5t-35.5 26q-15 13 -19.5 21.5t-4.5 20.5q0 8 6 19.5t14 22t17 17.5t15 7z" />
    <glyph glyph-name="eacute" unicode="&#xe9;" horiz-adv-x="357" 
d="M120 185q27 0 51 15t41.5 36.5t27.5 44.5t10 39q0 20 -18 20q-21 0 -41 -17t-35.5 -41t-25.5 -51t-10 -46zM389 113q-22 -35 -55 -62q-28 -23 -69.5 -42t-98.5 -19q-38 0 -70 11t-55 30.5t-36 46.5t-13 59q0 57 21 104t53 80.5t69.5 51.5t70.5 18q23 0 43 -9t35 -23.5
t23.5 -33.5t8.5 -39q0 -18 -8 -43.5t-26.5 -48.5t-50 -39.5t-78.5 -16.5q-11 0 -23 3q-7 1 -15 3q0 -45 26 -69t62 -24q35 0 64 14.5t49 31.5q24 20 41 46q1 3 5 7q2 2 6 4.5t9 2.5q8 0 14.5 -6t6.5 -14q0 -4 -1.5 -7.5t-3.5 -7.5t-4 -9zM267 595q6 0 14.5 -7t17 -17.5
t14 -22t5.5 -19.5q0 -12 -4.5 -20.5t-19.5 -21.5q-16 -14 -36.5 -24t-41 -16.5t-38.5 -10t-30 -3.5q-8 0 -13 4.5t-5 10.5t3 10t13 9q23 14 48.5 42.5t48.5 65.5q6 10 11 15t13 5z" />
    <glyph glyph-name="ecircumflex" unicode="&#xea;" horiz-adv-x="357" 
d="M120 185q27 0 51 15t41.5 36.5t27.5 44.5t10 39q0 20 -18 20q-21 0 -41 -17t-35.5 -41t-25.5 -51t-10 -46zM389 113q-22 -35 -55 -62q-28 -23 -69.5 -42t-98.5 -19q-38 0 -70 11t-55 30.5t-36 46.5t-13 59q0 57 21 104t53 80.5t69.5 51.5t70.5 18q23 0 43 -9t35 -23.5
t23.5 -33.5t8.5 -39q0 -18 -8 -43.5t-26.5 -48.5t-50 -39.5t-78.5 -16.5q-11 0 -23 3q-7 1 -15 3q0 -45 26 -69t62 -24q35 0 64 14.5t49 31.5q24 20 41 46q1 3 5 7q2 2 6 4.5t9 2.5q8 0 14.5 -6t6.5 -14q0 -4 -1.5 -7.5t-3.5 -7.5t-4 -9zM223 478q-2 0 -6 -2l-8 -4
q-17 -10 -36 -19.5t-36 -17t-29.5 -12.5t-17.5 -5q-8 0 -13 5.5t-5 11.5q0 13 16 24q26 17 47.5 34.5t50.5 48.5q11 14 20.5 24t29.5 10q11 0 16.5 -3t9.5 -8t7 -12t8 -15q16 -26 32.5 -45t33.5 -33q10 -7 14 -11t4 -12q0 -6 -5.5 -12.5t-13.5 -6.5q-4 0 -14 2.5t-24.5 8.5
t-32.5 16.5t-37 26.5q-6 6 -11 6z" />
    <glyph glyph-name="edieresis" unicode="&#xeb;" horiz-adv-x="357" 
d="M120 185q27 0 51 15t41.5 36.5t27.5 44.5t10 39q0 20 -18 20q-21 0 -41 -17t-35.5 -41t-25.5 -51t-10 -46zM389 113q-22 -35 -55 -62q-28 -23 -69.5 -42t-98.5 -19q-38 0 -70 11t-55 30.5t-36 46.5t-13 59q0 57 21 104t53 80.5t69.5 51.5t70.5 18q23 0 43 -9t35 -23.5
t23.5 -33.5t8.5 -39q0 -18 -8 -43.5t-26.5 -48.5t-50 -39.5t-78.5 -16.5q-11 0 -23 3q-7 1 -15 3q0 -45 26 -69t62 -24q35 0 64 14.5t49 31.5q24 20 41 46q1 3 5 7q2 2 6 4.5t9 2.5q8 0 14.5 -6t6.5 -14q0 -4 -1.5 -7.5t-3.5 -7.5t-4 -9zM98 480q0 13 5.5 26.5t15 24.5
t22 18.5t26.5 7.5q19 0 30.5 -14t11.5 -34q0 -13 -5 -27t-14.5 -25t-22.5 -18.5t-29 -7.5q-17 0 -28.5 14t-11.5 35zM243 480q0 13 5.5 26.5t15 24.5t22 18.5t26.5 7.5q19 0 30.5 -14t11.5 -34q0 -13 -5 -27t-14.5 -25t-22.5 -18.5t-29 -7.5q-17 0 -28.5 14t-11.5 35z" />
    <glyph glyph-name="igrave" unicode="&#xec;" horiz-adv-x="253" 
d="M114 95q0 -17 8.5 -27.5t23.5 -10.5q20 0 39.5 13t34.5 30q18 18 33 43q1 3 5 7q2 2 6 4.5t9 2.5q8 0 14.5 -6t6.5 -14q0 -4 -1.5 -7.5t-3.5 -7.5t-4 -9q-22 -35 -49 -62q-23 -23 -54.5 -42t-68.5 -19q-57 0 -92 30.5t-35 79.5q0 27 9 65t21 77t25.5 74t22.5 56
q4 8 11 13.5t16 5.5q11 0 25 -7t26 -16t20 -18.5t8 -15.5q0 -23 -9 -49.5t-19.5 -56.5t-19 -63.5t-8.5 -69.5zM93 610q16 0 24 -20q7 -17 17.5 -36t23.5 -35.5t26 -30t24 -20.5q10 -5 13 -9t3 -10t-4.5 -10.5t-13.5 -4.5q-11 0 -28.5 5.5t-37.5 15t-39.5 21.5t-35.5 26
q-15 13 -19.5 21.5t-4.5 20.5q0 8 6 19.5t14 22t17 17.5t15 7z" />
    <glyph glyph-name="iacute" unicode="&#xed;" horiz-adv-x="253" 
d="M114 95q0 -17 8.5 -27.5t23.5 -10.5q20 0 39.5 13t34.5 30q18 18 33 43q1 3 5 7q2 2 6 4.5t9 2.5q8 0 14.5 -6t6.5 -14q0 -4 -1.5 -7.5t-3.5 -7.5t-4 -9q-22 -35 -49 -62q-23 -23 -54.5 -42t-68.5 -19q-57 0 -92 30.5t-35 79.5q0 27 9 65t21 77t25.5 74t22.5 56
q4 8 11 13.5t16 5.5q11 0 25 -7t26 -16t20 -18.5t8 -15.5q0 -23 -9 -49.5t-19.5 -56.5t-19 -63.5t-8.5 -69.5zM189 597q6 0 14.5 -7t17 -17.5t14 -22t5.5 -19.5q0 -12 -4.5 -20.5t-19.5 -21.5q-16 -14 -36.5 -24t-41 -16.5t-38.5 -10t-30 -3.5q-8 0 -13 4.5t-5 10.5t3 10
t13 9q23 14 48.5 42.5t48.5 65.5q6 10 11 15t13 5z" />
    <glyph glyph-name="icircumflex" unicode="&#xee;" horiz-adv-x="253" 
d="M114 95q0 -17 8.5 -27.5t23.5 -10.5q20 0 39.5 13t34.5 30q18 18 33 43q1 3 5 7q2 2 6 4.5t9 2.5q8 0 14.5 -6t6.5 -14q0 -4 -1.5 -7.5t-3.5 -7.5t-4 -9q-22 -35 -49 -62q-23 -23 -54.5 -42t-68.5 -19q-57 0 -92 30.5t-35 79.5q0 27 9 65t21 77t25.5 74t22.5 56
q4 8 11 13.5t16 5.5q11 0 25 -7t26 -16t20 -18.5t8 -15.5q0 -23 -9 -49.5t-19.5 -56.5t-19 -63.5t-8.5 -69.5zM135 477q-2 0 -6 -2l-8 -4q-17 -10 -36 -19.5t-36 -17t-29.5 -12.5t-17.5 -5q-8 0 -13 5.5t-5 11.5q0 13 16 24q26 17 47.5 34.5t50.5 48.5q11 14 20.5 24
t29.5 10q11 0 16.5 -3t9.5 -8t7 -12t8 -15q16 -26 32.5 -45t33.5 -33q10 -7 14 -11t4 -12q0 -6 -5.5 -12.5t-13.5 -6.5q-4 0 -14 2.5t-24.5 8.5t-32.5 16.5t-37 26.5q-6 6 -11 6z" />
    <glyph glyph-name="idieresis" unicode="&#xef;" horiz-adv-x="253" 
d="M114 95q0 -17 8.5 -27.5t23.5 -10.5q20 0 39.5 13t34.5 30q18 18 33 43q1 3 5 7q2 2 6 4.5t9 2.5q8 0 14.5 -6t6.5 -14q0 -4 -1.5 -7.5t-3.5 -7.5t-4 -9q-22 -35 -49 -62q-23 -23 -54.5 -42t-68.5 -19q-57 0 -92 30.5t-35 79.5q0 27 9 65t21 77t25.5 74t22.5 56
q4 8 11 13.5t16 5.5q11 0 25 -7t26 -16t20 -18.5t8 -15.5q0 -23 -9 -49.5t-19.5 -56.5t-19 -63.5t-8.5 -69.5zM12 486q0 13 5.5 26.5t15 24.5t22 18.5t26.5 7.5q19 0 30.5 -14t11.5 -34q0 -13 -5 -27t-14.5 -25t-22.5 -18.5t-29 -7.5q-17 0 -28.5 14t-11.5 35zM157 486
q0 13 5.5 26.5t15 24.5t22 18.5t26.5 7.5q19 0 30.5 -14t11.5 -34q0 -13 -5 -27t-14.5 -25t-22.5 -18.5t-29 -7.5q-17 0 -28.5 14t-11.5 35z" />
    <glyph glyph-name="eth" unicode="&#xf0;" horiz-adv-x="405" 
d="M279 508q19 -30 38 -58.5t34 -55t24.5 -50t9.5 -43.5q0 -40 -17.5 -93.5t-49 -102t-75.5 -82t-98 -33.5q-18 0 -44.5 8t-50.5 25.5t-41 46t-17 69.5q0 42 16.5 92t47.5 93t74 72t97 29l-35 49l-84 -33q-2 -1 -5.5 -0.5t-5.5 3.5t-2.5 11.5t0 17.5t2.5 16.5t7 9.5l55 21
q-8 10 -15 21q-6 9 -13 18.5t-11 15.5l-4 8t-2 9t8 12.5t19.5 14.5t23 12t17.5 5q11 0 17 -9l48 -72l84 33q8 3 12 -2q1 -3 2 -11.5t0 -17.5t-3 -17t-6 -10zM99 93q0 -51 44 -51q19 0 43.5 30.5t46.5 74t36.5 91t14.5 82.5q0 16 -10 28.5t-26 12.5q-20 0 -45.5 -27.5
t-48.5 -68t-39 -87t-16 -85.5z" />
    <glyph glyph-name="ntilde" unicode="&#xf1;" horiz-adv-x="489" 
d="M350 95q0 -17 8.5 -27.5t23.5 -10.5q20 0 39.5 13t34.5 30q18 18 33 43q1 3 5 7q2 2 6 4.5t9 2.5q8 0 14.5 -6t6.5 -14q0 -4 -1.5 -7.5t-3.5 -7.5t-4 -9q-22 -35 -49 -62q-23 -23 -54.5 -42t-68.5 -19q-57 0 -92 29.5t-35 71.5q0 31 8 59.5t17.5 55.5t17.5 51.5t8 47.5
q0 7 -6 11.5t-14 4.5q-23 0 -49.5 -21.5t-50 -62t-39 -98t-15.5 -129.5q0 -13 -5.5 -16.5t-16.5 -3.5q-40 0 -67 15.5t-27 39.5q0 42 9.5 88.5t22.5 90t26.5 80.5t22.5 58q8 19 27 19q11 0 29 -9t41 -45q21 18 47 32q22 12 50 22t60 10q16 0 31.5 -8t27.5 -20.5t19 -27.5
t7 -30q0 -23 -8.5 -48.5t-18 -52.5t-18 -54.5t-8.5 -54.5zM344 436q-18 0 -41 5.5t-47 12.5t-46.5 12.5t-40.5 5.5q-19 0 -36 -10t-25 -10q-5 0 -9 3.5t-4 9.5q0 5 3.5 11.5t7.5 11.5q6 9 16.5 20t22.5 20t25.5 15.5t26.5 6.5q18 0 39.5 -6t43.5 -13t43.5 -13t40.5 -6
q12 0 22.5 3.5t19.5 8l16 8t11 3.5q5 0 9 -2.5t4 -7.5t-2 -10t-4 -9q-17 -25 -41 -47.5t-55 -22.5z" />
    <glyph glyph-name="ograve" unicode="&#xf2;" horiz-adv-x="445" 
d="M477 113q-17 -25 -43 -43q-22 -17 -54.5 -30t-76.5 -13q-18 0 -39 3q-24 -19 -53 -29.5t-61 -10.5q-31 0 -59.5 11t-50 30t-34 45t-12.5 55q0 63 21.5 111.5t55.5 81.5t75 50t80 17q31 0 58 -10t46.5 -29.5t31 -47t11.5 -61.5q0 -40 -16.5 -84t-45.5 -82q4 -1 7.5 -1.5
t8.5 -0.5q26 0 47 10.5t37 23.5q18 15 34 34q1 3 5 7q2 2 6 4.5t9 2.5q8 0 14.5 -6t6.5 -14q0 -4 -1.5 -7.5t-3.5 -7.5t-4 -9zM112 106q0 -30 12.5 -49t35.5 -19q16 0 31 12q-17 11 -17 24q0 8 5.5 17t13.5 16t16.5 11.5t14.5 4.5q5 0 11 -2q15 38 23 80.5t8 75.5
q0 34 -11 48.5t-28 14.5t-37 -17.5t-37.5 -49t-29 -74t-11.5 -93.5zM207 609q16 0 24 -20q7 -17 17.5 -36t23.5 -35.5t26 -30t24 -20.5q10 -5 13 -9t3 -10t-4.5 -10.5t-13.5 -4.5q-11 0 -28.5 5.5t-37.5 15t-39.5 21.5t-35.5 26q-15 13 -19.5 21.5t-4.5 20.5q0 8 6 19.5
t14 22t17 17.5t15 7z" />
    <glyph glyph-name="oacute" unicode="&#xf3;" horiz-adv-x="445" 
d="M477 113q-17 -25 -43 -43q-22 -17 -54.5 -30t-76.5 -13q-18 0 -39 3q-24 -19 -53 -29.5t-61 -10.5q-31 0 -59.5 11t-50 30t-34 45t-12.5 55q0 63 21.5 111.5t55.5 81.5t75 50t80 17q31 0 58 -10t46.5 -29.5t31 -47t11.5 -61.5q0 -40 -16.5 -84t-45.5 -82q4 -1 7.5 -1.5
t8.5 -0.5q26 0 47 10.5t37 23.5q18 15 34 34q1 3 5 7q2 2 6 4.5t9 2.5q8 0 14.5 -6t6.5 -14q0 -4 -1.5 -7.5t-3.5 -7.5t-4 -9zM112 106q0 -30 12.5 -49t35.5 -19q16 0 31 12q-17 11 -17 24q0 8 5.5 17t13.5 16t16.5 11.5t14.5 4.5q5 0 11 -2q15 38 23 80.5t8 75.5
q0 34 -11 48.5t-28 14.5t-37 -17.5t-37.5 -49t-29 -74t-11.5 -93.5zM311 599q6 0 14.5 -7t17 -17.5t14 -22t5.5 -19.5q0 -12 -4.5 -20.5t-19.5 -21.5q-16 -14 -36.5 -24t-41 -16.5t-38.5 -10t-30 -3.5q-8 0 -13 4.5t-5 10.5t3 10t13 9q23 14 48.5 42.5t48.5 65.5q6 10 11 15
t13 5z" />
    <glyph glyph-name="ocircumflex" unicode="&#xf4;" horiz-adv-x="445" 
d="M477 113q-17 -25 -43 -43q-22 -17 -54.5 -30t-76.5 -13q-18 0 -39 3q-24 -19 -53 -29.5t-61 -10.5q-31 0 -59.5 11t-50 30t-34 45t-12.5 55q0 63 21.5 111.5t55.5 81.5t75 50t80 17q31 0 58 -10t46.5 -29.5t31 -47t11.5 -61.5q0 -40 -16.5 -84t-45.5 -82q4 -1 7.5 -1.5
t8.5 -0.5q26 0 47 10.5t37 23.5q18 15 34 34q1 3 5 7q2 2 6 4.5t9 2.5q8 0 14.5 -6t6.5 -14q0 -4 -1.5 -7.5t-3.5 -7.5t-4 -9zM112 106q0 -30 12.5 -49t35.5 -19q16 0 31 12q-17 11 -17 24q0 8 5.5 17t13.5 16t16.5 11.5t14.5 4.5q5 0 11 -2q15 38 23 80.5t8 75.5
q0 34 -11 48.5t-28 14.5t-37 -17.5t-37.5 -49t-29 -74t-11.5 -93.5zM255 474q-2 0 -6 -2l-8 -4q-17 -10 -36 -19.5t-36 -17t-29.5 -12.5t-17.5 -5q-8 0 -13 5.5t-5 11.5q0 13 16 24q26 17 47.5 34.5t50.5 48.5q11 14 20.5 24t29.5 10q11 0 16.5 -3t9.5 -8t7 -12t8 -15
q16 -26 32.5 -45t33.5 -33q10 -7 14 -11t4 -12q0 -6 -5.5 -12.5t-13.5 -6.5q-4 0 -14 2.5t-24.5 8.5t-32.5 16.5t-37 26.5q-6 6 -11 6z" />
    <glyph glyph-name="otilde" unicode="&#xf5;" horiz-adv-x="445" 
d="M477 113q-17 -25 -43 -43q-22 -17 -54.5 -30t-76.5 -13q-18 0 -39 3q-24 -19 -53 -29.5t-61 -10.5q-31 0 -59.5 11t-50 30t-34 45t-12.5 55q0 63 21.5 111.5t55.5 81.5t75 50t80 17q31 0 58 -10t46.5 -29.5t31 -47t11.5 -61.5q0 -40 -16.5 -84t-45.5 -82q4 -1 7.5 -1.5
t8.5 -0.5q26 0 47 10.5t37 23.5q18 15 34 34q1 3 5 7q2 2 6 4.5t9 2.5q8 0 14.5 -6t6.5 -14q0 -4 -1.5 -7.5t-3.5 -7.5t-4 -9zM112 106q0 -30 12.5 -49t35.5 -19q16 0 31 12q-17 11 -17 24q0 8 5.5 17t13.5 16t16.5 11.5t14.5 4.5q5 0 11 -2q15 38 23 80.5t8 75.5
q0 34 -11 48.5t-28 14.5t-37 -17.5t-37.5 -49t-29 -74t-11.5 -93.5zM336 424q-18 0 -41 5.5t-47 12.5t-46.5 12.5t-40.5 5.5q-19 0 -36 -10t-25 -10q-5 0 -9 3.5t-4 9.5q0 5 3.5 11.5t7.5 11.5q6 9 16.5 20t22.5 20t25.5 15.5t26.5 6.5q18 0 39.5 -6t43.5 -13t43.5 -13
t40.5 -6q12 0 22.5 3.5t19.5 8l16 8t11 3.5q5 0 9 -2.5t4 -7.5t-2 -10t-4 -9q-17 -25 -41 -47.5t-55 -22.5z" />
    <glyph glyph-name="odieresis" unicode="&#xf6;" horiz-adv-x="445" 
d="M477 113q-17 -25 -43 -43q-22 -17 -54.5 -30t-76.5 -13q-18 0 -39 3q-24 -19 -53 -29.5t-61 -10.5q-31 0 -59.5 11t-50 30t-34 45t-12.5 55q0 63 21.5 111.5t55.5 81.5t75 50t80 17q31 0 58 -10t46.5 -29.5t31 -47t11.5 -61.5q0 -40 -16.5 -84t-45.5 -82q4 -1 7.5 -1.5
t8.5 -0.5q26 0 47 10.5t37 23.5q18 15 34 34q1 3 5 7q2 2 6 4.5t9 2.5q8 0 14.5 -6t6.5 -14q0 -4 -1.5 -7.5t-3.5 -7.5t-4 -9zM112 106q0 -30 12.5 -49t35.5 -19q16 0 31 12q-17 11 -17 24q0 8 5.5 17t13.5 16t16.5 11.5t14.5 4.5q5 0 11 -2q15 38 23 80.5t8 75.5
q0 34 -11 48.5t-28 14.5t-37 -17.5t-37.5 -49t-29 -74t-11.5 -93.5zM134 483q0 13 5.5 26.5t15 24.5t22 18.5t26.5 7.5q19 0 30.5 -14t11.5 -34q0 -13 -5 -27t-14.5 -25t-22.5 -18.5t-29 -7.5q-17 0 -28.5 14t-11.5 35zM279 483q0 13 5.5 26.5t15 24.5t22 18.5t26.5 7.5
q19 0 30.5 -14t11.5 -34q0 -13 -5 -27t-14.5 -25t-22.5 -18.5t-29 -7.5q-17 0 -28.5 14t-11.5 35z" />
    <glyph glyph-name="divide" unicode="&#xf7;" horiz-adv-x="485" 
d="M154 173q0 13 6 26.5t15.5 24.5t22.5 18.5t28 7.5q20 0 32 -14t12 -34q0 -13 -5.5 -27t-15 -25t-23.5 -18.5t-30 -7.5q-18 0 -30 14t-12 35zM234 481q0 13 6 26.5t15.5 24.5t22.5 18.5t28 7.5q20 0 32 -14t12 -34q0 -13 -5.5 -27t-15.5 -25t-24 -18.5t-30 -7.5
q-18 0 -29.5 14t-11.5 35zM55 293q-15 0 -15 16q0 5 4 17.5t10.5 25.5t14 23t13.5 10h365q11 0 14.5 -3t3.5 -11q0 -5 -4.5 -17.5t-11.5 -26t-15 -24t-14 -10.5h-365z" />
    <glyph glyph-name="oslash" unicode="&#xf8;" horiz-adv-x="445" 
d="M477 113q-17 -25 -43 -43q-22 -17 -54.5 -30t-76.5 -13q-18 0 -39 3q-24 -19 -53 -29.5t-61 -10.5q-7 0 -13 0.5t-12 1.5l-6 -14q-3 -9 -13 -9h-27q-8 0 -14.5 1.5t-6.5 8.5q0 5 3 11l9 20q-34 19 -55 51t-21 70q0 63 21.5 111.5t55.5 81.5t75 50t80 17h6.5t6.5 -1l13 28
q2 3 5.5 6t8.5 3q16 0 32.5 -4t16.5 -10t-4 -14l-12 -25q34 -17 54 -50.5t20 -80.5q0 -40 -16.5 -84t-45.5 -82q4 -1 7.5 -1.5t8.5 -0.5q26 0 47 10.5t37 23.5q18 15 34 34q1 3 5 7q2 2 6 4.5t9 2.5q8 0 14.5 -6t6.5 -14q0 -4 -1.5 -7.5t-3.5 -7.5t-4 -9zM112 106
q0 -30 12.5 -49t35.5 -19q16 0 31 12q-17 11 -17 24q0 8 5.5 17t13.5 16t16.5 11.5t14.5 4.5q5 0 11 -2q15 38 23 80.5t8 75.5q0 34 -11 48.5t-28 14.5t-37 -17.5t-37.5 -49t-29 -74t-11.5 -93.5z" />
    <glyph glyph-name="ugrave" unicode="&#xf9;" horiz-adv-x="488" 
d="M349 95q0 -17 8.5 -27.5t23.5 -10.5q20 0 39.5 13t34.5 30q18 18 33 43q1 3 5 7q2 2 6 4.5t9 2.5q8 0 14.5 -6t6.5 -14q0 -4 -1.5 -7.5t-3.5 -7.5t-4 -9q-22 -35 -49 -62q-23 -23 -54.5 -42t-68.5 -19q-29 0 -49.5 6.5t-35 17t-23.5 24t-13 27.5q-12 -14 -27.5 -27.5
t-33.5 -24t-37.5 -17t-38.5 -6.5q-17 0 -35.5 7.5t-33.5 20.5t-25 31t-10 38q0 27 9 67t21 81.5t25.5 78.5t22.5 58q4 8 11 13.5t16 5.5q11 0 25 -7t26 -16t20 -18.5t8 -15.5q0 -23 -10 -51t-22.5 -60.5t-22.5 -68t-10 -71.5q0 -12 6 -21t17 -9q12 0 25 6.5t25 17t22 23
t16 24.5q8 16 19 49t22.5 70t22.5 72.5t20 56.5q4 8 11 13.5t17 5.5q11 0 24.5 -7t25.5 -16t20 -18.5t8 -15.5q0 -23 -9 -49.5t-19.5 -56.5t-19.5 -63.5t-9 -69.5zM150 604q16 0 24 -20q7 -17 17.5 -36t23.5 -35.5t26 -30t24 -20.5q10 -5 13 -9t3 -10t-4.5 -10.5t-13.5 -4.5
q-11 0 -28.5 5.5t-37.5 15t-39.5 21.5t-35.5 26q-15 13 -19.5 21.5t-4.5 20.5q0 8 6 19.5t14 22t17 17.5t15 7z" />
    <glyph glyph-name="uacute" unicode="&#xfa;" horiz-adv-x="488" 
d="M349 95q0 -17 8.5 -27.5t23.5 -10.5q20 0 39.5 13t34.5 30q18 18 33 43q1 3 5 7q2 2 6 4.5t9 2.5q8 0 14.5 -6t6.5 -14q0 -4 -1.5 -7.5t-3.5 -7.5t-4 -9q-22 -35 -49 -62q-23 -23 -54.5 -42t-68.5 -19q-29 0 -49.5 6.5t-35 17t-23.5 24t-13 27.5q-12 -14 -27.5 -27.5
t-33.5 -24t-37.5 -17t-38.5 -6.5q-17 0 -35.5 7.5t-33.5 20.5t-25 31t-10 38q0 27 9 67t21 81.5t25.5 78.5t22.5 58q4 8 11 13.5t16 5.5q11 0 25 -7t26 -16t20 -18.5t8 -15.5q0 -23 -10 -51t-22.5 -60.5t-22.5 -68t-10 -71.5q0 -12 6 -21t17 -9q12 0 25 6.5t25 17t22 23
t16 24.5q8 16 19 49t22.5 70t22.5 72.5t20 56.5q4 8 11 13.5t17 5.5q11 0 24.5 -7t25.5 -16t20 -18.5t8 -15.5q0 -23 -9 -49.5t-19.5 -56.5t-19.5 -63.5t-9 -69.5zM297 587q6 0 14.5 -7t17 -17.5t14 -22t5.5 -19.5q0 -12 -4.5 -20.5t-19.5 -21.5q-16 -14 -36.5 -24
t-41 -16.5t-38.5 -10t-30 -3.5q-8 0 -13 4.5t-5 10.5t3 10t13 9q23 14 48.5 42.5t48.5 65.5q6 10 11 15t13 5z" />
    <glyph glyph-name="ucircumflex" unicode="&#xfb;" horiz-adv-x="488" 
d="M349 95q0 -17 8.5 -27.5t23.5 -10.5q20 0 39.5 13t34.5 30q18 18 33 43q1 3 5 7q2 2 6 4.5t9 2.5q8 0 14.5 -6t6.5 -14q0 -4 -1.5 -7.5t-3.5 -7.5t-4 -9q-22 -35 -49 -62q-23 -23 -54.5 -42t-68.5 -19q-29 0 -49.5 6.5t-35 17t-23.5 24t-13 27.5q-12 -14 -27.5 -27.5
t-33.5 -24t-37.5 -17t-38.5 -6.5q-17 0 -35.5 7.5t-33.5 20.5t-25 31t-10 38q0 27 9 67t21 81.5t25.5 78.5t22.5 58q4 8 11 13.5t16 5.5q11 0 25 -7t26 -16t20 -18.5t8 -15.5q0 -23 -10 -51t-22.5 -60.5t-22.5 -68t-10 -71.5q0 -12 6 -21t17 -9q12 0 25 6.5t25 17t22 23
t16 24.5q8 16 19 49t22.5 70t22.5 72.5t20 56.5q4 8 11 13.5t17 5.5q11 0 24.5 -7t25.5 -16t20 -18.5t8 -15.5q0 -23 -9 -49.5t-19.5 -56.5t-19.5 -63.5t-9 -69.5zM266 500q-2 0 -6 -2l-8 -4q-17 -10 -36 -19.5t-36 -17t-29.5 -12.5t-17.5 -5q-8 0 -13 5.5t-5 11.5
q0 13 16 24q26 17 47.5 34.5t50.5 48.5q11 14 20.5 24t29.5 10q11 0 16.5 -3t9.5 -8t7 -12t8 -15q16 -26 32.5 -45t33.5 -33q10 -7 14 -11t4 -12q0 -6 -5.5 -12.5t-13.5 -6.5q-4 0 -14 2.5t-24.5 8.5t-32.5 16.5t-37 26.5q-6 6 -11 6z" />
    <glyph glyph-name="udieresis" unicode="&#xfc;" horiz-adv-x="488" 
d="M349 95q0 -17 8.5 -27.5t23.5 -10.5q20 0 39.5 13t34.5 30q18 18 33 43q1 3 5 7q2 2 6 4.5t9 2.5q8 0 14.5 -6t6.5 -14q0 -4 -1.5 -7.5t-3.5 -7.5t-4 -9q-22 -35 -49 -62q-23 -23 -54.5 -42t-68.5 -19q-29 0 -49.5 6.5t-35 17t-23.5 24t-13 27.5q-12 -14 -27.5 -27.5
t-33.5 -24t-37.5 -17t-38.5 -6.5q-17 0 -35.5 7.5t-33.5 20.5t-25 31t-10 38q0 27 9 67t21 81.5t25.5 78.5t22.5 58q4 8 11 13.5t16 5.5q11 0 25 -7t26 -16t20 -18.5t8 -15.5q0 -23 -10 -51t-22.5 -60.5t-22.5 -68t-10 -71.5q0 -12 6 -21t17 -9q12 0 25 6.5t25 17t22 23
t16 24.5q8 16 19 49t22.5 70t22.5 72.5t20 56.5q4 8 11 13.5t17 5.5q11 0 24.5 -7t25.5 -16t20 -18.5t8 -15.5q0 -23 -9 -49.5t-19.5 -56.5t-19.5 -63.5t-9 -69.5zM124 493q0 13 5.5 26.5t15 24.5t22 18.5t26.5 7.5q19 0 30.5 -14t11.5 -34q0 -13 -5 -27t-14.5 -25
t-22.5 -18.5t-29 -7.5q-17 0 -28.5 14t-11.5 35zM269 493q0 13 5.5 26.5t15 24.5t22 18.5t26.5 7.5q19 0 30.5 -14t11.5 -34q0 -13 -5 -27t-14.5 -25t-22.5 -18.5t-29 -7.5q-17 0 -28.5 14t-11.5 35z" />
    <glyph glyph-name="yacute" unicode="&#xfd;" 
d="M334 26q48 28 79 57.5t53 59.5q2 3 6 7q3 2 7 4.5t9 2.5q9 0 15 -6t6 -14q0 -4 -2 -7.5t-4 -7.5q-3 -4 -5 -9q-26 -35 -68 -71.5t-111 -72.5q-13 -45 -29.5 -90.5t-40.5 -81.5t-57.5 -59t-78.5 -23q-23 0 -43.5 7.5t-36 20t-24.5 30t-9 37.5q0 25 15.5 46.5t43.5 40.5
t66.5 36.5t83.5 35.5q8 28 13 53t9 43q-12 -14 -27.5 -27.5t-33.5 -24t-37.5 -17t-38.5 -6.5q-17 0 -35.5 7.5t-33.5 20.5t-25 31t-10 38q0 27 9 67t21 81.5t25.5 78.5t22.5 58q4 8 11 13.5t16 5.5q11 0 25 -7t26 -16t20 -18.5t8 -15.5q0 -20 -10 -49t-22.5 -63t-22.5 -70
t-10 -69q0 -12 6 -21t17 -9q12 0 25 6.5t25 17t22 23t16 24.5q14 26 26 58.5t22.5 66t19 65.5t16.5 58q2 9 10 14t18 5q11 0 24.5 -7t25.5 -16t20 -18.5t8 -15.5q0 -11 -6 -39t-15 -65.5t-20.5 -79.5t-22.5 -79zM300 581q6 0 14.5 -7t17 -17.5t14 -22t5.5 -19.5
q0 -12 -4.5 -20.5t-19.5 -21.5q-16 -14 -36.5 -24t-41 -16.5t-38.5 -10t-30 -3.5q-8 0 -13 4.5t-5 10.5t3 10t13 9q23 14 48.5 42.5t48.5 65.5q6 10 11 15t13 5zM88 -232q16 0 31 11.5t28 30.5t24 44.5t20 52.5q-27 -15 -49 -31.5t-38 -32.5t-25 -30.5t-9 -24.5
q0 -20 18 -20z" />
    <glyph glyph-name="ydieresis" unicode="&#xff;" 
d="M334 26q48 28 79 57.5t53 59.5q2 3 6 7q3 2 7 4.5t9 2.5q9 0 15 -6t6 -14q0 -4 -2 -7.5t-4 -7.5q-3 -4 -5 -9q-26 -35 -68 -71.5t-111 -72.5q-13 -45 -29.5 -90.5t-40.5 -81.5t-57.5 -59t-78.5 -23q-23 0 -43.5 7.5t-36 20t-24.5 30t-9 37.5q0 25 15.5 46.5t43.5 40.5
t66.5 36.5t83.5 35.5q8 28 13 53t9 43q-12 -14 -27.5 -27.5t-33.5 -24t-37.5 -17t-38.5 -6.5q-17 0 -35.5 7.5t-33.5 20.5t-25 31t-10 38q0 27 9 67t21 81.5t25.5 78.5t22.5 58q4 8 11 13.5t16 5.5q11 0 25 -7t26 -16t20 -18.5t8 -15.5q0 -20 -10 -49t-22.5 -63t-22.5 -70
t-10 -69q0 -12 6 -21t17 -9q12 0 25 6.5t25 17t22 23t16 24.5q14 26 26 58.5t22.5 66t19 65.5t16.5 58q2 9 10 14t18 5q11 0 24.5 -7t25.5 -16t20 -18.5t8 -15.5q0 -11 -6 -39t-15 -65.5t-20.5 -79.5t-22.5 -79zM270 492q0 13 5.5 26.5t15 24.5t22 18.5t26.5 7.5
q19 0 30.5 -14t11.5 -34q0 -13 -5 -27t-14.5 -25t-22.5 -18.5t-29 -7.5q-17 0 -28.5 14t-11.5 35zM125 492q0 13 5.5 26.5t15 24.5t22 18.5t26.5 7.5q19 0 30.5 -14t11.5 -34q0 -13 -5 -27t-14.5 -25t-22.5 -18.5t-29 -7.5q-17 0 -28.5 14t-11.5 35zM88 -232q16 0 31 11.5
t28 30.5t24 44.5t20 52.5q-27 -15 -49 -31.5t-38 -32.5t-25 -30.5t-9 -24.5q0 -20 18 -20z" />
    <glyph glyph-name="Amacron" unicode="&#x100;" horiz-adv-x="976" 
d="M836 -10q-28 0 -54 10t-45.5 28t-31 43.5t-11.5 56.5q0 59 15 127q-31 15 -64 34t-70 39q-43 -77 -78 -139.5t-72 -106.5t-80 -68t-102 -24q-44 0 -87.5 21.5t-78 58t-56 84t-21.5 99.5q0 49 17.5 91.5t50 74t78.5 49.5t103 18q69 0 136 -19t132 -45q46 75 85 132
t75.5 94.5t72 56.5t74.5 19q31 0 53 -12t27 -17q21 13 43 17.5t38 4.5q30 0 30 -14q0 -5 -5.5 -11.5t-18.5 -21.5q-10 -12 -27.5 -47.5t-37.5 -84.5t-41 -107t-38 -116h12q14 0 26.5 4t23 8.5t18 8.5t12.5 4q3 0 6 -3t3 -9q0 -7 -10.5 -22t-27.5 -31t-39 -30t-46 -18
q-6 -29 -9.5 -55.5t-3.5 -48.5q0 -35 17 -50.5t40 -15.5q20 0 39.5 13t34.5 30q18 18 33 43q1 3 5 7q2 2 6 4.5t9 2.5q8 0 14.5 -6t6.5 -14q0 -4 -1.5 -7.5t-3.5 -7.5t-4 -9q-22 -35 -49 -62q-23 -23 -54.5 -42t-68.5 -19zM220 91q36 0 66 17t60.5 51.5t64 87t75.5 122.5
q-38 15 -78.5 24.5t-83.5 9.5q-108 0 -169 -51.5t-61 -137.5q0 -27 10 -50t27 -39t40 -25t49 -9zM607 384q32 -13 62.5 -25t60.5 -21q13 44 29.5 87.5t33.5 84t34.5 76.5t33.5 65l7 12q-5 2 -9.5 3t-12.5 1q-27 0 -51.5 -16t-52 -50t-60 -88t-75.5 -129zM769 775
q-16 0 -16 16q0 5 2.5 15t6.5 20t9.5 17.5t12.5 7.5h255q11 0 15 -3t4 -12q0 -5 -3 -15.5t-7.5 -20.5t-10.5 -17.5t-13 -7.5h-255z" />
    <glyph glyph-name="amacron" unicode="&#x101;" horiz-adv-x="475" 
d="M507 113q-22 -35 -49 -62q-23 -23 -54.5 -42t-68.5 -19q-42 0 -71 21.5t-34 63.5q-20 -25 -43 -43q-20 -16 -45 -29t-54 -13q-20 0 -38.5 7.5t-32 21.5t-21.5 33t-8 42q0 54 20.5 107t53.5 95.5t74 68.5t82 26q30 0 51 -7.5t34 -16.5q15 -11 24 -23q11 0 23.5 -2.5t23 -8
t17.5 -14.5t7 -22q0 -11 -9 -36t-20 -55.5t-20 -63t-9 -57.5q0 -12 7.5 -20t20.5 -8q20 0 39.5 13t34.5 30q18 18 33 43q1 3 5 7q2 2 6 4.5t9 2.5q8 0 14.5 -6t6.5 -14q0 -4 -1.5 -7.5t-3.5 -7.5t-4 -9zM275 290q0 22 -10.5 32.5t-25.5 10.5q-22 0 -45 -23t-41.5 -56.5
t-30.5 -72.5t-12 -70q0 -45 29 -45q18 0 41.5 24t44.5 59t35.5 73.5t14.5 67.5zM161 426q-16 0 -16 16q0 5 2.5 15t6.5 20t9.5 17.5t12.5 7.5h255q11 0 15 -3t4 -12q0 -5 -3 -15.5t-7.5 -20.5t-10.5 -17.5t-13 -7.5h-255z" />
    <glyph glyph-name="Abreve" unicode="&#x102;" horiz-adv-x="976" 
d="M836 -10q-28 0 -54 10t-45.5 28t-31 43.5t-11.5 56.5q0 59 15 127q-31 15 -64 34t-70 39q-43 -77 -78 -139.5t-72 -106.5t-80 -68t-102 -24q-44 0 -87.5 21.5t-78 58t-56 84t-21.5 99.5q0 49 17.5 91.5t50 74t78.5 49.5t103 18q69 0 136 -19t132 -45q46 75 85 132
t75.5 94.5t72 56.5t74.5 19q31 0 53 -12t27 -17q21 13 43 17.5t38 4.5q30 0 30 -14q0 -5 -5.5 -11.5t-18.5 -21.5q-10 -12 -27.5 -47.5t-37.5 -84.5t-41 -107t-38 -116h12q14 0 26.5 4t23 8.5t18 8.5t12.5 4q3 0 6 -3t3 -9q0 -7 -10.5 -22t-27.5 -31t-39 -30t-46 -18
q-6 -29 -9.5 -55.5t-3.5 -48.5q0 -35 17 -50.5t40 -15.5q20 0 39.5 13t34.5 30q18 18 33 43q1 3 5 7q2 2 6 4.5t9 2.5q8 0 14.5 -6t6.5 -14q0 -4 -1.5 -7.5t-3.5 -7.5t-4 -9q-22 -35 -49 -62q-23 -23 -54.5 -42t-68.5 -19zM220 91q36 0 66 17t60.5 51.5t64 87t75.5 122.5
q-38 15 -78.5 24.5t-83.5 9.5q-108 0 -169 -51.5t-61 -137.5q0 -27 10 -50t27 -39t40 -25t49 -9zM607 384q32 -13 62.5 -25t60.5 -21q13 44 29.5 87.5t33.5 84t34.5 76.5t33.5 65l7 12q-5 2 -9.5 3t-12.5 1q-27 0 -51.5 -16t-52 -50t-60 -88t-75.5 -129zM917 765
q-55 0 -90.5 27t-35.5 75q0 28 17.5 42.5t37.5 14.5q31 0 31 -31q0 -7 -1.5 -11t-3 -7.5t-3 -7.5t-1.5 -10q0 -14 15.5 -22.5t40.5 -8.5q35 0 50.5 14.5t15.5 33.5q0 26 12 37t32 11q17 0 28.5 -10.5t11.5 -28.5q0 -26 -19 -54q-16 -23 -49.5 -43.5t-88.5 -20.5z" />
    <glyph glyph-name="abreve" unicode="&#x103;" horiz-adv-x="475" 
d="M507 113q-22 -35 -49 -62q-23 -23 -54.5 -42t-68.5 -19q-42 0 -71 21.5t-34 63.5q-20 -25 -43 -43q-20 -16 -45 -29t-54 -13q-20 0 -38.5 7.5t-32 21.5t-21.5 33t-8 42q0 54 20.5 107t53.5 95.5t74 68.5t82 26q30 0 51 -7.5t34 -16.5q15 -11 24 -23q11 0 23.5 -2.5t23 -8
t17.5 -14.5t7 -22q0 -11 -9 -36t-20 -55.5t-20 -63t-9 -57.5q0 -12 7.5 -20t20.5 -8q20 0 39.5 13t34.5 30q18 18 33 43q1 3 5 7q2 2 6 4.5t9 2.5q8 0 14.5 -6t6.5 -14q0 -4 -1.5 -7.5t-3.5 -7.5t-4 -9zM275 290q0 22 -10.5 32.5t-25.5 10.5q-22 0 -45 -23t-41.5 -56.5
t-30.5 -72.5t-12 -70q0 -45 29 -45q18 0 41.5 24t44.5 59t35.5 73.5t14.5 67.5zM305 428q-55 0 -90.5 27t-35.5 75q0 28 17.5 42.5t37.5 14.5q31 0 31 -31q0 -7 -1.5 -11t-3 -7.5t-3 -7.5t-1.5 -10q0 -14 15.5 -22.5t40.5 -8.5q35 0 50.5 14.5t15.5 33.5q0 26 12 37t32 11
q17 0 28.5 -10.5t11.5 -28.5q0 -26 -19 -54q-16 -23 -49.5 -43.5t-88.5 -20.5z" />
    <glyph glyph-name="Aogonek" unicode="&#x104;" horiz-adv-x="976" 
d="M824 724q31 0 53 -12t27 -17q21 13 43 17.5t38 4.5q30 0 30 -14q0 -5 -5.5 -11.5t-18.5 -21.5q-10 -12 -27.5 -47.5t-37.5 -84.5t-41 -107t-38 -116h12q14 0 26.5 4t23 8.5t18 8.5t12.5 4q3 0 6 -3t3 -9q0 -7 -10.5 -22t-27.5 -31t-39 -30t-46 -18q-6 -29 -9.5 -55.5
t-3.5 -48.5q0 -35 17 -50.5t40 -15.5q20 0 39.5 13t34.5 30q18 18 33 43q1 3 5 7q2 2 6 4.5t9 2.5q8 0 14.5 -6t6.5 -14q0 -4 -1.5 -7.5t-3.5 -7.5t-4 -9q-19 -29 -42 -54q-20 -21 -47 -40.5t-59 -25.5q-8 -5 -17.5 -11.5t-18 -15t-14.5 -18t-6 -21.5q0 -19 19.5 -35.5
t57.5 -16.5q7 0 12 -2t5 -8t-4.5 -12.5t-10.5 -12.5q-13 -14 -33.5 -26.5t-40.5 -12.5q-14 0 -29 8.5t-27 22t-20 30t-8 33.5q0 35 22.5 60t48.5 41q-43 11 -72.5 46t-29.5 86q0 59 15 127q-31 15 -64 34t-70 39q-43 -77 -78 -139.5t-72 -106.5t-80 -68t-102 -24
q-44 0 -87.5 21.5t-78 58t-56 84t-21.5 99.5q0 49 17.5 91.5t50 74t78.5 49.5t103 18q69 0 136 -19t132 -45q46 75 85 132t75.5 94.5t72 56.5t74.5 19zM220 91q36 0 66 17t60.5 51.5t64 87t75.5 122.5q-38 15 -78.5 24.5t-83.5 9.5q-108 0 -169 -51.5t-61 -137.5
q0 -27 10 -50t27 -39t40 -25t49 -9zM607 384q32 -13 62.5 -25t60.5 -21q13 44 29.5 87.5t33.5 84t34.5 76.5t33.5 65l7 12q-5 2 -9.5 3t-12.5 1q-27 0 -51.5 -16t-52 -50t-60 -88t-75.5 -129z" />
    <glyph glyph-name="aogonek" unicode="&#x105;" horiz-adv-x="475" 
d="M507 113q-19 -31 -44 -57q-21 -22 -50 -41t-63 -24q-15 -9 -32.5 -26t-17.5 -36t19.5 -35.5t57.5 -16.5q7 0 12 -2t5 -8t-4.5 -12.5t-10.5 -12.5q-13 -14 -33.5 -26.5t-40.5 -12.5q-14 0 -29 8.5t-27 22t-20 30t-8 33.5q0 35 22.5 60t48.5 40q-25 8 -41.5 28t-20.5 50
q-20 -25 -43 -43q-20 -16 -45 -29t-54 -13q-20 0 -38.5 7.5t-32 21.5t-21.5 33t-8 42q0 54 20.5 107t53.5 95.5t74 68.5t82 26q30 0 51 -7.5t34 -16.5q15 -11 24 -23q11 0 23.5 -2.5t23 -8t17.5 -14.5t7 -22q0 -11 -9 -36t-20 -55.5t-20 -63t-9 -57.5q0 -12 7.5 -20t20.5 -8
q20 0 39.5 13t34.5 30q18 18 33 43q1 3 5 7q2 2 6 4.5t9 2.5q8 0 14.5 -6t6.5 -14q0 -4 -1.5 -7.5t-3.5 -7.5t-4 -9zM275 290q0 22 -10.5 32.5t-25.5 10.5q-22 0 -45 -23t-41.5 -56.5t-30.5 -72.5t-12 -70q0 -45 29 -45q18 0 41.5 24t44.5 59t35.5 73.5t14.5 67.5z" />
    <glyph glyph-name="Cacute" unicode="&#x106;" horiz-adv-x="659" 
d="M433 -29q-47 0 -93 14.5t-82.5 44t-59.5 75t-23 108.5q0 28 4 56t12 56q-45 11 -80 28.5t-60 39t-38 45.5t-13 48q0 42 25.5 78t60 62t70.5 41t57 15q17 0 17 -11q0 -7 -5.5 -11t-13.5 -11q-11 -8 -24.5 -19.5t-25.5 -28t-20 -39t-8 -53.5q0 -33 16.5 -65.5t63.5 -52.5
q28 68 72.5 128.5t96 106t106 72t102.5 26.5q30 0 56.5 -14t45.5 -35t30 -45.5t11 -45.5q0 -39 -28.5 -86t-81 -88t-127 -69t-167.5 -30q-12 -51 -12 -101q0 -96 38.5 -137.5t110.5 -41.5q27 0 54 9t52.5 24t47.5 35.5t39 43.5q1 3 5 7q2 2 6 4.5t9 2.5q9 0 15 -6t6 -14
q0 -4 -1.5 -7.5t-3.5 -7.5t-4 -9q-17 -26 -42 -51t-58 -45.5t-72.5 -33t-85.5 -12.5zM601 656q-33 0 -69 -23t-70.5 -62.5t-64.5 -91t-50 -108.5q68 2 122.5 27.5t92.5 62.5t58 79t20 78q0 17 -10 27.5t-29 10.5zM637 917q6 0 14.5 -7t17 -17.5t14 -22t5.5 -19.5
q0 -12 -4.5 -20.5t-19.5 -21.5q-16 -14 -36.5 -24t-41 -16.5t-38.5 -10t-30 -3.5q-8 0 -13 4.5t-5 10.5t3 10t13 9q23 14 48.5 42.5t48.5 65.5q6 10 11 15t13 5z" />
    <glyph glyph-name="cacute" unicode="&#x107;" horiz-adv-x="370" 
d="M402 113q-26 -35 -59 -62q-29 -23 -70.5 -42t-95.5 -19q-32 0 -64.5 8t-58.5 26t-42 47t-16 71q0 50 20.5 95.5t53 79.5t72.5 54t78 20q27 0 48 -8.5t35.5 -22.5t22.5 -31.5t8 -34.5q0 -13 -5.5 -26.5t-14.5 -24.5t-19.5 -18t-20.5 -7q-20 0 -35.5 12.5t-15.5 29.5
q0 13 6 21t13.5 14.5t14 12t6.5 13.5t-8.5 14.5t-20.5 6.5q-22 0 -42.5 -16.5t-36.5 -43.5t-26 -60.5t-10 -67.5q0 -52 28.5 -77t70.5 -25q34 0 62 14t48 31q24 20 42 46q2 3 6 7q3 2 7 4.5t9 2.5q9 0 15 -6t6 -14q0 -4 -2 -7.5t-4 -7.5q-3 -4 -5 -9zM290 608q6 0 14.5 -7
t17 -17.5t14 -22t5.5 -19.5q0 -12 -4.5 -20.5t-19.5 -21.5q-16 -14 -36.5 -24t-41 -16.5t-38.5 -10t-30 -3.5q-8 0 -13 4.5t-5 10.5t3 10t13 9q23 14 48.5 42.5t48.5 65.5q6 10 11 15t13 5z" />
    <glyph glyph-name="Ccaron" unicode="&#x10c;" horiz-adv-x="659" 
d="M433 -29q-47 0 -93 14.5t-82.5 44t-59.5 75t-23 108.5q0 28 4 56t12 56q-45 11 -80 28.5t-60 39t-38 45.5t-13 48q0 42 25.5 78t60 62t70.5 41t57 15q17 0 17 -11q0 -7 -5.5 -11t-13.5 -11q-11 -8 -24.5 -19.5t-25.5 -28t-20 -39t-8 -53.5q0 -33 16.5 -65.5t63.5 -52.5
q28 68 72.5 128.5t96 106t106 72t102.5 26.5q30 0 56.5 -14t45.5 -35t30 -45.5t11 -45.5q0 -39 -28.5 -86t-81 -88t-127 -69t-167.5 -30q-12 -51 -12 -101q0 -96 38.5 -137.5t110.5 -41.5q27 0 54 9t52.5 24t47.5 35.5t39 43.5q1 3 5 7q2 2 6 4.5t9 2.5q9 0 15 -6t6 -14
q0 -4 -1.5 -7.5t-3.5 -7.5t-4 -9q-17 -26 -42 -51t-58 -45.5t-72.5 -33t-85.5 -12.5zM601 656q-33 0 -69 -23t-70.5 -62.5t-64.5 -91t-50 -108.5q68 2 122.5 27.5t92.5 62.5t58 79t20 78q0 17 -10 27.5t-29 10.5zM584 764q-9 0 -20.5 6.5t-23 17.5t-22.5 24t-20 27
q-15 22 -21 35.5t-6 22.5t4.5 13t9.5 4q6 0 13 -5t18 -13q23 -21 46 -31t43 -10q33 0 79 43q11 10 19 15.5t16 5.5q16 0 16 -16q0 -10 -11.5 -28t-46.5 -53q-23 -25 -49.5 -41.5t-43.5 -16.5z" />
    <glyph glyph-name="ccaron" unicode="&#x10d;" horiz-adv-x="370" 
d="M402 113q-26 -35 -59 -62q-29 -23 -70.5 -42t-95.5 -19q-32 0 -64.5 8t-58.5 26t-42 47t-16 71q0 50 20.5 95.5t53 79.5t72.5 54t78 20q27 0 48 -8.5t35.5 -22.5t22.5 -31.5t8 -34.5q0 -13 -5.5 -26.5t-14.5 -24.5t-19.5 -18t-20.5 -7q-20 0 -35.5 12.5t-15.5 29.5
q0 13 6 21t13.5 14.5t14 12t6.5 13.5t-8.5 14.5t-20.5 6.5q-22 0 -42.5 -16.5t-36.5 -43.5t-26 -60.5t-10 -67.5q0 -52 28.5 -77t70.5 -25q34 0 62 14t48 31q24 20 42 46q2 3 6 7q3 2 7 4.5t9 2.5q9 0 15 -6t6 -14q0 -4 -2 -7.5t-4 -7.5q-3 -4 -5 -9zM228 437
q-9 0 -20.5 6.5t-23 17.5t-22.5 24t-20 27q-15 22 -21 35.5t-6 22.5t4.5 13t9.5 4q6 0 13 -5t18 -13q23 -21 46 -31t43 -10q33 0 79 43q11 10 19 15.5t16 5.5q16 0 16 -16q0 -10 -11.5 -28t-46.5 -53q-23 -25 -49.5 -41.5t-43.5 -16.5z" />
    <glyph glyph-name="Dcaron" unicode="&#x10e;" horiz-adv-x="928" 
d="M530 77q54 0 99 30.5t77.5 79.5t50.5 111.5t18 127.5q0 63 -20 108.5t-53 75t-76 43.5t-88 14q-69 0 -123.5 -18t-92 -48.5t-57 -71.5t-19.5 -86q0 -23 7.5 -38.5t17 -26t17 -17t7.5 -11.5q0 -19 -21 -19q-20 0 -47.5 9t-52 26t-42 40.5t-17.5 53.5q0 56 36.5 104
t96 83.5t136 56t156.5 20.5q57 0 121 -19t118 -59t89.5 -102.5t35.5 -149.5q0 -76 -24 -148.5t-67 -129.5t-102 -91.5t-129 -34.5q-65 0 -124.5 22t-114.5 50q-38 -37 -84 -54.5t-99 -17.5q-31 0 -59.5 8t-51 23t-36 36t-13.5 47q0 28 12 50t30.5 37t41 23t44.5 8
q45 0 86 -15.5t82 -36.5q4 6 7 12.5t6 13.5q12 27 26 64.5t28.5 78t28.5 81.5t28 74.5t26.5 57.5t22.5 30q36 24 70.5 32.5t51.5 8.5q10 0 13 -4t3 -10t-19.5 -29t-37.5 -63q-5 -11 -18 -48t-31.5 -88t-40.5 -108t-45 -107q-6 -13 -12.5 -24.5t-13.5 -22.5q35 -18 70 -30
t71 -12zM541 772q-9 0 -20.5 6.5t-23 17.5t-22.5 24t-20 27q-15 22 -21 35.5t-6 22.5t4.5 13t9.5 4q6 0 13 -5t18 -13q23 -21 46 -31t43 -10q33 0 79 43q11 10 19 15.5t16 5.5q16 0 16 -16q0 -10 -11.5 -28t-46.5 -53q-23 -25 -49.5 -41.5t-43.5 -16.5zM135 146
q-23 0 -38 -15t-15 -35t17.5 -32.5t41.5 -12.5q33 0 61 13.5t54 43.5q-34 17 -64 27.5t-57 10.5z" />
    <glyph glyph-name="dcaron" unicode="&#x10f;" horiz-adv-x="539" 
d="M282 319l-8 8q-4 3 -9 5.5t-11 2.5q-24 0 -48.5 -23t-44 -56.5t-31.5 -71.5t-12 -69q0 -27 10 -42t27 -15q16 0 35 12.5t36 28.5q19 18 39 42q1 45 5.5 88.5t11.5 89.5zM389 277q44 72 79 138q15 28 29.5 57.5t25.5 56.5t18 50t7 40t-14 17q-13 0 -32 -31.5t-40 -82.5
t-40.5 -115t-32.5 -130zM399 -10q-28 0 -51 10.5t-39.5 25.5t-26 32t-10.5 30q-24 -28 -51 -49q-23 -19 -52.5 -34t-60.5 -15q-21 0 -41.5 9t-36.5 25t-26 39t-10 50q0 61 24 112.5t60 88t77.5 57t76.5 20.5q14 0 26 -2.5t20 -5.5q10 -4 17 -8q17 61 41 119t52.5 103
t60.5 72t67 27q15 0 30.5 -8t28 -21t20.5 -30t8 -34q0 -18 -9.5 -45t-25 -58.5t-35 -65.5t-40.5 -67q-48 -77 -110 -164q-2 -13 -3 -25.5t-1 -24.5q0 -42 13 -69t41 -27q20 0 39 13t34 30q18 18 33 43q1 3 5 7q2 2 6 4.5t9 2.5q8 0 14.5 -6t6.5 -14q0 -4 -1.5 -7.5
t-3.5 -7.5t-4 -9q-22 -35 -49 -62q-23 -23 -54.5 -42t-68.5 -19zM639 667q0 23 17 39.5t43 16.5q56 0 56 -57q0 -28 -15.5 -56t-35.5 -50t-39.5 -35.5t-27.5 -13.5q-16 0 -16 13q0 7 5.5 15.5t11.5 19.5t11.5 25t5.5 34q0 15 -8 24t-8 25z" />
    <glyph glyph-name="Emacron" unicode="&#x112;" horiz-adv-x="476" 
d="M258 -29q-42 0 -84 10t-75.5 32t-55 56.5t-21.5 82.5q0 43 15 77t37.5 61t49 46t49.5 32t39.5 19.5t19.5 7.5q-1 0 -11 5.5t-22 17t-23 29.5t-15 44q-76 7 -113.5 30t-37.5 59q0 25 14.5 49t34.5 43t40.5 31t31.5 12q5 0 7 -3t2 -6q0 -5 -9 -17.5t-9 -30.5
q0 -24 14 -44.5t39 -36.5q16 31 45.5 58t66 47t77.5 31t80 11q27 0 50.5 -6.5t41 -18t27.5 -28t10 -36.5q0 -26 -20 -50t-57.5 -43.5t-90.5 -33t-119 -17.5q1 -17 4.5 -30.5t8.5 -23.5q5 -11 11 -21q8 1 19 3q9 1 21.5 2t28.5 1q59 0 59 -35q0 -15 -17.5 -30.5t-46.5 -15.5
q-18 0 -33 2.5t-26 6.5q-12 4 -22 10q-37 -22 -66 -52q-25 -26 -45.5 -64t-20.5 -89q0 -63 34 -93.5t97 -30.5q54 0 102 30t82 82q1 3 5 7q2 2 6 4.5t9 2.5q9 0 15 -6t6 -14q0 -5 -4 -15l-4 -8q-16 -27 -40 -52.5t-55.5 -45.5t-70.5 -32.5t-85 -12.5zM302 757q-16 0 -16 16
q0 5 2.5 15t6.5 20t9.5 17.5t12.5 7.5h255q11 0 15 -3t4 -12q0 -5 -3 -15.5t-7.5 -20.5t-10.5 -17.5t-13 -7.5h-255zM441 681q-23 0 -46 -10t-43 -27.5t-36 -42t-24 -53.5q43 0 79.5 7t63.5 20t42 31t15 40q0 16 -15 25.5t-36 9.5z" />
    <glyph glyph-name="emacron" unicode="&#x113;" horiz-adv-x="357" 
d="M120 185q27 0 51 15t41.5 36.5t27.5 44.5t10 39q0 20 -18 20q-21 0 -41 -17t-35.5 -41t-25.5 -51t-10 -46zM389 113q-22 -35 -55 -62q-28 -23 -69.5 -42t-98.5 -19q-38 0 -70 11t-55 30.5t-36 46.5t-13 59q0 57 21 104t53 80.5t69.5 51.5t70.5 18q23 0 43 -9t35 -23.5
t23.5 -33.5t8.5 -39q0 -18 -8 -43.5t-26.5 -48.5t-50 -39.5t-78.5 -16.5q-11 0 -23 3q-7 1 -15 3q0 -45 26 -69t62 -24q35 0 64 14.5t49 31.5q24 20 41 46q1 3 5 7q2 2 6 4.5t9 2.5q8 0 14.5 -6t6.5 -14q0 -4 -1.5 -7.5t-3.5 -7.5t-4 -9zM95 433q-16 0 -16 16q0 5 2.5 15
t6.5 20t9.5 17.5t12.5 7.5h255q11 0 15 -3t4 -12q0 -5 -3 -15.5t-7.5 -20.5t-10.5 -17.5t-13 -7.5h-255z" />
    <glyph glyph-name="Ebreve" unicode="&#x114;" horiz-adv-x="476" 
d="M258 -29q-42 0 -84 10t-75.5 32t-55 56.5t-21.5 82.5q0 43 15 77t37.5 61t49 46t49.5 32t39.5 19.5t19.5 7.5q-1 0 -11 5.5t-22 17t-23 29.5t-15 44q-76 7 -113.5 30t-37.5 59q0 25 14.5 49t34.5 43t40.5 31t31.5 12q5 0 7 -3t2 -6q0 -5 -9 -17.5t-9 -30.5
q0 -24 14 -44.5t39 -36.5q16 31 45.5 58t66 47t77.5 31t80 11q27 0 50.5 -6.5t41 -18t27.5 -28t10 -36.5q0 -26 -20 -50t-57.5 -43.5t-90.5 -33t-119 -17.5q1 -17 4.5 -30.5t8.5 -23.5q5 -11 11 -21q8 1 19 3q9 1 21.5 2t28.5 1q59 0 59 -35q0 -15 -17.5 -30.5t-46.5 -15.5
q-18 0 -33 2.5t-26 6.5q-12 4 -22 10q-37 -22 -66 -52q-25 -26 -45.5 -64t-20.5 -89q0 -63 34 -93.5t97 -30.5q54 0 102 30t82 82q1 3 5 7q2 2 6 4.5t9 2.5q9 0 15 -6t6 -14q0 -5 -4 -15l-4 -8q-16 -27 -40 -52.5t-55.5 -45.5t-70.5 -32.5t-85 -12.5zM428 757
q-55 0 -90.5 27t-35.5 75q0 28 17.5 42.5t37.5 14.5q31 0 31 -31q0 -7 -1.5 -11t-3 -7.5t-3 -7.5t-1.5 -10q0 -14 15.5 -22.5t40.5 -8.5q35 0 50.5 14.5t15.5 33.5q0 26 12 37t32 11q17 0 28.5 -10.5t11.5 -28.5q0 -26 -19 -54q-16 -23 -49.5 -43.5t-88.5 -20.5zM441 681
q-23 0 -46 -10t-43 -27.5t-36 -42t-24 -53.5q43 0 79.5 7t63.5 20t42 31t15 40q0 16 -15 25.5t-36 9.5z" />
    <glyph glyph-name="ebreve" unicode="&#x115;" horiz-adv-x="357" 
d="M120 185q27 0 51 15t41.5 36.5t27.5 44.5t10 39q0 20 -18 20q-21 0 -41 -17t-35.5 -41t-25.5 -51t-10 -46zM389 113q-22 -35 -55 -62q-28 -23 -69.5 -42t-98.5 -19q-38 0 -70 11t-55 30.5t-36 46.5t-13 59q0 57 21 104t53 80.5t69.5 51.5t70.5 18q23 0 43 -9t35 -23.5
t23.5 -33.5t8.5 -39q0 -18 -8 -43.5t-26.5 -48.5t-50 -39.5t-78.5 -16.5q-11 0 -23 3q-7 1 -15 3q0 -45 26 -69t62 -24q35 0 64 14.5t49 31.5q24 20 41 46q1 3 5 7q2 2 6 4.5t9 2.5q8 0 14.5 -6t6.5 -14q0 -4 -1.5 -7.5t-3.5 -7.5t-4 -9zM217 433q-55 0 -90.5 27t-35.5 75
q0 28 17.5 42.5t37.5 14.5q31 0 31 -31q0 -7 -1.5 -11t-3 -7.5t-3 -7.5t-1.5 -10q0 -14 15.5 -22.5t40.5 -8.5q35 0 50.5 14.5t15.5 33.5q0 26 12 37t32 11q17 0 28.5 -10.5t11.5 -28.5q0 -26 -19 -54q-16 -23 -49.5 -43.5t-88.5 -20.5z" />
    <glyph glyph-name="Eogonek" unicode="&#x118;" horiz-adv-x="476" 
d="M509 114q-15 -25 -37 -49t-50.5 -43.5t-63 -33t-75.5 -16.5q-15 -10 -30 -26t-15 -33q0 -19 19.5 -35.5t57.5 -16.5q7 0 12 -2t5 -8t-4.5 -12.5t-10.5 -12.5q-13 -14 -33.5 -26.5t-40.5 -12.5q-14 0 -29 8.5t-27 22t-20 30t-8 33.5q0 31 17.5 54t40.5 39q-37 4 -72 16.5
t-62.5 34t-44 53t-16.5 74.5t15 77t37.5 61t49 46t49.5 32t39.5 19.5t19.5 7.5q-1 0 -11 5.5t-22 17t-23 29.5t-15 44q-76 7 -113.5 30t-37.5 59q0 25 14.5 49t34.5 43t40.5 31t31.5 12q5 0 7 -3t2 -6q0 -5 -9 -17.5t-9 -30.5q0 -24 14 -44.5t39 -36.5q16 31 45.5 58t66 47
t77.5 31t80 11q27 0 50.5 -6.5t41 -18t27.5 -28t10 -36.5q0 -26 -20 -50t-57.5 -43.5t-90.5 -33t-119 -17.5q1 -17 4.5 -30.5t8.5 -23.5q5 -11 11 -21q8 1 19 3q9 1 21.5 2t28.5 1q59 0 59 -35q0 -15 -17.5 -30.5t-46.5 -15.5q-18 0 -33 2.5t-26 6.5q-12 4 -22 10
q-37 -22 -66 -52q-25 -26 -45.5 -64t-20.5 -89q0 -63 34 -93.5t97 -30.5q54 0 102 30t82 82q1 3 5 7q2 2 6 4.5t9 2.5q9 0 15 -6t6 -14q0 -5 -4 -15zM441 681q-23 0 -46 -10t-43 -27.5t-36 -42t-24 -53.5q43 0 79.5 7t63.5 20t42 31t15 40q0 16 -15 25.5t-36 9.5z" />
    <glyph glyph-name="eogonek" unicode="&#x119;" horiz-adv-x="357" 
d="M389 113q-17 -27 -42 -50q-21 -20 -53 -39.5t-75 -27.5q-15 -10 -31.5 -26.5t-16.5 -34.5q0 -19 19.5 -35.5t57.5 -16.5q7 0 12 -2t5 -8t-4.5 -12.5t-10.5 -12.5q-13 -14 -33.5 -26.5t-40.5 -12.5q-14 0 -29 8.5t-27 22t-20 30t-8 33.5q0 29 15.5 51t36.5 37
q-33 3 -61 15t-48.5 31.5t-31.5 44.5t-11 55q0 57 21 104t53 80.5t69.5 51.5t70.5 18q23 0 43 -9t35 -23.5t23.5 -33.5t8.5 -39q0 -18 -8 -43.5t-26.5 -48.5t-50 -39.5t-78.5 -16.5q-11 0 -23 3q-7 1 -15 3q0 -45 26 -69t62 -24q35 0 64 14.5t49 31.5q24 20 41 46q1 3 5 7
q2 2 6 4.5t9 2.5q8 0 14.5 -6t6.5 -14q0 -4 -1.5 -7.5t-3.5 -7.5t-4 -9zM120 185q27 0 51 15t41.5 36.5t27.5 44.5t10 39q0 20 -18 20q-21 0 -41 -17t-35.5 -41t-25.5 -51t-10 -46z" />
    <glyph glyph-name="Imacron" unicode="&#x12a;" horiz-adv-x="537" 
d="M582 724q17 0 30 -10.5t13 -30.5q0 -14 -6.5 -25.5t-16 -20.5t-21.5 -15t-23 -8q-6 -6 -12 -22.5t-12 -46.5t-14 -76t-19 -111q-13 -81 -37 -148.5t-60 -116t-85 -76t-113 -27.5q-44 0 -80.5 18t-62.5 44t-40.5 55.5t-14.5 52.5q0 8 3.5 14t11.5 6q7 0 10 -4l6 -8
q7 -11 18 -23.5t26 -24t33.5 -19t41.5 -7.5q45 0 81 21t64.5 57.5t50 87.5t37.5 111t29.5 104.5t24.5 74.5q12 35 23 60q-67 -19 -120 -52q-23 -14 -44 -32.5t-38 -42t-27 -52.5t-10 -64q0 -32 12 -48t23 -25q5 -5 10.5 -9t5.5 -10q0 -13 -20 -13q-18 0 -43 11t-48 31
t-39 48.5t-16 63.5q0 38 17.5 70t47 58t68 46t80 36t83.5 27t78 18q23 31 47 42t47 11zM419 757q-16 0 -16 16q0 5 2.5 15t6.5 20t9.5 17.5t12.5 7.5h255q11 0 15 -3t4 -12q0 -5 -3 -15.5t-7.5 -20.5t-10.5 -17.5t-13 -7.5h-255z" />
    <glyph glyph-name="imacron" unicode="&#x12b;" horiz-adv-x="253" 
d="M114 95q0 -17 8.5 -27.5t23.5 -10.5q20 0 39.5 13t34.5 30q18 18 33 43q1 3 5 7q2 2 6 4.5t9 2.5q8 0 14.5 -6t6.5 -14q0 -4 -1.5 -7.5t-3.5 -7.5t-4 -9q-22 -35 -49 -62q-23 -23 -54.5 -42t-68.5 -19q-57 0 -92 30.5t-35 79.5q0 27 9 65t21 77t25.5 74t22.5 56
q4 8 11 13.5t16 5.5q11 0 25 -7t26 -16t20 -18.5t8 -15.5q0 -23 -9 -49.5t-19.5 -56.5t-19 -63.5t-8.5 -69.5zM13 456q-16 0 -16 16q0 5 2.5 15t6.5 20t9.5 17.5t12.5 7.5h255q11 0 15 -3t4 -12q0 -5 -3 -15.5t-7.5 -20.5t-10.5 -17.5t-13 -7.5h-255z" />
    <glyph glyph-name="Ibreve" unicode="&#x12c;" horiz-adv-x="537" 
d="M582 724q17 0 30 -10.5t13 -30.5q0 -14 -6.5 -25.5t-16 -20.5t-21.5 -15t-23 -8q-6 -6 -12 -22.5t-12 -46.5t-14 -76t-19 -111q-13 -81 -37 -148.5t-60 -116t-85 -76t-113 -27.5q-44 0 -80.5 18t-62.5 44t-40.5 55.5t-14.5 52.5q0 8 3.5 14t11.5 6q7 0 10 -4l6 -8
q7 -11 18 -23.5t26 -24t33.5 -19t41.5 -7.5q45 0 81 21t64.5 57.5t50 87.5t37.5 111t29.5 104.5t24.5 74.5q12 35 23 60q-67 -19 -120 -52q-23 -14 -44 -32.5t-38 -42t-27 -52.5t-10 -64q0 -32 12 -48t23 -25q5 -5 10.5 -9t5.5 -10q0 -13 -20 -13q-18 0 -43 11t-48 31
t-39 48.5t-16 63.5q0 38 17.5 70t47 58t68 46t80 36t83.5 27t78 18q23 31 47 42t47 11zM547 771q-55 0 -90.5 27t-35.5 75q0 28 17.5 42.5t37.5 14.5q31 0 31 -31q0 -7 -1.5 -11t-3 -7.5t-3 -7.5t-1.5 -10q0 -14 15.5 -22.5t40.5 -8.5q35 0 50.5 14.5t15.5 33.5q0 26 12 37
t32 11q17 0 28.5 -10.5t11.5 -28.5q0 -26 -19 -54q-16 -23 -49.5 -43.5t-88.5 -20.5z" />
    <glyph glyph-name="ibreve" unicode="&#x12d;" horiz-adv-x="253" 
d="M114 95q0 -17 8.5 -27.5t23.5 -10.5q20 0 39.5 13t34.5 30q18 18 33 43q1 3 5 7q2 2 6 4.5t9 2.5q8 0 14.5 -6t6.5 -14q0 -4 -1.5 -7.5t-3.5 -7.5t-4 -9q-22 -35 -49 -62q-23 -23 -54.5 -42t-68.5 -19q-57 0 -92 30.5t-35 79.5q0 27 9 65t21 77t25.5 74t22.5 56
q4 8 11 13.5t16 5.5q11 0 25 -7t26 -16t20 -18.5t8 -15.5q0 -23 -9 -49.5t-19.5 -56.5t-19 -63.5t-8.5 -69.5zM139 437q-55 0 -90.5 27t-35.5 75q0 28 17.5 42.5t37.5 14.5q31 0 31 -31q0 -7 -1.5 -11t-3 -7.5t-3 -7.5t-1.5 -10q0 -14 15.5 -22.5t40.5 -8.5q35 0 50.5 14.5
t15.5 33.5q0 26 12 37t32 11q17 0 28.5 -10.5t11.5 -28.5q0 -26 -19 -54q-16 -23 -49.5 -43.5t-88.5 -20.5z" />
    <glyph glyph-name="dotlessi" unicode="&#x131;" horiz-adv-x="253" 
d="M114 95q0 -17 8.5 -27.5t23.5 -10.5q20 0 39.5 13t34.5 30q18 18 33 43q1 3 5 7q2 2 6 4.5t9 2.5q8 0 14.5 -6t6.5 -14q0 -4 -1.5 -7.5t-3.5 -7.5t-4 -9q-22 -35 -49 -62q-23 -23 -54.5 -42t-68.5 -19q-57 0 -92 30.5t-35 79.5q0 27 9 65t21 77t25.5 74t22.5 56
q4 8 11 13.5t16 5.5q11 0 25 -7t26 -16t20 -18.5t8 -15.5q0 -23 -9 -49.5t-19.5 -56.5t-19 -63.5t-8.5 -69.5z" />
    <glyph glyph-name="Lacute" unicode="&#x139;" horiz-adv-x="874" 
d="M906 113q-21 -35 -49 -62q-24 -23 -58 -42t-77 -19q-38 0 -72 11.5t-66 30t-63 42t-61 47.5q-39 -56 -96.5 -93.5t-139.5 -37.5q-47 0 -88 15.5t-71.5 41.5t-48 59.5t-17.5 70.5q0 34 13.5 61.5t36 47t52 30t61.5 10.5q57 0 114.5 -19.5t114.5 -48.5q12 25 23 51l22 52
q-62 9 -116.5 28.5t-95.5 47.5t-65 62t-24 70q0 38 15.5 65.5t40.5 45.5t56 26.5t62 8.5q56 0 93.5 -22.5t66.5 -51.5q6 -6 10 -12.5t4 -11.5q0 -6 -4 -11t-9 -5q-7 0 -12.5 3.5t-13.5 8.5q-22 16 -46 25t-50 9q-35 0 -56.5 -16t-21.5 -53q0 -26 12.5 -51t36.5 -46t60 -37
t83 -23l9 18q35 77 68 131t67 88.5t70.5 50t78.5 15.5q35 0 62 -12t46 -30.5t28.5 -42t9.5 -45.5q0 -39 -23.5 -79t-67 -73t-105 -56t-136.5 -29q-13 -36 -28.5 -77.5t-36.5 -83.5q71 -39 138 -69.5t130 -30.5q24 0 41.5 5t29 12t19 15.5t12.5 14.5q1 3 5 7q2 2 6 4.5t9 2.5
q8 0 14.5 -6t6.5 -14q0 -4 -1.5 -7.5t-3.5 -7.5t-4 -9zM186 68q57 0 98.5 36t74.5 93q-35 22 -71 35.5t-75 13.5q-55 0 -87 -25.5t-32 -71.5q0 -35 26.5 -58t65.5 -23zM777 659q-21 0 -40.5 -9.5t-41 -35.5t-45.5 -72t-54 -118q45 10 84 32.5t68.5 51t46 59.5t16.5 58
q0 13 -9 23.5t-25 10.5zM827 925q6 0 14.5 -7t17 -17.5t14 -22t5.5 -19.5q0 -12 -4.5 -20.5t-19.5 -21.5q-16 -14 -36.5 -24t-41 -16.5t-38.5 -10t-30 -3.5q-8 0 -13 4.5t-5 10.5t3 10t13 9q23 14 48.5 42.5t48.5 65.5q6 10 11 15t13 5z" />
    <glyph glyph-name="lacute" unicode="&#x13a;" horiz-adv-x="286" 
d="M321 615q0 14 -12 14q-14 0 -36.5 -31t-47 -81t-48.5 -112t-39 -125q17 14 37.5 40t40.5 58.5t39 67.5t33.5 67.5t23.5 59.5t9 42zM146 -10q-30 0 -57.5 10t-48.5 29.5t-33.5 47.5t-12.5 63q0 50 11.5 111t32.5 122.5t48.5 119.5t60.5 103.5t68.5 72.5t71.5 27
q17 0 32 -8t26.5 -20t18.5 -26.5t7 -27.5q0 -21 -11.5 -53.5t-30.5 -70t-44.5 -77.5t-53 -77.5t-55.5 -70t-53 -53.5q-2 -12 -4 -25q-2 -11 -3 -24.5t-1 -26.5q0 -35 16.5 -57t47.5 -22q20 0 39.5 13t34.5 30q18 18 33 43q1 3 5 7q2 2 6 4.5t9 2.5q8 0 14.5 -6t6.5 -14
q0 -4 -1.5 -7.5t-3.5 -7.5t-4 -9q-22 -35 -49 -62q-23 -23 -54.5 -42t-68.5 -19zM402 906q6 0 14.5 -7t17 -17.5t14 -22t5.5 -19.5q0 -12 -4.5 -20.5t-19.5 -21.5q-16 -14 -36.5 -24t-41 -16.5t-38.5 -10t-30 -3.5q-8 0 -13 4.5t-5 10.5t3 10t13 9q23 14 48.5 42.5
t48.5 65.5q6 10 11 15t13 5z" />
    <glyph glyph-name="Lcaron" unicode="&#x13d;" horiz-adv-x="874" 
d="M906 113q-21 -35 -49 -62q-24 -23 -58 -42t-77 -19q-38 0 -72 11.5t-66 30t-63 42t-61 47.5q-39 -56 -96.5 -93.5t-139.5 -37.5q-47 0 -88 15.5t-71.5 41.5t-48 59.5t-17.5 70.5q0 34 13.5 61.5t36 47t52 30t61.5 10.5q57 0 114.5 -19.5t114.5 -48.5q12 25 23 51l22 52
q-62 9 -116.5 28.5t-95.5 47.5t-65 62t-24 70q0 38 15.5 65.5t40.5 45.5t56 26.5t62 8.5q56 0 93.5 -22.5t66.5 -51.5q6 -6 10 -12.5t4 -11.5q0 -6 -4 -11t-9 -5q-7 0 -12.5 3.5t-13.5 8.5q-22 16 -46 25t-50 9q-35 0 -56.5 -16t-21.5 -53q0 -26 12.5 -51t36.5 -46t60 -37
t83 -23l9 18q35 77 68 131t67 88.5t70.5 50t78.5 15.5q35 0 62 -12t46 -30.5t28.5 -42t9.5 -45.5q0 -39 -23.5 -79t-67 -73t-105 -56t-136.5 -29q-13 -36 -28.5 -77.5t-36.5 -83.5q71 -39 138 -69.5t130 -30.5q24 0 41.5 5t29 12t19 15.5t12.5 14.5q1 3 5 7q2 2 6 4.5t9 2.5
q8 0 14.5 -6t6.5 -14q0 -4 -1.5 -7.5t-3.5 -7.5t-4 -9zM186 68q57 0 98.5 36t74.5 93q-35 22 -71 35.5t-75 13.5q-55 0 -87 -25.5t-32 -71.5q0 -35 26.5 -58t65.5 -23zM777 659q-21 0 -40.5 -9.5t-41 -35.5t-45.5 -72t-54 -118q45 10 84 32.5t68.5 51t46 59.5t16.5 58
q0 13 -9 23.5t-25 10.5zM937 667q0 23 17 39.5t43 16.5q56 0 56 -57q0 -28 -15.5 -56t-35.5 -50t-39.5 -35.5t-27.5 -13.5q-16 0 -16 13q0 7 5.5 15.5t11.5 19.5t11.5 25t5.5 34q0 15 -8 24t-8 25z" />
    <glyph glyph-name="lcaron" unicode="&#x13e;" horiz-adv-x="286" 
d="M321 615q0 14 -12 14q-14 0 -36.5 -31t-47 -81t-48.5 -112t-39 -125q17 14 37.5 40t40.5 58.5t39 67.5t33.5 67.5t23.5 59.5t9 42zM146 -10q-30 0 -57.5 10t-48.5 29.5t-33.5 47.5t-12.5 63q0 50 11.5 111t32.5 122.5t48.5 119.5t60.5 103.5t68.5 72.5t71.5 27
q17 0 32 -8t26.5 -20t18.5 -26.5t7 -27.5q0 -21 -11.5 -53.5t-30.5 -70t-44.5 -77.5t-53 -77.5t-55.5 -70t-53 -53.5q-2 -12 -4 -25q-2 -11 -3 -24.5t-1 -26.5q0 -35 16.5 -57t47.5 -22q20 0 39.5 13t34.5 30q18 18 33 43q1 3 5 7q2 2 6 4.5t9 2.5q8 0 14.5 -6t6.5 -14
q0 -4 -1.5 -7.5t-3.5 -7.5t-4 -9q-22 -35 -49 -62q-23 -23 -54.5 -42t-68.5 -19zM407 667q0 23 17 39.5t43 16.5q56 0 56 -57q0 -28 -15.5 -56t-35.5 -50t-39.5 -35.5t-27.5 -13.5q-16 0 -16 13q0 7 5.5 15.5t11.5 19.5t11.5 25t5.5 34q0 15 -8 24t-8 25z" />
    <glyph glyph-name="Lslash" unicode="&#x141;" horiz-adv-x="874" 
d="M906 113q-21 -35 -49 -62q-24 -23 -58 -42t-77 -19q-38 0 -72 11.5t-66 30t-63 42t-61 47.5q-39 -56 -96.5 -93.5t-139.5 -37.5q-47 0 -88 15.5t-71.5 41.5t-48 59.5t-17.5 70.5q0 34 13.5 61.5t36 47t52 30t61.5 10.5q57 0 114.5 -19.5t114.5 -48.5l6 13q-17 9 -30.5 20
t-22.5 21.5t-14 20t-5 14.5q0 6 4 10t9 4q4 0 11.5 -4.5t17.5 -10t23.5 -11t31.5 -8.5l14 34q-62 9 -116.5 28.5t-95.5 47.5t-65 62t-24 70q0 38 15.5 65.5t40.5 45.5t56 26.5t62 8.5q56 0 93.5 -22.5t66.5 -51.5q6 -6 10 -12.5t4 -11.5q0 -6 -4 -11t-9 -5q-7 0 -12.5 3.5
t-13.5 8.5q-22 16 -46 25t-50 9q-35 0 -56.5 -16t-21.5 -53q0 -26 12.5 -51t36.5 -46t60 -37t83 -23l9 18q35 77 68 131t67 88.5t70.5 50t78.5 15.5q35 0 62 -12t46 -30.5t28.5 -42t9.5 -45.5q0 -39 -23.5 -79t-67 -73t-105 -56t-136.5 -29l-9 -26h3q13 0 28 -10.5t27.5 -24
t21 -27t8.5 -19.5t-5.5 -11t-9.5 -5q-3 0 -9 3.5t-15 8t-20 8.5t-23 4h-14.5t-19.5 -1l-28 -61q71 -39 138 -69.5t130 -30.5q24 0 41.5 5t29 12t19 15.5t12.5 14.5q1 3 5 7q2 2 6 4.5t9 2.5q8 0 14.5 -6t6.5 -14q0 -4 -1.5 -7.5t-3.5 -7.5t-4 -9zM186 68q57 0 98.5 36
t74.5 93q-35 22 -71 35.5t-75 13.5q-55 0 -87 -25.5t-32 -71.5q0 -35 26.5 -58t65.5 -23zM777 659q-21 0 -40.5 -9.5t-41 -35.5t-45.5 -72t-54 -118q45 10 84 32.5t68.5 51t46 59.5t16.5 58q0 13 -9 23.5t-25 10.5z" />
    <glyph glyph-name="lslash" unicode="&#x142;" horiz-adv-x="286" 
d="M140 586q34 50 71.5 80t75.5 30q17 0 32 -8t26.5 -20t18.5 -26.5t7 -27.5q0 -2 -0.5 -4t-0.5 -4q13 -2 27 -12.5t26 -23.5t19.5 -25.5t7.5 -18.5t-5.5 -11t-9.5 -5q-6 0 -23.5 10t-42.5 10q-8 0 -23 -3q-17 -39 -43.5 -84.5t-57 -89t-62.5 -80.5t-60 -61q-2 -12 -4 -25
q-2 -11 -3 -24.5t-1 -26.5q0 -35 16.5 -57t47.5 -22q20 0 39.5 13t34.5 30q18 18 33 43q1 3 5 7q2 2 6 4.5t9 2.5q8 0 14.5 -6t6.5 -14q0 -4 -1.5 -7.5t-3.5 -7.5t-4 -9q-22 -35 -49 -62q-23 -23 -54.5 -42t-68.5 -19q-30 0 -57.5 10t-48.5 29.5t-33.5 47.5t-12.5 63
q0 37 6.5 80t18 88t28 90.5t36.5 87.5q-22 9 -38.5 24.5t-28 32.5t-17 32t-5.5 21t4 10t9 4t12.5 -4t18.5 -8.5t27 -8t39 -3.5h36zM138 280q17 14 37.5 40.5t40.5 58.5t39 67.5t34 68.5l-74 -18q-23 -48 -43 -104t-34 -113zM321 615q0 14 -12 14q-13 0 -35 -30q12 2 23.5 3
t22.5 2q0 3 0.5 6t0.5 5z" />
    <glyph glyph-name="Nacute" unicode="&#x143;" horiz-adv-x="855" 
d="M716 69q-7 -16 -20.5 -30t-27.5 -25t-27 -17.5t-19 -6.5q-11 0 -23 9t-22 25t-17 36t-10 43t-5 70.5t-4 101t-3 105t-1 83.5q-13 -43 -29 -94.5t-36.5 -104t-45 -102t-54 -88t-64.5 -61.5t-75 -23q-46 0 -88 17.5t-74.5 43.5t-51.5 56t-19 56q0 30 19 55.5t46.5 43.5
t57.5 28.5t52 10.5q11 0 18 -4.5t7 -10.5q0 -8 -4.5 -14t-15.5 -15q-8 -7 -19 -17t-21 -24.5t-16.5 -32.5t-6.5 -40q0 -32 20.5 -52.5t49.5 -20.5q28 0 62.5 32t69.5 82.5t68 113.5t59 124t41.5 113.5t15.5 83.5q0 18 -12 31.5t-40 13.5q-23 0 -55.5 -15.5t-62 -41.5
t-50.5 -60t-21 -70q0 -23 8 -40t17 -29t17 -20t8 -13q0 -20 -21 -20q-20 0 -47.5 10.5t-52.5 29.5t-42 44t-17 55q0 46 32.5 88t82 73.5t109 50t114.5 18.5q24 0 54 -10.5t57 -31.5t46 -53.5t21 -75.5q2 -46 3 -97.5t3.5 -104t6 -104.5t10.5 -98q5 13 14.5 44t22.5 73.5
t29.5 92t35.5 99.5t39.5 96.5t41.5 82t42.5 57t41.5 21.5q21 0 42 -7t37.5 -17t27 -21.5t10.5 -20.5t-5 -14t-13 -5q-39 0 -74.5 -33.5t-66.5 -86.5t-58.5 -117.5t-50 -127t-40.5 -115t-31 -81.5zM819 894q6 0 14.5 -7t17 -17.5t14 -22t5.5 -19.5q0 -12 -4.5 -20.5
t-19.5 -21.5q-16 -14 -36.5 -24t-41 -16.5t-38.5 -10t-30 -3.5q-8 0 -13 4.5t-5 10.5t3 10t13 9q23 14 48.5 42.5t48.5 65.5q6 10 11 15t13 5z" />
    <glyph glyph-name="nacute" unicode="&#x144;" horiz-adv-x="489" 
d="M350 95q0 -17 8.5 -27.5t23.5 -10.5q20 0 39.5 13t34.5 30q18 18 33 43q1 3 5 7q2 2 6 4.5t9 2.5q8 0 14.5 -6t6.5 -14q0 -4 -1.5 -7.5t-3.5 -7.5t-4 -9q-22 -35 -49 -62q-23 -23 -54.5 -42t-68.5 -19q-57 0 -92 29.5t-35 71.5q0 31 8 59.5t17.5 55.5t17.5 51.5t8 47.5
q0 7 -6 11.5t-14 4.5q-23 0 -49.5 -21.5t-50 -62t-39 -98t-15.5 -129.5q0 -13 -5.5 -16.5t-16.5 -3.5q-40 0 -67 15.5t-27 39.5q0 42 9.5 88.5t22.5 90t26.5 80.5t22.5 58q8 19 27 19q11 0 29 -9t41 -45q21 18 47 32q22 12 50 22t60 10q16 0 31.5 -8t27.5 -20.5t19 -27.5
t7 -30q0 -23 -8.5 -48.5t-18 -52.5t-18 -54.5t-8.5 -54.5zM396 605q6 0 14.5 -7t17 -17.5t14 -22t5.5 -19.5q0 -12 -4.5 -20.5t-19.5 -21.5q-16 -14 -36.5 -24t-41 -16.5t-38.5 -10t-30 -3.5q-8 0 -13 4.5t-5 10.5t3 10t13 9q23 14 48.5 42.5t48.5 65.5q6 10 11 15t13 5z
" />
    <glyph glyph-name="Ncaron" unicode="&#x147;" horiz-adv-x="855" 
d="M716 69q-7 -16 -20.5 -30t-27.5 -25t-27 -17.5t-19 -6.5q-11 0 -23 9t-22 25t-17 36t-10 43t-5 70.5t-4 101t-3 105t-1 83.5q-13 -43 -29 -94.5t-36.5 -104t-45 -102t-54 -88t-64.5 -61.5t-75 -23q-46 0 -88 17.5t-74.5 43.5t-51.5 56t-19 56q0 30 19 55.5t46.5 43.5
t57.5 28.5t52 10.5q11 0 18 -4.5t7 -10.5q0 -8 -4.5 -14t-15.5 -15q-8 -7 -19 -17t-21 -24.5t-16.5 -32.5t-6.5 -40q0 -32 20.5 -52.5t49.5 -20.5q28 0 62.5 32t69.5 82.5t68 113.5t59 124t41.5 113.5t15.5 83.5q0 18 -12 31.5t-40 13.5q-23 0 -55.5 -15.5t-62 -41.5
t-50.5 -60t-21 -70q0 -23 8 -40t17 -29t17 -20t8 -13q0 -20 -21 -20q-20 0 -47.5 10.5t-52.5 29.5t-42 44t-17 55q0 46 32.5 88t82 73.5t109 50t114.5 18.5q24 0 54 -10.5t57 -31.5t46 -53.5t21 -75.5q2 -46 3 -97.5t3.5 -104t6 -104.5t10.5 -98q5 13 14.5 44t22.5 73.5
t29.5 92t35.5 99.5t39.5 96.5t41.5 82t42.5 57t41.5 21.5q21 0 42 -7t37.5 -17t27 -21.5t10.5 -20.5t-5 -14t-13 -5q-39 0 -74.5 -33.5t-66.5 -86.5t-58.5 -117.5t-50 -127t-40.5 -115t-31 -81.5zM737 744q-9 0 -20.5 6.5t-23 17.5t-22.5 24t-20 27q-15 22 -21 35.5t-6 22.5
t4.5 13t9.5 4q6 0 13 -5t18 -13q23 -21 46 -31t43 -10q33 0 79 43q11 10 19 15.5t16 5.5q16 0 16 -16q0 -10 -11.5 -28t-46.5 -53q-23 -25 -49.5 -41.5t-43.5 -16.5z" />
    <glyph glyph-name="ncaron" unicode="&#x148;" horiz-adv-x="489" 
d="M350 95q0 -17 8.5 -27.5t23.5 -10.5q20 0 39.5 13t34.5 30q18 18 33 43q1 3 5 7q2 2 6 4.5t9 2.5q8 0 14.5 -6t6.5 -14q0 -4 -1.5 -7.5t-3.5 -7.5t-4 -9q-22 -35 -49 -62q-23 -23 -54.5 -42t-68.5 -19q-57 0 -92 29.5t-35 71.5q0 31 8 59.5t17.5 55.5t17.5 51.5t8 47.5
q0 7 -6 11.5t-14 4.5q-23 0 -49.5 -21.5t-50 -62t-39 -98t-15.5 -129.5q0 -13 -5.5 -16.5t-16.5 -3.5q-40 0 -67 15.5t-27 39.5q0 42 9.5 88.5t22.5 90t26.5 80.5t22.5 58q8 19 27 19q11 0 29 -9t41 -45q21 18 47 32q22 12 50 22t60 10q16 0 31.5 -8t27.5 -20.5t19 -27.5
t7 -30q0 -23 -8.5 -48.5t-18 -52.5t-18 -54.5t-8.5 -54.5zM326 442q-9 0 -20.5 6.5t-23 17.5t-22.5 24t-20 27q-15 22 -21 35.5t-6 22.5t4.5 13t9.5 4q6 0 13 -5t18 -13q23 -21 46 -31t43 -10q33 0 79 43q11 10 19 15.5t16 5.5q16 0 16 -16q0 -10 -11.5 -28t-46.5 -53
q-23 -25 -49.5 -41.5t-43.5 -16.5z" />
    <glyph glyph-name="Omacron" unicode="&#x14c;" horiz-adv-x="577" 
d="M381 724q48 0 89.5 -17t72.5 -47t48.5 -71t17.5 -90q0 -56 -13.5 -116t-38.5 -116.5t-60.5 -107t-79 -88t-94 -59.5t-106.5 -22q-43 0 -82 17.5t-69 48t-47.5 73t-17.5 93.5q0 66 16 129t44 118.5t65 102.5t79 80.5t87 52.5t89 19zM409 669q-29 0 -57 -15t-50 -41
t-35.5 -61t-13.5 -75q0 -23 6 -41.5t16 -31.5t23 -20t26 -7q11 0 15 2t9 2q12 0 12 -12q0 -5 -5 -11.5t-15 -13.5t-26.5 -11.5t-38.5 -4.5q-20 0 -40.5 10.5t-37 29.5t-27 45t-10.5 57q-11 -24 -19 -57q-8 -29 -13.5 -70.5t-5.5 -97.5q0 -46 10 -82t26.5 -60.5t37.5 -37.5
t43 -13q34 0 65 23.5t58 63t49.5 92.5t38 111.5t24 119.5t8.5 118q0 43 -22 66t-51 23zM294 763q-16 0 -16 16q0 5 2.5 15t6.5 20t9.5 17.5t12.5 7.5h255q11 0 15 -3t4 -12q0 -5 -3 -15.5t-7.5 -20.5t-10.5 -17.5t-13 -7.5h-255z" />
    <glyph glyph-name="omacron" unicode="&#x14d;" horiz-adv-x="445" 
d="M477 113q-17 -25 -43 -43q-22 -17 -54.5 -30t-76.5 -13q-18 0 -39 3q-24 -19 -53 -29.5t-61 -10.5q-31 0 -59.5 11t-50 30t-34 45t-12.5 55q0 63 21.5 111.5t55.5 81.5t75 50t80 17q31 0 58 -10t46.5 -29.5t31 -47t11.5 -61.5q0 -40 -16.5 -84t-45.5 -82q4 -1 7.5 -1.5
t8.5 -0.5q26 0 47 10.5t37 23.5q18 15 34 34q1 3 5 7q2 2 6 4.5t9 2.5q8 0 14.5 -6t6.5 -14q0 -4 -1.5 -7.5t-3.5 -7.5t-4 -9zM112 106q0 -30 12.5 -49t35.5 -19q16 0 31 12q-17 11 -17 24q0 8 5.5 17t13.5 16t16.5 11.5t14.5 4.5q5 0 11 -2q15 38 23 80.5t8 75.5
q0 34 -11 48.5t-28 14.5t-37 -17.5t-37.5 -49t-29 -74t-11.5 -93.5zM115 433q-16 0 -16 16q0 5 2.5 15t6.5 20t9.5 17.5t12.5 7.5h255q11 0 15 -3t4 -12q0 -5 -3 -15.5t-7.5 -20.5t-10.5 -17.5t-13 -7.5h-255z" />
    <glyph glyph-name="Obreve" unicode="&#x14e;" horiz-adv-x="577" 
d="M381 724q48 0 89.5 -17t72.5 -47t48.5 -71t17.5 -90q0 -56 -13.5 -116t-38.5 -116.5t-60.5 -107t-79 -88t-94 -59.5t-106.5 -22q-43 0 -82 17.5t-69 48t-47.5 73t-17.5 93.5q0 66 16 129t44 118.5t65 102.5t79 80.5t87 52.5t89 19zM409 669q-29 0 -57 -15t-50 -41
t-35.5 -61t-13.5 -75q0 -23 6 -41.5t16 -31.5t23 -20t26 -7q11 0 15 2t9 2q12 0 12 -12q0 -5 -5 -11.5t-15 -13.5t-26.5 -11.5t-38.5 -4.5q-20 0 -40.5 10.5t-37 29.5t-27 45t-10.5 57q-11 -24 -19 -57q-8 -29 -13.5 -70.5t-5.5 -97.5q0 -46 10 -82t26.5 -60.5t37.5 -37.5
t43 -13q34 0 65 23.5t58 63t49.5 92.5t38 111.5t24 119.5t8.5 118q0 43 -22 66t-51 23zM408 779q-55 0 -90.5 27t-35.5 75q0 28 17.5 42.5t37.5 14.5q31 0 31 -31q0 -7 -1.5 -11t-3 -7.5t-3 -7.5t-1.5 -10q0 -14 15.5 -22.5t40.5 -8.5q35 0 50.5 14.5t15.5 33.5q0 26 12 37
t32 11q17 0 28.5 -10.5t11.5 -28.5q0 -26 -19 -54q-16 -23 -49.5 -43.5t-88.5 -20.5z" />
    <glyph glyph-name="obreve" unicode="&#x14f;" horiz-adv-x="445" 
d="M477 113q-17 -25 -43 -43q-22 -17 -54.5 -30t-76.5 -13q-18 0 -39 3q-24 -19 -53 -29.5t-61 -10.5q-31 0 -59.5 11t-50 30t-34 45t-12.5 55q0 63 21.5 111.5t55.5 81.5t75 50t80 17q31 0 58 -10t46.5 -29.5t31 -47t11.5 -61.5q0 -40 -16.5 -84t-45.5 -82q4 -1 7.5 -1.5
t8.5 -0.5q26 0 47 10.5t37 23.5q18 15 34 34q1 3 5 7q2 2 6 4.5t9 2.5q8 0 14.5 -6t6.5 -14q0 -4 -1.5 -7.5t-3.5 -7.5t-4 -9zM112 106q0 -30 12.5 -49t35.5 -19q16 0 31 12q-17 11 -17 24q0 8 5.5 17t13.5 16t16.5 11.5t14.5 4.5q5 0 11 -2q15 38 23 80.5t8 75.5
q0 34 -11 48.5t-28 14.5t-37 -17.5t-37.5 -49t-29 -74t-11.5 -93.5zM233 433q-55 0 -90.5 27t-35.5 75q0 28 17.5 42.5t37.5 14.5q31 0 31 -31q0 -7 -1.5 -11t-3 -7.5t-3 -7.5t-1.5 -10q0 -14 15.5 -22.5t40.5 -8.5q35 0 50.5 14.5t15.5 33.5q0 26 12 37t32 11
q17 0 28.5 -10.5t11.5 -28.5q0 -26 -19 -54q-16 -23 -49.5 -43.5t-88.5 -20.5z" />
    <glyph glyph-name="Ohungarumlaut" unicode="&#x150;" horiz-adv-x="577" 
d="M381 724q48 0 89.5 -17t72.5 -47t48.5 -71t17.5 -90q0 -56 -13.5 -116t-38.5 -116.5t-60.5 -107t-79 -88t-94 -59.5t-106.5 -22q-43 0 -82 17.5t-69 48t-47.5 73t-17.5 93.5q0 66 16 129t44 118.5t65 102.5t79 80.5t87 52.5t89 19zM409 669q-29 0 -57 -15t-50 -41
t-35.5 -61t-13.5 -75q0 -23 6 -41.5t16 -31.5t23 -20t26 -7q11 0 15 2t9 2q12 0 12 -12q0 -5 -5 -11.5t-15 -13.5t-26.5 -11.5t-38.5 -4.5q-20 0 -40.5 10.5t-37 29.5t-27 45t-10.5 57q-11 -24 -19 -57q-8 -29 -13.5 -70.5t-5.5 -97.5q0 -46 10 -82t26.5 -60.5t37.5 -37.5
t43 -13q34 0 65 23.5t58 63t49.5 92.5t38 111.5t24 119.5t8.5 118q0 43 -22 66t-51 23zM419 934q6 0 14.5 -7t17 -17t14 -21.5t5.5 -19.5q0 -13 -4.5 -21t-19.5 -21q-16 -14 -34.5 -24.5t-37.5 -17t-35.5 -10t-27.5 -3.5q-9 0 -13.5 5t-4.5 10q0 6 3 10.5t13 9.5
q23 14 47 38t39 69q7 20 24 20zM587 934q6 0 14.5 -7t17 -17t14 -21.5t5.5 -19.5q0 -13 -4.5 -21t-19.5 -21q-16 -14 -34.5 -24.5t-37.5 -17t-35.5 -10t-27.5 -3.5q-9 0 -13.5 5t-4.5 10q0 6 3 10.5t13 9.5q23 14 47 38t39 69q7 20 24 20z" />
    <glyph glyph-name="ohungarumlaut" unicode="&#x151;" horiz-adv-x="445" 
d="M477 113q-17 -25 -43 -43q-22 -17 -54.5 -30t-76.5 -13q-18 0 -39 3q-24 -19 -53 -29.5t-61 -10.5q-31 0 -59.5 11t-50 30t-34 45t-12.5 55q0 63 21.5 111.5t55.5 81.5t75 50t80 17q31 0 58 -10t46.5 -29.5t31 -47t11.5 -61.5q0 -40 -16.5 -84t-45.5 -82q4 -1 7.5 -1.5
t8.5 -0.5q26 0 47 10.5t37 23.5q18 15 34 34q1 3 5 7q2 2 6 4.5t9 2.5q8 0 14.5 -6t6.5 -14q0 -4 -1.5 -7.5t-3.5 -7.5t-4 -9zM112 106q0 -30 12.5 -49t35.5 -19q16 0 31 12q-17 11 -17 24q0 8 5.5 17t13.5 16t16.5 11.5t14.5 4.5q5 0 11 -2q15 38 23 80.5t8 75.5
q0 34 -11 48.5t-28 14.5t-37 -17.5t-37.5 -49t-29 -74t-11.5 -93.5zM227 601q6 0 14.5 -7t17 -17t14 -21.5t5.5 -19.5q0 -13 -4.5 -21t-19.5 -21q-16 -14 -34.5 -24.5t-37.5 -17t-35.5 -10t-27.5 -3.5q-9 0 -13.5 5t-4.5 10q0 6 3 10.5t13 9.5q23 14 47 38t39 69q7 20 24 20
zM395 601q6 0 14.5 -7t17 -17t14 -21.5t5.5 -19.5q0 -13 -4.5 -21t-19.5 -21q-16 -14 -34.5 -24.5t-37.5 -17t-35.5 -10t-27.5 -3.5q-9 0 -13.5 5t-4.5 10q0 6 3 10.5t13 9.5q23 14 47 38t39 69q7 20 24 20z" />
    <glyph glyph-name="OE" unicode="&#x152;" horiz-adv-x="843" 
d="M859 646q0 16 -15 25.5t-36 9.5q-27 0 -54.5 -14t-50 -38t-36.5 -57.5t-14 -72.5q0 -19 3.5 -34t8.5 -26q5 -13 12 -23q8 1 19 3q9 1 21.5 2t28.5 1q59 0 59 -35q0 -15 -17.5 -30.5t-46.5 -15.5q-18 0 -33 2.5t-26 6.5q-12 4 -22 10q-37 -22 -66 -52q-25 -26 -45.5 -64
t-20.5 -89q0 -63 34 -93.5t97 -30.5q27 0 53.5 10.5t50.5 26.5t44.5 36t35.5 39q2 3 6 7q3 2 6.5 4.5t8.5 2.5q9 0 15 -6t6 -14q0 -4 -2 -7.5t-4 -7.5q-3 -4 -5 -9q-14 -20 -37.5 -44.5t-55.5 -46t-71 -36.5t-85 -15q-31 0 -62 5.5t-59.5 17.5t-52.5 30t-39 43
q-43 -36 -92 -56.5t-103 -20.5q-43 0 -82 17.5t-69 48t-47.5 73t-17.5 93.5q0 66 16 129t44 118.5t65 102.5t79 80.5t87 52.5t89 19q62 0 112.5 -27.5t80.5 -74.5q21 23 48.5 41.5t59 32t64.5 21t65 7.5q27 0 50.5 -6.5t41 -18t27.5 -28t10 -36.5t-14 -40t-32.5 -36
t-36.5 -26t-25 -10q-9 0 -13 3.5t-4 8.5q0 7 7 17t15 23.5t15 31t7 39.5zM409 669q-29 0 -57 -15t-50 -41t-35.5 -61t-13.5 -75q0 -23 6 -41.5t16 -31.5t23 -20t26 -7q11 0 15 2t9 2q12 0 12 -12q0 -5 -5 -11.5t-15 -13.5t-26.5 -11.5t-38.5 -4.5q-20 0 -40.5 10.5t-37 29.5
t-27 45t-10.5 57q-11 -24 -19 -57q-8 -29 -13.5 -70.5t-5.5 -97.5q0 -46 10 -82t26.5 -60.5t37.5 -37.5t43 -13q26 0 54.5 23.5t55.5 63t51 92.5t42.5 111.5t29 119.5t10.5 118q0 43 -22 66t-51 23z" />
    <glyph glyph-name="oe" unicode="&#x153;" horiz-adv-x="607" 
d="M638 113q-22 -35 -54 -62q-28 -23 -69.5 -42t-98.5 -19q-45 0 -78.5 14.5t-54.5 40.5q-27 -25 -61 -40t-72 -15q-31 0 -59.5 11t-50 30t-34 45t-12.5 55q0 63 21.5 111.5t55.5 81.5t75 50t80 17q36 0 66.5 -14t50.5 -40q29 26 61.5 40t61.5 14q23 0 43 -9t35 -23.5
t23.5 -33.5t8.5 -39q0 -18 -8 -43.5t-26.5 -48.5t-50 -39.5t-78.5 -16.5q-11 0 -23 3q-7 1 -15 3q0 -45 21 -69t57 -24q35 0 64 14.5t49 31.5q24 20 41 46q2 3 6 7q3 2 7 4.5t9 2.5q8 0 14.5 -6t6.5 -14q0 -4 -2 -7.5t-4 -7.5q-3 -4 -6 -9zM112 106q0 -30 12.5 -49t35.5 -19
q24 0 43.5 25t33.5 62t21.5 78.5t7.5 73.5q0 34 -11 48.5t-28 14.5t-37 -17.5t-37.5 -49t-29 -74t-11.5 -93.5zM380 185q27 0 51 15t41.5 36.5t27.5 44.5t10 39q0 20 -18 20q-21 0 -41 -17t-35.5 -41t-25.5 -51t-10 -46z" />
    <glyph glyph-name="Racute" unicode="&#x154;" horiz-adv-x="875" 
d="M735 -10q-56 0 -94.5 20t-54.5 62q-9 24 -12 58.5t-3 82.5q0 26 -6 42t-14 25q-27 -3 -55 -3h-20q-20 -81 -44 -136t-53.5 -88.5t-64.5 -48t-77 -14.5q-52 0 -96 18.5t-75.5 45.5t-49 58.5t-17.5 57.5q0 31 19 57t46.5 44.5t57.5 29t52 10.5q11 0 18 -5t7 -11
q0 -8 -3.5 -11.5t-14.5 -11.5q-9 -7 -20.5 -20t-21 -29t-16 -34.5t-6.5 -36.5q0 -19 6.5 -36t18 -30.5t27.5 -21.5t36 -8q46 0 85.5 63t74.5 203q13 55 23.5 94.5t20.5 68.5t21.5 49.5t27.5 38.5q12 12 31 21.5t38 16t34.5 9.5t20.5 3q19 0 19 -14q0 -3 -5.5 -9t-13.5 -17
t-18.5 -27t-19.5 -39q-7 -18 -13 -33t-12 -34.5t-13.5 -46t-16.5 -66.5q48 1 91.5 17t76.5 43t52.5 63t19.5 77q0 60 -42.5 94.5t-138.5 34.5q-70 0 -124.5 -14.5t-92 -40t-57 -59t-19.5 -71.5q0 -23 8 -38.5t17 -26t17 -17t8 -11.5q0 -19 -21 -19q-20 0 -47.5 9t-52 25.5
t-42 40t-17.5 53.5q0 47 36.5 88.5t96 72t136 48.5t156.5 18q76 0 135 -15t98.5 -40.5t60 -61t20.5 -75.5q0 -41 -18.5 -77.5t-50 -66.5t-73.5 -53t-88 -37q14 -8 27.5 -27.5t18.5 -57.5q12 -83 31 -119.5t57 -36.5q20 0 39.5 13t34.5 30q18 18 33 43q1 3 5 7q2 2 6 4.5
t9 2.5q8 0 14.5 -6t6.5 -14q0 -4 -1.5 -7.5t-3.5 -7.5t-4 -9q-22 -35 -49 -62q-23 -23 -54.5 -42t-68.5 -19zM674 925q6 0 14.5 -7t17 -17.5t14 -22t5.5 -19.5q0 -12 -4.5 -20.5t-19.5 -21.5q-16 -14 -36.5 -24t-41 -16.5t-38.5 -10t-30 -3.5q-8 0 -13 4.5t-5 10.5t3 10
t13 9q23 14 48.5 42.5t48.5 65.5q6 10 11 15t13 5z" />
    <glyph glyph-name="racute" unicode="&#x155;" horiz-adv-x="393" 
d="M253 92q0 -17 9 -26t24 -9q20 0 39.5 13t34.5 30q18 18 33 43q1 3 5 7q2 2 6 4.5t9 2.5q8 0 14.5 -6t6.5 -14q0 -4 -1.5 -7.5t-3.5 -7.5t-4 -9q-22 -35 -49 -62q-23 -23 -54.5 -42t-68.5 -19q-29 0 -52 8t-40 21.5t-26 31.5t-9 39q0 33 10 62t21.5 53t21.5 42.5t10 30.5
q0 8 -9.5 12t-20.5 7q-13 3 -30 5q-29 -73 -55 -119.5t-42 -69.5q-2 -3 -7.5 -9t-14.5 -6q-8 0 -14.5 6.5t-6.5 14.5q0 7 4.5 13.5t6.5 10.5q14 20 39.5 63.5t47.5 114.5q-10 7 -17 18q-6 9 -11 23t-5 33q0 15 5.5 28.5t14.5 23.5t19 16t19 6q10 0 21 -5.5t20 -13t15 -17
t6 -16.5q0 -20 -6.5 -33t-6.5 -25q0 -11 12 -16t30 -5q17 0 28.5 2t20.5 4.5t17 4.5t17 2q18 0 29.5 -14t11.5 -34q0 -17 -11.5 -40.5t-25.5 -51.5t-25.5 -58.5t-11.5 -60.5zM353 591q6 0 14.5 -7t17 -17.5t14 -22t5.5 -19.5q0 -12 -4.5 -20.5t-19.5 -21.5
q-16 -14 -36.5 -24t-41 -16.5t-38.5 -10t-30 -3.5q-8 0 -13 4.5t-5 10.5t3 10t13 9q23 14 48.5 42.5t48.5 65.5q6 10 11 15t13 5z" />
    <glyph glyph-name="Rcaron" unicode="&#x158;" horiz-adv-x="875" 
d="M735 -10q-56 0 -94.5 20t-54.5 62q-9 24 -12 58.5t-3 82.5q0 26 -6 42t-14 25q-27 -3 -55 -3h-20q-20 -81 -44 -136t-53.5 -88.5t-64.5 -48t-77 -14.5q-52 0 -96 18.5t-75.5 45.5t-49 58.5t-17.5 57.5q0 31 19 57t46.5 44.5t57.5 29t52 10.5q11 0 18 -5t7 -11
q0 -8 -3.5 -11.5t-14.5 -11.5q-9 -7 -20.5 -20t-21 -29t-16 -34.5t-6.5 -36.5q0 -19 6.5 -36t18 -30.5t27.5 -21.5t36 -8q46 0 85.5 63t74.5 203q13 55 23.5 94.5t20.5 68.5t21.5 49.5t27.5 38.5q12 12 31 21.5t38 16t34.5 9.5t20.5 3q19 0 19 -14q0 -3 -5.5 -9t-13.5 -17
t-18.5 -27t-19.5 -39q-7 -18 -13 -33t-12 -34.5t-13.5 -46t-16.5 -66.5q48 1 91.5 17t76.5 43t52.5 63t19.5 77q0 60 -42.5 94.5t-138.5 34.5q-70 0 -124.5 -14.5t-92 -40t-57 -59t-19.5 -71.5q0 -23 8 -38.5t17 -26t17 -17t8 -11.5q0 -19 -21 -19q-20 0 -47.5 9t-52 25.5
t-42 40t-17.5 53.5q0 47 36.5 88.5t96 72t136 48.5t156.5 18q76 0 135 -15t98.5 -40.5t60 -61t20.5 -75.5q0 -41 -18.5 -77.5t-50 -66.5t-73.5 -53t-88 -37q14 -8 27.5 -27.5t18.5 -57.5q12 -83 31 -119.5t57 -36.5q20 0 39.5 13t34.5 30q18 18 33 43q1 3 5 7q2 2 6 4.5
t9 2.5q8 0 14.5 -6t6.5 -14q0 -4 -1.5 -7.5t-3.5 -7.5t-4 -9q-22 -35 -49 -62q-23 -23 -54.5 -42t-68.5 -19zM567 772q-9 0 -20.5 6.5t-23 17.5t-22.5 24t-20 27q-15 22 -21 35.5t-6 22.5t4.5 13t9.5 4q6 0 13 -5t18 -13q23 -21 46 -31t43 -10q33 0 79 43q11 10 19 15.5
t16 5.5q16 0 16 -16q0 -10 -11.5 -28t-46.5 -53q-23 -25 -49.5 -41.5t-43.5 -16.5z" />
    <glyph glyph-name="rcaron" unicode="&#x159;" horiz-adv-x="393" 
d="M253 92q0 -17 9 -26t24 -9q20 0 39.5 13t34.5 30q18 18 33 43q1 3 5 7q2 2 6 4.5t9 2.5q8 0 14.5 -6t6.5 -14q0 -4 -1.5 -7.5t-3.5 -7.5t-4 -9q-22 -35 -49 -62q-23 -23 -54.5 -42t-68.5 -19q-29 0 -52 8t-40 21.5t-26 31.5t-9 39q0 33 10 62t21.5 53t21.5 42.5t10 30.5
q0 8 -9.5 12t-20.5 7q-13 3 -30 5q-29 -73 -55 -119.5t-42 -69.5q-2 -3 -7.5 -9t-14.5 -6q-8 0 -14.5 6.5t-6.5 14.5q0 7 4.5 13.5t6.5 10.5q14 20 39.5 63.5t47.5 114.5q-10 7 -17 18q-6 9 -11 23t-5 33q0 15 5.5 28.5t14.5 23.5t19 16t19 6q10 0 21 -5.5t20 -13t15 -17
t6 -16.5q0 -20 -6.5 -33t-6.5 -25q0 -11 12 -16t30 -5q17 0 28.5 2t20.5 4.5t17 4.5t17 2q18 0 29.5 -14t11.5 -34q0 -17 -11.5 -40.5t-25.5 -51.5t-25.5 -58.5t-11.5 -60.5zM255 436q-9 0 -20.5 6.5t-23 17.5t-22.5 24t-20 27q-15 22 -21 35.5t-6 22.5t4.5 13t9.5 4
q6 0 13 -5t18 -13q23 -21 46 -31t43 -10q33 0 79 43q11 10 19 15.5t16 5.5q16 0 16 -16q0 -10 -11.5 -28t-46.5 -53q-23 -25 -49.5 -41.5t-43.5 -16.5z" />
    <glyph glyph-name="Sacute" unicode="&#x15a;" horiz-adv-x="584" 
d="M502 665q-26 0 -48 -9.5t-38 -25t-25 -36t-9 -42.5q0 -31 11 -61t27 -59t35 -58t35 -58t27 -58t11 -59q0 -45 -21 -83t-55.5 -66t-78 -44t-88.5 -16q-64 0 -114 17.5t-84 44.5t-52 60t-18 65q0 31 23 59.5t55.5 49.5t67.5 33.5t59 12.5q17 0 17 -17q0 -7 -5 -11.5
t-16 -12.5q-12 -10 -24 -20.5t-21.5 -23.5t-15.5 -29.5t-6 -38.5q0 -20 8.5 -40.5t24 -37.5t37.5 -28t49 -11q57 0 92 33t35 90q0 37 -22.5 77t-49 82.5t-49 88t-22.5 93.5q0 47 24 83.5t61.5 62t84 39t91.5 13.5q28 0 53 -5t44 -15t30.5 -25.5t11.5 -36.5q0 -27 -17 -53
t-40 -47t-47 -34t-37 -13q-7 0 -12 5t-5 10t2.5 9.5t10.5 14.5q14 17 28 41.5t14 48.5q0 20 -13.5 30.5t-35.5 10.5zM605 931q6 0 14.5 -7t17 -17.5t14 -22t5.5 -19.5q0 -12 -4.5 -20.5t-19.5 -21.5q-16 -14 -36.5 -24t-41 -16.5t-38.5 -10t-30 -3.5q-8 0 -13 4.5t-5 10.5
t3 10t13 9q23 14 48.5 42.5t48.5 65.5q6 10 11 15t13 5z" />
    <glyph glyph-name="sacute" unicode="&#x15b;" horiz-adv-x="409" 
d="M159 267q-21 -32 -37 -58q-14 -23 -25.5 -43t-11.5 -25q0 -22 2.5 -42.5t8.5 -36.5t15 -25.5t23 -9.5q23 0 39.5 25t16.5 59q0 19 -5 40t-10.5 41.5t-10.5 40t-5 34.5zM441 113q-25 -37 -65 -65q-34 -25 -87.5 -45t-130.5 -20q-37 0 -70 14.5t-57.5 36.5t-39 48t-14.5 48
t15 37t33 25q21 11 48 18q6 10 16 25q8 13 21 32.5t30 46.5q35 53 60 73.5t44 20.5q8 0 16.5 -4.5t16 -10.5t12 -12t4.5 -10q0 -5 -4 -12.5t-8.5 -16t-8 -18t-3.5 -19.5q0 -30 6 -52t13.5 -41.5t13.5 -38t6 -41.5q0 -20 -3.5 -33.5t-8.5 -23.5q-5 -11 -11 -19
q29 8 52.5 22.5t39.5 28.5q18 17 32 36q1 3 5 7q2 2 6 4.5t9 2.5q8 0 14.5 -6t6.5 -14q0 -4 -1.5 -7.5t-3.5 -7.5t-4 -9zM325 623q6 0 14.5 -7t17 -17.5t14 -22t5.5 -19.5q0 -12 -4.5 -20.5t-19.5 -21.5q-16 -14 -36.5 -24t-41 -16.5t-38.5 -10t-30 -3.5q-8 0 -13 4.5
t-5 10.5t3 10t13 9q23 14 48.5 42.5t48.5 65.5q6 10 11 15t13 5z" />
    </font>
</defs>
</svg>
