<?xml version="1.0" encoding="UTF-8"?>
<!DOCTYPE svg  PUBLIC '-//W3C//DTD SVG 1.1//EN'  'http://www.w3.org/Graphics/SVG/1.1/DTD/svg11.dtd'>
<svg version="1.1" xmlns="http://www.w3.org/2000/svg">
<defs>
<font id="MinionPro-Regular" horiz-adv-x="480">
<font-face font-family="Minion Pro" font-weight="400" ascent="727" bbox="-26 -257 956 855" cap-height="650" descent="-273" panose-1="2 4 5 3 5 2 1 2 2 3" underline-position="-100" underline-thickness="50" unicode-range="U+0020-00FE" units-per-em="1000" x-height="437"/>
<missing-glyph/>
<glyph glyph-name="space" horiz-adv-x="227" unicode=" "/>
<glyph d="M137 665q51 -1 52 -30q0 -24 -7 -79q-10 -89 -29 -359q-6 -9 -26 -4q-6 2 -8 4q-3 39 -8 115q-12 165 -21 244q-8 64 -8 79q2 30 55 30zM136 -12q-38 0 -51 36q-4 11 -4 23q0 39 33 53q11 5 23 5q38 0 52 -34q5 -12 5 -24q0 -44 -39 -56q-9 -3 -19 -3z" glyph-name="exclam" horiz-adv-x="276" unicode="!"/>
<glyph d="M119 710l6 -5l-7 -63q-14 -118 -19 -156l-28 -12q-18 171 -29 209zM268 710l6 -5q-1 -8 -6 -51q-15 -127 -20 -168l-28 -12q-22 182 -29 209z" glyph-name="quotedbl" horiz-adv-x="318" unicode='"'/>
<glyph d="M448 453l-9 -58h-91l-30 -136h86l-9 -58h-90l-38 -174h-38l37 174h-108l-38 -174h-38l38 174h-96l11 58h99l29 136h-93l9 58h97l34 155h38l-34 -155h108l33 155h39l-33 -155h87zM310 395h-108l-29 -136h107z" glyph-name="numbersign" unicode="#"/>
<glyph d="M264 363l29 -11q140 -53 141 -167q0 -100 -84 -147q-38 -21 -86 -27v-87h-35v85q-93 0 -156 41q-11 33 -28 132l30 8q43 -134 154 -148v242l-36 16q-125 55 -126 153q0 84 70 131q39 25 92 31v78h35v-76q50 0 89 -13q6 -1 17 -4t17 -4q3 -19 10 -62q7 -39 11 -63l-28 -7 q-21 71 -53 96q-26 18 -63 24v-221zM229 376v208q-67 -6 -87 -64q-6 -18 -6 -36q2 -72 93 -108zM264 272v-229q67 9 88 67q7 19 7 40q0 65 -50 99q-15 10 -33 18z" glyph-name="dollar" unicode="$"/>
<glyph d="M594 629l-404 -661l-31 23l402 661zM194 635q86 0 125 -88q19 -44 19 -93q0 -86 -49 -140q-39 -42 -96 -42q-85 0 -124 88q-20 44 -20 93q0 88 50 141q39 41 95 41zM193 605q-58 0 -69 -113q-2 -20 -2 -38q0 -106 40 -140q14 -12 32 -12q63 0 70 126q1 13 1 25 q0 136 -59 150q-7 2 -13 2zM567 351q85 0 123 -87q20 -44 20 -94q0 -86 -49 -140q-39 -42 -95 -42q-86 0 -125 88q-20 44 -20 93q0 86 49 140q40 42 97 42zM566 322q-58 0 -70 -111q-2 -21 -2 -41q0 -100 37 -137q16 -15 36 -15q60 0 69 120q1 16 1 31q0 125 -50 149 q-10 4 -21 4z" glyph-name="percent" horiz-adv-x="756" unicode="%"/>
<glyph d="M717 427v-28q-60 -7 -86 -35q-11 -11 -30 -40q-1 -2 -80 -122q-4 -6 -7 -11q80 -78 138 -160q16 -23 25 -40l-7 -9q-67 6 -112 34q-7 4 -10 7q-40 46 -87 95q-103 -128 -210 -132q-106 0 -163 78q-34 48 -34 103q0 72 63 128q20 18 87 66q-71 68 -72 139q0 78 64 125 q45 33 100 33q77 0 120 -56q28 -37 28 -82q-1 -52 -42 -88q-41 -34 -81 -61q100 -85 168 -155q31 49 60 115q17 40 -1 52q-15 10 -60 16v28h229zM285 624q-49 0 -71 -49q-10 -23 -10 -51q0 -55 58 -106q14 -13 33 -27q73 56 74 128q0 62 -41 91q-20 14 -43 14zM278 54 q79 0 143 70q9 11 17 21q-84 93 -208 194q-90 -65 -91 -143q0 -87 70 -125q33 -17 69 -17z" glyph-name="ampersand" horiz-adv-x="711" unicode="&amp;"/>
<glyph d="M119 710l6 -5q-1 -9 -8 -67q-13 -114 -18 -152l-28 -12q-18 170 -29 209z" glyph-name="quotesingle" horiz-adv-x="169" unicode="'"/>
<glyph d="M300 -147l-18 -22q-179 120 -207 359q-5 40 -5 81v1q0 248 155 392q27 25 57 46l18 -24q-108 -91 -144 -274q-13 -69 -13 -142q0 -197 87 -335q32 -49 70 -82z" glyph-name="parenleft" horiz-adv-x="346" unicode="("/>
<glyph d="M275 271v-2q-1 -295 -211 -439l-19 23q110 90 145 277q13 69 13 140q0 195 -85 331q-33 52 -73 85l19 24q207 -141 211 -428v-11z" glyph-name="parenright" horiz-adv-x="346" unicode=")"/>
<glyph d="M364 493l-132 -25l39 -138l-23 -9l-70 130l-122 -77l-14 22l102 94l-104 102l15 21l121 -80l58 132l24 -6l-27 -139l133 -2v-25z" glyph-name="asterisk" horiz-adv-x="404" unicode="*"/>
<glyph d="M529 230h-209v-230h-58v230h-210v50h210v207h58v-207h209v-50z" glyph-name="plus" horiz-adv-x="580" unicode="+"/>
<glyph d="M95 130q37 0 67 -37q24 -31 24 -71q0 -88 -108 -131q-12 -4 -23 -8l-11 29q76 32 77 85q0 47 -56 65l-6 2q-9 0 -12 17q-1 4 -1 7q0 29 31 39q9 3 18 3z" glyph-name="comma" horiz-adv-x="228" unicode=","/>
<glyph d="M300 253l-14 -55h-229l14 55h229z" glyph-name="hyphen" horiz-adv-x="356" unicode="-"/>
<glyph d="M113 -12q-38 0 -51 35q-4 11 -4 23q0 38 33 52q11 5 23 5q37 0 51 -34q5 -11 5 -23q0 -42 -36 -55q-11 -3 -21 -3z" glyph-name="period" horiz-adv-x="228" unicode="."/>
<glyph d="M298 665l-217 -709h-56l216 709h57z" glyph-name="slash" horiz-adv-x="331" unicode="/"/>
<glyph d="M241 635q124 0 175 -146q27 -77 27 -177q0 -156 -64 -248q-54 -75 -139 -76q-128 0 -179 148q-26 77 -26 176q0 154 64 245q55 77 142 78zM238 602q-98 0 -112 -221q-2 -33 -2 -68q0 -200 61 -266q24 -25 55 -25q97 0 112 219q2 34 2 71q0 241 -83 282q-16 8 -33 8z" glyph-name="zero" unicode="0"/>
<glyph d="M384 0h-275v27q69 5 83 21q13 15 13 66v385q0 43 -11 51q-10 6 -37 7l-48 2v24q86 15 178 52v-521q0 -54 14 -68q17 -14 83 -19v-27z" glyph-name="one" unicode="1"/>
<glyph d="M412 140l28 -9q-1 -4 -35 -131h-373v23q112 112 161 170q94 113 116 184q9 30 9 58q0 99 -71 125q-21 8 -46 8q-75 -1 -137 -93l-22 20l57 81q56 58 135 59q83 0 132 -61q36 -46 36 -108q0 -81 -59 -160q-27 -34 -73 -84l-141 -149h186q47 0 63 14q15 14 34 53z" glyph-name="two" unicode="2"/>
<glyph d="M285 378v-2q93 -18 126 -91q13 -29 13 -61q0 -116 -118 -188q-79 -46 -144 -48q-55 0 -95 30q-3 3 -5 4q-18 18 -16 36q2 16 23 33q13 8 24 0q58 -50 124 -51q77 0 107 73q14 34 14 79q0 85 -71 117q-27 12 -56 12t-64 -11l-6 29q125 41 151 100q8 20 8 42q0 68 -57 88 q-18 6 -38 6q-67 -1 -120 -79l-20 20l43 63q52 55 127 56h1q88 0 128 -62q20 -32 20 -70q-1 -42 -31 -71q-23 -24 -68 -54z" glyph-name="three" unicode="3"/>
<glyph d="M456 178h-96v-72q0 -50 12 -62q14 -12 73 -17v-27h-256v27q67 5 80 19q11 13 11 60v72h-260v28q183 271 300 426h40v-407h96v-47zM280 225v295h-2q-107 -149 -196 -295h198z" glyph-name="four" unicode="4"/>
<glyph d="M153 550l-26 -186q78 31 111 31q112 0 165 -79q28 -42 28 -91q-1 -93 -89 -166q-77 -63 -161 -70q-7 -1 -12 -1q-56 0 -96 29q-5 4 -7 6q-18 18 -17 34q3 16 22 33q15 8 26 -1q62 -49 124 -50q78 0 111 74q15 34 15 74q0 102 -83 137q-35 14 -80 14q-53 0 -102 -20 l38 305h286l6 -8l-26 -65h-233z" glyph-name="five" unicode="5"/>
<glyph d="M137 343l67 33q38 17 63 17q95 0 146 -73q34 -49 34 -111q0 -103 -70 -169q-58 -52 -135 -52q-103 0 -160 86q-45 67 -45 164q0 192 145 307q53 41 113 63q63 22 128 33l6 -32q-57 -11 -108 -35q-149 -72 -184 -231zM227 337q-48 0 -95 -27q-6 -24 -6 -70q0 -123 57 -184 q33 -34 75 -34q73 0 96 89q7 29 7 62q0 91 -54 136q-34 28 -80 28z" glyph-name="six" unicode="6"/>
<glyph d="M447 623l8 -12q-50 -107 -149 -323q-89 -193 -134 -290l-74 -10l-7 11q174 283 297 551h-216q-52 0 -68 -16q-11 -14 -28 -59h-29q10 61 18 148h382z" glyph-name="seven" unicode="7"/>
<glyph d="M249 635q87 0 134 -63q28 -38 28 -85q-1 -46 -28 -80q-24 -26 -80 -64q95 -54 120 -114q12 -28 12 -60q0 -94 -85 -147q-55 -34 -113 -34q-105 0 -159 67q-33 43 -33 102q1 52 45 95q30 28 89 64q-108 63 -109 155q0 75 61 124q50 40 118 40zM238 603q-57 0 -82 -54 q-11 -23 -11 -49q0 -65 72 -110q21 -13 59 -32q60 49 61 124q0 84 -59 112q-20 9 -40 9zM248 20q63 0 92 56q15 29 15 67q0 71 -99 130q-21 12 -50 27q-72 -48 -80 -121q-1 -9 -1 -16q0 -91 64 -128q28 -15 59 -15z" glyph-name="eight" unicode="8"/>
<glyph d="M244 635q104 0 159 -96q37 -66 37 -153q0 -184 -123 -297q-50 -46 -113 -72q-77 -30 -140 -32l-5 30q153 25 234 151q36 56 52 126l-68 -36q-30 -16 -60 -16q-97 0 -147 74q-32 47 -32 108q0 84 59 148q60 64 147 65zM228 602q-67 0 -93 -79q-11 -32 -11 -65 q0 -92 58 -137q33 -25 76 -25q53 1 90 28q4 31 4 66q0 129 -54 184q-30 28 -70 28z" glyph-name="nine" unicode="9"/>
<glyph d="M116 412q37 0 50 -35q4 -11 4 -22q0 -42 -35 -55q-10 -3 -20 -3q-39 0 -52 35q-4 11 -4 23q0 39 35 53q11 4 22 4zM114 -12q-36 0 -49 33q-5 12 -5 25q0 37 32 52q12 5 23 5q37 0 51 -34q5 -11 5 -23q0 -42 -36 -55q-11 -3 -21 -3z" glyph-name="colon" horiz-adv-x="228" unicode=":"/>
<glyph d="M114 412q36 0 50 -33q5 -12 5 -24q0 -40 -34 -54q-11 -4 -22 -4q-38 0 -51 35q-4 11 -4 23q0 41 35 53q10 4 21 4zM95 130q37 0 67 -37q24 -31 24 -71q0 -86 -102 -130q-14 -6 -28 -10l-11 30q75 33 76 85q0 46 -50 63q-6 3 -12 4q-12 4 -13 24q0 29 31 39q9 3 18 3z" glyph-name="semicolon" horiz-adv-x="228" unicode=";"/>
<glyph d="M492 0l-432 230v47l432 230v-56l-373 -197v-2l373 -196v-56z" glyph-name="less" horiz-adv-x="552" unicode="&lt;"/>
<glyph d="M529 321h-477v50h477v-50zM529 138h-477v50h477v-50z" glyph-name="equal" horiz-adv-x="580" unicode="="/>
<glyph d="M492 230l-432 -230v56l374 196v2l-374 197v56l432 -230v-47z" glyph-name="greater" horiz-adv-x="552" unicode="&gt;"/>
<glyph d="M219 216l-18 -23q-46 17 -82 61q-29 35 -29 69q0 42 60 92q11 10 24 20q62 47 77 64q21 26 22 47q0 47 -46 54q-7 1 -14 1q-44 0 -98 -44q-13 -9 -16 -10q-16 0 -32 20q-9 12 -9 24q1 20 21 36q43 33 91 38h1q70 0 121 -59q40 -47 40 -101q-1 -49 -48 -88q-7 -6 -26 -20 q-68 -49 -81 -79q-5 -11 -5 -21q0 -39 41 -75zM184 -12q-36 0 -49 33q-5 12 -5 25q0 37 32 52q12 5 23 5q36 0 50 -34q5 -11 5 -23q0 -42 -36 -55q-10 -3 -20 -3z" glyph-name="question" horiz-adv-x="379" unicode="?"/>
<glyph d="M545 -14l11 -28q-95 -55 -204 -55q-136 0 -220 87q-80 84 -80 218q1 172 124 278q111 91 257 93q149 0 227 -99q53 -68 53 -158q0 -111 -77 -185q-68 -63 -159 -63q-47 0 -49 37q0 13 4 34l11 58l-2 1q-34 -50 -96 -96q-47 -33 -74 -34q-30 0 -43 42q-5 19 -5 42 q0 90 57 163q11 14 23 25q78 72 161 74q16 0 50 -8q19 -4 34 -4q-25 -103 -48 -227q-10 -56 4 -63q6 -2 15 -2q63 2 106 63q40 57 40 143q0 125 -98 183q-59 35 -139 35q-151 0 -239 -106q-73 -88 -73 -216q0 -138 86 -211q70 -59 183 -59q73 0 146 31q9 4 14 7zM422 380 q-37 -1 -65 -30q-39 -43 -53 -120q-5 -25 -5 -47q1 -44 21 -45q25 0 79 56q27 28 53 64q14 48 25 111q-24 11 -55 11z" glyph-name="at" horiz-adv-x="753" unicode="@"/>
<glyph d="M673 0h-245v28q57 7 63 23q3 11 -4 32q-7 22 -55 154h-213q-32 -89 -44 -129q-17 -50 -3 -63q14 -12 66 -17v-28h-218v28q52 7 69 24q20 19 43 80l207 524l31 9q25 -70 78 -219q77 -215 115 -317q25 -69 48 -85q19 -12 62 -16v-28zM418 280l-88 255h-2q-16 -42 -46 -126 q-32 -87 -48 -129h184z" glyph-name="A" horiz-adv-x="691" unicode="A"/>
<glyph d="M372 352v-2q175 -28 176 -159q-1 -99 -95 -151q-74 -40 -196 -40h-221v28q64 4 78 18q14 17 14 77v404q0 62 -12 76t-69 19h-3v28h257q102 0 150 -34q50 -34 56 -102v-12q0 -107 -127 -148q-5 -1 -8 -2zM213 362h47q144 0 154 109q1 10 1 19q0 86 -68 116q-29 12 -65 12 q-40 0 -56 -10q-13 -10 -13 -50v-196zM213 328v-203q0 -65 28 -81q19 -10 55 -10q102 1 138 73q16 32 16 74q-2 146 -192 147h-45z" glyph-name="B" horiz-adv-x="588" unicode="B"/>
<glyph d="M614 175l29 -10q-33 -109 -57 -154q-122 -26 -184 -26q-196 0 -293 131q-65 87 -65 200q0 165 119 262q107 87 266 87q59 0 164 -24q8 -2 13 -3q15 -102 20 -150l-29 -8q-29 114 -120 140q-33 9 -75 9q-135 0 -206 -111q-50 -78 -50 -182q0 -158 92 -247q71 -68 170 -68 q101 0 163 83q22 29 43 71z" glyph-name="C" horiz-adv-x="665" unicode="C"/>
<glyph d="M43 650h280q194 -1 282 -85q85 -82 85 -215q-1 -173 -123 -267q-108 -83 -297 -83h-236v27q65 5 79 18q15 17 15 79v402q0 64 -14 79q-15 13 -71 17v28zM213 547v-416q0 -71 47 -87q22 -8 59 -8q158 0 230 124q43 75 43 176q0 150 -93 223q-13 10 -25 17q-67 41 -170 41 q-61 0 -78 -13q-13 -11 -13 -57z" glyph-name="D" horiz-adv-x="735" unicode="D"/>
<glyph d="M517 162l29 -4q-18 -99 -35 -158h-482v28q69 5 84 21t15 76v398q0 66 -14 81q-14 14 -72 18v28h446q0 -10 8 -144l-29 -4q-11 51 -32 85q-16 25 -77 28q-16 1 -36 1h-76q-27 0 -31 -10q-2 -6 -2 -22v-228h94q70 0 87 15q13 13 21 60h29v-191h-29q-10 53 -25 65 q-18 12 -82 12h-95v-189q1 -65 24 -81q25 -13 104 -13q86 0 114 22q7 6 12 12q28 34 50 94z" glyph-name="E" horiz-adv-x="568" unicode="E"/>
<glyph d="M493 503l-29 -4q-13 57 -28 80q-17 28 -56 34q-22 3 -58 3h-76q-27 0 -31 -10q-2 -7 -2 -22v-238h103q71 0 87 16q13 13 21 58h29v-193h-29q-9 53 -24 65q-18 15 -84 15h-103v-181q0 -64 15 -79q15 -14 81 -19h3v-28h-272v28q61 5 74 19q14 17 14 79v399q0 65 -15 80 q-14 13 -70 17v28h440q1 -41 10 -147z" glyph-name="F" horiz-adv-x="529" unicode="F"/>
<glyph d="M692 302v-28q-48 -6 -56 -19t-8 -53v-86q0 -63 7 -95q-134 -30 -183 -34q-22 -2 -41 -2q-179 0 -282 109q-85 91 -85 227q0 178 137 273q103 71 245 71q67 0 185 -27q5 -1 8 -2q7 -77 15 -156l-28 -6q-26 131 -140 152q-25 4 -55 4q-131 0 -205 -97q-60 -80 -60 -200 q0 -128 71 -217q78 -95 207 -96q53 0 87 17q27 15 31 47q1 9 1 19v85q0 53 -13 66q-17 15 -92 20v28h254z" glyph-name="G" horiz-adv-x="715" unicode="G"/>
<glyph d="M729 650v-28q-62 -5 -75 -19q-15 -16 -15 -76v-404q0 -63 15 -77q14 -14 74 -18v-28h-268v28q65 5 79 18q15 16 15 77v199h-341v-199q0 -62 15 -77q15 -14 75 -18v-28h-263v28q60 5 74 18q14 16 14 77v404q0 63 -15 77t-75 18v28h259v-28q-58 -5 -71 -19q-13 -16 -13 -76 v-162h341v162q0 63 -15 77q-15 13 -71 18v28h261z" glyph-name="H" horiz-adv-x="766" unicode="H"/>
<glyph d="M303 0h-265v28q62 5 75 18q15 17 15 79v400q0 64 -15 79q-15 14 -75 18v28h265v-28q-62 -5 -75 -18q-15 -17 -15 -79v-400q0 -64 15 -79q15 -14 75 -18v-28z" glyph-name="I" horiz-adv-x="341" unicode="I"/>
<glyph d="M303 650v-28q-59 -5 -72 -20q-13 -16 -13 -77v-373q0 -140 -43 -208q-17 -27 -43 -51q-49 -44 -93 -58l-12 29q78 39 96 130q10 61 10 191v340q0 63 -15 78t-74 19v28h259z" glyph-name="J" horiz-adv-x="329" unicode="J"/>
<glyph d="M667 0h-153q-59 66 -248 291q-27 31 -51 27h-3v-190q0 -66 16 -81t76 -19v-28h-260v28q58 5 70 20q14 17 14 80v392q0 68 -15 84q-14 14 -72 18v28h258v-28q-59 -5 -72 -20q-15 -18 -15 -82v-175q29 8 70 45q101 98 167 178q28 34 16 43q-9 5 -32 8l-23 3v28h240v-28 q-70 -7 -106 -30q-23 -14 -56 -45q-41 -37 -177 -175q98 -124 235 -272q50 -54 84 -65q15 -4 37 -7v-28z" glyph-name="K" horiz-adv-x="673" unicode="K"/>
<glyph d="M495 163l30 -6q-19 -98 -36 -157h-453v28q63 5 77 19q15 17 15 79v400q0 63 -13 78q-15 14 -75 18v28h261v-28q-60 -5 -73 -17q-15 -16 -15 -79v-395q0 -66 18 -80q3 -3 5 -4q25 -13 96 -13q78 0 106 25l6 6q30 34 51 98z" glyph-name="L" horiz-adv-x="538" unicode="L"/>
<glyph d="M861 0h-263v28q58 5 71 19q14 15 14 84v16l-4 408h-4l-244 -548h-20l-224 534h-2l-15 -285q-5 -98 -3 -166q2 -40 31 -51q18 -6 61 -11v-28h-233v28q60 6 75 30q7 12 10 30q11 66 19 183l14 208q7 94 -5 115q-11 19 -57 25q-10 1 -25 3v28h164l228 -501l232 501h170v-28 q-63 -6 -77 -17q-16 -14 -16 -73q1 -10 1 -23l9 -362q2 -78 14 -95q12 -18 61 -22q8 -1 18 -2v-28z" glyph-name="M" horiz-adv-x="891" unicode="M"/>
<glyph d="M719 650v-28q-63 -3 -78 -33q-4 -11 -6 -26q-6 -48 -6 -169v-403h-31l-426 524h-2v-251q0 -111 6 -169q4 -45 37 -57q20 -8 59 -10v-28h-237v28q63 3 79 32q7 14 9 33q6 63 6 171v220q0 69 -9 85q-4 7 -11 16q-24 29 -70 35q-9 1 -19 2v28h147l418 -502h3v246 q0 117 -7 166q-5 42 -38 54q-21 6 -60 8v28h236z" glyph-name="N" horiz-adv-x="743" unicode="N"/>
<glyph d="M381 665q130 0 222 -89q100 -96 100 -243q0 -170 -112 -268q-93 -80 -222 -80q-138 0 -232 96q-93 96 -93 237t89 240q96 107 248 107zM359 629q-98 0 -158 -84q-55 -77 -55 -199q0 -158 85 -252q67 -73 159 -73q102 0 160 88q51 76 51 197q0 184 -101 271 q-61 52 -141 52z" glyph-name="O" horiz-adv-x="747" unicode="O"/>
<glyph d="M46 650h247q112 -1 169 -41q64 -50 64 -141q0 -123 -105 -178q-41 -21 -90 -27q-23 -3 -45 -1l-74 19v-157q0 -62 15 -77q15 -14 81 -19h1h1h1v-28h-271v28q61 5 74 20q14 17 14 77v400q0 66 -14 81q-14 12 -68 16v28zM212 559v-245q32 -12 73 -12q88 0 125 69 q20 38 20 93q0 111 -88 143q-29 11 -63 11q-43 0 -56 -12q-11 -10 -11 -47z" glyph-name="P" horiz-adv-x="563" unicode="P"/>
<glyph d="M720 -138l-8 -21q-67 -1 -128 15q-69 19 -224 127q-3 2 -5 3q-107 6 -187 69q-11 9 -21 18q-90 84 -102 211q-1 16 -1 31q0 146 91 245q96 105 249 105q129 0 220 -90q99 -96 99 -244q0 -164 -112 -263q-52 -46 -115 -66q124 -86 244 -140zM348 25l68 22q4 -3 14 -9 q9 -7 13 -10q80 23 124 111q34 70 34 163q0 184 -98 272q-61 55 -143 55q-97 0 -158 -84q-56 -78 -56 -203q0 -160 87 -252q50 -51 115 -65z" glyph-name="Q" horiz-adv-x="745" unicode="Q"/>
<glyph d="M631 18l-4 -26q-24 0 -35 1q-82 4 -127 49q-18 17 -35 42q-22 31 -101 160q-19 32 -52 38q-14 2 -33 2h-32v-159q0 -64 16 -79q15 -14 72 -18v-28h-262v28q62 5 75 18q15 17 15 79v402q0 63 -14 77q-14 13 -72 18v28h248q109 0 159 -34q66 -43 67 -131q-1 -115 -127 -172 q28 -52 89 -144q49 -71 81 -104q32 -36 72 -47zM212 316h48q74 1 108 29q55 43 55 124q0 110 -90 140q-26 8 -56 8q-40 0 -54 -10q-11 -9 -11 -44v-247z" glyph-name="R" horiz-adv-x="621" unicode="R"/>
<glyph d="M409 504l-29 -5q-25 92 -72 118q-26 14 -59 14q-76 0 -102 -63q-9 -22 -9 -46q0 -67 65 -113q24 -16 62 -35q89 -46 121 -78q52 -51 52 -122q0 -91 -77 -146q-60 -43 -145 -43q-47 0 -98 15q-5 1 -9 3t-7.5 3t-7.5 3t-6.5 3t-6 2.5t-5 2t-4.5 2.5l-4 2q-8 24 -27 155 l30 7q26 -104 94 -144q32 -18 70 -18q85 0 111 69q9 23 9 51q0 66 -68 113q-23 15 -62 36q-80 44 -110 73q-55 53 -55 124q0 87 71 138q56 40 135 40q54 0 126 -23q5 -42 17 -138z" glyph-name="S" horiz-adv-x="474" unicode="S"/>
<glyph d="M592 498l-30 -3q-13 63 -31 89q-17 24 -50 29q-21 3 -59 3h-70v-493q0 -59 15 -74q18 -16 87 -21v-28h-286v28q69 5 85 21q14 17 14 74v493h-62q-88 0 -108 -20q-5 -5 -8 -11q-13 -19 -32 -90h-29q10 116 12 180h20q14 -23 40 -25h15h395q28 0 43 17q4 4 7 8h21 q2 -90 11 -177z" glyph-name="T" horiz-adv-x="617" unicode="T"/>
<glyph d="M716 650v-28q-66 -4 -80 -32q-5 -12 -7 -27q-6 -55 -6 -162v-82q0 -169 -62 -248q-6 -9 -13 -16q-68 -69 -180 -69q-98 1 -160 48q-88 69 -88 238v249q0 68 -15 83q-15 13 -72 18v28h258v-28q-58 -4 -71 -17q-15 -17 -15 -84v-227q0 -198 119 -243q32 -11 69 -11 q188 2 189 286v75q0 111 -7 165q-5 36 -37 47q-21 6 -60 9v28h238z" glyph-name="U" horiz-adv-x="736" unicode="U"/>
<glyph d="M687 650v-28q-54 -6 -74 -25q-19 -20 -45 -81q-142 -346 -208 -527h-31q-119 325 -207 545q-24 61 -49 75q-17 9 -56 13v28h245v-28q-58 -6 -64 -20q-4 -11 6 -39q55 -157 166 -437h2q120 303 158 421q14 44 3 56q-13 12 -71 19v28h225z" glyph-name="V" horiz-adv-x="703" unicode="V"/>
<glyph d="M956 650v-28q-54 -7 -71 -25q-16 -17 -37 -75q-60 -176 -165 -533h-31q-18 53 -175 499h-2q-27 -85 -81 -246q-56 -170 -82 -253h-31q-24 83 -164 535q-21 68 -45 83q-17 10 -56 15v28h243v-28q-58 -7 -65 -22q-5 -12 5 -46q78 -270 122 -412h2q25 79 76 234 q59 178 86 265h29q34 -100 175 -500h2q86 276 113 401q11 48 -1 61q-14 13 -67 19v28h220z" glyph-name="W" horiz-adv-x="971" unicode="W"/>
<glyph d="M655 0h-263v28q56 6 59 22q1 9 -9 27q-91 149 -132 214q-69 -104 -122 -202q-20 -36 -7 -47q12 -9 55 -14v-28h-229v28q70 7 103 41q8 8 14 16q48 60 164 239q-28 44 -134 214q-35 53 -58 67q-22 12 -70 17v28h246v-28q-54 -6 -55 -21q0 -7 8 -21q33 -56 114 -182 q66 103 99 162q20 37 7 48q-12 9 -54 14v28h228v-28q-66 -7 -94 -29q-19 -15 -44 -48q-46 -63 -121 -179q101 -161 157 -246q39 -60 71 -76q24 -12 67 -16v-28z" glyph-name="X" horiz-adv-x="654" unicode="X"/>
<glyph d="M620 650v-28q-58 -7 -80 -27q-15 -14 -39 -52q-68 -110 -126 -219q-17 -33 -17 -63v-136q0 -62 15 -77t82 -20h3v-28h-282v28q67 4 81 18q16 18 16 79v133q0 21 -19 56l-2 4q-111 194 -126 219q-34 58 -54 71q-19 11 -57 14v28h239v-28q-59 -7 -62 -24q0 -9 11 -30 q14 -27 135 -237q87 155 119 225q18 39 8 50q-11 10 -66 16v28h221z" glyph-name="Y" horiz-adv-x="634" unicode="Y"/>
<glyph d="M561 176l29 -6q-25 -130 -36 -170h-517l-8 15q312 441 420 599h-173q-102 0 -126 -18q-8 -7 -15 -18q-19 -30 -35 -87l-29 1q9 111 12 183h24q12 -22 34 -24q8 -1 19 -1h399l7 -14q-279 -395 -413 -594q49 -6 163 -6q130 0 166 18q13 8 24 19q28 30 55 103z" glyph-name="Z" horiz-adv-x="603" unicode="Z"/>
<glyph d="M290 -163h-170v866h170v-28q-78 -6 -94 -19q-15 -12 -15 -61v-11v-628q0 -55 11 -68q12 -15 78 -21q9 -1 20 -2v-28z" glyph-name="bracketleft" horiz-adv-x="345" unicode="["/>
<glyph d="M299 -44h-57l-206 709h56z" glyph-name="backslash" horiz-adv-x="333" unicode="\"/>
<glyph d="M226 -163h-170v27q79 7 94 20t15 62v11v627q0 55 -12 69q-13 15 -82 22q-7 0 -15 1v27h170v-866z" glyph-name="bracketright" horiz-adv-x="345" unicode="]"/>
<glyph d="M496 211h-59l-155 346l-157 -346h-55l191 412h43z" glyph-name="asciicircum" horiz-adv-x="566" unicode="^"/>
<glyph d="M500 -125h-500v50h500v-50z" glyph-name="underscore" horiz-adv-x="500" unicode="_"/>
<glyph d="M247 504l-27 -13q-64 90 -117 160l3 8q17 9 62 13q11 1 16 0q10 -24 34 -89q20 -56 29 -79z" glyph-name="grave" horiz-adv-x="400" unicode="`"/>
<glyph d="M433 39l-85 -51q-27 1 -47 20q-16 17 -24 44q-72 -49 -89 -56q-18 -8 -29 -8q-65 0 -101 55q-19 32 -19 67q2 71 81 99q127 42 155 65v17q0 88 -57 109q-14 4 -28 4q-28 -1 -45 -19q-17 -20 -29 -66q-8 -22 -29 -23q-23 0 -37 23q-6 10 -6 20q1 18 31 40q59 44 130 65 q11 3 20 5q49 -1 82 -27q45 -40 45 -123v-185q3 -56 35 -60q18 0 36 11zM275 84v156q-13 -7 -59 -28q-23 -10 -31 -14q-52 -24 -59 -57q-2 -9 -2 -17q0 -51 44 -70q14 -6 27 -6q38 0 74 30z" glyph-name="a" horiz-adv-x="439" unicode="a"/>
<glyph d="M152 404l81 35q23 10 41 10q89 0 148 -71q49 -61 49 -140q0 -116 -86 -189q-72 -61 -165 -61q-71 1 -147 36v555q0 50 -10 60q-12 11 -56 15v23q79 10 145 35v-308zM152 374v-258q0 -20 6 -35q11 -30 45 -46q21 -9 43 -9q86 0 120 87q16 43 16 100q0 106 -70 155 q-37 25 -82 25q-44 0 -78 -19z" glyph-name="b" horiz-adv-x="508" unicode="b"/>
<glyph d="M390 111l17 -21q-58 -76 -132 -97q-19 -5 -37 -5q-105 0 -163 84q-38 56 -38 125q1 118 101 195q76 53 149 57h1q59 0 90 -27q16 -14 16 -30q0 -23 -22 -38q-7 -5 -11 -5q-9 1 -19 11q-45 41 -101 41q-67 0 -101 -63q-22 -41 -22 -97q0 -120 84 -167q33 -18 67 -18 q57 0 107 42q7 7 14 13z" glyph-name="c" horiz-adv-x="423" unicode="c"/>
<glyph d="M517 51v-25q-101 -19 -155 -38v65l-61 -36q-50 -29 -78 -29q-70 0 -125 57q-60 62 -60 156q0 108 84 182q75 66 173 66q36 0 67 -12v143q0 49 -12 59q-13 10 -65 14v25q79 9 156 34v-597q0 -46 15 -54q9 -5 29 -7zM362 85v275q-39 48 -103 51q-56 0 -94 -49 q-37 -50 -37 -134q0 -108 70 -156q33 -21 68 -21q51 1 96 34z" glyph-name="d" horiz-adv-x="528" unicode="d"/>
<glyph d="M380 106l15 -22q-67 -83 -148 -95q-8 -1 -15 -1q-106 0 -160 87q-35 56 -35 126q1 103 66 175q69 70 146 73h1q71 0 117 -60q33 -43 33 -92q0 -24 -15 -30l-8 -2q-48 -9 -245 -16q-9 -1 -17 -1q1 -126 81 -173q33 -19 69 -19q61 1 115 50zM225 412q-53 0 -85 -62 q-14 -27 -20 -61q84 0 170 3q23 4 24 20q1 56 -40 85q-22 15 -49 15z" glyph-name="e" horiz-adv-x="425" unicode="e"/>
<glyph d="M54 437h47v21q0 49 11 83q24 72 77 118q56 46 110 53q53 -4 79 -34q12 -16 5 -35q-6 -13 -19 -24q-15 -10 -27 3q-38 36 -81 37q-34 -1 -53 -29q-24 -39 -23 -153v-40h118q8 -12 -3 -32q-4 -5 -7 -8h-108v-287q0 -55 13 -67q14 -12 73 -18v-25h-236v26q51 5 61 18 q10 14 10 59v294h-70l-4 11z" glyph-name="f" horiz-adv-x="296" unicode="f"/>
<glyph d="M463 437l5 -8q-21 -37 -45 -51l-57 3q30 -36 30 -88q0 -95 -83 -138q-43 -22 -92 -22q-25 0 -51 5q-27 -21 -30 -42q0 -27 37 -35q12 -3 26 -3q19 0 55 1h51q121 0 140 -86q3 -16 3 -32q0 -77 -75 -137q-76 -61 -174 -61q-103 0 -151 62q-22 29 -23 60q1 32 24 56 q21 21 83 70q-49 16 -74 55q-13 21 -11 42q56 21 88 61q-58 25 -79 84q-9 24 -9 50q0 94 83 141q46 25 96 25h1q51 -1 96 -27q71 5 136 15zM219 418q-45 0 -68 -50q-14 -30 -14 -69q0 -84 49 -119q21 -15 45 -15q50 1 72 55q11 28 11 64q0 87 -50 121q-21 13 -45 13z M241 -11q-62 -1 -87 -21q-45 -39 -46 -78q0 -52 57 -80q34 -16 75 -16q101 0 133 64q11 22 11 47q-1 51 -45 71q-34 13 -98 13z" glyph-name="g" horiz-adv-x="468" unicode="g"/>
<glyph d="M513 0h-211v26q47 5 57 19q9 15 9 58v166q-2 122 -98 123q-60 -1 -104 -51v-238q0 -52 13 -63q12 -10 52 -14v-26h-213l1 26q48 4 58 18t10 59v477q0 49 -10 59q-12 10 -58 14v24q64 9 147 35v-336q73 72 143 73q107 0 131 -107q7 -30 7 -64v-175q0 -53 15 -65 q12 -9 51 -12v-26z" glyph-name="h" horiz-adv-x="534" unicode="h"/>
<glyph d="M135 536q-29 0 -44 28q-6 12 -6 23q0 34 30 47q11 5 21 5q34 0 46 -31q4 -11 4 -21q0 -32 -29 -46q-11 -5 -22 -5zM252 0h-220v26q49 5 60 18q10 15 10 62v206q0 49 -11 60q-12 10 -52 16v24q78 13 142 39v-345q0 -53 14 -66q13 -10 57 -14v-26z" glyph-name="i" horiz-adv-x="268" unicode="i"/>
<glyph d="M135 536q-31 0 -45 30q-5 11 -5 21q0 35 31 48q10 4 20 4q33 0 45 -31q4 -11 4 -21q0 -32 -29 -46q-10 -5 -21 -5zM34 389v23q84 13 146 39v-340q0 -97 -23 -161q-37 -105 -107 -182q-8 -9 -14 -14q-16 -11 -26 -11q-16 0 -29 21q-7 12 -7 23q2 18 21 23q53 14 73 38 q16 21 25 72q8 59 8 193v195q0 53 -12 65q-12 10 -55 16z" glyph-name="j" horiz-adv-x="256" unicode="j"/>
<glyph d="M513 0l-137 -2q-19 21 -161 194q-2 2 -3 4q-20 21 -31 22q-8 0 -16 -3v-111q0 -53 15 -65q14 -9 57 -13v-26h-223v26q53 5 64 20q9 14 9 58v472q0 53 -13 64q-12 10 -53 13v24q57 6 144 35v-471q37 8 63 35q31 31 71 88q19 28 7 36q-10 5 -37 8v26l204 9v-25 q-69 -11 -102 -36q-12 -9 -27 -23q-32 -32 -86 -95q26 -41 133 -159q14 -15 22 -24q46 -50 93 -54q4 -1 7 -1v-26z" glyph-name="k" horiz-adv-x="496" unicode="k"/>
<glyph d="M238 0h-223v26q51 5 62 19q10 15 10 59v473q0 52 -12 63q-12 9 -57 13v24q73 9 148 35v-608q0 -53 15 -65q14 -9 57 -13v-26z" glyph-name="l" horiz-adv-x="253" unicode="l"/>
<glyph d="M797 0h-214v26q48 5 58 17q12 16 12 64v167q-2 115 -88 116q-49 -1 -112 -52q3 -19 3 -42v-195q0 -51 16 -63q12 -8 48 -12v-26h-214v26q50 5 61 18q10 15 10 59v172q-2 114 -88 115q-47 -1 -109 -52v-235q0 -54 16 -66q12 -7 42 -11v-26h-211v26q54 5 65 19q10 15 10 58 v207q0 51 -11 62q-11 10 -50 16v23q79 15 139 41v-81q7 5 23 16q30 23 50 34q46 28 81 28q64 0 100 -60q7 -11 12 -23q26 21 83 57q40 26 76 26q85 0 115 -78q12 -33 12 -75v-193q0 -53 14 -65q12 -8 51 -12v-26z" glyph-name="m" horiz-adv-x="819" unicode="m"/>
<glyph d="M524 0h-209v26q46 5 57 20q9 15 9 63v167q-2 113 -91 114q-51 -1 -109 -51v-235q0 -54 13 -65q12 -9 52 -13v-26h-217v26q53 5 63 19q10 13 10 59v206q0 51 -13 63q-11 8 -47 15v23q82 16 139 40v-79q22 16 67 47q47 30 83 30q88 0 118 -80q11 -32 11 -72v-193 q0 -54 13 -65q12 -9 51 -13v-26z" glyph-name="n" horiz-adv-x="547" unicode="n"/>
<glyph d="M257 449q102 0 166 -78q50 -63 50 -145q0 -131 -95 -198q-56 -40 -122 -40q-112 0 -176 87q-43 60 -43 134q0 132 98 200q58 40 122 40zM244 416q-58 0 -91 -63q-23 -47 -23 -112q0 -127 61 -187q33 -33 76 -33q93 0 110 126q3 27 3 57q0 125 -60 182q-33 30 -76 30z" glyph-name="o" horiz-adv-x="510" unicode="o"/>
<glyph d="M169 380l92 53q26 16 49 16q96 0 146 -80q31 -49 31 -109q0 -132 -110 -213q-61 -44 -139 -59q-38 2 -69 18v-131q0 -58 14 -71t70 -17v-27h-236v27q52 5 63 19q10 15 10 59v452q0 50 -12 61q-11 8 -54 14v24q66 11 145 43v-79zM169 346v-270q39 -37 94 -39q82 0 119 79 q21 45 21 105q0 105 -67 148q-31 20 -67 20q-45 -1 -100 -43z" glyph-name="p" horiz-adv-x="524" unicode="p"/>
<glyph d="M515 -240h-241v27q61 5 73 18q12 15 12 65v160l-106 -42q-120 0 -180 93q-35 54 -35 116q0 109 87 184q79 68 181 68q48 -6 69 -14q18 -5 27 -4q14 1 35 11l4 -3q-3 -64 -3 -107v-464q0 -53 13 -65q14 -11 64 -16v-27zM359 60v306q-31 35 -85 41q-7 1 -12 1 q-67 0 -105 -62q-29 -48 -29 -116q0 -105 73 -158q40 -28 84 -28q41 0 74 16z" glyph-name="q" horiz-adv-x="511" unicode="q"/>
<glyph d="M181 342h2q63 106 121 107q36 0 53 -31q5 -10 5 -19q0 -31 -29 -47q-2 -1 -3 -2q-17 -6 -26 2q-22 20 -43 20q-36 0 -68 -58q-6 -13 -12 -27v-183q0 -51 13 -62q14 -12 69 -16v-26h-230v26q50 5 60 19q9 14 9 59v207q0 52 -12 63q-11 9 -50 14v23q75 12 141 40v-109z" glyph-name="r" horiz-adv-x="371" unicode="r"/>
<glyph d="M319 325l-25 -7q-34 98 -103 99q-45 0 -60 -42q-5 -13 -5 -27q0 -47 69 -79q7 -4 15 -7q98 -40 119 -94q8 -20 8 -42q0 -80 -77 -118q-41 -20 -88 -20q-65 0 -108 29q-4 3 -6 5q-12 23 -16 100q-1 10 -1 18l27 5q21 -80 75 -111q23 -13 47 -13q43 0 63 36q8 16 8 34 q0 49 -57 80q-11 6 -22 11q-84 38 -109 78q-16 27 -16 59q0 66 59 104q40 26 93 26q48 0 88 -18q15 -36 22 -102v-4z" glyph-name="s" horiz-adv-x="367" unicode="s"/>
<glyph d="M298 36l-68 -35q-25 -13 -42 -13q-93 0 -98 107v12v290h-69l-4 11l28 29h45v72l65 67l14 -2v-137h113q13 -14 2 -32q-4 -5 -8 -8h-107v-256q1 -95 59 -96q30 0 61 17z" glyph-name="t" horiz-adv-x="305" unicode="t"/>
<glyph d="M518 50v-26q-33 -5 -77 -16q-13 -4 -39 -11q-22 -7 -31 -9l-6 6v71q-57 -42 -74 -52q-43 -25 -77 -25q-87 0 -114 81q-10 30 -10 68v196q0 49 -16 58q-6 3 -17 6l-28 6v23q20 1 72 7q59 9 71 11q-3 -32 -3 -145v-135q1 -112 88 -113q59 1 108 48v234q0 48 -17 57 q-8 4 -25 7l-36 6v23q44 2 90 8q37 4 67 10v-334q0 -44 15 -52q10 -5 32 -7z" glyph-name="u" horiz-adv-x="531" unicode="u"/>
<glyph d="M478 437v-26q-44 -6 -60 -24q-11 -14 -28 -51q-68 -150 -142 -347h-28q-47 129 -138 350q-19 48 -36 58q-14 9 -48 14v26h205v-26q-44 -5 -48 -19q-2 -11 8 -38q41 -115 95 -247q43 102 89 238q14 42 -1 53q-12 9 -46 13v26h178z" glyph-name="v" horiz-adv-x="463" unicode="v"/>
<glyph d="M696 437v-26q-43 -6 -58 -28q-9 -14 -21 -46q-36 -97 -120 -348h-29q-1 3 -117 298q-3 7 -5 13q-15 -40 -47 -121q-48 -124 -72 -190h-28q-71 229 -116 357q-15 44 -32 54q-13 7 -42 11v26h207v-26q-50 -7 -56 -21q-4 -11 5 -40q47 -149 74 -232h2q39 100 116 314h26 q40 -112 120 -318h2q50 156 69 231q10 41 -3 51q-11 9 -55 15v26h180z" glyph-name="w" horiz-adv-x="685" unicode="w"/>
<glyph d="M474 0h-214v26q42 5 42 19q0 9 -8 21l-74 117q-39 -58 -64 -106q-18 -31 -5 -40q10 -6 39 -11v-26h-186v26q54 7 77 26q13 12 35 40q31 39 85 120l-87 136q-27 42 -49 52q-16 7 -49 11v26h199v-26q-37 -5 -38 -18q1 -9 11 -24l59 -93q37 56 58 94q15 27 2 34q-9 4 -35 7 v26h183v-26q-57 -6 -78 -21q-14 -11 -32 -32q-24 -30 -78 -110l97 -148q31 -48 54 -60q19 -9 56 -14v-26z" glyph-name="x" horiz-adv-x="472" unicode="x"/>
<glyph d="M478 437v-26q-45 -7 -61 -25q-11 -13 -27 -47q-9 -19 -103 -245q-12 -29 -23 -56q-86 -205 -103 -270q-7 -24 -32 -25q-31 0 -49 27q-7 11 -7 21q1 20 25 37q39 23 72 82q2 3 3 6q18 34 31 68v1q6 21 -2 45q-67 191 -114 306q-20 49 -38 61q-16 10 -48 14v26h202l1 -26 q-41 -6 -44 -22q-2 -11 6 -33l90 -250q56 137 92 249q11 34 -6 44q-13 8 -46 12v26h181z" glyph-name="y" horiz-adv-x="459" unicode="y"/>
<glyph d="M387 138l26 -13q-20 -55 -46 -125h-329l-7 15q110 162 249 388h-89q-60 0 -83 -23q-13 -14 -30 -48l-14 -27l-25 9q20 70 34 144h21q17 -20 55 -21h230l6 -14q-120 -187 -244 -390h99q65 0 96 30q16 16 38 51z" glyph-name="z" horiz-adv-x="420" unicode="z"/>
<glyph d="M293 -141v-28q-135 0 -144 110q-1 9 -1 18q0 35 4 104q3 73 3 106q0 52 -29 70q-23 14 -61 17l-1 29q82 6 90 63q1 10 1 24q0 31 -4 97q-3 74 -3 108q1 132 145 132v-28q-72 -10 -82 -63q-2 -13 -2 -30q0 -16 10 -139q3 -36 3 -61q0 -90 -72 -112q-6 -2 -11 -3v-4 q75 -18 82 -102q1 -8 1 -15q0 -18 -10 -138q-3 -34 -3 -58q0 -61 35 -82q20 -11 49 -15z" glyph-name="braceleft" horiz-adv-x="347" unicode="{"/>
<glyph d="M163 -250h-64v1000h64v-1000z" glyph-name="bar" horiz-adv-x="263" unicode="|"/>
<glyph d="M283 284v-29q-80 -5 -89 -63q-2 -11 -2 -28q0 -29 4 -93q4 -74 4 -112q-1 -127 -146 -128v28q74 10 83 68q2 12 2 26q0 17 -11 142q-3 33 -3 56q2 96 84 117v4q-78 18 -84 104v11q0 19 11 145q3 33 3 56q0 61 -41 81q-19 8 -44 12v28q125 0 143 -93q3 -17 3 -36 q0 -37 -4 -111q-4 -65 -4 -94q0 -53 27 -73q23 -15 64 -18z" glyph-name="braceright" horiz-adv-x="347" unicode="}"/>
<glyph d="M489 308l36 -21q-34 -109 -127 -110q-53 1 -126 45q-56 33 -91 33q-59 -2 -91 -85l-35 25q45 109 130 110q51 -1 117 -39q66 -39 102 -39q47 0 74 56q6 12 11 25z" glyph-name="asciitilde" horiz-adv-x="580" unicode="~"/>
<glyph glyph-name="uni00A0" horiz-adv-x="227" unicode=" "/>
<glyph d="M138 447q38 0 51 -35q5 -12 5 -24q0 -39 -34 -53q-11 -5 -23 -5q-38 0 -52 34q-5 12 -5 24q0 42 36 55q11 4 22 4zM138 -228q-52 1 -53 30q0 23 7 79q10 89 29 358q6 8 27 4q7 -1 9 -4q20 -285 23 -313q2 -24 5 -45q7 -72 7 -79q-2 -30 -54 -30z" glyph-name="exclamdown" horiz-adv-x="276" unicode="¡"/>
<glyph d="M417 219l17 -23q-52 -69 -127 -93q-12 -3 -22 -5v-98h-35v96q-100 3 -159 80q-40 55 -40 122q0 105 83 176q6 5 10 8q50 37 106 49v84h35v-79q8 1 18 1q63 0 101 -27q13 -10 14 -25q0 -23 -22 -38q-8 -4 -14 -5q-6 2 -15 9q-37 36 -82 43v-334q67 -2 124 51zM250 163v331 q-56 -1 -92 -51q-29 -42 -29 -104q0 -115 81 -161q20 -11 40 -15z" glyph-name="cent" unicode="¢"/>
<glyph d="M376 295h-172q1 -9 1 -22q-1 -94 -87 -174q47 0 105 -27q82 -38 120 -38q54 6 58 46q0 18 -7 32q-4 11 3 22q18 25 36 26q17 0 22 -30q1 -6 1 -11q0 -53 -58 -102q-10 -8 -19 -14q-50 -31 -91 -31q-39 0 -129 51h-1l-1 1h-1l-1 1l-2 1q-40 24 -58 24q-24 0 -40 -41 q-1 -1 -1 -2q-6 -11 -12 -12q-14 0 -19 16q-3 15 7 32q10 16 47 58q42 46 42 135q0 19 -3 59h-88v38h83q-5 63 -5 82q1 108 83 175q44 37 93 44q6 1 11 1q52 0 89 -33l8 -8q10 -16 4 -31q-5 -11 -19 -23q-14 -8 -28 2q-49 42 -93 42q-71 -2 -72 -96q0 -48 20 -155h174v-38z " glyph-name="sterling" unicode="£"/>
<glyph d="M448 135l-41 -41l-64 76q-47 -39 -105 -39q-62 1 -107 38l-63 -75l-40 41l69 66q-43 53 -43 124q1 71 43 122l-69 68l40 40l64 -75q47 38 106 38h1q58 -1 105 -38l63 75l41 -40l-69 -67q43 -52 43 -123q-1 -71 -44 -123zM238 469q-68 0 -103 -61q-20 -36 -20 -83 q0 -86 59 -125q30 -20 65 -20q68 0 103 61q20 37 20 84q0 85 -58 124q-30 20 -66 20z" glyph-name="currency" unicode="¤"/>
<glyph d="M466 623v-26q-45 -6 -63 -27q-11 -12 -29 -44q-34 -60 -99 -195h129v-36h-136v-30v-37h136v-37h-136v-84q0 -51 14 -63q15 -13 76 -17v-27h-257v27q64 4 77 19q11 14 11 61v84h-131v37h131v31v36h-130v36h120q-36 87 -87 195q-23 50 -43 61q-14 6 -42 10v26h205v-26 l-26 -5q-28 -5 -28 -18q0 -6 3 -14q27 -67 88 -209q65 136 88 196q12 29 -2 38q-7 4 -20 7l-28 5v26h179z" glyph-name="yen" unicode="¥"/>
<glyph d="M163 325h-64v350h64v-350zM163 -175h-64v350h64v-350z" glyph-name="brokenbar" horiz-adv-x="263" unicode="¦"/>
<glyph d="M426 201q-2 -105 -99 -213q-64 -69 -138 -92q-37 0 -66 19l-3 3q-19 16 -20 30q1 14 21 32q11 7 21 3q45 -28 79 -28q48 0 64 35q5 12 6 25q0 40 -61 99q-4 3 -6 5q-14 14 -49.5 49t-49.5 49q-70 70 -71 152q1 88 79 172q63 69 122 90q14 5 29 9q40 0 66 -22 q12 -13 12 -23q-1 -20 -18 -33q-12 -7 -20 -1q-33 25 -75 26q-46 0 -61 -36q-3 -9 -3 -16q1 -36 37 -69q16 -15 110 -95q93 -82 94 -170zM104 413v-2q0 -73 75 -148q7 -7 14 -13q101 -92 122 -127q22 -37 19 -77l2 -2q38 58 38 114q-1 79 -80 148q-98 89 -111 103 q-41 40 -40 90v8l-3 1q-36 -50 -36 -95z" glyph-name="section" horiz-adv-x="477" unicode="§"/>
<glyph d="M115 539q-29 0 -43 28q-4 10 -4 20q0 33 30 45q9 4 18 4q32 0 43 -30q4 -9 4 -19q0 -32 -29 -44q-10 -4 -19 -4zM284 539q-29 0 -43 28q-4 10 -4 20q0 33 30 45q9 4 18 4q32 0 43 -30q4 -9 4 -19q0 -32 -29 -44q-10 -4 -19 -4z" glyph-name="dieresis" horiz-adv-x="400" unicode="¨"/>
<glyph d="M352 626q132 0 219 -94q80 -88 80 -210q0 -131 -90 -218q-86 -84 -210 -84q-134 0 -221 95q-79 86 -79 207q0 131 90 220q87 84 211 84zM351 592q-118 0 -191 -89q-62 -75 -62 -180q0 -125 84 -203q71 -66 170 -66q118 0 191 89q61 76 61 180q0 127 -84 205 q-71 64 -169 64zM481 263l22 -5q-20 -75 -26 -90q-55 -19 -104 -19q-115 0 -166 83q-24 40 -24 88q0 97 82 146q50 30 112 30q60 0 104 -17q7 -45 11 -91l-21 -4q-28 82 -101 84q-72 0 -101 -70q-13 -32 -13 -71q0 -88 56 -129q28 -20 61 -20q72 1 108 85z" glyph-name="copyright" horiz-adv-x="702" unicode="©"/>
<glyph d="M295 302l-63 -33q-34 3 -44 39q-62 -38 -78 -39q-45 0 -68 40q-9 18 -9 36q2 43 48 61q84 31 96 38q5 3 9 6v10q0 44 -36 53q-7 2 -14 2q-32 -2 -47 -53q-7 -14 -21 -15q-20 0 -29 18q-2 6 -2 10q1 15 20 28q49 34 98 43q83 -10 88 -89v-108q1 -33 21 -34q10 0 24 6z M186 332v91q-13 -7 -62 -27q-27 -19 -29 -40q0 -33 31 -42q7 -2 13 -2q27 1 47 20z" glyph-name="ordfeminine" horiz-adv-x="305" unicode="ª"/>
<glyph d="M230 54l-23 -16q-104 132 -158 183q60 60 159 184l22 -15l-93 -169zM396 54l-23 -16q-99 126 -158 183q70 72 158 184l23 -15l-93 -169z" glyph-name="guillemotleft" horiz-adv-x="444" unicode="«"/>
<glyph d="M529 97h-58v221h-419v50h477v-271z" glyph-name="logicalnot" horiz-adv-x="580" unicode="¬"/>
<glyph d="M300 253l-14 -55h-229l14 55h229z" glyph-name="uni00AD" horiz-adv-x="356" unicode="­"/>
<glyph d="M162 659q68 0 106 -56q23 -34 23 -73q0 -64 -52 -103q-35 -25 -78 -25q-69 0 -107 55q-22 33 -22 73q0 64 53 103q35 26 77 26zM161 636q-57 0 -86 -50q-14 -26 -14 -56q0 -61 48 -90q25 -15 53 -15q57 0 86 48q15 26 15 57q0 60 -48 90q-25 16 -54 16zM235 474l-3 -12 q-34 1 -49 20q-5 8 -11 20l-7 12q-4 7 -13 7h-4v-24q0 -13 2.5 -15.5t15.5 -3.5v-15h-67v15q17 1 18 7q1 4 1 12v68q0 13 -2.5 15.5t-15.5 3.5v15h68q47 -2 48 -35q-1 -24 -27 -34q11 -21 33 -47q2 -2 4.5 -3.5t5.5 -3.5zM148 536h8q8 0 18 4q10 8 10 21q-1 22 -24 23 q-11 -2 -12 -12v-36z" glyph-name="registered" horiz-adv-x="321" unicode="®"/>
<glyph d="M310 548h-220v55h220v-55z" glyph-name="macron" horiz-adv-x="400" unicode="¯"/>
<glyph d="M173 664q69 0 110 -52q29 -37 29 -85q0 -81 -67 -118q-34 -19 -73 -19q-75 0 -115 55q-25 35 -25 82q0 76 63 115q36 22 78 22zM172 621q-51 0 -72 -49q-8 -21 -8 -45q0 -64 46 -86q17 -8 35 -8q52 0 71 50q8 20 8 43q0 66 -47 88q-16 7 -33 7z" glyph-name="degree" horiz-adv-x="343" unicode="°"/>
<glyph d="M529 311h-209v-204h-58v204h-210v50h210v191h58v-191h209v-50zM529 0h-477v50h477v-50z" glyph-name="plusminus" horiz-adv-x="580" unicode="±"/>
<glyph d="M284 497l22 -7q-13 -45 -23 -89h-243v22q87 72 117 106q53 61 54 108q0 60 -49 71q-9 2 -18 2q-45 -1 -85 -55l-17 18l32 43q36 44 97 45q61 0 92 -46q18 -27 18 -61q0 -48 -57 -106q-19 -20 -49 -46l-52 -47v-2h91q38 0 52 16q8 9 18 28z" glyph-name="twosuperior" horiz-adv-x="341" unicode="²"/>
<glyph d="M205 614l1 -2q74 -14 85 -67q2 -8 2 -16q0 -72 -90 -114q-45 -21 -78 -21q-40 0 -68 21q-15 14 -11 28q5 14 18 24q10 7 21 -1q44 -32 76 -33q51 0 62 52q2 11 2 23q0 49 -49 63q-14 4 -28 4q-20 0 -41 -7l-6 24q98 33 99 78q0 35 -35 44q-8 2 -17 2q-39 0 -71 -45 q-3 -3 -4 -5l-17 16l30 41q27 30 73 36q7 1 13 1h1q63 0 86 -44q8 -16 8 -33q-1 -27 -19 -41q-22 -18 -43 -28z" glyph-name="threesuperior" horiz-adv-x="341" unicode="³"/>
<glyph d="M193 494l-26 13q14 30 55 128q11 25 13 30q17 8 67 10q10 0 14 -1l3 -9z" glyph-name="acute" horiz-adv-x="400" unicode="´"/>
<glyph d="M498 54l10 -26q-25 -31 -69 -39q-9 -1 -16 -1q-50 0 -71 50q-5 14 -7 28h-2q-70 -77 -134 -78q-52 1 -81 42h-4v-16q-1 -96 26 -220q6 -26 11 -39l-13 -12q-30 3 -67 32q-5 4 -8 7q-3 9 -2 239v20v294q0 60 -3 96l81 18q2 -24 2 -105v-171q0 -99 66 -119q12 -4 25 -4 q53 0 97 50l3 3v328l80 18v-335q1 -69 41 -70q17 0 35 10z" glyph-name="mu" horiz-adv-x="512" unicode="µ"/>
<glyph d="M466 533l-30 -27l-88 -10v-474q0 -109 -59 -176q-4 -5 -8 -9q-34 -35 -79 -48q-5 -2 -8 -2q-43 1 -66 23q-15 15 -10 30q5 13 20 27q9 6 19 0q34 -22 63 -22q76 2 77 157v150l-67 -29q-7 -3 -17 -3q-46 0 -96 48q-66 64 -67 154q0 93 61 155l5 5q57 53 130 62q10 1 18 1 h198z" glyph-name="paragraph" horiz-adv-x="497" unicode="¶"/>
<glyph d="M112 174q-38 0 -52 35q-4 11 -4 24q0 38 33 52q12 5 24 5q37 0 52 -34q5 -11 5 -23q0 -42 -36 -55q-11 -4 -22 -4z" glyph-name="periodcentered" horiz-adv-x="226" unicode="·"/>
<glyph d="M245 -1l-21 -27q-15 -18 -2 -32q4 -5 8 -9q39 -41 39 -69q0 -52 -77 -87q-18 -8 -38 -14l-12 26q59 26 60 60q-1 17 -23 39q-28 26 -21 46q4 8 10 17l38 50h39z" glyph-name="cedilla" horiz-adv-x="400" unicode="¸"/>
<glyph d="M273 402h-197v23q49 4 59 19q7 12 7 40v178q0 33 -10 39q-8 4 -27 6l-30 1v23q66 8 133 29v-276q0 -40 18 -49q12 -6 47 -10v-23z" glyph-name="onesuperior" horiz-adv-x="341" unicode="¹"/>
<glyph d="M168 545q76 0 115 -59q23 -34 23 -75q0 -82 -67 -121q-34 -20 -71 -20q-82 0 -122 64q-19 33 -19 69q0 84 72 123q34 19 69 19zM159 518q-34 0 -52 -42q-11 -25 -11 -57q0 -78 42 -110q16 -12 34 -12q50 0 62 63q3 17 3 36q0 87 -46 114q-15 8 -32 8z" glyph-name="ordmasculine" horiz-adv-x="334" unicode="º"/>
<glyph d="M49 390l23 15q96 -122 158 -184q-59 -58 -158 -183l-23 15l94 168zM214 390l23 15q96 -122 158 -184q-59 -58 -158 -183l-23 15l93 168z" glyph-name="guillemotright" horiz-adv-x="445" unicode="»"/>
<glyph d="M276 277l-197 -1v23q49 5 59 19q7 13 7 40v179q0 33 -11 39q-8 4 -26 5l-30 2v22q69 10 133 30v-276q0 -40 18 -49q12 -6 47 -10v-23zM603 632l-406 -658l-31 24l404 657zM687 99h-59v-29q0 -34 17 -41q11 -4 38 -6v-23h-181v23q50 4 59 15q6 10 6 32v29h-162v23 q112 150 184 237h39v-223h59v-37zM567 136v149h-3q-47 -60 -108 -149h111z" glyph-name="onequarter" horiz-adv-x="762" unicode="¼"/>
<glyph d="M269 277l-196 -1v23q49 5 59 19q7 13 7 40v179q0 33 -11 39q-8 4 -26 5l-30 2v22q69 10 132 30v-276q0 -40 18 -49q12 -6 47 -10v-23zM589 632l-406 -659l-31 24l404 658zM682 96l22 -7q-16 -53 -24 -89h-243v22q89 72 121 108q50 59 51 105q0 60 -49 71q-9 2 -18 2 q-45 -1 -85 -55l-18 18l33 43q35 44 97 45q61 0 92 -47q17 -26 18 -60q0 -49 -58 -106q-19 -20 -48 -45l-53 -47v-2h92q38 0 52 16q9 10 18 28z" glyph-name="onehalf" horiz-adv-x="762" unicode="½"/>
<glyph d="M606 632l-406 -658l-31 24l404 657zM681 99h-59v-29q0 -34 17 -41q11 -4 38 -6v-23h-180v23q49 4 57 15q7 10 7 32v29h-162v23q112 150 184 237h39v-223h59v-37zM561 136v149h-3q-47 -60 -108 -149h111zM233 489v-2q71 -12 84 -63q3 -10 3 -20q0 -71 -89 -114 q-45 -21 -78 -21q-41 0 -69 21q-14 13 -10 28q5 15 17 24q11 6 21 -1q43 -32 76 -33q51 0 62 51q2 11 2 23q0 50 -50 64q-14 4 -28 4q-20 0 -41 -7l-6 24q89 30 98 68q1 6 1 11q0 34 -33 43q-9 2 -18 2q-39 0 -71 -45q-3 -3 -4 -5l-16 16l29 41q27 30 73 36q7 1 13 1h1 q62 0 86 -43q8 -16 8 -33q-1 -25 -18 -41q-23 -18 -43 -29z" glyph-name="threequarters" horiz-adv-x="762" unicode="¾"/>
<glyph d="M191 448q37 0 50 -34q4 -11 4 -23q0 -37 -32 -52q-12 -5 -23 -5q-36 0 -49 34q-5 11 -5 23q0 41 35 54q10 3 20 3zM158 220l18 23q44 -15 81 -58q31 -37 31 -71q0 -42 -58 -91q-12 -11 -27 -22q-70 -51 -88 -81q-9 -16 -9 -30q9 -49 59 -54q44 0 97 42q13 10 17 11 q17 0 32 -20q9 -12 9 -24q-1 -17 -21 -36q-44 -32 -92 -37h-1q-70 0 -121 58q-39 47 -39 100q1 51 48 89q6 5 24 19q68 50 82 81q5 12 5 22q0 36 -36 69q-6 5 -11 10z" glyph-name="questiondown" horiz-adv-x="379" unicode="¿"/>
<glyph d="M673 0h-245v28q57 7 63 23q3 11 -4 32q-7 22 -55 154h-213q-32 -89 -44 -129q-17 -50 -3 -63q14 -12 66 -17v-28h-218v28q52 7 69 24q20 19 43 80l207 524l31 9q25 -70 78 -219q77 -215 115 -317q25 -69 48 -85q19 -12 62 -16v-28zM418 280l-88 255h-2q-16 -42 -46 -126 q-32 -87 -48 -129h184zM406 709l-13 -25l-186 63l-2 8q6 21 31 48q8 7 12 9q126 -82 158 -103z" glyph-name="Agrave" horiz-adv-x="691" unicode="À"/>
<glyph d="M673 0h-245v28q57 7 63 23q3 11 -4 32q-7 22 -55 154h-213q-32 -89 -44 -129q-17 -50 -3 -63q14 -12 66 -17v-28h-218v28q52 7 69 24q20 19 43 80l207 524l31 9q25 -70 78 -219q77 -215 115 -317q25 -69 48 -85q19 -12 62 -16v-28zM418 280l-88 255h-2q-16 -42 -46 -126 q-32 -87 -48 -129h184zM504 756l-2 -8l-185 -64l-13 25q20 12 157 102q13 -2 34 -37q7 -12 9 -18z" glyph-name="Aacute" horiz-adv-x="691" unicode="Á"/>
<glyph d="M673 0h-245v28q57 7 63 23q3 11 -4 32q-7 22 -55 154h-213q-32 -89 -44 -129q-17 -50 -3 -63q14 -12 66 -17v-28h-218v28q52 7 69 24q20 19 43 80l207 524l31 9q25 -70 78 -219q77 -215 115 -317q25 -69 48 -85q19 -12 62 -16v-28zM418 280l-88 255h-2q-16 -42 -46 -126 q-32 -87 -48 -129h184zM493 709l-16 -25q-51 22 -121 62q-79 -45 -120 -62l-16 25q93 72 126 107h22q37 -39 125 -107z" glyph-name="Acircumflex" horiz-adv-x="691" unicode="Â"/>
<glyph d="M673 0h-245v28q57 7 63 23q3 11 -4 32q-7 22 -55 154h-213q-32 -89 -44 -129q-17 -50 -3 -63q14 -12 66 -17v-28h-218v28q52 7 69 24q20 19 43 80l207 524l31 9q25 -70 78 -219q77 -215 115 -317q25 -69 48 -85q19 -12 62 -16v-28zM418 280l-88 255h-2q-16 -42 -46 -126 q-32 -87 -48 -129h184zM304 788q22 -1 62 -18q31 -16 54 -16q27 2 46 42l25 -13q-27 -84 -82 -85q-22 1 -70 21q-27 14 -44 14q-24 -2 -47 -44l-24 18q32 80 80 81z" glyph-name="Atilde" horiz-adv-x="691" unicode="Ã"/>
<glyph d="M673 0h-246v28q57 7 63 23q3 11 -4 32q-19 57 -54 154h-213q-16 -46 -44 -129q-17 -50 -3 -63q14 -12 66 -17v-28h-218v28q52 7 69 24q20 19 44 80l206 524l31 9q25 -70 78 -219q77 -215 115 -317q25 -69 48 -85q19 -12 62 -16v-28zM418 280l-88 255h-2q-21 -55 -60 -165 q-22 -61 -33 -90h183zM449 794q31 0 43 -30q4 -10 4 -20q0 -32 -29 -44q-10 -4 -19 -4q-29 0 -43 28q-4 10 -4 20q0 33 29 46q10 4 19 4zM258 794q31 0 43 -30q4 -10 4 -20q0 -32 -29 -44q-10 -4 -19 -4q-29 0 -43 28q-4 10 -4 20q0 33 29 46q10 4 19 4z" glyph-name="Adieresis" horiz-adv-x="691" unicode="Ä"/>
<glyph d="M673 0h-245v28q55 7 62 22q4 11 -3 33t-55 154h-213q-32 -89 -44 -129q-17 -50 -3 -63q14 -12 65 -17v-28h-217v28q52 7 69 24q20 19 43 80l207 524l31 9q25 -70 78 -219q77 -215 115 -317q25 -69 48 -85q19 -12 62 -16v-28zM418 280l-88 255h-2q-13 -34 -94 -255h184z M355 855q50 0 75 -39q13 -20 13 -44q0 -52 -47 -76q-20 -9 -42 -9q-49 0 -74 39q-14 21 -14 46q0 52 48 74q20 9 41 9zM353 824q-30 0 -40 -33q-3 -9 -3 -19q0 -39 28 -52q8 -3 16 -3q32 0 42 36q2 9 2 19q0 41 -31 50q-7 2 -14 2z" glyph-name="Aring" horiz-adv-x="691" unicode="Å"/>
<glyph d="M819 165l29 -7q-20 -101 -36 -158h-473v28q64 4 79 22t15 84v162h-177q-59 -111 -96 -194q-19 -43 -7 -55q13 -13 65 -20v-27h-229v27q55 8 77 27q18 17 41 58q54 94 240 451q20 36 8 46q-10 6 -39 10l-41 5v26h513q3 -70 10 -142l-30 -4q-16 62 -32 83q-18 23 -63 27 q-18 1 -42 1h-83q-26 0 -30 -8q-2 -7 -2 -23v-249h89q70 0 87 15q14 14 23 62h30v-195h-30q-11 54 -26 66q-18 13 -84 13h-89v-166q0 -64 20 -80q2 -2 4 -3q21 -12 102 -12q88 0 118 24q6 5 10 10q25 31 49 96zM433 335v275q-13 -2 -28 -19q-66 -123 -131 -256h159z" glyph-name="AE" horiz-adv-x="869" unicode="Æ"/>
<glyph d="M613 178l28 -11q-26 -100 -54 -156q-100 -23 -165 -24l-11 -14q-14 -18 -2 -33q4 -5 8 -9q38 -39 38 -68q0 -47 -68 -83q-21 -11 -45 -19l-14 28q60 27 61 60q-1 16 -23 38q-29 28 -18 50q3 6 7 12l27 37q-186 6 -278 137q-58 85 -58 191q0 161 114 260q105 91 265 91 q73 0 178 -27q14 -99 20 -154l-30 -5q-29 103 -97 132q-39 17 -99 17q-125 0 -195 -102q-53 -79 -53 -189q0 -159 89 -247q68 -67 167 -67q98 0 156 72q26 31 52 83z" glyph-name="Ccedilla" horiz-adv-x="661" unicode="Ç"/>
<glyph d="M517 162l29 -4q-18 -99 -35 -158h-482v28q69 5 84 20q15 17 15 77v398q0 66 -14 81q-14 14 -72 18v28h446q0 -10 8 -144l-29 -4q-11 51 -32 85q-16 25 -77 28q-16 1 -36 1h-76q-27 0 -31 -10q-2 -6 -2 -22v-228h94q70 0 87 15q13 13 21 60h29v-191h-29q-10 53 -25 65 q-18 12 -82 12h-95v-188q1 -64 24 -82q22 -13 104 -13q86 0 114 22q7 6 12 12q29 37 50 94zM349 709l-13 -25l-186 64l-2 7q6 21 31 48q8 7 12 9q93 -60 158 -103z" glyph-name="Egrave" horiz-adv-x="568" unicode="È"/>
<glyph d="M517 162l29 -4q-18 -99 -35 -158h-482v28q69 5 84 20q15 17 15 77v398q0 66 -14 81q-14 14 -72 18v28h446q0 -10 8 -144l-29 -4q-11 51 -32 85q-16 25 -77 28q-16 1 -36 1h-76q-27 0 -31 -10q-2 -6 -2 -22v-228h94q70 0 87 15q13 13 21 60h29v-191h-29q-10 53 -25 65 q-18 12 -82 12h-95v-188q1 -64 24 -82q22 -13 104 -13q86 0 114 22q7 6 12 12q29 37 50 94zM431 756l-2 -8l-185 -64l-13 25q20 12 157 102q13 -2 34 -37q7 -12 9 -18z" glyph-name="Eacute" horiz-adv-x="568" unicode="É"/>
<glyph d="M517 162l29 -4q-18 -99 -35 -158h-482v28q69 5 84 20q15 17 15 77v398q0 66 -14 81q-14 14 -72 18v28h446q0 -10 8 -144l-29 -4q-11 51 -32 85q-16 25 -77 28q-16 1 -36 1h-76q-27 0 -31 -10q-2 -6 -2 -22v-228h94q70 0 87 15q13 13 21 60h29v-191h-29q-10 53 -25 65 q-18 12 -82 12h-95v-188q1 -64 24 -82q22 -13 104 -13q86 0 114 22q7 6 12 12q29 37 50 94zM424 709l-16 -25q-51 22 -121 62q-79 -45 -120 -62l-16 25q90 69 126 107h22q40 -42 125 -107z" glyph-name="Ecircumflex" horiz-adv-x="568" unicode="Ê"/>
<glyph d="M517 162l29 -4q-18 -99 -35 -158h-482v28q69 5 84 20q15 17 15 77v398q0 66 -14 81q-14 14 -72 18v28h446q0 -10 8 -144l-29 -4q-11 51 -32 85q-16 25 -77 28q-16 1 -36 1h-76q-27 0 -31 -10q-2 -6 -2 -22v-228h94q70 0 87 15q13 13 21 60h29v-191h-29q-10 53 -25 65 q-18 12 -82 12h-95v-188q1 -64 24 -82q22 -13 104 -13q86 0 114 22q7 6 12 12q29 37 50 94zM386 797q32 0 43 -30q4 -9 4 -19q0 -31 -28 -45q-10 -4 -20 -4q-28 0 -42 28q-5 11 -5 21q0 33 30 45q9 4 18 4zM196 797q31 0 43 -30q4 -10 4 -20q0 -32 -29 -44q-10 -4 -19 -4 q-30 0 -44 28q-4 10 -4 20q0 33 29 46q10 4 20 4z" glyph-name="Edieresis" horiz-adv-x="568" unicode="Ë"/>
<glyph d="M303 0h-265v28q62 5 75 18q15 17 15 79v400q0 64 -15 79q-15 14 -75 18v28h265v-28q-62 -5 -75 -18q-15 -17 -15 -79v-400q0 -64 15 -79q15 -14 75 -18v-28zM236 709l-13 -25l-186 63l-2 8q6 21 31 48q8 7 12 9q126 -82 158 -103z" glyph-name="Igrave" horiz-adv-x="341" unicode="Ì"/>
<glyph d="M303 0h-265v28q62 5 75 18q15 17 15 79v400q0 64 -15 79q-15 14 -75 18v28h265v-28q-62 -5 -75 -18q-15 -17 -15 -79v-400q0 -64 15 -79q15 -14 75 -18v-28zM312 756l-2 -8l-185 -64l-13 25q20 12 157 102q13 -2 34 -37q7 -12 9 -18z" glyph-name="Iacute" horiz-adv-x="341" unicode="Í"/>
<glyph d="M303 0h-265v28q62 5 75 18q15 17 15 79v400q0 64 -15 79q-15 14 -75 18v28h265v-28q-62 -5 -75 -18q-15 -17 -15 -79v-400q0 -64 15 -79q15 -14 75 -18v-28zM307 709l-16 -25q-51 22 -121 62q-79 -45 -120 -62l-16 25q93 72 126 107h22q37 -39 125 -107z" glyph-name="Icircumflex" horiz-adv-x="341" unicode="Î"/>
<glyph d="M302 0h-264v28q62 5 75 18q15 17 15 79v400q0 64 -15 79q-15 14 -75 18v28h264v-28q-61 -5 -74 -18q-15 -17 -15 -79v-400q0 -64 15 -79q14 -14 74 -18v-28zM266 795q31 0 43 -30q4 -10 4 -20q0 -32 -29 -44q-10 -4 -19 -4q-29 0 -43 28q-4 10 -4 20q0 33 29 46 q10 4 19 4zM76 795q31 0 43 -30q4 -10 4 -20q0 -32 -29 -44q-10 -4 -19 -4q-29 0 -43 28q-4 10 -4 20q0 33 29 46q10 4 19 4z" glyph-name="Idieresis" horiz-adv-x="341" unicode="Ï"/>
<glyph d="M53 650h276q188 -1 277 -85q86 -83 86 -215q-1 -174 -125 -267q-111 -83 -293 -83h-229v28q63 4 78 20q16 20 16 89v183h-102v41h102v152q0 73 -15 90q-14 15 -71 19v28zM224 320v-188q0 -62 25 -80q23 -15 72 -15q162 0 232 128q39 73 39 170q-2 171 -115 243 q-63 39 -162 39q-59 0 -79 -10q-12 -9 -12 -43v-203h157v-41h-157z" glyph-name="Eth" horiz-adv-x="737" unicode="Ð"/>
<glyph d="M719 650v-28q-63 -3 -78 -33q-4 -11 -6 -26q-6 -48 -6 -169v-403h-31l-426 524h-2v-251q0 -111 6 -169q4 -45 37 -57q20 -8 59 -10v-28h-237v28q63 4 78 32q8 13 10 33q6 63 6 171v220q0 69 -9 85q-4 7 -11 16q-24 29 -70 35q-9 1 -19 2v28h147l418 -501h3v245 q0 117 -7 166q-4 41 -37 53q-21 7 -61 9v28h236zM325 788q22 -1 61 -19q34 -16 55 -16q26 2 46 43l24 -14q-28 -83 -82 -85q-24 1 -70 22q-29 14 -44 14q-25 -2 -47 -44l-25 17q33 81 82 82z" glyph-name="Ntilde" horiz-adv-x="743" unicode="Ñ"/>
<glyph d="M381 665q130 0 222 -89q100 -96 100 -243q0 -170 -112 -268q-93 -80 -222 -80q-138 0 -232 96q-93 96 -93 237t89 240q96 107 248 107zM359 629q-98 0 -158 -84q-55 -77 -55 -199q0 -158 85 -252q67 -73 159 -73q102 0 160 88q51 76 51 197q0 184 -101 271 q-61 52 -141 52zM445 718l-13 -25l-186 63l-2 8q6 21 31 48q8 7 12 9q126 -82 158 -103z" glyph-name="Ograve" horiz-adv-x="747" unicode="Ò"/>
<glyph d="M381 665q130 0 222 -89q100 -96 100 -243q0 -170 -112 -268q-93 -80 -222 -80q-138 0 -232 96q-93 96 -93 237t89 240q96 107 248 107zM359 629q-98 0 -158 -84q-55 -77 -55 -199q0 -158 85 -252q67 -73 159 -73q102 0 160 88q51 76 51 197q0 184 -101 271 q-61 52 -141 52zM503 763l-2 -8l-185 -64l-13 25q20 12 157 102q13 -2 34 -37q7 -12 9 -18z" glyph-name="Oacute" horiz-adv-x="747" unicode="Ó"/>
<glyph d="M381 665q130 0 222 -89q100 -96 100 -243q0 -170 -112 -268q-93 -80 -222 -80q-138 0 -232 96q-93 96 -93 237t89 240q96 107 248 107zM359 629q-98 0 -158 -84q-55 -77 -55 -199q0 -158 85 -252q67 -73 159 -73q102 0 160 88q51 76 51 197q0 184 -101 271 q-61 52 -141 52zM509 716l-16 -25q-51 22 -121 62q-79 -45 -120 -62l-16 25q93 72 126 107h22q37 -39 125 -107z" glyph-name="Ocircumflex" horiz-adv-x="747" unicode="Ô"/>
<glyph d="M381 665q130 0 222 -89q100 -96 100 -243q0 -170 -112 -268q-93 -80 -222 -80q-138 0 -232 96q-93 96 -93 237t89 240q96 107 248 107zM359 629q-98 0 -158 -84q-55 -77 -55 -199q0 -158 85 -252q67 -73 159 -73q102 0 160 88q51 76 51 197q0 184 -101 271 q-61 52 -141 52zM322 797q23 -1 62 -19q34 -16 54 -16q26 2 46 43l25 -13q-27 -84 -82 -85q-22 1 -70 21q-29 14 -44 14q-25 -2 -48 -44l-24 17q33 81 81 82z" glyph-name="Otilde" horiz-adv-x="747" unicode="Õ"/>
<glyph d="M381 665q130 0 222 -89q100 -96 100 -243q0 -170 -112 -268q-93 -80 -222 -80q-138 0 -232 96q-93 96 -93 237q0 140 88 239q97 108 249 108zM359 629q-96 0 -156 -82q-57 -78 -57 -201q0 -158 85 -252q67 -73 160 -73q101 0 159 88q51 76 51 197q0 185 -101 272 q-61 51 -141 51zM469 799q31 0 43 -30q4 -10 4 -20q0 -32 -29 -44q-10 -4 -19 -4q-29 0 -43 28q-4 10 -4 20q0 33 29 46q10 4 19 4zM278 799q31 0 43 -30q4 -10 4 -20q0 -32 -29 -44q-10 -4 -19 -4q-29 0 -43 28q-4 10 -4 20q0 33 29 46q10 4 19 4z" glyph-name="Odieresis" horiz-adv-x="747" unicode="Ö"/>
<glyph d="M522 47l-37 -38l-195 199l-195 -199l-35 38l193 199l-193 198l35 38l195 -199l195 200l37 -37l-195 -200z" glyph-name="multiply" horiz-adv-x="580" unicode="×"/>
<glyph d="M633 674l-49 -74q101 -82 122 -210q4 -27 4 -55q0 -169 -111 -268q-93 -82 -225 -82q-95 1 -173 50l-56 -80l-27 23l53 78q-105 89 -119 227q-2 18 -2 36q0 139 90 238q98 108 250 108q94 -1 163 -46l50 75zM217 123l300 443q-59 63 -150 63q-100 0 -161 -84 q-56 -78 -56 -201q0 -130 65 -219q2 -1 2 -2zM541 537l-301 -445q57 -70 151 -71q135 0 190 127q29 67 29 157q-1 137 -69 232z" glyph-name="Oslash" horiz-adv-x="749" unicode="Ø"/>
<glyph d="M716 650v-28q-66 -4 -80 -32q-5 -12 -7 -27q-6 -55 -6 -162v-82q0 -169 -62 -248q-6 -9 -13 -16q-68 -69 -180 -69q-98 1 -160 48q-88 69 -88 238v249q0 68 -15 83q-15 13 -72 18v28h258v-28q-58 -4 -71 -17q-15 -17 -15 -84v-227q0 -198 119 -243q32 -11 69 -11 q188 2 189 286v75q0 111 -7 165q-5 36 -37 47q-21 6 -60 9v28h238zM438 709l-13 -25l-186 63l-2 8q6 21 31 48q8 7 12 9q126 -82 158 -103z" glyph-name="Ugrave" horiz-adv-x="736" unicode="Ù"/>
<glyph d="M716 650v-28q-66 -4 -80 -32q-5 -12 -7 -27q-6 -55 -6 -162v-82q0 -169 -62 -248q-6 -9 -13 -16q-68 -69 -180 -69q-98 1 -160 48q-88 69 -88 238v249q0 68 -15 83q-15 13 -72 18v28h258v-28q-58 -4 -71 -17q-15 -17 -15 -84v-227q0 -198 119 -243q32 -11 69 -11 q188 2 189 286v75q0 111 -7 165q-5 36 -37 47q-21 6 -60 9v28h238zM519 756l-2 -8l-185 -64l-13 25q20 12 157 102q13 -2 34 -37q7 -12 9 -18z" glyph-name="Uacute" horiz-adv-x="736" unicode="Ú"/>
<glyph d="M716 650v-28q-66 -4 -80 -32q-5 -12 -7 -27q-6 -55 -6 -162v-82q0 -169 -62 -248q-6 -9 -13 -16q-68 -69 -180 -69q-98 1 -160 48q-88 69 -88 238v249q0 68 -15 83q-15 13 -72 18v28h258v-28q-58 -4 -71 -17q-15 -17 -15 -84v-227q0 -198 119 -243q32 -11 69 -11 q188 2 189 286v75q0 111 -7 165q-5 36 -37 47q-21 6 -60 9v28h238zM517 709l-16 -25q-51 22 -121 62q-79 -45 -120 -62l-16 25q93 72 126 107h22q37 -39 125 -107z" glyph-name="Ucircumflex" horiz-adv-x="736" unicode="Û"/>
<glyph d="M716 650v-28q-66 -4 -80 -32q-5 -12 -7 -27q-6 -55 -6 -162v-82q0 -167 -61 -246q-7 -10 -15 -18q-67 -69 -179 -69q-98 1 -160 48q-88 69 -88 238v249q0 67 -14 82q-13 14 -70 19h-1h-1h-1v28h258v-28q-58 -4 -72 -18q-14 -18 -14 -83v-227q0 -200 122 -243 q31 -11 67 -11q187 2 188 286v75q0 111 -7 165q-5 35 -36 46q-21 7 -61 10v28h238zM472 795q31 0 43 -30q4 -10 4 -20q0 -32 -29 -44q-10 -4 -19 -4q-29 0 -43 28q-4 10 -4 20q0 33 29 46q10 4 19 4zM282 795q31 0 43 -30q4 -10 4 -20q0 -32 -29 -44q-10 -4 -19 -4 q-29 0 -43 28q-4 10 -4 20q0 33 29 46q10 4 19 4z" glyph-name="Udieresis" horiz-adv-x="736" unicode="Ü"/>
<glyph d="M620 650v-28q-58 -7 -80 -27q-15 -14 -39 -52q-66 -107 -127 -219q-17 -33 -17 -63v-136q0 -62 16 -77q17 -15 85 -20v-28h-283v28q67 4 81 18q16 18 16 79v133q0 23 -18 57q-1 2 -2 3q-12 21 -38 67q-52 93 -87 152q-34 58 -54 70q-18 12 -57 15v28h238v-28 q-59 -7 -61 -24q0 -9 11 -30q35 -67 135 -237q93 170 118 225q18 39 8 50q-11 10 -66 16v28h221zM470 756l-1 -8l-185 -64l-13 25q97 63 157 102q13 -2 34 -38q6 -11 8 -17z" glyph-name="Yacute" horiz-adv-x="634" unicode="Ý"/>
<glyph d="M288 650v-28q-52 -4 -64 -16q-16 -16 -16 -89v-12q60 2 88 2q213 -2 214 -170q0 -108 -103 -157q-56 -27 -128 -28l-71 17v-42q0 -64 16 -80q16 -15 78 -19v-28h-264v28q58 4 72 19q14 18 14 85v386q0 70 -13 85q-14 15 -69 19v28h246zM208 433v-229q30 -12 68 -12 q85 0 120 65q18 33 18 77q0 118 -104 137q-18 3 -37 3q-39 0 -54 -9q-11 -8 -11 -32z" glyph-name="Thorn" horiz-adv-x="549" unicode="Þ"/>
<glyph d="M103 437v12q0 48 12 85q23 73 82 124q58 48 128 54q102 -2 140 -79q16 -32 17 -71q-1 -25 -11 -42q-102 -80 -103 -136q0 -34 50 -79q6 -5 20 -17q69 -60 78 -113q2 -10 2 -19q0 -76 -77 -130q-55 -39 -107 -39q-34 1 -55 13q-22 16 -20 34q4 14 19 26q11 8 20 1 q39 -29 74 -29q41 0 61 37q11 20 11 46q0 48 -57 99q-6 6 -12 11q-81 69 -82 122q0 38 50 94q9 10 20 22q40 40 43 45q7 13 7 34q0 63 -47 102q-32 26 -72 26q-88 0 -106 -144q-6 -49 -6 -126v-296q0 -54 13 -65q12 -9 40 -12v-27h-204v27q53 4 64 21q8 14 8 54v292h-70 l-5 10l28 33h47z" glyph-name="germandbls" horiz-adv-x="545" unicode="ß"/>
<glyph d="M433 39l-85 -51q-27 1 -47 20q-16 17 -24 44q-72 -49 -89 -56q-18 -8 -29 -8q-65 0 -101 55q-19 32 -19 67q2 71 81 99q127 42 155 65v17q0 88 -57 109q-14 4 -28 4q-28 -1 -45 -19q-17 -20 -29 -66q-8 -22 -29 -23q-23 0 -37 23q-6 10 -6 20q1 18 31 40q59 44 130 65 q11 3 20 5q49 -1 82 -27q45 -40 45 -123v-185q3 -56 35 -60q18 0 36 11zM275 84v156q-13 -7 -59 -28q-23 -10 -31 -14q-52 -24 -59 -57q-2 -9 -2 -17q0 -51 44 -70q14 -6 27 -6q38 0 74 30zM252 504l-27 -13q-64 90 -117 160l3 8q17 9 62 13q11 1 16 0q10 -24 34 -89 q20 -56 29 -79z" glyph-name="agrave" horiz-adv-x="439" unicode="à"/>
<glyph d="M433 39l-85 -51q-27 1 -47 20q-16 17 -24 44q-72 -49 -89 -56q-18 -8 -29 -8q-65 0 -101 55q-19 32 -19 67q2 71 81 99q127 42 155 65v17q0 88 -57 109q-14 4 -28 4q-28 -1 -45 -19q-17 -20 -29 -66q-8 -22 -29 -23q-23 0 -37 23q-6 10 -6 20q1 18 31 40q59 44 130 65 q11 3 20 5q49 -1 82 -27q45 -40 45 -123v-185q3 -56 35 -60q18 0 36 11zM275 84v156q-13 -7 -59 -28q-23 -10 -31 -14q-52 -24 -59 -57q-2 -9 -2 -17q0 -51 44 -70q14 -6 27 -6q38 0 74 30zM203 494l-26 13q14 30 55 128q11 25 13 30q17 8 67 10q10 0 14 -1l3 -9z" glyph-name="aacute" horiz-adv-x="439" unicode="á"/>
<glyph d="M433 39l-85 -51q-27 1 -47 20q-16 17 -24 44q-72 -49 -89 -56q-18 -8 -29 -8q-65 0 -101 55q-19 32 -19 67q2 71 81 99q127 42 155 65v17q0 88 -57 109q-14 4 -28 4q-28 -1 -45 -19q-17 -20 -29 -66q-8 -22 -29 -23q-23 0 -37 23q-6 10 -6 20q1 18 31 40q59 44 130 65 q11 3 20 5q49 -1 82 -27q45 -40 45 -123v-185q3 -56 35 -60q18 0 36 11zM275 84v156q-13 -7 -59 -28q-23 -10 -31 -14q-52 -24 -59 -57q-2 -9 -2 -17q0 -51 44 -70q14 -6 27 -6q38 0 74 30zM321 509l-25 -17q-41 39 -87 97q-52 -63 -89 -97l-24 17q50 69 101 163h25 q44 -85 99 -163z" glyph-name="acircumflex" horiz-adv-x="439" unicode="â"/>
<glyph d="M433 39l-85 -51q-27 1 -47 20q-16 17 -24 44q-72 -49 -89 -56q-18 -8 -29 -8q-65 0 -101 55q-19 32 -19 67q2 71 81 99q127 42 155 65v17q0 88 -57 109q-14 4 -28 4q-28 -1 -45 -19q-17 -20 -29 -66q-8 -22 -29 -23q-23 0 -37 23q-6 10 -6 20q1 18 31 40q59 44 130 65 q11 3 20 5q49 -1 82 -27q45 -40 45 -123v-185q3 -56 35 -60q18 0 36 11zM275 84v156q-13 -7 -59 -28q-23 -10 -31 -14q-52 -24 -59 -57q-2 -9 -2 -17q0 -51 44 -70q14 -6 27 -6q38 0 74 30zM107 521l-25 16q31 87 81 90q21 -1 58 -20t53 -19q23 2 43 45l25 -13 q-29 -89 -80 -90q-24 1 -65 23q-29 16 -46 16q-23 -2 -44 -48z" glyph-name="atilde" horiz-adv-x="439" unicode="ã"/>
<glyph d="M433 39l-85 -51q-27 1 -47 20q-16 17 -24 44q-72 -49 -89 -56q-18 -8 -29 -8q-65 0 -101 55q-19 32 -19 67q2 71 81 99q127 42 155 65v17q0 87 -56 108q-13 5 -28 5q-29 -1 -45 -19t-29 -66q-8 -22 -30 -23q-23 0 -37 23q-6 10 -6 20q1 18 32 40q59 44 130 65q10 3 19 5 q49 -1 82 -27q45 -40 45 -123v-185q1 -59 35 -60q18 0 36 11zM275 84v156q-13 -7 -59 -28q-23 -10 -31 -14q-52 -24 -59 -57q-2 -9 -2 -17q0 -51 44 -70q14 -6 27 -6q37 0 72 29q5 4 8 7zM125 538q-30 0 -43 28q-4 10 -4 20q0 33 29 45q10 4 19 4q32 0 43 -30q4 -9 4 -19 q0 -32 -29 -44q-10 -4 -19 -4zM293 538q-29 0 -43 28q-4 10 -4 20q0 33 30 45q9 4 18 4q32 0 43 -30q4 -9 4 -19q0 -32 -29 -44q-10 -4 -19 -4z" glyph-name="adieresis" horiz-adv-x="439" unicode="ä"/>
<glyph d="M433 39l-85 -51q-27 1 -47 20q-16 17 -24 44q-72 -50 -93 -58q-14 -6 -24 -6q-66 0 -101 55q-20 32 -20 67q2 71 81 99q127 42 155 65v17q0 88 -57 109q-14 4 -28 4q-28 -1 -45 -19q-17 -20 -29 -66q-8 -22 -29 -23q-23 0 -37 23q-6 10 -6 20q1 18 31 40q59 44 130 65 q11 3 20 5q49 -1 82 -27q45 -40 45 -123v-185q3 -56 35 -60q18 0 36 11zM276 84v156q-15 -8 -91 -42q-51 -24 -58 -57q-2 -9 -2 -17q0 -51 44 -70q14 -6 27 -6q37 0 73 30q4 3 7 6zM210 499q-49 0 -75 39q-14 21 -14 46q0 51 48 74q20 10 42 10q48 0 74 -38q14 -21 14 -46 q0 -52 -47 -75q-21 -10 -42 -10zM211 529q32 0 42 36q2 9 2 19q0 40 -30 51q-8 2 -15 2q-30 0 -41 -32q-3 -11 -3 -21q0 -39 29 -52q8 -3 16 -3z" glyph-name="aring" horiz-adv-x="439" unicode="å"/>
<glyph d="M284 274v24q0 66 -46 94q-20 12 -42 12q-30 -1 -47 -22q-15 -19 -27 -64q-9 -23 -28 -24q-20 0 -37 21q-9 11 -9 21q1 22 31 43q81 53 151 70q45 -1 74 -21q26 -20 40 -55q72 71 148 76q74 0 122 -62q31 -42 32 -89q0 -27 -14 -33q-5 -1 -9 -2q-44 -9 -245 -16 q-11 -1 -21 -1q-2 -122 79 -170q36 -21 77 -21q59 1 111 50l17 -21q-59 -80 -143 -94q-11 -2 -20 -2q-104 0 -157 83l-4 6l-35 -28q-82 -60 -121 -61q-67 0 -102 57q-19 30 -19 63q0 66 65 94q7 3 14 5q124 45 142 54q15 7 23 13zM468 411q-51 0 -82 -53q-18 -31 -23 -72 q19 0 59 1q78 1 117 2q20 2 21 22q0 59 -44 87q-21 13 -48 13zM199 51q61 1 104 56q-20 42 -20 133q-16 -8 -98 -42q-49 -21 -57 -49q-3 -11 -3 -22q0 -53 45 -71q15 -5 29 -5z" glyph-name="ae" horiz-adv-x="671" unicode="æ"/>
<glyph d="M391 112l18 -22q-67 -81 -138 -97l-13 -19q-12 -17 -1 -32q4 -4 8 -9q37 -36 37 -67q0 -51 -78 -87q-16 -8 -34 -14l-11 26q58 26 59 61q-1 16 -23 38q-27 26 -20 45q3 7 9 15l29 38q-102 4 -158 82q-38 55 -38 125q1 120 100 196q75 58 153 58q47 0 83 -22q4 -3 7 -5 q16 -14 15 -30q-1 -23 -23 -38q-8 -5 -13 -5q-9 1 -18 11q-46 40 -103 40q-58 0 -93 -53q-27 -42 -27 -105q0 -125 88 -170q31 -16 63 -16q55 0 102 39q10 8 20 17z" glyph-name="ccedilla" horiz-adv-x="421" unicode="ç"/>
<glyph d="M380 106l15 -22q-67 -83 -148 -95q-8 -1 -15 -1q-106 0 -160 87q-35 56 -35 126q1 103 66 175q69 70 146 73h1q71 0 117 -60q33 -43 33 -92q0 -24 -15 -30l-8 -2q-48 -9 -245 -16q-9 -1 -17 -1q1 -126 81 -173q33 -19 69 -19q61 1 115 50zM225 412q-53 0 -85 -62 q-14 -27 -20 -61q84 0 170 3q23 4 24 20q1 56 -40 85q-22 15 -49 15zM265 504l-27 -13q-64 90 -117 160l3 8q17 9 62 13q11 1 16 0q10 -24 34 -89q20 -56 29 -79z" glyph-name="egrave" horiz-adv-x="425" unicode="è"/>
<glyph d="M380 106l15 -22q-67 -83 -148 -95q-8 -1 -15 -1q-106 0 -160 87q-35 56 -35 126q1 103 66 175q69 70 146 73h1q71 0 117 -60q33 -43 33 -92q0 -24 -15 -30l-8 -2q-48 -9 -245 -16q-9 -1 -17 -1q1 -126 81 -173q33 -19 69 -19q61 1 115 50zM225 412q-53 0 -85 -62 q-14 -27 -20 -61q84 0 170 3q23 4 24 20q1 56 -40 85q-22 15 -49 15zM218 494l-26 13q14 30 55 128q11 25 13 30q17 8 67 10q10 0 14 -1l3 -9z" glyph-name="eacute" horiz-adv-x="425" unicode="é"/>
<glyph d="M380 106l15 -22q-67 -83 -148 -95q-8 -1 -15 -1q-106 0 -160 87q-35 56 -35 126q1 103 66 175q69 70 146 73h1q71 0 117 -60q33 -43 33 -92q0 -24 -15 -30l-8 -2q-48 -9 -245 -16q-9 -1 -17 -1q1 -126 81 -173q33 -19 69 -19q61 1 115 50zM225 412q-53 0 -85 -62 q-14 -27 -20 -61q84 0 170 3q23 4 24 20q1 56 -40 85q-22 15 -49 15zM340 509l-25 -17q-41 39 -87 97q-52 -63 -89 -97l-24 17q50 69 101 163h25q44 -85 99 -163z" glyph-name="ecircumflex" horiz-adv-x="425" unicode="ê"/>
<glyph d="M379 106l15 -22q-66 -83 -146 -95q-9 -1 -16 -1q-104 0 -159 86q-36 56 -36 127q1 101 66 175q69 70 146 73h1q72 0 118 -61q31 -43 31 -91q0 -24 -15 -30l-8 -2q-48 -9 -245 -16q-8 -1 -15 -1q1 -126 81 -173q32 -19 68 -19q61 1 114 50zM225 412q-53 0 -85 -63 q-13 -27 -19 -60q83 0 169 3q23 4 24 20q0 59 -43 87q-21 13 -46 13zM139 538q-29 0 -43 28q-4 10 -4 20q0 33 30 45q9 4 18 4q33 0 44 -31q3 -9 3 -18q0 -32 -29 -44q-9 -4 -19 -4zM308 538q-29 0 -43 28q-4 10 -4 20q0 33 30 45q9 4 18 4q32 0 43 -30q4 -9 4 -19 q0 -32 -29 -44q-10 -4 -19 -4z" glyph-name="edieresis" horiz-adv-x="425" unicode="ë"/>
<glyph d="M253 0h-220v26q50 5 61 20q9 15 9 62v200q0 53 -13 65q-11 9 -50 15v24q78 13 142 39v-343q0 -55 15 -68q13 -10 56 -14v-26zM169 504l-27 -13q-64 90 -117 160l3 8q17 9 62 13q11 1 16 0q10 -24 34 -89q20 -56 29 -79z" glyph-name="igrave" horiz-adv-x="268" unicode="ì"/>
<glyph d="M253 0h-220v26q50 5 61 20q9 15 9 62v200q0 53 -13 65q-11 9 -50 15v24q78 13 142 39v-343q0 -55 15 -68q13 -10 56 -14v-26zM124 494l-26 13q14 30 55 128q11 25 13 30q17 8 67 10q10 0 14 -1l3 -9z" glyph-name="iacute" horiz-adv-x="268" unicode="í"/>
<glyph d="M253 0h-220v26q50 5 61 20q9 15 9 62v200q0 53 -13 65q-11 9 -50 15v24q78 13 142 39v-343q0 -55 15 -68q13 -10 56 -14v-26zM245 509l-25 -17q-41 39 -87 97q-52 -63 -89 -97l-24 17q50 69 101 163h25q44 -85 99 -163z" glyph-name="icircumflex" horiz-adv-x="268" unicode="î"/>
<glyph d="M252 0h-219v26q50 5 61 20q9 15 9 62v200q0 53 -13 65q-11 9 -50 15v24q78 13 142 39v-343q0 -55 14 -68q14 -10 56 -14v-26zM48 538q-30 0 -44 28q-4 10 -4 20q0 33 29 46q10 4 20 4q30 0 42 -30q4 -10 4 -20q0 -32 -28 -44q-10 -4 -19 -4zM216 538q-30 0 -44 28 q-4 10 -4 20q0 33 29 46q10 4 20 4q31 0 43 -30q4 -10 4 -20q0 -32 -29 -44q-10 -4 -19 -4z" glyph-name="idieresis" horiz-adv-x="268" unicode="ï"/>
<glyph d="M450 661l-113 -61q130 -140 130 -333q0 -170 -102 -242q-52 -37 -117 -37q-104 0 -166 86q-44 62 -44 135q0 128 95 197q60 43 125 43h1q52 -1 96 -25q-18 83 -72 146l-145 -78l-16 31l135 72q-79 73 -173 87q-8 11 2 26q2 3 4 4q109 -6 202 -75q9 -6 16 -12l126 67z M253 416q-68 0 -102 -74q-20 -45 -20 -105q0 -130 63 -187q31 -28 71 -28q82 0 106 118q8 42 8 95q1 102 -23 133q-4 5 -7 8q-39 40 -96 40z" glyph-name="eth" horiz-adv-x="505" unicode="ð"/>
<glyph d="M524 0h-209v26q46 5 57 20q9 15 9 63v167q-2 113 -91 114q-51 -1 -109 -51v-235q0 -54 13 -65q12 -9 52 -13v-26h-217v26q53 5 63 19q10 13 10 59v206q0 51 -13 63q-11 8 -47 15v23q82 16 139 40v-79q22 16 67 47q47 30 83 30q88 0 118 -80q11 -32 11 -72v-193 q0 -54 13 -65q12 -9 51 -13v-26zM167 521l-26 16q31 87 81 90q21 -1 58 -20t53 -19q23 2 43 45l25 -13q-29 -89 -79 -90q-23 1 -66 23q-29 16 -45 16q-25 -2 -44 -48z" glyph-name="ntilde" horiz-adv-x="547" unicode="ñ"/>
<glyph d="M257 449q102 0 166 -78q50 -63 50 -145q0 -131 -95 -198q-56 -40 -122 -40q-112 0 -176 87q-43 60 -43 134q0 132 98 200q58 40 122 40zM244 416q-58 0 -91 -63q-23 -47 -23 -112q0 -127 61 -187q33 -33 76 -33q93 0 110 126q3 27 3 57q0 125 -60 182q-33 30 -76 30z M295 504l-27 -13q-64 90 -117 160l3 8q17 9 62 13q11 1 16 0q10 -24 34 -89q20 -56 29 -79z" glyph-name="ograve" horiz-adv-x="510" unicode="ò"/>
<glyph d="M257 449q102 0 166 -78q50 -63 50 -145q0 -131 -95 -198q-56 -40 -122 -40q-112 0 -176 87q-43 60 -43 134q0 132 98 200q58 40 122 40zM244 416q-58 0 -91 -63q-23 -47 -23 -112q0 -127 61 -187q33 -33 76 -33q93 0 110 126q3 27 3 57q0 125 -60 182q-33 30 -76 30z M245 494l-26 13q14 30 55 128q11 25 13 30q17 8 67 10q10 0 14 -1l3 -9z" glyph-name="oacute" horiz-adv-x="510" unicode="ó"/>
<glyph d="M257 449q102 0 166 -78q50 -63 50 -145q0 -131 -95 -198q-56 -40 -122 -40q-112 0 -176 87q-43 60 -43 134q0 132 98 200q58 40 122 40zM244 416q-58 0 -91 -63q-23 -47 -23 -112q0 -127 61 -187q33 -33 76 -33q93 0 110 126q3 27 3 57q0 125 -60 182q-33 30 -76 30z M367 509l-25 -17q-41 39 -87 97q-52 -63 -89 -97l-24 17q50 69 101 163h25q44 -85 99 -163z" glyph-name="ocircumflex" horiz-adv-x="510" unicode="ô"/>
<glyph d="M257 449q102 0 166 -78q50 -63 50 -145q0 -131 -95 -198q-56 -40 -122 -40q-112 0 -176 87q-43 60 -43 134q0 132 98 200q58 40 122 40zM244 416q-58 0 -91 -63q-23 -47 -23 -112q0 -127 61 -187q33 -33 76 -33q93 0 110 126q3 27 3 57q0 125 -60 182q-33 30 -76 30z M150 521l-25 16q31 87 81 90q21 -1 58 -20t53 -19q23 2 43 45l25 -13q-29 -89 -79 -90q-25 1 -66 23q-29 16 -46 16q-23 -2 -44 -48z" glyph-name="otilde" horiz-adv-x="510" unicode="õ"/>
<glyph d="M258 449q100 0 164 -77q51 -63 51 -146q0 -131 -94 -198q-57 -40 -122 -40q-113 0 -177 87q-43 60 -43 134q0 131 98 199q58 41 123 41zM245 416q-58 0 -91 -63q-23 -47 -23 -112q0 -127 61 -187q33 -33 76 -33q87 0 107 114q5 31 5 69q0 125 -60 182q-32 30 -75 30z M170 538q-29 0 -43 28q-4 10 -4 20q0 33 30 45q9 4 18 4q32 0 43 -30q4 -9 4 -19q0 -32 -29 -44q-10 -4 -19 -4zM339 538q-30 0 -44 28q-4 10 -4 20q0 33 30 45q10 4 19 4q32 0 43 -30q4 -9 4 -19q0 -32 -29 -44q-10 -4 -19 -4z" glyph-name="odieresis" horiz-adv-x="510" unicode="ö"/>
<glyph d="M291 354q-29 0 -43 27q-5 11 -5 22q0 29 28 44q11 5 21 5q31 0 45 -28q5 -11 5 -21q0 -33 -31 -45q-10 -4 -20 -4zM529 229h-478v50h478v-50zM292 154q27 0 42 -26q6 -11 6 -23q0 -29 -29 -44q-10 -5 -20 -5q-33 0 -46 30q-4 10 -4 19q0 34 32 46q9 3 19 3z" glyph-name="divide" horiz-adv-x="580" unicode="÷"/>
<glyph d="M432 453l-35 -52q76 -70 79 -174q0 -129 -91 -197q-58 -42 -125 -42q-65 1 -117 31l-39 -55l-25 22l37 52q-69 60 -78 152q-1 10 -1 20q0 129 98 197q60 42 125 42q59 -1 109 -30l37 53zM157 100l181 272q-35 42 -89 44q-64 0 -99 -67q-24 -48 -24 -116q0 -80 31 -133z M358 341l-180 -271q32 -48 91 -49q68 0 100 76q19 47 19 116q0 74 -30 128z" glyph-name="oslash" horiz-adv-x="513" unicode="ø"/>
<glyph d="M518 50v-26q-33 -5 -77 -16q-13 -4 -39 -11q-22 -7 -31 -9l-6 6v71q-57 -42 -74 -52q-43 -25 -77 -25q-87 0 -114 81q-10 30 -10 68v196q0 49 -16 58q-6 3 -17 6l-28 6v23q20 1 72 7q59 9 71 11q-3 -32 -3 -145v-135q1 -112 88 -113q59 1 108 48v234q0 48 -17 57 q-8 4 -25 7l-36 6v23q44 2 90 8q37 4 67 10v-334q0 -44 15 -52q10 -5 32 -7zM293 504l-27 -13q-103 142 -117 160l3 8q14 9 63 13h15q9 -23 32 -85q21 -59 31 -83z" glyph-name="ugrave" horiz-adv-x="531" unicode="ù"/>
<glyph d="M518 50v-26q-33 -5 -77 -16q-13 -4 -39 -11q-22 -7 -31 -9l-6 6v71q-57 -42 -74 -52q-43 -25 -77 -25q-87 0 -114 81q-10 30 -10 68v196q0 49 -16 58q-6 3 -17 6l-28 6v23q20 1 72 7q59 9 71 11q-3 -32 -3 -145v-135q1 -112 88 -113q59 1 108 48v234q0 48 -17 57 q-8 4 -25 7l-36 6v23q44 2 90 8q37 4 67 10v-334q0 -44 15 -52q10 -5 32 -7zM252 493l-26 13q3 6 6.5 14.5t7 16.5t8 18.5t8 19.5t8.5 20t8 18.5l7 17.5l6 15t5 12l3 7q17 8 67 10q10 0 14 -1l3 -9z" glyph-name="uacute" horiz-adv-x="531" unicode="ú"/>
<glyph d="M518 50v-26q-33 -5 -77 -16q-13 -4 -39 -11q-22 -7 -31 -9l-6 6v71q-57 -42 -74 -52q-43 -25 -77 -25q-87 0 -114 81q-10 30 -10 68v196q0 49 -16 58q-6 3 -17 6l-28 6v23q20 1 72 7q59 9 71 11q-3 -32 -3 -145v-135q1 -112 88 -113q59 1 108 48v234q0 48 -17 57 q-8 4 -25 7l-36 6v23q44 2 90 8q37 4 67 10v-334q0 -44 15 -52q10 -5 32 -7zM374 508l-24 -17q-41 38 -88 97q-48 -58 -89 -97l-24 17q50 69 101 163h25q47 -89 99 -163z" glyph-name="ucircumflex" horiz-adv-x="531" unicode="û"/>
<glyph d="M518 50v-26q-33 -5 -77 -16q-13 -4 -39 -11q-22 -7 -31 -9l-6 6v71q-57 -42 -74 -52q-43 -25 -77 -25q-87 0 -114 81q-10 30 -10 68v196q0 50 -16 59q-6 3 -17 5l-28 6v24q35 2 72 6q59 9 71 11q-3 -32 -3 -145v-135q1 -112 88 -113q59 1 108 48v234q0 48 -17 57 q-8 4 -25 7l-36 6v24q35 1 90 7q37 4 67 10v-334q0 -44 15 -52q10 -5 32 -7zM173 539q-29 0 -43 28q-4 10 -4 20q0 33 30 45q9 4 18 4q33 0 44 -31q3 -9 3 -18q0 -32 -29 -44q-9 -4 -19 -4zM342 538q-30 0 -44 28q-4 10 -4 20q0 33 29 46q10 4 20 4q30 0 42 -30q4 -10 4 -20 q0 -32 -28 -44q-10 -4 -19 -4z" glyph-name="udieresis" horiz-adv-x="531" unicode="ü"/>
<glyph d="M478 437v-26q-45 -7 -61 -25q-11 -13 -27 -47q-9 -19 -103 -245q-12 -29 -23 -56q-86 -205 -103 -270q-7 -24 -32 -25q-31 0 -49 27q-7 11 -7 21q1 20 25 37q39 23 72 82q2 3 3 6q18 34 31 68v1q6 21 -2 45q-67 191 -114 306q-20 49 -38 61q-16 10 -48 14v26h202l1 -26 q-41 -6 -44 -22q-2 -11 6 -33l90 -250q56 137 92 249q11 34 -6 44q-13 8 -46 12v26h181zM244 494l-26 13q14 30 55 128q11 25 13 30q17 8 67 10q10 0 14 -1l3 -9z" glyph-name="yacute" horiz-adv-x="459" unicode="ý"/>
<glyph d="M156 712v-328q46 25 111 57q17 8 35 8q93 0 143 -80q31 -50 31 -109q0 -133 -108 -212q-62 -46 -142 -60q-37 3 -70 20v-138q0 -54 16 -67q15 -12 73 -16v-26h-240v26q50 5 61 18q11 15 11 62v711q0 52 -11 63q-12 10 -59 14v25q78 8 149 32zM156 351v-271q30 -33 82 -40 q9 -1 16 -1q77 0 115 68q24 45 24 111q0 118 -76 158q-29 14 -62 14q-41 -1 -99 -39z" glyph-name="thorn" horiz-adv-x="514" unicode="þ"/>
</font>
</defs>
</svg>
