<?xml version="1.0" encoding="UTF-8"?>
<!DOCTYPE svg  PUBLIC '-//W3C//DTD SVG 1.1//EN'  'http://www.w3.org/Graphics/SVG/1.1/DTD/svg11.dtd'>
<svg version="1.1" xmlns="http://www.w3.org/2000/svg">
<defs>
<font id="Neuton-Light" horiz-adv-x="1326">
<font-face font-family="Neuton Light" font-weight="300" ascent="1638" bbox="28 -417 1795 1731" cap-height="1244" descent="-410" panose-1="0 0 4 0 0 0 0 0 0 0" underline-position="-361" underline-thickness="0" unicode-range="U+0020-2039" units-per-em="2048" x-height="861"/>
<missing-glyph/>
<glyph glyph-name="space" horiz-adv-x="316" unicode=" "/>
<glyph d="M178 361q21 254 36.5 512.5t15.5 380.5q0 21 -17.5 30t-41.5 9q-33 0 -66.5 -10.5t-33.5 -28.5q0 -85 12.5 -362.5t27.5 -515.5zM213 -3q25 32 25 81q0 45 -27 75.5t-66 30.5q-38 0 -64 -30t-26 -75q0 -48 24.5 -81t65.5 -33q43 0 68 32z" glyph-name="exclam" horiz-adv-x="293" unicode="!"/>
<glyph d="M96 891l73 8l36 392l-145 12zM283 891l74 8l36 392l-147 12z" glyph-name="quotedbl" horiz-adv-x="453" unicode='"'/>
<glyph d="M1027 712h-252l-42 -285h245l-26 -101h-234l-52 -345l-94 -7l53 352h-225l-52 -345l-93 -7l53 352h-265l27 101h253l43 285h-252l28 101h239l51 337l93 10l-52 -347h225l51 337l93 9l-52 -346h262zM640 427l43 285h-225l-43 -285h225z" glyph-name="numbersign" horiz-adv-x="1095" unicode="#"/>
<glyph d="M763 171.5q-41 -72.5 -113.5 -120.5t-166.5 -66l11 -149l-145 -15l10 154q-97 4 -180.5 44.5t-131.5 99.5l22 276l75 -11l33 -203q28 -49 85.5 -82.5t126.5 -40.5v506q-98 58 -160 105t-104 114t-42 155t38 156t102.5 110.5t141.5 57.5l-11 133l137 16l-13 -142 q74 -5 139.5 -31.5t113.5 -72.5l-27 -296l-73 9l-26 218q-18 34 -62 63t-94 38v-476l48 -29q102 -60 162.5 -104.5t102.5 -108.5t42 -148q0 -87 -41 -159.5zM264.5 867.5q45.5 -57.5 128.5 -111.5v443q-76 -6 -125 -58t-49 -140q0 -76 45.5 -133.5zM553 91q47 26 75.5 72.5 t28.5 110.5q0 77 -53 134.5t-153 118.5v-468q55 6 102 32z" glyph-name="dollar" horiz-adv-x="850" unicode="$"/>
<glyph d="M647 591l-347 -631l-146 14l376 614l316 555l-377 7q18 -22 32.5 -70.5t22.5 -100.5t8 -80q0 -83 -36 -156t-93 -116t-116 -43q-64 0 -119.5 39t-88.5 111t-33 165q0 82 34.5 154.5t90.5 116t117 43.5q24 0 36 -4v-56q-12 9 -19.5 12t-20.5 3q-56 0 -83 -83t-27 -186 q0 -62 13 -122.5t39 -100t61 -39.5q58 0 87.5 79.5t29.5 182.5q0 184 -46 297l527 15l130 -4l-2 -16zM1009.5 549.5q55.5 -41.5 87 -114t31.5 -161.5q0 -82 -35.5 -153.5t-91.5 -114t-115 -42.5q-64 0 -120 39t-90 110.5t-34 163.5q0 82 34.5 154.5t90.5 116t117 43.5 q70 0 125.5 -41.5zM973 95.5q29 79.5 29 184.5q0 63 -14 124.5t-41 101.5t-63 40q-58 0 -85.5 -83t-27.5 -186q0 -62 13.5 -122.5t39.5 -99.5t62 -39q58 0 87 79.5z" glyph-name="percent" horiz-adv-x="1177" unicode="%"/>
<glyph d="M529 13q71 33 124 86t104 128l95 -105q53 -59 117.5 -100.5t134.5 -41.5q31 0 53.5 4t52.5 14l10 54l-39 12q-60 19 -148 91.5t-196 200.5l219 367l169 34l8 55h-425l-6 -55l157 -37l-183 -303l-243 276v7q117 78 179.5 154t62.5 162q0 124 -72.5 190t-200.5 66 q-78 0 -146.5 -41.5t-109 -110t-40.5 -145.5q0 -75 41 -150.5t101 -137.5q-141 -91 -219 -189.5t-78 -219.5q0 -86 39 -154t111 -106t166 -38q91 0 162 33zM564.5 1172.5q36.5 -27.5 56 -74.5t19.5 -104q0 -76 -40.5 -130t-121.5 -112q-64 66 -108 137t-44 136q0 46 18.5 86 t53.5 64.5t80 24.5q50 0 86.5 -27.5zM400 626l298 -340q-52 -88 -122.5 -144t-156.5 -56q-66 0 -115.5 34t-76 91t-26.5 126q0 88 51 157.5t138 132.5z" glyph-name="ampersand" horiz-adv-x="1277" unicode="&amp;"/>
<glyph d="M96 891l73 8l36 392l-146 12z" glyph-name="quotesingle" horiz-adv-x="265" unicode="'"/>
<glyph d="M401 1256q-68 -58 -139 -144.5t-134.5 -255.5t-63.5 -406q0 -328 112 -527t220 -298l48 45q-49 80 -97.5 177.5t-93 259.5t-44.5 349q0 195 36.5 341t84.5 235.5t108 168.5z" glyph-name="parenleft" horiz-adv-x="478" unicode="("/>
<glyph d="M231.5 107q-44.5 -162 -93 -259.5t-97.5 -177.5l48 -45q108 99 220 298t112 527q0 237 -63.5 406t-134.5 255.5t-139 144.5l-37 -55q60 -79 108 -168.5t84.5 -235.5t36.5 -341q0 -187 -44.5 -349z" glyph-name="parenright" horiz-adv-x="477" unicode=")"/>
<glyph d="M371 974l-276 118l-48 -114l310 -66l-198 -227l93 -81l161 278l156 -259l105 63l-212 237l291 67l-27 116l-290 -125l25 299l-123 11z" glyph-name="asterisk" horiz-adv-x="801" unicode="*"/>
<glyph d="M275 417v-231l91 -13l-2 244h209l11 86h-220l-1 227l-88 12v-239h-209l-12 -86h221z" glyph-name="plus" horiz-adv-x="637" unicode="+"/>
<glyph d="M292 -167q61 85 61 176q0 69 -23.5 116t-60 70t-75.5 23q-43 0 -75.5 -28.5t-32.5 -77.5q0 -17 8 -41q13 3 29 3q48 0 80 -35.5t32 -88.5q0 -131 -180 -190l18 -58q158 46 219 131z" glyph-name="comma" horiz-adv-x="414" unicode=","/>
<glyph d="M473 426l11 81l-408 -18l-11 -80z" glyph-name="hyphen" horiz-adv-x="545" unicode="-"/>
<glyph d="M222 -1q25 31 25 81q0 48 -26 77t-67 29t-65.5 -28.5t-24.5 -76.5q0 -50 25 -81.5t66 -31.5q42 0 67 31z" glyph-name="period" horiz-adv-x="309" unicode="."/>
<glyph d="M144 -355l466 1599l-107 -6l-463 -1599z" glyph-name="slash" horiz-adv-x="651" unicode="/"/>
<glyph d="M659 37q90 64 145.5 202t55.5 348q0 200 -48.5 338.5t-137 208t-210.5 69.5q-113 0 -206 -71.5t-148 -211t-55 -333.5q0 -218 53.5 -355t144.5 -198t210 -61q106 0 196 64zM634.5 985.5q56.5 -139.5 56.5 -398.5q0 -274 -54 -406.5t-172 -132.5q-122 0 -182 134t-60 402 q0 263 56.5 402t181.5 139q117 0 173.5 -139.5z" glyph-name="zero" horiz-adv-x="917" unicode="0"/>
<glyph d="M741 1l9 69l-268 28v1087h-27l-386 -64l-5 -61h259v-957l-274 -42l-4 -60h696z" glyph-name="one" horiz-adv-x="792" unicode="1"/>
<glyph d="M818 0l47 353l-55 8l-95 -243h-499l79 62q181 144 283 237.5t171 205.5t69 237q0 171 -92 260t-250 89q-73 0 -146 -22t-129.5 -57.5t-84.5 -72.5l10 -269l57 -8l41 241q24 45 77.5 76t128.5 31q111 0 162.5 -81.5t51.5 -204.5q0 -104 -41 -194.5t-118 -176.5t-202 -193 l-238 -204l6 -74h767z" glyph-name="two" horiz-adv-x="910" unicode="2"/>
<glyph d="M561.5 16.5q101.5 49.5 163 136t61.5 192.5q0 78 -41 138.5t-112.5 98.5t-161.5 51v10q67 25 128 69t101 107.5t40 139.5t-39 133t-107 88t-152 31q-109 0 -198.5 -37.5t-135.5 -81.5l7 -248l64 -11l43 224q70 80 169 80q59 0 100 -30t61.5 -78t20.5 -100 q0 -121 -90 -197t-205 -127l6 -50q95 -2 172 -36t120.5 -93t43.5 -134q0 -77 -32 -135t-90 -89.5t-134 -31.5q-63 0 -117.5 31t-77.5 71l-10 204l-67 11l-45 -263q19 -32 63 -60.5t105.5 -45.5t129.5 -17q115 0 216.5 49.5z" glyph-name="three" horiz-adv-x="835" unicode="3"/>
<glyph d="M559 361v-266l-247 -38l-7 -57h592l11 64l-206 25v268h239l16 105h-255v221q0 315 9 493l-49 15l-617 -776l19 -54h495zM555 948v-486h-362z" glyph-name="four" horiz-adv-x="1004" unicode="4"/>
<glyph d="M543 36.5q97 52.5 152 141t55 190.5q0 109 -52 195.5t-163 141.5t-282 66l44 261l385 17l21 149l-449 -27l-115 -532q217 -14 340.5 -98.5t123.5 -232.5q0 -75 -28.5 -131.5t-81 -87.5t-123.5 -31q-62 0 -115 24t-93 73l-18 200l-67 14l-28 -281q57 -55 126 -79.5 t152 -24.5q119 0 216 52.5z" glyph-name="five" horiz-adv-x="801" unicode="5"/>
<glyph d="M616.5 28.5q89.5 49.5 141.5 137t52 196.5q0 100 -39 179t-111 123.5t-168 44.5q-147 0 -255 -100h-9q35 175 136 322t294 233l-29 50q-158 -54 -289.5 -178t-208 -286.5t-76.5 -327.5q0 -123 37.5 -223t119 -160t207.5 -60q108 0 197.5 49.5zM300.5 594.5 q54.5 24.5 118.5 24.5q73 0 124.5 -39.5t77.5 -106t26 -146.5q0 -136 -50 -209.5t-163 -73.5q-61 0 -110 47.5t-77.5 130.5t-28.5 185q0 85 7 133q21 30 75.5 54.5z" glyph-name="six" horiz-adv-x="862" unicode="6"/>
<glyph d="M100 820l68 227h551l-474 -1063l159 -17l433 1163v52h-763l-28 -353z" glyph-name="seven" horiz-adv-x="879" unicode="7"/>
<glyph d="M576.5 14q87.5 41 136.5 113.5t49 163.5q0 68 -26.5 122t-77.5 101.5t-135 104.5l3 6q83 43 138.5 124t55.5 178q0 77 -35 139.5t-102 99t-159 36.5q-94 0 -169 -41.5t-117.5 -111.5t-42.5 -152q0 -94 47.5 -166.5t136.5 -133.5v-7q-230 -136 -230 -309 q0 -89 43.5 -159.5t118.5 -109.5t166 -39q112 0 199.5 41zM496 1107.5q46 -33.5 73 -91t27 -126.5q0 -83 -34 -139t-93 -95q-137 88 -195.5 156t-58.5 143q0 52 22 94.5t63.5 67t97.5 24.5q52 0 98 -33.5zM560 386q72 -73 72 -153q0 -87 -54.5 -136.5t-146.5 -49.5 q-56 0 -112 31.5t-93 92t-37 141.5q0 85 37 139.5t106 105.5q156 -98 228 -171z" glyph-name="eight" horiz-adv-x="810" unicode="8"/>
<glyph d="M608 576h10q-26 -192 -130 -335t-329 -210l19 -58q182 34 322 150t216 284t76 353q0 123 -38 224.5t-119 163t-205 61.5q-101 0 -189 -51t-140.5 -140.5t-52.5 -199.5q0 -100 35.5 -178.5t103.5 -123t162 -44.5q150 0 259 104zM523.5 1098.5q49.5 -45.5 78 -125.5 t28.5 -180q0 -91 -9 -142q-23 -35 -75.5 -60.5t-115.5 -25.5q-73 0 -123.5 38.5t-75.5 104t-25 145.5q0 143 49.5 217t159.5 74q59 0 108.5 -45.5z" glyph-name="nine" horiz-adv-x="845" unicode="9"/>
<glyph d="M217 660q24 30 24 79q0 46 -24.5 74.5t-63.5 28.5t-63.5 -28t-24.5 -74q0 -49 24 -79.5t64 -30.5t64 30zM215.5 30.5q23.5 30.5 23.5 79.5q0 46 -24.5 73.5t-63.5 27.5t-63.5 -27.5t-24.5 -73.5q0 -48 24.5 -79t64.5 -31t63.5 30.5z" glyph-name="colon" horiz-adv-x="302" unicode=":"/>
<glyph d="M240 660q25 31 25 81q0 48 -26 77t-67 29t-65.5 -28.5t-24.5 -76.5q0 -50 25 -81.5t66 -31.5q42 0 67 31zM284 -172.5q61 81.5 61 169.5q0 66 -23.5 111t-60 67t-75.5 22q-43 0 -75.5 -27.5t-32.5 -73.5q0 -16 8 -40q14 3 29 3q48 0 80 -34t32 -85q0 -125 -180 -183 l18 -55q158 44 219 125.5z" glyph-name="semicolon" horiz-adv-x="397" unicode=";"/>
<glyph d="M706 -82l42 57l-491 462l471 477l-35 60l-621 -518l-1 -29z" glyph-name="less" horiz-adv-x="764" unicode="&lt;"/>
<glyph d="M680 569l11 86h-615l-11 -86h615zM677 330l11 85h-615l-11 -85h615z" glyph-name="equal" horiz-adv-x="754" unicode="="/>
<glyph d="M84 -82l635 509l-1 29l-621 518l-35 -60l471 -477l-491 -462z" glyph-name="greater" horiz-adv-x="766" unicode="&gt;"/>
<glyph d="M185.5 1127q51.5 20 108.5 20q47 0 89 -29t67.5 -76t25.5 -99q0 -39 -19 -68.5t-47 -49.5t-76 -48q-54 -31 -87.5 -56t-56.5 -63.5t-23 -92.5q0 -56 25 -116t56 -95l58 17q-35 86 -35 137q0 35 17 61.5t42 45.5t70 47q55 34 88.5 61t57.5 69t24 101q0 105 -47 196 t-123 144.5t-159 53.5q-59 0 -104 -19.5t-69.5 -49t-24.5 -59.5q0 -28 17.5 -51.5t41.5 -34.5q32 34 83.5 54zM352 -3q25 32 25 81q0 45 -26.5 75.5t-65.5 30.5q-38 0 -64.5 -30t-26.5 -75q0 -48 25 -81t66 -33q42 0 67 32z" glyph-name="question" horiz-adv-x="617" unicode="?"/>
<glyph d="M838.5 -205q78.5 22 127 49t119.5 74l-29 51q-26 -22 -84.5 -50t-132 -48t-142.5 -20q-161 0 -278 62.5t-179 176.5t-62 265q0 168 69 309.5t193 224.5t280 83q119 0 221 -52t162.5 -149t60.5 -226q0 -112 -39.5 -202t-105 -140.5t-141.5 -50.5q-17 0 -24 11.5t-7 38.5 q0 23 5 64.5t6 52.5l8 66l42 367l-18 21q-43 10 -77 13.5t-75 3.5q-87 0 -176 -58.5t-147 -165t-58 -241.5q0 -126 44 -195.5t120 -69.5q53 0 110 39t90 88h9q-3 -55 12 -86.5t59 -31.5q133 0 241 71t169 189t61 253q0 134 -69.5 239.5t-187.5 164.5t-258 59 q-206 0 -365.5 -98.5t-247.5 -263t-88 -354.5q0 -183 84.5 -308.5t222 -186.5t297.5 -61q100 0 178.5 22zM738.5 710.5q30.5 -3.5 47.5 -7.5l-54 -455q-28 -32 -79 -60t-89 -28q-84 0 -84 209q0 91 26 170t73 127t105 48q24 0 54.5 -3.5z" glyph-name="at" horiz-adv-x="1325" unicode="@"/>
<glyph d="M480 0l10 63l-185 32l131 360h425l124 -354l-169 -43l-10 -58h462l8 64l-135 31l-402 1173l-102 -22l-438 -1145l-145 -43l-8 -58h434zM657 1060l180 -526h-373z" glyph-name="A" unicode="A"/>
<glyph d="M831 52.5q119 52.5 169.5 137.5t50.5 190q0 69 -36 134.5t-106 109t-168 48.5v7q101 46 153.5 121t52.5 167q0 79 -46 144.5t-140 105.5t-231 40q-104 0 -195 -9.5t-218 -28.5l-55 -8l-9 -56l171 -26v-1033l-168 -38l-10 -58h472q194 0 313 52.5zM471 1192 q166 0 248.5 -73.5t82.5 -196.5q0 -82 -41 -142.5t-106 -94.5h-284v501q32 6 100 6zM610 618q99 0 164.5 -40t95.5 -102t30 -129q0 -72 -30.5 -133.5t-97.5 -100t-169 -38.5h-232v543h239z" glyph-name="B" horiz-adv-x="1097" unicode="B"/>
<glyph d="M789.5 8.5q90.5 33.5 158.5 84t107 102.5l-29 57q-71 -72 -164 -120t-193 -48q-133 0 -236 66t-161.5 194t-58.5 307q0 159 52 283t141 192.5t195 68.5q184 0 268 -109l36 -240l68 -10l31 335q-130 99 -351 99q-198 0 -334 -101.5t-202.5 -256.5t-66.5 -313 q0 -191 72.5 -332.5t198 -216.5t279.5 -75q99 0 189.5 33.5z" glyph-name="C" horiz-adv-x="1096" unicode="C"/>
<glyph d="M921 89.5q168 89.5 250.5 238t82.5 326.5q0 167 -66 302.5t-221.5 219t-409.5 83.5q-104 0 -219 -12t-274 -37l-10 -56l173 -26v-1027l-171 -43l-11 -58h463q245 0 413 89.5zM521 1181q184 0 312.5 -74.5t193 -206t64.5 -301.5q0 -151 -65.5 -269t-191.5 -184.5 t-299 -66.5h-162v1097q41 5 148 5z" glyph-name="D" horiz-adv-x="1302" unicode="D"/>
<glyph d="M228 1151v-1055l-169 -38l-6 -58h970l30 313l-62 11l-86 -249h-529v519h303l25 -186l66 11l33 389l-72 -11l-40 -129h-315v505h503l30 -239l67 -9l31 319h-951l-9 -59z" glyph-name="E" horiz-adv-x="1098" unicode="E"/>
<glyph d="M227 1151v-1055l-169 -38l-5 -58h551l12 68l-241 28l1 483h301l24 -188l69 11l29 390l-71 -10l-41 -130h-311v521h497l28 -240l68 -10l37 321h-950l-8 -59z" glyph-name="F" horiz-adv-x="1053" unicode="F"/>
<glyph d="M868 -2.5q112 23.5 209 81.5v388l129 32l10 57h-518l-10 -61l239 -32l-1 -344q-40 -27 -96.5 -42.5t-119.5 -15.5q-164 0 -275.5 81t-166 213t-54.5 285q0 168 54.5 290.5t150.5 187t216 64.5q109 0 193.5 -35t124.5 -81l33 -214l66 -11l28 321q-72 49 -178 74.5 t-225 25.5q-175 0 -318.5 -90.5t-226 -244.5t-82.5 -336q0 -181 67.5 -321t192 -218t291.5 -78q155 0 267 23.5z" glyph-name="G" horiz-adv-x="1258" unicode="G"/>
<glyph d="M228 1154v-1058l-168 -38l-6 -58h497l12 63l-186 27v501l673 1v-496l-165 -38l-10 -58h499l8 63l-182 27v1066l167 31l9 57h-500l-9 -57l183 -33v-482h-673v484l169 31l8 57h-501l-7 -57z" glyph-name="H" horiz-adv-x="1435" unicode="H"/>
<glyph d="M223 1154v-1058l-162 -38l-7 -58h497l10 63l-187 27v1066l172 31l9 57h-501l-8 -57z" glyph-name="I" horiz-adv-x="614" unicode="I"/>
<glyph d="M292.5 -146.5q72.5 81.5 105 199.5t33.5 319l2 784l170 31l9 57h-503l-8 -57l182 -33v-945q0 -135 -60 -245t-185 -223l38 -66q144 97 216.5 178.5z" glyph-name="J" horiz-adv-x="656" unicode="J"/>
<glyph d="M227 1149v-1048l-164 -43l-8 -58h500l10 63l-187 32v1057l171 35l7 57h-500l-10 -57zM696 246q68 -87 123 -143t117.5 -90t133.5 -34q30 0 56.5 5.5t62.5 17.5l11 56l-46 10q-60 14 -109.5 48t-98 85t-137.5 157l-245 291l411 503l165 35l7 57h-450l-6 -57l165 -36 l-289 -361q-50 -62 -150 -167l2 -19z" glyph-name="K" horiz-adv-x="1251" unicode="K"/>
<glyph d="M998 0l34 331l-64 10l-105 -266h-487v1077l175 34l7 58h-502l-9 -58l180 -38v-1052l-167 -38l-8 -58h946z" glyph-name="L" horiz-adv-x="1078" unicode="L"/>
<glyph d="M491 0l10 60l-183 26l71 973l376 -1018l89 14l423 1032l57 -995l-169 -38l-8 -54h499l6 60l-181 26l-54 1068l171 34l7 56h-360l-67 -152l-334 -824l-287 785l-75 191h-360l-9 -56l184 -37l-77 -1059l-168 -38l-8 -54h447z" glyph-name="M" horiz-adv-x="1711" unicode="M"/>
<glyph d="M229 1147v-1051l-167 -38l-6 -58h448l10 63l-184 27v957l713 -1071l104 21v1159l166 31l11 57h-450l-9 -57l185 -33v-929l-667 1019h-327l-10 -56z" glyph-name="N" horiz-adv-x="1368" unicode="N"/>
<glyph d="M935.5 65q140.5 92 211.5 241.5t71 317.5q0 182 -65 330t-189 234t-295 86q-187 0 -327.5 -82.5t-216 -231t-75.5 -340.5q0 -178 69 -326t194 -234.5t286 -86.5q196 0 336.5 92zM855.5 1112.5q97.5 -84.5 147 -226.5t49.5 -312q0 -131 -41.5 -248.5t-132.5 -192.5 t-231 -75t-237 83.5t-145 224.5t-48 312q0 140 40.5 257t131 189.5t231.5 72.5q138 0 235.5 -84.5z" glyph-name="O" horiz-adv-x="1266" unicode="O"/>
<glyph d="M603 65l-235 29v1092q11 1 45.5 3.5t60.5 2.5q117 0 196.5 -44.5t118 -119t38.5 -163.5q0 -139 -84.5 -221t-259.5 -89l-53 -2l15 -62q34 -3 74 -3q124 0 233 51.5t175 144t66 209.5q0 191 -137.5 277t-355.5 86q-103 0 -194.5 -10t-209.5 -29l-37 -6l-8 -56l166 -26 v-1033l-163 -38l-8 -58h546z" glyph-name="P" horiz-adv-x="1039" unicode="P"/>
<glyph d="M672 -21q13 -105 61 -188t122 -129.5t162 -46.5q101 0 164 30q3 8 6 27.5t4 33.5q-124 16 -203.5 46.5t-134.5 86.5t-98 152q146 34 252.5 130.5t162 230t55.5 277.5q0 180 -65 327t-189.5 232.5t-294.5 85.5q-186 0 -328.5 -84.5t-220 -234.5t-77.5 -341q0 -177 71 -324 t196.5 -232t282.5 -85q38 0 72 6zM857.5 1108.5q101.5 -84.5 156 -227.5t54.5 -313q0 -121 -41 -230t-124 -186.5t-204 -104.5q-158 6 -269 95.5t-167 230t-56 297.5q0 156 49 274t142.5 183.5t224.5 65.5q133 0 234.5 -84.5z" glyph-name="Q" horiz-adv-x="1273" unicode="Q"/>
<glyph d="M564 64l-200 32v458h194l181 -309q76 -128 150 -196t169 -68q31 0 53.5 3t52.5 14l11 53l-41 13q-49 15 -85.5 42t-79 78.5t-112.5 151.5l-186 268v1q143 61 212 151.5t69 195.5q0 153 -123 227.5t-328 74.5q-101 0 -203 -11.5t-237 -33.5l-10 -56l166 -26v-1031 l-162 -38l-9 -58h508zM410 1187q36 2 75 2q96 0 165.5 -34t106.5 -96.5t37 -148.5q0 -99 -62.5 -174t-154.5 -108h-213v556q10 1 46 3z" glyph-name="R" horiz-adv-x="1223" unicode="R"/>
<glyph d="M596 20.5q97 45.5 153 127t56 183.5q0 84 -42.5 148.5t-103 109t-162.5 104.5q-94 56 -148.5 94.5t-91.5 92t-37 121.5q0 63 26 108t70.5 68t98.5 23q58 0 114 -32t77 -72l26 -218l73 -9l27 296q-54 51 -129 78t-158 27q-92 0 -175 -39.5t-134.5 -115t-51.5 -177.5 q0 -89 43.5 -157t105.5 -114t165 -108q88 -52 139.5 -89t86 -86t34.5 -110q0 -70 -34.5 -119t-89.5 -73.5t-115 -24.5q-77 0 -143.5 34.5t-97.5 89.5l-33 203l-75 11l-22 -276q51 -62 140 -103t193 -41q118 0 215 45.5z" glyph-name="S" horiz-adv-x="850" unicode="S"/>
<glyph d="M55 923l71 -11l45 261h325v-1077l-172 -38l-6 -58h497l12 63l-181 31v1079h338l27 -253l73 -11l34 335h-1072z" glyph-name="T" horiz-adv-x="1166" unicode="T"/>
<glyph d="M226 465q0 -492 467 -492q250 0 364 133t116 397l5 653l166 31l9 57h-451l-8 -57l184 -33l-1 -688q0 -195 -89.5 -294t-253.5 -99q-169 0 -264.5 102.5t-95.5 327.5v653l169 31l7 57h-498l-9 -57l183 -33v-689z" glyph-name="U" horiz-adv-x="1398" unicode="U"/>
<glyph d="M191 1152l416 -1177l102 21l434 1160l130 32l5 56h-422l-6 -56l185 -36l-348 -946l-330 950l169 32l7 56h-482l-7 -56z" glyph-name="V" horiz-adv-x="1325" unicode="V"/>
<glyph d="M175 1153l331 -1177l117 20l290 975l265 -996l109 21l380 1158l120 34l8 56h-417l-8 -55l184 -38l-292 -918l-266 981l-111 -15l-290 -974l-264 931l166 34l9 54h-454l-8 -56z" glyph-name="W" horiz-adv-x="1841" unicode="W"/>
<glyph d="M449 0l12 62l-166 27l333 461l309 -460l-162 -39l-9 -51h465l10 58l-136 26l-378 570l368 505l126 29l4 56h-402l-9 -57l171 -32l-314 -428l-289 425l156 37l7 55h-466l-8 -55l137 -35l364 -534l-391 -528l-126 -36l-9 -56h403z" glyph-name="X" horiz-adv-x="1294" unicode="X"/>
<glyph d="M183 1152l354 -655v-401l-162 -38l-8 -58h483l9 63l-172 28v418l347 647l127 32l6 56h-417l-6 -56l184 -36l-287 -547l-296 551l163 32l8 56h-463l-9 -56z" glyph-name="Y" horiz-adv-x="1214" unicode="Y"/>
<glyph d="M56 0h921l48 336l-69 11l-115 -268h-618l785 1109l-2 56h-903l-9 -326l64 -15l78 267h587l-774 -1099z" glyph-name="Z" horiz-adv-x="1070" unicode="Z"/>
<glyph d="M435 -375h-360l1 1631h358l7 -71l-235 -21v-1450l237 -20z" glyph-name="bracketleft" horiz-adv-x="484" unicode="["/>
<glyph d="M507 -362l104 -5l-462 1621l-108 5z" glyph-name="backslash" horiz-adv-x="651" unicode="\"/>
<glyph d="M50 -375h360l-1 1631h-357l-8 -71l235 -21v-1450l-237 -20z" glyph-name="bracketright" horiz-adv-x="485" unicode="]"/>
<glyph d="M93 797l262 301h10l277 -306l48 32l-294 427l-56 -13l-289 -412z" glyph-name="asciicircum" horiz-adv-x="743" unicode="^"/>
<glyph d="M903 -133l10 86h-828l-12 -86h830z" glyph-name="underscore" horiz-adv-x="985" unicode="_"/>
<glyph d="M263 1332l51 31l-133 335l-104 -37z" glyph-name="grave" horiz-adv-x="393" unicode="`"/>
<glyph d="M381.5 0.5q57.5 25.5 94.5 61t54 68.5h8v-14q0 -55 35.5 -94.5t104.5 -39.5q27 0 48 3.5t51 11.5l20 5l9 60l-58 11q-44 7 -65.5 26t-28 49t-6.5 82v351q0 157 -59 230.5t-188 73.5q-72 0 -146 -29t-122 -76.5t-48 -98.5t33 -70.5t80 -19.5q5 82 16 128t37.5 70t77.5 24 q103 0 147.5 -74t44.5 -211v-67q-157 -7 -263.5 -46.5t-159 -105t-52.5 -150.5q0 -56 28.5 -98t75.5 -64t102 -22q72 0 129.5 25.5zM521 187q-27 -48 -82 -82t-121 -34q-40 0 -70 18t-45.5 47.5t-15.5 60.5q0 177 334 213v-223z" glyph-name="a" horiz-adv-x="821" unicode="a"/>
<glyph d="M196 49q113 -73 249 -73q132 0 243 57.5t176.5 168.5t65.5 264q0 125 -39.5 220t-111.5 147.5t-167 52.5q-153 0 -289 -153h-12l14 104v442l-15 16l-258 -20l-9 -54l153 -42v-1130zM438 756.5q56 28.5 107 28.5q127 0 185 -104t58 -275q0 -107 -36.5 -185t-95 -118.5 t-123.5 -40.5q-66 0 -122 17t-86 47v542q57 60 113 88.5z" glyph-name="b" horiz-adv-x="978" unicode="b"/>
<glyph d="M541 -11.5q61 18.5 109 48.5t74 65l-21 46q-97 -79 -219 -79q-90 0 -156 53.5t-101 147t-35 210.5q0 103 28 177.5t76 113.5t108 39q67 0 110 -48t74 -135q95 16 95 99q0 42 -24 79t-75.5 60t-131.5 23q-109 0 -200.5 -59.5t-145.5 -169.5t-54 -254q0 -121 44 -220 t127 -157t195 -58q62 0 123 18.5z" glyph-name="c" horiz-adv-x="765" unicode="c"/>
<glyph d="M538.5 22q72.5 43 120.5 109h10v-7q0 -65 34.5 -105.5t103.5 -40.5q37 0 60.5 4.5t60.5 15.5l9 60l-53 12q-34 7 -53.5 17.5t-32.5 42t-13 92.5v1060l-15 17l-258 -22l-9 -53l152 -43v-209l14 -131h-8q-25 19 -80 33.5t-104 14.5q-107 0 -205.5 -63t-159.5 -176t-61 -257 q0 -131 42 -224.5t114 -141.5t163 -48q96 0 168.5 43zM554.5 777q63.5 -33 104.5 -92v-492q-34 -46 -99.5 -81t-126.5 -35q-116 0 -180 99t-64 276q0 110 29.5 190.5t83.5 124t126 43.5q63 0 126.5 -33z" glyph-name="d" horiz-adv-x="983" unicode="d"/>
<glyph d="M587 6q80 36 133 98l-19 44q-56 -38 -107 -54t-114 -16q-94 0 -158 51t-95.5 134t-33.5 182l484 6q7 26 12 66.5t5 64.5q0 152 -67.5 228t-182.5 76q-99 0 -189.5 -55.5t-146.5 -161.5t-56 -249q0 -146 49 -247.5t130.5 -152t179.5 -50.5q96 0 176 36zM510.5 755 q42.5 -54 42.5 -145q0 -60 -7 -80l-351 -23q2 98 29.5 166t72 102t98.5 34q73 0 115.5 -54z" glyph-name="e" horiz-adv-x="765" unicode="e"/>
<glyph d="M587 61l-246 30v700h245l13 70h-258l1 120q1 119 42 179t103 60q51 0 96.5 -35.5t80.5 -85.5q27 11 48 36.5t21 56.5q0 51 -49 82t-129 31q-75 0 -150 -48.5t-129 -147.5t-68 -242l-138 -22l-12 -54h149v-704l-152 -36l-12 -51h537z" glyph-name="f" horiz-adv-x="636" unicode="f"/>
<glyph d="M601.5 -340.5q102.5 46.5 165 124t62.5 163.5q0 78 -32 118.5t-89 53.5t-147 13h-154q-88 0 -129 19t-41 59q0 23 16 43t50 53q14 -5 40.5 -10t52.5 -5q74 0 147.5 39t120.5 107.5t47 150.5q0 41 -15 90.5t-29 74.5l3 11l141 -41l12 2l35 95l-16 18q-32 -3 -105 -8.5 t-114 -7.5q-89 63 -191 63q-84 0 -157.5 -42t-117.5 -113t-44 -152q0 -63 25.5 -116.5t61 -88.5t64.5 -46v-5q-59 -32 -105.5 -78.5t-46.5 -81.5q0 -41 26.5 -74t69.5 -53v-7q-72 -38 -121 -82t-49 -111q0 -72 45 -122t123 -75t178 -25q115 0 217.5 46.5zM498.5 788 q39.5 -37 61 -97t21.5 -126q0 -101 -44 -153.5t-114 -52.5q-49 0 -91 33t-67 88.5t-25 118.5q0 104 41.5 165t126.5 61q51 0 90.5 -37zM480 17q91 0 138.5 -12.5t65 -38.5t17.5 -73q0 -64 -34.5 -107t-92 -64t-124.5 -21q-276 0 -276 183q0 45 21 74.5t47 45.5t26 13h212z " glyph-name="g" horiz-adv-x="902" unicode="g"/>
<glyph d="M488 58l-145 29v583q54 59 108 86t121 27q76 0 125 -51t49 -164v-7l-3 -475l-137 -32l-9 -54h411l9 58l-142 28v502q0 163 -60.5 233t-172.5 70q-81 0 -160.5 -44t-143.5 -114h-8l13 106v445l-16 17l-264 -21l-9 -54l157 -42v-1097l-154 -30l-11 -57h432z" glyph-name="h" horiz-adv-x="1064" unicode="h"/>
<glyph d="M319 1122q23 29 23 77q0 46 -24 74t-62 28t-61 -28t-23 -74q0 -47 22.5 -76.5t61.5 -29.5q40 0 63 29zM488 0l11 57l-160 30v784l-16 16l-259 -22l-8 -51l152 -42v-685l-151 -32l-12 -55h443z" glyph-name="i" horiz-adv-x="556" unicode="i"/>
<glyph d="M377 1108.5q26 31.5 26 82.5q0 48 -26.5 78t-67.5 30t-67 -29.5t-26 -78.5q0 -50 25.5 -82t67.5 -32t68 31.5zM123 -356q260 165 260 507v707l-17 17l-258 -20l-9 -54l151 -41v-600q0 -185 -57.5 -293.5t-154.5 -181.5l41 -68z" glyph-name="j" horiz-adv-x="463" unicode="j"/>
<glyph d="M491 0l9 57l-160 30v1192l-16 17l-263 -22l-6 -52l156 -41v-1094l-154 -32l-10 -55h444zM648.5 84.5q51.5 -55.5 97 -80t103.5 -24.5q29 0 60 6.5t51 13.5l9 59l-39 5q-51 6 -88.5 28t-72 59t-98.5 116l-73 88l-100 118l265 309l150 37l10 54h-393l-8 -55l134 -37 l-286 -334v-18l134 -171q93 -118 144.5 -173.5z" glyph-name="k" horiz-adv-x="1020" unicode="k"/>
<glyph d="M488 0l12 57l-161 30v1197l-17 16l-262 -21l-6 -52l156 -41v-1099l-154 -32l-10 -55h442z" glyph-name="l" horiz-adv-x="544" unicode="l"/>
<glyph d="M483 58l-143 28v580q42 52 104 83.5t129 31.5q80 0 126.5 -57t46.5 -151v-487l-133 -32l-8 -54h398l8 58l-139 28v574q47 50 102 85t122 35q85 0 130.5 -54t45.5 -153v-487l-130 -32l-6 -52h397l13 58l-142 27v510q0 138 -55 213t-181 75q-88 0 -168.5 -47.5 t-132.5 -114.5h-11q-18 81 -76 123.5t-137 42.5q-88 0 -170.5 -47.5t-136.5 -113.5h-8l11 133l-12 14l-269 -30l-6 -52l157 -40v-667l-152 -32l-9 -54h425z" glyph-name="m" horiz-adv-x="1596" unicode="m"/>
<glyph d="M485 58l-146 28v584q60 60 114 85.5t124 25.5q75 0 122.5 -52.5t47.5 -160.5v-482l-140 -34l-8 -52h413l7 58l-141 28v514q0 144 -62 217t-169 73q-91 0 -176 -49t-135 -111h-8l10 132l-12 14l-265 -30l-7 -52l155 -39v-669l-153 -34l-8 -52h427z" glyph-name="n" horiz-adv-x="1070" unicode="n"/>
<glyph d="M645 32q92 59 146 165t54 242q0 128 -46 231t-131.5 162t-198.5 59t-209 -58t-152.5 -166.5t-56.5 -255.5q0 -129 48.5 -228.5t138 -154.5t206.5 -55q109 0 201 59zM578 743.5q63 -62.5 94.5 -160.5t31.5 -203q0 -89 -27 -163.5t-78 -118.5t-120 -44q-92 0 -157 59.5 t-97.5 157.5t-32.5 212q0 89 27.5 163t80.5 117t126 43q89 0 152 -62.5z" glyph-name="o" horiz-adv-x="893" unicode="o"/>
<glyph d="M484 -312l-156 26v948q51 53 101.5 86t112.5 33q113 0 168.5 -98t55.5 -279q0 -105 -31 -182t-86 -117.5t-125 -40.5q-59 0 -93 5t-68 18l5 -96q61 -11 102 -11q125 0 225 61t156.5 171t56.5 250q0 145 -38.5 239.5t-106 139.5t-155.5 45q-89 0 -160.5 -49t-119.5 -115 h-7l9 137l-13 14l-265 -28l-8 -53l154 -38v-1039l-152 -30l-6 -58h434z" glyph-name="p" horiz-adv-x="957" unicode="p"/>
<glyph d="M501.5 3.5q68.5 24.5 113.5 67.5l-4 56q-34 -23 -88.5 -36t-93.5 -13q-111 0 -174.5 98.5t-63.5 291.5q0 99 32 177t86 121t119 43q73 0 128 -35t86 -83v-971l-151 -28l-8 -59h444l9 61l-161 26v1158h-23l-94 -33q-30 16 -79 30t-102 14q-105 0 -203.5 -64.5t-160 -175.5 t-61.5 -242q0 -145 41.5 -241t113 -141.5t162.5 -45.5q64 0 132.5 24.5z" glyph-name="q" horiz-adv-x="976" unicode="q"/>
<glyph d="M571 61l-230 27v376q11 81 37 147.5t62.5 105.5t76.5 39q56 0 107 -52q29 20 45.5 45t16.5 50q0 40 -30 68t-81 28q-48 0 -94.5 -34t-84 -97.5t-61.5 -148.5h-14l14 245l-16 17l-259 -29l-9 -52l160 -39v-671l-155 -34l-8 -52h515z" glyph-name="r" horiz-adv-x="733" unicode="r"/>
<glyph d="M469 -3.5q69 31.5 111 87.5t42 128q0 61 -32.5 109t-79 83t-122.5 81q-67 40 -106.5 68.5t-66 65.5t-26.5 81q0 56 36 90.5t97 34.5q52 0 91.5 -41.5t63.5 -147.5l8 -39q48 4 76.5 32.5t28.5 83.5q0 50 -30 90t-82.5 63t-117.5 23q-90 0 -152.5 -37t-93.5 -95t-31 -120 q0 -66 34 -117.5t81.5 -87.5t125.5 -83q62 -38 97.5 -63t59 -57t23.5 -69q0 -52 -42 -86t-107 -34q-80 0 -129 53t-74 171q-46 -5 -76 -35t-30 -75q0 -54 36 -97t99 -67.5t142 -24.5q77 0 146 31.5z" glyph-name="s" horiz-adv-x="667" unicode="s"/>
<glyph d="M163 251q-1 -144 47.5 -209.5t143.5 -65.5q74 0 141.5 38.5t113.5 104.5l-19 44q0 -1 -26.5 -18.5t-61 -32t-67.5 -14.5q-49 0 -79 18.5t-44.5 64.5t-14.5 129l3 458h276l8 72h-283v228h-47q-39 -97 -90.5 -160.5t-123.5 -96.5v-40h127z" glyph-name="t" horiz-adv-x="650" unicode="t"/>
<glyph d="M186 275q0 -299 228 -299q82 0 154.5 40t123.5 116h12v-12q0 -61 36 -101t101 -40q35 0 63 5t63 15l7 59l-54 12q-57 11 -78 44.5t-21 108.5v634l-14 17l-266 -24l-6 -60l157 -36v-567q-39 -43 -91.5 -72t-114.5 -29q-172 0 -172 231v540l-16 17l-249 -21l-8 -53l145 -43 v-482z" glyph-name="u" horiz-adv-x="1026" unicode="u"/>
<glyph d="M164 769l282 -795l90 15l281 782l109 37l9 53h-359l-11 -55l160 -37l-212 -608l-209 610l146 37l5 53h-406l-7 -55z" glyph-name="v" horiz-adv-x="978" unicode="v"/>
<glyph d="M158 775l237 -800l87 16l172 639l191 -655l85 16l222 786l108 32l8 54h-356l-7 -55l151 -33l-161 -582l-32 152l-138 472l-114 -19l-163 -595l-37 157l-121 417l135 32l7 54h-383l-7 -55z" glyph-name="w" horiz-adv-x="1311" unicode="w"/>
<glyph d="M407 0l9 54l-142 32l212 276l196 -278l-127 -33l-12 -51h405l8 52l-114 32l-262 375l251 324l104 33l11 54h-349l-12 -55l138 -34l-197 -254l-184 258l115 32l10 53h-394l-7 -55l118 -32l246 -352l-266 -345l-108 -34l-9 -52h360z" glyph-name="x" horiz-adv-x="1011" unicode="x"/>
<glyph d="M317.5 -346.5q55.5 32.5 101 102.5t93.5 191l330 825l101 36l5 53h-317l-11 -55l130 -35l-230 -576l-215 580l127 33l6 53h-383l-9 -56l124 -33l278 -760l-23 -61q-71 -180 -182 -180q-50 0 -86 12.5t-72 40.5q-45 -39 -45 -98q0 -29 19 -53t52 -38t74 -14 q77 0 132.5 32.5z" glyph-name="y" horiz-adv-x="992" unicode="y"/>
<glyph d="M60 0h660l30 269l-51 6l-75 -197h-413l523 731l-2 52h-647l-10 -269l56 -9l56 205h385l-516 -725z" glyph-name="z" horiz-adv-x="796" unicode="z"/>
<glyph d="M313.5 -319.5q-50.5 58.5 -63 142t-14.5 220.5q-2 113 -10 179.5t-37.5 115.5t-92.5 57l-51 7v74l48 8q64 9 94.5 58.5t38.5 117t10 181.5q3 136 15.5 218t61.5 139.5t152 57.5h102l-8 -74l-94 -7q-41 -3 -60 -40t-23.5 -91.5t-5.5 -151.5q-1 -129 -10.5 -211.5 t-48.5 -150t-120 -87.5v-5q80 -18 119 -83.5t49.5 -148.5t13.5 -211q2 -99 7.5 -156t26.5 -95.5t64 -40.5l87 -6l8 -75h-103q-105 0 -155.5 58.5z" glyph-name="braceleft" horiz-adv-x="613" unicode="{"/>
<glyph d="M171 -380v1628l-96 13v-1628z" glyph-name="bar" horiz-adv-x="247" unicode="|"/>
<glyph d="M299 -319.5q50 58.5 62.5 141t15.5 221.5q2 114 9.5 180.5t37 115t92.5 56.5l52 7v74l-49 8q-64 9 -94.5 58.5t-38.5 117t-10 181.5q-2 135 -14.5 217.5t-61.5 140t-152 57.5h-102l8 -74l94 -7q41 -3 60 -40t23.5 -91.5t5.5 -151.5q1 -127 10 -210.5t48 -151t120 -87.5 v-5q-80 -18 -119 -83.5t-49.5 -149t-12.5 -210.5q-2 -99 -7.5 -156t-26.5 -95.5t-64 -40.5l-87 -6l-8 -75h103q105 0 155 58.5z" glyph-name="braceright" horiz-adv-x="614" unicode="}"/>
<glyph d="M122 430.5q16 23.5 39 43.5t50 20q9 0 13 -1l399 -71q15 -3 29 -3q60 0 103 45.5t66.5 98t23.5 60.5l-55 1q0 -3 -15 -25t-37.5 -40.5t-49.5 -18.5q-5 0 -15 2l-399 71q-15 3 -28 3q-60 0 -101.5 -44t-63.5 -95t-22 -60l47 -13q0 3 16 26.5z" glyph-name="asciitilde" horiz-adv-x="900" unicode="~"/>
<glyph glyph-name="uni00A0" horiz-adv-x="316" unicode=" "/>
<glyph d="M211.5 721.5q26.5 29.5 26.5 74.5q0 48 -25 81t-66 33q-42 0 -67 -32t-25 -81q0 -45 26.5 -75t65.5 -30q38 0 64.5 29.5zM185.5 -406.5q31.5 10.5 37.5 29.5v2q0 81 -13.5 363t-28.5 524v3l-64 14l-3 -5q-21 -248 -36 -512.5t-15 -388.5q0 -21 17.5 -30.5t41.5 -9.5 q32 0 63.5 10.5z" glyph-name="exclamdown" horiz-adv-x="291" unicode="¡"/>
<glyph d="M612.5 15.5q-75.5 -37.5 -160.5 -44.5l29 -221l-128 -17l23 239q-99 12 -172 73.5t-111.5 157.5t-38.5 209q0 126 41.5 231t113.5 174t162 92l-29 226l127 17l-22 -232h7q80 0 131.5 -23t75 -59.5t23.5 -78.5q0 -83 -95 -99q-31 87 -73.5 135t-109.5 48q-59 0 -107.5 -45 t-76.5 -126.5t-28 -185.5q0 -117 35 -212t100.5 -150t155.5 -55q122 0 219 79l21 -46q-37 -49 -112.5 -86.5z" glyph-name="cent" horiz-adv-x="767" unicode="¢"/>
<glyph d="M1025 322l-63 14l-111 -259l-499 1q59 137 62 438v52l211 13l10 80l-219 -13v54q2 199 19 297t58.5 135t124.5 37q25 0 62.5 -10.5t55.5 -19.5l31 -239l67 -10l31 319q-55 23 -110 31.5t-122 8.5q-174 0 -268 -114.5t-100 -350.5l-3 -145l-170 -10l-11 -79l178 9l-1 -100 q-2 -122 -11 -207t-29 -158l-168 -38l-7 -58h948z" glyph-name="sterling" horiz-adv-x="1072" unicode="£"/>
<glyph d="M107 566.5q-14 -43.5 -14 -76.5q0 -38 16 -85.5t37 -79.5l-84 -78l67 -68l77 89q33 -20 74 -35t69 -15q33 0 80 16.5t84 39.5l79 -90l69 64l-93 86q21 28 36 74t15 84q0 34 -13.5 79t-30.5 75l84 74l-59 70l-77 -80q-32 24 -80 42t-87 18q-35 0 -81 -20.5t-80 -48.5 l-78 88l-68 -66l91 -85q-19 -28 -33 -71.5zM481 631q49 -54 49 -143q0 -55 -22.5 -97.5t-62.5 -66t-92 -23.5q-76 0 -123 53.5t-47 140.5q0 85 46.5 137.5t122.5 52.5q80 0 129 -54z" glyph-name="currency" horiz-adv-x="712" unicode="¤"/>
<glyph d="M179 1152l263 -574h-293l-11 -73h323v-167h-315l-11 -73h326v-169l-162 -40l-8 -56h481l9 62l-174 28v175h335l11 73h-346v167h338l11 73h-330l267 577l126 33l7 56h-394l-6 -56l171 -37l-227 -513l-239 518l150 32l8 56h-439l-8 -56z" glyph-name="yen" horiz-adv-x="1067" unicode="¥"/>
<glyph d="M165 529l2 719l-94 9v-720zM168 -380v791l-95 8v-789z" glyph-name="brokenbar" horiz-adv-x="241" unicode="¦"/>
<glyph d="M798 318q5 89 -36.5 157t-104.5 114.5t-167 107.5q-93 55 -146.5 93.5t-90.5 91t-37 119.5q0 63 26.5 108t71 68t98.5 23q58 0 113.5 -32t76.5 -72l26 -218l73 -9l27 296q-54 51 -129 78t-158 27q-92 0 -174.5 -39.5t-134 -115t-51.5 -177.5q0 -88 42 -154t102.5 -112 t160.5 -105l35 -21zM591.5 -335.5q96.5 45.5 152 126.5t55.5 184q0 86 -43 150.5t-106 109.5t-165 103l-53 31l-346 207q-5 -88 37 -155t104.5 -113t166.5 -108q88 -53 139 -89t86 -84.5t35 -107.5q0 -70 -35 -119.5t-90 -74t-115 -24.5q-77 0 -144 34.5t-98 88.5l-32 205 l-76 10l-21 -277q50 -62 140 -102.5t194 -40.5q118 0 214.5 45.5z" glyph-name="section" horiz-adv-x="850" unicode="§"/>
<glyph d="M209 1405.5q19 21.5 19 59.5q0 36 -20 57t-52 21q-30 0 -50 -21t-20 -57q0 -37 19.5 -59t51.5 -22q33 0 52 21.5zM477.5 1405.5q19.5 21.5 19.5 59.5q0 36 -20.5 57t-52.5 21q-30 0 -49.5 -21t-19.5 -57q0 -37 19 -59t51 -22q33 0 52.5 21.5z" glyph-name="dieresis" horiz-adv-x="582" unicode="¨"/>
<glyph d="M987.5 65q146.5 86 228.5 236t82 335q0 194 -77.5 345t-220.5 235.5t-333 84.5q-168 0 -309 -86t-223.5 -238.5t-82.5 -343.5q0 -190 75 -338.5t212.5 -232t317.5 -83.5q184 0 330.5 86zM950 1144.5q122 -77.5 188 -213.5t66 -305q0 -159 -71 -288t-194 -202.5 t-273 -73.5t-268 75t-184.5 208t-66.5 299q0 160 68 292t187 209t266 77q160 0 282 -77.5zM812 296.5q72 32.5 106 77.5l-18 39q-80 -66 -183 -66q-75 0 -130 44.5t-84.5 122.5t-29.5 176q0 86 23 148t63.5 94.5t90.5 32.5q56 0 92 -40t62 -112q79 13 79 82q0 56 -47.5 95.5 t-145.5 39.5q-91 0 -167.5 -49.5t-121.5 -141.5t-45 -212q0 -101 37 -183.5t106 -131t163 -48.5q78 0 150 32.5z" glyph-name="copyright" horiz-adv-x="1352" unicode="©"/>
<glyph d="M321 557.5q44 20.5 71 49t39 55.5h6v-11q0 -27 15 -52t43.5 -40.5t67.5 -15.5q32 0 55 7.5t44 23.5l7 48l-48 9q-35 6 -50.5 21t-19.5 37.5t-4 66.5v266q0 126 -50.5 186t-154.5 60q-58 0 -119 -21.5t-101.5 -57.5t-40.5 -78q0 -44 32.5 -67.5t77.5 -20.5 q7 69 15.5 104.5t28 55t57.5 19.5q54 0 83 -26t39 -73t10 -123v-30q-128 -4 -211.5 -41.5t-121.5 -95t-38 -123.5q0 -47 23 -82t61 -53t82 -18q58 0 102 20.5zM424 715q-63 -90 -148 -90q-47 0 -69 28t-22 72q0 74 59 115t180 60v-185z" glyph-name="ordfeminine" horiz-adv-x="718" unicode="ª"/>
<glyph d="M296 449l261 -372l42 51l-177 333l176 313l-36 47l-268 -352zM49 449l261 -372l42 51l-177 333l176 313l-36 47l-268 -352z" glyph-name="guillemotleft" horiz-adv-x="652" unicode="«"/>
<glyph d="M722 584v-252l89 19l-1 313h-745l-12 -80h669z" glyph-name="logicalnot" horiz-adv-x="876" unicode="¬"/>
<glyph d="M469 480l8 90l-408 -61l-8 -89z" glyph-name="uni00AD" horiz-adv-x="538" unicode="­"/>
<glyph d="M766.5 600.5q114.5 58.5 182 168t67.5 257.5q0 155 -64.5 266.5t-176 169.5t-251.5 58q-133 0 -241.5 -59.5t-171 -172t-62.5 -266.5q0 -142 62 -251.5t168 -169t235 -59.5q138 0 252.5 58.5zM736 1405.5q97 -53.5 152.5 -154t55.5 -235.5q0 -121 -56.5 -215t-153 -145.5 t-212.5 -51.5t-207.5 54t-142.5 152t-51 226q0 135 52.5 230.5t143 144t202.5 48.5q120 0 217 -53.5zM531 817l-85 18v175h73l61 -111q39 -73 75.5 -103.5t89.5 -30.5q40 0 62 8l6 41l-19 7q-32 14 -54 32.5t-63 72.5l-84 107l1 1q60 26 95.5 70.5t35.5 93.5 q0 71 -59.5 105.5t-159.5 34.5q-48 0 -111.5 -6t-116.5 -15l-5 -38l77 -13v-432l-75 -21l-5 -39h256zM491 1285q131 0 131 -104q0 -73 -85 -119h-91v222z" glyph-name="registered" horiz-adv-x="1065" unicode="®"/>
<glyph d="M521 1380l10 76h-441l-11 -76h442z" glyph-name="macron" horiz-adv-x="610" unicode="¯"/>
<glyph d="M324.5 954q44.5 26 71 72t26.5 102q0 84 -43 130t-128 46q-53 0 -97 -27.5t-70 -73t-26 -96.5q0 -86 45.5 -132.5t123.5 -46.5q53 0 97.5 26zM315 1208.5q30 -42.5 30 -103.5q0 -57 -28.5 -90.5t-72.5 -33.5q-51 0 -80.5 42t-29.5 106q0 54 27 88t75 34q49 0 79 -42.5z " glyph-name="degree" horiz-adv-x="482" unicode="°"/>
<glyph d="M311 479v-231l91 -13l-2 244h209l11 86h-220l-1 227l-88 12v-239h-209l-12 -86h221zM659 29l17 84l-611 -3l-17 -84z" glyph-name="plusminus" horiz-adv-x="723" unicode="±"/>
<glyph d="M128 1346l182 321l-103 39l-128 -330z" glyph-name="acute" horiz-adv-x="387" unicode="´"/>
<glyph d="M187 494q0 -202 -8.5 -509t-11.5 -347l111 -26l-15 302q-2 21 -4 71q-2 51 -4 64h6q22 -36 62.5 -54.5t91.5 -18.5q75 0 147 40t131 115h12v-12q0 -61 35.5 -100.5t100.5 -39.5q36 0 65 4.5t62 14.5l6 59l-52 11q-57 11 -79 44.5t-22 109.5v638l-14 18l-266 -24l-6 -59 l158 -36v-573q-47 -46 -97 -75t-110 -29q-82 0 -126 57t-44 177v544l-17 18l-249 -21l-8 -54l145 -42v-267z" glyph-name="uni00B5" horiz-adv-x="1017" unicode="µ"/>
<glyph d="M546 537q-104 0 -178.5 42t-112.5 114t-38 159q0 158 81.5 238.5t254.5 80.5q49 0 90 -2v-1072l-229 -39l-6 -58h365v1245h-265q-123 0 -228.5 -53t-168.5 -146.5t-63 -209.5q0 -204 130.5 -288.5t349.5 -84.5zM1139 -1l9 64l-186 26v1068l173 31l7 57h-302v-1245z" glyph-name="paragraph" horiz-adv-x="1191" unicode="¶"/>
<glyph d="M221 422q25 31 25 81q0 48 -25.5 76.5t-66.5 28.5t-66.5 -28.5t-25.5 -76.5q0 -50 25 -81t67 -31t67 31z" glyph-name="periodcentered" horiz-adv-x="307" unicode="·"/>
<glyph d="M220.5 -322.5q52.5 39.5 52.5 95.5q0 44 -25 80.5t-64 70.5l54 79h-67l-91 -131q6 -6 30 -29t37 -45.5t13 -45.5t-30 -49.5t-73 -41.5l16 -51q95 28 147.5 67.5z" glyph-name="cedilla" horiz-adv-x="334" unicode="¸"/>
<glyph d="M549.5 583q76.5 47 122 132t45.5 194q0 102 -39 184t-110.5 129.5t-165.5 47.5q-93 0 -173 -46.5t-128 -133.5t-48 -204q0 -103 41 -182.5t116 -123.5t172 -44q91 0 167.5 47zM488.5 1150.5q48.5 -47.5 71 -124t22.5 -164.5q0 -112 -43.5 -185t-127.5 -73 q-113 0 -168 95.5t-55 244.5q0 112 45 183t134 71q73 0 121.5 -47.5z" glyph-name="ordmasculine" horiz-adv-x="770" unicode="º"/>
<glyph d="M331 449l2 20l-268 352l-36 -47l176 -313l-177 -333l42 -51zM578 449l2 20l-268 352l-36 -47l176 -313l-177 -333l42 -51z" glyph-name="guillemotright" horiz-adv-x="653" unicode="»"/>
<glyph d="M497 550l5 70l-155 10v630h-19l-268 -36l-4 -61h150v-530l-158 -23l-3 -60h452zM392 -40l348 631l366 599l2 17l-136 4l-354 -623l-376 -614zM1014 192v-116l-150 -26l-5 -50h394l6 55l-119 19v114h139l9 86h-148v151q0 201 8 296l-50 9l-396 -480l10 -58h302zM1012 532 v-258h-204z" glyph-name="onequarter" horiz-adv-x="1333" unicode="¼"/>
<glyph d="M497 550l5 70l-155 10v630h-19l-268 -36l-4 -61h150v-530l-158 -23l-3 -60h452zM382 -40l348 631l366 599l2 17l-136 4l-354 -623l-376 -614zM1334 1l20 241l-46 12l-62 -150h-293l35 24q121 88 186.5 144.5t105.5 119t40 134.5q0 98 -61.5 149t-168.5 51 q-79 0 -148.5 -25t-96.5 -65l5 -164l55 -5l24 139q30 40 115 40q64 0 93.5 -44t29.5 -110q0 -71 -48.5 -136.5t-156.5 -153.5l-154 -124l-2 -77h528z" glyph-name="onehalf" horiz-adv-x="1399" unicode="½"/>
<glyph d="M404 538.5q72 30.5 115.5 84t43.5 119.5q0 75 -57.5 125.5t-160.5 62.5v7q77 24 127.5 71t50.5 118q0 48 -27.5 84t-75 56t-104.5 20q-77 0 -143 -23.5t-92 -54.5l4 -156l62 -6l28 142q14 15 36 20.5t58 5.5q49 0 77.5 -37.5t28.5 -84.5q0 -49 -34.5 -85t-71.5 -55 t-84 -37l8 -39q58 -1 109.5 -20.5t83 -53t31.5 -76.5q0 -67 -42.5 -108.5t-111.5 -41.5q-38 0 -71 16.5t-48 39.5l-6 127l-59 7l-34 -171q20 -39 76.5 -63t129.5 -24q81 0 153 30.5zM393 -40l347 631l366 599l3 17l-137 4l-353 -623l-377 -614zM1007 192v-116l-150 -26 l-5 -50h394l6 55l-119 19v114h139l9 86h-148v151q0 201 8 296l-50 9l-396 -480l10 -58h302zM1005 532v-258h-204z" glyph-name="threequarters" unicode="¾"/>
<glyph d="M262 903q-25 -32 -25 -81q0 -45 26.5 -75.5t65.5 -30.5q38 0 64.5 30t26.5 75q0 48 -25 81t-66 33q-42 0 -67 -32zM428.5 -227q-51.5 -20 -108.5 -20q-47 0 -89 29t-67.5 76t-25.5 99q0 39 19 68.5t47 49.5t76 48q54 31 87.5 56t56.5 63.5t23 92.5q0 56 -25 116t-56 95 l-58 -17q35 -86 35 -137q0 -35 -17 -61.5t-42 -45.5t-70 -47q-55 -34 -88.5 -61t-57.5 -69t-24 -101q0 -105 47 -196t123 -144.5t159 -53.5q59 0 104 19.5t69.5 49t24.5 59.5q0 28 -17.5 51.5t-41.5 34.5q-32 -34 -83.5 -54z" glyph-name="questiondown" horiz-adv-x="615" unicode="¿"/>
<glyph d="M655 1362l51 31l-133 335l-104 -37zM480 0l10 63l-185 32l131 360h425l124 -354l-169 -43l-10 -58h462l8 64l-135 31l-402 1173l-102 -22l-438 -1145l-145 -43l-8 -58h434zM657 1060l180 -526h-373z" glyph-name="Agrave" unicode="À"/>
<glyph d="M687 1362l182 321l-103 39l-128 -330zM480 0l10 63l-185 32l131 360h425l124 -354l-169 -43l-10 -58h462l8 64l-135 31l-402 1173l-102 -22l-438 -1145l-145 -43l-8 -58h434zM657 1060l180 -526h-373z" glyph-name="Aacute" unicode="Á"/>
<glyph d="M523 1372l149 123h9l173 -122l40 37l-178 186l-55 -14l-168 -180zM480 0l10 63l-185 32l131 360h425l124 -354l-169 -43l-10 -58h462l8 64l-135 31l-402 1173l-102 -22l-438 -1145l-145 -43l-8 -58h434zM657 1060l180 -526h-373z" glyph-name="Acircumflex" unicode="Â"/>
<glyph d="M499 1392q9 15 24.5 29t33.5 14q7 0 10 -1l201 -42q12 -3 23 -3q42 0 71.5 31.5t45 68t15.5 42.5l-42 2q-2 -4 -9.5 -17.5t-21.5 -26t-33 -12.5q-4 0 -12 2l-203 42q-8 2 -22 2q-41 0 -69 -31.5t-42 -67t-14 -42.5l33 -10q2 5 11 20zM480 0l10 63l-185 32l131 360h425 l124 -354l-169 -43l-10 -58h462l8 64l-135 31l-402 1173l-102 -22l-438 -1145l-145 -43l-8 -58h434zM657 1060l180 -526h-373z" glyph-name="Atilde" unicode="Ã"/>
<glyph d="M597 1380.5q19 21.5 19 59.5q0 36 -20 57t-52 21q-30 0 -50 -21t-20 -57q0 -37 19.5 -59t51.5 -22q33 0 52 21.5zM865.5 1380.5q19.5 21.5 19.5 59.5q0 36 -20.5 57t-52.5 21q-30 0 -49.5 -21t-19.5 -57q0 -37 19 -59t51 -22q33 0 52.5 21.5zM480 0l10 63l-185 32 l131 360h425l124 -354l-169 -43l-10 -58h462l8 64l-135 31l-402 1173l-102 -22l-438 -1145l-145 -43l-8 -58h434zM657 1060l180 -526h-373z" glyph-name="Adieresis" unicode="Ä"/>
<glyph d="M765.5 1369.5q38.5 24.5 60 65t21.5 85.5q0 72 -43 117.5t-114 45.5q-46 0 -84.5 -23.5t-60.5 -63t-22 -85.5q0 -76 42.5 -121t112.5 -45q49 0 87.5 24.5zM751.5 1599q27.5 -40 27.5 -92q0 -56 -24 -86.5t-66 -30.5q-46 0 -72.5 41t-26.5 92q0 48 22.5 82t66.5 34 q45 0 72.5 -40zM480 0l10 63l-185 32l131 360h425l124 -354l-169 -43l-10 -58h462l8 64l-135 31l-402 1173l-102 -22l-438 -1145l-145 -43l-8 -58h434zM657 1060l180 -526h-373z" glyph-name="Aring" unicode="Å"/>
<glyph d="M484 2l10 64l-186 30l227 376h355v-376l-180 -38l-7 -58h962l30 313l-60 13l-86 -251h-514v521h286l25 -187l66 12l34 387l-72 -7l-40 -132h-299v504h486l31 -237l65 -10l32 318h-1024l-9 -57l224 -33l-644 -1052l-139 -42l-8 -58h435zM894 1075l-3 -522h-310z" glyph-name="AE" horiz-adv-x="1740" unicode="Æ"/>
<glyph d="M963.5 103.5q-57.5 -45.5 -134.5 -79.5t-162 -45l-48 -70q39 -34 64 -70.5t25 -80.5q0 -56 -52.5 -95.5t-147.5 -67.5l-16 51q43 15 73 41.5t30 49.5q0 29 -17 52.5t-37 42.5t-26 25l82 118q-154 1 -278.5 76.5t-196.5 216.5t-72 331q0 158 66.5 313t202.5 256.5 t334 101.5q221 0 351 -99l-31 -335l-68 10l-36 240q-84 109 -268 109q-106 0 -195 -68.5t-141 -192.5t-52 -283q0 -179 58.5 -307t161.5 -194t236 -66q100 0 193 48t164 120l29 -57q-34 -46 -91.5 -91.5z" glyph-name="Ccedilla" horiz-adv-x="1096" unicode="Ç"/>
<glyph d="M566 1362l51 31l-133 335l-104 -37zM228 1151v-1055l-169 -38l-6 -58h970l30 313l-62 11l-86 -249h-529v519h303l25 -186l66 11l33 389l-72 -11l-40 -129h-315v505h503l30 -239l67 -9l31 319h-951l-9 -59z" glyph-name="Egrave" horiz-adv-x="1098" unicode="È"/>
<glyph d="M539 1362l182 321l-103 39l-128 -330zM228 1151v-1055l-169 -38l-6 -58h970l30 313l-62 11l-86 -249h-529v519h303l25 -186l66 11l33 389l-72 -11l-40 -129h-315v505h503l30 -239l67 -9l31 319h-951l-9 -59z" glyph-name="Eacute" horiz-adv-x="1098" unicode="É"/>
<glyph d="M406 1362l149 123h9l173 -122l40 37l-178 186l-55 -14l-168 -180zM228 1151v-1055l-169 -38l-6 -58h970l30 313l-62 11l-86 -249h-529v519h303l25 -186l66 11l33 389l-72 -11l-40 -129h-315v505h503l30 -239l67 -9l31 319h-951l-9 -59z" glyph-name="Ecircumflex" horiz-adv-x="1098" unicode="Ê"/>
<glyph d="M486 1393.5q19 21.5 19 59.5q0 36 -20 57t-52 21q-30 0 -50 -21t-20 -57q0 -37 19.5 -59t51.5 -22q33 0 52 21.5zM754.5 1393.5q19.5 21.5 19.5 59.5q0 36 -20.5 57t-52.5 21q-30 0 -49.5 -21t-19.5 -57q0 -37 19 -59t51 -22q33 0 52.5 21.5zM228 1151v-1055l-169 -38 l-6 -58h970l30 313l-62 11l-86 -249h-529v519h303l25 -186l66 11l33 389l-72 -11l-40 -129h-315v505h503l30 -239l67 -9l31 319h-951l-9 -59z" glyph-name="Edieresis" horiz-adv-x="1098" unicode="Ë"/>
<glyph d="M282 1365l51 31l-133 335l-104 -37zM223 1154v-1058l-162 -38l-7 -58h497l10 63l-187 27v1066l172 31l9 57h-501l-8 -57z" glyph-name="Igrave" horiz-adv-x="614" unicode="Ì"/>
<glyph d="M278 1362l182 321l-103 39l-128 -330zM223 1154v-1058l-162 -38l-7 -58h497l10 63l-187 27v1066l172 31l9 57h-501l-8 -57z" glyph-name="Iacute" horiz-adv-x="614" unicode="Í"/>
<glyph d="M135 1362l149 123h9l173 -122l40 37l-178 186l-55 -14l-168 -180zM223 1154v-1058l-162 -38l-7 -58h497l10 63l-187 27v1066l172 31l9 57h-501l-8 -57z" glyph-name="Icircumflex" horiz-adv-x="614" unicode="Î"/>
<glyph d="M225 1383.5q19 21.5 19 59.5q0 36 -20 57t-52 21q-30 0 -50 -21t-20 -57q0 -37 19.5 -59t51.5 -22q33 0 52 21.5zM493.5 1383.5q19.5 21.5 19.5 59.5q0 36 -20.5 57t-52.5 21q-30 0 -49.5 -21t-19.5 -57q0 -37 19 -59t51 -22q33 0 52.5 21.5zM223 1154v-1058l-162 -38 l-7 -58h497l10 63l-187 27v1066l172 31l9 57h-501l-8 -57z" glyph-name="Idieresis" horiz-adv-x="614" unicode="Ï"/>
<glyph d="M232 101l-171 -43l-11 -58h472q241 0 409 92t251.5 242t83.5 323q0 166 -68 301.5t-225 218.5t-411 83q-104 0 -219 -12t-274 -37l-10 -56l173 -26v-467l-171 -12l-10 -76l181 13v-486zM640 616l10 76l-272 -20v504q49 6 148 6q185 0 314.5 -74.5t195 -206.5t65.5 -302 q0 -149 -61.5 -267t-180.5 -185.5t-285 -67.5h-196v518z" glyph-name="Eth" horiz-adv-x="1314" unicode="Ð"/>
<glyph d="M458 1382q9 15 24.5 29t33.5 14q7 0 10 -1l201 -42q12 -3 23 -3q42 0 71.5 31.5t45 68t15.5 42.5l-42 2q-2 -4 -9.5 -17.5t-21.5 -26t-33 -12.5q-4 0 -12 2l-203 42q-8 2 -22 2q-41 0 -69 -31.5t-42 -67t-14 -42.5l33 -10q2 5 11 20zM229 1147v-1051l-167 -38l-6 -58h448 l10 63l-184 27v957l713 -1071l104 21v1159l166 31l11 57h-450l-9 -57l185 -33v-929l-667 1019h-327l-10 -56z" glyph-name="Ntilde" horiz-adv-x="1368" unicode="Ñ"/>
<glyph d="M617 1362l51 31l-133 335l-104 -37zM935.5 65q140.5 92 211.5 241.5t71 317.5q0 182 -65 330t-189 234t-295 86q-187 0 -327.5 -82.5t-216 -231t-75.5 -340.5q0 -178 69 -326t194 -234.5t286 -86.5q196 0 336.5 92zM855.5 1112.5q97.5 -84.5 147 -226.5t49.5 -312 q0 -131 -41.5 -248.5t-132.5 -192.5t-231 -75t-237 83.5t-145 224.5t-48 312q0 140 40.5 257t131 189.5t231.5 72.5q138 0 235.5 -84.5z" glyph-name="Ograve" horiz-adv-x="1266" unicode="Ò"/>
<glyph d="M610 1362l182 321l-103 39l-128 -330zM935.5 65q140.5 92 211.5 241.5t71 317.5q0 182 -65 330t-189 234t-295 86q-187 0 -327.5 -82.5t-216 -231t-75.5 -340.5q0 -178 69 -326t194 -234.5t286 -86.5q196 0 336.5 92zM855.5 1112.5q97.5 -84.5 147 -226.5t49.5 -312 q0 -131 -41.5 -248.5t-132.5 -192.5t-231 -75t-237 83.5t-145 224.5t-48 312q0 140 40.5 257t131 189.5t231.5 72.5q138 0 235.5 -84.5z" glyph-name="Oacute" horiz-adv-x="1266" unicode="Ó"/>
<glyph d="M473 1362l149 123h9l173 -122l40 37l-178 186l-55 -14l-168 -180zM935.5 65q140.5 92 211.5 241.5t71 317.5q0 182 -65 330t-189 234t-295 86q-187 0 -327.5 -82.5t-216 -231t-75.5 -340.5q0 -178 69 -326t194 -234.5t286 -86.5q196 0 336.5 92zM855.5 1112.5 q97.5 -84.5 147 -226.5t49.5 -312q0 -131 -41.5 -248.5t-132.5 -192.5t-231 -75t-237 83.5t-145 224.5t-48 312q0 140 40.5 257t131 189.5t231.5 72.5q138 0 235.5 -84.5z" glyph-name="Ocircumflex" horiz-adv-x="1266" unicode="Ô"/>
<glyph d="M441 1382q9 15 24.5 29t33.5 14q7 0 10 -1l201 -42q12 -3 23 -3q42 0 71.5 31.5t45 68t15.5 42.5l-42 2q-2 -4 -9.5 -17.5t-21.5 -26t-33 -12.5q-4 0 -12 2l-203 42q-8 2 -22 2q-41 0 -69 -31.5t-42 -67t-14 -42.5l33 -10q2 5 11 20zM935.5 65q140.5 92 211.5 241.5 t71 317.5q0 182 -65 330t-189 234t-295 86q-187 0 -327.5 -82.5t-216 -231t-75.5 -340.5q0 -178 69 -326t194 -234.5t286 -86.5q196 0 336.5 92zM855.5 1112.5q97.5 -84.5 147 -226.5t49.5 -312q0 -131 -41.5 -248.5t-132.5 -192.5t-231 -75t-237 83.5t-145 224.5t-48 312 q0 140 40.5 257t131 189.5t231.5 72.5q138 0 235.5 -84.5z" glyph-name="Otilde" horiz-adv-x="1266" unicode="Õ"/>
<glyph d="M547 1385.5q19 21.5 19 59.5q0 36 -20 57t-52 21q-30 0 -50 -21t-20 -57q0 -37 19.5 -59t51.5 -22q33 0 52 21.5zM815.5 1385.5q19.5 21.5 19.5 59.5q0 36 -20.5 57t-52.5 21q-30 0 -49.5 -21t-19.5 -57q0 -37 19 -59t51 -22q33 0 52.5 21.5zM935.5 65 q140.5 92 211.5 241.5t71 317.5q0 182 -65 330t-189 234t-295 86q-187 0 -327.5 -82.5t-216 -231t-75.5 -340.5q0 -178 69 -326t194 -234.5t286 -86.5q196 0 336.5 92zM855.5 1112.5q97.5 -84.5 147 -226.5t49.5 -312q0 -131 -41.5 -248.5t-132.5 -192.5t-231 -75t-237 83.5 t-145 224.5t-48 312q0 140 40.5 257t131 189.5t231.5 72.5q138 0 235.5 -84.5z" glyph-name="Odieresis" horiz-adv-x="1266" unicode="Ö"/>
<glyph d="M108 232l169 175l164 -171l70 56l-173 166l168 157l-56 71l-169 -172l-158 167l-71 -56l169 -163l-170 -160z" glyph-name="multiply" horiz-adv-x="558" unicode="×"/>
<glyph d="M1176 891q40 -123 40 -267q0 -168 -71 -317.5t-211 -241.5t-336 -92q-90 0 -169.5 27.5t-144.5 79.5l-60 -85l-116 13l104 140q-78 89 -120 211t-42 261q0 192 75.5 340.5t215.5 231t327 82.5t321 -104l48 63l121 -13l-98 -118q76 -88 116 -211zM387.5 1124.5 q-90.5 -72.5 -131.5 -189.5t-41 -257q0 -122 25.5 -231.5t75.5 -191.5l600 793q-55 71 -129.5 110t-167.5 39q-141 0 -231.5 -72.5zM878 133q91 75 132 192.5t41 248.5q0 120 -24.5 227t-72.5 190l-600 -792q115 -141 293 -141q140 0 231 75z" glyph-name="Oslash" horiz-adv-x="1264" unicode="Ø"/>
<glyph d="M698 1362l51 31l-133 335l-104 -37zM226 465q0 -492 467 -492q250 0 364 133t116 397l5 653l166 31l9 57h-451l-8 -57l184 -33l-1 -688q0 -195 -89.5 -294t-253.5 -99q-169 0 -264.5 102.5t-95.5 327.5v653l169 31l7 57h-498l-9 -57l183 -33v-689z" glyph-name="Ugrave" horiz-adv-x="1398" unicode="Ù"/>
<glyph d="M711 1362l182 321l-103 39l-128 -330zM226 465q0 -492 467 -492q250 0 364 133t116 397l5 653l166 31l9 57h-451l-8 -57l184 -33l-1 -688q0 -195 -89.5 -294t-253.5 -99q-169 0 -264.5 102.5t-95.5 327.5v653l169 31l7 57h-498l-9 -57l183 -33v-689z" glyph-name="Uacute" horiz-adv-x="1398" unicode="Ú"/>
<glyph d="M549 1362l149 123h9l173 -122l40 37l-178 186l-55 -14l-168 -180zM226 465q0 -492 467 -492q250 0 364 133t116 397l5 653l166 31l9 57h-451l-8 -57l184 -33l-1 -688q0 -195 -89.5 -294t-253.5 -99q-169 0 -264.5 102.5t-95.5 327.5v653l169 31l7 57h-498l-9 -57l183 -33 v-689z" glyph-name="Ucircumflex" horiz-adv-x="1398" unicode="Û"/>
<glyph d="M635 1389.5q19 21.5 19 59.5q0 36 -20 57t-52 21q-30 0 -50 -21t-20 -57q0 -37 19.5 -59t51.5 -22q33 0 52 21.5zM903.5 1389.5q19.5 21.5 19.5 59.5q0 36 -20.5 57t-52.5 21q-30 0 -49.5 -21t-19.5 -57q0 -37 19 -59t51 -22q33 0 52.5 21.5zM226 465q0 -492 467 -492 q250 0 364 133t116 397l5 653l166 31l9 57h-451l-8 -57l184 -33l-1 -688q0 -195 -89.5 -294t-253.5 -99q-169 0 -264.5 102.5t-95.5 327.5v653l169 31l7 57h-498l-9 -57l183 -33v-689z" glyph-name="Udieresis" horiz-adv-x="1398" unicode="Ü"/>
<glyph d="M629 1362l182 321l-103 39l-128 -330zM183 1152l354 -655v-401l-162 -38l-8 -58h483l9 63l-172 28v418l347 647l127 32l6 56h-417l-6 -56l184 -36l-287 -547l-296 551l163 32l8 56h-463l-9 -56z" glyph-name="Yacute" horiz-adv-x="1214" unicode="Ý"/>
<glyph d="M225 96l-165 -39l-7 -57h546l11 64l-235 30v852q11 1 46 4t61 3q115 0 194.5 -43.5t118.5 -116.5t39 -161q0 -140 -85 -222.5t-259 -86.5l-53 -1q0 -21 14 -63q48 -5 84 -5q124 0 230.5 51t170 144t63.5 211q0 192 -136.5 278t-356.5 86q-70 0 -131 -3v135l173 31l8 57 h-501l-8 -57l178 -33v-1058z" glyph-name="Thorn" horiz-adv-x="1045" unicode="Þ"/>
<glyph d="M342 945q0 133 44.5 203.5t128.5 70.5q54 0 101 -27.5t74.5 -75t27.5 -104.5q0 -47 -22 -84t-67 -89q-35 -40 -55.5 -68.5t-35 -66.5t-14.5 -84q0 -67 35 -119t84 -88.5t127 -82.5q58 -34 92 -57.5t56 -51.5t22 -60q0 -55 -41.5 -87.5t-107.5 -32.5q-163 0 -204 228 q-45 -5 -75.5 -33t-30.5 -78q0 -54 36.5 -97.5t100 -68.5t142.5 -25q77 0 145.5 31.5t110 87.5t41.5 128q0 61 -32.5 108.5t-79.5 80.5t-123 77q-66 38 -104.5 65t-64.5 61t-26 76q0 32 22 63t67 77q41 42 66.5 73.5t43.5 72t18 86.5q0 74 -35.5 131t-97 88t-136.5 31 q-108 0 -188.5 -57.5t-125.5 -155t-52 -214.5l-138 -24l-11 -49h147v-716l-151 -36l-12 -52h298v945z" glyph-name="germandbls" horiz-adv-x="1101" unicode="ß"/>
<glyph d="M371 990l51 31l-133 335l-104 -37zM381.5 0.5q57.5 25.5 94.5 61t54 68.5h8v-14q0 -55 35.5 -94.5t104.5 -39.5q27 0 48 3.5t51 11.5l20 5l9 60l-58 11q-44 7 -65.5 26t-28 49t-6.5 82v351q0 157 -59 230.5t-188 73.5q-72 0 -146 -29t-122 -76.5t-48 -98.5t33 -70.5 t80 -19.5q5 82 16 128t37.5 70t77.5 24q103 0 147.5 -74t44.5 -211v-67q-157 -7 -263.5 -46.5t-159 -105t-52.5 -150.5q0 -56 28.5 -98t75.5 -64t102 -22q72 0 129.5 25.5zM521 187q-27 -48 -82 -82t-121 -34q-40 0 -70 18t-45.5 47.5t-15.5 60.5q0 177 334 213v-223z" glyph-name="agrave" horiz-adv-x="821" unicode="à"/>
<glyph d="M384 990l182 321l-103 39l-128 -330zM381.5 0.5q57.5 25.5 94.5 61t54 68.5h8v-14q0 -55 35.5 -94.5t104.5 -39.5q27 0 48 3.5t51 11.5l20 5l9 60l-58 11q-44 7 -65.5 26t-28 49t-6.5 82v351q0 157 -59 230.5t-188 73.5q-72 0 -146 -29t-122 -76.5t-48 -98.5t33 -70.5 t80 -19.5q5 82 16 128t37.5 70t77.5 24q103 0 147.5 -74t44.5 -211v-67q-157 -7 -263.5 -46.5t-159 -105t-52.5 -150.5q0 -56 28.5 -98t75.5 -64t102 -22q72 0 129.5 25.5zM521 187q-27 -48 -82 -82t-121 -34q-40 0 -70 18t-45.5 47.5t-15.5 60.5q0 177 334 213v-223z" glyph-name="aacute" horiz-adv-x="821" unicode="á"/>
<glyph d="M199 980l149 123h9l173 -122l40 37l-178 186l-55 -14l-168 -180zM381.5 0.5q57.5 25.5 94.5 61t54 68.5h8v-14q0 -55 35.5 -94.5t104.5 -39.5q27 0 48 3.5t51 11.5l20 5l9 60l-58 11q-44 7 -65.5 26t-28 49t-6.5 82v351q0 157 -59 230.5t-188 73.5q-72 0 -146 -29 t-122 -76.5t-48 -98.5t33 -70.5t80 -19.5q5 82 16 128t37.5 70t77.5 24q103 0 147.5 -74t44.5 -211v-67q-157 -7 -263.5 -46.5t-159 -105t-52.5 -150.5q0 -56 28.5 -98t75.5 -64t102 -22q72 0 129.5 25.5zM521 187q-27 -48 -82 -82t-121 -34q-40 0 -70 18t-45.5 47.5 t-15.5 60.5q0 177 334 213v-223z" glyph-name="acircumflex" horiz-adv-x="821" unicode="â"/>
<glyph d="M165 1010q9 15 24.5 29t33.5 14q7 0 10 -1l201 -42q12 -3 23 -3q42 0 71.5 31.5t45 68t15.5 42.5l-42 2q-2 -4 -9.5 -17.5t-21.5 -26t-33 -12.5q-4 0 -12 2l-203 42q-8 2 -22 2q-41 0 -69 -31.5t-42 -67t-14 -42.5l33 -10q2 5 11 20zM381.5 0.5q57.5 25.5 94.5 61 t54 68.5h8v-14q0 -55 35.5 -94.5t104.5 -39.5q27 0 48 3.5t51 11.5l20 5l9 60l-58 11q-44 7 -65.5 26t-28 49t-6.5 82v351q0 157 -59 230.5t-188 73.5q-72 0 -146 -29t-122 -76.5t-48 -98.5t33 -70.5t80 -19.5q5 82 16 128t37.5 70t77.5 24q103 0 147.5 -74t44.5 -211v-67 q-157 -7 -263.5 -46.5t-159 -105t-52.5 -150.5q0 -56 28.5 -98t75.5 -64t102 -22q72 0 129.5 25.5zM521 187q-27 -48 -82 -82t-121 -34q-40 0 -70 18t-45.5 47.5t-15.5 60.5q0 177 334 213v-223z" glyph-name="atilde" horiz-adv-x="821" unicode="ã"/>
<glyph d="M281 1001.5q19 21.5 19 59.5q0 36 -20 57t-52 21q-30 0 -50 -21t-20 -57q0 -37 19.5 -59t51.5 -22q33 0 52 21.5zM549.5 1001.5q19.5 21.5 19.5 59.5q0 36 -20.5 57t-52.5 21q-30 0 -49.5 -21t-19.5 -57q0 -37 19 -59t51 -22q33 0 52.5 21.5zM381.5 0.5 q57.5 25.5 94.5 61t54 68.5h8v-14q0 -55 35.5 -94.5t104.5 -39.5q27 0 48 3.5t51 11.5l20 5l9 60l-58 11q-44 7 -65.5 26t-28 49t-6.5 82v351q0 157 -59 230.5t-188 73.5q-72 0 -146 -29t-122 -76.5t-48 -98.5t33 -70.5t80 -19.5q5 82 16 128t37.5 70t77.5 24 q103 0 147.5 -74t44.5 -211v-67q-157 -7 -263.5 -46.5t-159 -105t-52.5 -150.5q0 -56 28.5 -98t75.5 -64t102 -22q72 0 129.5 25.5zM521 187q-27 -48 -82 -82t-121 -34q-40 0 -70 18t-45.5 47.5t-15.5 60.5q0 177 334 213v-223z" glyph-name="adieresis" horiz-adv-x="821" unicode="ä"/>
<glyph d="M447.5 1004.5q38.5 24.5 60 65t21.5 85.5q0 72 -43 117.5t-114 45.5q-46 0 -84.5 -23.5t-60.5 -63t-22 -85.5q0 -76 42.5 -121t112.5 -45q49 0 87.5 24.5zM433.5 1234q27.5 -40 27.5 -92q0 -56 -24 -86.5t-66 -30.5q-46 0 -72.5 41t-26.5 92q0 48 22.5 82t66.5 34 q45 0 72.5 -40zM381.5 0.5q57.5 25.5 94.5 61t54 68.5h8v-14q0 -55 35.5 -94.5t104.5 -39.5q27 0 48 3.5t51 11.5l20 5l9 60l-58 11q-44 7 -65.5 26t-28 49t-6.5 82v351q0 157 -59 230.5t-188 73.5q-72 0 -146 -29t-122 -76.5t-48 -98.5t33 -70.5t80 -19.5q5 82 16 128 t37.5 70t77.5 24q103 0 147.5 -74t44.5 -211v-67q-157 -7 -263.5 -46.5t-159 -105t-52.5 -150.5q0 -56 28.5 -98t75.5 -64t102 -22q72 0 129.5 25.5zM521 187q-27 -48 -82 -82t-121 -34q-40 0 -70 18t-45.5 47.5t-15.5 60.5q0 177 334 213v-223z" glyph-name="aring" horiz-adv-x="821" unicode="å"/>
<glyph d="M382 2.5q63 28.5 106 74t58 95.5q18 -60 69.5 -106.5t115.5 -71t118 -24.5q96 0 176 36t133 98l-19 42q-58 -40 -109.5 -58t-111.5 -18q-95 0 -158.5 48.5t-94.5 129.5t-33 180l483 20q7 26 12.5 66.5t5.5 63.5q0 153 -68.5 230.5t-182.5 77.5q-77 0 -150 -34t-127 -104 q-21 71 -74 105.5t-134 34.5q-70 0 -143.5 -27t-121.5 -72t-48 -96q0 -84 108 -84q9 71 21 113t39.5 66.5t76.5 24.5q102 0 140.5 -67.5t38.5 -206.5v-63q-170 -25 -271.5 -68.5t-146 -103.5t-44.5 -141q0 -59 27.5 -102t73.5 -65t100 -22q72 0 135 28.5zM948 754.5 q44 -54.5 44 -143.5q0 -15 -3 -42t-7 -40l-350 -37q2 97 29.5 169t72.5 110t98 38q72 0 116 -54.5zM508 255q0 -53 -30 -97.5t-76.5 -70t-92.5 -25.5q-60 0 -93.5 38t-33.5 100q0 63 34.5 104.5t105 67.5t186.5 44v-161z" glyph-name="ae" horiz-adv-x="1203" unicode="æ"/>
<glyph d="M630 24.5q-63 -34.5 -138 -47.5l-38 -56q39 -34 64 -70.5t25 -80.5q0 -56 -52.5 -95.5t-147.5 -67.5l-16 51q43 15 73 41.5t30 49.5q0 29 -17 52.5t-37 42.5t-26 25l70 101h-2q-112 0 -195 58t-127 157t-44 220q0 144 54 254t145.5 169.5t200.5 59.5q80 0 131.5 -23 t75.5 -60t24 -79q0 -83 -95 -99q-31 87 -74 135t-110 48q-60 0 -108 -39t-76 -113.5t-28 -177.5q0 -117 35 -210.5t101 -147t156 -53.5q122 0 219 79l21 -46q-31 -43 -94 -77.5z" glyph-name="ccedilla" horiz-adv-x="765" unicode="ç"/>
<glyph d="M407 980l51 31l-133 335l-104 -37zM587 6q80 36 133 98l-19 44q-56 -38 -107 -54t-114 -16q-94 0 -158 51t-95.5 134t-33.5 182l484 6q7 26 12 66.5t5 64.5q0 152 -67.5 228t-182.5 76q-99 0 -189.5 -55.5t-146.5 -161.5t-56 -249q0 -146 49 -247.5t130.5 -152 t179.5 -50.5q96 0 176 36zM510.5 755q42.5 -54 42.5 -145q0 -60 -7 -80l-351 -23q2 98 29.5 166t72 102t98.5 34q73 0 115.5 -54z" glyph-name="egrave" horiz-adv-x="765" unicode="è"/>
<glyph d="M440 980l182 321l-103 39l-128 -330zM587 6q80 36 133 98l-19 44q-56 -38 -107 -54t-114 -16q-94 0 -158 51t-95.5 134t-33.5 182l484 6q7 26 12 66.5t5 64.5q0 152 -67.5 228t-182.5 76q-99 0 -189.5 -55.5t-146.5 -161.5t-56 -249q0 -146 49 -247.5t130.5 -152 t179.5 -50.5q96 0 176 36zM510.5 755q42.5 -54 42.5 -145q0 -60 -7 -80l-351 -23q2 98 29.5 166t72 102t98.5 34q73 0 115.5 -54z" glyph-name="eacute" horiz-adv-x="765" unicode="é"/>
<glyph d="M230 980l149 123h9l173 -122l40 37l-178 186l-55 -14l-168 -180zM587 6q80 36 133 98l-19 44q-56 -38 -107 -54t-114 -16q-94 0 -158 51t-95.5 134t-33.5 182l484 6q7 26 12 66.5t5 64.5q0 152 -67.5 228t-182.5 76q-99 0 -189.5 -55.5t-146.5 -161.5t-56 -249 q0 -146 49 -247.5t130.5 -152t179.5 -50.5q96 0 176 36zM510.5 755q42.5 -54 42.5 -145q0 -60 -7 -80l-351 -23q2 98 29.5 166t72 102t98.5 34q73 0 115.5 -54z" glyph-name="ecircumflex" horiz-adv-x="765" unicode="ê"/>
<glyph d="M335 1006.5q19 21.5 19 59.5q0 36 -20 57t-52 21q-30 0 -50 -21t-20 -57q0 -37 19.5 -59t51.5 -22q33 0 52 21.5zM603.5 1006.5q19.5 21.5 19.5 59.5q0 36 -20.5 57t-52.5 21q-30 0 -49.5 -21t-19.5 -57q0 -37 19 -59t51 -22q33 0 52.5 21.5zM587 6q80 36 133 98l-19 44 q-56 -38 -107 -54t-114 -16q-94 0 -158 51t-95.5 134t-33.5 182l484 6q7 26 12 66.5t5 64.5q0 152 -67.5 228t-182.5 76q-99 0 -189.5 -55.5t-146.5 -161.5t-56 -249q0 -146 49 -247.5t130.5 -152t179.5 -50.5q96 0 176 36zM510.5 755q42.5 -54 42.5 -145q0 -60 -7 -80 l-351 -23q2 98 29.5 166t72 102t98.5 34q73 0 115.5 -54z" glyph-name="edieresis" horiz-adv-x="765" unicode="ë"/>
<glyph d="M264 990l51 31l-133 335l-104 -37zM488 0l11 57l-160 30v784l-16 16l-259 -22l-8 -51l152 -42v-685l-151 -32l-12 -55h443z" glyph-name="igrave" horiz-adv-x="556" unicode="ì"/>
<glyph d="M263 990l182 321l-103 39l-128 -330zM488 0l11 57l-160 30v784l-16 16l-259 -22l-8 -51l152 -42v-685l-151 -32l-12 -55h443z" glyph-name="iacute" horiz-adv-x="556" unicode="í"/>
<glyph d="M76 990l149 123h9l173 -122l40 37l-178 186l-55 -14l-168 -180zM488 0l11 57l-160 30v784l-16 16l-259 -22l-8 -51l152 -42v-685l-151 -32l-12 -55h443z" glyph-name="icircumflex" horiz-adv-x="556" unicode="î"/>
<glyph d="M168 1009.5q19 21.5 19 59.5q0 36 -20 57t-52 21q-30 0 -50 -21t-20 -57q0 -37 19.5 -59t51.5 -22q33 0 52 21.5zM436.5 1009.5q19.5 21.5 19.5 59.5q0 36 -20.5 57t-52.5 21q-30 0 -49.5 -21t-19.5 -57q0 -37 19 -59t51 -22q33 0 52.5 21.5zM492 0l11 57l-160 30v784 l-16 16l-259 -22l-8 -51l152 -42v-685l-151 -32l-12 -55h443z" glyph-name="idieresis" horiz-adv-x="560" unicode="ï"/>
<glyph d="M620 32.5q85 59.5 133.5 170.5t48.5 262q0 201 -55.5 363t-147.5 284l103 21l9 64l-156 -33q-81 91 -158 139h-92q77 -70 146 -162l-187 -38l-11 -63l232 46q102 -150 133 -265l-7 -1q-22 56 -79.5 92.5t-118.5 36.5q-105 0 -187.5 -63t-128.5 -176t-46 -259 q0 -127 41 -236t126 -175.5t209 -66.5q108 0 193 59.5zM400 875q64 -1 125.5 -57.5t100.5 -159t39 -233.5q0 -172 -52 -273.5t-163 -101.5q-74 0 -132.5 52t-92.5 153.5t-35 243.5q0 165 50 270t155 106h5z" glyph-name="eth" horiz-adv-x="851" unicode="ð"/>
<glyph d="M336 1010q9 15 24.5 29t33.5 14q7 0 10 -1l201 -42q12 -3 23 -3q42 0 71.5 31.5t45 68t15.5 42.5l-42 2q-2 -4 -9.5 -17.5t-21.5 -26t-33 -12.5q-4 0 -12 2l-203 42q-8 2 -22 2q-41 0 -69 -31.5t-42 -67t-14 -42.5l33 -10q2 5 11 20zM485 58l-146 28v584q60 60 114 85.5 t124 25.5q75 0 122.5 -52.5t47.5 -160.5v-482l-140 -34l-8 -52h413l7 58l-141 28v514q0 144 -62 217t-169 73q-91 0 -176 -49t-135 -111h-8l10 132l-12 14l-265 -30l-7 -52l155 -39v-669l-153 -34l-8 -52h427z" glyph-name="ntilde" horiz-adv-x="1070" unicode="ñ"/>
<glyph d="M450 990l51 31l-133 335l-104 -37zM645 32q92 59 146 165t54 242q0 128 -46 231t-131.5 162t-198.5 59t-209 -58t-152.5 -166.5t-56.5 -255.5q0 -129 48.5 -228.5t138 -154.5t206.5 -55q109 0 201 59zM578 743.5q63 -62.5 94.5 -160.5t31.5 -203q0 -89 -27 -163.5 t-78 -118.5t-120 -44q-92 0 -157 59.5t-97.5 157.5t-32.5 212q0 89 27.5 163t80.5 117t126 43q89 0 152 -62.5z" glyph-name="ograve" horiz-adv-x="893" unicode="ò"/>
<glyph d="M473 990l182 321l-103 39l-128 -330zM645 32q92 59 146 165t54 242q0 128 -46 231t-131.5 162t-198.5 59t-209 -58t-152.5 -166.5t-56.5 -255.5q0 -129 48.5 -228.5t138 -154.5t206.5 -55q109 0 201 59zM578 743.5q63 -62.5 94.5 -160.5t31.5 -203q0 -89 -27 -163.5 t-78 -118.5t-120 -44q-92 0 -157 59.5t-97.5 157.5t-32.5 212q0 89 27.5 163t80.5 117t126 43q89 0 152 -62.5z" glyph-name="oacute" horiz-adv-x="893" unicode="ó"/>
<glyph d="M287 985l149 123h9l173 -122l40 37l-178 186l-55 -14l-168 -180zM645 32q92 59 146 165t54 242q0 128 -46 231t-131.5 162t-198.5 59t-209 -58t-152.5 -166.5t-56.5 -255.5q0 -129 48.5 -228.5t138 -154.5t206.5 -55q109 0 201 59zM578 743.5q63 -62.5 94.5 -160.5 t31.5 -203q0 -89 -27 -163.5t-78 -118.5t-120 -44q-92 0 -157 59.5t-97.5 157.5t-32.5 212q0 89 27.5 163t80.5 117t126 43q89 0 152 -62.5z" glyph-name="ocircumflex" horiz-adv-x="893" unicode="ô"/>
<glyph d="M255 1010q9 15 24.5 29t33.5 14q7 0 10 -1l201 -42q12 -3 23 -3q42 0 71.5 31.5t45 68t15.5 42.5l-42 2q-2 -4 -9.5 -17.5t-21.5 -26t-33 -12.5q-4 0 -12 2l-203 42q-8 2 -22 2q-41 0 -69 -31.5t-42 -67t-14 -42.5l33 -10q2 5 11 20zM645 32q92 59 146 165t54 242 q0 128 -46 231t-131.5 162t-198.5 59t-209 -58t-152.5 -166.5t-56.5 -255.5q0 -129 48.5 -228.5t138 -154.5t206.5 -55q109 0 201 59zM578 743.5q63 -62.5 94.5 -160.5t31.5 -203q0 -89 -27 -163.5t-78 -118.5t-120 -44q-92 0 -157 59.5t-97.5 157.5t-32.5 212 q0 89 27.5 163t80.5 117t126 43q89 0 152 -62.5z" glyph-name="otilde" horiz-adv-x="893" unicode="õ"/>
<glyph d="M372 1006.5q19 21.5 19 59.5q0 36 -20 57t-52 21q-30 0 -50 -21t-20 -57q0 -37 19.5 -59t51.5 -22q33 0 52 21.5zM640.5 1006.5q19.5 21.5 19.5 59.5q0 36 -20.5 57t-52.5 21q-30 0 -49.5 -21t-19.5 -57q0 -37 19 -59t51 -22q33 0 52.5 21.5zM645 32q92 59 146 165 t54 242q0 128 -46 231t-131.5 162t-198.5 59t-209 -58t-152.5 -166.5t-56.5 -255.5q0 -129 48.5 -228.5t138 -154.5t206.5 -55q109 0 201 59zM578 743.5q63 -62.5 94.5 -160.5t31.5 -203q0 -89 -27 -163.5t-78 -118.5t-120 -44q-92 0 -157 59.5t-97.5 157.5t-32.5 212 q0 89 27.5 163t80.5 117t126 43q89 0 152 -62.5z" glyph-name="odieresis" horiz-adv-x="893" unicode="ö"/>
<glyph d="M519.5 707.5q25.5 31.5 25.5 82.5q0 47 -26.5 75.5t-67.5 28.5t-65.5 -28t-24.5 -76q0 -50 25 -82t66 -32q42 0 67.5 31.5zM860 465l11 85h-812l-13 -85h814zM519.5 143.5q25.5 31.5 25.5 81.5q0 47 -26.5 76t-67.5 29t-65.5 -28t-24.5 -76q0 -50 25 -82t66 -32 q42 0 67.5 31.5z" glyph-name="divide" horiz-adv-x="918" unicode="÷"/>
<glyph d="M790 741q39 -60 59.5 -135.5t20.5 -160.5q0 -136 -54 -244t-146 -168t-201 -60q-145 0 -247 85l-42 -52l-137 -6l114 129q-40 57 -61 130t-21 158q0 148 57 258.5t153 169t209 58.5q136 0 232 -87l44 57l135 7zM325.5 774q-52.5 -45 -80 -120t-27.5 -165q0 -149 50 -259 l382 465q-36 58 -86 91t-113 33q-73 0 -125.5 -45zM624 99.5q51 45.5 77.5 121.5t26.5 165q0 65 -12.5 130.5t-36.5 121.5l-383 -462q38 -58 90 -90t118 -32q69 0 120 45.5z" glyph-name="oslash" horiz-adv-x="946" unicode="ø"/>
<glyph d="M454 980l51 31l-133 335l-104 -37zM186 275q0 -299 228 -299q82 0 154.5 40t123.5 116h12v-12q0 -61 36 -101t101 -40q35 0 63 5t63 15l7 59l-54 12q-57 11 -78 44.5t-21 108.5v634l-14 17l-266 -24l-6 -60l157 -36v-567q-39 -43 -91.5 -72t-114.5 -29q-172 0 -172 231 v540l-16 17l-249 -21l-8 -53l145 -43v-482z" glyph-name="ugrave" horiz-adv-x="1026" unicode="ù"/>
<glyph d="M483 990l182 321l-103 39l-128 -330zM186 275q0 -299 228 -299q82 0 154.5 40t123.5 116h12v-12q0 -61 36 -101t101 -40q35 0 63 5t63 15l7 59l-54 12q-57 11 -78 44.5t-21 108.5v634l-14 17l-266 -24l-6 -60l157 -36v-567q-39 -43 -91.5 -72t-114.5 -29q-172 0 -172 231 v540l-16 17l-249 -21l-8 -53l145 -43v-482z" glyph-name="uacute" horiz-adv-x="1026" unicode="ú"/>
<glyph d="M304 990l149 123h9l173 -122l40 37l-178 186l-55 -14l-168 -180zM186 275q0 -299 228 -299q82 0 154.5 40t123.5 116h12v-12q0 -61 36 -101t101 -40q35 0 63 5t63 15l7 59l-54 12q-57 11 -78 44.5t-21 108.5v634l-14 17l-266 -24l-6 -60l157 -36v-567q-39 -43 -91.5 -72 t-114.5 -29q-172 0 -172 231v540l-16 17l-249 -21l-8 -53l145 -43v-482z" glyph-name="ucircumflex" horiz-adv-x="1026" unicode="û"/>
<glyph d="M420 1012.5q19 21.5 19 59.5q0 36 -20 57t-52 21q-30 0 -50 -21t-20 -57q0 -37 19.5 -59t51.5 -22q33 0 52 21.5zM688.5 1012.5q19.5 21.5 19.5 59.5q0 36 -20.5 57t-52.5 21q-30 0 -49.5 -21t-19.5 -57q0 -37 19 -59t51 -22q33 0 52.5 21.5zM186 275q0 -299 228 -299 q82 0 154.5 40t123.5 116h12v-12q0 -61 36 -101t101 -40q35 0 63 5t63 15l7 59l-54 12q-57 11 -78 44.5t-21 108.5v634l-14 17l-266 -24l-6 -60l157 -36v-567q-39 -43 -91.5 -72t-114.5 -29q-172 0 -172 231v540l-16 17l-249 -21l-8 -53l145 -43v-482z" glyph-name="udieresis" horiz-adv-x="1026" unicode="ü"/>
<glyph d="M532 990l182 321l-103 39l-128 -330zM317.5 -346.5q55.5 32.5 101 102.5t93.5 191l330 825l101 36l5 53h-317l-11 -55l130 -35l-230 -576l-215 580l127 33l6 53h-383l-9 -56l124 -33l278 -760l-23 -61q-71 -180 -182 -180q-50 0 -86 12.5t-72 40.5q-45 -39 -45 -98 q0 -29 19 -53t52 -38t74 -14q77 0 132.5 32.5z" glyph-name="yacute" horiz-adv-x="992" unicode="ý"/>
<glyph d="M484 -309l-156 26v961q49 51 99 82.5t112 31.5q112 0 167.5 -100t55.5 -281q0 -100 -29 -178t-87.5 -122.5t-142.5 -44.5q-41 0 -70.5 3.5t-57.5 12.5l4 -86q48 -13 106 -13q120 0 216.5 62.5t151 173t54.5 249.5q0 137 -39 234t-107.5 146.5t-155.5 49.5 q-149 0 -277 -158h-9l12 109v435l-16 16l-261 -20l-8 -54l150 -42l3 -1466l-152 -29l-6 -59h433z" glyph-name="thorn" horiz-adv-x="955" unicode="þ"/>
<glyph d="M109 1358l149 123h9l173 -122l40 37l-178 186l-55 -14l-168 -180z" glyph-name="circumflex" horiz-adv-x="559" unicode="ˆ"/>
<glyph d="M321.5 1386.5q38.5 24.5 60 65t21.5 85.5q0 72 -43 117.5t-114 45.5q-46 0 -84.5 -23.5t-60.5 -63t-22 -85.5q0 -76 42.5 -121t112.5 -45q49 0 87.5 24.5zM307.5 1616q27.5 -40 27.5 -92q0 -56 -24 -86.5t-66 -30.5q-46 0 -72.5 41t-26.5 92q0 48 22.5 82t66.5 34 q45 0 72.5 -40z" glyph-name="ring" horiz-adv-x="482" unicode="˚"/>
<glyph d="M123 1391q9 15 24.5 29t33.5 14q7 0 10 -1l201 -42q12 -3 23 -3q42 0 71.5 31.5t45 68t15.5 42.5l-42 2q-2 -4 -9.5 -17.5t-21.5 -26t-33 -12.5q-4 0 -12 2l-203 42q-8 2 -22 2q-41 0 -69 -31.5t-42 -67t-14 -42.5l33 -10q2 5 11 20z" glyph-name="tilde" horiz-adv-x="625" unicode="˜"/>
<glyph d="M51 449l261 -372l42 51l-177 333l176 313l-36 47l-268 -352z" glyph-name="guilsinglleft" horiz-adv-x="405" unicode="‹"/>
</font>
</defs>
</svg>
