<?xml version="1.0" encoding="UTF-8"?>
<!DOCTYPE svg  PUBLIC '-//W3C//DTD SVG 1.1//EN'  'http://www.w3.org/Graphics/SVG/1.1/DTD/svg11.dtd'>
<svg version="1.1" xmlns="http://www.w3.org/2000/svg">
<defs>
<font id="Norwester-Regular" horiz-adv-x="500">
<font-face font-family="Norwester" font-stretch="condensed" font-weight="400" ascent="800" bbox="0 -154 886.05 875" cap-height="800" descent="-200" panose-1="0 0 5 6 0 0 0 0 0 0" underline-position="-100" underline-thickness="50" unicode-range="U+0020-00F7" units-per-em="1000" x-height="700"/>
<missing-glyph/>
<glyph glyph-name="space" horiz-adv-x="250" unicode=" "/>
<glyph d="M61 800h109q15 -2 16 -16l-7 -545q-2 -15 -16 -16h-95q-15 2 -16 16l-7 545q2 15 16 16zM50 20v92q2 19 20 20h91q19 -2 20 -20v-92q-2 -19 -20 -20h-91q-19 2 -20 20z" glyph-name="exclam" horiz-adv-x="236" unicode="!"/>
<glyph d="M50 688v92q2 19 20 20h91q19 -2 20 -20v-98q-1 -14 -7 -25l-54 -82q-5 -7 -12 -7h-45q-11 2 -8 12l40 88h-25q-19 2 -20 20zM228 688v92q2 19 20 20h91q19 -2 20 -20v-98q-1 -14 -7 -25l-54 -82q-5 -7 -12 -7h-45q-11 2 -8 12l40 88h-25q-19 2 -20 20z" glyph-name="quotedbl" horiz-adv-x="409" unicode='"'/>
<glyph d="M741 587h127q19 0 18 -15q0 -4 -2 -8l-25 -69q-7 -15 -23 -16h-137l-56 -148h151q19 0 18 -15q0 -4 -2 -8l-25 -69q-7 -15 -23 -16h-160l-79 -207q-7 -15 -23 -16l-94 -1q-22 2 -16 23l77 201h-136l-79 -207q-7 -15 -23 -16l-94 -1q-22 2 -16 23l77 201h-128 q-19 0 -18 15q0 4 2 8l25 69q7 15 23 16h137l57 148h-152q-19 0 -18 15q0 4 2 8l25 69q7 15 23 16h161l75 197q7 15 23 16h93q22 -2 16 -23l-72 -190h136l75 197q7 15 23 16h93q22 -2 16 -23zM565 479h-137l-56 -148h136z" glyph-name="numbersign" horiz-adv-x="936" unicode="#"/>
<glyph d="M434 534h-104q-15 2 -16 16v78q-2 39 -40 40h-48q-39 -2 -40 -40v-138l238 -78q25 -12 26 -37v-231q0 -129 -118 -143q-9 -1 -18 -1v-59q-2 -15 -16 -16h-97q-15 2 -16 16v59q-115 4 -132 108q-3 18 -3 36v105q2 15 16 16h104q15 -2 16 -16v-77q2 -39 40 -40h48 q39 2 40 40v133l-237 78q-26 10 -27 37v236q0 121 104 141q15 2 31 3v59q2 15 16 16h97q15 -2 16 -16v-59q124 -4 135 -122q1 -11 1 -22v-106q-2 -15 -16 -16z" glyph-name="dollar" unicode="$"/>
<glyph d="M239 738q76 0 123 -62q33 -44 33 -98q0 -76 -61 -123q-42 -33 -95 -33q-79 0 -126 61q-33 43 -33 95q0 78 61 126q43 34 98 34zM629 734h93q19 0 19 -13q0 -5 -3 -10l-460 -695q-11 -16 -23 -16h-94q-19 0 -19 13q0 5 3 10l461 695q11 16 23 16zM239 634q-35 0 -50 -31 q-6 -13 -6 -25q0 -33 31 -48q13 -6 25 -6q32 0 48 30q6 12 6 24q0 34 -31 50q-12 6 -23 6zM633 301q76 0 123 -62q33 -44 33 -98q0 -76 -61 -123q-42 -33 -95 -33q-79 0 -126 61q-33 43 -33 95q0 78 61 126q43 34 98 34zM633 197q-35 0 -50 -31q-6 -13 -6 -25q0 -33 31 -48 q13 -6 25 -6q32 0 48 30q6 12 6 24q0 34 -31 50q-12 6 -23 6z" glyph-name="percent" horiz-adv-x="869" unicode="%"/>
<glyph d="M195 800h181q19 -2 20 -20v-92q-2 -19 -20 -20h-153q-39 -2 -40 -40v-113q2 -38 40 -39h93v40q2 19 20 20h95q19 -2 20 -20v-40h42q19 -2 20 -20v-92q-2 -19 -20 -20h-42v-324q-2 -19 -20 -20h-236q-126 0 -143 111q-2 16 -2 33v194q0 45 42 64q10 5 21 7v2q-44 7 -59 46 q-4 13 -4 25v174q0 125 112 142q16 2 33 2zM316 344h-93q-39 -2 -40 -40v-132q2 -39 40 -40h93v212z" glyph-name="ampersand" horiz-adv-x="563" unicode="&amp;"/>
<glyph d="M50 688v92q2 19 20 20h91q19 -2 20 -20v-98q-1 -14 -7 -25l-54 -82q-5 -7 -12 -7h-45q-11 2 -8 12l40 88h-25q-19 2 -20 20z" glyph-name="quotesingle" horiz-adv-x="231" unicode="'"/>
<glyph d="M154 800h84q22 -2 16 -23q-121 -310 -57 -637q20 -101 57 -195q6 -22 -16 -23h-84q-17 1 -23 16q-126 317 -58 650q20 101 58 196q7 15 23 16z" glyph-name="parenleft" horiz-adv-x="306" unicode="("/>
<glyph d="M68 800h84q17 -1 23 -16q126 -317 58 -650q-20 -101 -58 -196q-7 -15 -23 -16h-84q-22 2 -16 23q121 310 57 637q-20 101 -57 195q-6 22 16 23z" glyph-name="parenright" horiz-adv-x="306" unicode=")"/>
<glyph d="M646 438v-94q-2 -19 -20 -20h-211v-211q-2 -19 -20 -20h-94q-19 2 -20 20v211h-211q-19 2 -20 20v94q2 19 20 20h211v211q2 19 20 20h94q19 -2 20 -20v-211h211q19 -2 20 -20z" glyph-name="plus" horiz-adv-x="696" unicode="+"/>
<glyph d="M50 20v92q2 19 20 20h91q19 -2 20 -20v-98q-1 -14 -7 -25l-54 -82q-5 -7 -12 -7h-45q-11 2 -8 12l40 88h-25q-19 2 -20 20z" glyph-name="comma" horiz-adv-x="231" unicode=","/>
<glyph d="M50 314v92q2 19 20 20h158q19 -2 20 -20v-92q-2 -19 -20 -20h-158q-19 2 -20 20z" glyph-name="hyphen" horiz-adv-x="298" unicode="-"/>
<glyph d="M50 20v92q2 19 20 20h91q19 -2 20 -20v-92q-2 -19 -20 -20h-91q-19 2 -20 20z" glyph-name="period" horiz-adv-x="231" unicode="."/>
<glyph d="M376 800h93q22 -2 16 -23l-320 -840q-7 -15 -23 -16h-94q-22 2 -16 23l321 840q7 15 23 16z" glyph-name="slash" horiz-adv-x="526" unicode="/"/>
<glyph d="M50 144v512q0 129 118 143q13 1 26 1h112q129 0 143 -118q1 -13 1 -26v-512q0 -129 -118 -143q-13 -1 -26 -1h-112q-129 0 -143 118q-1 13 -1 26zM223 129h58q39 2 40 40v462q-2 39 -40 40h-58q-39 -2 -40 -40v-462q2 -39 40 -40z" glyph-name="zero" unicode="0"/>
<glyph d="M69 775l184 25q15 -2 16 -16v-768q-2 -15 -16 -16h-104q-15 2 -16 16v632l-62 -8q-20 -1 -21 18v96q2 19 19 21z" glyph-name="one" horiz-adv-x="329" unicode="1"/>
<glyph d="M423 383l-223 -120q-14 -9 -14 -24v-87q2 -19 20 -20h108v41q2 19 20 20h96q19 -2 20 -20v-153q-2 -19 -20 -20h-360q-19 2 -20 20v295q0 22 22 35l4 2l238 128v148q-2 39 -40 40h-48q-39 -2 -40 -40v-78q-2 -15 -16 -16h-104q-15 2 -16 16v106q0 129 118 143q13 1 26 1 h112q123 0 141 -107q3 -18 3 -37v-236q0 -22 -23 -35z" glyph-name="two" unicode="2"/>
<glyph d="M451 656v-184q0 -45 -42 -64q-10 -5 -21 -7v-2q44 -7 59 -46q4 -13 4 -25v-184q0 -125 -112 -142q-16 -2 -33 -2h-116q-121 0 -138 107q-2 16 -2 33v33q2 19 20 20h96q19 -2 20 -20v-41h112q19 2 20 20v142q-2 39 -40 40h-118q-19 2 -20 20v92q2 19 20 20h118q39 2 40 39 v143q-2 19 -20 20h-112v-41q-2 -19 -20 -20h-96q-19 2 -20 20v41q0 115 109 130q15 2 31 2h116q126 0 143 -111q2 -16 2 -33z" glyph-name="three" horiz-adv-x="501" unicode="3"/>
<glyph d="M484 362h41q19 -2 20 -20v-86q-2 -19 -20 -20h-41v-216q-2 -19 -20 -20h-87q-19 2 -20 20v218h-287q-19 2 -20 20v89q1 13 7 24l257 416q8 13 24 13h105q18 0 17 -13q-1 -6 -4 -11l-251 -416h152v120q2 19 20 20h87q19 -2 20 -20v-118z" glyph-name="four" horiz-adv-x="595" unicode="4"/>
<glyph d="M80 800h340q19 -2 20 -20v-92q-2 -19 -20 -20h-225v-157l238 -75q16 -7 17 -22v-274q0 -121 -107 -138q-16 -2 -33 -2h-120q-121 0 -138 107q-2 16 -2 33v32q2 19 20 20h96q19 -2 20 -20v-40h109q19 2 20 20v183l-238 75q-16 7 -17 22v348q2 19 20 20z" glyph-name="five" unicode="5"/>
<glyph d="M223 491h87q121 0 138 -107q2 -16 2 -33v-211q0 -121 -107 -138q-16 -2 -33 -2h-120q-121 0 -138 107q-2 16 -2 33v257q0 25 10 50l142 338q7 14 23 15h104q22 0 16 -19q0 -3 -1 -4zM222 132h56q39 2 40 40v147q-2 39 -40 40h-56q-39 -2 -40 -40v-147q2 -39 40 -40z" glyph-name="six" unicode="6"/>
<glyph d="M66 800h410q22 -2 15 -24l-292 -759q-7 -15 -23 -16l-104 -1q-22 2 -16 23l247 644h-237q-15 2 -16 16v100q2 15 16 17z" glyph-name="seven" horiz-adv-x="523" unicode="7"/>
<glyph d="M451 656v-184q0 -45 -42 -64q-10 -5 -21 -7v-2q44 -7 59 -46q4 -13 4 -25v-184q0 -125 -112 -142q-16 -2 -33 -2h-111q-126 0 -143 111q-2 16 -2 33v184q0 45 42 64q10 5 21 7v2q-44 7 -59 46q-4 13 -4 25v184q0 125 112 142q16 2 33 2h111q126 0 143 -111q2 -16 2 -33z M318 505v123q-2 39 -40 40h-55q-39 -2 -40 -40v-123q2 -38 40 -39h55q39 2 40 39zM318 172v122q-2 39 -40 40h-55q-39 -2 -40 -40v-122q2 -39 40 -40h55q39 2 40 40z" glyph-name="eight" horiz-adv-x="501" unicode="8"/>
<glyph d="M277 309h-87q-121 0 -138 107q-2 16 -2 33v211q0 121 107 138q16 2 33 2h120q121 0 138 -107q2 -16 2 -33v-257q0 -25 -10 -50l-142 -338q-7 -14 -23 -15h-104q-22 0 -16 19q0 3 1 4zM278 668h-56q-39 -2 -40 -40v-147q2 -39 40 -40h56q39 2 40 40v147q-2 39 -40 40z" glyph-name="nine" unicode="9"/>
<glyph d="M50 354v92q2 19 20 20h91q19 -2 20 -20v-92q-2 -19 -20 -20h-91q-19 2 -20 20zM50 20v92q2 19 20 20h91q19 -2 20 -20v-92q-2 -19 -20 -20h-91q-19 2 -20 20z" glyph-name="colon" horiz-adv-x="231" unicode=":"/>
<glyph d="M50 355v92q2 19 20 20h91q19 -2 20 -20v-92q-2 -19 -20 -20h-91q-19 2 -20 20zM50 20v92q2 19 20 20h91q19 -2 20 -20v-98q-1 -14 -7 -25l-54 -82q-5 -7 -12 -7h-45q-11 2 -8 12l40 88h-25q-19 2 -20 20z" glyph-name="semicolon" horiz-adv-x="231" unicode=";"/>
<glyph d="M646 539v-94q-2 -19 -20 -20h-556q-19 2 -20 20v94q2 19 20 20h556q19 -2 20 -20zM647 322v-94q-2 -19 -20 -20h-556q-19 2 -20 20v94q2 19 20 20h556q19 -2 20 -20z" glyph-name="equal" horiz-adv-x="697" unicode="="/>
<glyph d="M194 800h112q123 0 141 -107q3 -18 3 -37v-197q-1 -16 -11 -25l-127 -122q-10 -11 -10 -25v-44q-2 -19 -20 -20h-94q-19 2 -20 20v88q1 14 10 24l136 135v138q-2 39 -40 40h-48q-39 -2 -40 -40v-78q-2 -15 -16 -16h-104q-15 2 -16 16v106q0 129 118 143q13 1 26 1z M168 20v92q2 19 20 20h94q19 -2 20 -20v-92q-2 -19 -20 -20h-94q-19 2 -20 20z" glyph-name="question" unicode="?"/>
<glyph d="M194 760h352q129 0 143 -118q1 -13 1 -26v-451q-2 -15 -16 -16h-100q-15 2 -16 16v15l-181 -30q-111 -5 -137 89q-7 25 -7 55v136q0 102 68 135q33 15 76 10l181 -29v42q-2 39 -40 40h-296q-39 -2 -40 -41v-455q2 -39 40 -40h208q19 -2 20 -20v-82q-2 -19 -20 -21 l-236 -9q-111 -5 -137 89q-7 25 -7 55v511q0 126 111 143q16 2 33 2zM355 402v-80q2 -39 40 -40l163 22v117l-163 22q-39 -2 -40 -41z" glyph-name="at" horiz-adv-x="740" unicode="@"/>
<glyph d="M532 0h-106q-13 2 -16 14l-28 146h-178l-27 -146q-5 -13 -16 -14h-107q-16 2 -13 17l166 769q4 13 17 14h139q14 -2 17 -14l166 -769q1 -16 -14 -17zM357 276l-64 349l-64 -349h128z" glyph-name="A" horiz-adv-x="586" unicode="A"/>
<glyph d="M451 656v-184q0 -45 -42 -64q-10 -5 -21 -7v-2q44 -7 59 -46q4 -13 4 -25v-184q0 -125 -112 -142q-16 -2 -33 -2h-240q-15 2 -16 16v768q2 15 16 16h240q126 0 143 -111q2 -16 2 -33zM318 505v123q-2 39 -40 40h-91v-202h91q39 2 40 39zM318 172v122q-2 39 -40 40h-91 v-202h91q39 2 40 40z" glyph-name="B" horiz-adv-x="501" unicode="B"/>
<glyph d="M451 656v-108q-2 -15 -16 -16h-100q-15 2 -16 16v80q-2 39 -40 40h-52q-39 -2 -40 -40v-456q2 -39 40 -40h52q39 2 40 40v80q2 15 16 16h100q15 -2 16 -16v-108q0 -123 -108 -141q-17 -3 -36 -3h-112q-126 0 -143 111q-2 16 -2 33v512q0 125 112 142q16 2 33 2h112 q123 0 141 -107q3 -18 3 -37z" glyph-name="C" horiz-adv-x="501" unicode="C"/>
<glyph d="M50 16v768q2 15 16 16h240q125 0 142 -112q2 -16 2 -33v-511q0 -129 -118 -143q-13 -1 -26 -1h-240q-15 2 -16 16zM186 132h92q39 2 40 40v455q-2 40 -40 41h-92v-536z" glyph-name="D" unicode="D"/>
<glyph d="M449 784v-100q-2 -16 -16 -17h-250v-200h191q15 -2 16 -17v-99q-2 -16 -16 -17h-191v-202h250q15 -2 16 -16v-100q-2 -15 -16 -16h-368q-14 2 -15 16v768q2 15 15 16h368q15 -2 16 -16z" glyph-name="E" horiz-adv-x="499" unicode="E"/>
<glyph d="M450 784v-100q-2 -15 -16 -16h-248v-201h188q15 -2 16 -16v-100q-2 -15 -16 -16h-188v-319q-2 -15 -16 -16h-104q-15 2 -16 16v768q2 15 16 16h368q15 -2 16 -16z" glyph-name="F" unicode="F"/>
<glyph d="M50 144v512q0 129 118 143q13 1 26 1h132q123 0 141 -107q3 -18 3 -37v-104q-2 -15 -16 -16h-100q-15 2 -16 16v76q-2 39 -40 40h-72q-39 -2 -40 -40v-456q2 -39 40 -40h72q39 2 40 40v134h-52q-15 2 -16 16v100q2 15 16 16h168q15 -2 16 -16v-278q0 -123 -108 -141 q-17 -3 -36 -3h-132q-129 0 -143 118q-1 13 -1 26z" glyph-name="G" horiz-adv-x="520" unicode="G"/>
<glyph d="M314 466v318q2 15 16 16h103q16 -2 17 -16v-768q-2 -15 -17 -16h-103q-15 2 -16 16v318h-128v-318q-2 -15 -16 -16h-103q-16 2 -17 16v768q2 15 17 16h103q15 -2 16 -16v-318h128z" glyph-name="H" unicode="H"/>
<glyph d="M66 800h104q15 -2 16 -16v-768q-2 -15 -16 -16h-104q-15 2 -16 16v768q2 15 16 16z" glyph-name="I" horiz-adv-x="236" unicode="I"/>
<glyph d="M314 172v612q2 15 16 16h104q15 -2 16 -16v-640q0 -123 -108 -141q-17 -3 -36 -3h-112q-129 0 -143 118q-1 13 -1 26v104q2 15 16 16h100q15 -2 16 -16v-76q2 -39 40 -40h52q39 2 40 40z" glyph-name="J" unicode="J"/>
<glyph d="M478 0h-106q-17 1 -23 15l-126 297l-37 -71v-221q-2 -19 -20 -20h-96q-19 2 -20 20v760q2 19 20 20h96q19 -2 20 -20v-310l154 315q9 14 23 15h105q18 0 17 -14q-1 -5 -3 -10l-170 -349l181 -404q4 -19 -15 -23z" glyph-name="K" horiz-adv-x="536" unicode="K"/>
<glyph d="M186 132v652q-2 15 -16 16h-104q-15 -2 -16 -16v-768q2 -15 16 -16h358q15 2 16 16v100q-2 15 -16 16h-238z" glyph-name="L" horiz-adv-x="490" unicode="L"/>
<glyph d="M468 800h132q19 -2 20 -20v-760q-2 -19 -20 -20h-93q-19 2 -20 20v450h-7l-99 -452q-6 -17 -22 -18h-49q-17 2 -22 18l-99 452h-7v-450q-2 -19 -20 -20h-92q-19 2 -20 20v760q2 19 20 20h132q17 -2 22 -18l111 -498l111 498q6 17 22 18z" glyph-name="M" horiz-adv-x="670" unicode="M"/>
<glyph d="M357 800h104q15 -2 16 -16v-768q-2 -15 -16 -16h-99q-13 1 -18 13l-153 427h-5v-424q-2 -15 -16 -16h-104q-15 2 -16 16v768q2 15 16 16h99q13 -1 18 -13l152 -425h6v422q2 15 16 16z" glyph-name="N" horiz-adv-x="527" unicode="N"/>
<glyph d="M50 144v512q0 129 118 143q13 1 26 1h112q129 0 143 -118q1 -13 1 -26v-512q0 -129 -118 -143q-13 -1 -26 -1h-112q-129 0 -143 118q-1 13 -1 26zM223 129h58q39 2 40 40v462q-2 39 -40 40h-58q-39 -2 -40 -40v-462q2 -39 40 -40z" glyph-name="O" unicode="O"/>
<glyph d="M50 16v768q2 15 16 16h240q129 0 143 -118q1 -13 1 -26v-244q0 -123 -107 -141q-18 -3 -37 -3h-120v-252q-2 -15 -16 -16h-104q-15 2 -16 16zM186 400h88q39 2 40 40v188q-2 39 -40 40h-88v-268z" glyph-name="P" unicode="P"/>
<glyph d="M450 656v-512q-1 -95 -65 -128l40 -86q6 -14 -9 -17q-3 -1 -5 -1h-104q-11 1 -17 14l-34 74h-62q-129 0 -143 118q-1 13 -1 26v512q0 129 118 143q13 1 26 1h112q129 0 143 -118q1 -13 1 -26zM186 628v-456q2 -39 40 -40h52q39 2 40 40v456q-2 39 -40 40h-52 q-39 -2 -40 -40z" glyph-name="Q" unicode="Q"/>
<glyph d="M461 656v-244q-1 -100 -73 -132l69 -262q2 -17 -14 -18h-104q-14 2 -17 14l-67 254h-69v-252q-2 -15 -16 -16h-104q-15 2 -16 16v768q2 15 16 16h251q129 0 143 -118q1 -13 1 -26zM186 400h99q39 2 40 40v188q-2 39 -40 40h-99v-268z" glyph-name="R" horiz-adv-x="511" unicode="R"/>
<glyph d="M194 800h112q129 0 143 -118q1 -13 1 -26v-106q-2 -15 -16 -16h-104q-15 2 -16 16v78q-2 39 -40 40h-48q-39 -2 -40 -40v-138l238 -78q25 -12 26 -37v-231q0 -129 -118 -143q-13 -1 -26 -1h-112q-123 0 -141 107q-3 18 -3 37v105q2 15 16 16h104q15 -2 16 -16v-77 q2 -39 40 -40h48q39 2 40 40v133l-237 78q-26 10 -27 37v236q0 123 108 141q17 3 36 3z" glyph-name="S" unicode="S"/>
<glyph d="M46 800h368q15 -2 16 -16v-100q-2 -15 -16 -16h-116v-652q-2 -15 -16 -16h-104q-15 2 -16 16v652h-116q-15 2 -16 16v100q2 15 16 16z" glyph-name="T" horiz-adv-x="460" unicode="T"/>
<glyph d="M338 800h92q16 0 19 -15q1 -3 1 -5v-636q0 -129 -118 -143q-13 -1 -26 -1h-112q-129 0 -143 118q-1 13 -1 26v636q0 16 15 19q3 1 5 1h96q16 0 19 -15q1 -3 1 -5v-608q2 -39 40 -40h52q39 2 40 40v608q0 16 15 19q3 1 5 1z" glyph-name="U" unicode="U"/>
<glyph d="M399 800h95q21 -2 18 -22l-169 -760q-6 -17 -22 -18h-100q-17 2 -22 18l-168 760q-2 21 18 22h95q17 -2 22 -18l105 -536l106 536q6 17 22 18z" glyph-name="V" horiz-adv-x="543" unicode="V"/>
<glyph d="M597 800h95q19 -2 19 -21l-86 -760q-3 -18 -21 -19h-98q-17 2 -22 18l-104 452l-105 -453q-6 -16 -22 -17h-100q-19 2 -21 19l-82 760q0 20 19 21h95q19 -2 21 -19l39 -468h5l99 469q6 17 22 18h60q17 -2 22 -18l98 -469h5l41 468q3 18 21 19z" glyph-name="W" horiz-adv-x="761" unicode="W"/>
<glyph d="M337 408l159 -384q8 -23 -15 -24h-103q-17 1 -23 14l-96 242l-96 -242q-7 -13 -23 -14h-103q-23 0 -16 21q1 2 1 3l158 384l-152 368q-8 23 15 24h100q17 -1 23 -14l93 -237l93 237q7 13 23 14h100q23 0 16 -21q-1 -2 -1 -3z" glyph-name="X" horiz-adv-x="538" unicode="X"/>
<glyph d="M408 800h100q19 0 18 -15q0 -4 -2 -8l-183 -445v-312q-2 -19 -20 -20h-96q-19 2 -20 20v312l-183 445q-5 21 16 23h100q17 -1 23 -16l112 -287l112 287q7 15 23 16z" glyph-name="Y" horiz-adv-x="546" unicode="Y"/>
<glyph d="M74 800h376q22 -2 15 -24l-249 -644h220q15 -2 16 -16v-99q-2 -15 -16 -17h-389q-23 0 -16 21q1 2 1 3l249 643h-207q-15 2 -16 16v100q2 15 16 17z" glyph-name="Z" horiz-adv-x="507" unicode="Z"/>
<glyph d="M58 800h93q17 -1 23 -16l321 -840q6 -22 -16 -23h-94q-17 1 -23 16l-320 840q-6 22 16 23z" glyph-name="backslash" horiz-adv-x="527" unicode="\"/>
<glyph d="M0 -134v92q2 19 20 20h603q19 -2 20 -20v-92q-2 -19 -20 -20h-603q-19 2 -20 20z" glyph-name="underscore" horiz-adv-x="643" unicode="_"/>
<glyph d="M522 0h-97q-13 2 -16 14l-32 126h-188l-31 -126q-5 -13 -16 -14h-98q-16 2 -13 17l166 669q4 13 17 14h139q14 -2 17 -14l166 -669q2 -16 -14 -17zM346 256l-63 272l-63 -272h126z" glyph-name="a" horiz-adv-x="567" unicode="a"/>
<glyph d="M451 556v-135q0 -45 -42 -64q-10 -5 -21 -7v-2q44 -7 59 -46q4 -13 4 -25v-133q0 -125 -112 -142q-16 -2 -33 -2h-240q-15 2 -16 16v668q2 15 16 16h240q126 0 143 -111q2 -16 2 -33zM324 454v80q-2 39 -40 40h-110v-159h110q39 2 40 39zM324 166v77q-2 39 -40 40h-110 v-157h110q39 2 40 40z" glyph-name="b" horiz-adv-x="501" unicode="b"/>
<glyph d="M451 556v-108q-2 -15 -16 -16h-94q-15 2 -16 16v82q-2 39 -40 40h-64q-39 -2 -40 -40v-363q2 -39 40 -40h64q39 2 40 40v85q2 15 16 16h94q15 -2 16 -16v-108q0 -123 -108 -141q-17 -3 -36 -3h-112q-126 0 -143 111q-2 16 -2 33v412q0 125 112 142q16 2 33 2h112 q123 0 141 -107q3 -18 3 -37z" glyph-name="c" horiz-adv-x="501" unicode="c"/>
<glyph d="M50 16v668q2 15 16 16h240q125 0 142 -112q2 -16 2 -33v-411q0 -129 -118 -143q-13 -1 -26 -1h-240q-15 2 -16 16zM186 132h92q39 2 40 40v355q-2 40 -40 41h-92v-436z" glyph-name="d" unicode="d"/>
<glyph d="M449 684v-100q-2 -16 -16 -17h-247v-154h188q15 -2 16 -17v-99q-2 -16 -16 -17h-188v-148h247q15 -2 16 -16v-100q-2 -15 -16 -16h-368q-14 2 -15 16v668q2 15 15 16h368q15 -2 16 -16z" glyph-name="e" horiz-adv-x="499" unicode="e"/>
<glyph d="M450 684v-100q-2 -15 -16 -16h-248v-171h188q15 -2 16 -16v-100q-2 -15 -16 -16h-188v-249q-2 -15 -16 -16h-104q-15 2 -16 16v668q2 15 16 16h368q15 -2 16 -16z" glyph-name="f" unicode="f"/>
<glyph d="M50 144v412q0 129 118 143q13 1 26 1h112q123 0 141 -107q3 -18 3 -37v-74q-2 -15 -16 -16h-94q-15 2 -16 16v49q-2 39 -40 40h-64q-39 -2 -40 -40v-362q2 -39 40 -40h64q39 2 40 40v87h-52q-15 2 -16 16v100q2 15 16 16h162q15 -2 16 -16v-228q0 -123 -108 -141 q-17 -3 -36 -3h-112q-129 0 -143 118q-1 13 -1 26z" glyph-name="g" unicode="g"/>
<glyph d="M314 414v270q2 15 16 16h103q16 -2 17 -16v-668q-2 -15 -17 -16h-103q-15 2 -16 16v266h-128v-266q-2 -15 -16 -16h-103q-16 2 -17 16v668q2 15 17 16h103q15 -2 16 -16v-270h128z" glyph-name="h" unicode="h"/>
<glyph d="M66 0h104q15 2 16 16v668q-2 15 -16 16h-104q-15 -2 -16 -16v-668q2 -15 16 -16z" glyph-name="i" horiz-adv-x="236" unicode="i"/>
<glyph d="M314 172v512q2 15 16 16h104q15 -2 16 -16v-540q0 -123 -108 -141q-17 -3 -36 -3h-112q-129 0 -143 118q-1 13 -1 26v104q2 15 16 16h100q15 -2 16 -16v-76q2 -39 40 -40h52q39 2 40 40z" glyph-name="j" unicode="j"/>
<glyph d="M478 0h-106q-16 1 -23 15l-126 247l-37 -71v-171q-2 -19 -20 -20h-96q-19 2 -20 20v660q2 19 20 20h96q19 -2 20 -20v-260l154 265q9 14 23 15h105q17 0 17 -13q0 -6 -3 -11l-170 -299l181 -354q4 -19 -15 -23z" glyph-name="k" horiz-adv-x="536" unicode="k"/>
<glyph d="M186 132v552q-2 15 -16 16h-104q-15 -2 -16 -16v-668q2 -15 16 -16h318q15 2 16 16v100q-2 15 -16 16h-198z" glyph-name="l" horiz-adv-x="450" unicode="l"/>
<glyph d="M468 700h132q19 -2 20 -20v-660q-2 -19 -20 -20h-93q-19 2 -20 20v393h-7l-94 -396q-6 -16 -22 -17h-59q-17 1 -22 17l-94 396h-7v-393q-2 -19 -20 -20h-92q-19 2 -20 20v660q2 19 20 20h132q17 -1 22 -17l111 -446l111 446q6 16 22 17z" glyph-name="m" horiz-adv-x="670" unicode="m"/>
<glyph d="M367 700h94q15 -2 16 -16v-668q-2 -15 -16 -16h-79q-12 1 -18 13l-188 382v-379q-2 -15 -16 -16h-94q-15 2 -16 16v668q2 15 16 16h79q12 -1 18 -13l188 -382v379q2 15 16 16z" glyph-name="n" horiz-adv-x="527" unicode="n"/>
<glyph d="M50 144v412q0 129 118 143q13 1 26 1h112q129 0 143 -118q1 -13 1 -26v-412q0 -129 -118 -143q-13 -1 -26 -1h-112q-129 0 -143 118q-1 13 -1 26zM220 129h64q39 2 40 40v362q-2 39 -40 40h-64q-39 -2 -40 -40v-362q2 -39 40 -40z" glyph-name="o" unicode="o"/>
<glyph d="M50 16v668q2 15 16 16h240q129 0 143 -118q1 -13 1 -26v-196q0 -128 -118 -142q-13 -2 -26 -2l-126 -1v-200q-2 -15 -16 -16l-98 1q-15 2 -16 16zM180 344l100 1q39 2 40 40v146q-2 39 -40 40l-100 -1v-226z" glyph-name="p" unicode="p"/>
<glyph d="M450 556v-412q-1 -95 -65 -128l40 -86q6 -14 -9 -17q-3 -1 -5 -1h-104q-11 1 -17 14l-34 74h-62q-129 0 -143 118q-1 13 -1 26v412q0 129 118 143q13 1 26 1h112q129 0 143 -118q1 -13 1 -26zM180 531v-362q2 -39 40 -40h64q39 2 40 40v362q-2 39 -40 40h-64 q-39 -2 -40 -40z" glyph-name="q" unicode="q"/>
<glyph d="M450 556v-201q-1 -87 -56 -122l52 -215q2 -17 -14 -18h-98q-14 2 -17 14l-48 197h-89v-195q-2 -15 -16 -16h-98q-15 2 -16 16v668q2 15 16 16h240q129 0 143 -118q1 -13 1 -26zM180 340h100q39 2 40 40v151q-2 39 -40 40h-100v-231z" glyph-name="r" unicode="r"/>
<glyph d="M194 700h112q129 0 143 -118q1 -13 1 -26v-66q-2 -15 -16 -16h-101q-15 2 -16 16v42q-2 39 -40 40h-55q-39 -2 -40 -40v-85l242 -78q25 -10 26 -37v-188q0 -129 -118 -143q-13 -1 -26 -1h-112q-123 0 -141 107q-3 18 -3 37v65q2 15 16 16h101q15 -2 16 -16v-42 q2 -39 40 -40h54q39 2 40 40v101l-240 78q-26 10 -27 37v173q0 123 108 141q17 3 36 3z" glyph-name="s" unicode="s"/>
<glyph d="M414 700h-368q-15 -2 -16 -16v-100q2 -15 16 -16h116v-552q2 -15 16 -16h104q15 2 16 16v552h116q15 2 16 16v100q-2 15 -16 16z" glyph-name="t" horiz-adv-x="460" unicode="t"/>
<glyph d="M338 700h92q16 0 19 -15q1 -3 1 -5v-536q0 -129 -118 -143q-13 -1 -26 -1h-112q-129 0 -143 118q-1 13 -1 26v536q0 16 15 19q3 1 5 1h96q16 0 19 -15q1 -3 1 -5v-508q2 -39 40 -40h52q39 2 40 40v508q0 16 15 19q3 1 5 1z" glyph-name="u" unicode="u"/>
<glyph d="M383 700h91q21 -2 18 -22l-159 -660q-6 -17 -22 -18h-100q-17 2 -22 18l-158 660q-2 21 18 22h91q17 -2 22 -18l99 -452l100 452q6 17 22 18z" glyph-name="v" horiz-adv-x="523" unicode="v"/>
<glyph d="M616 700h94q21 -2 19 -21l-96 -661q-5 -17 -22 -18h-108q-17 2 -22 18l-92 410l-93 -410q-6 -17 -22 -18h-110q-19 2 -22 19l-92 660q-1 20 19 21h94q18 -2 21 -19l49 -418h5l98 420q6 16 22 17h61q17 -1 22 -17l98 -420h5l51 418q5 18 21 19z" glyph-name="w" horiz-adv-x="767" unicode="w"/>
<glyph d="M359 358l168 -334q5 -21 -15 -24h-103q-16 1 -23 14l-106 217l-106 -217q-8 -14 -23 -14h-103q-19 0 -18 14q1 5 3 10l169 334l-159 318q-10 18 8 23q4 1 7 1h103q16 -1 23 -14l96 -202l96 202q8 14 23 14h103q19 0 18 -15q-1 -5 -3 -9z" glyph-name="x" horiz-adv-x="570" unicode="x"/>
<glyph d="M398 700h100q19 0 18 -15l-2 -8l-183 -415v-242q-2 -19 -20 -20h-96q-19 2 -20 20v242l-183 415q-8 18 9 22q4 1 7 1h100q16 -1 23 -16l112 -257l112 257q8 15 23 16z" glyph-name="y" horiz-adv-x="526" unicode="y"/>
<glyph d="M82 700h379q19 0 18 -14q-1 -5 -3 -10l-255 -553h219q15 -2 16 -16v-90q-2 -15 -16 -17h-392q-19 0 -18 14q1 5 3 10l255 544h-206q-15 2 -16 16v99q2 15 16 17z" glyph-name="z" horiz-adv-x="508" unicode="z"/>
<glyph d="M485 532h-100q-15 2 -16 16v80q-2 39 -40 40h-52q-39 -2 -40 -40v-219h194q19 -2 20 -20v-92q-2 -19 -20 -20h-194v-145h244q19 -2 20 -20v-92q-2 -19 -20 -20h-411q-19 2 -20 20v75q1 17 16 23l19 8q14 7 15 23v128h-30q-19 2 -20 20v92q2 19 20 20h30v247 q0 125 112 142q16 2 33 2h112q123 0 141 -107q3 -18 3 -37v-108q-2 -15 -16 -16z" glyph-name="sterling" horiz-adv-x="551" unicode="£"/>
<glyph d="M160 806q66 0 104 -54q25 -35 25 -77q0 -66 -54 -105q-34 -24 -75 -24q-69 0 -107 55q-23 34 -23 74q0 68 54 107q35 24 76 24zM160 721q-30 0 -42 -28q-4 -9 -4 -18q0 -29 28 -41q9 -4 18 -4q28 0 41 27q4 9 4 18q0 29 -27 42q-9 4 -18 4z" glyph-name="degree" horiz-adv-x="319" unicode="°"/>
<glyph d="M478 635l67 -67q13 -14 0 -28l-149 -149l149 -149q13 -14 0 -28l-67 -67q-14 -13 -28 0l-149 149l-149 -149q-14 -13 -28 0l-67 67q-13 14 0 28l149 149l-149 149q-13 14 0 28l67 67q14 13 28 0l149 -149l149 149q14 13 28 0z" glyph-name="multiply" horiz-adv-x="602" unicode="×"/>
<glyph d="M283 578v92q2 19 20 20h91q19 -2 20 -20v-92q-2 -19 -20 -20h-91q-19 2 -20 20zM646 438v-94q-2 -19 -20 -20h-556q-19 2 -20 20v94q2 19 20 20h556q19 -2 20 -20zM283 114v92q2 19 20 20h91q19 -2 20 -20v-92q-2 -19 -20 -20h-91q-19 2 -20 20z" glyph-name="divide" horiz-adv-x="696" unicode="÷"/>
</font>
</defs>
</svg>
