<?xml version="1.0" encoding="UTF-8" standalone="no"?>
<!DOCTYPE svg  PUBLIC '-//W3C//DTD SVG 1.1//EN'  'http://www.w3.org/Graphics/SVG/1.1/DTD/svg11.dtd'>
<svg version="1.1" xmlns="http://www.w3.org/2000/svg">
<defs>
<font id="Optima" horiz-adv-x="1139">
<font-face underline-thickness="38" panose-1="2 2 5 0 0 0 0 0 0 0" cap-height="1395" bbox="-68 -541 2023 1880" underline-position="-198" descent="-410" x-height="963" ascent="1638" unicode-range="U+0021-00FE" font-family="Optima" font-weight="400" units-per-em="2048"/>
<missing-glyph/>
<glyph d="M436 1221l-74 -867h-40l-78 867v61q0 143 96 143q94 0 98 -143q0 -45 -2 -61zM217 100q0 51 38 87t87 36q34 0 61 -17t43.5 -45t16.5 -61q0 -49 -36 -86t-85 -37q-50 0 -87.5 36.5t-37.5 86.5z" horiz-adv-x="682" unicode="!" glyph-name="exclam"/>
<glyph d="M242 1262v-347q0 -66 -14.5 -94t-53.5 -28q-40 0 -55 25.5t-15 96.5v347q-2 18 -2 49q0 114 72 114q38 0 54 -26t16 -84q0 -35 -2 -53zM575 1262v-347q0 -69 -14.5 -95.5t-52.5 -26.5q-40 0 -55 25.5t-15 96.5v347q-2 18 -2 49q0 114 72 114q38 0 54 -26t16 -84 q0 -35 -3 -53z" horiz-adv-x="682" unicode='&quot;' glyph-name="quotedbl"/>
<glyph d="M1022 557v-115h-223l-64 -442h-119l64 442h-274l-68 -442h-119l68 442h-219v115h237l43 272h-225v115h242l63 416h119l-64 -416h273l61 416h119l-62 -416h199v-115h-215l-41 -272h205zM739 829h-272l-43 -272h274z" unicode="#" glyph-name="numbersign"/>
<glyph d="M618 596v-524q60 13 106.5 50t72.5 94t26 128q0 59 -20 102t-48.5 68t-61.5 43t-75 39zM537 821v471q-86 -19 -137.5 -80.5t-51.5 -148.5q0 -58 21 -101.5t50 -69.5t64 -44t54 -27zM618 1298v-514q53 -21 117.5 -46.5t120 -63t91.5 -100t36 -152.5q0 -117 -47 -208.5 t-130.5 -148.5t-187.5 -75v-228q-10 2 -19.5 4.5t-20.5 2.5q-8 -1 -14.5 -1.5t-14 -2.5t-12.5 -3v215q-126 0 -219 21t-164 86q6 22 12.5 42.5t12 43.5t8.5 45.5t3 44.5h23q67 -101 140 -151t184 -50v574q-110 42 -174 75.5t-119.5 105.5t-55.5 185q0 108 45 187.5 t123.5 125.5t180.5 62v158q14 -2 24 -4t17 -2q8 0 18 2t22 4v-152q69 0 155.5 -17.5t154.5 -76.5q-32 -68 -54 -162h-22q-76 166 -234 174z" unicode="$" glyph-name="dollar"/>
<glyph d="M653 831q98 69 153.5 143.5t55.5 172.5q0 49 -20.5 87.5t-57.5 61.5t-86 23q-84 0 -129 -54.5t-45 -138.5q0 -117 129 -295zM1094 291l256 -295q-82 8 -125 8q-20 0 -53.5 -2t-63.5 -4q-78 113 -129 172q-56 -61 -127 -107t-151 -69t-164 -23q-171 0 -280.5 93 t-109.5 249q0 95 47.5 175t126.5 142t185 115l12 7q-77 118 -107 178t-30 141q0 92 40 160.5t112 105.5t163 37q119 0 195 -58t76 -157q0 -81 -39 -147t-92 -112t-148 -112q28 -35 73 -95t97 -125t82 -99l109 -123q62 90 127 198.5t116 205.5q26 -45 78 -84 q-140 -213 -276 -375zM553 702q-5 -3 -9 -5t-7 -5q-105 -67 -164.5 -144.5t-59.5 -187.5q0 -83 40 -152.5t109 -108t152 -38.5q105 0 191 52.5t133 99.5q-247 302 -385 489z" horiz-adv-x="1479" unicode="&amp;" glyph-name="ampersand"/>
<glyph d="M352 1262v-347q0 -69 -14.5 -95.5t-52.5 -26.5q-40 0 -55 25.5t-15 96.5v347q-2 18 -2 49q0 57 16.5 85.5t55.5 28.5t54 -26t15 -84q0 -35 -2 -53z" horiz-adv-x="569" unicode="&apos;" glyph-name="quotesingle"/>
<glyph d="M453 1532l41 -39q-130 -180 -183 -389t-53 -463q0 -70 6 -144.5t19 -151.5t28 -134q18 -69 43 -128t53.5 -109.5t86.5 -141.5l-41 -41q-91 105 -150 200.5t-100 204.5t-58.5 225.5t-17.5 250.5q0 162 36 313.5t109.5 290.5t180.5 256z" horiz-adv-x="569" unicode="(" glyph-name="parenleft"/>
<glyph d="M117 -209l-41 41q50 79 83.5 138t57 115.5t41.5 125.5q15 57 28 134t19 151t6 145q0 126 -12 237t-37 213.5t-71.5 205.5t-114.5 196l41 39q107 -117 179.5 -254.5t109 -290.5t36.5 -315q0 -183 -33 -332t-103.5 -281t-188.5 -268z" horiz-adv-x="569" unicode=")" glyph-name="parenright"/>
<glyph d="M168 1278l258 -184l-29 315q78 0 117 2l-31 -321l256 190q27 -60 62 -104l-289 -132l287 -126q-26 -38 -58 -103l-260 182l35 -317q-16 1 -29.5 1.5t-35.5 0.5q-35 0 -54 -2l29 311l-250 -182q-8 14 -21.5 37.5t-25.5 42.5l-12 20l286 133l-294 132q42 48 59 104z" horiz-adv-x="909" unicode="*" glyph-name="asterisk"/>
<glyph d="M555 586v448h131v-448h451v-131h-451v-455h-131v455h-451v131h451z" horiz-adv-x="1241" unicode="+" glyph-name="plus"/>
<glyph d="M94 -330l144 455q16 51 35 84t59 33q35 0 59.5 -20.5t24.5 -55.5q0 -17 -6.5 -36.5t-15.5 -35t-23 -37.5l-242 -401z" horiz-adv-x="569" unicode="," glyph-name="comma"/>
<glyph d="M84 389v127h512v-127h-512z" horiz-adv-x="682" unicode="-" glyph-name="hyphen"/>
<glyph d="M162 100q0 51 38 87t87 36q32 0 60 -17t44.5 -45t16.5 -61q0 -49 -36 -86t-85 -37q-50 0 -87.5 36.5t-37.5 86.5z" horiz-adv-x="569" unicode="." glyph-name="period"/>
<glyph d="M621 1532l-584 -1741q-28 4 -47 4q-16 0 -58 -4l584 1741q38 -4 53 -4q18 0 52 4z" horiz-adv-x="569" unicode="/" glyph-name="slash"/>
<glyph d="M578 41q106 0 174 77.5t98.5 221.5t30.5 348q0 130 -17 240t-54 195.5t-93.5 134.5t-134.5 49q-96 -3 -159.5 -45t-99.5 -120t-50.5 -192t-14.5 -266q0 -265 58.5 -454t261.5 -189zM90 641q0 133 22.5 263t76.5 234.5t152 168t245 63.5q156 0 259 -76.5t153.5 -228.5 t50.5 -377q0 -165 -34 -298t-96.5 -224.5t-152 -140t-193.5 -48.5q-136 0 -229.5 49.5t-148.5 137.5t-80 209t-25 268z" unicode="0" glyph-name="zero"/>
<glyph d="M496 -6v1237l-15 6l-227 -123q-20 48 -61 76q129 53 238.5 106t193.5 105l34 -10v-1397q-20 2 -33 3t-22 2t-26 1q-19 0 -24.5 -0.5t-22.5 -2t-35 -3.5z" unicode="1" glyph-name="one"/>
<glyph d="M252 1075l-72 101q59 94 150.5 144t204.5 50q121 0 213 -38t144 -117.5t52 -202.5q0 -118 -57.5 -224.5t-153.5 -205.5l-244 -260l-124 -132l-35 -38l10 -23q45 0 182.5 4t242 9.5t204.5 13.5q-2 -28 -4 -47.5t-2 -30.5q0 -14 2 -34t4 -44h-879v31q57 55 168 168l123 127 q97 99 157.5 166t110 143t78.5 168t29 205q0 87 -24 152t-76.5 101.5t-139.5 36.5q-96 0 -163 -61t-87 -156z" unicode="2" glyph-name="two"/>
<glyph d="M250 1137l-51 110q32 39 113.5 81t187.5 42q98 0 186 -31.5t145.5 -97.5t57.5 -164q0 -120 -72.5 -214t-204.5 -142q97 -8 173 -45t121.5 -105t45.5 -165q0 -132 -69.5 -229.5t-187 -148.5t-263.5 -51q-171 0 -309 66q11 30 15.5 62t8.5 63l13 8q56 -62 127 -98.5 t149 -36.5q154 0 242 101.5t88 258.5q0 133 -74.5 205t-208.5 72q-23 0 -52 -3.5t-46 -4.5q2 10 3 17t2 11.5t1 14.5q0 8 -2 19.5t-4 21.5q54 -4 78 -4q81 0 137 41t82.5 109.5t26.5 148.5q0 73 -26 132t-74 92.5t-117 33.5q-74 0 -138.5 -46.5t-93.5 -117.5z" unicode="3" glyph-name="three"/>
<glyph d="M678 381h-635v27q78 115 163 237.5t175 249t165 232t167 233.5q20 -2 36.5 -4t28.5 -2q10 0 26 2t38 4v-862l188 8q-4 -42 -4 -66q0 -23 4 -67l-188 8v-387q-20 2 -33.5 3t-22.5 2t-26 1q-19 0 -28 -1t-22.5 -2t-31.5 -3v387zM682 498v657l-10 8q-83 -110 -155.5 -213 t-150.5 -217.5t-153 -224.5l8 -10h461z" unicode="4" glyph-name="four"/>
<glyph d="M254 690v674l12 6h658l8 -16q-12 -55 -12 -150q-144 33 -277 33h-303v-457q98 49 219 49q111 0 202 -49t144 -138.5t53 -201.5q0 -119 -62 -226t-178 -172t-269 -65q-196 0 -328 80l31 136l14 2q45 -73 125.5 -111.5t171.5 -38.5q144 0 224.5 110.5t80.5 268.5 q0 319 -293 319q-116 0 -203 -67z" unicode="5" glyph-name="five"/>
<glyph d="M815 1364l23 -72q-42 15 -97 15q-153 0 -251 -107.5t-141.5 -262.5t-45.5 -306q58 91 140.5 136.5t191.5 45.5q95 0 169.5 -27.5t123.5 -76.5t75.5 -121t26.5 -156q0 -129 -56 -233.5t-157.5 -163t-232.5 -58.5q-163 0 -268 78.5t-151 210t-46 293.5q0 181 44 332.5 t125.5 259t193 163.5t241.5 56q61 0 92 -6zM592 735q-139 -8 -214 -98t-75 -262q0 -85 34 -162t99.5 -124.5t149.5 -47.5q129 0 195.5 110.5t66.5 266.5q0 145 -70.5 230t-185.5 87z" unicode="6" glyph-name="six"/>
<glyph d="M164 1370h874l2 -59q-56 -92 -162 -272.5t-215.5 -374t-195 -351.5t-166.5 -319q-18 2 -29 3t-18.5 2t-22.5 1q-16 0 -24 -1t-19.5 -2t-25.5 -3l2 22q22 36 185 305t232 383.5t148 250.5t143 253l-8 9q-118 -2 -319 -11.5t-381 -21.5q2 24 3 39t2 25t1 30q0 16 -2 42.5 t-4 49.5z" unicode="7" glyph-name="seven"/>
<glyph d="M733 776v-14q50 -10 114 -40.5t121.5 -104t57.5 -193.5q0 -134 -58.5 -235t-163.5 -156.5t-239 -55.5q-129 0 -231.5 45t-160.5 136.5t-58 224.5q0 86 38.5 163t107 132t151.5 76v14q-69 17 -147.5 82t-78.5 197q0 101 55.5 174.5t146 111t190.5 37.5q86 0 149.5 -15.5 t122.5 -60.5q113 -85 113 -227q0 -67 -30.5 -126.5t-83 -103t-116.5 -61.5zM575 1307q-108 0 -169 -93q-30 -40 -40 -85.5t-10 -104.5q0 -99 70 -176q52 -60 152 -60q110 0 172 95q43 61 43 178q0 49 -14 94.5t-41.5 78.5t-69 53t-93.5 20zM575 723q-86 0 -151 -49t-97 -127 t-32 -162q0 -147 70.5 -245.5t212.5 -98.5q71 0 122.5 31t83.5 82t47 113.5t15 129.5q0 65 -15 124t-49 105t-84.5 71.5t-122.5 25.5z" unicode="8" glyph-name="eight"/>
<glyph d="M197 109l22 8q41 -35 93.5 -55.5t105.5 -20.5q96 0 185 79.5t140 217.5q36 94 51 187t15 200q-51 -88 -139.5 -137t-190.5 -49q-110 0 -198 48t-138.5 137.5t-50.5 209.5q0 132 58 231t161.5 152t239.5 53q118 0 203.5 -48t139 -129.5t77.5 -185.5t24 -221 q0 -172 -45.5 -321.5t-128 -259t-191 -169t-229.5 -59.5q-53 0 -102 9.5t-59 17.5q-5 47 -43 105zM807 952q0 101 -30 182t-89.5 127t-142.5 46q-94 0 -156 -52.5t-89.5 -135t-27.5 -173.5q0 -133 63 -227t193 -94q63 0 115.5 28t89 75t55.5 105t19 119z" unicode="9" glyph-name="nine"/>
<glyph d="M162 100q0 51 38 87t87 36q32 0 60 -17t44.5 -45t16.5 -61q0 -49 -36 -86t-85 -37q-50 0 -87.5 36.5t-37.5 86.5zM162 840q0 49 38 86t87 37q50 0 85.5 -37.5t35.5 -85.5q0 -51 -36 -87t-85 -36q-50 0 -87.5 35.5t-37.5 87.5z" horiz-adv-x="569" unicode=":" glyph-name="colon"/>
<glyph d="M94 -330l144 455q16 51 35 84t59 33q35 0 59.5 -20.5t24.5 -55.5q0 -17 -6.5 -36.5t-15.5 -35t-23 -37.5l-242 -401zM199 840q0 49 38 86t87 37q50 0 85 -37.5t35 -85.5q0 -51 -35 -87t-85 -36t-87.5 35.5t-37.5 87.5z" horiz-adv-x="569" unicode=";" glyph-name="semicolon"/>
<glyph d="M1143 113v-127l-1043 479v110l1043 480v-127l-877 -408z" horiz-adv-x="1241" unicode="&lt;" glyph-name="less"/>
<glyph d="M1137 784v-131h-1033v131h1033zM1137 387v-131h-1033v131h1033z" horiz-adv-x="1241" unicode="=" glyph-name="equal"/>
<glyph d="M98 113l877 407l-877 408v127l1043 -480v-110l-1043 -479v127z" horiz-adv-x="1241" unicode="&gt;" glyph-name="greater"/>
<glyph d="M545 879l-129 -142q-54 -61 -79.5 -101t-25.5 -91t32 -85t83 -34q29 0 59 12l13 -8l-25 -57q-13 -8 -55 -8q-96 0 -166 64.5t-70 174.5q0 71 30 126t89 116l123 131q51 52 81 100.5t30 104.5q0 51 -26.5 90t-71 59.5t-93.5 20.5q-47 0 -95 -26t-77 -66l-12 102 q110 63 200 63q143 0 225.5 -71.5t82.5 -194.5q0 -86 -29.5 -147.5t-93.5 -132.5zM252 100q0 51 38 87t87 36q32 0 60 -17t44.5 -45t16.5 -61q0 -49 -36 -86t-85 -37q-50 0 -87.5 36.5t-37.5 86.5z" horiz-adv-x="797" unicode="?" glyph-name="question"/>
<glyph d="M561 528q0 -67 29.5 -110t95.5 -43q65 0 130 84.5t107 197.5t42 185q0 53 -26.5 89t-82.5 36q-82 0 -149.5 -74.5t-106.5 -182t-39 -182.5zM1014 934l26 94h181l-148 -536l-6.5 -26t-3.5 -24q0 -26 15 -46.5t42 -20.5q60 0 132 55t123.5 161.5t51.5 248.5q0 95 -59 209 t-186 194t-312 80t-334.5 -80t-235 -223t-85.5 -324q0 -182 88 -324t241 -221t339 -79q105 0 202 35t176.5 99t139.5 152h125q-46 -86 -116 -158.5t-155.5 -124t-184 -79t-198.5 -27.5q-156 0 -296 51.5t-247 148.5t-167 227.5t-60 285.5q0 203 98.5 374.5t271.5 270 t384 98.5q151 0 276 -47t215 -128t139.5 -186.5t49.5 -219.5q0 -150 -71.5 -279t-178.5 -205.5t-203 -76.5q-85 0 -126.5 45t-47.5 102q-72 -70 -125 -103.5t-131 -33.5q-109 0 -192 86q-82 81 -82 211q0 109 62.5 216.5t164 175t215.5 67.5q138 0 193 -115z" horiz-adv-x="1638" unicode="@" glyph-name="at"/>
<glyph d="M719 1425l614 -1431q-26 2 -43 3t-28.5 2t-34.5 1q-20 0 -51 -2t-58 -4q-104 301 -215 553h-520q-48 -120 -80 -202t-65.5 -176t-57.5 -175q-18 2 -30.5 3t-21 2t-24.5 1q-17 0 -25 -1t-20 -2t-26 -3l639 1431h47zM872 633l-227 524l-223 -524h450z" horiz-adv-x="1366" unicode="A" glyph-name="A"/>
<glyph d="M195 0v1395h401q154 0 254.5 -27t151.5 -89.5t51 -166.5q0 -70 -24 -128.5t-68.5 -105.5t-102.5 -78t-129 -50q64 -3 130 -22t121 -55.5t89.5 -97.5t34.5 -147q0 -218 -184 -346q-54 -36 -126 -55t-141 -23t-166 -4h-292zM375 1319v-541h84q81 0 140.5 8.5t117.5 34.5 q75 36 116 100t41 148q0 93 -41 149t-117 78.5t-190 22.5h-151zM375 702v-626h194q101 0 179 40.5t121.5 113.5t43.5 163q0 170 -110.5 239.5t-313.5 69.5h-114z" horiz-adv-x="1251" unicode="B" glyph-name="B"/>
<glyph d="M1262 215l-11 -129q-60 -41 -135.5 -67t-154 -38t-162.5 -12q-165 0 -300 50.5t-228.5 147.5t-143 233t-49.5 302q0 224 101 388t277.5 249.5t393.5 85.5q70 0 147 -10.5t152.5 -32.5t140.5 -51q-26 -66 -43 -157l-14 -3q-25 30 -77 70t-134.5 73.5t-179.5 33.5 q-180 0 -307.5 -88.5t-191.5 -239t-64 -326.5q0 -192 69 -339t194 -226.5t285 -79.5q102 0 191 31t149.5 68.5t94.5 66.5z" horiz-adv-x="1366" unicode="C" glyph-name="C"/>
<glyph d="M385 1313v-1221q24 -1 75.5 -4.5t102.5 -5.5t82 -2q218 0 340 61q156 79 225.5 231t69.5 357q0 165 -34.5 276.5t-110.5 181.5t-197.5 102t-294.5 32q-62 0 -137 -3.5t-121 -4.5zM205 0v1395h465h141q147 0 253 -24t198 -99q109 -89 164 -223.5t55 -288.5 q0 -136 -31.5 -248t-89 -198.5t-137.5 -157.5q-61 -54 -135.5 -86.5t-150 -47t-149.5 -18.5t-184 -4h-399z" horiz-adv-x="1593" unicode="D" glyph-name="D"/>
<glyph d="M362 1298v-514h318q19 0 55 2.5t61.5 4.5t65.5 4q-2 -18 -4 -31t-2 -23q0 -6 2 -21t4 -36q-40 2 -65.5 4t-61.5 4t-55 2h-318v-598q125 0 371 8q84 3 189 19q-1 -8 -3 -21.5t-2.5 -21.5t-1.5 -19q0 -14 2.5 -30t4.5 -31h-740v1395h727q-2 -22 -4 -37t-2 -25q0 -9 2 -25 t4 -36q-76 15 -184 22l-205 4h-158z" horiz-adv-x="1024" unicode="E" glyph-name="E"/>
<glyph d="M182 -6v1401h727q-2 -22 -4 -37t-2 -25q0 -9 2 -25t4 -36q-76 15 -184 22l-205 4h-158v-514h318q19 0 55 2.5t61.5 4.5t65.5 4q-2 -18 -4 -31t-2 -23q0 -6 2 -21t4 -36q-40 2 -65.5 4t-61.5 4t-55 2h-318v-700q-22 2 -36.5 3t-24.5 2t-29 1q-15 0 -41 -2t-49 -4z" horiz-adv-x="1024" unicode="F" glyph-name="F"/>
<glyph d="M1405 1149h-23q-42 50 -95 87t-110 61.5t-122 37.5t-133 13q-131 0 -239.5 -42t-187 -124.5t-121 -203.5t-42.5 -273q0 -204 69.5 -352t207.5 -227t335 -79q184 0 320 70v526q30 -2 52 -4t38 -2q13 0 35.5 2t54.5 4v-580q-139 -47 -276 -70.5t-281 -23.5 q-251 0 -421 92.5t-252.5 256.5t-82.5 376q0 175 59 312t167.5 231t255.5 141t317 47q137 0 246.5 -21.5t174.5 -48t101 -48.5q-22 -64 -47 -158z" horiz-adv-x="1593" unicode="G" glyph-name="G"/>
<glyph d="M1227 807v588q30 -2 52 -4t38 -2q15 0 36.5 2t53.5 4v-1401q-22 2 -36.5 3t-24.5 2t-29 1q-21 0 -31 -1t-25.5 -2t-33.5 -3v704q-48 1 -143.5 4.5t-167 5t-119.5 1.5q-47 0 -119.5 -1.5t-168 -5t-144.5 -4.5v-704q-22 2 -37 3t-25 2t-29 1q-15 0 -41 -2t-49 -4v1401 q30 -2 52.5 -4t37.5 -2q14 0 36.5 2t54.5 4v-588q368 -10 432 -10q65 0 430 10z" horiz-adv-x="1593" unicode="H" glyph-name="H"/>
<glyph d="M195 -6v1401q30 -2 52 -4t38 -2q13 0 35.5 2t54.5 4v-1401q-22 2 -37 3t-24.5 2t-28.5 1q-21 0 -31 -1t-25.5 -2t-33.5 -3z" horiz-adv-x="569" unicode="I" glyph-name="I"/>
<glyph d="M406 1395v-1217q0 -135 -49.5 -237t-145 -161t-223.5 -63l-17 56q107 4 162.5 57t73.5 134t18 188v1243q30 -2 52.5 -4t37.5 -2q14 0 36.5 2t54.5 4z" horiz-adv-x="569" unicode="J" glyph-name="J"/>
<glyph d="M1192 1395l-465 -447l-174 -176q48 -55 172.5 -194.5t199.5 -224.5t126 -144l166 -205v-10q-28 2 -46.5 3t-31 2t-35.5 1q-20 0 -53 -2t-62 -4q-80 115 -141 186l-447 522q-13 11 -28 11q-6 0 -6 -4v-715q-22 2 -37 3t-25 2t-29 1q-15 0 -41 -2t-49 -4v1401 q30 -2 52.5 -4t37.5 -2q14 0 36.5 2t54.5 4v-633q0 -4 10 -4q17 0 41 16q37 29 108 100l504 521q26 -2 47 -4t35 -2q12 0 32 2t48 4z" horiz-adv-x="1251" unicode="K" glyph-name="K"/>
<glyph d="M362 1395v-1299q125 0 371 8q33 1 89.5 7t105.5 12q-2 -22 -4 -37t-2 -25q0 -9 2 -25t4 -36h-746v1395q30 -2 52.5 -4t37.5 -2q14 0 37 2t53 4z" horiz-adv-x="1024" unicode="L" glyph-name="L"/>
<glyph d="M1509 1395h43q19 -172 40 -362t43 -378.5t38 -316.5t45 -344q-24 2 -39.5 3t-26 2t-30.5 1q-22 0 -33 -1t-27 -2t-36 -3q-13 164 -29 336.5t-26.5 277t-24.5 239t-25 204.5q-132 -235 -224.5 -407t-175 -338.5t-136.5 -289.5h-23l-112 232q-61 126 -135.5 270t-141.5 272 t-137 261q-19 -169 -35 -303t-33.5 -305t-24.5 -273.5t-7 -175.5q-18 2 -30 3t-19.5 2t-22.5 1q-17 0 -25.5 -1t-20.5 -2t-28 -3q22 132 71.5 471.5t82.5 582.5t43 347h53q109 -215 149 -293t124.5 -237t160.5 -292.5t146 -250.5q49 88 165.5 301.5t157.5 288.5t102.5 188 t163.5 295z" horiz-adv-x="1821" unicode="M" glyph-name="M"/>
<glyph d="M1393 1395v-1401h-62q-41 54 -106 125l-885 979h-21v-1104q-14 2 -30.5 4t-26.5 2q-13 0 -19.5 -1t-16 -2t-21.5 -3v1401h80l972 -1055h21v1055q18 -2 32 -4t25 -2q10 0 24 2t34 4z" horiz-adv-x="1593" unicode="N" glyph-name="N"/>
<glyph d="M1419 709q0 97 -10.5 170t-39.5 145t-79 135t-118 108t-148 68t-160 23q-133 0 -240.5 -48.5t-183 -140t-114.5 -219.5t-39 -280q0 -151 42.5 -268.5t120 -200t180.5 -123.5t216 -41q146 0 256 63.5t179.5 165t103.5 220.5t34 223zM840 -31q-168 0 -308 51.5t-240 148 t-153 230.5t-53 295q0 164 58 301t162 233t240.5 146.5t297.5 50.5q149 0 288.5 -41.5t249 -127.5t174 -219.5t64.5 -311.5q0 -223 -99 -395.5t-277.5 -266.5t-403.5 -94z" horiz-adv-x="1706" unicode="O" glyph-name="O"/>
<glyph d="M342 637v-643q-22 2 -36.5 3t-24.5 2t-29 1q-21 0 -31 -1t-25.5 -2t-33.5 -3v1401h366q200 0 315 -32.5t164.5 -105t49.5 -198.5q0 -93 -27 -161t-82.5 -118t-134 -82.5t-195.5 -56.5q-45 -10 -118 -10q-25 1 -52.5 2t-46.5 2t-30 1.5t-29 0.5zM342 1315v-598 q54 -4 94 -4q39 0 109 4q152 15 237.5 104t85.5 228q0 70 -24.5 127.5t-76 93.5t-130.5 43q-43 4 -158 4q-106 0 -137 -2z" unicode="P" glyph-name="P"/>
<glyph d="M844 1425q217 0 394 -81t279.5 -238.5t102.5 -376.5q0 -197 -72.5 -342t-194 -237.5t-272.5 -143.5q51 -37 99 -74t104.5 -80.5t119.5 -91t136 -100.5q-61 -27 -95.5 -44t-64.5 -40q-15 23 -184 172t-278 227q-18 -2 -29.5 -4t-20.5 -2q-231 2 -406.5 85.5t-275.5 248 t-100 393.5q0 208 100.5 375t273.5 260.5t384 93.5zM1419 709q0 97 -10.5 170t-39 143.5t-79.5 134.5q-75 97 -187 149t-239 52q-148 0 -257 -54.5t-181 -152.5t-105.5 -220.5t-33.5 -260.5q0 -160 45 -279.5t124 -198.5t179 -117t211 -38q165 0 280.5 75t178 186t88.5 222 t26 189z" horiz-adv-x="1706" unicode="Q" glyph-name="Q"/>
<glyph d="M365 1319v-563q20 0 43 -0.5t53 -1.5q101 0 168 12q117 25 189.5 101.5t72.5 191.5q0 221 -225 258q-33 6 -127 6q-47 -1 -86.5 -1.5t-87.5 -2.5zM184 -6v1401h434q235 0 345 -77.5t110 -234.5q0 -85 -34 -151.5t-95 -115t-134 -77.5t-157 -45l422 -534l99 -115l38 -51 q-28 2 -47.5 3t-32 2t-38.5 1t-33.5 -0.5t-33.5 -2t-50 -3.5q-94 132 -129 178l-242 313l-164 193h-77v-684q-22 2 -37 3t-25 2t-29 1q-15 0 -41 -2t-49 -4z" horiz-adv-x="1251" unicode="R" glyph-name="R"/>
<glyph d="M131 270h21q66 -107 143 -160t188 -53q81 0 146 40.5t102 109.5t37 149q0 127 -78 185.5t-237.5 121t-242.5 138.5t-83 231q0 189 129 291t326 102q80 0 159.5 -24.5t132.5 -73.5q-16 -36 -55 -168h-20q-31 83 -98 130.5t-156 47.5q-71 0 -130 -30t-93.5 -84.5 t-34.5 -124.5q0 -125 77 -183.5t240 -123t245.5 -137t82.5 -218.5q0 -108 -38.5 -194.5t-109 -148t-161.5 -93t-197 -31.5q-82 0 -183.5 32.5t-150.5 86.5q24 67 39 182z" horiz-adv-x="1024" unicode="S" glyph-name="S"/>
<glyph d="M670 1296v-1306q-22 2 -37 3t-24.5 2t-28.5 1q-16 0 -42 -2t-49 -4v1306q-214 0 -448 -24q2 15 4 33.5t2 27.5q0 14 -1 20.5t-2 16t-3 25.5h1057q-2 -22 -4 -37t-2 -25q0 -9 2 -25t4 -36q-86 10 -198 17t-230 7z" unicode="T" glyph-name="T"/>
<glyph d="M373 1395v-785q0 -137 22.5 -239t74.5 -171t139.5 -103t215.5 -34q233 0 338 150.5t105 417.5v764q18 -2 32 -4t25 -2q8 0 22.5 2t34.5 4v-815q0 -198 -73 -335.5t-208.5 -206.5t-316.5 -69q-102 0 -182 16t-144 47.5t-118 80.5q-88 79 -116.5 195t-30.5 267v820 q30 -2 52 -4t38 -2q13 0 35.5 2t54.5 4z" horiz-adv-x="1593" unicode="U" glyph-name="U"/>
<glyph d="M846 465l215 555l123 342l14 33q24 -2 43.5 -4t32.5 -2q11 0 29.5 2t44.5 4q-26 -50 -111 -242.5t-196 -453t-185 -444.5t-100 -261q-11 2 -22.5 4t-18.5 2q-8 0 -20 -2t-23 -4q-94 197 -164.5 355.5t-193 443.5t-181 419.5t-84.5 182.5q32 -2 56.5 -4t41.5 -2t42 2t59 4 q30 -74 76 -199l137 -358l252 -621h18q20 42 57.5 119.5t57.5 128.5z" horiz-adv-x="1366" unicode="V" glyph-name="V"/>
<glyph d="M391 264l-366 1131q32 -2 55.5 -4t40.5 -2q13 0 36.5 2t57.5 4q9 -28 61 -217l121 -416l172 -541h19q58 170 135 390.5t160 467t102 316.5q18 -2 33.5 -4t25.5 -2t24 2t34 4q14 -51 53 -169t81 -242.5t125 -372t130 -390.5h18q44 111 82 234l240 772l49 168 q22 -2 40.5 -4t31.5 -2q10 0 28.5 2t42.5 4q-60 -140 -102 -262l-391 -1139q-16 2 -27.5 3t-18.5 2t-22 1q-10 0 -30 -2t-37 -4q-12 41 -48 151t-76 235t-142.5 440t-104.5 323h-16l-398 -1149q-16 2 -27.5 3t-18.5 2t-21 1q-16 0 -24 -1t-19 -2t-27 -3q-18 60 -41.5 140 t-40.5 130z" horiz-adv-x="2048" unicode="W" glyph-name="W"/>
<glyph d="M322 356l227 342q-27 43 -79 129.5t-91 151t-66 106.5l-202 310q36 -2 64 -4t46 -2q17 0 45 2t66 4q25 -39 48.5 -80.5t55.5 -95.5l217 -373q39 63 102 158t88.5 133.5t68.5 108.5t85 149q24 -2 43 -4t33 -2q13 0 31.5 2t44.5 4q-25 -27 -35 -41l-313 -436l-101 -152 l476 -772q-28 2 -46 3t-30.5 2t-36.5 1q-19 0 -52 -2t-61 -4q-66 129 -119 226t-112.5 197t-122.5 199q-66 -99 -125.5 -195.5t-117.5 -197t-128 -229.5q-18 2 -33.5 3.5t-20.5 2t-21 0.5q-18 0 -26.5 -1t-21 -2t-28.5 -3q28 42 63.5 93t90 130.5t94.5 138.5z" horiz-adv-x="1251" unicode="X" glyph-name="X"/>
<glyph d="M723 623v-629q-22 2 -36.5 3t-24.5 2t-29 1q-21 0 -31 -1t-25.5 -2t-33.5 -3v590l-502 811q38 -2 66.5 -4t48.5 -2q17 0 44.5 2t67.5 4q57 -110 123 -228.5t151 -265.5t115 -192q24 27 74.5 112.5t118.5 208t113.5 207t85.5 158.5q26 -2 45.5 -4t33.5 -2q13 0 32.5 2 t47.5 4q-79 -102 -145 -205l-225 -363q-65 -98 -115 -204z" horiz-adv-x="1251" unicode="Y" glyph-name="Y"/>
<glyph d="M35 45l596 832q224 323 291 426v4l-234 -2q-83 0 -156.5 -3.5t-140 -8.5t-141.5 -10.5t-131 -10.5q2 15 4 33.5t2 27.5q0 14 -1 20.5t-2 16t-3 25.5h1077v-39q-123 -161 -211 -279t-206 -283t-247 -355t-229 -345v-4h311q187 4 574 33q-2 -22 -4 -37t-2 -25q0 -9 2 -25 t4 -36h-1153v45z" horiz-adv-x="1251" unicode="Z" glyph-name="Z"/>
<glyph d="M276 -238v1770h322v-59h-199v-1651h199v-60h-322z" horiz-adv-x="682" unicode="[" glyph-name="bracketleft"/>
<glyph d="M195 1532l761 -1532q-22 4 -65 4q-41 0 -62 -4l-761 1532q44 -4 63 -4q22 0 64 4z" horiz-adv-x="1024" unicode="\" glyph-name="backslash"/>
<glyph d="M406 1532v-1770h-322v60h199v1651h-199v59h322z" horiz-adv-x="682" unicode="]" glyph-name="bracketright"/>
<glyph d="M248 563h-144l449 832h135l447 -832h-144l-370 668z" horiz-adv-x="1241" unicode="^" glyph-name="asciicircum"/>
<glyph d="M1024 -328h-1024v78h1024v-78z" horiz-adv-x="1024" unicode="_" glyph-name="underscore"/>
<glyph d="M492 1090h-72l-322 200q-9 7 -20 15t-19 15.5t-12 14.5q-6 16 -6 29q0 9 4 27q17 43 84 43q18 -7 27 -15q14 -10 77 -73z" horiz-adv-x="682" unicode="`" glyph-name="grave"/>
<glyph d="M846 641v-475q0 -40 2.5 -59.5t14.5 -31.5t38 -12q22 0 60 9v-45q-35 -16 -62 -21q-33 -6 -65 -6q-61 2 -99.5 30.5t-46.5 94.5l-18 -19q-129 -129 -303 -129q-112 0 -192.5 70t-80.5 180q0 108 51.5 168t126.5 83.5t201 43.5q96 16 137 28t60.5 36t19.5 73 q0 115 -62.5 177.5t-176.5 62.5q-67 0 -120 -24t-84 -56.5t-40 -60.5h-23v114q165 113 330 113q163 0 247.5 -86t84.5 -258zM682 205v299l-72 -15q-68 -12 -125 -24.5t-107 -34.5t-83 -65t-33 -109q0 -96 52.5 -144.5t148.5 -48.5q38 0 86 24t78 54q10 10 22 21t22.5 24.5 t10.5 18.5z" horiz-adv-x="1024" unicode="a" glyph-name="a"/>
<glyph d="M133 0v1532q26 -2 47 -4t35 -2q13 0 33.5 2t48.5 4v-758q67 100 154 155.5t200 55.5q137 0 230.5 -68.5t138.5 -178t45 -228.5q0 -105 -31 -200t-90.5 -170t-146 -119t-195.5 -44q-193 0 -291 146q-24 -18 -58.5 -49.5l-80.5 -73.5h-39zM600 899q-162 0 -234.5 -137.5 t-72.5 -343.5q0 -108 34.5 -194t99.5 -133.5t153 -47.5q82 0 141.5 42.5t96 113t52 146.5t15.5 157q0 116 -30.5 204.5t-93.5 140t-161 52.5z" unicode="b" glyph-name="b"/>
<glyph d="M938 901l-47 -135h-17q-41 57 -55 68q-32 38 -89.5 59.5t-113.5 21.5q-167 0 -259.5 -123t-92.5 -296q0 -128 47 -231.5t132 -160.5t194 -57q82 0 146 33.5t137 99.5l12 -6l-10 -94q-141 -103 -314 -103q-166 0 -284.5 66t-179 181.5t-60.5 260.5q0 154 67.5 267.5 t188 173t274.5 59.5q189 0 324 -84z" horiz-adv-x="1024" unicode="c" glyph-name="c"/>
<glyph d="M997 1532v-1538q-20 2 -33.5 3t-22 2t-26.5 1t-27.5 -1t-22.5 -2t-31 -3v196q-125 -213 -353 -213q-89 0 -162 30.5t-129.5 94t-87 155.5t-30.5 216q0 141 54 258.5t154.5 185.5t231.5 68q206 0 322 -199v746q26 -2 46 -4t35 -2q14 0 34 2t48 4zM834 510q0 96 -27.5 185 t-89.5 147.5t-160 58.5q-305 0 -305 -457q0 -157 67 -275t213 -118q110 0 178 71t96 175.5t28 212.5z" unicode="d" glyph-name="d"/>
<glyph d="M907 205l-2 -107q-82 -57 -172.5 -89t-179.5 -32q-141 0 -251 60.5t-171 174.5t-61 269q0 144 54 258.5t160.5 180t254.5 65.5q83 0 159 -28.5t133 -84t91 -142t34 -202.5q0 -14 -0.5 -23.5t-1.5 -21.5q-208 6 -415 6h-289q-2 -14 -2 -43q0 -78 23 -147.5t69.5 -123 t114 -83t149.5 -29.5q156 0 303 142zM250 565h545q-4 158 -61 257.5t-195 99.5q-91 0 -153.5 -50.5t-96 -132.5t-39.5 -174z" horiz-adv-x="1024" unicode="e" glyph-name="e"/>
<glyph d="M180 -6v901h-141q4 12 4 39t-4 39h141l4 16q18 134 63 254t136.5 204.5t232.5 84.5q-10 -53 -10 -164l-10 -8l-41 20q-28 11 -72 11q-172 0 -172 -213q0 -84 29 -205h209q-4 -24 -4 -39t4 -39h-205v-901q-20 2 -33.5 3t-22 2t-26.5 1q-19 0 -28 -1t-22.5 -2t-31.5 -3z " horiz-adv-x="569" unicode="f" glyph-name="f"/>
<glyph d="M516 10q-317 0 -317 -241q0 -121 81.5 -184.5t213.5 -63.5q128 0 225.5 64.5t97.5 197.5q0 100 -40 149.5t-105 63.5t-156 14zM950 979v-78l-225 19q66 -52 103.5 -119.5t37.5 -151.5q0 -160 -122.5 -238.5t-313.5 -78.5q-73 0 -110 -19.5t-37 -79.5t46.5 -79t149.5 -19 h131q180 0 267.5 -69.5t87.5 -202.5q0 -88 -37.5 -163.5t-105 -128t-165 -82.5t-213.5 -30q-143 0 -256.5 76t-113.5 225q0 107 56.5 168.5t156.5 79.5v17q-55 9 -90 44.5t-35 120.5q0 68 37 108.5t104 68.5q-62 29 -107 68.5t-68.5 94t-23.5 129.5q0 154 97 240t317 86 l285 -10q18 -2 57 -2q45 0 90 6zM260 662q0 -78 26.5 -142t77.5 -100.5t119 -36.5q73 0 124 37t77.5 99t26.5 132q0 129 -52.5 204t-166.5 75q-109 0 -170.5 -74t-61.5 -194z" horiz-adv-x="1024" unicode="g" glyph-name="g"/>
<glyph d="M158 -6v1538q26 -2 47 -4t35 -2q13 0 33.5 2t48.5 4v-746q113 199 329 199q175 0 252.5 -99.5t77.5 -299.5v-592q-20 2 -33.5 3t-22 2t-26.5 1q-19 0 -28 -1t-22.5 -2t-31.5 -3v545q0 178 -50 259t-177 81q-268 0 -268 -328v-557q-20 2 -33.5 3t-22.5 2t-26 1 q-19 0 -24.5 -0.5t-22.5 -2t-35 -3.5z" unicode="h" glyph-name="h"/>
<glyph d="M367 973v-979q-20 2 -33.5 3t-22.5 2t-26 1q-19 0 -24.5 -0.5t-22.5 -2t-35 -3.5v979q26 -2 47 -4t35 -2q13 0 33.5 2t48.5 4zM385 1272q0 -39 -28.5 -67.5t-67.5 -28.5q-38 0 -67 29t-29 67q0 40 29 68t67 28q39 0 67.5 -27.5t28.5 -68.5z" horiz-adv-x="569" unicode="i" glyph-name="i"/>
<glyph d="M215 -8v981q26 -2 47 -4t35 -2q13 0 33.5 2t48.5 4v-989q0 -147 -24.5 -250.5t-104.5 -182.5q-50 -43 -111.5 -67.5t-124.5 -24.5l-14 66l18 -4q56 0 90.5 35t59.5 94q28 67 37.5 151.5t9.5 190.5zM401 1323q0 -39 -28.5 -67.5t-67.5 -28.5q-38 0 -67 29t-29 67 q0 40 29 68t67 28q39 0 67.5 -27.5t28.5 -68.5z" horiz-adv-x="569" unicode="j" glyph-name="j"/>
<glyph d="M326 1532v-918q0 -41 2 -52t8 -15q57 0 178 121l127 129l160 176q26 -2 47 -4t35 -2q11 0 31.5 2t48.5 4v-15q-32 -29 -56.5 -49t-111 -93t-169 -147.5t-114.5 -105.5q33 -37 89.5 -103.5t132 -154.5t137.5 -160t122 -141v-10q-26 2 -41.5 3t-26.5 2t-32 1 q-24 0 -31 -0.5l-28 -2t-43 -3.5q-46 61 -150.5 183t-241.5 278q-29 32 -47 32q-26 0 -26 -75v-418q-20 2 -33.5 3t-22.5 2t-26 1q-19 0 -24.5 -0.5t-22.5 -2t-35 -3.5v1538q26 -2 47 -4t35 -2q13 0 33.5 2t48.5 4z" horiz-adv-x="1024" unicode="k" glyph-name="k"/>
<glyph d="M203 -6v1538q26 -2 47 -4t35 -2q13 0 33.5 2t48.5 4v-1538q-20 2 -33.5 3t-22.5 2t-26 1q-19 0 -24.5 -0.5t-22.5 -2t-35 -3.5z" horiz-adv-x="569" unicode="l" glyph-name="l"/>
<glyph d="M145 -6v979q26 -2 46.5 -4t35.5 -2q14 0 34 2t48 4v-176q35 60 78 101.5t99.5 64t125.5 22.5q103 0 186 -54.5t113 -148.5q121 203 322 203q181 0 255.5 -99.5t74.5 -299.5v-592q-20 2 -33.5 3t-22.5 2t-26 1q-19 0 -24.5 -0.5t-22.5 -2t-35 -3.5v545q0 104 -16.5 177 t-66.5 118t-145 45q-139 0 -187 -94.5t-48 -237.5v-553q-20 2 -33.5 3t-22 2t-26.5 1q-19 0 -28 -1t-22.5 -2t-31.5 -3v600q0 146 -52 215.5t-165 69.5q-101 0 -154.5 -39t-72.5 -102t-19 -148v-596q-20 2 -33.5 3t-22 2t-26.5 1q-15 0 -38 -2t-44 -4z" horiz-adv-x="1706" unicode="m" glyph-name="m"/>
<glyph d="M158 -6v979q26 -2 47 -4t35 -2q13 0 33.5 2t48.5 4v-187q113 199 329 199q177 0 253.5 -96.5t76.5 -302.5v-592q-20 2 -33.5 3t-22 2t-26.5 1q-19 0 -28 -1t-22.5 -2t-31.5 -3v545q0 105 -18 179t-68.5 117.5t-140.5 43.5q-151 0 -209.5 -102t-58.5 -308v-475 q-20 2 -33.5 3t-22.5 2t-26 1q-19 0 -24.5 -0.5t-22.5 -2t-35 -3.5z" unicode="n" glyph-name="n"/>
<glyph d="M72 492q0 109 38.5 199.5t110.5 157t165.5 101.5t205.5 35q140 0 247.5 -61t167.5 -174.5t60 -264.5q0 -98 -33 -190t-99 -164.5t-162.5 -113t-217.5 -40.5q-133 0 -244 61.5t-175 179t-64 274.5zM590 922q-122 0 -197.5 -66.5t-108 -171.5t-32.5 -223 q0 -111 32.5 -205.5t104.5 -154.5t182 -60q109 0 180.5 75t103.5 180.5t32 199.5q0 77 -15 150.5t-50 136t-93 101t-139 38.5z" unicode="o" glyph-name="o"/>
<glyph d="M299 457q0 -175 75.5 -284.5t225.5 -109.5q99 0 161.5 59.5t91 158.5t28.5 227q0 109 -26.5 201t-90 149t-166.5 57q-110 0 -177 -70t-94.5 -175.5t-27.5 -212.5zM299 174v-704q-20 2 -33.5 3t-22 2t-26.5 1q-19 0 -28 -1t-22.5 -2t-31.5 -3v1503q26 -2 47 -4t35 -2 q13 0 33.5 2t48.5 4v-207h4q50 97 117.5 158t228.5 61q96 0 172.5 -36.5t131 -103.5t81.5 -150.5t27 -178.5q0 -249 -122 -394t-321 -145q-210 0 -315 197h-4z" unicode="p" glyph-name="p"/>
<glyph d="M834 459q-2 123 -35.5 227t-100.5 166.5t-161 62.5q-283 0 -283 -403q0 -190 67 -319.5t238 -129.5q88 0 149 55.5t92.5 146.5t33.5 194zM834 762v211q26 -2 46 -4t35 -2q14 0 34 2t48 4v-1503q-20 2 -33.5 3t-22 2t-26.5 1t-27.5 -1t-22.5 -2t-31 -3v700h-5 q-94 -193 -315 -193q-105 0 -187.5 39.5t-140 112t-85 161.5t-27.5 193q0 143 48 257.5t140 179.5t221 65q80 0 140 -22.5t101.5 -58t68 -74t36.5 -68.5h5z" unicode="q" glyph-name="q"/>
<glyph d="M162 -6v979q26 -2 47 -4t35 -2q13 0 33.5 2t48.5 4v-205l10 25q121 192 258 192q40 0 63 -10l-28 -172q-9 2 -42 17.5t-55 15.5q-36 0 -72 -13t-59 -39q-49 -57 -62 -110.5t-13 -149.5v-530q-20 2 -33.5 3t-22.5 2t-26 1q-19 0 -24.5 -0.5t-22.5 -2t-35 -3.5z" horiz-adv-x="682" unicode="r" glyph-name="r"/>
<glyph d="M129 193h16q40 -65 104 -108.5t132 -43.5q50 0 96.5 24t75.5 67t29 95q0 92 -56.5 126.5t-181 70.5t-185.5 87t-61 171q0 142 94.5 222.5t239.5 80.5q70 0 136 -17t96 -36q-29 -64 -50 -146h-18q-13 33 -40.5 65.5t-61.5 51.5t-72 19q-80 0 -133 -45t-53 -125 q0 -87 55.5 -122.5t178 -75t186 -91t63.5 -162.5q0 -103 -55 -177t-142.5 -110.5t-179.5 -36.5q-145 0 -256 66q38 115 43 150z" horiz-adv-x="797" unicode="s" glyph-name="s"/>
<glyph d="M147 1176l164 63v-266h217q-4 -30 -4 -41q0 -17 4 -37h-217v-514v-74q0 -117 30 -187.5t122 -70.5q20 0 92 14v-49q-102 -37 -172 -37q-57 0 -100 14.5t-73.5 51.5t-46.5 100.5t-16 155.5v596h-127q5 14 5 39q0 27 -5 39h127v203z" horiz-adv-x="569" unicode="t" glyph-name="t"/>
<glyph d="M969 973v-979q-20 2 -33.5 3t-22.5 2t-26 1q-19 0 -24.5 -0.5t-22.5 -2t-35 -3.5v176q-33 -63 -81.5 -106t-109.5 -65t-135 -22q-172 0 -255 94t-83 300v602q26 -2 46.5 -4t35.5 -2q13 0 33.5 2t48.5 4v-553q0 -111 24.5 -186.5t79 -115.5t144.5 -40q97 0 153 49 t77.5 123t21.5 158v565q26 -2 47 -4t35 -2q13 0 33.5 2t48.5 4z" unicode="u" glyph-name="u"/>
<glyph d="M690 530l164 443q22 -2 38 -4t28 -2q9 0 26 2t39 4q-64 -133 -145.5 -314.5t-156.5 -363.5t-116 -301q-14 2 -24.5 3t-17.5 2t-19 1q-15 0 -22 -1t-17.5 -2t-24.5 -3q-19 55 -69 183t-99.5 249t-124 297t-108.5 250q28 -2 52 -4t40 -2q13 0 35.5 2t54.5 4 q29 -96 74.5 -221t101.5 -264.5t129 -303.5q36 50 39 58z" horiz-adv-x="1024" unicode="v" glyph-name="v"/>
<glyph d="M1561 973q-74 -147 -201 -439t-211 -540q-16 2 -24.5 3t-14 2t-16.5 1q-13 0 -19 -1t-15.5 -2t-21.5 -3q-28 104 -70.5 235.5t-89.5 264.5t-92 243q-34 -66 -81.5 -184.5t-99 -266.5t-97.5 -292q-14 2 -22.5 3t-14.5 2t-18 1q-13 0 -19 -1t-15.5 -2t-21.5 -3 q-43 134 -93.5 278t-100.5 279t-95 246.5t-73 175.5q30 -2 52 -4t38 -2q13 0 35.5 2t54.5 4q127 -436 260 -760q65 139 149.5 366t137.5 394q18 -2 31 -4t22 -2q7 0 21 2t32 4q22 -81 46 -160.5t71 -217.5t78.5 -220t66.5 -164q244 575 302 762q20 -2 36.5 -4t28.5 -2 q10 0 26 2t38 4z" horiz-adv-x="1593" unicode="w" glyph-name="w"/>
<glyph d="M432 477l-373 496q34 -2 60 -4t45 -2q18 0 43 2t61 4q47 -82 127.5 -197t136.5 -184l115 147l172 234q22 -2 40 -4t30 -2q11 0 29.5 2t42.5 4q-61 -66 -123.5 -136t-123 -141t-134.5 -164l383 -518v-20q-24 2 -40 3t-26.5 2t-30.5 1q-16 0 -44 -2t-52 -4 q-54 90 -132.5 205.5t-156.5 216.5q-83 -112 -161 -221t-134 -201q-14 2 -24 3t-17 2t-20 1q-15 0 -22 -1t-16.5 -2t-23.5 -3v20q118 146 221 275t148 188z" horiz-adv-x="1024" unicode="x" glyph-name="x"/>
<glyph d="M467 2l-414 971q32 -2 57 -4t42 -2q15 0 38.5 2t57.5 4q52 -161 129.5 -355.5t175.5 -404.5q66 135 150 346.5t157 413.5q20 -2 37.5 -4t30.5 -2q9 0 26 2t39 4q-79 -175 -175 -386.5t-183.5 -406.5t-162.5 -371t-140 -339q-18 2 -29 3t-18.5 2t-22.5 1q-16 0 -24 -1 t-19.5 -2t-25.5 -3q204 400 274 532z" horiz-adv-x="1024" unicode="y" glyph-name="y"/>
<glyph d="M934 944l-637 -862v-6q78 0 169 3.5t169 8t144.5 9t140.5 9.5q-1 -7 -2.5 -16t-3 -19t-1.5 -18l2 -18t2.5 -19.5t2.5 -15.5h-875v18q54 66 156 197.5t196 257.5t154 208t147 202v6q-68 0 -125 -2t-150 -8t-149 -11t-124 -10q6 42 6 51q0 11 -1 17t-2 14.5t-3 22.5h784 v-19z" horiz-adv-x="1024" unicode="z" glyph-name="z"/>
<glyph d="M422 358v-340q0 -70 16 -123.5t54 -86.5t100 -46q-94 0 -153 14.5t-96 50t-53 93.5t-16 150v333q0 112 -30 163.5t-125 78.5q92 27 123.5 79.5t31.5 156.5v364q0 122 35.5 183.5t102.5 82.5t180 21q-95 -23 -132.5 -83.5t-37.5 -174.5v-363q0 -78 -12.5 -129t-49.5 -85.5 t-104 -51.5q71 -19 106.5 -55.5t47.5 -90.5t12 -141z" horiz-adv-x="682" unicode="{" glyph-name="braceleft"/>
<glyph d="M274 0v1532h132v-1532h-132z" horiz-adv-x="682" unicode="|" glyph-name="bar"/>
<glyph d="M260 16v342q0 65 6.5 109.5t23.5 78.5t51 59t85 38q-68 17 -104.5 51.5t-49 85.5t-12.5 131v363q0 112 -37 173t-133 85q110 0 178.5 -21.5t104 -84t35.5 -183.5v-364q0 -70 13 -114.5t47 -74.5t95 -47q-49 -13 -80 -32.5t-47.5 -48t-22 -64.5t-5.5 -95v-333 q0 -121 -29.5 -188.5t-97 -93.5t-191.5 -26q94 20 132 82t38 172z" horiz-adv-x="682" unicode="}" glyph-name="braceright"/>
<glyph d="M1065 694l72 -82q-30 -56 -73 -107.5t-99 -83.5t-117 -32q-33 0 -78.5 14t-114.5 42t-84 34q-27 12 -58 24.5t-60 20.5t-60 8q-72 0 -116.5 -46.5t-100.5 -141.5l-72 82q60 108 127 173t164 65q49 0 108 -19.5t139.5 -56t126 -53.5t81.5 -17q64 0 123 54.5t92 121.5z" horiz-adv-x="1241" unicode="~" glyph-name="asciitilde"/>
<glyph d="M207 -10v905h-141q4 12 4 39t-4 39h141q12 132 56 260t128 214.5t203 86.5q27 0 41 -2q-8 -66 -8 -164l-13 -8l-41 20q-27 11 -71 11q-87 0 -127.5 -60.5t-40.5 -156.5q0 -92 33 -201h208q-4 -30 -4 -39q0 -11 4 -39h-204v-905q-20 2 -33.5 3t-22.5 2t-26 1 q-19 0 -24.5 -0.5t-22.5 -2t-35 -3.5zM784 -10v1542q26 -2 46.5 -4t35.5 -2q14 0 34 2t48 4v-1542q-20 2 -33.5 3t-22 2t-26.5 1q-15 0 -38 -2t-44 -4z" unicode=" " glyph-name="fl"/>
<glyph d="M217 893q0 51 38 87t87 36q50 0 85.5 -37.5t35.5 -85.5q0 -51 -36 -87t-85 -36q-50 0 -87.5 35.5t-37.5 87.5zM246 -227l76 864h40l80 -864v-62q0 -143 -96 -143q-59 0 -79.5 41t-22.5 102q0 47 2 62z" horiz-adv-x="682" unicode="¡" glyph-name="exclamdown"/>
<glyph d="M475 127l240 786q-38 5 -41 5q-114 0 -194 -59t-120.5 -156.5t-40.5 -208.5q0 -113 40 -210.5t116 -156.5zM514 -10l-78 -256q-24 22 -74 22l78 254q-123 54 -212 168.5t-89 304.5q0 111 40.5 205t113.5 160t170 101.5t209 35.5q19 0 63 -4l72 233q27 -17 72 -20 l-68 -223q51 -8 104.5 -29.5t81.5 -42.5l-47 -135h-16l-28 38.5t-27 28.5q-41 41 -91 62l-245 -809q70 -33 153 -33q79 0 145.5 30.5t147.5 90.5l-8 -92q-69 -51 -153 -77t-175 -26q-73 0 -139 13z" unicode="¢" glyph-name="cent"/>
<glyph d="M1042 0h-948q2 16 3 27.5t2 18.5t1 22q0 12 -2 30.5t-4 34.5q123 0 192 41t94.5 116t25.5 191q0 34 -4.5 83.5t-6.5 66t-4 49.5q-65 0 -205 -8v90q72 -10 195 -10q-14 71 -14 147q0 119 26 210t78.5 156t129 97.5t177.5 32.5q95 0 176 -37q84 -44 88 -74 q-24 -30 -45 -56.5t-41 -45.5l-8 28q-22 48 -68 80.5t-96 32.5q-254 0 -254 -317q1 -11 1.5 -20t0.5 -23l7 -115l8 -98q192 0 309 16v-90q-66 2 -130.5 3.5t-84 2t-92.5 0.5q6 -43 6 -88q0 -133 -51 -254.5t-150 -204.5h68l432 17l188 8q-2 -28 -4 -48t-2 -32q0 -15 2 -35.5 t4 -44.5z" unicode="£" glyph-name="sterling"/>
<glyph d="M66 289l110 110q-115 147 -115 312q0 186 109 311l-111 113l91 90l110 -113q134 111 315 111q81 0 160 -28t144 -81l108 109l88 -88l-108 -109q112 -134 112 -311t-116 -314l108 -110l-88 -88l-109 108q-62 -52 -139.5 -79t-161.5 -27q-178 0 -309 106l-108 -108z M575 1098q-104 0 -194.5 -51t-142.5 -139.5t-52 -196.5q0 -105 52 -192.5t140.5 -138t194.5 -50.5q104 0 191.5 52.5t138.5 142t51 190.5q0 100 -51 189t-138 141.5t-190 52.5z" unicode="¤" glyph-name="currency"/>
<glyph d="M330 874l-303 531q34 -2 61 -4t45 -2t44.5 2t62.5 4q55 -125 183 -370.5t177 -325.5q43 53 166.5 295t198.5 401q24 -2 42 -4t31 -2q12 0 30 2t44 4q-23 -38 -62.5 -100t-72.5 -115l-180 -316h211v-100h-269q-16 -30 -45 -87.5t-32 -63.5v-74h346v-100h-346v-455 q-20 2 -34.5 3t-23.5 2t-26 1q-19 0 -25 -0.5t-23.5 -2t-35.5 -3.5v455h-375v100h375v35l-111 190h-264v100h211z" unicode="¥" glyph-name="yen"/>
<glyph d="M274 0v573h132v-573h-132zM274 1532h132v-574h-132v574z" horiz-adv-x="682" unicode="¦" glyph-name="brokenbar"/>
<glyph d="M567 268l-108 47q-115 49 -178.5 86t-109.5 102t-46 161q0 68 36 131.5t101 113.5q-55 98 -55 176q0 103 47 179.5t129 118.5t184 42q167 0 275 -114q-35 -43 -62 -119h-18q-29 74 -87 120t-124 46q-97 0 -156 -45q-36 -27 -59 -70t-23 -86q0 -71 39.5 -118.5 t108.5 -77.5l256 -113q82 -37 131 -104.5t49 -155.5q0 -136 -117 -262q78 -84 78 -164q0 -90 -32.5 -164t-91.5 -129t-138 -84t-168 -29q-138 0 -289 84q25 97 25 174h18q103 -184 310 -184q68 0 127.5 36.5t96 90.5t36.5 100q0 58 -24 97.5t-65.5 65.5t-95.5 48zM485 481 l152 -63l113 -62q57 92 57 148q0 42 -20.5 79t-58 67t-91.5 55l-213 96q-23 10 -48.5 22t-45 24.5t-35.5 31.5q-78 -70 -78 -148q0 -59 33 -100q40 -49 90.5 -78t144.5 -72z" horiz-adv-x="1024" unicode="§" glyph-name="section"/>
<glyph d="M541 1128q-35 0 -65 30t-30 65q0 37 27.5 65.5t67.5 28.5q39 0 66.5 -28.5t27.5 -65.5t-29 -66t-65 -29zM139 1128q-36 0 -65 29t-29 66t27.5 65.5t66.5 28.5q38 0 66 -28t28 -66q0 -40 -28.5 -67.5t-65.5 -27.5z" horiz-adv-x="682" unicode="¨" glyph-name="dieresis"/>
<glyph d="M766 -31q-197 0 -364 98t-264 265.5t-97 363.5q0 197 97.5 365t264 266t363.5 98q196 0 365.5 -98t267.5 -265t98 -366q0 -197 -98 -364t-267 -265t-366 -98zM766 72q125 0 236.5 48.5t199 136.5t135 200t47.5 239q0 128 -48 241t-134 200.5t-199 136.5t-237 49 q-164 0 -305.5 -85.5t-224 -230.5t-82.5 -311q0 -167 83 -310.5t224 -228.5t305 -85zM1051 434l-13 -78q-55 -35 -123.5 -50t-144.5 -15q-199 0 -314.5 110.5t-115.5 298.5q0 126 60.5 217.5t165 139t233.5 47.5q134 0 262 -53q-16 -38 -25 -95h-8q-9 14 -42.5 35t-85.5 36 t-105 15q-144 0 -230 -97.5t-86 -248.5q0 -108 41.5 -186t112 -118t153.5 -40t144.5 24.5t120.5 57.5z" horiz-adv-x="1536" unicode="©" glyph-name="copyright"/>
<glyph d="M559 1219v-236q0 -12 -0.5 -21t-1.5 -20q0 -70 49 -70q25 0 33 5v-27q-18 -9 -43 -12q-32 -4 -45 -4q-91 0 -105 75l-12 -10q-46 -40 -97.5 -59t-117.5 -19q-78 0 -136 42.5t-58 107.5q0 39 23 78.5t65 56.5q52 22 92.5 29.5t117.5 18t99 22.5q17 9 22 21t5 34 q0 68 -44.5 106.5t-125.5 38.5q-70 0 -115.5 -28.5t-59.5 -59.5h-14v70q111 67 234 67q115 0 175 -47.5t60 -158.5zM442 956v181l-51 -9q-83 -13 -128 -23t-83.5 -38t-38.5 -80q0 -55 39.5 -86t106.5 -31q30 1 62.5 17t51.5 33q41 25 41 36zM51 641v61h561v-61h-561z" horiz-adv-x="664" unicode="ª" glyph-name="ordfeminine"/>
<glyph d="M444 70l-245 389l258 379q30 -39 75 -54l-229 -323l219 -338q-47 -14 -78 -53zM737 70l-245 389l258 379q30 -39 75 -54l-229 -323l219 -338q-47 -14 -78 -53z" horiz-adv-x="1024" unicode="«" glyph-name="guillemotleft"/>
<glyph d="M1006 231v422h-902v131h1033v-553h-131z" horiz-adv-x="1241" unicode="¬" glyph-name="logicalnot"/>
<glyph d="M1137 455h-1033v131h1033v-131z" horiz-adv-x="1241" unicode="­" glyph-name="minus"/>
<glyph d="M770 -31q-197 0 -366 98t-267 266t-98 365q0 147 57.5 281.5t158 233.5t234 155.5t281.5 56.5q149 0 281.5 -56.5t232 -156t155.5 -232.5t56 -282q0 -148 -55.5 -281.5t-156.5 -234.5t-234.5 -157t-278.5 -56zM770 72q163 0 305 85t224.5 229t82.5 312q0 167 -82.5 311 t-224.5 229t-305 85q-123 0 -234.5 -48t-199 -136.5t-136 -203t-48.5 -237.5q0 -166 83.5 -310.5t227 -230t307.5 -85.5zM606 688v-381q-13 2 -29 4t-24 2q-5 0 -53 -6v783h258q270 0 270 -175q0 -91 -72 -144.5t-178 -72.5l252 -299l57 -63l23 -29q-18 2 -38 4t-32 2 q-11 0 -31.5 -2t-37.5 -4q-19 27 -41 56t-35 45l-145 174l-97 106h-47zM606 1028v-278h133q82 0 132.5 41.5t50.5 109.5q0 121 -138 127h-178z" horiz-adv-x="1536" unicode="®" glyph-name="registered"/>
<glyph d="M614 1174h-544v102h544v-102z" horiz-adv-x="682" unicode="¯" glyph-name="macron"/>
<glyph d="M393 1399q-49 0 -88 -39t-39 -88t39 -87t88 -38t87 38t38 87t-37 88t-88 39zM393 1069q-54 0 -101 27.5t-75.5 74t-28.5 101.5q0 54 28 101t76.5 75.5t100.5 28.5q55 0 101.5 -28.5t74 -75.5t27.5 -101q0 -55 -27.5 -101.5t-74 -74t-101.5 -27.5z" horiz-adv-x="682" unicode="°" glyph-name="ring"/>
<glyph d="M555 709v325h131v-325h451v-131h-451v-332h-131v332h-451v131h451zM1137 0h-1033v131h1033v-131z" horiz-adv-x="1241" unicode="±" glyph-name="plusminus"/>
<glyph d="M160 1194l-45 59q79 117 229 117q122 0 194 -52.5t72 -162.5q0 -125 -137 -258l-158 -156l-82 -79l-22 -23l6 -14q146 0 410 16q-6 -24 -6 -47q0 -24 6 -45h-572v18q35 31 109 101l80 75q128 122 185.5 203.5t57.5 206.5q0 82 -36.5 128t-118.5 46q-60 0 -106 -37 t-66 -96z" horiz-adv-x="682" unicode="²" glyph-name="twosuperior"/>
<glyph d="M244 950q0 6 2 14t2 11q0 5 -2 13t-2 11q16 0 26.5 -0.5t22.5 -1.5q80 0 118 52t38 129q0 44 -15.5 78t-47 52.5t-75.5 18.5q-47 0 -89.5 -27t-59.5 -67l-6 -2l-35 65q21 24 74 49t122 25q61 0 120 -18.5t96.5 -58.5t37.5 -99q0 -72 -47 -128t-133 -83v-4q95 -5 158 -53 t63 -135q0 -118 -97.5 -187t-240.5 -69q-113 0 -202 38q5 11 8.5 27t5 26t2.5 23l8 4q72 -75 180 -75q100 0 156.5 59t56.5 151q0 80 -48 123t-134 43q-12 0 -33 -2t-30 -2z" horiz-adv-x="682" unicode="³" glyph-name="threesuperior"/>
<glyph d="M584 1290l-322 -200h-69l256 256q13 13 28 27.5t23 23.5q9 6 18 14.5t19 15t18 7.5q69 0 82 -43q6 -13 6 -31q0 -17 -8 -25q-7 -15 -22 -25t-29 -20z" horiz-adv-x="682" unicode="´" glyph-name="acute"/>
<glyph d="M805 408v565q26 -2 47 -4t35 -2q13 0 33.5 2t48.5 4v-979q-20 2 -33.5 3t-22.5 2t-26 1q-19 0 -24.5 -0.5t-22.5 -2t-35 -3.5v176h-4q-47 -95 -130 -144t-192 -49q-100 0 -174 56v-563q-20 2 -33.5 3t-22 2t-26.5 1q-15 0 -38 -2t-44 -4v1503q26 -2 46.5 -4t35.5 -2 q13 0 33.5 2t48.5 4v-553q0 -111 24.5 -186.5t79 -115.5t144.5 -40q97 0 153 49t77.5 123t21.5 158z" unicode="µ" glyph-name="mu"/>
<glyph d="M1018 1329h-180v-1538q-14 2 -27.5 3.5l-18 2t-18.5 0.5t-21.5 -1t-18.5 -2t-25 -3v873l-74 -7q-183 0 -290 95.5t-107 279.5q0 103 40.5 188t122.5 128q53 28 125.5 37.5t165.5 9.5h66h389v-1604q-14 2 -27.5 3.5l-18 2t-18.5 0.5t-21.5 -1t-18.5 -2t-25 -3v1538z M514 1090v-134q0 -239 166 -239l29 2v610q-80 0 -123 -28.5t-57.5 -80t-14.5 -130.5z" horiz-adv-x="1638" unicode="¶" glyph-name="paragraph"/>
<glyph d="M238 -203l90 203h69l-61 -135q37 10 67 10q71 0 117.5 -38.5t46.5 -100.5q0 -71 -59 -123q-72 -49 -191 -49q-85 0 -165 30l28 62q32 -8 66.5 -16.5t60.5 -8.5q47 0 82 22t35 64q0 80 -107 80q-9 0 -47 -10z" horiz-adv-x="682" unicode="¸" glyph-name="cedilla"/>
<glyph d="M346 526v742l-8 4l-150 -74q-17 33 -38 45q163 61 280 127l23 -6v-838q-14 2 -22 3t-14 2t-18 1t-17.5 -1t-14.5 -2t-21 -3z" horiz-adv-x="682" unicode="¹" glyph-name="onesuperior"/>
<glyph d="M717 1063q0 -83 -41.5 -153.5t-112.5 -112t-153 -41.5q-128 0 -218 90t-90 217q0 82 41 152.5t112.5 112.5t154.5 42q61 0 117.5 -23.5t99.5 -66.5t66.5 -99.5t23.5 -117.5zM635 1063q0 60 -31 112t-83 82.5t-113 30.5q-92 0 -158 -66t-66 -159q0 -95 66 -160t160 -65 q60 0 112 30t82.5 81.5t30.5 113.5z" horiz-adv-x="819" unicode="º" glyph-name="degree"/>
<glyph d="M580 838l245 -389l-258 -379q-32 40 -75 53l229 323l-219 338q49 16 78 54zM287 838l245 -389l-258 -379q-32 40 -75 53l229 323l-219 338q49 16 78 54z" horiz-adv-x="1024" unicode="»" glyph-name="guillemotright"/>
<glyph d="M1139 1395l-570 -1440q-28 4 -45 4q-13 0 -47 -4l572 1440q28 -4 45 -4q15 0 45 4zM342 526v742l-8 4l-150 -74q-17 33 -39 45q166 62 281 127l23 -6v-838q-14 2 -22 3t-14 2t-18 1t-18 -1t-14.5 -2t-20.5 -3zM1333 229h-411v17q17 23 100.5 135t134.5 178t80 104 t119 154q14 -2 24 -4t19 -2q5 0 15 2t26 4v-518l123 6q-4 -24 -4 -39q0 -11 4 -41l-123 4v-235q-14 2 -22.5 3t-14.5 2t-17 1q-9 0 -24.5 -2t-28.5 -4v235zM1333 299v395l-6 4q-80 -96 -299 -393l6 -6h299z" horiz-adv-x="1708" unicode="¼" glyph-name="onequarter"/>
<glyph d="M1110 1395l-569 -1440q-30 4 -45 4t-47 -4l571 1440q28 -4 45 -4t45 4zM342 526v742l-8 4l-150 -74q-17 33 -39 45q166 62 281 127l23 -6v-838q-14 2 -22 3t-14 2t-18 1t-18 -1t-14.5 -2t-20.5 -3zM1096 645l-45 60q79 116 229 116q122 0 194 -52.5t72 -162.5 q0 -125 -137 -258l-158 -155l-82 -80l-22 -23l6 -14q146 0 410 16q-7 -28 -7 -47q0 -20 7 -45h-572v18q35 31 109 101l80 76q126 118 184.5 201t58.5 208q0 174 -155 174q-60 0 -106 -37t-66 -96z" horiz-adv-x="1708" unicode="½" glyph-name="onehalf"/>
<glyph d="M1188 1395l-570 -1440q-28 4 -45 4q-13 0 -47 -4l572 1440q28 -4 45 -4t45 4zM281 950q0 6 2 14t2 11q0 5 -2 13t-2 11q16 0 26.5 -0.5t22.5 -1.5q79 0 117 52t38 129q0 69 -35 109t-102 40q-47 0 -89.5 -27t-59.5 -67l-6 -2l-35 65q21 24 74 49t122 25q61 0 120 -18.5 t96.5 -58.5t37.5 -99q0 -72 -47 -128t-133 -83v-4q95 -5 158 -53t63 -135q0 -118 -97.5 -187t-240.5 -69q-113 0 -202 38q5 11 8.5 27t5 26t2.5 23l8 4q72 -75 180 -75q100 0 156.5 59t56.5 151q0 80 -48 123t-134 43q-12 0 -33 -2t-30 -2zM1370 229h-412v17 q17 23 71.5 96.5t134.5 178t109.5 142.5t119.5 154q14 -2 24 -4t19 -2q5 0 15 2t26 4v-518l122 6v-80l-122 4v-235q-14 2 -22.5 3t-14.5 2t-17 1q-5 0 -53 -6v235zM1370 299v395l-6 4q-46 -53 -92.5 -114t-110 -148t-96.5 -131l6 -6h299z" horiz-adv-x="1708" unicode="¾" glyph-name="threequarters"/>
<glyph d="M252 113l129 141q45 49 74.5 93.5t29.5 86.5q0 58 -29.5 94.5t-80.5 36.5q-29 0 -64 -12l-12 8l25 57q20 11 69 11q95 0 158 -70t63 -172q0 -70 -30.5 -127t-87.5 -115l-123 -131q-58 -58 -84.5 -103t-26.5 -110q0 -70 57.5 -114.5t131.5 -44.5q43 0 97.5 28.5t76.5 63.5 l12 -101q-116 -65 -211 -65q-85 0 -152.5 33.5t-106 96t-38.5 148.5q0 76 30 136.5t93 130.5zM311 893q0 51 38 87t87 36q50 0 85.5 -37.5t35.5 -85.5q0 -51 -36 -87t-85 -36q-50 0 -87.5 36.5t-37.5 86.5z" horiz-adv-x="797" unicode="¿" glyph-name="questiondown"/>
<glyph d="M719 1425l614 -1431q-26 2 -43 3t-28.5 2t-34.5 1q-20 0 -51 -2t-58 -4q-104 301 -215 553h-520q-48 -120 -80 -202t-65.5 -176t-57.5 -175q-18 2 -30.5 3t-21 2t-24.5 1q-17 0 -25 -1t-20 -2t-26 -3l639 1431h47zM872 633l-227 524l-223 -524h450zM874 1554h-65 l-279 175q-12 9 -25 18t-20 20q-2 17 -2 50q14 38 74 38q16 -4 21 -8q12 -9 31 -28t34 -35z" horiz-adv-x="1366" unicode="À" glyph-name="Agrave"/>
<glyph d="M719 1425l614 -1431q-26 2 -43 3t-28.5 2t-34.5 1q-20 0 -51 -2t-58 -4q-104 301 -215 553h-520q-48 -120 -80 -202t-65.5 -176t-57.5 -175q-18 2 -30.5 3t-21 2t-24.5 1q-17 0 -25 -1t-20 -2t-26 -3l639 1431h47zM872 633l-227 524l-223 -524h450zM872 1720l-284 -182 h-62l230 229l23 23l22 22q8 6 18 14.5t14.5 11.5t14.5 5q61 0 72 -39q0 -10 -0.5 -26.5t-4.5 -20.5q-5 -10 -11.5 -16t-14.5 -10.5t-17 -10.5z" horiz-adv-x="1366" unicode="Á" glyph-name="Aacute"/>
<glyph d="M719 1425l614 -1431q-26 2 -43 3t-28.5 2t-34.5 1q-20 0 -51 -2t-58 -4q-104 301 -215 553h-520q-48 -120 -80 -202t-65.5 -176t-57.5 -175q-18 2 -30.5 3t-21 2t-24.5 1q-17 0 -25 -1t-20 -2t-26 -3l639 1431h47zM872 633l-227 524l-223 -524h450zM471 1495h-61l225 293 h100l226 -293h-60l-215 186z" horiz-adv-x="1366" unicode="Â" glyph-name="Acircumflex"/>
<glyph d="M719 1425l614 -1431q-26 2 -43 3t-28.5 2t-34.5 1q-20 0 -51 -2t-58 -4q-104 301 -215 553h-520q-48 -120 -80 -202t-65.5 -176t-57.5 -175q-18 2 -30.5 3t-21 2t-24.5 1q-17 0 -25 -1t-20 -2t-26 -3l639 1431h47zM872 633l-227 524l-223 -524h450zM430 1528h-41 q17 78 68.5 129t122.5 51q19 0 45 -6q23 -8 88 -39q45 -22 63 -29q30 -8 45 -8q45 0 68 31q9 9 33 57h53q-18 -76 -68 -131t-127 -55q-25 0 -46.5 5.5t-39 13t-47.5 22.5q-23 11 -41 19.5t-39.5 15t-38.5 6.5q-22 0 -39 -8q-40 -16 -59 -74z" horiz-adv-x="1366" unicode="Ã" glyph-name="Atilde"/>
<glyph d="M719 1425l614 -1431q-26 2 -43 3t-28.5 2t-34.5 1q-20 0 -51 -2t-58 -4q-104 301 -215 553h-520q-48 -120 -80 -202t-65.5 -176t-57.5 -175q-18 2 -30.5 3t-21 2t-24.5 1q-17 0 -25 -1t-20 -2t-26 -3l639 1431h47zM872 633l-227 524l-223 -524h450zM870 1536 q-23 0 -45.5 13t-35.5 35.5t-13 45.5q0 37 27.5 65.5t66.5 28.5q40 0 67.5 -28.5t27.5 -65.5q0 -23 -13 -45.5t-35.5 -35.5t-46.5 -13zM502 1536q-23 0 -45.5 13t-35.5 35.5t-13 45.5q0 37 27.5 65.5t66.5 28.5q38 0 66 -28t28 -66q0 -39 -28.5 -66.5t-65.5 -27.5z" horiz-adv-x="1366" unicode="Ä" glyph-name="Adieresis"/>
<glyph d="M719 1425l614 -1431q-26 2 -43 3t-28.5 2t-34.5 1q-20 0 -51 -2t-58 -4q-104 301 -215 553h-520q-48 -120 -80 -202t-65.5 -176t-57.5 -175q-18 2 -30.5 3t-21 2t-24.5 1q-17 0 -25 -1t-20 -2t-26 -3l639 1431h47zM872 633l-227 524l-223 -524h450zM707 1812 q-45 0 -79 -33t-34 -79q0 -45 35 -78t78 -33q44 0 77 33t33 78q0 44 -33 78t-77 34zM707 1518q-74 0 -128.5 53.5t-54.5 126.5t54.5 127.5t128.5 54.5q48 0 89.5 -25t66 -66.5t24.5 -90.5t-24.5 -90t-66.5 -65.5t-89 -24.5z" horiz-adv-x="1366" unicode="Å" glyph-name="Aring"/>
<glyph d="M10 -6l924 1401h686q-2 -22 -4 -37t-2 -25q0 -9 2 -25t4 -36q-76 15 -184 22l-205 4h-117v-518h256q31 0 92.5 5t89.5 6q-2 -18 -4 -31t-2 -23q0 -8 2 -22.5t4 -34.5q-22 2 -48.5 3.5t-45.5 3t-38 2.5t-50 1h-256v-594q135 0 361 8q62 4 157 19q-2 -22 -4 -37t-2 -25 q0 -9 2 -25t4 -36h-698v510h-475q-28 -41 -77.5 -126.5t-110.5 -198t-97 -191.5q-22 2 -35.5 3t-22.5 2t-28 1t-28 -1t-21.5 -2t-28.5 -3zM913 1237l-407 -641h428v649q-15 -3 -21 -8z" horiz-adv-x="1706" unicode="Æ" glyph-name="AE"/>
<glyph d="M1262 215l-11 -129q-60 -41 -135.5 -67t-154 -38t-162.5 -12q-165 0 -300 50.5t-228.5 147.5t-143 233t-49.5 302q0 224 101 388t277.5 249.5t393.5 85.5q70 0 147 -10.5t152.5 -32.5t140.5 -51q-26 -66 -43 -157l-14 -3q-25 30 -77 70t-134.5 73.5t-179.5 33.5 q-180 0 -307.5 -88.5t-191.5 -239t-64 -326.5q0 -192 69 -339t194 -226.5t285 -79.5q102 0 191 31t149.5 68.5t94.5 66.5zM483 -180l80 178h62l-56 -121q28 8 60 8q64 0 105.5 -34.5t41.5 -90.5q0 -62 -51 -106q-63 -43 -168 -43q-80 0 -147 27l24 55q14 -3 50.5 -12 t60.5 -9q41 0 71.5 20t30.5 56q0 72 -94 72q-10 0 -22.5 -3.5t-18.5 -4.5z" horiz-adv-x="1366" unicode="Ç" glyph-name="Ccedilla"/>
<glyph d="M362 1298v-514h318q19 0 55 2.5t61.5 4.5t65.5 4q-2 -18 -4 -31t-2 -23q0 -6 2 -21t4 -36q-40 2 -65.5 4t-61.5 4t-55 2h-318v-598q125 0 371 8q84 3 189 19q-1 -8 -3 -21.5t-2.5 -21.5t-1.5 -19q0 -14 2.5 -30t4.5 -31h-740v1395h727q-2 -22 -4 -37t-2 -25q0 -9 2 -25 t4 -36q-76 15 -184 22l-205 4h-158zM713 1503h-66l-278 174q-9 6 -17.5 12t-16.5 13.5t-11 13.5q-2 17 -2 49q12 39 73 39q17 -4 21 -8q12 -9 31 -28t34 -35z" horiz-adv-x="1024" unicode="È" glyph-name="Egrave"/>
<glyph d="M362 1298v-514h318q19 0 55 2.5t61.5 4.5t65.5 4q-2 -18 -4 -31t-2 -23q0 -6 2 -21t4 -36q-40 2 -65.5 4t-61.5 4t-55 2h-318v-598q125 0 371 8q84 3 189 19q-1 -8 -3 -21.5t-2.5 -21.5t-1.5 -19q0 -14 2.5 -30t4.5 -31h-740v1395h727q-2 -22 -4 -37t-2 -25q0 -9 2 -25 t4 -36q-76 15 -184 22l-205 4h-158zM772 1679l-285 -182h-61l229 229q40 40 45 46q6 3 21.5 16t26.5 14q62 0 71 -39q0 -10 -1 -27t-3 -20q-5 -11 -43 -37z" horiz-adv-x="1024" unicode="É" glyph-name="Eacute"/>
<glyph d="M362 1298v-514h318q19 0 55 2.5t61.5 4.5t65.5 4q-2 -18 -4 -31t-2 -23q0 -6 2 -21t4 -36q-40 2 -65.5 4t-61.5 4t-55 2h-318v-598q125 0 371 8q84 3 189 19q-1 -8 -3 -21.5t-2.5 -21.5t-1.5 -19q0 -14 2.5 -30t4.5 -31h-740v1395h727q-2 -22 -4 -37t-2 -25q0 -9 2 -25 t4 -36q-76 15 -184 22l-205 4h-158zM322 1491h-62l225 293h101l225 -293h-59l-215 186z" horiz-adv-x="1024" unicode="Ê" glyph-name="Ecircumflex"/>
<glyph d="M362 1298v-514h318q19 0 55 2.5t61.5 4.5t65.5 4q-2 -18 -4 -31t-2 -23q0 -6 2 -21t4 -36q-40 2 -65.5 4t-61.5 4t-55 2h-318v-598q125 0 371 8q84 3 189 19q-1 -8 -3 -21.5t-2.5 -21.5t-1.5 -19q0 -14 2.5 -30t4.5 -31h-740v1395h727q-2 -22 -4 -37t-2 -25q0 -9 2 -25 t4 -36q-76 15 -184 22l-205 4h-158zM721 1501q-23 0 -45.5 13t-35.5 35.5t-13 45.5q0 24 13 46.5t35 35.5t46 13t46 -13t35 -35.5t13 -46.5q0 -23 -13 -45.5t-35.5 -35.5t-45.5 -13zM352 1501q-23 0 -45.5 13t-35.5 35.5t-13 45.5q0 24 13 46.5t35 35.5t46 13q38 0 66 -28 t28 -67t-28.5 -66.5t-65.5 -27.5z" horiz-adv-x="1024" unicode="Ë" glyph-name="Edieresis"/>
<glyph d="M195 -6v1401q30 -2 52 -4t38 -2q13 0 35.5 2t54.5 4v-1401q-22 2 -37 3t-24.5 2t-28.5 1q-21 0 -31 -1t-25.5 -2t-33.5 -3zM498 1524h-66l-278 174q-39 27 -45 39q-3 16 -3 49q15 39 74 39q17 -4 21 -8q16 -13 65 -64z" horiz-adv-x="569" unicode="Ì" glyph-name="Igrave"/>
<glyph d="M195 -6v1401q30 -2 52 -4t38 -2q13 0 35.5 2t54.5 4v-1401q-22 2 -37 3t-24.5 2t-28.5 1q-21 0 -31 -1t-25.5 -2t-33.5 -3zM506 1690l-285 -183h-61l229 230q35 33 45 45q6 3 22 16t25 14q62 0 72 -38q0 -10 -1 -27t-3 -21q-4 -8 -10 -14t-12.5 -9.5t-20.5 -12.5z" horiz-adv-x="569" unicode="Í" glyph-name="Iacute"/>
<glyph d="M195 -6v1401q30 -2 52 -4t38 -2q13 0 35.5 2t54.5 4v-1401q-22 2 -37 3t-24.5 2t-28.5 1q-21 0 -31 -1t-25.5 -2t-33.5 -3zM90 1532h-61l225 293h100l226 -293h-60l-215 186z" horiz-adv-x="569" unicode="Î" glyph-name="Icircumflex"/>
<glyph d="M195 -6v1401q30 -2 52 -4t38 -2q13 0 35.5 2t54.5 4v-1401q-22 2 -37 3t-24.5 2t-28.5 1q-21 0 -31 -1t-25.5 -2t-33.5 -3zM471 1538q-23 0 -45.5 13t-35.5 35.5t-13 45.5q0 37 27.5 65.5t66.5 28.5t66.5 -28.5t27.5 -65.5q0 -23 -13 -45.5t-35.5 -35.5t-45.5 -13z M102 1538q-23 0 -45.5 13t-35.5 35.5t-13 45.5q0 37 27.5 65.5t66.5 28.5t67 -28t28 -66q0 -24 -13 -46t-35.5 -35t-46.5 -13z" horiz-adv-x="569" unicode="Ï" glyph-name="Idieresis"/>
<glyph d="M266 791v604h404h141q147 0 253 -24t198 -99q109 -89 164 -223.5t55 -288.5q0 -136 -31.5 -248t-89 -198.5t-137.5 -157.5q-61 -54 -135.5 -86.5t-150 -47t-149.5 -18.5t-184 -4h-338v700h-164v91h164zM446 1313v-522h312v-91h-312v-608q39 -3 118.5 -6.5t133.5 -3.5 q176 4 287 59q156 79 225.5 231t69.5 357q0 214 -60.5 345t-186.5 189t-328 58q-62 0 -138 -3.5t-121 -4.5z" horiz-adv-x="1593" unicode="Ð" glyph-name="Eth"/>
<glyph d="M1393 1395v-1401h-62q-41 54 -106 125l-885 979h-21v-1104q-14 2 -30.5 4t-26.5 2q-13 0 -19.5 -1t-16 -2t-21.5 -3v1401h80l972 -1055h21v1055q18 -2 32 -4t25 -2q10 0 24 2t34 4zM580 1524h-41q15 77 67.5 128.5t122.5 51.5q21 0 45 -6q28 -9 88 -39q53 -25 64 -29 q28 -8 45 -8q45 0 67 31q13 12 33 57h53q-18 -79 -68 -132.5t-126 -53.5q-25 0 -46 5t-39 13t-48 23q-23 11 -41 19.5t-39.5 15t-38.5 6.5q-24 0 -39 -9q-39 -14 -59 -73z" horiz-adv-x="1593" unicode="Ñ" glyph-name="Ntilde"/>
<glyph d="M1419 709q0 97 -10.5 170t-39.5 145t-79 135t-118 108t-148 68t-160 23q-133 0 -240.5 -48.5t-183 -140t-114.5 -219.5t-39 -280q0 -151 42.5 -268.5t120 -200t180.5 -123.5t216 -41q146 0 256 63.5t179.5 165t103.5 220.5t34 223zM840 -31q-168 0 -308 51.5t-240 148 t-153 230.5t-53 295q0 164 58 301t162 233t240.5 146.5t297.5 50.5q149 0 288.5 -41.5t249 -127.5t174 -219.5t64.5 -311.5q0 -223 -99 -395.5t-277.5 -266.5t-403.5 -94zM1075 1534h-65l-279 174q-12 9 -25 18t-20 21q-2 16 -2 49q12 39 74 39q16 -4 20 -8q16 -11 36 -32 t30 -32z" horiz-adv-x="1706" unicode="Ò" glyph-name="Ograve"/>
<glyph d="M1419 709q0 97 -10.5 170t-39.5 145t-79 135t-118 108t-148 68t-160 23q-133 0 -240.5 -48.5t-183 -140t-114.5 -219.5t-39 -280q0 -151 42.5 -268.5t120 -200t180.5 -123.5t216 -41q146 0 256 63.5t179.5 165t103.5 220.5t34 223zM840 -31q-168 0 -308 51.5t-240 148 t-153 230.5t-53 295q0 164 58 301t162 233t240.5 146.5t297.5 50.5q149 0 288.5 -41.5t249 -127.5t174 -219.5t64.5 -311.5q0 -223 -99 -395.5t-277.5 -266.5t-403.5 -94zM1094 1710l-285 -182h-61l229 229q16 16 25.5 24.5t19.5 20.5q10 8 16.5 13.5t14 11t16.5 6.5 q63 0 72 -39q0 -10 -1 -27t-3 -20q-7 -15 -43 -37z" horiz-adv-x="1706" unicode="Ó" glyph-name="Oacute"/>
<glyph d="M1419 709q0 97 -10.5 170t-39.5 145t-79 135t-118 108t-148 68t-160 23q-133 0 -240.5 -48.5t-183 -140t-114.5 -219.5t-39 -280q0 -151 42.5 -268.5t120 -200t180.5 -123.5t216 -41q146 0 256 63.5t179.5 165t103.5 220.5t34 223zM840 -31q-168 0 -308 51.5t-240 148 t-153 230.5t-53 295q0 164 58 301t162 233t240.5 146.5t297.5 50.5q149 0 288.5 -41.5t249 -127.5t174 -219.5t64.5 -311.5q0 -223 -99 -395.5t-277.5 -266.5t-403.5 -94zM635 1495h-62l226 293h100l225 -293h-59l-215 186z" horiz-adv-x="1706" unicode="Ô" glyph-name="Ocircumflex"/>
<glyph d="M1419 709q0 97 -10.5 170t-39.5 145t-79 135t-118 108t-148 68t-160 23q-133 0 -240.5 -48.5t-183 -140t-114.5 -219.5t-39 -280q0 -151 42.5 -268.5t120 -200t180.5 -123.5t216 -41q146 0 256 63.5t179.5 165t103.5 220.5t34 223zM840 -31q-168 0 -308 51.5t-240 148 t-153 230.5t-53 295q0 164 58 301t162 233t240.5 146.5t297.5 50.5q149 0 288.5 -41.5t249 -127.5t174 -219.5t64.5 -311.5q0 -223 -99 -395.5t-277.5 -266.5t-403.5 -94zM600 1528h-41q17 78 68.5 129t122.5 51q19 0 45 -6q23 -8 88 -39q45 -22 63 -29q30 -8 45 -8 q45 0 68 31q9 9 33 57h53q-18 -76 -68 -131t-127 -55q-25 0 -46.5 5.5t-39 13t-47.5 22.5q-23 11 -41 19.5t-39.5 15t-38.5 6.5q-22 0 -39 -8q-40 -16 -59 -74z" horiz-adv-x="1706" unicode="Õ" glyph-name="Otilde"/>
<glyph d="M1419 709q0 97 -10.5 170t-39.5 145t-79 135t-118 108t-148 68t-160 23q-133 0 -240.5 -48.5t-183 -140t-114.5 -219.5t-39 -280q0 -151 42.5 -268.5t120 -200t180.5 -123.5t216 -41q146 0 256 63.5t179.5 165t103.5 220.5t34 223zM840 -31q-168 0 -308 51.5t-240 148 t-153 230.5t-53 295q0 164 58 301t162 233t240.5 146.5t297.5 50.5q149 0 288.5 -41.5t249 -127.5t174 -219.5t64.5 -311.5q0 -223 -99 -395.5t-277.5 -266.5t-403.5 -94zM1044 1505q-23 0 -45.5 13t-35.5 35.5t-13 45.5q0 24 13 46.5t35 35.5t46 13q25 0 46.5 -12.5 t35 -35.5t13.5 -47q0 -23 -13 -45.5t-35.5 -35.5t-46.5 -13zM676 1505q-23 0 -45.5 13t-35.5 35.5t-13 45.5q0 24 13 46.5t35 35.5t46 13q38 0 66 -28t28 -67t-28.5 -66.5t-65.5 -27.5z" horiz-adv-x="1706" unicode="Ö" glyph-name="Odieresis"/>
<glyph d="M524 516l-420 422l93 94l421 -424l422 424l97 -92l-426 -424l426 -426l-97 -90l-422 424l-421 -424l-93 92z" horiz-adv-x="1241" unicode="×" glyph-name="multiply"/>
<glyph d="M1298 1143l-854 -936q80 -85 182 -127.5t220 -42.5q154 0 266.5 67.5t179.5 172.5t97 217.5t30 212.5q0 71 -4.5 123.5t-17.5 106t-38 108t-61 98.5zM408 254l854 938q-74 81 -179 123.5t-219 42.5q-148 0 -257.5 -55t-181 -152.5t-105 -219t-33.5 -259.5 q0 -83 11.5 -156t37 -137.5t72.5 -124.5zM156 -29l161 176q-111 94 -171 233.5t-60 311.5q0 208 100.5 376t274 262.5t383.5 94.5q319 0 499 -151q83 89 179 213q4 -9 12 -17t22 -18t23 -16q-42 -44 -68 -71t-52 -54.5t-68 -71.5q114 -93 171.5 -222.5t57.5 -293.5 q0 -223 -99 -394.5t-277.5 -265.5t-403.5 -94q-284 0 -478 142q-148 -174 -180 -215q-25 36 -55 47z" horiz-adv-x="1706" unicode="Ø" glyph-name="Oslash"/>
<glyph d="M373 1395v-785q0 -137 22.5 -239t74.5 -171t139.5 -103t215.5 -34q233 0 338 150.5t105 417.5v764q18 -2 32 -4t25 -2q8 0 22.5 2t34.5 4v-815q0 -198 -73 -335.5t-208.5 -206.5t-316.5 -69q-102 0 -182 16t-144 47.5t-118 80.5q-88 79 -116.5 195t-30.5 267v820 q30 -2 52 -4t38 -2q13 0 35.5 2t54.5 4zM979 1524h-66l-278 174q-39 27 -45 39q-2 16 -2 49q13 39 74 39q16 -4 20 -8q16 -11 36 -32t30 -32z" horiz-adv-x="1593" unicode="Ù" glyph-name="Ugrave"/>
<glyph d="M373 1395v-785q0 -137 22.5 -239t74.5 -171t139.5 -103t215.5 -34q233 0 338 150.5t105 417.5v764q18 -2 32 -4t25 -2q8 0 22.5 2t34.5 4v-815q0 -198 -73 -335.5t-208.5 -206.5t-316.5 -69q-102 0 -182 16t-144 47.5t-118 80.5q-88 79 -116.5 195t-30.5 267v820 q30 -2 52 -4t38 -2q13 0 35.5 2t54.5 4zM1090 1690l-285 -183h-62l230 230q12 11 21.5 20t23.5 25l17.5 14t14.5 10.5t15 5.5q61 0 72 -38q0 -10 -1 -27t-3 -21q-4 -9 -11 -15t-12.5 -9t-19.5 -12z" horiz-adv-x="1593" unicode="Ú" glyph-name="Uacute"/>
<glyph d="M373 1395v-785q0 -137 22.5 -239t74.5 -171t139.5 -103t215.5 -34q233 0 338 150.5t105 417.5v764q18 -2 32 -4t25 -2q8 0 22.5 2t34.5 4v-815q0 -198 -73 -335.5t-208.5 -206.5t-316.5 -69q-102 0 -182 16t-144 47.5t-118 80.5q-88 79 -116.5 195t-30.5 267v820 q30 -2 52 -4t38 -2q13 0 35.5 2t54.5 4zM586 1516h-62l226 292h100l225 -292h-59l-215 186z" horiz-adv-x="1593" unicode="Û" glyph-name="Ucircumflex"/>
<glyph d="M373 1395v-785q0 -137 22.5 -239t74.5 -171t139.5 -103t215.5 -34q233 0 338 150.5t105 417.5v764q18 -2 32 -4t25 -2q8 0 22.5 2t34.5 4v-815q0 -198 -73 -335.5t-208.5 -206.5t-316.5 -69q-102 0 -182 16t-144 47.5t-118 80.5q-88 79 -116.5 195t-30.5 267v820 q30 -2 52 -4t38 -2q13 0 35.5 2t54.5 4zM1008 1491q-24 0 -46.5 13t-35.5 35.5t-13 45.5q0 37 27.5 65.5t67.5 28.5q39 0 66.5 -28.5t27.5 -65.5q0 -23 -13 -45.5t-35.5 -35.5t-45.5 -13zM639 1491q-23 0 -45.5 13t-35.5 35.5t-13 45.5q0 37 27.5 65.5t66.5 28.5 q38 0 66 -28t28 -66q0 -39 -28.5 -66.5t-65.5 -27.5z" horiz-adv-x="1593" unicode="Ü" glyph-name="Udieresis"/>
<glyph d="M723 623v-629q-22 2 -36.5 3t-24.5 2t-29 1q-21 0 -31 -1t-25.5 -2t-33.5 -3v590l-502 811q38 -2 66.5 -4t48.5 -2q17 0 44.5 2t67.5 4q57 -110 123 -228.5t151 -265.5t115 -192q24 27 74.5 112.5t118.5 208t113.5 207t85.5 158.5q26 -2 45.5 -4t33.5 -2q13 0 32.5 2 t47.5 4q-79 -102 -145 -205l-225 -363q-65 -98 -115 -204zM887 1700l-285 -182h-61l229 229q12 11 25 24t20 21q10 8 16.5 13.5t14 11t16.5 6.5q62 0 72 -39q0 -10 -1 -27t-3 -20q-3 -6 -8 -12t-13 -11t-22 -14z" horiz-adv-x="1251" unicode="Ý" glyph-name="Yacute"/>
<glyph d="M342 473v-479q-22 2 -36.5 3t-24.5 2t-29 1q-21 0 -31 -1t-25.5 -2t-33.5 -3v1401q30 -2 52 -4t38 -2q15 0 36.5 2t53.5 4v-285h227q182 0 287.5 -24.5t153 -85.5t47.5 -173q0 -79 -27 -136t-83 -98.5t-139 -69.5t-190 -46q-48 -8 -122 -8q-37 0 -90 2t-64 2zM342 1044 v-501q54 -4 94 -4q39 0 109 4q100 7 173.5 44t111.5 97t38 137q0 94 -57 153t-174 68q-43 5 -158 5q-106 0 -137 -3z" unicode="Þ" glyph-name="Thorn"/>
<glyph d="M309 987v-993q-20 2 -33.5 3t-22 2t-26.5 1q-15 0 -38 -2t-44 -4v991q0 138 26 240.5t77.5 171t126.5 102t174 33.5q60 0 118 -19t99.5 -51t65.5 -76t24 -92q0 -67 -31.5 -121t-93 -119t-88.5 -101.5t-27 -82.5q0 -60 45 -98.5t156.5 -110.5t169 -139t57.5 -162 q0 -104 -64 -192.5t-160 -139.5t-181 -51q-100 0 -197 50q9 21 47 118q35 -42 88.5 -65t114.5 -23q90 0 153.5 62.5t63.5 152.5q0 91 -56 149t-164 123.5t-161 116.5t-53 132q0 61 32 108t99 116t102 126.5t35 130.5q0 59 -25.5 102.5t-71.5 68.5t-103 25q-100 0 -152 -63 t-67 -164t-15 -256z" unicode="ß" glyph-name="germandbls"/>
<glyph d="M846 641v-475q0 -40 2.5 -59.5t14.5 -31.5t38 -12q22 0 60 9v-45q-35 -16 -62 -21q-33 -6 -65 -6q-61 2 -99.5 30.5t-46.5 94.5l-18 -19q-129 -129 -303 -129q-112 0 -192.5 70t-80.5 180q0 108 51.5 168t126.5 83.5t201 43.5q96 16 137 28t60.5 36t19.5 73 q0 115 -62.5 177.5t-176.5 62.5q-67 0 -120 -24t-84 -56.5t-40 -60.5h-23v114q165 113 330 113q163 0 247.5 -86t84.5 -258zM682 205v299l-72 -15q-68 -12 -125 -24.5t-107 -34.5t-83 -65t-33 -109q0 -96 52.5 -144.5t148.5 -48.5q38 0 86 24t78 54q10 10 22 21t22.5 24.5 t10.5 18.5zM709 1094h-66l-278 174q-12 9 -25 17.5t-21 21.5q-2 16 -2 49q15 39 74 39q17 -4 21 -9q12 -9 31 -28t34 -35z" horiz-adv-x="1024" unicode="à" glyph-name="agrave"/>
<glyph d="M846 641v-475q0 -40 2.5 -59.5t14.5 -31.5t38 -12q22 0 60 9v-45q-35 -16 -62 -21q-33 -6 -65 -6q-61 2 -99.5 30.5t-46.5 94.5l-18 -19q-129 -129 -303 -129q-112 0 -192.5 70t-80.5 180q0 108 51.5 168t126.5 83.5t201 43.5q96 16 137 28t60.5 36t19.5 73 q0 115 -62.5 177.5t-176.5 62.5q-67 0 -120 -24t-84 -56.5t-40 -60.5h-23v114q165 113 330 113q163 0 247.5 -86t84.5 -258zM682 205v299l-72 -15q-68 -12 -125 -24.5t-107 -34.5t-83 -65t-33 -109q0 -96 52.5 -144.5t148.5 -48.5q38 0 86 24t78 54q10 10 22 21t22.5 24.5 t10.5 18.5zM696 1270l-284 -183h-62l230 230q12 11 23 22.5t22 22.5q4 2 19.5 16t27.5 15q61 0 71 -39q0 -10 -1 -27t-3 -20q-7 -16 -43 -37z" horiz-adv-x="1024" unicode="á" glyph-name="aacute"/>
<glyph d="M846 641v-475q0 -40 2.5 -59.5t14.5 -31.5t38 -12q22 0 60 9v-45q-35 -16 -62 -21q-33 -6 -65 -6q-61 2 -99.5 30.5t-46.5 94.5l-18 -19q-129 -129 -303 -129q-112 0 -192.5 70t-80.5 180q0 108 51.5 168t126.5 83.5t201 43.5q96 16 137 28t60.5 36t19.5 73 q0 115 -62.5 177.5t-176.5 62.5q-67 0 -120 -24t-84 -56.5t-40 -60.5h-23v114q165 113 330 113q163 0 247.5 -86t84.5 -258zM682 205v299l-72 -15q-68 -12 -125 -24.5t-107 -34.5t-83 -65t-33 -109q0 -96 52.5 -144.5t148.5 -48.5q38 0 86 24t78 54q10 10 22 21t22.5 24.5 t10.5 18.5zM293 1067h-62l226 293h100l225 -293h-59l-215 186z" horiz-adv-x="1024" unicode="â" glyph-name="acircumflex"/>
<glyph d="M846 641v-475q0 -40 2.5 -59.5t14.5 -31.5t38 -12q22 0 60 9v-45q-35 -16 -62 -21q-33 -6 -65 -6q-61 2 -99.5 30.5t-46.5 94.5l-18 -19q-129 -129 -303 -129q-112 0 -192.5 70t-80.5 180q0 108 51.5 168t126.5 83.5t201 43.5q96 16 137 28t60.5 36t19.5 73 q0 115 -62.5 177.5t-176.5 62.5q-67 0 -120 -24t-84 -56.5t-40 -60.5h-23v114q165 113 330 113q163 0 247.5 -86t84.5 -258zM682 205v299l-72 -15q-68 -12 -125 -24.5t-107 -34.5t-83 -65t-33 -109q0 -96 52.5 -144.5t148.5 -48.5q38 0 86 24t78 54q10 10 22 21t22.5 24.5 t10.5 18.5zM274 1087h-41q17 80 68.5 130.5t122.5 50.5q21 0 45 -6q27 -10 88 -39q38 -20 64 -29q28 -8 45 -8q45 0 67 31q15 14 33 57h53q-19 -80 -68.5 -133.5t-125.5 -53.5q-27 0 -47.5 5.5t-42 15.5t-43.5 20q-38 19 -65.5 30t-53.5 11q-23 0 -39 -8q-39 -14 -60 -74z " horiz-adv-x="1024" unicode="ã" glyph-name="atilde"/>
<glyph d="M846 641v-475q0 -40 2.5 -59.5t14.5 -31.5t38 -12q22 0 60 9v-45q-35 -16 -62 -21q-33 -6 -65 -6q-61 2 -99.5 30.5t-46.5 94.5l-18 -19q-129 -129 -303 -129q-112 0 -192.5 70t-80.5 180q0 108 51.5 168t126.5 83.5t201 43.5q96 16 137 28t60.5 36t19.5 73 q0 115 -62.5 177.5t-176.5 62.5q-67 0 -120 -24t-84 -56.5t-40 -60.5h-23v114q165 113 330 113q163 0 247.5 -86t84.5 -258zM682 205v299l-72 -15q-68 -12 -125 -24.5t-107 -34.5t-83 -65t-33 -109q0 -96 52.5 -144.5t148.5 -48.5q38 0 86 24t78 54q10 10 22 21t22.5 24.5 t10.5 18.5zM713 1077q-37 0 -66 29t-29 65q0 24 13 46.5t35.5 35.5t46.5 13t46 -13t35 -35.5t13 -46.5q0 -23 -13 -45.5t-35.5 -35.5t-45.5 -13zM344 1077q-23 0 -45.5 13t-35.5 35.5t-13 45.5q0 24 13 46.5t35 35.5t46 13q38 0 66 -28t28 -67t-28.5 -66.5t-65.5 -27.5z" horiz-adv-x="1024" unicode="ä" glyph-name="adieresis"/>
<glyph d="M846 641v-475q0 -40 2.5 -59.5t14.5 -31.5t38 -12q22 0 60 9v-45q-35 -16 -62 -21q-33 -6 -65 -6q-61 2 -99.5 30.5t-46.5 94.5l-18 -19q-129 -129 -303 -129q-112 0 -192.5 70t-80.5 180q0 108 51.5 168t126.5 83.5t201 43.5q96 16 137 28t60.5 36t19.5 73 q0 115 -62.5 177.5t-176.5 62.5q-67 0 -120 -24t-84 -56.5t-40 -60.5h-23v114q165 113 330 113q163 0 247.5 -86t84.5 -258zM682 205v299l-72 -15q-68 -12 -125 -24.5t-107 -34.5t-83 -65t-33 -109q0 -96 52.5 -144.5t148.5 -48.5q38 0 86 24t78 54q10 10 22 21t22.5 24.5 t10.5 18.5zM539 1384q-45 0 -79 -33t-34 -79q0 -45 35 -78t78 -33q44 0 77 33t33 78q0 44 -33 78t-77 34zM539 1090q-74 0 -128.5 53.5t-54.5 126.5t54.5 127.5t128.5 54.5q48 0 89.5 -25t66 -66.5t24.5 -90.5t-24.5 -90t-66.5 -65.5t-89 -24.5z" horiz-adv-x="1024" unicode="å" glyph-name="aring"/>
<glyph d="M825 565h535q2 15 2 47q0 76 -30 148t-88.5 117t-137.5 45q-88 0 -148.5 -50.5t-93.5 -132.5t-39 -174zM1481 195l-15 -105q-15 -9 -63.5 -39t-116 -52t-147.5 -22q-139 0 -253 58t-175 180q-29 -75 -81 -129t-118.5 -81.5t-140.5 -27.5q-139 0 -222 66.5t-83 183.5 q0 110 53 168t123 78.5t184 38.5q89 13 141.5 27t96.5 51q4 26 4 84q0 48 -15.5 89.5t-43.5 71t-72 47t-103 17.5q-75 0 -131 -29t-87.5 -63t-37.5 -51h-18v110q37 37 118.5 78t204.5 41t199.5 -50.5t110.5 -107.5q56 78 138.5 118t178.5 40q107 0 199.5 -43t152.5 -144.5 t60 -267.5q0 -14 -0.5 -24t-1.5 -23q-193 6 -430 6h-271q-2 -12 -2 -40q0 -102 39.5 -190t118 -142t192.5 -54q88 0 171 34.5t143 97.5zM666 434v66q-32 -7 -103.5 -18.5t-124.5 -24.5t-90 -33q-63 -33 -86.5 -74t-23.5 -117q0 -79 53.5 -124.5t134.5 -45.5q67 0 125.5 32.5 t83.5 90.5q31 67 31 170v78z" horiz-adv-x="1593" unicode="æ" glyph-name="ae"/>
<glyph d="M938 901l-47 -135h-17q-41 57 -55 68q-32 38 -89.5 59.5t-113.5 21.5q-167 0 -259.5 -123t-92.5 -296q0 -128 47 -231.5t132 -160.5t194 -57q82 0 146 33.5t137 99.5l12 -6l-10 -94q-141 -103 -314 -103q-166 0 -284.5 66t-179 181.5t-60.5 260.5q0 154 67.5 267.5 t188 173t274.5 59.5q189 0 324 -84zM317 -197l80 179h62l-56 -121q28 8 60 8q64 0 105.5 -34.5t41.5 -90.5q0 -63 -51 -106q-64 -44 -168 -44q-76 0 -147 27l24 55q28 -6 57.5 -13t53.5 -7q41 0 71.5 19t30.5 57q0 71 -94 71q-10 0 -22.5 -3.5t-18.5 -4.5z" horiz-adv-x="1024" unicode="ç" glyph-name="ccedilla"/>
<glyph d="M907 205l-2 -107q-82 -57 -172.5 -89t-179.5 -32q-141 0 -251 60.5t-171 174.5t-61 269q0 144 54 258.5t160.5 180t254.5 65.5q83 0 159 -28.5t133 -84t91 -142t34 -202.5q0 -14 -0.5 -23.5t-1.5 -21.5q-208 6 -415 6h-289q-2 -14 -2 -43q0 -78 23 -147.5t69.5 -123 t114 -83t149.5 -29.5q156 0 303 142zM250 565h545q-4 158 -61 257.5t-195 99.5q-91 0 -153.5 -50.5t-96 -132.5t-39.5 -174zM735 1083h-65l-279 174q-8 6 -17 12t-17 13.5t-11 13.5q-2 17 -2 50q13 38 74 38q16 -4 20 -8q16 -11 33 -29t33 -34z" horiz-adv-x="1024" unicode="è" glyph-name="egrave"/>
<glyph d="M907 205l-2 -107q-82 -57 -172.5 -89t-179.5 -32q-141 0 -251 60.5t-171 174.5t-61 269q0 144 54 258.5t160.5 180t254.5 65.5q83 0 159 -28.5t133 -84t91 -142t34 -202.5q0 -14 -0.5 -23.5t-1.5 -21.5q-208 6 -415 6h-289q-2 -14 -2 -43q0 -78 23 -147.5t69.5 -123 t114 -83t149.5 -29.5q156 0 303 142zM250 565h545q-4 158 -61 257.5t-195 99.5q-91 0 -153.5 -50.5t-96 -132.5t-39.5 -174zM723 1260l-285 -183h-61l229 230q35 33 45 45q6 3 22 16t25 14q63 0 72 -39q0 -10 -1 -26.5t-3 -20.5q-4 -8 -10 -14t-12.5 -9.5t-20.5 -12.5z" horiz-adv-x="1024" unicode="é" glyph-name="eacute"/>
<glyph d="M907 205l-2 -107q-82 -57 -172.5 -89t-179.5 -32q-141 0 -251 60.5t-171 174.5t-61 269q0 144 54 258.5t160.5 180t254.5 65.5q83 0 159 -28.5t133 -84t91 -142t34 -202.5q0 -14 -0.5 -23.5t-1.5 -21.5q-208 6 -415 6h-289q-2 -14 -2 -43q0 -78 23 -147.5t69.5 -123 t114 -83t149.5 -29.5q156 0 303 142zM250 565h545q-4 158 -61 257.5t-195 99.5q-91 0 -153.5 -50.5t-96 -132.5t-39.5 -174zM303 1067h-61l225 293h100l226 -293h-60l-215 186z" horiz-adv-x="1024" unicode="ê" glyph-name="ecircumflex"/>
<glyph d="M907 205l-2 -107q-82 -57 -172.5 -89t-179.5 -32q-141 0 -251 60.5t-171 174.5t-61 269q0 144 54 258.5t160.5 180t254.5 65.5q83 0 159 -28.5t133 -84t91 -142t34 -202.5q0 -14 -0.5 -23.5t-1.5 -21.5q-208 6 -415 6h-289q-2 -14 -2 -43q0 -78 23 -147.5t69.5 -123 t114 -83t149.5 -29.5q156 0 303 142zM250 565h545q-4 158 -61 257.5t-195 99.5q-91 0 -153.5 -50.5t-96 -132.5t-39.5 -174zM713 1087q-35 0 -65 30t-30 65q0 37 28.5 65.5t66.5 28.5q39 0 66.5 -28.5t27.5 -65.5t-29 -66t-65 -29zM344 1087q-36 0 -65 29t-29 66t27.5 65.5 t66.5 28.5q38 0 66 -28t28 -66q0 -40 -28.5 -67.5t-65.5 -27.5z" horiz-adv-x="1024" unicode="ë" glyph-name="edieresis"/>
<glyph d="M367 973v-979q-20 2 -33.5 3t-22.5 2t-26 1q-19 0 -24.5 -0.5t-22.5 -2t-35 -3.5v979q26 -2 47 -4t35 -2q13 0 33.5 2t48.5 4zM498 1110h-66l-278 174q-12 9 -25 18t-20 21q-3 16 -3 49q14 39 74 39q17 -4 21 -8q16 -13 65 -64z" horiz-adv-x="569" unicode="ì" glyph-name="igrave"/>
<glyph d="M367 973v-979q-20 2 -33.5 3t-22.5 2t-26 1q-19 0 -24.5 -0.5t-22.5 -2t-35 -3.5v979q26 -2 47 -4t35 -2q13 0 33.5 2t48.5 4zM506 1307l-285 -183h-61l229 230q35 33 45 45q6 3 22.5 16.5t24.5 14.5q62 0 72 -39q0 -10 -1 -27t-3 -21q-4 -8 -10 -14t-12.5 -9.5 t-20.5 -12.5z" horiz-adv-x="569" unicode="í" glyph-name="iacute"/>
<glyph d="M367 973v-979q-20 2 -33.5 3t-22.5 2t-26 1q-19 0 -24.5 -0.5t-22.5 -2t-35 -3.5v979q26 -2 47 -4t35 -2q13 0 33.5 2t48.5 4zM68 1124h-62l225 293h101l225 -293h-59l-215 187z" horiz-adv-x="569" unicode="î" glyph-name="icircumflex"/>
<glyph d="M367 973v-979q-20 2 -33.5 3t-22.5 2t-26 1q-19 0 -24.5 -0.5t-22.5 -2t-35 -3.5v979q26 -2 47 -4t35 -2q13 0 33.5 2t48.5 4zM459 1110q-23 0 -45.5 13t-35.5 35.5t-13 45.5q0 37 27.5 65.5t66.5 28.5t66.5 -28.5t27.5 -65.5q0 -23 -13 -45.5t-35.5 -35.5t-45.5 -13z M90 1110q-23 0 -45.5 13t-35.5 35.5t-13 45.5q0 37 27.5 65.5t66.5 28.5q38 0 66 -28t28 -66q0 -39 -28.5 -66.5t-65.5 -27.5z" horiz-adv-x="569" unicode="ï" glyph-name="idieresis"/>
<glyph d="M571 41q109 0 180.5 75t103.5 180.5t32 199.5q0 77 -15 150.5t-50 136t-93 101t-139 38.5q-122 0 -197.5 -66.5t-108 -171.5t-32.5 -223q0 -111 32.5 -205.5t104.5 -154.5t182 -60zM860 1532l37 -59l-197 -123q161 -160 264 -371.5t103 -452.5q0 -135 -59.5 -261.5 t-176.5 -207t-276 -80.5q-139 0 -248.5 64t-172 182t-62.5 269q0 109 38.5 199.5t110.5 157t165.5 101.5t205.5 35q115 0 215 -47q-64 183 -201 352l-209 -133l-37 60l199 126q-87 97 -170 152l29 37q106 -27 229 -133z" unicode="ð" glyph-name="eth"/>
<glyph d="M158 -6v979q26 -2 47 -4t35 -2q13 0 33.5 2t48.5 4v-187q113 199 329 199q177 0 253.5 -96.5t76.5 -302.5v-592q-20 2 -33.5 3t-22 2t-26.5 1q-19 0 -28 -1t-22.5 -2t-31.5 -3v545q0 105 -18 179t-68.5 117.5t-140.5 43.5q-151 0 -209.5 -102t-58.5 -308v-475 q-20 2 -33.5 3t-22.5 2t-26 1q-19 0 -24.5 -0.5t-22.5 -2t-35 -3.5zM379 1090h-41q15 77 67.5 128.5t122.5 51.5q21 0 45 -6q31 -11 89 -39q35 -19 63 -29q28 -8 45 -8q45 0 68 31q14 14 32 57h54q-18 -76 -68 -131t-127 -55q-19 0 -36 4t-32.5 9t-35.5 14.5t-29 12.5 q-38 19 -65.5 30t-53.5 11q-22 0 -39 -8q-40 -15 -59 -73z" unicode="ñ" glyph-name="ntilde"/>
<glyph d="M72 492q0 109 38.5 199.5t110.5 157t165.5 101.5t205.5 35q140 0 247.5 -61t167.5 -174.5t60 -264.5q0 -98 -33 -190t-99 -164.5t-162.5 -113t-217.5 -40.5q-133 0 -244 61.5t-175 179t-64 274.5zM590 922q-122 0 -197.5 -66.5t-108 -171.5t-32.5 -223 q0 -111 32.5 -205.5t104.5 -154.5t182 -60q109 0 180.5 75t103.5 180.5t32 199.5q0 77 -15 150.5t-50 136t-93 101t-139 38.5zM793 1094h-66l-278 174q-12 9 -25 17.5t-21 21.5q-2 16 -2 49q15 39 74 39q16 -4 21 -9q12 -9 31 -28t34 -35z" unicode="ò" glyph-name="ograve"/>
<glyph d="M72 492q0 109 38.5 199.5t110.5 157t165.5 101.5t205.5 35q140 0 247.5 -61t167.5 -174.5t60 -264.5q0 -98 -33 -190t-99 -164.5t-162.5 -113t-217.5 -40.5q-133 0 -244 61.5t-175 179t-64 274.5zM590 922q-122 0 -197.5 -66.5t-108 -171.5t-32.5 -223 q0 -111 32.5 -205.5t104.5 -154.5t182 -60q109 0 180.5 75t103.5 180.5t32 199.5q0 77 -15 150.5t-50 136t-93 101t-139 38.5zM770 1270l-285 -183h-61l229 230q32 30 45 45q6 3 21.5 16.5t25.5 14.5q62 0 72 -39q0 -10 -1 -27t-3 -20q-3 -6 -8 -12t-13 -11t-22 -14z" unicode="ó" glyph-name="oacute"/>
<glyph d="M72 492q0 109 38.5 199.5t110.5 157t165.5 101.5t205.5 35q140 0 247.5 -61t167.5 -174.5t60 -264.5q0 -98 -33 -190t-99 -164.5t-162.5 -113t-217.5 -40.5q-133 0 -244 61.5t-175 179t-64 274.5zM590 922q-122 0 -197.5 -66.5t-108 -171.5t-32.5 -223 q0 -111 32.5 -205.5t104.5 -154.5t182 -60q109 0 180.5 75t103.5 180.5t32 199.5q0 77 -15 150.5t-50 136t-93 101t-139 38.5zM354 1065h-61l225 293h100l226 -293h-60l-215 186z" unicode="ô" glyph-name="ocircumflex"/>
<glyph d="M72 492q0 109 38.5 199.5t110.5 157t165.5 101.5t205.5 35q140 0 247.5 -61t167.5 -174.5t60 -264.5q0 -98 -33 -190t-99 -164.5t-162.5 -113t-217.5 -40.5q-133 0 -244 61.5t-175 179t-64 274.5zM590 922q-122 0 -197.5 -66.5t-108 -171.5t-32.5 -223 q0 -111 32.5 -205.5t104.5 -154.5t182 -60q109 0 180.5 75t103.5 180.5t32 199.5q0 77 -15 150.5t-50 136t-93 101t-139 38.5zM317 1087h-41q17 80 68.5 130.5t122.5 50.5q21 0 45 -6q27 -10 88 -39q38 -20 64 -29q28 -8 45 -8q45 0 67 31q15 14 33 57h53 q-19 -80 -68.5 -133.5t-125.5 -53.5q-27 0 -47.5 5.5t-42 15.5t-43.5 20q-38 19 -65.5 30t-53.5 11q-23 0 -39 -8q-39 -14 -60 -74z" unicode="õ" glyph-name="otilde"/>
<glyph d="M72 492q0 109 38.5 199.5t110.5 157t165.5 101.5t205.5 35q140 0 247.5 -61t167.5 -174.5t60 -264.5q0 -98 -33 -190t-99 -164.5t-162.5 -113t-217.5 -40.5q-133 0 -244 61.5t-175 179t-64 274.5zM590 922q-122 0 -197.5 -66.5t-108 -171.5t-32.5 -223 q0 -111 32.5 -205.5t104.5 -154.5t182 -60q109 0 180.5 75t103.5 180.5t32 199.5q0 77 -15 150.5t-50 136t-93 101t-139 38.5zM764 1065q-23 0 -45.5 13t-35.5 35.5t-13 45.5q0 37 27.5 65.5t66.5 28.5t66.5 -28.5t27.5 -65.5q0 -23 -13 -45.5t-35.5 -35.5t-45.5 -13z M395 1065q-23 0 -45.5 13t-35.5 35.5t-13 45.5q0 37 27.5 65.5t66.5 28.5q38 0 66 -28t28 -66q0 -39 -28.5 -66.5t-65.5 -27.5z" unicode="ö" glyph-name="odieresis"/>
<glyph d="M1137 455h-1033v131h1033v-131zM621 819q-50 0 -87.5 35.5t-37.5 87.5q0 51 38 87t87 36q32 0 59.5 -17t44 -45t16.5 -61q0 -51 -35 -87t-85 -36zM621 -25q-50 0 -87.5 36.5t-37.5 86.5q0 51 38 87t87 36q32 0 59.5 -17t44 -45t16.5 -61q0 -49 -35 -86t-85 -37z" horiz-adv-x="1241" unicode="÷" glyph-name="divide"/>
<glyph d="M1081 1018l-157 -164q70 -56 105.5 -158.5t35.5 -210.5q0 -104 -37 -197t-103.5 -162t-162.5 -109t-209 -40q-58 0 -117.5 15t-112.5 42t-87 54l-150 -182q-15 35 -55 57l162 168q-51 57 -77.5 112t-36 113.5t-9.5 135.5q0 148 67 259.5t185.5 172.5t267.5 61 q144 0 284 -90l150 174q11 -28 57 -51zM291 242l506 565q-19 44 -77 79.5t-132 35.5q-113 0 -189.5 -67t-112.5 -173.5t-36 -220.5q0 -128 41 -219zM834 754l-515 -574q92 -139 250 -139q83 0 148.5 50t106.5 131t53 167q8 49 8 107q0 80 -14.5 145.5t-36.5 112.5z" unicode="ø" glyph-name="oslash"/>
<glyph d="M969 973v-979q-20 2 -33.5 3t-22.5 2t-26 1q-19 0 -24.5 -0.5t-22.5 -2t-35 -3.5v176q-33 -63 -81.5 -106t-109.5 -65t-135 -22q-172 0 -255 94t-83 300v602q26 -2 46.5 -4t35.5 -2q13 0 33.5 2t48.5 4v-553q0 -111 24.5 -186.5t79 -115.5t144.5 -40q97 0 153 49 t77.5 123t21.5 158v565q26 -2 47 -4t35 -2q13 0 33.5 2t48.5 4zM748 1102h-66l-279 174q-12 9 -24.5 17.5t-20.5 21.5q-2 16 -2 49q14 39 74 39q16 -4 21 -8q16 -13 65 -64z" unicode="ù" glyph-name="ugrave"/>
<glyph d="M969 973v-979q-20 2 -33.5 3t-22.5 2t-26 1q-19 0 -24.5 -0.5t-22.5 -2t-35 -3.5v176q-33 -63 -81.5 -106t-109.5 -65t-135 -22q-172 0 -255 94t-83 300v602q26 -2 46.5 -4t35.5 -2q13 0 33.5 2t48.5 4v-553q0 -111 24.5 -186.5t79 -115.5t144.5 -40q97 0 153 49 t77.5 123t21.5 158v565q26 -2 47 -4t35 -2q13 0 33.5 2t48.5 4zM838 1268l-285 -183h-61l229 230q12 11 21.5 20t23.5 25q10 8 16.5 13.5t14 11t16.5 6.5q62 0 72 -39q0 -10 -1 -27t-3 -20q-4 -8 -10 -14t-12.5 -10t-20.5 -13z" unicode="ú" glyph-name="uacute"/>
<glyph d="M969 973v-979q-20 2 -33.5 3t-22.5 2t-26 1q-19 0 -24.5 -0.5t-22.5 -2t-35 -3.5v176q-33 -63 -81.5 -106t-109.5 -65t-135 -22q-172 0 -255 94t-83 300v602q26 -2 46.5 -4t35.5 -2q13 0 33.5 2t48.5 4v-553q0 -111 24.5 -186.5t79 -115.5t144.5 -40q97 0 153 49 t77.5 123t21.5 158v565q26 -2 47 -4t35 -2q13 0 33.5 2t48.5 4zM362 1114h-61l225 293h101l225 -293h-59l-215 186z" unicode="û" glyph-name="ucircumflex"/>
<glyph d="M969 973v-979q-20 2 -33.5 3t-22.5 2t-26 1q-19 0 -24.5 -0.5t-22.5 -2t-35 -3.5v176q-33 -63 -81.5 -106t-109.5 -65t-135 -22q-172 0 -255 94t-83 300v602q26 -2 46.5 -4t35.5 -2q13 0 33.5 2t48.5 4v-553q0 -111 24.5 -186.5t79 -115.5t144.5 -40q97 0 153 49 t77.5 123t21.5 158v565q26 -2 47 -4t35 -2q13 0 33.5 2t48.5 4zM754 1079q-23 0 -45.5 13t-36 35t-13.5 47q0 37 27.5 65.5t67.5 28.5q39 0 66.5 -28.5t27.5 -65.5q0 -24 -13 -46.5t-35.5 -35.5t-45.5 -13zM385 1079q-23 0 -45.5 13t-35.5 35.5t-13 46.5q0 37 27.5 65.5 t66.5 28.5q38 0 66 -28t28 -66q0 -40 -28.5 -67.5t-65.5 -27.5z" unicode="ü" glyph-name="udieresis"/>
<glyph d="M467 2l-414 971q32 -2 57 -4t42 -2q15 0 38.5 2t57.5 4q52 -161 129.5 -355.5t175.5 -404.5q66 135 150 346.5t157 413.5q20 -2 37.5 -4t30.5 -2q9 0 26 2t39 4q-79 -175 -175 -386.5t-183.5 -406.5t-162.5 -371t-140 -339q-18 2 -29 3t-18.5 2t-22.5 1q-16 0 -24 -1 t-19.5 -2t-25.5 -3q204 400 274 532zM836 1268l-285 -183h-62l230 230q12 11 21.5 20t23.5 25q10 8 16.5 13.5t14 11t16.5 6.5q62 0 72 -39q0 -10 -1 -27t-3 -20q-4 -8 -10 -14t-12.5 -10t-20.5 -13z" horiz-adv-x="1024" unicode="ý" glyph-name="yacute"/>
<glyph d="M135 -418v1813q26 -2 47 -4t35 -2q13 0 33.5 2t48.5 4v-629h4q50 97 117.5 158t228.5 61q96 0 172.5 -36.5t131 -103.5t81.5 -150.5t27 -178.5q0 -249 -122 -394t-321 -145q-210 0 -315 197h-4v-592q-20 2 -33.5 3t-22 2t-26.5 1q-19 0 -28 -1t-22.5 -2t-31.5 -3z M299 457q0 -175 75.5 -284.5t225.5 -109.5q99 0 161.5 59.5t91 158.5t28.5 227q0 109 -26.5 201t-90 149t-166.5 57q-110 0 -177 -70t-94.5 -175.5t-27.5 -212.5z" unicode="þ" glyph-name="thorn"/>
</font>
</defs>
</svg>
