<?xml version="1.0" encoding="UTF-8"?>
<!DOCTYPE svg  PUBLIC '-//W3C//DTD SVG 1.1//EN'  'http://www.w3.org/Graphics/SVG/1.1/DTD/svg11.dtd'>
<svg version="1.1" xmlns="http://www.w3.org/2000/svg">
<defs>
<font id="Perpetua" horiz-adv-x="938">
<font-face font-family="Perpetua" font-weight="400" ascent="1638" bbox="-311 -621 1841 1651" cap-height="1173" descent="-410" panose-1="2 2 5 2 6 4 1 2 3 3" underline-position="-205" underline-thickness="102" unicode-range="U+0020-F003" units-per-em="2048" x-height="723"/>
<missing-glyph/>
<glyph glyph-name="space" horiz-adv-x="461" unicode=" "/>
<glyph d="M379 1016l-62 -733h-32l-54 733q-6 93 -6 119q0 46 22.5 75t57.5 29q37 0 60.5 -28.5t23.5 -75.5q0 -25 -7 -87zM299 170q40 0 68 -28t28 -68q0 -41 -28 -70t-68 -29t-69 29.5t-29 69.5q0 39 29 67.5t69 28.5z" glyph-name="exclam" horiz-adv-x="598" unicode="!"/>
<glyph d="M655 1059l-55 -324h-37l-55 324q-12 66 -12 112q0 42 23.5 68.5t62.5 26.5q38 0 62 -26.5t24 -68.5q0 -51 -13 -112zM326 1059l-56 -324h-37l-55 324q-12 66 -12 112q0 42 24 68.5t62 26.5t62 -26.5t24 -68.5q0 -46 -12 -112z" glyph-name="quotedbl" horiz-adv-x="836" unicode='"'/>
<glyph d="M96 862v88h334l88 416h88l-88 -416h457l88 416h88l-88 -416h209v-88h-228l-88 -405h316v-88h-334l-88 -416h-88l88 416h-457l-88 -416h-88l88 416h-209v88h228l88 405h-316zM956 862h-456l-88 -405h456z" glyph-name="numbersign" horiz-adv-x="1368" unicode="#"/>
<glyph d="M430 1102h35v-76q123 -3 227 -72l-30 -209h-35q1 17 1 33q0 89 -43 144.5t-120 66.5v-371q158 -107 219 -183t61 -167q0 -106 -76.5 -189.5t-203.5 -88.5v-211h-35v211q-142 3 -252 82l45 229h35q-2 -27 -2 -51q0 -194 174 -219v444q-122 79 -172.5 149t-50.5 160 q0 98 57.5 160.5t165.5 81.5v76zM430 643v346q-61 -9 -95 -49t-34 -102t29.5 -106.5t99.5 -88.5zM465 449v-418q75 2 121.5 60.5t46.5 131.5q0 127 -168 226z" glyph-name="dollar" unicode="$"/>
<glyph d="M455 872q0 129 -39 203t-105 74q-68 0 -105.5 -74t-37.5 -211q0 -124 38.5 -196t104.5 -72t105 73.5t39 202.5zM563 872q0 -142 -72 -235.5t-180 -93.5q-109 0 -180.5 93.5t-71.5 235.5q0 143 71.5 236.5t180.5 93.5t180.5 -93.5t71.5 -236.5zM1159 1202h70l-852 -1202 h-70zM1477 319q0 -141 -72 -235t-180 -94q-109 0 -180.5 93t-71.5 236t71.5 236.5t180.5 93.5q108 0 180 -94t72 -236zM1368 319q0 130 -38.5 203.5t-104.5 73.5q-69 0 -106.5 -74t-37.5 -211q0 -124 39 -196t105 -72t104.5 73.5t38.5 202.5z" glyph-name="percent" horiz-adv-x="1536" unicode="%"/>
<glyph d="M211 850q0 117 78.5 192.5t199.5 75.5q98 0 167 -62.5t69 -150.5q0 -149 -211 -260q123 -106 301 -323q86 147 86 245q0 55 -18.5 76.5t-67.5 24.5v34h334v-34q-78 0 -106 -22t-50 -56t-55 -118q-46 -121 -92 -191q114 -144 160.5 -185t78.5 -41q36 0 80 41l27 -22 q-70 -103 -186 -103q-50 0 -95.5 25.5t-114.5 104.5q-28 32 -42 46q-145 -176 -340 -176q-137 0 -232.5 84.5t-95.5 206.5q0 90 66.5 176t189.5 154q-131 122 -131 258zM311 915q0 -52 47 -118.5t125 -126.5q135 78 135 221q0 74 -43 121t-112 47q-66 0 -109 -40.5 t-43 -103.5zM227 334q0 -103 84 -188t187 -85q63 0 116 29t113 96q-192 237 -354 375q-65 -35 -105.5 -98t-40.5 -129z" glyph-name="ampersand" horiz-adv-x="1260" unicode="&amp;"/>
<glyph d="M258 1059l-55 -324h-37l-55 324q-13 61 -13 112q0 42 24 68.5t62 26.5q39 0 62.5 -26.5t23.5 -68.5q0 -46 -12 -112z" glyph-name="quotesingle" horiz-adv-x="369" unicode="'"/>
<glyph d="M578 -430l-21 -27q-208 184 -326 400t-118 413q0 199 127 429.5t317 387.5l21 -26q-167 -179 -240.5 -361.5t-73.5 -418.5q0 -250 71.5 -434t242.5 -363z" glyph-name="parenleft" horiz-adv-x="641" unicode="("/>
<glyph d="M63 1147l23 26q207 -182 324.5 -398t117.5 -415q0 -203 -131 -438t-311 -379l-23 27q167 178 240.5 361t73.5 419q0 259 -73.5 445t-240.5 352z" glyph-name="parenright" horiz-adv-x="641" unicode=")"/>
<glyph d="M106 592q0 43 34.5 70t145.5 53q108 26 142 51q-42 27 -148 55t-137.5 54t-31.5 67q0 62 59 62q34 0 69 -21t97 -88q74 -79 113 -90q0 67 -27 150q-23 69 -23 116q0 42 21 71t51 29q33 0 52.5 -27.5t19.5 -74.5q0 -40 -24 -112q-30 -90 -30 -152q51 16 126 99 q54 59 84.5 77t62.5 18q29 0 50.5 -17t21.5 -40q0 -42 -30 -67.5t-135 -52.5q-109 -28 -159 -56q80 -39 179 -61q77 -18 108.5 -50.5t31.5 -66.5q0 -25 -18 -42.5t-43 -17.5q-32 0 -68 20.5t-106 87.5q-69 65 -105 87q0 -59 29 -168q21 -75 21 -104q0 -38 -22 -66.5 t-52 -28.5q-29 0 -49.5 26.5t-20.5 63.5q0 42 24 118q30 94 30 159q-52 -27 -123 -102q-55 -56 -85 -72.5t-63 -16.5q-32 0 -52 16.5t-20 43.5z" glyph-name="asterisk" unicode="*"/>
<glyph d="M145 610v88h494v494h88v-494h494v-88h-494v-493h-88v493h-494z" glyph-name="plus" horiz-adv-x="1366" unicode="+"/>
<glyph d="M180 -352v35q80 41 112 92t32 137q0 23 -6.5 30t-30.5 7q-45 0 -76 28.5t-31 69.5q0 40 29 68t70 28q67 0 109 -55t42 -141q0 -107 -69.5 -190t-180.5 -109z" glyph-name="comma" horiz-adv-x="598" unicode=","/>
<glyph d="M119 399h401v-77h-401v77z" glyph-name="hyphen" horiz-adv-x="641" unicode="-"/>
<glyph d="M299 143q40 0 68 -28t28 -68t-28.5 -69t-67.5 -29q-40 0 -69 29t-29 69q0 39 29 67.5t69 28.5z" glyph-name="period" horiz-adv-x="598" unicode="."/>
<glyph d="M166 -25l598 1244h94l-598 -1244h-94z" glyph-name="slash" horiz-adv-x="1024" unicode="/"/>
<glyph d="M874 590q0 -180 -52 -317.5t-148 -216.5t-205 -79q-111 0 -207.5 79t-148.5 217.5t-52 320.5q0 177 52.5 314t148.5 215.5t207 78.5t206 -79t147 -216.5t52 -316.5zM719 590q0 265 -64.5 412t-185.5 147t-186.5 -148.5t-65.5 -410.5q0 -264 66 -411.5t186 -147.5t185 145 t65 414z" glyph-name="zero" unicode="0"/>
<glyph d="M412 160v805q0 41 -17 41q-4 0 -26 -8q-77 -30 -133 -33v34q224 118 276 199h35v-1038q0 -81 22.5 -105t98.5 -24v-31h-377v31q76 0 98.5 25t22.5 104z" glyph-name="one" unicode="1"/>
<glyph d="M213 84h578v-84h-672v41q274 283 388 457t114 321q0 126 -57.5 198.5t-157.5 72.5q-89 0 -147.5 -56.5t-68.5 -156.5h-34q1 72 45.5 153.5t113.5 126.5t152 45q124 0 210.5 -94t86.5 -234q0 -159 -125.5 -339.5t-425.5 -450.5z" glyph-name="two" unicode="2"/>
<glyph d="M246 596v35q360 63 360 297q0 86 -57.5 145.5t-142.5 59.5q-60 0 -110.5 -33t-78.5 -90l-33 14q29 82 103.5 130t171.5 48q122 0 203 -75t81 -187q0 -87 -53.5 -158.5t-154.5 -113.5v-4q122 -32 191 -118t69 -206q0 -161 -103 -262t-266 -101q-90 0 -156 29t-137 100 l25 25q118 -96 231 -96q112 0 186 69t74 181q0 122 -79 219.5t-205 97.5z" glyph-name="three" unicode="3"/>
<glyph d="M907 387h-289v-403h-122v403h-484v35l572 780h34v-721h289v-94zM127 483h369v501z" glyph-name="four" unicode="4"/>
<glyph d="M760 1063h-441l-12 -416q49 7 93 7q169 0 269.5 -94t100.5 -234q0 -150 -102 -249.5t-256 -99.5q-194 0 -318 168l31 19q95 -117 227 -117q113 0 189.5 75t76.5 185t-79.5 179.5t-216.5 69.5q-37 0 -78 -5l18 622h498v-110z" glyph-name="five" unicode="5"/>
<glyph d="M842 1204v-35q-262 -47 -418.5 -214.5t-179.5 -424.5q138 129 288 129q140 0 230 -93.5t90 -239.5q0 -148 -105.5 -248.5t-261.5 -100.5q-172 0 -284.5 130.5t-112.5 330.5q0 306 212 520.5t542 245.5zM711 289q0 127 -65.5 203.5t-174.5 76.5q-119 0 -227 -100v-14 q0 -196 72 -310t190 -114q90 0 147.5 72.5t57.5 185.5z" glyph-name="six" unicode="6"/>
<glyph d="M102 911h-34l63 301h35q11 -27 26 -33t39 -6h648v-40l-404 -1149h-147l454 1075h-514q-53 0 -83 -26.5t-83 -121.5z" glyph-name="seven" unicode="7"/>
<glyph d="M801 293q0 -133 -100 -224.5t-246 -91.5q-148 0 -242 80.5t-94 206.5q0 96 60 172t196 152q-108 56 -165.5 139.5t-57.5 183.5q0 129 87.5 210t227.5 81q131 0 218 -76.5t87 -191.5q0 -169 -203 -281q232 -160 232 -360zM262 977q0 -77 62 -145.5t208 -153.5 q134 69 134 231q0 111 -59 179.5t-154 68.5q-82 0 -136.5 -51.5t-54.5 -128.5zM233 289q0 -108 67.5 -181t168.5 -73q91 0 151 57.5t60 145.5q0 173 -268 315q-179 -84 -179 -264z" glyph-name="eight" unicode="8"/>
<glyph d="M98 -20v34q253 34 417.5 209.5t182.5 429.5q-138 -129 -290 -129q-139 0 -229.5 94t-90.5 238q0 147 106 246.5t263 99.5q172 0 283.5 -129.5t111.5 -329.5q0 -306 -214.5 -520.5t-539.5 -242.5zM229 893q0 -127 66.5 -204t175.5 -77q119 0 227 110q0 200 -71.5 313.5 t-190.5 113.5q-91 0 -149 -72t-58 -184z" glyph-name="nine" unicode="9"/>
<glyph d="M299 672q40 0 68 -28.5t28 -68.5t-28.5 -69t-67.5 -29q-40 0 -69 29t-29 69t29 68.5t69 28.5zM299 143q40 0 68 -28t28 -68t-28.5 -69t-67.5 -29q-40 0 -69 29t-29 69q0 39 29 67.5t69 28.5z" glyph-name="colon" horiz-adv-x="598" unicode=":"/>
<glyph d="M180 -352v35q79 39 111.5 90.5t32.5 138.5q0 23 -6.5 30t-30.5 7q-45 0 -76 28.5t-31 69.5q0 40 29 68t70 28q67 0 109 -55t42 -141q0 -107 -69.5 -190t-180.5 -109zM299 672q40 0 68 -28.5t28 -68.5t-28.5 -69t-67.5 -29q-40 0 -69 29t-29 69t29 68.5t69 28.5z" glyph-name="semicolon" horiz-adv-x="598" unicode=";"/>
<glyph d="M1221 166l-1076 452v78l1076 453v-96l-959 -396l959 -395v-96z" glyph-name="less" horiz-adv-x="1366" unicode="&lt;"/>
<glyph d="M145 848v88h1076v-88h-1076zM145 385v88h1076v-88h-1076z" glyph-name="equal" horiz-adv-x="1366" unicode="="/>
<glyph d="M1221 696v-78l-1076 -452v96l959 395l-959 396v96z" glyph-name="greater" horiz-adv-x="1366" unicode="&gt;"/>
<glyph d="M287 307v-63h-39v227q0 59 28.5 108.5t118.5 121.5q80 65 104.5 105.5t24.5 86.5q0 72 -59 116t-156 44q-60 0 -100.5 -16t-95.5 -62v47q82 121 209 121q109 0 183.5 -93.5t74.5 -228.5q0 -86 -30 -147t-125 -133q-86 -66 -112 -116t-26 -118zM285 170q40 0 68 -28 t28 -68q0 -41 -28 -70t-68 -29t-69.5 29t-29.5 70q0 40 29 68t70 28z" glyph-name="question" horiz-adv-x="641" unicode="?"/>
<glyph d="M1087 307l-4 4q-115 -150 -204 -217t-172 -67q-88 0 -141.5 62.5t-53.5 166.5q0 150 86.5 310.5t224 275t240.5 114.5q75 0 114.5 -31.5t59.5 -107.5h4l23 115l135 18l-203 -704q-11 -38 -11 -68q0 -94 93 -94q95 0 201 95.5t167.5 242t61.5 309.5q0 286 -181 461.5 t-474 175.5q-247 0 -443 -126.5t-310 -356t-114 -488.5q0 -217 102.5 -402t281.5 -286.5t409 -101.5q271 0 493 153t314 404h55q-98 -277 -334 -443.5t-530 -166.5q-382 0 -626.5 251.5t-244.5 645.5q0 267 124.5 490t343 350.5t479.5 127.5q321 0 512.5 -188.5 t191.5 -505.5q0 -185 -73.5 -347.5t-199 -262t-255.5 -99.5q-166 0 -166 142q0 20 24 149zM778 135q86 0 187 99.5t169 248t68 273.5q0 74 -37.5 114.5t-105.5 40.5q-81 0 -177 -103t-162.5 -256.5t-66.5 -275.5q0 -64 34 -102.5t91 -38.5z" glyph-name="at" horiz-adv-x="1886" unicode="@"/>
<glyph d="M758 0v35q101 0 101 70q0 20 -9 45l-107 325h-378l-80 -235q-30 -89 -30 -129q0 -74 93 -76v-35h-303v35q65 9 101 43t73 141l324 967h121l340 -1010q30 -89 62.5 -115t104.5 -26v-35h-413zM387 547h330l-166 497z" glyph-name="A" horiz-adv-x="1217" unicode="A"/>
<glyph d="M612 0h-540v35q75 0 104 40.5t29 145.5v731q0 107 -27.5 147t-105.5 40v34h442q190 0 299 -78.5t109 -207.5q0 -189 -236 -266v-5q134 -27 218.5 -118.5t84.5 -210.5q0 -130 -103.5 -208.5t-273.5 -78.5zM360 1128v-497h121q127 0 202 66.5t75 179.5q0 119 -73.5 185 t-207.5 66h-117zM471 586h-111v-344q0 -114 25 -155.5t96 -41.5h97q102 0 166.5 68.5t64.5 183.5q0 131 -92.5 210t-245.5 79z" glyph-name="B" horiz-adv-x="1044" unicode="B"/>
<glyph d="M1155 1190v-350h-35q-42 163 -134.5 240t-246.5 77q-200 0 -317 -144t-117 -384q0 -263 123.5 -423.5t323.5 -160.5q277 0 409 258l31 -29q-59 -140 -190.5 -221.5t-299.5 -81.5q-159 0 -294.5 75t-209 206.5t-73.5 302.5q0 280 172 463.5t434 183.5q88 0 223 -31 q76 -18 105 -18q45 0 63 37h33z" glyph-name="C" horiz-adv-x="1260" unicode="C"/>
<glyph d="M63 0v35q76 0 105 41.5t29 144.5v731q0 105 -29 146t-105 41v34h543q301 0 481.5 -171t180.5 -435q0 -259 -171 -413t-476 -154h-558zM575 1128h-223v-866q0 -125 30 -171t120 -46h121q216 0 340 139.5t124 380.5q0 256 -135.5 409.5t-376.5 153.5z" glyph-name="D" horiz-adv-x="1366" unicode="D"/>
<glyph d="M813 729h35v-285h-35q-19 75 -46 94t-118 19h-291v-420q0 -44 19.5 -62t66.5 -18h205q110 0 152 12t71 44.5t62 105.5h35l-54 -219h-845v35q79 0 106 40.5t27 143.5v733q0 107 -28 147t-105 40v34h845v-196h-22q-18 84 -51.5 111.5t-145.5 27.5h-338v-502h328 q67 0 91.5 24t35.5 91z" glyph-name="E" horiz-adv-x="1044" unicode="E"/>
<glyph d="M670 567h-310v-346q0 -105 29 -145.5t105 -40.5v-35h-422v35q76 0 104.5 40.5t28.5 145.5v731q0 106 -28 146.5t-105 40.5v34h805v-208h-27q-19 93 -50 122t-141 29h-299v-491h306q62 0 92 31.5t39 107.5h32v-330h-32q-6 133 -127 133z" glyph-name="F" unicode="F"/>
<glyph d="M1282 508v-35q-78 0 -111.5 -35.5t-33.5 -122.5v-315q-41 -11 -153.5 -20t-174.5 -9q-325 0 -506.5 160t-181.5 422q0 183 79.5 330t222 233t302.5 86q96 0 209 -34q72 -21 110 -21q50 0 66 39h37v-346h-33q-20 144 -130.5 230.5t-258.5 86.5q-186 0 -305 -148.5 t-119 -383.5q0 -258 137.5 -428t345.5 -170q197 0 197 125v127q0 108 -28.5 151t-100.5 43h-45v35h475z" glyph-name="G" horiz-adv-x="1343" unicode="G"/>
<glyph d="M1001 221v340h-639v-340q0 -104 29.5 -145t106.5 -41v-35h-424v35q77 0 105 41.5t28 144.5v731q0 108 -28.5 147.5t-104.5 39.5v34h424v-34q-77 0 -106.5 -42.5t-29.5 -144.5v-334h639v334q0 108 -27.5 147.5t-103.5 39.5v34h420v-34q-75 0 -104 -41t-29 -146v-731 q0 -105 29 -145.5t104 -40.5v-35h-420v35q78 0 104.5 40.5t26.5 145.5z" glyph-name="H" horiz-adv-x="1366" unicode="H"/>
<glyph d="M477 1173v-34q-75 0 -104 -41t-29 -146v-731q0 -105 29 -145.5t104 -40.5v-35h-422v35q77 0 105 40t28 146v731q0 108 -27.5 147.5t-105.5 39.5v34h422z" glyph-name="I" horiz-adv-x="532" unicode="I"/>
<glyph d="M578 1173v-34q-75 0 -104.5 -41t-29.5 -146v-1083q0 -152 -80.5 -238t-211.5 -86q-127 0 -193 105l29 20q40 -53 106 -53q86 0 140.5 76t54.5 213v1046q0 106 -29 146.5t-106 40.5v34h424z" glyph-name="J" horiz-adv-x="662" unicode="J"/>
<glyph d="M80 0v35q77 0 105 41.5t28 144.5v731q0 106 -27.5 146.5t-105.5 40.5v34h420v-34q-74 0 -102.5 -42t-28.5 -145v-354l383 377q61 61 61 98q0 51 -74 66v34h443v-34h-58q-53 0 -121.5 -35.5t-125.5 -93.5l-365 -361l485 -491q72 -74 111 -96t109 -27v-35h-279l-569 575 v-354q0 -103 27.5 -144.5t103.5 -41.5v-35h-420z" glyph-name="K" horiz-adv-x="1260" unicode="K"/>
<glyph d="M975 256h35l-72 -256h-850v35q72 0 102.5 45t30.5 151v738q0 95 -28.5 132.5t-104.5 37.5v34h420v-34q-70 0 -100.5 -43t-30.5 -142v-784q0 -65 27.5 -89t105.5 -24h233q108 0 151 37.5t81 161.5z" glyph-name="L" horiz-adv-x="1024" unicode="L"/>
<glyph d="M1171 1173h277v-34q-132 -3 -132 -156q0 -13 1 -27l59 -723q10 -115 39.5 -153t106.5 -45v-35h-422v35q67 11 94.5 44t27.5 101q0 14 -1 31l-62 758l-401 -969h-31l-397 969l-66 -723q-1 -17 -1 -32q0 -151 153 -179v-35h-365v35q73 10 105.5 51t44.5 164l71 807 q-62 67 -153 82v34h297l375 -923z" glyph-name="M" horiz-adv-x="1579" unicode="M"/>
<glyph d="M934 1139v34h354v-34q-85 0 -118 -40t-33 -145v-954h-35l-832 1020v-823q0 -87 35.5 -124.5t118.5 -37.5v-35h-356v35q85 0 115 44.5t30 156.5v686q0 111 -40.5 159.5t-133.5 57.5v34h301l737 -913v686q0 108 -30.5 150.5t-112.5 42.5z" glyph-name="N" horiz-adv-x="1366" unicode="N"/>
<glyph d="M121 592q0 261 180 435.5t449 174.5q261 0 441.5 -177t180.5 -433q0 -261 -182 -441t-445 -180q-262 0 -443 180t-181 441zM301 590q0 -257 122 -415.5t320 -158.5q200 0 324.5 162t124.5 404q0 260 -122 417.5t-316 157.5q-206 0 -329.5 -155t-123.5 -412z" glyph-name="O" horiz-adv-x="1493" unicode="O"/>
<glyph d="M78 1173h428q210 0 332.5 -93t122.5 -240q0 -146 -107 -224.5t-307 -78.5q-77 0 -180 12v-328q0 -106 28.5 -146t104.5 -40v-35h-422v35q76 0 104.5 42t28.5 140v735q0 105 -28.5 146t-104.5 41v34zM512 1128h-145v-526q59 -20 145 -20q132 0 208.5 68t76.5 186 q0 127 -76 209.5t-209 82.5z" glyph-name="P" horiz-adv-x="1024" unicode="P"/>
<glyph d="M1382 -324l13 -32q-86 -39 -195 -39q-90 0 -167 23.5t-144.5 72t-164.5 161.5q-86 100 -132 124q-201 41 -345.5 212t-144.5 390q0 163 83 307t225 225.5t315 81.5q267 0 450 -177.5t183 -436.5q0 -218 -141 -388.5t-361 -213.5q21 -17 75 -85q115 -142 192 -192.5 t153 -50.5q56 0 106 18zM1178 578q0 269 -123 424t-318 155q-207 0 -330.5 -155.5t-123.5 -415.5q0 -253 122.5 -411.5t319.5 -158.5q205 0 329 153.5t124 408.5z" glyph-name="Q" horiz-adv-x="1473" unicode="Q"/>
<glyph d="M453 543h-95v-322q0 -104 29.5 -145t104.5 -41v-35h-422v35q78 0 105.5 41t27.5 145v735q0 104 -27 143.5t-106 39.5v34h481q178 0 284.5 -86.5t106.5 -220.5q0 -216 -242 -288q53 -34 103.5 -93.5t132.5 -197.5q92 -153 144 -200.5t108 -51.5v-35h-240q-74 90 -179 262 q-112 181 -175.5 231t-140.5 50zM481 1128h-123v-536h144q129 0 202.5 74t73.5 196q0 119 -81.5 192.5t-215.5 73.5z" glyph-name="R" horiz-adv-x="1217" unicode="R"/>
<glyph d="M696 1190h33v-275h-35q-12 114 -82.5 178t-177.5 64q-95 0 -153 -48t-58 -128q0 -74 48 -135t208 -157q186 -111 250 -194t64 -190q0 -138 -98 -236t-236 -98q-80 0 -204 44q-51 18 -65 18q-29 0 -45 -45h-34v317h34q1 -131 85.5 -210t197.5 -79q107 0 171.5 57t64.5 152 q0 71 -53 136t-221 168q-137 85 -183 134t-68 107.5t-22 128.5q0 135 88.5 219t230.5 84q78 0 170 -31q43 -14 60 -14q14 0 19 6t11 27z" glyph-name="S" horiz-adv-x="854" unicode="S"/>
<glyph d="M829 1116h-178v-901q0 -106 26 -143t101 -37v-35h-416v35q78 0 106 42.5t28 143.5v895h-170q-122 0 -177.5 -39t-62.5 -129h-35v269h35q47 -44 176 -44h615q133 0 186 44h37v-269h-23q-22 97 -78.5 132.5t-169.5 35.5z" glyph-name="T" horiz-adv-x="1153" unicode="T"/>
<glyph d="M999 246v706q0 103 -27.5 143.5t-97.5 43.5v34h414v-34q-75 0 -104 -41t-29 -146v-731q0 -103 28.5 -144.5t104.5 -41.5v-35h-289v164q-165 -193 -391 -193q-186 0 -292.5 111t-106.5 293v577q0 105 -27.5 146t-105.5 41v34h424v-34q-79 0 -107 -40t-28 -145v-594 q0 -144 79 -226.5t220 -82.5q209 0 335 195z" glyph-name="U" horiz-adv-x="1366" unicode="U"/>
<glyph d="M1188 1173v-36q-129 0 -213 -228l-346 -925h-33l-363 952q-51 132 -88 166.5t-106 36.5v34h426v-34q-103 0 -103 -79q0 -26 13 -59l287 -757l272 731q17 47 17 81q0 83 -105 83v34h342z" glyph-name="V" horiz-adv-x="1217" unicode="V"/>
<glyph d="M1835 1173v-34q-69 -5 -115 -57.5t-92 -180.5l-330 -917h-36l-320 866l-311 -866h-33l-358 968q-30 80 -53.5 118.5t-50.5 53.5t-95 15v34h434v-34q-103 -12 -103 -76q0 -26 15 -66l275 -745l249 682l-26 76q-25 71 -61 100t-103 29v34h430v-34q-114 0 -114 -70 q0 -29 16 -74l274 -743l240 657q29 79 29 130q0 102 -117 102v32h356z" glyph-name="W" horiz-adv-x="1878" unicode="W"/>
<glyph d="M987 1012l-291 -375l299 -408q81 -110 125.5 -147t108.5 -47v-35h-471v35q90 2 90 82q0 52 -43 110l-207 285l-225 -293q-53 -68 -53 -115q0 -61 92 -69v-35h-375v35q64 0 109 29.5t104 105.5l309 395l-283 391q-73 101 -123.5 142t-115.5 41v34h450v-34q-85 0 -85 -61 q0 -33 30 -74l223 -310l219 277q51 65 51 109q0 59 -94 59v34h375v-34q-72 0 -114 -23t-105 -104z" glyph-name="X" horiz-adv-x="1260" unicode="X"/>
<glyph d="M915 1006l-264 -416v-369q0 -107 27.5 -146.5t101.5 -39.5v-35h-428v35q87 0 115.5 42t28.5 144v369l-250 389q-62 97 -101 127t-108 33v34h459v-34q-121 0 -121 -55q0 -25 24 -62l232 -356l186 295q41 66 41 113q0 65 -78 65v34h322v-34q-65 -4 -100.5 -28.5 t-86.5 -104.5z" glyph-name="Y" horiz-adv-x="1153" unicode="Y"/>
<glyph d="M1055 283h35l-43 -283h-984v31l773 1085h-506q-111 0 -160 -29.5t-74 -113.5h-33l19 200h954v-36l-768 -1080h443q146 0 225.5 52.5t118.5 173.5z" glyph-name="Z" horiz-adv-x="1153" unicode="Z"/>
<glyph d="M139 -410v1583h326v-36h-62q-39 0 -73 -25t-41.5 -63t-7.5 -93v-1149q0 -86 15 -115.5t43.5 -47t63.5 -17.5h62v-37h-326z" glyph-name="bracketleft" horiz-adv-x="532" unicode="["/>
<glyph d="M166 1219h94l598 -1244h-94z" glyph-name="backslash" horiz-adv-x="1024" unicode="\"/>
<glyph d="M393 1173v-1583h-325v37h61q36 0 69.5 24t43.5 58t10 98v1149q0 181 -123 181h-61v36h325z" glyph-name="bracketright" horiz-adv-x="532" unicode="]"/>
<glyph d="M467 1386h31l426 -716h-93l-350 585l-350 -585h-94z" glyph-name="asciicircum" horiz-adv-x="961" unicode="^"/>
<glyph d="M-18 -256v102h1060v-102h-1060z" glyph-name="underscore" horiz-adv-x="1024" unicode="_"/>
<glyph d="M182 1286h113l133 -409h-39z" glyph-name="grave" horiz-adv-x="682" unicode="`"/>
<glyph d="M268 -23q-85 0 -146 56.5t-61 136.5q0 76 52.5 125.5t213.5 94.5q101 28 136 48v54q0 79 -44 127.5t-118 48.5q-67 0 -119 -42t-73 -114l-37 10q22 101 95.5 162t172.5 61q117 0 189.5 -70.5t72.5 -195.5v-311q0 -66 8.5 -89.5t32.5 -23.5q16 0 26 13.5t23 56.5h35 q-5 -68 -42.5 -108t-98.5 -40q-89 0 -123 103q-54 -59 -96 -81t-99 -22zM463 147v246q-31 -13 -90 -33q-109 -37 -139.5 -73.5t-30.5 -98.5q0 -54 32.5 -93.5t77.5 -39.5q41 0 86 26.5t64 65.5z" glyph-name="a" horiz-adv-x="748" unicode="a"/>
<glyph d="M231 1286h35v-649q46 50 111.5 79t132.5 29q141 0 238.5 -102.5t97.5 -251.5q0 -175 -131.5 -287t-362.5 -112q-90 0 -225 22v1088q0 85 -21.5 105t-107.5 20v35zM266 584v-414q0 -81 27.5 -111t95.5 -30q141 0 223 91t82 255q0 137 -71 224t-170 87q-104 0 -187 -102z " glyph-name="b" horiz-adv-x="917" unicode="b"/>
<glyph d="M735 745v-256h-35q-23 100 -88 158t-155 58q-108 0 -176 -84t-68 -218q0 -148 80.5 -256t191.5 -108q74 0 146.5 40t124.5 111v-53q-118 -160 -320 -160q-161 0 -262.5 102t-101.5 265q0 167 109.5 284t264.5 117q69 0 154 -28q37 -12 51 -12q31 0 49 40h35z" glyph-name="c" horiz-adv-x="788" unicode="c"/>
<glyph d="M750 1286h34v-1145q0 -60 26 -83t95 -23v-35h-422q-195 0 -308.5 107t-113.5 270q0 153 99.5 260.5t240.5 107.5q113 0 244 -88v445q0 73 -19 99t-77 26h-41v35zM645 143v437q-42 57 -98.5 89.5t-112.5 32.5q-99 0 -160 -81.5t-61 -212.5q0 -169 83.5 -272t233.5 -103 q61 0 88 26t27 84z" glyph-name="d" unicode="d"/>
<glyph d="M764 186v-53q-66 -84 -134.5 -120t-164.5 -36q-170 0 -280.5 106.5t-110.5 270.5q0 165 105.5 278t258.5 113q126 0 220 -85t94 -203v-15h-533v-10q0 -120 36.5 -208.5t106.5 -138.5t146 -50q71 0 121.5 29.5t134.5 121.5zM219 477h395v14q0 97 -55.5 154t-138.5 57 q-88 0 -141.5 -60t-59.5 -165z" glyph-name="e" horiz-adv-x="831" unicode="e"/>
<glyph d="M481 670h-180v-527q0 -57 24.5 -82.5t80.5 -25.5h34v-35h-411v35h32q55 0 78 21.5t23 74.5v539h-101v35q70 28 101 49v143q0 169 83.5 279t227.5 110q127 0 205 -59l-70 -183h-35q1 16 1 31q0 80 -36.5 124t-101.5 44q-63 0 -99 -45t-36 -125v-350h180v-53z" glyph-name="f" horiz-adv-x="532" unicode="f"/>
<glyph d="M596 737h233v-82h-192q82 -99 82 -211q0 -110 -79.5 -195t-190.5 -91q-79 -4 -157.5 -51t-78.5 -84q0 -40 41.5 -60t194.5 -47q170 -31 236.5 -56t104 -71.5t37.5 -105.5q0 -128 -129.5 -216t-316.5 -88q-159 0 -257.5 61.5t-98.5 160.5q0 69 56.5 122.5t178.5 104.5v4 q-74 17 -116 52.5t-42 80.5q0 120 224 199v4q-109 29 -168.5 100.5t-59.5 173.5q0 131 87.5 217t220.5 86q26 0 96 -4t94 -4zM229 457q0 -118 49 -190t130 -72q83 0 131.5 70.5t48.5 191.5q0 110 -49.5 179t-128.5 69q-81 0 -131 -68.5t-50 -179.5zM752 -381q0 71 -89 110.5 t-337 82.5q-211 -57 -211 -172q0 -78 104 -130.5t260 -52.5q121 0 197 45t76 117z" glyph-name="g" horiz-adv-x="854" unicode="g"/>
<glyph d="M629 152v358q0 72 -40 115t-106 43q-61 0 -109.5 -31.5t-101.5 -106.5v-397q0 -56 26 -77t95 -21v-35h-389v35q83 2 106 27t23 112v944q0 66 -23.5 87.5t-105.5 21.5v35l234 24h34v-686q70 80 126.5 112.5t127.5 32.5q106 0 174 -68t68 -183v-320q0 -85 23 -112t94 -27 v-35h-377v35q74 0 97.5 23t23.5 94z" glyph-name="h" horiz-adv-x="897" unicode="h"/>
<glyph d="M270 745h35v-610q0 -60 26 -80t95 -20v-35h-397v35q87 0 112 19.5t25 80.5v445q0 66 -23 87t-114 21v35zM238 1120q37 0 62.5 -25.5t25.5 -62.5t-26 -63.5t-62 -26.5q-37 0 -64 26.5t-27 63.5t26.5 62.5t64.5 25.5z" glyph-name="i" horiz-adv-x="469" unicode="i"/>
<glyph d="M283 745h34v-860q0 -374 -378 -374h-21v34h6q136 0 195 75t59 245v731q0 57 -27.5 74.5t-109.5 17.5v35zM238 1120q37 0 62.5 -25.5t25.5 -62.5t-26 -63.5t-62 -26.5q-37 0 -64 26.5t-27 63.5t26.5 62.5t64.5 25.5z" glyph-name="j" horiz-adv-x="469" unicode="j"/>
<glyph d="M610 600l-188 -172l301 -301q51 -51 87.5 -70t90.5 -22v-35h-237l-377 362q0 -285 24 -306t97 -21v-35h-390v35q84 2 106.5 26.5t22.5 112.5v954q0 63 -23.5 81t-105.5 18v35l234 24h35v-917l194 178q56 51 56 91q0 48 -88 50v35h395v-35h-35q-105 0 -199 -88z" glyph-name="k" horiz-adv-x="897" unicode="k"/>
<glyph d="M432 35h19v-35h-404v35h37q56 0 76 29t20 108v956q0 56 -22 77.5t-76 21.5h-47v35l250 24h34v-1149q0 -59 24 -80.5t89 -21.5z" glyph-name="l" horiz-adv-x="492" unicode="l"/>
<glyph d="M301 745v-151h4q45 69 115.5 110t142.5 41q79 0 140.5 -43.5t87.5 -119.5q116 163 268 163q106 0 176 -65.5t70 -179.5v-365q0 -59 26 -79.5t96 -20.5v-35h-385v35q79 0 101 25.5t22 113.5v344q0 70 -42 110t-115 40q-114 0 -205 -140v-389q0 -61 26 -82.5t95 -21.5v-35 h-381v35q82 0 101.5 26t19.5 113v336q0 72 -43 115t-111 43q-59 0 -115.5 -38t-93.5 -102v-395q0 -56 27 -78t96 -22v-33h-385v35q80 0 101.5 25t21.5 92v430q0 56 -23.5 81t-77.5 25h-45v35l250 22h35z" glyph-name="m" horiz-adv-x="1473" unicode="m"/>
<glyph d="M281 745v-145q127 145 262 145q105 0 175 -71.5t70 -188.5v-327q0 -75 25 -99t98 -24v-35h-387v35q72 0 98.5 18.5t26.5 71.5v379q0 76 -45.5 121t-116.5 45q-102 0 -206 -142v-354q0 -90 23.5 -114.5t98.5 -24.5v-35h-383v35q83 0 102 26.5t19 112.5v408q0 65 -23 85.5 t-98 20.5v35l226 22h35z" glyph-name="n" unicode="n"/>
<glyph d="M866 360q0 -164 -113.5 -273.5t-283.5 -109.5t-283.5 109.5t-113.5 273.5q0 166 113 275.5t284 109.5t284 -109.5t113 -275.5zM715 360q0 155 -66 250t-180 95t-180 -93t-66 -252q0 -156 65.5 -249t180.5 -93t180.5 94t65.5 248z" glyph-name="o" unicode="o"/>
<glyph d="M285 745v-122q69 67 125.5 94.5t126.5 27.5q141 0 234 -107.5t93 -270.5q0 -168 -102.5 -279t-257.5 -111q-107 0 -219 86v-477q0 -74 25.5 -97.5t95.5 -23.5v-34h-388v34q75 0 101 21t26 80v1009q0 73 -22 93t-105 20v35l232 22h35zM285 569v-454q85 -90 200 -90 q97 0 162.5 91t65.5 226q0 146 -65.5 241t-166.5 95q-102 0 -196 -109z" glyph-name="p" unicode="p"/>
<glyph d="M635 -432v467q-102 -58 -215 -58q-160 0 -260.5 100t-100.5 261q0 184 126.5 284.5t365.5 100.5q58 0 223 -10v-1143q0 -62 26 -83.5t99 -21.5v-34h-383v34q69 0 94 22t25 81zM635 80v582q-49 10 -96 10q-152 0 -240 -86t-88 -234q0 -135 72 -227t192 -92q75 0 160 47z " glyph-name="q" horiz-adv-x="917" unicode="q"/>
<glyph d="M303 745v-157q100 87 155.5 122t92.5 35q69 0 133 -57l-55 -129q-116 64 -172 64q-62 0 -154 -88v-398q0 -60 25 -81t96 -21v-35h-383v35q76 0 99.5 24t23.5 115v395q0 75 -25.5 97t-124.5 22v35l254 22h35z" glyph-name="r" horiz-adv-x="705" unicode="r"/>
<glyph d="M537 745v-223h-41q-10 84 -60 133.5t-121 49.5q-54 0 -87 -27t-33 -72q0 -44 30.5 -77.5t132.5 -80.5q132 -60 174.5 -115t42.5 -132q0 -91 -68 -157.5t-161 -66.5q-48 0 -127 35q-43 19 -57 19q-19 0 -32 -14t-15 -35h-35v247h35q19 -97 84 -154t149 -57q54 0 90.5 36 t36.5 89q0 51 -33.5 88.5t-145.5 86.5q-126 55 -166 103t-40 116q0 85 65.5 146.5t155.5 61.5q42 0 91 -20q35 -14 57 -14q29 0 43 34h35z" glyph-name="s" horiz-adv-x="641" unicode="s"/>
<glyph d="M274 971h35v-244h252v-53h-252v-467q0 -73 34 -112.5t97 -39.5q74 0 135 70l23 -27q-95 -121 -219 -121q-93 0 -151 59t-58 152v486h-137v35q150 75 241 262z" glyph-name="t" horiz-adv-x="598" unicode="t"/>
<glyph d="M754 745h34v-608q0 -60 25.5 -81t99.5 -21v-35l-264 -14v133h-4q-109 -142 -254 -142q-104 0 -170.5 69.5t-66.5 174.5v371q0 56 -28 76t-101 20v35l233 22h35v-518q0 -76 44.5 -120t119.5 -44q104 0 192 119v391q0 75 -23 94t-118 21v35z" glyph-name="u" unicode="u"/>
<glyph d="M383 723v-35q-71 -6 -71 -60q0 -26 16 -65l161 -387l142 367q22 55 22 83q0 55 -94 62v35h266v-35q-65 -6 -90.5 -26t-48.5 -78l-233 -600h-35l-232 569q-35 85 -60.5 108.5t-92.5 26.5v35h350z" glyph-name="v" horiz-adv-x="854" unicode="v"/>
<glyph d="M381 723v-35q-76 -2 -76 -43q0 -21 17 -63l163 -406l170 436q-23 45 -43.5 60t-62.5 16v35h350v-35q-93 -2 -93 -57q0 -19 11 -47l162 -408l149 379q18 46 18 73q0 58 -91 60v35h282v-35q-76 0 -104.5 -23.5t-63.5 -109.5l-225 -571h-35l-231 571l-227 -571h-35l-254 624 q-32 80 -133 80v35h352z" glyph-name="w" horiz-adv-x="1366" unicode="w"/>
<glyph d="M326 0h-295v35q79 0 116 22.5t99 96.5l157 186l-172 225q-54 71 -91.5 94.5t-108.5 28.5v35h399v-35q-64 -5 -64 -42q0 -25 29 -66l97 -136l98 121q38 46 38 80q0 43 -57 43v35h287v-35q-67 -7 -106.5 -32.5t-106.5 -104.5l-121 -143l219 -287q67 -86 162 -86v-35h-381 v35q55 8 55 40q0 20 -22 50l-127 174l-129 -162q-27 -33 -27 -60q0 -39 52 -42v-35z" glyph-name="x" unicode="x"/>
<glyph d="M381 723v-35q-62 -9 -62 -63q0 -21 11 -47l174 -410l127 383q15 47 15 75q0 58 -73 62v35h256v-35q-58 0 -96 -39.5t-69 -130.5l-289 -854q-42 -122 -107 -193t-133 -71q-40 0 -90 31l47 125q38 -17 70 -17q65 0 107.5 41t76.5 137l94 263l-260 600q-29 65 -57.5 86 t-89.5 22v35h348z" glyph-name="y" horiz-adv-x="854" unicode="y"/>
<glyph d="M80 723h608v-35l-461 -653h226q114 0 165 44t54 142h35l-19 -221h-627v35l461 653h-203q-93 0 -153 -47.5t-70 -128.5h-35z" glyph-name="z" horiz-adv-x="748" unicode="z"/>
<glyph d="M524 127q0 89 -65.5 153.5t-171.5 79.5v46q106 15 171.5 79.5t65.5 153.5q0 46 -21 133q-22 93 -22 164q0 139 97 245.5t251 135.5l9 -37q-108 -25 -168 -85t-60 -144q0 -47 22 -166q21 -114 21 -154q0 -111 -74 -201.5t-210 -146.5q136 -56 210 -146.5t74 -201.5 q0 -40 -21 -154q-22 -119 -22 -166q0 -84 60 -144t168 -85l-9 -37q-154 29 -251 135.5t-97 245.5q0 70 22 164q21 90 21 133z" glyph-name="braceleft" horiz-adv-x="983" unicode="{"/>
<glyph d="M463 -483v1702h90v-1702h-90z" glyph-name="bar" horiz-adv-x="1016" unicode="|"/>
<glyph d="M459 639q0 -89 65.5 -153.5t171.5 -79.5v-46q-106 -15 -171.5 -79.5t-65.5 -153.5q0 -45 22 -133q21 -88 21 -164q0 -139 -97 -245.5t-251 -135.5l-9 37q108 25 168 85t60 144q0 47 -22 166q-21 114 -21 154q0 111 74 201.5t210 146.5q-136 56 -210 146.5t-74 201.5 q0 40 21 154q22 119 22 166q0 84 -60 144t-168 85l9 37q154 -29 251 -135.5t97 -245.5q0 -85 -20 -164q-23 -93 -23 -133z" glyph-name="braceright" horiz-adv-x="983" unicode="}"/>
<glyph d="M195 518h-48v9q0 121 69.5 199.5t178.5 78.5q78 0 313 -98q216 -89 281 -89q77 0 125 48.5t57 136.5h48q-4 -128 -73 -207.5t-177 -79.5q-77 0 -318 97q-212 85 -272 85q-154 0 -184 -180z" glyph-name="asciitilde" horiz-adv-x="1366" unicode="~"/>
<glyph glyph-name="nbspace" horiz-adv-x="461" unicode=" "/>
<glyph d="M219 -360l62 733h32l54 -733q6 -93 6 -119q0 -46 -22.5 -75.5t-57.5 -29.5q-37 0 -60.5 29t-23.5 76q0 25 7 85zM299 485q-40 0 -68 28.5t-28 68.5t28.5 69t67.5 29q40 0 69 -29t29 -69t-29 -68.5t-69 -28.5z" glyph-name="exclamdown" horiz-adv-x="598" unicode="¡"/>
<glyph d="M643 1059h35l-105 -326q29 -4 67 -18q28 -10 42 -10q29 0 51 40h35v-256h-35q-37 161 -172 203l-190 -592q67 -61 149 -61q154 0 268 151v-53q-119 -160 -319 -160q-73 0 -131 21l-88 -272h-35l92 284q-203 93 -203 334q0 166 109.5 283t264.5 117q31 0 63 -5zM344 125 l184 575q-23 4 -44 4q-107 0 -172.5 -85t-65.5 -220q0 -165 98 -274z" glyph-name="cent" horiz-adv-x="854" unicode="¢"/>
<glyph d="M145 -23q-45 0 -71.5 19t-26.5 51q0 58 70.5 105.5t166.5 47.5q11 0 23 -1q14 48 14 98t-14 106h-217v46h217q-35 120 -35 268q0 135 76 220t197 85q162 0 250 -160l-33 -16q-78 127 -172 127q-76 0 -119 -59.5t-43 -163.5q0 -68 5 -161q5 -84 5 -140h221v-46h-221 q-10 -128 -49 -204q78 -19 192 -64q113 -45 164 -45q50 0 80.5 42.5t34.5 119.5h33q4 -20 4 -39q0 -94 -71.5 -165t-163.5 -71q-72 0 -162.5 38.5t-153.5 95.5q-36 -59 -92 -96.5t-109 -37.5zM285 137q-31 10 -58 10q-50 0 -95.5 -27.5t-45.5 -58.5q0 -18 13.5 -30.5 t33.5 -12.5q43 0 85 33t67 86z" glyph-name="sterling" unicode="£"/>
<glyph d="M289 1122l123 -123q131 101 282 101q156 0 283 -101l123 123l61 -61l-123 -123q101 -116 101 -283q0 -79 -27 -154.5t-74 -127.5l123 -123l-61 -62l-125 125q-110 -102 -281 -102q-155 0 -282 100l-123 -123l-62 62l123 123q-100 121 -100 282q0 157 100 283l-123 123z M694 1010q-147 0 -250.5 -103.5t-103.5 -251.5q0 -147 103.5 -250.5t250.5 -103.5q148 0 251.5 103.5t103.5 250.5q0 148 -103.5 251.5t-251.5 103.5z" glyph-name="currency" horiz-adv-x="1389" unicode="¤"/>
<glyph d="M1104 590h-453v-209h453v-57h-453v-103q0 -107 27.5 -146.5t101.5 -39.5v-35h-428v35q86 0 115 42t29 144v103h-453v57h453v209h-453v57h449l-213 332q-63 98 -101.5 127.5t-107.5 32.5v34h458v-34q-121 0 -121 -53q0 -25 25 -64l195 -305l157 246q39 64 39 111 q0 65 -75 65v34h321v-34q-65 -4 -101 -29.5t-85 -103.5l-228 -359h449v-57z" glyph-name="yen" horiz-adv-x="1153" unicode="¥"/>
<glyph d="M463 -483v719h90v-719h-90zM463 498v721h90v-721h-90z" glyph-name="brokenbar" horiz-adv-x="1016" unicode="¦"/>
<glyph d="M154 922q0 111 78 181t202 70q108 0 183 -56t75 -136q0 -36 -20.5 -60t-50.5 -24q-29 0 -48.5 20t-19.5 50q0 15 10 45q10 31 10 47q0 32 -41 53t-104 21q-83 0 -136.5 -41t-53.5 -105q0 -57 43.5 -116.5t189.5 -174.5q182 -144 225 -213t43 -157q0 -79 -35 -145.5 t-118 -145.5q65 -72 90.5 -123t25.5 -109q0 -115 -80.5 -187.5t-209.5 -72.5q-100 0 -175 57.5t-75 133.5q0 38 20.5 62t53.5 24q27 0 45 -20t18 -50q0 -20 -14 -55q-9 -24 -9 -33q0 -34 39.5 -56t100.5 -22q90 0 144 41.5t54 110.5q0 54 -44 113.5t-187 172.5 q-146 116 -208 195.5t-62 177.5q0 83 37 151.5t120 141.5q-116 108 -116 234zM299 655q-106 -85 -106 -188q0 -57 39.5 -112.5t187.5 -177.5q90 -72 139 -116q59 59 82 100.5t23 86.5q0 67 -59.5 135t-305.5 272z" glyph-name="section" horiz-adv-x="854" unicode="§"/>
<glyph d="M500 1163q35 0 60.5 -25.5t25.5 -60.5t-25.5 -60.5t-60.5 -25.5t-60.5 25.5t-25.5 60.5t25.5 60.5t60.5 25.5zM184 1163q35 0 60.5 -25.5t25.5 -60.5t-25.5 -60.5t-60.5 -25.5t-60.5 25.5t-25.5 60.5t25.5 60.5t60.5 25.5z" glyph-name="dieresis" horiz-adv-x="682" unicode="¨"/>
<glyph d="M1063 1137h31l18 -297h-31q-29 119 -102.5 182t-181.5 63q-135 0 -219 -112t-84 -293q0 -182 86 -286.5t235 -104.5q89 0 158.5 40.5t138.5 133.5l21 -14q-127 -220 -349 -220q-184 0 -305 126t-121 317q0 192 124.5 324t305.5 132q76 0 163 -33q48 -18 71 -18 q35 0 41 60zM776 1319q-270 0 -461.5 -191.5t-191.5 -461.5q0 -271 191.5 -463.5t461.5 -192.5q271 0 463.5 192.5t192.5 463.5q0 270 -192.5 461.5t-463.5 191.5zM776 1372q191 0 355 -94.5t259 -258t95 -353.5q0 -191 -95 -355t-259 -259t-355 -95q-190 0 -353.5 95 t-258 259t-94.5 355t94.5 354t257.5 257.5t354 94.5z" glyph-name="copyright" horiz-adv-x="1556" unicode="©"/>
<glyph d="M297 1016v43q0 40 -27.5 65t-70.5 25q-80 0 -121 -90h-35q17 66 66 104.5t116 38.5q75 0 124.5 -42.5t49.5 -115.5v-190q0 -59 19 -59q18 0 26 41h35q0 -40 -28 -65.5t-72 -25.5q-61 0 -82 50q-56 -50 -121 -50q-58 0 -98.5 33.5t-40.5 81.5q0 44 33 73t144 58 q56 15 83 25zM297 836v147q-98 -27 -127 -51t-29 -66q0 -33 19.5 -55.5t48.5 -22.5q50 0 88 48z" glyph-name="ordfeminine" horiz-adv-x="492" unicode="ª"/>
<glyph d="M811 707l-264 -375l264 -375h-41l-387 375l387 375h41zM481 707l-264 -375l264 -375h-41l-387 375l387 375h41z" glyph-name="guillemotleft" horiz-adv-x="854" unicode="«"/>
<glyph d="M145 848v88h1076v-551h-88v463h-988z" glyph-name="logicalnot" horiz-adv-x="1366" unicode="¬"/>
<glyph d="M119 399h401v-77h-401v77z" glyph-name="sfthyphen" horiz-adv-x="641" unicode="­"/>
<glyph d="M653 649l-37 -10v-219q0 -91 25 -116t107 -25l-7 -35h-368l8 35q80 0 99.5 23.5t19.5 117.5v526q0 77 -22.5 104t-86.5 27h-16l6 31h336q144 0 223.5 -59.5t79.5 -161.5q0 -89 -59.5 -145.5t-163.5 -67.5l192 -264q60 -81 96.5 -104t100.5 -27l-6 -35h-197l-295 395z M616 1049v-359h43q110 0 171 54.5t61 152.5q0 79 -50 123.5t-139 44.5q-42 0 -86 -16zM776 1319q-270 0 -461.5 -191.5t-191.5 -461.5q0 -271 191.5 -463.5t461.5 -192.5q271 0 463.5 192.5t192.5 463.5q0 270 -192.5 461.5t-463.5 191.5zM776 1372q191 0 355 -94.5 t259 -258t95 -353.5q0 -191 -95 -355t-259 -259t-355 -95q-190 0 -353.5 95t-258 259t-94.5 355t94.5 354t257.5 257.5t354 94.5z" glyph-name="registered" horiz-adv-x="1556" unicode="®"/>
<glyph d="M-15 1275v102h1060v-102h-1060z" glyph-name="overscore" horiz-adv-x="1024" unicode="¯"/>
<glyph d="M408 1386q128 0 217.5 -89.5t89.5 -217.5t-90 -217.5t-217 -89.5q-128 0 -218 90t-90 217t90 217t218 90zM408 1305q-94 0 -160 -66t-66 -160t66 -159.5t160 -65.5q93 0 159 66t66 159q0 94 -66 160t-159 66z" glyph-name="degree" horiz-adv-x="817" unicode="°"/>
<glyph d="M145 770v88h494v494h88v-494h494v-88h-494v-494h-88v494h-494zM145 -37v88h1076v-88h-1076z" glyph-name="plusminus" horiz-adv-x="1366" unicode="±"/>
<glyph d="M90 553v53q297 248 297 383q0 56 -31 88.5t-86 32.5q-104 0 -116 -111h-43q3 86 59.5 144.5t136.5 58.5q79 0 133 -54t54 -132q0 -85 -65.5 -168.5t-235.5 -218.5v-4h317v-72h-420z" glyph-name="twosuperior" horiz-adv-x="618" unicode="²"/>
<glyph d="M240 862h-76v45q215 19 215 140q0 37 -30.5 64.5t-74.5 27.5q-36 0 -60.5 -15t-55.5 -57l-35 14q44 121 180 121q77 0 128.5 -43.5t51.5 -109.5q0 -89 -96 -138v-4q127 -51 127 -164q0 -88 -64 -144t-165 -56q-61 0 -102 17t-97 65l31 26q77 -51 143 -51q61 0 102 33.5 t41 81.5q0 67 -42.5 107t-120.5 40z" glyph-name="threesuperior" horiz-adv-x="618" unicode="³"/>
<glyph d="M254 877l133 409h113l-207 -409h-39z" glyph-name="acute" horiz-adv-x="682" unicode="´"/>
<glyph d="M207 170v575h139v-518q0 -75 44.5 -119.5t119.5 -44.5q104 0 192 119v563h140v-608q0 -60 25.5 -81t99.5 -21v-35l-265 -14v133h-4q-107 -142 -256 -142q-115 0 -184 84l-1 -55q0 -119 32 -204q18 -46 18 -81q0 -34 -23 -56.5t-57 -22.5t-59 22.5t-25 54.5q0 31 17 78 q47 130 47 373z" glyph-name="mu" horiz-adv-x="1044" unicode="µ"/>
<glyph d="M719 -444v1742h-182v-1742h-60v1071h-19q-219 0 -333.5 89.5t-114.5 258.5t115 274t315 105h480l-9 -35q-85 -8 -109 -36t-24 -118v-1609h-59z" glyph-name="paragraph" horiz-adv-x="928" unicode="¶"/>
<glyph d="M369 16h34l-34 -127q63 -12 101 -52.5t38 -96.5q0 -79 -70 -125t-193 -46q-14 0 -28 1v39q186 3 186 115q0 62 -98 86z" glyph-name="cedilla" horiz-adv-x="682" unicode="¸"/>
<glyph d="M430 598v-45h-237v45q48 0 58.5 6.5t10.5 40.5v397q0 31 -12 31q-4 0 -19 -5q-38 -12 -71 -15v39q136 58 172 108h26v-551q0 -34 10.5 -42.5t61.5 -8.5z" glyph-name="onesuperior" horiz-adv-x="618" unicode="¹"/>
<glyph d="M37 973q0 103 72.5 166t189.5 63q118 0 191 -63.5t73 -165.5q0 -101 -73.5 -164.5t-190.5 -63.5t-189.5 63.5t-72.5 164.5zM147 973q0 -94 40 -146.5t112 -52.5t113 53t41 146q0 94 -40.5 147t-113.5 53q-72 0 -112 -52.5t-40 -147.5z" glyph-name="ordmasculine" horiz-adv-x="598" unicode="º"/>
<glyph d="M375 -43l262 375l-262 375h41l385 -375l-385 -375h-41zM43 -43l262 375l-262 375h41l385 -375l-385 -375h-41z" glyph-name="guillemotright" horiz-adv-x="854" unicode="»"/>
<glyph d="M409 598v-45h-237v45q48 0 58.5 6.5t10.5 40.5v397q0 31 -12 31q-4 0 -19 -5q-38 -12 -71 -15v39q136 58 172 108h26v-551q0 -34 10.5 -42.5t61.5 -8.5zM1134 1202h69l-860 -1202h-61zM1212 651h35v-391h170v-63h-170v-197h-98v197h-285v45zM952 260h197v232z" glyph-name="onequarter" horiz-adv-x="1536" unicode="¼"/>
<glyph d="M409 606v-45h-237v45q48 0 58.5 6.5t10.5 40.5v397q0 31 -12 31q-4 0 -19 -5q-38 -12 -71 -15v39q136 58 172 108h26v-551q0 -34 10.5 -42.5t61.5 -8.5zM1140 1202h69l-860 -1202h-61zM985 -1v53q297 248 297 383q0 56 -31 88.5t-86 32.5q-104 0 -116 -111h-43 q3 86 59.5 144.5t136.5 58.5q79 0 133 -54t54 -132q0 -85 -65.5 -168.5t-235.5 -218.5v-4h317v-72h-420z" glyph-name="onehalf" horiz-adv-x="1536" unicode="½"/>
<glyph d="M293 862h-76v45q215 19 215 140q0 37 -30.5 64.5t-74.5 27.5q-36 0 -60.5 -15t-55.5 -57l-35 14q44 121 180 121q77 0 128.5 -43.5t51.5 -109.5q0 -89 -96 -138v-4q127 -51 127 -164q0 -88 -64 -144t-165 -56q-61 0 -102 17t-97 65l31 26q77 -51 143 -51q61 0 102 33.5 t41 81.5q0 67 -42.5 107t-120.5 40zM1212 1202h69l-860 -1202h-61zM1290 651h35v-391h170v-63h-170v-197h-98v197h-285v45zM1030 260h197v232z" glyph-name="threequarters" horiz-adv-x="1536" unicode="¾"/>
<glyph d="M354 354v64h39v-228q0 -59 -28.5 -108t-118.5 -122q-80 -64 -104.5 -104.5t-24.5 -86.5q0 -72 59 -116t156 -44q61 0 101.5 16.5t94.5 61.5v-47q-82 -121 -209 -121q-109 0 -183.5 93t-74.5 228q0 86 30 147.5t125 133.5q86 65 112 115t26 118zM356 492q-40 0 -68 28 t-28 68t28.5 69t67.5 29q40 0 69.5 -29t29.5 -69t-29 -68t-70 -28z" glyph-name="questiondown" horiz-adv-x="641" unicode="¿"/>
<glyph d="M758 0v35q101 0 101 70q0 20 -9 45l-107 325h-378l-80 -235q-30 -89 -30 -129q0 -74 93 -76v-35h-303v35q65 9 101 43t73 141l324 967h121l340 -1010q30 -89 62.5 -115t104.5 -26v-35h-413zM387 547h330l-166 497zM450 1651h113l133 -409h-39z" glyph-name="Agrave" horiz-adv-x="1217" unicode="À"/>
<glyph d="M758 0v35q101 0 101 70q0 20 -9 45l-107 325h-378l-80 -235q-30 -89 -30 -129q0 -74 93 -76v-35h-303v35q65 9 101 43t73 141l324 967h121l340 -1010q30 -89 62.5 -115t104.5 -26v-35h-413zM387 547h330l-166 497zM522 1242l133 409h113l-207 -409h-39z" glyph-name="Aacute" horiz-adv-x="1217" unicode="Á"/>
<glyph d="M758 0v35q101 0 101 70q0 20 -9 45l-107 325h-378l-80 -235q-30 -89 -30 -129q0 -74 93 -76v-35h-303v35q65 9 101 43t73 141l324 967h121l340 -1010q30 -89 62.5 -115t104.5 -26v-35h-413zM387 547h330l-166 497zM585 1651h52l209 -401h-46l-196 266l-189 -266h-41z" glyph-name="Acircumflex" horiz-adv-x="1217" unicode="Â"/>
<glyph d="M758 0v35q101 0 101 70q0 20 -9 45l-107 325h-378l-80 -235q-30 -89 -30 -129q0 -74 93 -76v-35h-303v35q65 9 101 43t73 141l324 967h121l340 -1010q30 -89 62.5 -115t104.5 -26v-35h-413zM387 547h330l-166 497zM348 1323h-39q1 69 52 122t116 53q54 0 163 -49 q103 -46 154 -46q31 0 52 24t26 64h37q-1 -72 -48 -123t-112 -51q-73 0 -179 51q-104 50 -138 50q-64 0 -84 -95z" glyph-name="Atilde" horiz-adv-x="1217" unicode="Ã"/>
<glyph d="M758 0v35q101 0 101 70q0 20 -9 45l-107 325h-378l-80 -235q-30 -89 -30 -129q0 -74 93 -76v-35h-303v35q65 9 101 43t73 141l324 967h121l340 -1010q30 -89 62.5 -115t104.5 -26v-35h-413zM387 547h330l-166 497zM768 1528q35 0 60.5 -25.5t25.5 -60.5t-25.5 -60.5 t-60.5 -25.5t-60.5 25.5t-25.5 60.5t25.5 60.5t60.5 25.5zM452 1528q35 0 60.5 -25.5t25.5 -60.5t-25.5 -60.5t-60.5 -25.5t-60.5 25.5t-25.5 60.5t25.5 60.5t60.5 25.5z" glyph-name="Adieresis" horiz-adv-x="1217" unicode="Ä"/>
<glyph d="M758 0v35q101 0 101 70q0 20 -9 45l-107 325h-378l-80 -235q-30 -89 -30 -129q0 -74 93 -76v-35h-303v35q65 9 101 43t73 141l324 967h121l340 -1010q30 -89 62.5 -115t104.5 -26v-35h-413zM387 547h330l-166 497zM610 1551q-54 0 -92.5 -38.5t-38.5 -92.5t38.5 -92.5 t92.5 -38.5t92.5 38.5t38.5 92.5t-38.5 92.5t-92.5 38.5zM610 1600q75 0 127.5 -52.5t52.5 -127.5q0 -76 -52.5 -128.5t-127.5 -52.5t-127.5 52.5t-52.5 128.5q0 75 52.5 127.5t127.5 52.5z" glyph-name="Aring" horiz-adv-x="1217" unicode="Å"/>
<glyph d="M1372 725h35v-287h-35q-12 66 -41 92.5t-90 26.5h-287v-387q0 -64 25 -88.5t90 -24.5h113q165 0 213.5 27t85.5 131h35l-52 -215h-796v35q78 0 104.5 41t26.5 147v334h-283l-162 -297q-47 -86 -47 -135q0 -71 99 -90v-35h-377v35q89 4 134.5 45t129.5 196l489 897h682 v-200h-24q-18 75 -57.5 109t-110.5 34h-318v-502h265q81 0 110.5 21t42.5 90zM547 614h252v467h-4z" glyph-name="AE" horiz-adv-x="1579" unicode="Æ"/>
<glyph d="M1155 1190v-350h-35q-42 163 -134.5 240t-246.5 77q-200 0 -317 -144t-117 -384q0 -263 123.5 -423.5t323.5 -160.5q277 0 409 258l31 -29q-59 -140 -190.5 -221.5t-299.5 -81.5q-159 0 -294.5 75t-209 206.5t-73.5 302.5q0 280 172 463.5t434 183.5q88 0 223 -31 q76 -18 105 -18q45 0 63 37h33zM645 16h34l-34 -127q63 -12 101 -52.5t38 -96.5q0 -79 -70 -125t-193 -46q-14 0 -28 1v39q186 3 186 115q0 62 -98 86z" glyph-name="Ccedilla" horiz-adv-x="1260" unicode="Ç"/>
<glyph d="M813 729h35v-285h-35q-19 75 -46 94t-118 19h-291v-420q0 -44 19.5 -62t66.5 -18h205q110 0 152 12t71 44.5t62 105.5h35l-54 -219h-845v35q79 0 106 40.5t27 143.5v733q0 107 -28 147t-105 40v34h845v-196h-22q-18 84 -51.5 111.5t-145.5 27.5h-338v-502h328 q67 0 91.5 24t35.5 91zM364 1651h113l133 -409h-39z" glyph-name="Egrave" horiz-adv-x="1044" unicode="È"/>
<glyph d="M813 729h35v-285h-35q-19 75 -46 94t-118 19h-291v-420q0 -44 19.5 -62t66.5 -18h205q110 0 152 12t71 44.5t62 105.5h35l-54 -219h-845v35q79 0 106 40.5t27 143.5v733q0 107 -28 147t-105 40v34h845v-196h-22q-18 84 -51.5 111.5t-145.5 27.5h-338v-502h328 q67 0 91.5 24t35.5 91zM436 1242l133 409h113l-207 -409h-39z" glyph-name="Eacute" horiz-adv-x="1044" unicode="É"/>
<glyph d="M813 729h35v-285h-35q-19 75 -46 94t-118 19h-291v-420q0 -44 19.5 -62t66.5 -18h205q110 0 152 12t71 44.5t62 105.5h35l-54 -219h-845v35q79 0 106 40.5t27 143.5v733q0 107 -28 147t-105 40v34h845v-196h-22q-18 84 -51.5 111.5t-145.5 27.5h-338v-502h328 q67 0 91.5 24t35.5 91zM499 1651h52l209 -401h-46l-196 266l-189 -266h-41z" glyph-name="Ecircumflex" horiz-adv-x="1044" unicode="Ê"/>
<glyph d="M813 729h35v-285h-35q-19 75 -46 94t-118 19h-291v-420q0 -44 19.5 -62t66.5 -18h205q110 0 152 12t71 44.5t62 105.5h35l-54 -219h-845v35q79 0 106 40.5t27 143.5v733q0 107 -28 147t-105 40v34h845v-196h-22q-18 84 -51.5 111.5t-145.5 27.5h-338v-502h328 q67 0 91.5 24t35.5 91zM682 1528q35 0 60.5 -25.5t25.5 -60.5t-25.5 -60.5t-60.5 -25.5t-60.5 25.5t-25.5 60.5t25.5 60.5t60.5 25.5zM366 1528q35 0 60.5 -25.5t25.5 -60.5t-25.5 -60.5t-60.5 -25.5t-60.5 25.5t-25.5 60.5t25.5 60.5t60.5 25.5z" glyph-name="Edieresis" horiz-adv-x="1044" unicode="Ë"/>
<glyph d="M477 1173v-34q-75 0 -104 -41t-29 -146v-731q0 -105 29 -145.5t104 -40.5v-35h-422v35q77 0 105 40t28 146v731q0 108 -27.5 147.5t-105.5 39.5v34h422zM109 1651h113l133 -409h-39z" glyph-name="Igrave" horiz-adv-x="532" unicode="Ì"/>
<glyph d="M477 1173v-34q-75 0 -104 -41t-29 -146v-731q0 -105 29 -145.5t104 -40.5v-35h-422v35q77 0 105 40t28 146v731q0 108 -27.5 147.5t-105.5 39.5v34h422zM180 1242l133 409h113l-207 -409h-39z" glyph-name="Iacute" horiz-adv-x="532" unicode="Í"/>
<glyph d="M477 1173v-34q-75 0 -104 -41t-29 -146v-731q0 -105 29 -145.5t104 -40.5v-35h-422v35q77 0 105 40t28 146v731q0 108 -27.5 147.5t-105.5 39.5v34h422zM266 1651h52l209 -401h-46l-196 266l-189 -266h-41z" glyph-name="Icircumflex" horiz-adv-x="532" unicode="Î"/>
<glyph d="M477 1173v-34q-75 0 -104 -41t-29 -146v-731q0 -105 29 -145.5t104 -40.5v-35h-422v35q77 0 105 40t28 146v731q0 108 -27.5 147.5t-105.5 39.5v34h422zM457 1528q35 0 60.5 -25.5t25.5 -60.5t-25.5 -60.5t-60.5 -25.5t-60.5 25.5t-25.5 60.5t25.5 60.5t60.5 25.5z M141 1528q35 0 60.5 -25.5t25.5 -60.5t-25.5 -60.5t-60.5 -25.5t-60.5 25.5t-25.5 60.5t25.5 60.5t60.5 25.5z" glyph-name="Idieresis" horiz-adv-x="532" unicode="Ï"/>
<glyph d="M197 221v326h-134v57h134v348q0 105 -29 146t-105 41v34h555q187 0 334.5 -78t231.5 -219.5t84 -308.5q0 -258 -173 -412.5t-479 -154.5h-553v35q76 0 105 41.5t29 144.5zM713 551h-361v-289q0 -133 31 -180t119 -47h121q216 0 340 141.5t124 388.5q0 258 -136 416 t-376 158h-223v-531h361v-57z" glyph-name="Eth" horiz-adv-x="1366" unicode="Ð"/>
<glyph d="M934 1139v34h354v-34q-85 0 -118 -40t-33 -145v-954h-35l-832 1020v-823q0 -87 35.5 -124.5t118.5 -37.5v-35h-356v35q85 0 115 44.5t30 156.5v686q0 111 -40.5 159.5t-133.5 57.5v34h301l737 -913v686q0 108 -30.5 150.5t-112.5 42.5zM422 1323h-39q1 69 52 122t116 53 q54 0 163 -49q103 -46 154 -46q31 0 52 24t26 64h37q-1 -72 -48 -123t-112 -51q-73 0 -179 51q-104 50 -138 50q-64 0 -84 -95z" glyph-name="Ntilde" horiz-adv-x="1366" unicode="Ñ"/>
<glyph d="M121 592q0 261 180 435.5t449 174.5q261 0 441.5 -177t180.5 -433q0 -261 -182 -441t-445 -180q-262 0 -443 180t-181 441zM301 590q0 -257 122 -415.5t320 -158.5q200 0 324.5 162t124.5 404q0 260 -122 417.5t-316 157.5q-206 0 -329.5 -155t-123.5 -412zM587 1651h113 l133 -409h-39z" glyph-name="Ograve" horiz-adv-x="1493" unicode="Ò"/>
<glyph d="M121 592q0 261 180 435.5t449 174.5q261 0 441.5 -177t180.5 -433q0 -261 -182 -441t-445 -180q-262 0 -443 180t-181 441zM301 590q0 -257 122 -415.5t320 -158.5q200 0 324.5 162t124.5 404q0 260 -122 417.5t-316 157.5q-206 0 -329.5 -155t-123.5 -412zM659 1242 l133 409h113l-207 -409h-39z" glyph-name="Oacute" horiz-adv-x="1493" unicode="Ó"/>
<glyph d="M121 592q0 261 180 435.5t449 174.5q261 0 441.5 -177t180.5 -433q0 -261 -182 -441t-445 -180q-262 0 -443 180t-181 441zM301 590q0 -257 122 -415.5t320 -158.5q200 0 324.5 162t124.5 404q0 260 -122 417.5t-316 157.5q-206 0 -329.5 -155t-123.5 -412zM722 1651h52 l209 -401h-46l-196 266l-189 -266h-41z" glyph-name="Ocircumflex" horiz-adv-x="1493" unicode="Ô"/>
<glyph d="M121 592q0 261 180 435.5t449 174.5q261 0 441.5 -177t180.5 -433q0 -261 -182 -441t-445 -180q-262 0 -443 180t-181 441zM301 590q0 -257 122 -415.5t320 -158.5q200 0 324.5 162t124.5 404q0 260 -122 417.5t-316 157.5q-206 0 -329.5 -155t-123.5 -412zM486 1323h-39 q1 69 52 122t116 53q54 0 163 -49q103 -46 154 -46q31 0 52 24t26 64h37q-1 -72 -48 -123t-112 -51q-73 0 -179 51q-104 50 -138 50q-64 0 -84 -95z" glyph-name="Otilde" horiz-adv-x="1493" unicode="Õ"/>
<glyph d="M121 592q0 261 180 435.5t449 174.5q261 0 441.5 -177t180.5 -433q0 -261 -182 -441t-445 -180q-262 0 -443 180t-181 441zM301 590q0 -257 122 -415.5t320 -158.5q200 0 324.5 162t124.5 404q0 260 -122 417.5t-316 157.5q-206 0 -329.5 -155t-123.5 -412zM905 1528 q35 0 60.5 -25.5t25.5 -60.5t-25.5 -60.5t-60.5 -25.5t-60.5 25.5t-25.5 60.5t25.5 60.5t60.5 25.5zM589 1528q35 0 60.5 -25.5t25.5 -60.5t-25.5 -60.5t-60.5 -25.5t-60.5 25.5t-25.5 60.5t25.5 60.5t60.5 25.5z" glyph-name="Odieresis" horiz-adv-x="1493" unicode="Ö"/>
<glyph d="M201 1075l61 62l422 -422l422 422l61 -62l-422 -422l422 -422l-61 -61l-422 422l-422 -422l-61 61l422 422z" glyph-name="multiply" horiz-adv-x="1368" unicode="×"/>
<glyph d="M387 217l690 780q-52 76 -137.5 118t-185.5 42q-207 0 -330 -157t-123 -420q0 -207 86 -363zM1284 1173l-115 -129q97 -86 150 -203.5t53 -248.5q0 -261 -182 -441t-445 -180q-214 0 -403 142l-164 -185l-24 25l163 184q-92 84 -144 204.5t-52 250.5q0 261 180 435.5 t449 174.5q107 0 211 -36t180 -99l119 135zM1100 965l-692 -779q114 -170 335 -170q201 0 325 164t124 412q0 227 -92 373z" glyph-name="Oslash" horiz-adv-x="1493" unicode="Ø"/>
<glyph d="M999 246v706q0 103 -27.5 143.5t-97.5 43.5v34h414v-34q-75 0 -104 -41t-29 -146v-731q0 -103 28.5 -144.5t104.5 -41.5v-35h-289v164q-165 -193 -391 -193q-186 0 -292.5 111t-106.5 293v577q0 105 -27.5 146t-105.5 41v34h424v-34q-79 0 -107 -40t-28 -145v-594 q0 -144 79 -226.5t220 -82.5q209 0 335 195zM524 1651h113l133 -409h-39z" glyph-name="Ugrave" horiz-adv-x="1366" unicode="Ù"/>
<glyph d="M999 246v706q0 103 -27.5 143.5t-97.5 43.5v34h414v-34q-75 0 -104 -41t-29 -146v-731q0 -103 28.5 -144.5t104.5 -41.5v-35h-289v164q-165 -193 -391 -193q-186 0 -292.5 111t-106.5 293v577q0 105 -27.5 146t-105.5 41v34h424v-34q-79 0 -107 -40t-28 -145v-594 q0 -144 79 -226.5t220 -82.5q209 0 335 195zM596 1242l133 409h113l-207 -409h-39z" glyph-name="Uacute" horiz-adv-x="1366" unicode="Ú"/>
<glyph d="M999 246v706q0 103 -27.5 143.5t-97.5 43.5v34h414v-34q-75 0 -104 -41t-29 -146v-731q0 -103 28.5 -144.5t104.5 -41.5v-35h-289v164q-165 -193 -391 -193q-186 0 -292.5 111t-106.5 293v577q0 105 -27.5 146t-105.5 41v34h424v-34q-79 0 -107 -40t-28 -145v-594 q0 -144 79 -226.5t220 -82.5q209 0 335 195zM659 1651h52l209 -401h-46l-196 266l-189 -266h-41z" glyph-name="Ucircumflex" horiz-adv-x="1366" unicode="Û"/>
<glyph d="M999 246v706q0 103 -27.5 143.5t-97.5 43.5v34h414v-34q-75 0 -104 -41t-29 -146v-731q0 -103 28.5 -144.5t104.5 -41.5v-35h-289v164q-165 -193 -391 -193q-186 0 -292.5 111t-106.5 293v577q0 105 -27.5 146t-105.5 41v34h424v-34q-79 0 -107 -40t-28 -145v-594 q0 -144 79 -226.5t220 -82.5q209 0 335 195zM842 1528q35 0 60.5 -25.5t25.5 -60.5t-25.5 -60.5t-60.5 -25.5t-60.5 25.5t-25.5 60.5t25.5 60.5t60.5 25.5zM526 1528q35 0 60.5 -25.5t25.5 -60.5t-25.5 -60.5t-60.5 -25.5t-60.5 25.5t-25.5 60.5t25.5 60.5t60.5 25.5z" glyph-name="Udieresis" horiz-adv-x="1366" unicode="Ü"/>
<glyph d="M915 1006l-264 -416v-369q0 -107 27.5 -146.5t101.5 -39.5v-35h-428v35q87 0 115.5 42t28.5 144v369l-250 389q-62 97 -101 127t-108 33v34h459v-34q-121 0 -121 -55q0 -25 24 -62l232 -356l186 295q41 66 41 113q0 65 -78 65v34h322v-34q-65 -4 -100.5 -28.5 t-86.5 -104.5zM489 1242l133 409h113l-207 -409h-39z" glyph-name="Yacute" horiz-adv-x="1153" unicode="Ý"/>
<glyph d="M78 0v35q76 0 104.5 42t28.5 140v735q0 106 -28.5 146.5t-104.5 40.5v34h422v-34q-76 0 -104.5 -42.5t-28.5 -140.5v-51h139q210 0 332.5 -93.5t122.5 -240.5q0 -146 -107.5 -224.5t-306.5 -78.5q-78 0 -180 13v-60q0 -106 28.5 -146t104.5 -40v-35h-422zM512 860h-145 v-526q59 -21 145 -21q132 0 208.5 68t76.5 186q0 128 -76 210.5t-209 82.5z" glyph-name="Thorn" horiz-adv-x="1024" unicode="Þ"/>
<glyph d="M676 979q0 266 -205 266q-109 0 -153 -79t-44 -281v-768q0 -44 21 -60.5t86 -21.5v-35h-369v35q76 0 99.5 21.5t23.5 101.5v692q0 209 95 323.5t262 114.5q145 0 240 -95t95 -214q0 -210 -256 -289v-4q146 -23 223.5 -110t77.5 -226q0 -163 -90 -259.5t-243 -96.5 q-34 0 -74 6l-23 145h37q33 -112 99 -112q67 0 105 78.5t38 216.5q0 181 -65 261.5t-214 80.5v35q131 12 182.5 72t51.5 202z" glyph-name="germandbls" unicode="ß"/>
<glyph d="M268 -23q-85 0 -146 56.5t-61 136.5q0 76 52.5 125.5t213.5 94.5q101 28 136 48v54q0 79 -44 127.5t-118 48.5q-67 0 -119 -42t-73 -114l-37 10q22 101 95.5 162t172.5 61q117 0 189.5 -70.5t72.5 -195.5v-311q0 -66 8.5 -89.5t32.5 -23.5q16 0 26 13.5t23 56.5h35 q-5 -68 -42.5 -108t-98.5 -40q-89 0 -123 103q-54 -59 -96 -81t-99 -22zM463 147v246q-31 -13 -90 -33q-109 -37 -139.5 -73.5t-30.5 -98.5q0 -54 32.5 -93.5t77.5 -39.5q41 0 86 26.5t64 65.5zM198 1286h113l133 -409h-39z" glyph-name="agrave" horiz-adv-x="748" unicode="à"/>
<glyph d="M268 -23q-85 0 -146 56.5t-61 136.5q0 76 52.5 125.5t213.5 94.5q101 28 136 48v54q0 79 -44 127.5t-118 48.5q-67 0 -119 -42t-73 -114l-37 10q22 101 95.5 162t172.5 61q117 0 189.5 -70.5t72.5 -195.5v-311q0 -66 8.5 -89.5t32.5 -23.5q16 0 26 13.5t23 56.5h35 q-5 -68 -42.5 -108t-98.5 -40q-89 0 -123 103q-54 -59 -96 -81t-99 -22zM463 147v246q-31 -13 -90 -33q-109 -37 -139.5 -73.5t-30.5 -98.5q0 -54 32.5 -93.5t77.5 -39.5q41 0 86 26.5t64 65.5zM270 877l133 409h113l-207 -409h-39z" glyph-name="aacute" horiz-adv-x="748" unicode="á"/>
<glyph d="M268 -23q-85 0 -146 56.5t-61 136.5q0 76 52.5 125.5t213.5 94.5q101 28 136 48v54q0 79 -44 127.5t-118 48.5q-67 0 -119 -42t-73 -114l-37 10q22 101 95.5 162t172.5 61q117 0 189.5 -70.5t72.5 -195.5v-311q0 -66 8.5 -89.5t32.5 -23.5q16 0 26 13.5t23 56.5h35 q-5 -68 -42.5 -108t-98.5 -40q-89 0 -123 103q-54 -59 -96 -81t-99 -22zM463 147v246q-31 -13 -90 -33q-109 -37 -139.5 -73.5t-30.5 -98.5q0 -54 32.5 -93.5t77.5 -39.5q41 0 86 26.5t64 65.5zM357 1286h52l209 -401h-46l-196 266l-189 -266h-41z" glyph-name="acircumflex" horiz-adv-x="748" unicode="â"/>
<glyph d="M268 -23q-85 0 -146 56.5t-61 136.5q0 76 52.5 125.5t213.5 94.5q101 28 136 48v54q0 79 -44 127.5t-118 48.5q-67 0 -119 -42t-73 -114l-37 10q22 101 95.5 162t172.5 61q117 0 189.5 -70.5t72.5 -195.5v-311q0 -66 8.5 -89.5t32.5 -23.5q16 0 26 13.5t23 56.5h35 q-5 -68 -42.5 -108t-98.5 -40q-89 0 -123 103q-54 -59 -96 -81t-99 -22zM463 147v246q-31 -13 -90 -33q-109 -37 -139.5 -73.5t-30.5 -98.5q0 -54 32.5 -93.5t77.5 -39.5q41 0 86 26.5t64 65.5zM120 958h-39q1 69 52 122t116 53q54 0 163 -49q103 -46 154 -46q31 0 52 24 t26 64h37q-1 -72 -48 -123t-112 -51q-73 0 -179 51q-104 50 -138 50q-64 0 -84 -95z" glyph-name="atilde" horiz-adv-x="748" unicode="ã"/>
<glyph d="M268 -23q-85 0 -146 56.5t-61 136.5q0 76 52.5 125.5t213.5 94.5q101 28 136 48v54q0 79 -44 127.5t-118 48.5q-67 0 -119 -42t-73 -114l-37 10q22 101 95.5 162t172.5 61q117 0 189.5 -70.5t72.5 -195.5v-311q0 -66 8.5 -89.5t32.5 -23.5q16 0 26 13.5t23 56.5h35 q-5 -68 -42.5 -108t-98.5 -40q-89 0 -123 103q-54 -59 -96 -81t-99 -22zM463 147v246q-31 -13 -90 -33q-109 -37 -139.5 -73.5t-30.5 -98.5q0 -54 32.5 -93.5t77.5 -39.5q41 0 86 26.5t64 65.5zM540 1163q35 0 60.5 -25.5t25.5 -60.5t-25.5 -60.5t-60.5 -25.5t-60.5 25.5 t-25.5 60.5t25.5 60.5t60.5 25.5zM224 1163q35 0 60.5 -25.5t25.5 -60.5t-25.5 -60.5t-60.5 -25.5t-60.5 25.5t-25.5 60.5t25.5 60.5t60.5 25.5z" glyph-name="adieresis" horiz-adv-x="748" unicode="ä"/>
<glyph d="M268 -23q-85 0 -146 56.5t-61 136.5q0 76 52.5 125.5t213.5 94.5q101 28 136 48v54q0 79 -44 127.5t-118 48.5q-67 0 -119 -42t-73 -114l-37 10q22 101 95.5 162t172.5 61q117 0 189.5 -70.5t72.5 -195.5v-311q0 -66 8.5 -89.5t32.5 -23.5q16 0 26 13.5t23 56.5h35 q-5 -68 -42.5 -108t-98.5 -40q-89 0 -123 103q-54 -59 -96 -81t-99 -22zM463 147v246q-31 -13 -90 -33q-109 -37 -139.5 -73.5t-30.5 -98.5q0 -54 32.5 -93.5t77.5 -39.5q41 0 86 26.5t64 65.5zM382 1186q-54 0 -92.5 -38.5t-38.5 -92.5t38.5 -92.5t92.5 -38.5t92.5 38.5 t38.5 92.5t-38.5 92.5t-92.5 38.5zM382 1235q75 0 127.5 -52.5t52.5 -127.5q0 -76 -52.5 -128.5t-127.5 -52.5t-127.5 52.5t-52.5 128.5q0 75 52.5 127.5t127.5 52.5z" glyph-name="aring" horiz-adv-x="748" unicode="å"/>
<glyph d="M279 -23q-93 0 -152 56t-59 143q0 58 31 99.5t72.5 64t138.5 39.5q125 23 182 61v39q0 84 -47.5 135.5t-125.5 51.5q-64 0 -121 -39.5t-83 -110.5h-35q18 103 98.5 166t194.5 63q141 0 225 -112q66 62 123.5 87t132.5 25q134 0 222.5 -82.5t88.5 -220.5h-524 q-4 -36 -4 -69q0 -158 80 -248t196 -90q78 0 140 36t127 119v-55q-49 -74 -129 -116t-174 -42q-215 0 -340 158q-111 -158 -258 -158zM492 209v184q-17 -11 -79 -30q-120 -37 -162 -77t-42 -98q0 -54 38 -93.5t89 -39.5q60 0 108 42.5t48 111.5zM643 477h387 q0 103 -56.5 166.5t-139.5 63.5q-84 0 -137.5 -64.5t-53.5 -165.5z" glyph-name="ae" horiz-adv-x="1260" unicode="æ"/>
<glyph d="M735 745v-256h-35q-23 100 -88 158t-155 58q-108 0 -176 -84t-68 -218q0 -148 80.5 -256t191.5 -108q74 0 146.5 40t124.5 111v-53q-118 -160 -320 -160q-161 0 -262.5 102t-101.5 265q0 167 109.5 284t264.5 117q69 0 154 -28q37 -12 51 -12q31 0 49 40h35zM400 16h34 l-34 -127q63 -12 101 -52.5t38 -96.5q0 -79 -70 -125t-193 -46q-14 0 -28 1v39q186 3 186 115q0 62 -98 86z" glyph-name="ccedilla" horiz-adv-x="788" unicode="ç"/>
<glyph d="M764 186v-53q-66 -84 -134.5 -120t-164.5 -36q-170 0 -280.5 106.5t-110.5 270.5q0 165 105.5 278t258.5 113q126 0 220 -85t94 -203v-15h-533v-10q0 -120 36.5 -208.5t106.5 -138.5t146 -50q71 0 121.5 29.5t134.5 121.5zM219 477h395v14q0 97 -55.5 154t-138.5 57 q-88 0 -141.5 -60t-59.5 -165zM219 1286h113l133 -409h-39z" glyph-name="egrave" horiz-adv-x="831" unicode="è"/>
<glyph d="M764 186v-53q-66 -84 -134.5 -120t-164.5 -36q-170 0 -280.5 106.5t-110.5 270.5q0 165 105.5 278t258.5 113q126 0 220 -85t94 -203v-15h-533v-10q0 -120 36.5 -208.5t106.5 -138.5t146 -50q71 0 121.5 29.5t134.5 121.5zM219 477h395v14q0 97 -55.5 154t-138.5 57 q-88 0 -141.5 -60t-59.5 -165zM291 877l133 409h113l-207 -409h-39z" glyph-name="eacute" horiz-adv-x="831" unicode="é"/>
<glyph d="M764 186v-53q-66 -84 -134.5 -120t-164.5 -36q-170 0 -280.5 106.5t-110.5 270.5q0 165 105.5 278t258.5 113q126 0 220 -85t94 -203v-15h-533v-10q0 -120 36.5 -208.5t106.5 -138.5t146 -50q71 0 121.5 29.5t134.5 121.5zM219 477h395v14q0 97 -55.5 154t-138.5 57 q-88 0 -141.5 -60t-59.5 -165zM377 1286h52l209 -401h-46l-196 266l-189 -266h-41z" glyph-name="ecircumflex" horiz-adv-x="831" unicode="ê"/>
<glyph d="M764 186v-53q-66 -84 -134.5 -120t-164.5 -36q-170 0 -280.5 106.5t-110.5 270.5q0 165 105.5 278t258.5 113q126 0 220 -85t94 -203v-15h-533v-10q0 -120 36.5 -208.5t106.5 -138.5t146 -50q71 0 121.5 29.5t134.5 121.5zM219 477h395v14q0 97 -55.5 154t-138.5 57 q-88 0 -141.5 -60t-59.5 -165zM560 1163q35 0 60.5 -25.5t25.5 -60.5t-25.5 -60.5t-60.5 -25.5t-60.5 25.5t-25.5 60.5t25.5 60.5t60.5 25.5zM244 1163q35 0 60.5 -25.5t25.5 -60.5t-25.5 -60.5t-60.5 -25.5t-60.5 25.5t-25.5 60.5t25.5 60.5t60.5 25.5z" glyph-name="edieresis" horiz-adv-x="831" unicode="ë"/>
<glyph d="M29 0v35q87 0 112 19.5t25 80.5v445q0 66 -23 87t-114 21v35l241 22h35v-610q0 -60 26 -80t95 -20v-35h-397zM28 1286h113l133 -409h-39z" glyph-name="igrave" horiz-adv-x="469" unicode="ì"/>
<glyph d="M29 0v35q87 0 112 19.5t25 80.5v445q0 66 -23 87t-114 21v35l241 22h35v-610q0 -60 26 -80t95 -20v-35h-397zM202 877l133 409h113l-207 -409h-39z" glyph-name="iacute" horiz-adv-x="469" unicode="í"/>
<glyph d="M29 0v35q87 0 112 19.5t25 80.5v445q0 66 -23 87t-114 21v35l241 22h35v-610q0 -60 26 -80t95 -20v-35h-397zM197 1286h52l209 -401h-46l-196 266l-189 -266h-41z" glyph-name="icircumflex" horiz-adv-x="469" unicode="î"/>
<glyph d="M29 0v35q87 0 112 19.5t25 80.5v445q0 66 -23 87t-114 21v35l241 22h35v-610q0 -60 26 -80t95 -20v-35h-397zM410 1163q35 0 60.5 -25.5t25.5 -60.5t-25.5 -60.5t-60.5 -25.5t-60.5 25.5t-25.5 60.5t25.5 60.5t60.5 25.5zM94 1163q35 0 60.5 -25.5t25.5 -60.5 t-25.5 -60.5t-60.5 -25.5t-60.5 25.5t-25.5 60.5t25.5 60.5t60.5 25.5z" glyph-name="idieresis" horiz-adv-x="469" unicode="ï"/>
<glyph d="M227 360q0 -157 66.5 -249.5t179.5 -92.5q116 0 181 94.5t65 262.5q0 153 -66 241.5t-180 88.5q-115 0 -180.5 -92t-65.5 -253zM782 1284l23 -33l-187 -123q124 -132 191.5 -322t67.5 -372q0 -213 -109 -335t-297 -122q-169 0 -281 109t-112 274q0 163 110 274t271 111 q128 0 229 -77q-50 265 -149 409l-222 -145l-22 33l221 143q-63 84 -162 141l56 37q103 -55 180 -129z" glyph-name="eth" horiz-adv-x="948" unicode="ð"/>
<glyph d="M281 745v-145q127 145 262 145q105 0 175 -71.5t70 -188.5v-327q0 -75 25 -99t98 -24v-35h-387v35q72 0 98.5 18.5t26.5 71.5v379q0 76 -45.5 121t-116.5 45q-102 0 -206 -142v-354q0 -90 23.5 -114.5t98.5 -24.5v-35h-383v35q83 0 102 26.5t19 112.5v408q0 65 -23 85.5 t-98 20.5v35l226 22h35zM180 958h-39q1 69 52 122t116 53q54 0 163 -49q103 -46 154 -46q31 0 52 24t26 64h37q-1 -72 -48 -123t-112 -51q-73 0 -179 51q-104 50 -138 50q-64 0 -84 -95z" glyph-name="ntilde" unicode="ñ"/>
<glyph d="M866 360q0 -164 -113.5 -273.5t-283.5 -109.5t-283.5 109.5t-113.5 273.5q0 166 113 275.5t284 109.5t284 -109.5t113 -275.5zM715 360q0 155 -66 250t-180 95t-180 -93t-66 -252q0 -156 65.5 -249t180.5 -93t180.5 94t65.5 248zM245 1286h113l133 -409h-39z" glyph-name="ograve" unicode="ò"/>
<glyph d="M866 360q0 -164 -113.5 -273.5t-283.5 -109.5t-283.5 109.5t-113.5 273.5q0 166 113 275.5t284 109.5t284 -109.5t113 -275.5zM715 360q0 155 -66 250t-180 95t-180 -93t-66 -252q0 -156 65.5 -249t180.5 -93t180.5 94t65.5 248zM317 877l133 409h113l-207 -409h-39z" glyph-name="oacute" unicode="ó"/>
<glyph d="M866 360q0 -164 -113.5 -273.5t-283.5 -109.5t-283.5 109.5t-113.5 273.5q0 166 113 275.5t284 109.5t284 -109.5t113 -275.5zM715 360q0 155 -66 250t-180 95t-180 -93t-66 -252q0 -156 65.5 -249t180.5 -93t180.5 94t65.5 248zM437 1286h52l209 -401h-46l-196 266 l-189 -266h-41z" glyph-name="ocircumflex" unicode="ô"/>
<glyph d="M866 360q0 -164 -113.5 -273.5t-283.5 -109.5t-283.5 109.5t-113.5 273.5q0 166 113 275.5t284 109.5t284 -109.5t113 -275.5zM715 360q0 155 -66 250t-180 95t-180 -93t-66 -252q0 -156 65.5 -249t180.5 -93t180.5 94t65.5 248zM200 958h-39q1 69 52 122t116 53 q54 0 163 -49q103 -46 154 -46q31 0 52 24t26 64h37q-1 -72 -48 -123t-112 -51q-73 0 -179 51q-104 50 -138 50q-64 0 -84 -95z" glyph-name="otilde" unicode="õ"/>
<glyph d="M866 360q0 -164 -113.5 -273.5t-283.5 -109.5t-283.5 109.5t-113.5 273.5q0 166 113 275.5t284 109.5t284 -109.5t113 -275.5zM715 360q0 155 -66 250t-180 95t-180 -93t-66 -252q0 -156 65.5 -249t180.5 -93t180.5 94t65.5 248zM620 1163q35 0 60.5 -25.5t25.5 -60.5 t-25.5 -60.5t-60.5 -25.5t-60.5 25.5t-25.5 60.5t25.5 60.5t60.5 25.5zM304 1163q35 0 60.5 -25.5t25.5 -60.5t-25.5 -60.5t-60.5 -25.5t-60.5 25.5t-25.5 60.5t25.5 60.5t60.5 25.5z" glyph-name="odieresis" unicode="ö"/>
<glyph d="M682 311q26 0 43.5 -17.5t17.5 -43.5t-17.5 -44t-43.5 -18t-43.5 18t-17.5 44t17.5 43.5t43.5 17.5zM682 1120q26 0 43.5 -17.5t17.5 -43.5t-17.5 -44t-43.5 -18t-43.5 18t-17.5 44t17.5 43.5t43.5 17.5zM145 610v88h1076v-88h-1076z" glyph-name="divide" horiz-adv-x="1368" unicode="÷"/>
<glyph d="M76 -45l112 127q-116 111 -116 278q0 166 113 275.5t284 109.5q127 0 246 -73l96 106l25 -22l-99 -107q129 -106 129 -289q0 -164 -113.5 -273.5t-283.5 -109.5q-141 0 -254 84l-113 -127zM260 162l393 438q-64 105 -184 105q-114 0 -180 -93t-66 -252q0 -116 37 -198z M670 571l-394 -442q69 -111 193 -111q115 0 180.5 94t65.5 248q0 137 -45 211z" glyph-name="oslash" unicode="ø"/>
<glyph d="M754 745h34v-608q0 -60 25.5 -81t99.5 -21v-35l-264 -14v133h-4q-109 -142 -254 -142q-104 0 -170.5 69.5t-66.5 174.5v371q0 56 -28 76t-101 20v35l233 22h35v-518q0 -76 44.5 -120t119.5 -44q104 0 192 119v391q0 75 -23 94t-118 21v35zM245 1286h113l133 -409h-39z " glyph-name="ugrave" unicode="ù"/>
<glyph d="M754 745h34v-608q0 -60 25.5 -81t99.5 -21v-35l-264 -14v133h-4q-109 -142 -254 -142q-104 0 -170.5 69.5t-66.5 174.5v371q0 56 -28 76t-101 20v35l233 22h35v-518q0 -76 44.5 -120t119.5 -44q104 0 192 119v391q0 75 -23 94t-118 21v35zM317 877l133 409h113l-207 -409 h-39z" glyph-name="uacute" unicode="ú"/>
<glyph d="M754 745h34v-608q0 -60 25.5 -81t99.5 -21v-35l-264 -14v133h-4q-109 -142 -254 -142q-104 0 -170.5 69.5t-66.5 174.5v371q0 56 -28 76t-101 20v35l233 22h35v-518q0 -76 44.5 -120t119.5 -44q104 0 192 119v391q0 75 -23 94t-118 21v35zM417 1286h52l209 -401h-46 l-196 266l-189 -266h-41z" glyph-name="ucircumflex" unicode="û"/>
<glyph d="M754 745h34v-608q0 -60 25.5 -81t99.5 -21v-35l-264 -14v133h-4q-109 -142 -254 -142q-104 0 -170.5 69.5t-66.5 174.5v371q0 56 -28 76t-101 20v35l233 22h35v-518q0 -76 44.5 -120t119.5 -44q104 0 192 119v391q0 75 -23 94t-118 21v35zM620 1163q35 0 60.5 -25.5 t25.5 -60.5t-25.5 -60.5t-60.5 -25.5t-60.5 25.5t-25.5 60.5t25.5 60.5t60.5 25.5zM304 1163q35 0 60.5 -25.5t25.5 -60.5t-25.5 -60.5t-60.5 -25.5t-60.5 25.5t-25.5 60.5t25.5 60.5t60.5 25.5z" glyph-name="udieresis" unicode="ü"/>
<glyph d="M381 723v-35q-62 -9 -62 -63q0 -21 11 -47l174 -410l127 383q15 47 15 75q0 58 -73 62v35h256v-35q-58 0 -96 -39.5t-69 -130.5l-289 -854q-42 -122 -107 -193t-133 -71q-40 0 -90 31l47 125q38 -17 70 -17q65 0 107.5 41t76.5 137l94 263l-260 600q-29 65 -57.5 86 t-89.5 22v35h348zM454 877l133 409h113l-207 -409h-39z" glyph-name="yacute" horiz-adv-x="854" unicode="ý"/>
<glyph d="M145 -434v1536q0 85 -21 105t-108 20v35l234 24h35v-663q69 67 125.5 94.5t126.5 27.5q141 0 234 -107.5t93 -270.5q0 -168 -102.5 -279t-257.5 -111q-107 0 -219 86v-477q0 -74 25.5 -97.5t95.5 -23.5v-34h-388v34q75 0 101 21t26 80zM285 569v-454q85 -90 200 -90 q97 0 162.5 91t65.5 226q0 146 -65.5 241t-166.5 95q-102 0 -196 -109z" glyph-name="thorn" unicode="þ"/>
<glyph d="M29 0v35q87 0 112 19.5t25 80.5v445q0 66 -23 87t-114 21v35l241 22h35v-610q0 -60 26 -80t95 -20v-35h-397z" glyph-name="dotlessi" horiz-adv-x="469" unicode="ı"/>
<glyph d="M317 1286h52l209 -401h-46l-196 266l-189 -266h-41z" glyph-name="circumflex" horiz-adv-x="682" unicode="ˆ"/>
<glyph d="M342 1186q-54 0 -92.5 -38.5t-38.5 -92.5t38.5 -92.5t92.5 -38.5t92.5 38.5t38.5 92.5t-38.5 92.5t-92.5 38.5zM342 1235q75 0 127.5 -52.5t52.5 -127.5q0 -76 -52.5 -128.5t-127.5 -52.5t-127.5 52.5t-52.5 128.5q0 75 52.5 127.5t127.5 52.5z" glyph-name="ring" horiz-adv-x="682" unicode="˚"/>
<glyph d="M80 958h-39q1 69 52 122t116 53q54 0 163 -49q103 -46 154 -46q31 0 52 24t26 64h37q-1 -72 -48 -123t-112 -51q-73 0 -179 51q-104 50 -138 50q-64 0 -84 -95z" glyph-name="tilde" horiz-adv-x="682" unicode="˜"/>
<glyph d="M541 1202h69l-860 -1202h-61z" glyph-name="fraction" horiz-adv-x="299" unicode="∕"/>
<glyph d="M391 1199h35v-391h170v-63h-170v-197h-98v197h-285v45zM131 808h197v232z" glyph-name="foursuperior" horiz-adv-x="618" unicode=""/>
</font>
</defs>
</svg>
