<?xml version="1.0" encoding="UTF-8"?>
<!DOCTYPE svg  PUBLIC '-//W3C//DTD SVG 1.1//EN'  'http://www.w3.org/Graphics/SVG/1.1/DTD/svg11.dtd'>
<svg version="1.1" xmlns="http://www.w3.org/2000/svg">
<defs>
<font id="Precipice" horiz-adv-x="601">
<font-face font-family="Precipice" font-style="italic" font-weight="400" ascent="800" bbox="-200 -390 972 861" cap-height="705" descent="-200" panose-1="0 0 4 0 0 0 0 0 0 0" slope="-11" underline-position="-160" underline-thickness="20" unicode-range="U+0020-00FC" units-per-em="1000" x-height="346"/>
<missing-glyph/>
<glyph glyph-name="space" horiz-adv-x="311" unicode=" "/>
<glyph d="M365 656q0 -4 -4 -13q-72 -157 -148 -369l-28 -84q-24 -64 -43 -64q-9 0 -18.5 6t-9.5 15q0 30 88 259.5t111 262.5q10 14 22 14t21 -8t9 -19zM156 9q0 -16 -18 -16q-36 -17 -61 -17q-33 0 -33 34q0 23 15 42.5t37 19.5t41 -20.5t19 -42.5z" glyph-name="exclam" horiz-adv-x="344" unicode="!"/>
<glyph d="M324 674q0 -24 -24 -93q-27 -74 -42 -74q-20 0 -20 18l49 151q5 15 19 15q18 0 18 -17zM210 674q0 -24 -25 -93q-27 -74 -42 -74q-20 0 -20 18l50 151q5 15 18 15q19 0 19 -17z" glyph-name="quotedbl" horiz-adv-x="284" unicode='"'/>
<glyph d="M598 523q0 -19 -71 -34q-12 -2 -91 -14q-20 -41 -48 -112q21 0 62 2t61 2q26 0 32 -1q18 -5 18 -22q0 -18 -22 -21q-50 -6 -167 -6q-12 -40 -24 -81q-20 -62 -36 -62q-23 0 -23 16q0 23 35 124q-16 0 -130 -13q-67 -159 -89 -159q-7 0 -15 5.5t-8 12.5q0 12 27 65 q17 35 35 69q-10 -1 -49 -9q-30 -6 -49 -6q-29 0 -29 26q0 16 65 27q42 4 83 9q25 58 45 112l-69 -1q-45 -1 -49 0q-34 3 -34 23q0 25 77 25q21 0 53.5 -2t36.5 -2q3 8 32 125q4 18 17 18q26 0 26 -24t-28 -115q39 0 135 15q62 130 82 130q24 0 24 -23q0 -5 -23 -47 q-28 -48 -29 -51q5 1 55 14q34 9 56 9q26 0 26 -24zM384 466q-72 -12 -127 -12q-18 -51 -42 -106q126 12 125 12q20 50 44 106z" glyph-name="numbersign" horiz-adv-x="608" unicode="#"/>
<glyph d="M773 550q0 -42 -30 -72.5t-72 -30.5q-33 0 -33 25q0 24 39 33.5t39 34.5q0 64 -74 75q-49 -121 -121 -269q173 -45 173 -178q0 -112 -139 -171q-105 -45 -236 -45l-34 -66q-29 -50 -43 -50q-11 0 -20 8t-9 19q0 9 18 43l24 44q-84 0 -154 27q-94 37 -94 107q0 57 67 85 q50 21 116 21q41 0 82 -8q60 -13 60 -37q0 -29 -24 -29q-19 0 -56 9.5t-56 9.5q-38 0 -67 -10q-43 -14 -43 -43q0 -41 83 -61q55 -13 118 -13q68 127 154 299q-145 48 -145 148q0 97 111 161q95 55 200 55q7 17 13 33q10 21 25 21q11 0 20.5 -7.5t9.5 -18.5q0 -9 -12 -33 q48 -9 79 -39t31 -77zM586 618q-78 -1 -149 -48q-81 -52 -81 -126q0 -60 111 -84q67 135 119 258zM638 172q0 87 -143 121q-67 -134 -147 -286q94 8 177 44q113 48 113 121z" glyph-name="dollar" horiz-adv-x="730" unicode="$"/>
<glyph d="M380 505q0 -67 -70 -120q-65 -48 -135 -48q-95 0 -95 84q0 82 81 159t163 77q48 0 48 -29q0 -22 -18 -26q3 1 -36 1q-61 0 -120 -54.5t-59 -115.5q0 -42 51 -42q44 0 91.5 44t47.5 87q0 13 -10 13l-13 -5q-23 7 -23 32q0 24 19 24q30 0 54 -25.5t24 -55.5zM646 656 q0 -9 -6 -17q-84 -102 -249 -310q-61 -83 -122 -165q-73 -99 -127 -161q-12 -14 -24 -14q-28 0 -28 26q0 15 233 316q229 294 275 343q11 9 20 9q28 0 28 -27zM627 186q0 -67 -70 -120q-66 -48 -136 -48q-95 0 -95 84q0 82 81 159t164 77q48 0 48 -30q0 -22 -19 -25 q5 1 -35 1q-61 0 -120.5 -55t-59.5 -115q0 -43 52 -43q44 0 91 44t47 87q0 13 -9 13l-14 -4q-22 7 -22 32q0 24 19 24q30 0 54 -25.5t24 -55.5z" glyph-name="percent" horiz-adv-x="645" unicode="%"/>
<glyph d="M609 1q0 -28 -28 -28q-19 0 -130 111q-148 -111 -263 -111q-68 0 -120 36q-58 41 -58 107q0 79 66 158q59 72 139 107q-67 40 -67 98q0 86 105 154q94 60 185 60q132 0 132 -101q0 -46 -66.5 -103.5t-113.5 -57.5q-25 0 -25 30q0 15 39 34q58 30 71 39q39 29 39 64 t-57 35q-79 0 -154 -36q-91 -44 -91 -114q0 -26 23 -49q12 -13 41 -31q23 -15 23 -20q0 -17 -59 -51q-77 -46 -108 -76q-59 -56 -59 -124q0 -48 35 -75q32 -24 81 -24q112 0 225 91q-106 112 -106 132q0 12 9 20t21 8t58 -54q29 -35 57 -69l44 57q34 44 46 44q11 0 19.5 -8 t8.5 -19q0 -29 -80 -113q33 -31 66 -61q52 -49 52 -60z" glyph-name="ampersand" horiz-adv-x="634" unicode="&amp;"/>
<glyph d="M235 674q0 -24 -25 -93q-27 -74 -42 -74q-20 0 -20 18l50 151q5 15 18 15q19 0 19 -17z" glyph-name="quotesingle" horiz-adv-x="207" unicode="'"/>
<glyph d="M224 689q0 -4 -37 -69q-44 -78 -68 -145q-37 -100 -37 -187q0 -84 19 -158q15 -58 54 -150q3 -5 3 -13q0 -11 -9 -19t-20 -8q-40 0 -74 151q-28 124 -28 191q0 110 39.5 222t107.5 200q9 12 20 12q12 0 21 -8t9 -19z" glyph-name="parenleft" horiz-adv-x="257" unicode="("/>
<glyph d="M297 407q0 -106 -51 -241q-48 -130 -117 -218q-10 -13 -21 -13q-29 0 -29 28l42 79q49 93 78 171q42 113 42 195q0 103 -66 258q-4 9 -4 13q0 11 9 19t21 8q35 0 68 -131q28 -111 28 -168z" glyph-name="parenright" horiz-adv-x="257" unicode=")"/>
<glyph d="M288 510q0 -23 -21 -23q-11 0 -91 40q0 -111 -28 -111q-23 0 -23 32q0 12 2.5 35t2.5 34q-76 -47 -80 -47q-22 0 -22 24q0 8 18 22q12 10 35 24q14 9 28 17q-22 10 -43 20q-32 16 -32 29q0 23 21 23q9 0 81 -36q2 48 3 56q6 40 24 40q23 0 23 -28q0 -9 -3 -28.5t-3 -29.5 q78 48 81 48q22 0 22 -24q0 -11 -35 -35q-24 -14 -47 -29q87 -36 87 -53z" glyph-name="asterisk" horiz-adv-x="317" unicode="*"/>
<glyph d="M360 279q0 -25 -56 -31q-10 -1 -78 -1l-10 -82q-12 -60 -35 -60q-28 0 -28 31q0 22 7 54q9 46 10 54q-13 0 -39.5 -2t-40.5 -2q-41 0 -41 28q0 25 55 31q12 1 76 1q6 46 22 136q5 22 26 22q29 0 29 -30q0 -26 -8 -64q-6 -31 -13 -62q14 0 42 2.5t43 2.5q39 0 39 -28z" glyph-name="plus" horiz-adv-x="404" unicode="+"/>
<glyph d="M147 32q0 -23 -49 -87t-72 -64q-11 0 -19 10t-8 20q0 13 16 20.5t52 70.5q34 57 51 57q29 0 29 -27z" glyph-name="comma" horiz-adv-x="153" unicode=","/>
<glyph d="M333 279q0 -25 -27 -28q-113 -11 -200 -11q-29 0 -37 2q-20 5 -20 26q0 24 27 27q123 12 200 12q29 0 37 -2q20 -5 20 -26z" glyph-name="hyphen" horiz-adv-x="382" unicode="-"/>
<glyph d="M164 13q0 -17 -30 -28q-24 -9 -45 -9q-33 0 -33 36q0 24 15.5 42.5t38.5 18.5q25 0 49 -36l-3 -5q8 -8 8 -19z" glyph-name="period" horiz-adv-x="191" unicode="."/>
<glyph d="M366 667l-209 -432q-34 -92 -112 -271q-11 -23 -26 -23q-11 0 -20.5 7.5t-9.5 18.5q0 29 144 344t181 369q10 14 23 14q29 0 29 -27z" glyph-name="slash" horiz-adv-x="317" unicode="/"/>
<glyph d="M482 407q0 -144 -81 -282q-94 -158 -228 -158q-89 0 -132 66q-36 55 -36 149q0 103 48 220q51 125 132 203q93 88 200 88q67 0 67 -31q0 -28 -32 -28q-8 0 -24 2.5t-24 2.5q-81 0 -158 -81q-66 -71 -111 -180q-42 -103 -42 -181q0 -66 25 -114q31 -62 90 -62 q108 0 185 144q66 123 66 243q0 60 -17 87.5t-70 45.5q-22 8 -22 27q0 28 32 28q64 0 101 -66q31 -54 31 -123z" glyph-name="zero" horiz-adv-x="514" unicode="0"/>
<glyph d="M390 655q-73 -145 -169 -433q-22 -71 -43 -142q-38 -112 -61 -112q-30 0 -30 24q0 13 86 258q81 229 103 285q-84 -54 -131 -54q-30 0 -30 31q0 19 24 24q54 11 67 16q27 11 58 41q22 26 45 52q34 38 49 38q24 0 32 -28z" glyph-name="one" horiz-adv-x="328" unicode="1"/>
<glyph d="M630 530q0 -98 -74 -191q-41 -51 -152 -147q-90 -78 -187 -148q86 -37 137 -37q53 0 103 19q32 12 67 35q28 19 31 19q11 0 20 -8.5t9 -20.5q0 -9 -15 -25q-68 -73 -217 -73q-49 0 -98 16q-18 7 -91 38q-50 -33 -65 -41q-38 -20 -73 -20q-31 0 -51 19.5t-20 50.5 q0 36 29 56q25 16 63 16q46 0 106 -20q173 123 258 203q165 152 165 259q0 56 -34 85t-90 29q-61 0 -104 -33q-25 -19 -52 -60q-22 -33 -32 -33t-18 9t-8 20q0 64 79 111q70 41 138 41q74 0 125 -47.5t51 -121.5zM96 31q-15 4 -35 4q-47 0 -47 -18q0 -10 22 -10q24 0 60 24z " glyph-name="two" horiz-adv-x="639" unicode="2"/>
<glyph d="M569 542q0 -121 -103 -183q36 -48 36 -126q0 -120 -79 -193t-200 -73q-71 0 -130 42q-65 47 -65 116q0 44 28 44q19 0 24 -14q1 -4 2 -29q2 -44 50 -76q42 -28 89 -28q93 0 160 61t67 154q0 68 -35 100q-48 -15 -89 -15q-28 0 -49 11q-25 14 -25 40q0 48 73 48 q60 0 100 -24q41 20 66 59t25 85q0 47 -30.5 75.5t-76.5 28.5q-50 0 -88 -25q-22 -15 -49 -48q-21 -25 -29 -25q-28 0 -28 26q0 1 3 13q21 52 81 84q54 30 113 30q67 0 113 -45.5t46 -112.5z" glyph-name="three" horiz-adv-x="579" unicode="3"/>
<glyph d="M609 590l-7 -21q-21 -63 -84 -203q-58 -129 -80 -205q28 -5 52 -5q14 0 41 4t40 4q22 0 22 -24q0 -38 -93 -38q-35 0 -77 5q-9 -25 -17 -70q-9 -49 -15.5 -70.5t-25.5 -21.5q-10 0 -19.5 7t-9.5 17q0 56 31 147q-43 9 -117 30q-82 23 -117 31q-42 -29 -85 -29 q-52 0 -52 36q0 56 76 56q17 0 51 -4q82 80 153 210l116 234q10 19 26 19q27 0 27 -25q0 -60 -105 -233q-95 -157 -154 -218q66 -19 197 -52q32 105 88 247q79 200 110 200q28 0 28 -28z" glyph-name="four" horiz-adv-x="590" unicode="4"/>
<glyph d="M611 672q0 -26 -51 -33q-16 -2 -72 -2q-33 0 -99.5 3t-100.5 3q-11 -49 -40 -147q32 8 73 8q102 0 163 -54q64 -57 64 -158q0 -140 -104.5 -238t-246.5 -98q-61 0 -120 29q-72 34 -72 89q0 29 26 29q12 0 28 -24q20 -31 40 -44q36 -24 96 -24q119 0 206 79q91 81 91 198 q0 160 -163 160q-51 0 -112 -18q-28 -54 -65 -54q-30 0 -30 38q0 39 59 63q8 26 41 144q14 50 29 63.5t61 13.5q12 0 65 -2t96 -2q17 0 49.5 3t48.5 3q40 0 40 -28z" glyph-name="five" horiz-adv-x="590" unicode="5"/>
<glyph d="M506 274q0 -128 -85 -220t-212 -92q-96 0 -150 65q-50 61 -50 159q0 136 93 276q90 134 216 198q57 29 97 29q37 0 37 -29q0 -18 -22 -26q-31 -10 -63 -20q-36 -12 -60 -27q-97 -60 -169 -174q-76 -120 -76 -228q0 -74 37 -120q39 -49 112 -49q104 0 173 76q66 73 66 179 q0 140 -120 140q-46 0 -86 -25q-24 -16 -53 -48q-23 -25 -29 -25q-11 0 -20.5 8.5t-9.5 19.5q0 9 10 24q66 101 188 101q85 0 132 -54q44 -52 44 -138z" glyph-name="six" horiz-adv-x="525" unicode="6"/>
<glyph d="M479 646q0 -102 -139 -290q-86 -116 -129 -224l-32 -94q-27 -70 -48 -70q-9 0 -17.5 7.5t-8.5 16.5q0 12 6 30q71 217 183 365q129 171 129 240q0 18 -16 18h-314q-14 0 -16.5 -39.5t-24.5 -39.5q-29 0 -29 37q0 97 70 97h340q46 0 46 -54z" glyph-name="seven" horiz-adv-x="441" unicode="7"/>
<glyph d="M502 580q0 -7 -4 -19q-29 -88 -98 -155q-27 -26 -146 -115q38 -51 51 -76q24 -46 24 -88q0 -72 -46 -118.5t-118 -46.5q-61 0 -96 30q-38 32 -38 91q0 65 47 125q31 39 100 93q-57 64 -79 96q-43 64 -43 113q0 99 93 148q73 39 182 39q148 0 148 -45q0 -30 -25 -30l-12 3 q-45 18 -112 18q-80 0 -136 -22q-78 -31 -78 -99q0 -41 39 -100q16 -25 67 -88q94 69 118 90q62 55 90 117q8 20 15 40q12 26 28 26q29 0 29 -27zM274 132q0 53 -61 127q-127 -103 -127 -179q0 -32 26 -49q23 -15 56 -15q106 0 106 116z" glyph-name="eight" horiz-adv-x="481" unicode="8"/>
<glyph d="M507 491q0 -177 -155 -347q-139 -152 -320 -219q-19 -7 -27 -7q-27 0 -27 30q0 15 19 24q43 17 127 58q138 81 226 193q103 132 103 272q0 145 -136 145q-102 0 -164 -66.5t-62 -169.5q0 -64 27 -103q30 -46 92 -46q45 0 84.5 31.5t41.5 31.5q11 0 20 -8.5t9 -19.5 q0 -36 -62 -65q-53 -25 -94 -25q-84 0 -131 62q-42 55 -42 142q0 125 79.5 208t203.5 83q91 0 141 -57q47 -54 47 -147z" glyph-name="nine" horiz-adv-x="507" unicode="9"/>
<glyph d="M183 276q0 -16 -18 -16q-32 -17 -61 -17q-33 0 -33 34q0 23 15 42.5t37 19.5t41 -20.5t19 -42.5zM118 9q0 -16 -19 -16q-34 -17 -60 -17q-34 0 -34 34q0 22 15.5 42t37.5 20t41 -20.5t19 -42.5z" glyph-name="colon" horiz-adv-x="191" unicode=":"/>
<glyph d="M186 276q0 -16 -19 -16q-32 -17 -61 -17q-33 0 -33 34q0 22 15.5 42t37.5 20t41 -20.5t19 -42.5zM147 32q0 -23 -49 -87t-72 -64q-11 0 -19 10t-8 20q0 13 16 20.5t52 70.5q34 57 51 57q29 0 29 -27z" glyph-name="semicolon" horiz-adv-x="196" unicode=";"/>
<glyph d="M411 468q0 -17 -165.5 -90.5t-165.5 -103.5q0 -31 121.5 -109t121.5 -93q0 -28 -28 -28q-31 0 -148 93q-125 99 -125 146q0 40 165 129q155 84 194 84q11 0 20.5 -8.5t9.5 -19.5z" glyph-name="less" horiz-adv-x="410" unicode="&lt;"/>
<glyph d="M378 347q0 -25 -28 -28q-111 -11 -231 -11q-31 0 -38 2q-21 5 -21 26q0 24 27 27q110 12 231 12q31 0 39 -2q21 -5 21 -26zM365 208q0 -25 -28 -28q-111 -11 -231 -11q-31 0 -38 2q-21 5 -21 26q0 24 27 27q123 12 231 12q30 0 38 -2q22 -5 22 -26z" glyph-name="equal" horiz-adv-x="404" unicode="="/>
<glyph d="M402 257q0 -40 -165 -129q-156 -84 -194 -84q-11 0 -20.5 8.5t-9.5 19.5q0 17 165.5 90.5t165.5 103.5q0 32 -122 109.5t-122 92.5q0 11 9 19.5t20 8.5q30 0 148 -93q125 -99 125 -146z" glyph-name="greater" horiz-adv-x="410" unicode="&gt;"/>
<glyph d="M509 536q0 -77 -60 -126q-8 -7 -126 -77q-82 -49 -115 -109q-11 -26 -23 -51q-18 -36 -33 -36q-11 0 -20.5 8.5t-9.5 19.5q0 5 7 22q41 100 127 165q68 43 135 85q63 45 63 109q0 49 -42 75q-35 21 -87 21q-65 0 -107 -31q-24 -17 -50 -56q-21 -31 -33 -31q-29 0 -29 28 q0 7 9 24q65 121 214 121q81 0 129 -39q51 -43 51 -122zM167 9q0 -16 -19 -16q-34 -17 -60 -17q-33 0 -33 34q0 23 15 42.5t37 19.5t41 -20.5t19 -42.5z" glyph-name="question" horiz-adv-x="514" unicode="?"/>
<glyph d="M549 390q0 -68 -45 -130q-50 -68 -114 -68q-54 0 -60 40q-52 -40 -96 -40q-31 0 -48.5 22t-17.5 54q0 78 67 134q64 53 144 53q63 0 63 -22q0 -19 -14 -19q-9 0 -26.5 4t-26.5 4q-63 0 -117 -45q-57 -47 -57 -108q0 -45 39 -45q31 0 67 36q14 13 56 65q29 36 41 36 q10 0 14 -13q-17 -26 -34 -51q-27 -42 -27 -48q0 -24 32 -24q52 0 91 60q36 54 36 109q0 65 -46 100q-42 31 -109 31q-107 0 -190.5 -78.5t-83.5 -185.5q0 -80 57 -123q51 -38 134 -38q22 0 64 7.5t62 7.5q16 0 16 -18q0 -30 -146 -30q-95 0 -153 48q-64 52 -64 145 q0 122 92 210t215 88q83 0 132 -42q53 -45 53 -126z" glyph-name="at" horiz-adv-x="579" unicode="@"/>
<glyph d="M595 622q0 -49 -32 -125l-54 -120q-58 -149 -71 -290q9 -25 9 -81q0 -39 -31 -39q-38 0 -38 45q0 24 4 70q-42 125 -200 190q-51 -95 -85 -194q-8 -29 -27 -86q-8 -19 -24 -19q-12 0 -21 8t-9 19q0 33 47 144q38 92 67 146q-25 8 -62 11q-32 3 -63 5q-27 3 -27 28 q0 27 36 27q66 0 142 -22q71 127 156 222q121 134 217 134q66 0 66 -73zM540 623q0 19 -18 19q-69 0 -177 -128q-78 -92 -135 -194q119 -50 184 -143q18 103 54 200q27 63 53 126q39 92 39 120z" glyph-name="A" horiz-adv-x="530" unicode="A"/>
<glyph d="M616 547q0 -152 -207 -226q171 -21 171 -169q0 -123 -107 -163q-61 -23 -212 -23q-71 0 -86 1q-66 6 -66 31q0 31 57 31q22 0 65.5 -3t65.5 -3q103 0 150 18q78 30 78 115q0 56 -47 85q-3 2 -87 35q-47 19 -47 50q0 24 56 52q83 42 103 58q56 43 56 104q0 100 -106 100 q-60 0 -100 -37q-28 -27 -60 -90q-54 -108 -157 -326q-25 -68 -84 -197q-9 -16 -24 -16q-28 0 -28 24q0 39 242 539q76 157 214 157q65 0 112.5 -41t47.5 -106z" glyph-name="B" horiz-adv-x="557" unicode="B"/>
<glyph d="M637 616q0 -92 -68 -172q-60 -69 -153 -112q-17 -8 -25 -8q-26 0 -26 26q0 16 23 29q19 9 57 28q55 32 92 80q42 56 42 112q0 42 -51 42q-96 0 -196 -87q-91 -79 -152.5 -197t-61.5 -211q0 -130 135 -130q60 0 125 36q41 22 93 66q42 36 48 36q28 0 28 -28q0 -11 -20 -30 q-139 -134 -274 -134q-88 0 -139 48t-51 135q0 107 70 239.5t173 219.5q114 97 224 97q43 0 73 -20q34 -24 34 -65z" glyph-name="C" horiz-adv-x="519" unicode="C"/>
<glyph d="M810 198q0 -119 -83 -182q-74 -57 -197 -57q-54 0 -128 17q-62 15 -125 31q-64 -40 -151 -40q-118 0 -118 54q0 66 120 66q48 0 138 -22q211 194 317 474q-44 50 -106 81t-126 31q-56 0 -56 -44q0 -28 37 -55q11 -8 70 -41q37 -21 37 -33q0 -11 -7 -21t-18 -10 q-6 0 -21 7q-158 74 -158 163q0 87 120 87q66 0 133 -29.5t115 -77.5l8 28q7 15 22 15q10 0 20 -6.5t10 -16.5q0 -24 -18 -66q64 -73 111 -165q54 -108 54 -188zM756 193q0 68 -44 158q-36 74 -89 140q-101 -246 -291 -442q49 -12 99 -24q57 -12 100 -12q95 0 155 42 q70 48 70 138zM201 26q-36 16 -67 16q-48 0 -48 -17q0 -14 43 -14q42 0 72 15z" glyph-name="D" horiz-adv-x="787" unicode="D"/>
<glyph d="M495 630q0 -50 -61 -124q-63 -77 -111 -77q-23 0 -23 24q0 13 36 42q54 43 68 58q36 37 36 71q0 24 -31 24q-66 0 -141.5 -76.5t-75.5 -142.5q0 -25 23 -54t23 -47q0 -17 -41 -44q-57 -38 -77 -59q-41 -44 -41 -103q0 -95 123 -95q69 0 131 33q39 21 83 61q36 33 43 33 q26 0 26 -29q0 -12 -19 -32q-117 -121 -262 -121q-73 0 -123 36q-57 41 -57 111q0 132 155 211q-41 38 -41 90q0 101 91.5 191.5t192.5 90.5q73 0 73 -72z" glyph-name="E" horiz-adv-x="461" unicode="E"/>
<glyph d="M604 610q0 -110 -149 -353q4 0 22 1.5t29 1.5q55 0 55 -30q0 -31 -71 -31q-16 0 -40.5 1.5t-28.5 1.5q-37 -62 -75 -123q-65 -105 -86 -127q-12 -12 -31 -12q-25 0 -25 16q0 7 70 116l84 130h-43q-24 0 -32 3q-17 5 -17 25q0 30 64 30q14 0 35 -1.5t25 -1.5 q154 263 154 339q0 31 -19 41q-13 6 -47 6q-105 0 -198.5 -51t-150.5 -140q-37 -57 -37 -103q0 -34 29 -34q39 0 94 43q47 37 72 76q5 8 24 59q9 24 30 24q25 0 25 -23q0 -69 -90.5 -149t-160.5 -80q-34 0 -53 23t-19 58q0 57 35 117q62 108 171 171.5t233 63.5q60 0 85 -14 q37 -19 37 -74z" glyph-name="F" horiz-adv-x="574" unicode="F"/>
<glyph d="M563 589q0 -34 -19 -75q-23 -49 -53 -49q-11 0 -19 8.5t-8 19.5q0 8 23 40t23 62q0 55 -56 55q-89 0 -181 -100q-81 -88 -138 -218q-55 -125 -55 -211q0 -94 77 -94q82 0 155 83q45 51 100 155q43 83 55 83q23 0 23 -30q0 -21 -12 -61q-52 -176 -129 -334 q-117 -240 -214 -240q-27 0 -27 24q0 16 22 28q82 45 148 160q35 62 91 203q-40 -52 -94 -86q-62 -39 -120 -39q-129 0 -129 153q0 101 61 236q64 141 156 234q105 106 209 106q51 0 81 -30.5t30 -82.5z" glyph-name="G" horiz-adv-x="525" unicode="G"/>
<glyph d="M972 672q0 -7 -9 -22q-71 -121 -100 -184q-44 -98 -64 -199q70 22 105 34q23 -3 23 -30q0 -30 -139 -62q-7 -45 -16 -135q1 -22 -2 -64q-6 -26 -26 -26q-29 0 -29 44q0 48 15 168q-96 -20 -205 -34q-73 -96 -168 -153q-105 -63 -215 -63q-147 0 -147 110q0 55 46 83 q30 17 97 29q57 10 358 45q50 74 96 170q51 106 66 181q3 26 6 53q7 34 29 34q28 0 28 -40q0 -122 -154 -389q94 13 173 31q46 253 181 434q10 13 22 13q11 0 20 -8.5t9 -19.5zM445 152l-162 -16q-96 -10 -162 -24q-35 -7 -49 -15q-24 -13 -24 -41q0 -54 96 -54 q164 0 301 150z" glyph-name="H" horiz-adv-x="907" unicode="H"/>
<glyph d="M519 593q0 -104 -95 -297q-158 -321 -298 -321q-121 0 -121 91q0 27 28 27q19 0 23 -16q8 -26 13 -31q14 -16 57 -16q66 0 151 118q73 101 132 243q57 137 57 203q0 57 -49 57q-50 0 -98 -53q-40 -46 -57 -101q-3 -21 -11 -63q-6 -29 -29 -29q-25 0 -25 33q0 95 64 178 q69 89 160 89q49 0 75 -33q23 -29 23 -79z" glyph-name="I" horiz-adv-x="481" unicode="I"/>
<glyph d="M491 607q0 -69 -35 -173q-31 -85 -62 -169q-79 -236 -135 -359q-120 -266 -214 -266q-58 0 -58 95q0 78 92 204q95 131 166 131q8 0 15 -4q179 459 179 534q0 45 -30 45q-54 0 -122 -173q-62 -158 -60 -227q0 -4 1.5 -13.5t1.5 -14.5q0 -32 -29 -32q-26 0 -26 62 q0 115 68 270q80 183 177 183q36 0 55 -30q16 -25 16 -63zM238 14q-58 -19 -129.5 -121.5t-71.5 -164.5q0 -35 21 -35q24 0 97 143q46 91 83 178z" glyph-name="J" horiz-adv-x="410" unicode="J"/>
<glyph d="M591 677q0 -6 -10 -19q-169 -214 -322 -269q16 -36 44 -131q25 -85 49 -130q41 -76 88 -114q22 -18 121 -76q18 -10 18 -24q0 -29 -23 -29q-8 0 -29 7q-137 46 -223 210q-21 41 -43 110q-29 91 -38 113q-38 -98 -84 -195q-74 -157 -100 -157q-11 0 -19.5 8t-8.5 19 q0 7 4 14q101 179 170 365l-12 -1q-41 -3 -41 33q0 20 15 39t34 19q20 0 31 -16q39 104 61 205q5 25 25 25q30 0 30 -29q0 -50 -57 -200q72 38 144 107q16 15 123 131q11 12 23 12q30 0 30 -27z" glyph-name="K" horiz-adv-x="579" unicode="K"/>
<glyph d="M617 602q0 -53 -37 -145q-43 -105 -86 -105q-12 0 -21 9t-9 21l25 34q28 40 45 77q25 55 25 103q0 56 -36 56q-43 0 -88 -111q-6 -14 -50 -152q-83 -256 -182 -357q76 -38 165 -38q53 0 116 28t61 28q28 0 28 -28q0 -38 -99 -62q-74 -19 -129 -19q-91 0 -189 54 q-52 -33 -118 -33q-105 0 -105 65q0 31 31 51q27 17 60 17q52 0 128 -38q88 78 181 350q18 60 36 119q27 81 59 123q42 57 100 57q42 0 67 -32q22 -29 22 -72zM94 25q-32 16 -64 16q-38 0 -38 -14q0 -9 45 -9q32 0 57 7z" glyph-name="L" horiz-adv-x="573" unicode="L"/>
<glyph d="M832 664q0 -10 -31 -84q-39 -93 -57 -153q-31 -99 -31 -169q0 -203 71 -342q10 -20 10 -29q0 -23 -30 -23q-12 0 -25 21q-80 129 -80 355q0 155 90 359q-85 -114 -187 -276q-1 -1 -174 -284q-25 -40 -27 -43q-20 -27 -40 -27q-25 0 -31 48q-1 11 -1 66q0 210 65 479 q-158 -376 -332 -581q-18 -21 -33 -21q-25 0 -25 25q0 11 16 32q137 177 254 411q17 33 53 126q31 81 56 123q16 27 39 27q17 0 28 -11t11 -28q0 -12 -17 -99q-61 -313 -69 -508q191 308 209 337q166 259 213 296q18 14 35 14t28.5 -12t11.5 -29z" glyph-name="M" horiz-adv-x="805" unicode="M"/>
<glyph d="M766 678q0 -10 -14 -27q-57 -70 -118 -247q-14 -44 -81 -272l-20 -74q-12 -43 -27 -70q-11 -19 -19 -25t-28 -6q-32 0 -36 45q-3 62 -11 188q-13 176 -41 394q-34 -123 -145 -322t-197 -288q-10 -10 -22 -10q-10 0 -18 7.5t-8 17.5q0 11 10 24q227 300 307 526 q13 47 26 93q22 67 48 67q30 0 43 -43q3 -11 13 -84q43 -325 47 -509q31 105 62 209q57 183 101 288q62 145 101 145q27 0 27 -27z" glyph-name="N" horiz-adv-x="669" unicode="N"/>
<glyph d="M632 438q0 -169 -128 -320q-134 -159 -299 -159q-94 0 -143 61q-45 57 -45 153q0 197 158 358.5t354 161.5q49 0 49 -28q0 -22 -28 -28q-14 -3 -79 -10q-48 -6 -79 -17q-137 -50 -228 -169q-93 -122 -93 -265q0 -70 31 -113q35 -49 103 -49q135 0 255 145 q115 139 115 278q0 109 -94 109q-134 0 -219 -170q-9 -18 -25 -18q-28 0 -28 25q0 27 25 67q92 149 254 149q144 0 144 -161z" glyph-name="O" unicode="O"/>
<glyph d="M544 554q0 -218 -230 -296q-56 -19 -89 -19q-43 0 -43 28q0 22 28 27q126 23 191 71q87 63 87 177q0 40 -15 71q-19 39 -55 39q-71 0 -155 -87q-75 -80 -98 -156q-23 -122 -46 -245q-42 -194 -88 -194q-36 0 -36 76t46 193q64 166 71 190q16 59 16 181q0 25 30 25 q32 0 24 -82q112 153 235 153q63 0 97 -46q30 -40 30 -106z" glyph-name="P" horiz-adv-x="404" unicode="P"/>
<glyph d="M696 518q0 -141 -155 -292q-117 -113 -282 -200q155 -112 319 -112q13 0 37.5 6t36.5 6q26 0 26 -29q0 -37 -107 -37q-185 0 -369 140q-65 -27 -112 -27q-35 0 -58 14q-29 18 -29 50q0 31 21.5 50t53.5 19q60 0 127 -43q160 78 279 186q157 144 157 278q0 54 -35 84.5 t-89 30.5q-88 0 -156 -67t-78 -155q-4 -37 -30 -37q-25 0 -25 33q0 109 88 195t198 86q87 0 134.5 -46t47.5 -133zM140 37q-26 14 -54 14q-25 0 -25 -12t27 -12q18 0 52 10z" glyph-name="Q" horiz-adv-x="656" unicode="Q"/>
<glyph d="M545 536q0 -140 -88.5 -238t-227.5 -108q80 -61 147 -129q102 -102 102 -151q0 -24 -28 -24q-12 0 -25 20q-38 60 -105 125q-60 55 -120 111q-37 36 -37 59q0 38 51 44q274 30 274 295q0 53 -13 76q-17 31 -66 31q-81 0 -149 -89q-55 -72 -78 -164q-55 -218 -60 -234 q-54 -187 -89 -187q-36 0 -36 48q0 56 42 156q35 76 69 152q33 81 41 237q0 21 3 62q5 27 27 27q28 0 28 -43q0 -2 -3 -40q89 130 206 130q68 0 104 -51q31 -44 31 -115z" glyph-name="R" horiz-adv-x="481" unicode="R"/>
<glyph d="M794 590q0 -77 -88 -131q-77 -47 -160 -47q-47 0 -47 26q0 25 40 29q76 7 128 30q74 34 74 95q0 58 -101 58q-96 0 -181 -47q-100 -56 -100 -144q0 -54 85 -85q79 -27 158 -55q85 -45 85 -133q0 -132 -153 -192q-108 -42 -266 -42q-261 0 -261 122q0 69 79 100 q56 22 139 22q50 0 95 -8q71 -12 71 -38q0 -10 -7 -19.5t-17 -9.5q-22 0 -66.5 10t-68.5 10q-163 0 -163 -64q0 -72 235 -72q102 0 200 40q125 51 125 137q0 68 -86 100q-79 26 -158 51q-86 40 -86 127q0 108 116 181q101 64 215 64q164 0 164 -115z" glyph-name="S" horiz-adv-x="710" unicode="S"/>
<glyph d="M596 679q0 -32 -63 -50q-36 -49 -66 -131l-48 -138q-119 -307 -218 -409q-13 -13 -25 -13q-28 0 -28 27q0 9 10 22q119 151 211 392q1 4 39 117q23 71 48 114q-144 -27 -186 -36q-105 -22 -184 -47q-23 -7 -23 -20q0 -16 47.5 -34t47.5 -36q0 -28 -31 -28q-39 0 -89 32 q-54 34 -54 71q0 42 77 64q95 27 440 100q21 38 47 38q17 0 32.5 -9.5t15.5 -25.5z" glyph-name="T" horiz-adv-x="485" unicode="T"/>
<glyph d="M784 630q0 -23 -56 -119q-75 -129 -105 -195q-56 -125 -56 -217q0 -44 16 -74q8 -16 29 -40q16 -18 16 -29q0 -9 -7.5 -16.5t-16.5 -7.5q-41 0 -69 67q-23 55 -23 103q0 30 4 54q-136 -192 -272 -192q-100 0 -100 95q0 63 53 160q48 85 97 171q53 101 53 172q0 79 -58 79 q-61 0 -118 -64q-48 -53 -71 -121l-18 -75q-7 -25 -26 -25q-29 0 -29 31q0 102 79 202q84 106 183 106q56 0 85.5 -34t29.5 -90q0 -77 -52 -184q-47 -88 -95 -176q-52 -97 -52 -150q0 -42 46 -42q78 0 185 125q82 96 132 197l76 180q63 135 107 135q33 0 33 -26z" glyph-name="U" horiz-adv-x="710" unicode="U"/>
<glyph d="M726 669q0 -92 -101.5 -264t-227.5 -300q-140 -141 -232 -141q-33 0 -51 25q-15 22 -15 56q0 65 45 161q42 85 85 170q45 102 45 181q0 89 -53 89q-63 0 -119 -70q-46 -57 -68 -130q-4 -25 -15 -73q-6 -24 -26 -24q-29 0 -29 30q0 109 77 212q83 110 188 110 q102 0 102 -128q0 -85 -45 -191l-82 -172q-45 -95 -45 -151q0 -40 33 -40q45 0 160 120q83 87 142 166q134 181 169 318l8 46q7 28 28 28q27 0 27 -28z" glyph-name="V" horiz-adv-x="630" unicode="V"/>
<glyph d="M935 659q0 -147 -121 -354q-112 -191 -239 -295q-43 -35 -88 -35q-66 0 -66 95q0 89 31 193q21 68 69 183q-86 -113 -226 -266q-188 -204 -240 -204q-24 0 -24 24q0 17 62 131q80 148 115 228q62 141 62 224q0 60 -54 60q-68 0 -130 -103q-54 -91 -58 -167q-2 -29 -3 -32 q-4 -18 -23 -18q-27 0 -27 46q0 97 65 205q73 121 163 121q124 0 124 -108q0 -96 -70 -253q-32 -72 -124 -241q188 178 337 375q28 42 87 124q20 26 40 26q15 0 24.5 -10.5t9.5 -25.5q0 -24 -39 -119q-53 -131 -71 -187q-39 -118 -39 -199q0 -41 24 -41q14 0 34 15 q97 73 198 236q99 158 128 281q5 38 9 75q9 54 32 54q28 0 28 -38z" glyph-name="W" horiz-adv-x="844" unicode="W"/>
<glyph d="M752 671q0 -15 -32 -30q-23 -11 -46 -21q-63 -38 -134 -130q-111 -142 -117 -148q5 -108 55 -218t127 -189q14 -14 14 -26q0 -25 -29 -25q-11 0 -27 14q-74 64 -127 179q-47 102 -63 212q-73 -83 -173 -178q-143 -138 -181 -138q-24 0 -24 26q0 13 16 26q49 36 143 113 q47 43 108 109q52 56 104 113q0 26 1 78v78q0 66 -1 78q-6 57 -33 57q-45 0 -85 -33q-20 -16 -57 -61q-27 -33 -39 -33q-26 0 -26 24q0 10 12 28q87 129 194 129q56 0 76 -51q13 -32 13 -99q0 -23 -2 -68.5t-2 -68.5q118 149 138 170q104 113 173 113q24 0 24 -30z" glyph-name="X" horiz-adv-x="634" unicode="X"/>
<glyph d="M686 546q0 -33 -32 -93l-226 -427q-90 -175 -197 -264q-130 -110 -304 -110q-38 0 -42 1q-21 5 -21 31q0 15 19 20q4 1 31 3q159 12 263 84q84 59 157 180q66 121 131 242q-103 -104 -155 -146q-108 -87 -182 -87q-69 0 -69 79q0 56 59 170l110 200q59 115 59 174 q0 39 -37 39q-68 0 -126 -88q-52 -80 -52 -153q0 -4 1 -13t1 -14q0 -25 -27 -25q-30 0 -30 52q0 103 65 194q71 101 170 101q102 0 102 -86q0 -70 -61 -187q-56 -97 -113 -195q-61 -106 -61 -148q0 -33 29 -33q66 0 222 147q141 133 185 211q20 49 41 97q32 73 57 73 q33 0 33 -29z" glyph-name="Y" unicode="Y"/>
<glyph d="M525 586q0 -141 -232 -225q68 0 111 -52q39 -48 39 -118q0 -88 -54 -194t-135 -177q-90 -77 -180 -77q-52 0 -82 30t-30 83q0 88 57 181q64 105 146 105q32 0 32 -28q0 -20 -28 -28l-46 -14q-45 -26 -79 -93q-31 -63 -31 -118q0 -69 61 -69q106 0 213 147 q102 140 102 250q0 67 -47 99q-25 17 -89 32q-47 12 -47 29q0 25 69 58q105 52 128 68q69 48 69 107q0 67 -77 67q-136 0 -230 -139q-14 -20 -32 -20q-24 0 -24 27q0 15 26 51q98 135 257 135q133 0 133 -117z" glyph-name="Z" horiz-adv-x="495" unicode="Z"/>
<glyph d="M281 685q0 -26 -19 -26q-12 0 -36.5 5.5t-37.5 5.5q-20 0 -26 -16q-39 -104 -75 -317q-36 -209 -36 -325q0 -26 5 -31.5t31 -5.5t36 8q14 -1 25 -11t11 -23q0 -30 -97 -30q-40 0 -54 13t-14 51q0 295 120 698q13 43 73 43q43 0 58 -3q36 -8 36 -36z" glyph-name="bracketleft" horiz-adv-x="251" unicode="["/>
<glyph d="M387 -33q0 -26 -30 -26q-14 0 -23 16q-25 46 -53 126q-41 118 -46 129q-106 266 -191 430q-12 23 -12 31q0 11 9 19t20 8q12 0 22 -14q35 -51 169.5 -369.5t134.5 -349.5z" glyph-name="backslash" horiz-adv-x="393" unicode="\"/>
<glyph d="M279 660q0 -295 -120 -698q-13 -43 -73 -43q-43 0 -58 3q-36 8 -36 36q0 26 19 26q12 0 36 -5.5t37 -5.5q21 0 27 16q39 104 75 317q36 209 36 325q0 26 -5 31.5t-31 5.5t-36 -8q-14 1 -25 11t-11 23q0 30 97 30q40 0 54 -13t14 -51z" glyph-name="bracketright" horiz-adv-x="251" unicode="]"/>
<glyph d="M352 386q0 -13 -8.5 -23t-20.5 -10q-18 0 -56 97.5t-52 97.5q-13 0 -73.5 -104.5t-81.5 -104.5q-27 0 -27 27q0 31 78.5 138.5t105.5 107.5q34 0 86 -96q49 -90 49 -130z" glyph-name="asciicircum" horiz-adv-x="377" unicode="^"/>
<glyph d="M369 -44q0 -18 -17 -18h-352q-17 0 -17 18q0 19 17 19h352q17 0 17 -19z" glyph-name="underscore" horiz-adv-x="339" unicode="_"/>
<glyph d="M206 490q0 -29 -24 -29q-10 0 -66 40q-67 48 -73 51q-17 9 -17 23q0 12 8 21t19 9q22 0 87.5 -48t65.5 -67z" glyph-name="grave" horiz-adv-x="229" unicode="`"/>
<glyph d="M474 126q0 -39 -96 -99q-91 -57 -135 -57q-21 0 -36 16.5t-15 37.5q-65 -59 -129 -59q-89 0 -89 110q0 138 113 231q106 88 247 88q54 0 54 -28q0 -24 -40 -27q-112 -7 -177 -40q-81 -41 -122 -133q-23 -51 -23 -95q0 -51 43 -51q49 0 122 91q50 61 91 136q20 36 39 36 q24 0 24 -24q0 -26 -49 -108t-49 -107q0 -18 11 -18q33 0 106 64t86 64q24 0 24 -28z" glyph-name="a" horiz-adv-x="448" unicode="a"/>
<glyph d="M437 127q0 -25 -36 -42q-30 -15 -58 -15q-20 0 -46 13q-71 -115 -170 -115q-93 0 -93 111q0 21 4 48q-22 -27 -38 -27q-27 0 -27 28q0 3 40 53q45 55 48 60q97 470 206 470q45 0 45 -74q0 -58 -58 -179q-44 -92 -95 -170q-20 -24 -48 -73q-18 -49 -18 -127q0 -65 38 -65 q66 0 117 98q-49 55 -49 134q0 50 19 87q25 46 70 46q73 0 73 -90q0 -69 -39 -165q13 -8 27 -8q20 0 34 14t26 14q28 0 28 -26zM261 627q0 18 -12 18q-15 0 -55 -122q-34 -105 -43 -153q110 203 110 257zM305 303q0 29 -18 29q-36 0 -36 -74q0 -47 23 -80q31 81 31 125z" glyph-name="b" horiz-adv-x="410" unicode="b"/>
<glyph d="M382 126q0 -9 -11 -22q-119 -137 -250 -137q-64 0 -103.5 38t-39.5 103q0 88 66 179q72 97 156 97q42 0 72 -22q34 -24 34 -65q0 -46 -31 -46q-27 0 -27 19q0 4 2 12t2 12q0 16 -14.5 26t-30.5 10q-62 0 -120 -78q-54 -73 -54 -138q0 -42 24 -67t65 -25q51 0 107 34 q33 21 81 64q38 34 45 34q10 0 18.5 -9t8.5 -19z" glyph-name="c" horiz-adv-x="355" unicode="c"/>
<glyph d="M578 633q0 -82 -69 -205q-40 -69 -124 -184q-20 -25 -41 -50q-25 -31 -35 -53q-24 -53 -24 -101q0 -14 7 -14q29 0 97 64t75 64q11 0 19.5 -8.5t8.5 -19.5q0 -31 -89 -92.5t-125 -61.5q-48 0 -48 76q-79 -81 -157 -81q-105 0 -105 126q0 110 75.5 193.5t185.5 83.5 q48 0 87 -24q24 65 47 131q37 97 72 149q48 71 102 71q41 0 41 -64zM528 625q0 19 -10 19q-43 0 -150 -328q160 226 160 309zM296 292q-27 23 -66 23q-78 0 -142 -62.5t-64 -140.5q0 -90 49 -90q40 0 98 49q45 38 79 83q17 61 46 138z" glyph-name="d" horiz-adv-x="464" unicode="d"/>
<glyph d="M357 126q0 -11 -15 -28q-120 -133 -235 -133q-134 0 -134 152q0 79 54 164q61 94 135 94q77 0 77 -64q0 -40 -54 -70q-50 -25 -101 -49q-54 -34 -54 -86q0 -88 75 -88q48 0 100 35q29 19 79 66q37 35 48 35q10 0 17.5 -9t7.5 -19zM183 305q0 15 -18 15q-36 0 -76 -48 q-33 -39 -48 -81q46 20 85 46q57 38 57 68z" glyph-name="e" horiz-adv-x="333" unicode="e"/>
<glyph d="M376 647q0 -71 -87 -198q-67 -92 -135 -184q-37 -53 -125 -279q-90 -229 -90 -276q0 -45 28 -45q36 0 60 37q22 32 22 70q0 26 -9 78t-9 79q0 74 50 115q135 110 142 110q11 0 19.5 -8t8.5 -19q0 -21 -60 -69q-41 -30 -81 -60q-28 -21 -28 -62q0 -29 8.5 -84t8.5 -83 q0 -58 -33 -106q-37 -53 -92 -53q-89 0 -89 95q0 68 54 205l86 204q-12 -14 -24 -14q-27 0 -27 28q0 12 58 79q37 42 73 83q52 163 86 239q77 170 150 170q17 0 26 -16.5t9 -35.5zM328 641q0 9 -5 9q-10 0 -58 -100q-42 -86 -55 -122q118 159 118 213z" glyph-name="f" horiz-adv-x="224" unicode="f"/>
<glyph d="M439 126q0 -32 -106 -102q-69 -44 -140 -81q-64 -169 -71 -185q-62 -134 -115 -134q-56 0 -56 60q0 63 73 159q55 73 124 133l25 54q-53 -60 -113 -60q-44 0 -67 43q-19 35 -19 82q0 126 100 203q91 71 221 71q48 0 48 -27q0 -26 -46 -28q-110 -5 -182 -52 q-88 -56 -88 -158q0 -81 48 -81q39 0 88 71q13 18 78 131q41 71 59 71q28 0 28 -27q0 -30 -100 -247q59 29 164 123q10 9 19 9q11 0 19.5 -8.5t8.5 -19.5zM106 -133q-106 -131 -106 -184q0 -10 5 -13q20 8 58 89q30 66 43 108z" glyph-name="g" horiz-adv-x="411" unicode="g"/>
<glyph d="M575 127q0 -31 -89.5 -93t-124.5 -62q-61 0 -61 68q0 52 58 154t58 117q0 14 -13 14q-32 0 -124 -78q-88 -73 -108 -109q-18 -44 -37 -88q-29 -64 -53 -64q-32 0 -32 25q0 22 41 115l56 120q-36 -40 -72 -81q-59 -64 -72 -64q-26 0 -26 28q0 12 107 128q64 69 129 138 q40 132 61 180q55 126 114 126q52 0 52 -70q0 -84 -181 -268q-23 -58 -53 -122q46 51 99 88q70 49 120 49q49 0 49 -51q0 -45 -58 -144.5t-58 -138.5q0 -20 14 -20q25 0 97 65.5t83 65.5q9 0 16.5 -9t7.5 -19zM388 634q0 19 -7 19q-18 0 -55 -86q-27 -63 -41 -109 q103 120 103 176z" glyph-name="h" horiz-adv-x="546" unicode="h"/>
<glyph d="M263 503q0 -17 -27 -29q-23 -10 -42 -10q-37 0 -37 38q0 21 13.5 39.5t33.5 18.5t39.5 -18.5t19.5 -38.5zM272 127q0 -33 -87 -93t-129 -60q-59 0 -59 58q0 38 15 72q-12 -4 -17 -4q-10 0 -18 7.5t-8 17.5q0 12 12 23t85 114q63 90 81 90q10 0 18.5 -8.5t8.5 -18.5 q0 -12 -61.5 -130t-61.5 -155q0 -14 13 -14q28 0 101.5 64.5t79.5 64.5q10 0 18.5 -8.5t8.5 -19.5z" glyph-name="i" horiz-adv-x="245" unicode="i"/>
<glyph d="M299 535q0 -35 -60 -35q-37 0 -37 36q0 19 13 35.5t32 16.5q18 0 35 -17.5t17 -35.5zM271 127q0 -29 -86 -90q-63 -46 -116 -73q-19 -61 -37 -122q-30 -91 -59 -139q-41 -67 -89 -67q-23 0 -37 28q-10 22 -10 48q0 79 60 162q52 72 128 123q25 67 74 201q-85 -96 -99 -96 q-27 0 -27 27q0 5 71 91q42 51 84 101q29 37 54 37q28 0 28 -28q0 -13 -50 -137q-62 -151 -63 -153q13 7 79 63q61 51 66 51q29 0 29 -27zM-9 -97q-37 -36 -63 -85q-30 -55 -30 -99q0 -7 6 -13q16 2 49 88q19 55 38 109z" glyph-name="j" horiz-adv-x="245" unicode="j"/>
<glyph d="M532 127q0 -6 -8 -18q-45 -55 -98 -91q-67 -46 -124 -46q-58 0 -96 45t-38 104q0 28 57 57q98 50 105 55q57 39 57 92q0 29 -28 29q-40 0 -88 -34q-42 -29 -70 -67q-30 -41 -58 -113q-46 -117 -47 -120q-10 -21 -15 -26q-8 -7 -28 -7q-25 0 -25 20q0 31 72 188 q-80 -95 -99 -95q-11 0 -19.5 9t-8.5 19q0 12 92 109q98 103 110 126q39 99 78 197q63 145 118 145q45 0 45 -58q0 -87 -174 -287q62 49 115 49q90 0 90 -75q0 -72 -78 -137q-68 -58 -146 -75q4 -37 23 -64q22 -32 56 -32q36 0 83 33q26 18 73 60q36 33 44 33q30 0 30 -25z M370 646l-4 7l-8 -6q-32 -52 -71 -158q21 29 49 78q34 60 34 79z" glyph-name="k" horiz-adv-x="503" unicode="k"/>
<glyph d="M369 643q0 -161 -263 -435q-40 -130 -40 -163q0 -14 5 -18q26 -1 98 63t78 64q11 0 20 -8.5t9 -19.5q0 -30 -85.5 -91.5t-119.5 -61.5q-59 0 -59 69q0 31 10 68q-8 -10 -21 -10q-28 0 -28 28q0 8 39 51q24 27 48 53q73 206 103 272q91 195 171 195q35 0 35 -56zM319 644 q-33 -23 -88 -133q-42 -83 -69 -155q155 194 157 288z" glyph-name="l" horiz-adv-x="249" unicode="l"/>
<glyph d="M789 127q0 -34 -84 -94t-123 -60q-66 0 -66 59q0 32 46 129q55 119 61 136q-89 -39 -174 -134q-55 -60 -135 -177q-40 0 -40 26q0 14 47.5 129.5t48.5 157.5q-103 -56 -174 -132q-63 -67 -126 -179q-42 -2 -42 32q0 21 22 77q17 39 33 79q-62 -76 -82 -76q-11 0 -19.5 9 t-8.5 19q0 9 7 17.5t79 88.5q47 52 73 93q11 17 28 17q22 0 22 -17q0 -30 -24 -121q37 41 103 90q80 60 116 60q44 0 44 -57q0 -40 -28 -115q50 57 110 106q83 66 130 66q48 0 48 -45t-51.5 -152.5t-51.5 -118.5q0 -12 12 -12q28 0 95.5 63t75.5 63q11 0 19.5 -8t8.5 -19z " glyph-name="m" horiz-adv-x="763" unicode="m"/>
<glyph d="M527 126q0 -33 -85 -93t-121 -60q-47 0 -47 35q0 18 46.5 133.5t47.5 160.5q-104 -57 -175 -133q-66 -70 -123 -181q-42 -2 -42 32q0 14 24 75q29 76 31 81q-66 -76 -82 -76q-28 0 -28 26q0 9 7 19q12 15 78 89q48 53 74 93q11 17 25 17q25 0 25 -17q0 -30 -24 -121 q37 41 103 90q80 60 116 60q44 0 44 -57q0 -38 -36 -137q-28 -76 -56 -136q29 1 98.5 64.5t73.5 63.5q26 0 26 -28z" glyph-name="n" horiz-adv-x="503" unicode="n"/>
<glyph d="M430 128q0 -23 -35 -39q-29 -13 -56 -13q-17 0 -37 5q-80 -114 -190 -114q-66 0 -101.5 41t-35.5 108q0 100 64 176q68 79 166 79q87 0 87 -35q0 -13 -9 -22q38 0 60 -24.5t22 -62.5q0 -55 -30 -96q24 -1 43 10.5t24 11.5q10 0 19 -7.5t9 -17.5zM310 228q0 31 -29 31 q-39 0 -39 -38q0 -43 41 -71q27 41 27 78zM252 106q-64 49 -64 113q0 30 17 55.5t45 34.5q-21 7 -45 7q-71 0 -123.5 -58t-52.5 -130q0 -106 85 -106q74 0 138 84z" glyph-name="o" horiz-adv-x="402" unicode="o"/>
<glyph d="M549 127q0 -38 -96.5 -97.5t-161.5 -59.5q-11 0 -20 2q-21 -10 -53 -10q-97 0 -97 45q0 18 14 34t32 16q10 0 33 -15q28 -18 35 -20q63 10 117 76.5t54 130.5q0 79 -80 79q-48 0 -101 -39.5t-74 -85.5q-38 -82 -84 -245q-47 -169 -80 -244q-8 -18 -26 -18q-39 0 -39 18 q0 40 162 481q-70 -75 -83 -75q-11 0 -19.5 8t-8.5 19q0 9 7 18q44 50 89 101q51 59 76 110l10 2q30 0 30 -22q0 -5 -5 -33q70 60 148 60q62 0 97.5 -40.5t35.5 -103.5q0 -91 -94 -181q69 36 128 99q16 17 26 17q11 0 19.5 -8t8.5 -19z" glyph-name="p" horiz-adv-x="522" unicode="p"/>
<glyph d="M465 128q0 -32 -92 -96q-81 -56 -125 -70l-6 -7q0 -6 1 -19.5t1 -20.5q0 -74 -36 -150q-44 -93 -110 -93q-57 0 -57 61q0 51 46 142q2 6 75 137q-61 -43 -107 -43q-91 0 -91 100q0 129 116 216q107 81 239 81q46 0 46 -28q0 -23 -28 -27q-41 -2 -123 -16 q-76 -21 -132 -79q-62 -64 -62 -138q0 -55 47 -55q52 0 103 61q22 27 74 114q36 61 54 61q24 0 24 -25v-7q-4 -8 -132 -260q-100 -197 -100 -229q0 -7 12 -7q2 1 5 1.5t5 1.5q53 26 69 92l16 114q11 62 52 80q47 21 90 55q17 14 78 70q11 10 20 10q28 0 28 -27z" glyph-name="q" horiz-adv-x="437" unicode="q"/>
<glyph d="M400 126q0 -30 -91.5 -91.5t-125.5 -61.5q-56 0 -56 61q0 35 52 125q60 104 69 132q-20 0 -73 20q-19 -39 -81 -120q-70 -93 -93 -93q-11 0 -20 10t-9 21q0 8 9 19q104 100 149 180q-21 15 -21 35q0 16 13 26.5t29 10.5q38 0 43 -42q32 -7 65 -15q43 -12 43 -39 q0 -28 -60 -138t-60 -130q0 -9 13 -9q25 0 95.5 63t78.5 63q11 0 21 -8t10 -19z" glyph-name="r" horiz-adv-x="371" unicode="r"/>
<glyph d="M381 126q0 -10 -8 -18q-52 -62 -128 -101q-80 -41 -158 -41q-106 0 -106 41q0 30 34 30q19 0 54.5 -6.5t53.5 -6.5q29 0 48 12q10 24 10 82q0 75 -22 142q-24 -32 -78 -89q-66 -71 -81 -71q-11 0 -19 8.5t-8 18.5q0 9 72 88q80 88 88 100q-18 27 -18 40q0 36 44 36 q40 0 40 -38q0 -15 -7 -34q46 -97 46 -204q0 -29 -4 -52q6 4 63 50q50 41 56 41q28 0 28 -28z" glyph-name="s" horiz-adv-x="354" unicode="s"/>
<glyph d="M377 463q0 -25 -64 -32q-19 -2 -85 -2q-147 -275 -147 -362q0 -44 43 -44q41 0 115.5 65.5t82.5 65.5q28 0 28 -27q0 -35 -93 -97t-139 -62q-96 0 -96 87q0 32 12 71q-22 -22 -34 -22q-11 0 -19 8.5t-8 18.5q0 11 8 20q114 131 184 277h-68q-48 5 -48 28q0 31 45 31 q17 0 50.5 -2.5t49.5 -2.5q70 157 96 157q30 0 30 -23q0 -22 -59 -132q12 0 38 4t40 4q38 0 38 -29z" glyph-name="t" horiz-adv-x="322" unicode="t"/>
<glyph d="M562 134q0 -39 -85 -100t-129 -61q-67 0 -67 75q0 28 12 62q-127 -134 -219 -134q-57 0 -57 55q0 43 35 117q-39 -43 -56 -43q-25 0 -25 24q0 11 10 21q99 102 171 197l10 4q25 -2 25 -20q0 -2 -60.5 -126.5t-60.5 -161.5q0 -18 12 -18q72 0 153 82q50 50 120 152 q56 82 66 82q28 0 28 -23q0 -4 -57 -108.5t-57 -153.5q0 -36 26 -36q35 0 107 69.5t76 69.5q22 0 22 -25z" glyph-name="u" horiz-adv-x="541" unicode="u"/>
<glyph d="M498 128q0 -28 -41 -48q-35 -18 -67 -18q-40 0 -64 24.5t-24 65.5q-44 -59 -98 -111q-77 -74 -117 -74q-24 0 -36 48q-9 34 -9 69q0 33 8 70q-32 -51 -58 -51q-23 0 -23 22q0 10 15 24q66 63 104 151q20 46 36 46q32 0 32 -23q0 -7 -17 -41q-49 -98 -49 -210 q0 -50 12 -50q33 0 111 93q54 64 95 127q18 111 60 111q34 0 34 -35q0 -26 -28.5 -72.5t-28.5 -83.5q0 -22 13 -37t34 -15q31 0 52 21.5t30 21.5q24 0 24 -25z" glyph-name="v" horiz-adv-x="470" unicode="v"/>
<glyph d="M728 128q0 -28 -41 -48q-34 -18 -65 -18q-41 0 -65 24.5t-24 65.5q-40 -52 -112 -110q-86 -69 -133 -69q-26 0 -42.5 18.5t-16.5 44.5q0 16 6 31q-77 -91 -167 -91q-51 0 -51 55q0 43 35 117q-39 -43 -56 -43q-25 0 -25 24q0 9 10 21q75 75 123 138q14 22 42 58q6 5 16 5 q24 0 24 -19q0 -6 -60 -129t-60 -160q0 -18 12 -18q61 0 128 82q36 44 98 152q47 82 61 82q28 0 28 -23q0 -4 -57.5 -108.5t-57.5 -153.5q0 -36 27 -36q41 0 127 91q68 72 106 131q18 111 60 111q34 0 34 -35q0 -26 -28.5 -72.5t-28.5 -83.5q0 -22 13 -37t34 -15 q31 0 52 21.5t30 21.5q24 0 24 -25z" glyph-name="w" horiz-adv-x="704" unicode="w"/>
<glyph d="M552 127q0 -33 -89.5 -94t-126.5 -61q-38 0 -69 121q-31 -28 -83 -71q-70 -56 -80 -56q-11 0 -19.5 9.5t-8.5 20.5q0 13 80 79q49 40 99 80q-26 150 -39 150q-14 0 -106 -102.5t-108 -102.5q-26 0 -26 27q0 24 110 129t139 105q32 0 55 -66q15 -42 22 -94q40 44 80 89 q64 71 75 71t20 -9t9 -20q0 -16 -75 -97q-62 -67 -97 -98q26 -111 39 -111q21 0 92 64t78 64q11 0 20 -8t9 -19z" glyph-name="x" horiz-adv-x="525" unicode="x"/>
<glyph d="M530 127q0 -34 -107 -105q-67 -44 -143 -84q-30 -68 -60 -135q-37 -80 -67 -132q-25 -43 -69 -43q-58 0 -58 79q0 90 67 161q39 43 142 110q17 41 54 121q-41 -37 -89 -67q-64 -40 -101 -40q-49 0 -49 78q0 40 19 87q-16 -17 -33 -33q-24 -24 -36 -24q-10 0 -18.5 8.5 t-8.5 18.5t71 89q81 90 87 98q23 32 32 32q26 0 26 -27q0 -13 -42.5 -108t-42.5 -140q0 -20 13 -20q5 0 13 4q81 27 155 116q58 80 115 160q4 6 14 6q9 0 19.5 -6.5t10.5 -15.5q0 -18 -54 -140q-43 -96 -70 -150q62 27 161 119q11 10 22 10q10 0 18.5 -8.5t8.5 -18.5z M190 -121q-111 -88 -111 -161q0 -24 12 -24q21 0 99 185z" glyph-name="y" horiz-adv-x="503" unicode="y"/>
<glyph d="M469 127q0 -22 -111 -108q-69 -53 -139 -106q-2 -87 -30 -161q-37 -102 -105 -102q-48 0 -48 60q0 57 43 126q36 56 88 104q-2 27 -9 51q-31 -11 -55 -11q-22 0 -36 15.5t-14 37.5q0 24 15.5 41t38.5 17q42 0 73 -31q51 29 99 92q53 69 53 120q0 41 -31 41 q-59 0 -129 -55q-39 -31 -106 -103q-52 -55 -64 -55q-11 0 -20 9t-9 20q0 8 7 18q82 95 143 143q96 76 180 76q86 0 86 -84q0 -72 -58 -154q-54 -75 -122 -115l7 -31q71 51 205 163q11 10 20 10q11 0 19.5 -8.5t8.5 -19.5zM134 33q-6 6 -16 6t-16 -6q7 -7 16 -7t16 7z M162 -143q-67 -78 -66 -128l7 -7q31 0 59 135z" glyph-name="z" horiz-adv-x="441" unicode="z"/>
<glyph d="M333 699q0 -17 -21 -25q-68 -26 -96 -58q-30 -35 -41 -105q-10 -63 -30 -97t-70 -72q43 -44 43 -109q0 -29 -12 -86t-12 -86q0 -45 19 -65q8 -8 36 -19q19 -8 19 -25q0 -28 -29 -28q-44 0 -74 46q-26 40 -26 86q0 31 11.5 91t11.5 91q0 30 -14 55l-28 50q9 20 37.5 50.5 t37.5 46.5q18 31 25 77q11 71 58 135q54 75 118 75q37 0 37 -28z" glyph-name="braceleft" horiz-adv-x="311" unicode="{"/>
<glyph d="M190 746l-114 -778q-3 -23 -26 -23q-28 0 -28 28l1 8l113 778q3 23 27 23q32 0 27 -36z" glyph-name="bar" horiz-adv-x="229" unicode="|"/>
<glyph d="M324 306q-55 -45 -80 -83q-31 -45 -41 -108q-11 -70 -58 -131q-54 -71 -118 -71q-37 0 -37 29q0 16 21 25q70 30 96 58q29 33 41 105q10 63 33 102t72 76q-32 35 -38 47q-10 19 -10 60q0 28 12 82.5t12 81.5q0 46 -19 66q-8 8 -36 19q-19 8 -19 25q0 28 30 28 q43 0 73 -46q26 -40 26 -86q0 -29 -11.5 -86.5t-11.5 -87.5q0 -31 21 -56.5t42 -48.5z" glyph-name="braceright" horiz-adv-x="311" unicode="}"/>
<glyph d="M417 350q0 -31 -52 -55q-44 -20 -80 -20q-32 0 -70.5 30t-56.5 30q-24 0 -53.5 -30.5t-42.5 -30.5q-10 0 -18.5 8.5t-8.5 19.5q0 27 46 58q43 29 74 29q44 0 81.5 -30t59.5 -30q29 0 58 24.5t35 24.5q11 0 19.5 -8.5t8.5 -19.5z" glyph-name="asciitilde" horiz-adv-x="432" unicode="~"/>
<glyph glyph-name="nonbreakingspace" horiz-adv-x="311" unicode=" "/>
<glyph d="M306 592q0 -23 -15.5 -43t-37.5 -20q-21 0 -40.5 21t-19.5 43q0 15 19 15q32 17 60 17q34 0 34 -33zM236 455q0 -30 -88.5 -259.5t-111.5 -263.5q-10 -14 -22 -14q-11 0 -20 8t-9 19q0 8 3 13q76 166 148 370q14 42 28 85q24 63 43 63q10 0 19.5 -6t9.5 -15z" glyph-name="exclamdown" horiz-adv-x="317" unicode="¡"/>
<glyph d="M421 230q0 -44 -95 -104.5t-161 -60.5q-9 0 -17 2q-16 -47 -33 -94q-28 -73 -47 -73q-12 0 -21.5 8.5t-9.5 20.5q0 6 26 73q24 61 32 80q-76 37 -76 141q0 105 73 188q76 87 179 85q13 35 25 71q22 53 39 53q12 0 21 -8t9 -19q0 -15 -43 -113q35 -20 35 -58 q0 -47 -20 -47q-10 0 -23 6.5t-13 15.5q0 4 3 10t3 9q0 9 -6 15q-42 -103 -130 -310q56 4 109 40q32 21 73 63q32 33 39 33q11 0 20 -8t9 -19zM248 445q-73 -7 -125 -79q-49 -67 -49 -143q0 -66 42 -93z" glyph-name="cent" horiz-adv-x="355" unicode="¢"/>
<glyph d="M605 580q0 -42 -21 -92q-26 -59 -62 -59q-11 0 -20.5 8.5t-9.5 19.5q0 4 31 37t31 74q0 29 -13 57q-17 34 -43 34q-33 0 -52 -33q-10 -18 -22 -63q-17 -65 -78 -238q13 0 37.5 4.5t36.5 4.5q39 0 39 -31q0 -20 -24 -24q-63 -10 -112 -10q-66 -166 -144 -250 q76 -35 139 -35q65 0 148 32.5t77 32.5q11 0 19.5 -8.5t8.5 -19.5q0 -39 -112 -68q-88 -23 -145 -23q-81 0 -181 49q-51 -37 -114 -37q-37 0 -61 16q-29 18 -29 53q0 31 27 52q25 18 57 18q43 0 113 -36q69 63 136 221q-11 0 -33 -2t-33 -2q-38 0 -38 28q0 25 53 30h75 q54 144 81 252q35 140 127 140q49 0 80 -40.5t31 -91.5zM74 10q-32 17 -60 17q-34 0 -34 -16q0 -14 31 -14q34 0 63 13z" glyph-name="sterling" horiz-adv-x="618" unicode="£"/>
<glyph d="M693 640q0 -17 -120 -181q-83 -114 -146 -195q11 0 34 1h33q46 0 46 -27q0 -26 -62 -31q-47 -2 -94 -5q-4 -6 -12.5 -19t-12.5 -20h52h52q33 -5 33 -29q0 -30 -80 -30q-19 0 -49.5 2t-35.5 2q-69 -131 -79 -150q-68 -119 -90 -119q-12 0 -21 8.5t-9 20.5l138 241h-40 q-47 0 -47 28q0 30 58 30q12 0 32 -1.5t24 -1.5q5 10 17 30q-12 0 -42.5 -3t-46.5 -3q-38 0 -38 27q0 25 27 28q47 3 139 12q9 11 25.5 33t24.5 33h-5q-4 -1 -6 -1l-8 1q-43 1 -61 70q-3 10 -53 164q-40 124 -40 149q0 26 29 26q18 0 25 -20q21 -57 48 -152q34 -120 44 -153 q7 -22 25 -22q36 0 93 73q6 7 96 136q52 73 71 73q32 0 32 -25z" glyph-name="yen" unicode="¥"/>
<glyph d="M467 244q0 -146 -153 -179q52 -49 52 -112q0 -69 -45 -116t-114 -47q-36 0 -87 26q-57 29 -57 60q0 11 9 19.5t20 8.5q6 0 43 -29.5t68 -29.5q48 0 77.5 32t29.5 80q0 50 -63 92q-58 36 -116 73q-63 50 -63 120t40 112.5t110 52.5q-74 47 -74 122q0 70 47 117.5t117 47.5 q33 0 84 -20q59 -24 59 -51q0 -25 -27 -25q-6 0 -48 20.5t-66 20.5q-46 0 -77 -26q-34 -29 -34 -74q0 -58 69 -99q65 -36 130 -71q69 -49 69 -125zM412 247q0 69 -128 118q-63 0 -107 -24q-54 -31 -54 -88q0 -50 48 -91q39 -35 93 -50q74 9 107 35q41 31 41 100z" glyph-name="section" horiz-adv-x="500" unicode="§"/>
<glyph d="M311 504q0 -17 -26 -29q-22 -11 -41 -11q-41 0 -41 38q0 21 13.5 39.5t33.5 18.5q19 0 40 -18t21 -38zM134 504q0 -17 -28 -30q-23 -10 -43 -10q-37 0 -37 38q0 21 13.5 39.5t33.5 18.5q19 0 40 -18.5t21 -37.5z" glyph-name="dieresis" horiz-adv-x="317" unicode="¨"/>
<glyph d="M546 347q0 -112 -77 -179q-73 -64 -186 -64q-101 0 -164 57t-63 158q0 114 80 193t194 79q97 0 159 -74q57 -70 57 -170zM523 343q0 91 -51 156q-55 70 -143 70q-104 0 -177.5 -73t-73.5 -177q0 -93 59 -144q55 -49 149 -49q103 0 168 56q69 59 69 161zM441 305l-2 -6 q-76 -81 -159 -81q-51 0 -81.5 30t-30.5 81q0 53 39 100.5t91 47.5q22 0 50.5 -17t28.5 -38q0 -12 -13 -12q-2 1 -22 25q-16 20 -49 20q-39 0 -71 -42t-32 -82q0 -39 25 -64.5t64 -25.5q43 0 79 21q22 13 66 52l6 2q11 0 11 -11z" glyph-name="copyright" horiz-adv-x="607" unicode="©"/>
<glyph d="M369 459q0 -23 -56.5 -58.5t-83.5 -35.5q-12 0 -21 10t-9 22q-38 -35 -78 -35q-53 0 -53 70q0 81 69 137q64 52 147 52q33 0 33 -16t-24 -18q-81 -6 -133 -42q-62 -43 -62 -120q0 -30 26 -30q29 0 63 41q15 18 52 77q27 41 37 41q14 0 14 -15q0 -17 -29.5 -66t-29.5 -64 q0 -10 7 -10q21 0 64.5 38.5t51.5 38.5q15 0 15 -17zM358 312q0 -20 -26 -22q-119 -10 -260 -10q-31 0 -37 1q-24 4 -24 21q0 21 26 23q36 0 106 2q17 1 77 4q47 3 76 3h38q24 -4 24 -22z" glyph-name="ordfeminine" horiz-adv-x="344" unicode="ª"/>
<glyph d="M608 458q0 -22 -173 -98.5t-173 -93.5q0 -32 126 -120t126 -101q0 -11 -8.5 -20t-19.5 -9q-21 0 -130 86q-105 83 -125 110q-24 32 -24 62q0 29 179 123q171 90 195 90q27 0 27 -29zM409 469q0 -22 -173 -98.5t-173 -93.5q0 -32 126.5 -120t126.5 -101q0 -11 -9 -20 t-20 -9q-21 0 -129 86q-105 83 -125 110q-24 32 -24 62q0 29 178 123q171 90 195 90q27 0 27 -29z" glyph-name="guillemotleft" horiz-adv-x="612" unicode="«"/>
<glyph d="M293 644q-29 -56 -71 -182q-7 -29 -30 -86l-9 -6q-12 0 -12 9q0 7 34 103q33 92 42 114q-36 -21 -53 -21q-12 0 -12 12q0 3 27.5 15.5t32.5 17.5q9 10 18 21q13 15 20 15q9 0 13 -12zM328 329q0 -11 -27 -11q-32 0 -96.5 -3t-96.5 -3q-39 0 -36 0q-26 2 -26 13t26 11 q33 0 98.5 3t97.5 3q39 0 35 0q25 -2 25 -13zM246 234q0 -44 -99 -116q30 -44 30 -68q0 -27 -19 -45t-46 -18q-54 0 -54 44q0 47 59 91q-49 53 -49 88q0 37 39 56q30 15 72 15q58 0 58 -19q0 -12 -10 -12l-5 1q-12 8 -45 8q-85 0 -85 -49q0 -24 42 -74q46 34 54 42 q19 19 37 59q4 8 10 8q11 0 11 -11zM155 55q0 21 -25 50q-50 -40 -50 -71q0 -25 32 -25q43 0 43 46z" glyph-name="logicalnot" horiz-adv-x="333" unicode="¬"/>
<glyph d="M490 531q0 -84 -52.5 -131.5t-137.5 -47.5q-67 0 -112 35q-48 39 -48 104q0 84 55.5 139.5t138.5 55.5q66 0 111 -44.5t45 -110.5zM475 524q0 62 -40 104t-102 42q-74 0 -126 -48.5t-52 -121.5q0 -63 41 -99q38 -34 102 -34q76 0 126.5 41.5t50.5 115.5zM385 561 q0 -27 -35.5 -39t-35.5 -16q0 -43 52 -86l2 -4l-8 -10l-5 2q-56 52 -56 98q0 20 35.5 28t35.5 27q0 39 -48 39q-35 0 -51 -32q-10 -20 -16 -69t-13 -64l-7 -5l-8 6v2q0 -3 8 52q9 59 23 85q23 41 72 41q55 0 55 -55z" glyph-name="registered" horiz-adv-x="520" unicode="®"/>
<glyph d="M228 555q0 -32 -24.5 -56t-57.5 -24q-30 0 -51.5 18t-21.5 48q0 35 23.5 61.5t58.5 26.5q29 0 51 -22t22 -52zM206 560q0 18 -16 32.5t-34 14.5q-24 0 -43 -20t-19 -45q0 -20 15 -32.5t35 -12.5q26 0 44 18.5t18 44.5z" glyph-name="degree" horiz-adv-x="284" unicode="°"/>
<glyph d="M223 575q0 -14 -17 -24q-5 -3 -71 -50q-56 -40 -64 -40q-11 0 -19.5 9.5t-8.5 20.5q0 15 67.5 64t84.5 49q28 0 28 -29z" glyph-name="acute" horiz-adv-x="229" unicode="´"/>
<glyph d="M332 644q-33 -63 -71 -182q-7 -29 -30 -86l-8 -6q-12 0 -12 9q0 7 34 103q32 92 41 114q-34 -21 -52 -21q-12 0 -12 12q0 2 27.5 15t32.5 18q9 10 17 21q14 15 20 15q9 0 13 -12zM335 329q0 -11 -26 -11q-32 0 -96.5 -3t-97.5 -3q-39 0 -36 0q-26 2 -26 13t27 11 q32 0 97.5 3t98.5 3q38 0 34 0q25 -2 25 -13zM251 217q0 -77 -165 -195q32 -14 54 -14q51 0 73 25l8 3q12 0 12 -11q0 -20 -41 -31q-30 -8 -58 -8q-16 0 -70 21q-37 -24 -55 -24q-29 0 -29 28t36 28q20 0 44 -7q169 116 169 185q0 45 -51 45q-31 0 -52 -25l-21 -25 q-11 0 -11 11q0 25 32 44q29 17 56 17q29 0 49 -19.5t20 -47.5zM37 16l-15 3q-18 0 -18 -8l9 -4h2q7 -1 22 9z" glyph-name="mu" horiz-adv-x="392" unicode="µ"/>
<glyph d="M542 598q0 -7 -134 -298q-145 -314 -156.5 -343.5t-22.5 -59.5q-17 -42 -35 -42q-29 0 -29 25q0 24 146.5 353t176.5 375q10 16 24 16q30 0 30 -26zM409 636q0 -14 -38 -91q-44 -88 -48 -100q-10 -35 -31 -106q-48 -142 -106 -267q-94 -208 -150 -208q-16 0 -16 18 q0 58 161 394q-108 3 -184 55q-88 60 -88 163q0 91 67 147q63 54 156 54q67 0 118 -29q56 -32 75 -92l22 52q19 37 34 37q11 0 19.5 -8t8.5 -19zM280 493q0 71 -41 110t-112 39q-70 0 -115 -39q-49 -41 -49 -110q0 -87 85 -129q62 -30 161 -33q21 41 42 81q29 57 29 81z" glyph-name="paragraph" horiz-adv-x="404" unicode="¶"/>
<glyph d="M230 -80q0 -53 -32.5 -85.5t-84.5 -32.5q-27 0 -55 10q-36 13 -36 34q0 11 8 19.5t19 8.5q9 0 31 -8.5t36 -8.5q60 0 60 68q0 21 -16 39.5t-16 28.5q0 9 10.5 16t20.5 7q25 0 41 -37q14 -31 14 -59z" glyph-name="cedilla" horiz-adv-x="251" unicode="¸"/>
<glyph d="M354 464q0 -36 -77 -29q-47 -68 -114 -68q-81 0 -81 93q0 57 40.5 103t96.5 46q52 0 52 -21q0 -8 -5 -13q48 0 48 -51q0 -36 -17 -58q13 -1 25 6t15 7q17 0 17 -15zM366 312q0 -20 -26 -22q-119 -10 -260 -10q-31 0 -37 1q-24 4 -24 21q0 21 26 23q38 1 115 3 q129 6 144 6q33 0 38 -1q24 -4 24 -21zM283 524q0 18 -18 18q-23 0 -23 -22q0 -26 24 -43q17 24 17 47zM248 451q-38 27 -38 67q0 43 37 54q-12 4 -28 4q-42 0 -73 -34.5t-31 -77.5q0 -64 54 -64q41 0 79 51z" glyph-name="ordmasculine" horiz-adv-x="344" unicode="º"/>
<glyph d="M610 247q0 -28 -178 -122q-171 -90 -195 -90q-11 0 -19 8.5t-8 19.5q0 22 173 98.5t173 94.5q0 32 -126 120t-126 101q0 28 28 28q21 0 129 -86q105 -83 125 -110q24 -32 24 -62zM412 258q0 -29 -179 -122q-171 -90 -195 -90q-11 0 -19 8.5t-8 19.5q0 22 173 98.5 t173 94.5q0 32 -126 120t-126 101q0 28 28 28q21 0 130 -86q105 -83 125 -110q24 -32 24 -62z" glyph-name="guillemotright" horiz-adv-x="612" unicode="»"/>
<glyph d="M475 593q0 -23 -15 -43t-37 -20t-41.5 21t-19.5 43q0 15 19 15q32 17 61 17q33 0 33 -33zM424 50q0 -7 -9 -24q-65 -120 -215 -120q-80 0 -128 39q-51 42 -51 121q0 77 60 127q8 7 126 77q82 49 115 109q11 26 23 51q18 36 33 36q11 0 20 -8.5t9 -20.5q0 -6 -6 -21 q-40 -101 -127 -165q-68 -43 -136 -85q-63 -45 -63 -109q0 -50 42 -75q35 -21 87 -21q65 0 107 31q24 17 51 56q20 31 32 31q30 0 30 -29z" glyph-name="questiondown" horiz-adv-x="514" unicode="¿"/>
<glyph d="M595 722q0 -25 -26 -25q-7 0 -72 46t-65 55q0 26 28 26q17 0 76 -43t59 -59zM595 622q0 -49 -32 -125l-54 -120q-58 -149 -71 -290q9 -25 9 -81q0 -39 -31 -39q-38 0 -38 45q0 24 4 70q-42 125 -200 190q-51 -95 -85 -194q-8 -29 -27 -86q-8 -19 -24 -19q-12 0 -21 8 t-9 19q0 33 47 144q38 92 67 146q-25 8 -62 11q-32 3 -63 5q-27 3 -27 28q0 27 36 27q66 0 142 -22q71 127 156 222q121 134 217 134q66 0 66 -73zM540 623q0 19 -18 19q-69 0 -177 -128q-78 -92 -135 -194q119 -50 184 -143q18 103 54 200q27 63 53 126q39 92 39 120z" glyph-name="Agrave" horiz-adv-x="530" unicode="À"/>
<glyph d="M668 830q0 -14 -72.5 -66t-81.5 -52q-23 0 -23 25q0 17 68 66t87 49q22 0 22 -22zM595 622q0 -49 -32 -125l-54 -120q-58 -149 -71 -290q9 -25 9 -81q0 -39 -31 -39q-38 0 -38 45q0 24 4 70q-42 125 -200 190q-51 -95 -85 -194q-8 -29 -27 -86q-8 -19 -24 -19 q-12 0 -21 8t-9 19q0 33 47 144q38 92 67 146q-25 8 -62 11q-32 3 -63 5q-27 3 -27 28q0 27 36 27q66 0 142 -22q71 127 156 222q121 134 217 134q66 0 66 -73zM540 623q0 19 -18 19q-69 0 -177 -128q-78 -92 -135 -194q119 -50 184 -143q18 103 54 200q27 63 53 126 q39 92 39 120z" glyph-name="Aacute" horiz-adv-x="530" unicode="Á"/>
<glyph d="M647 710q0 -27 -26 -27q-11 0 -44 41.5t-49 47.5q-15 -6 -61 -43t-48 -37q-10 0 -18 9t-8 19q0 16 58 59.5t79 43.5q23 0 70 -45.5t47 -67.5zM595 622q0 -49 -32 -125l-54 -120q-58 -149 -71 -290q9 -25 9 -81q0 -39 -31 -39q-38 0 -38 45q0 24 4 70q-42 125 -200 190 q-51 -95 -85 -194q-8 -29 -27 -86q-8 -19 -24 -19q-12 0 -21 8t-9 19q0 33 47 144q38 92 67 146q-25 8 -62 11q-32 3 -63 5q-27 3 -27 28q0 27 36 27q66 0 142 -22q71 127 156 222q121 134 217 134q66 0 66 -73zM540 623q0 19 -18 19q-69 0 -177 -128q-78 -92 -135 -194 q119 -50 184 -143q18 103 54 200q27 63 53 126q39 92 39 120z" glyph-name="Acircumflex" horiz-adv-x="530" unicode="Â"/>
<glyph d="M745 791q0 -27 -47 -49q-40 -19 -71 -19q-30 0 -64.5 27t-50.5 27q-22 0 -49.5 -27t-37.5 -27q-25 0 -25 25q0 24 41 51.5t68 27.5q38 0 72 -27.5t55 -27.5q25 0 50.5 22.5t31.5 22.5q10 0 18.5 -8t8.5 -18zM595 622q0 -49 -32 -125l-54 -120q-58 -149 -71 -290 q9 -25 9 -81q0 -39 -31 -39q-38 0 -38 45q0 24 4 70q-42 125 -200 190q-51 -95 -85 -194q-8 -29 -27 -86q-8 -19 -24 -19q-12 0 -21 8t-9 19q0 33 47 144q38 92 67 146q-25 8 -62 11q-32 3 -63 5q-27 3 -27 28q0 27 36 27q66 0 142 -22q71 127 156 222q121 134 217 134 q66 0 66 -73zM540 623q0 19 -18 19q-69 0 -177 -128q-78 -92 -135 -194q119 -50 184 -143q18 103 54 200q27 63 53 126q39 92 39 120z" glyph-name="Atilde" horiz-adv-x="530" unicode="Ã"/>
<glyph d="M682 751q0 -17 -26 -29q-22 -11 -41 -11q-41 0 -41 38q0 21 13.5 39.5t33.5 18.5t40.5 -18t20.5 -38zM506 751q0 -17 -28 -30q-23 -10 -43 -10q-38 0 -38 38q0 21 13.5 39.5t33.5 18.5q19 0 40.5 -18.5t21.5 -37.5zM595 622q0 -49 -32 -125l-54 -120q-58 -149 -71 -290 q9 -25 9 -81q0 -39 -31 -39q-38 0 -38 45q0 24 4 70q-42 125 -200 190q-51 -95 -85 -194q-8 -29 -27 -86q-8 -19 -24 -19q-12 0 -21 8t-9 19q0 33 47 144q38 92 67 146q-25 8 -62 11q-32 3 -63 5q-27 3 -27 28q0 27 36 27q66 0 142 -22q71 127 156 222q121 134 217 134 q66 0 66 -73zM540 623q0 19 -18 19q-69 0 -177 -128q-78 -92 -135 -194q119 -50 184 -143q18 103 54 200q27 63 53 126q39 92 39 120z" glyph-name="Adieresis" horiz-adv-x="530" unicode="Ä"/>
<glyph d="M626 767q0 -22 -18.5 -49.5t-39.5 -27.5q-20 0 -20 21q0 7 20 20.5t20 32.5t-12 34t-31 15q-46 0 -46 -50q0 -19 10 -19q3 0 8 2t8 2q17 0 17 -23q0 -15 -32 -15q-48 0 -48 56q0 33 24 58.5t57 25.5q32 0 57.5 -25.5t25.5 -57.5zM595 622q0 -49 -32 -125l-54 -120 q-58 -149 -71 -290q9 -25 9 -81q0 -39 -31 -39q-38 0 -38 45q0 24 4 70q-42 125 -200 190q-51 -95 -85 -194q-8 -29 -27 -86q-8 -19 -24 -19q-12 0 -21 8t-9 19q0 33 47 144q38 92 67 146q-25 8 -62 11q-32 3 -63 5q-27 3 -27 28q0 27 36 27q66 0 142 -22q71 127 156 222 q121 134 217 134q66 0 66 -73zM540 623q0 19 -18 19q-69 0 -177 -128q-78 -92 -135 -194q119 -50 184 -143q18 103 54 200q27 63 53 126q39 92 39 120z" glyph-name="Aring" horiz-adv-x="530" unicode="Å"/>
<glyph d="M843 648q0 -32 -62.5 -107t-91.5 -75q-11 0 -20.5 8t-9.5 19q0 8 61.5 67.5t63.5 82.5l-2 2q-7 2 -21 2q-73 0 -150.5 -74.5t-77.5 -148.5q0 -23 27.5 -52.5t27.5 -47.5q0 -21 -43 -49q-64 -40 -81 -56q-43 -42 -43 -98q0 -44 38 -71q33 -23 79 -23q129 0 250 197 q10 17 24 17q11 0 20.5 -8t9.5 -19q-3 -13 -3 -12q-32 -84 -121 -155q-94 -74 -179 -74q-60 0 -104 29q0 -34 -33 -34q-14 0 -24.5 10t-10.5 24q0 12 4.5 35.5t4.5 35.5q0 6 -17 39q-57 111 -177 161q-27 -52 -59 -139q-40 -111 -53 -142q-8 -19 -24 -19q-30 0 -30 27 q0 32 47 145q38 91 67 146q-25 7 -62 10q-32 2 -63 5q-27 3 -27 28q0 27 37 27q68 0 141 -21q74 130 156 221q120 133 218 133q28 0 45 -18t19 -46q87 72 169 72q28 0 52 -12q28 -16 28 -42zM540 623q0 20 -19 20q-67 0 -177 -131q-78 -93 -135 -192q107 -46 172 -136 q26 86 143 144q-45 42 -45 103q0 39 30.5 97t30.5 95z" glyph-name="AE" horiz-adv-x="814" unicode="Æ"/>
<glyph d="M637 604q0 -89 -70 -166q-58 -64 -151 -106q-18 -8 -25 -8q-26 0 -26 26q0 17 23 29q21 9 61 31q53 32 89 80q41 54 41 109q0 42 -51 42q-96 0 -197 -87q-90 -79 -151.5 -197.5t-61.5 -212.5q0 -127 132 -127q63 0 128 36q41 22 92 65q42 36 49 36q28 0 28 -28 q0 -11 -20 -30q-129 -124 -252 -133q-1 -80 -32.5 -115t-109.5 -35q-82 0 -82 33q0 20 41 21q77 1 94 11q28 16 36 86q-159 18 -159 180q0 109 69 241.5t172 219.5q114 96 225 96q48 0 78 -25t30 -72z" glyph-name="Ccedilla" horiz-adv-x="519" unicode="Ç"/>
<glyph d="M484 746q0 -25 -26 -25q-7 0 -72 46t-65 55q0 27 27 27q18 0 77 -43.5t59 -59.5zM495 630q0 -50 -61 -124q-63 -77 -111 -77q-23 0 -23 24q0 13 36 42q54 43 68 58q36 37 36 71q0 24 -31 24q-66 0 -141.5 -76.5t-75.5 -142.5q0 -25 23 -54t23 -47q0 -17 -41 -44 q-57 -38 -77 -59q-41 -44 -41 -103q0 -95 123 -95q69 0 131 33q39 21 83 61q36 33 43 33q26 0 26 -29q0 -12 -19 -32q-117 -121 -262 -121q-73 0 -123 36q-57 41 -57 111q0 132 155 211q-41 38 -41 90q0 101 91.5 191.5t192.5 90.5q73 0 73 -72z" glyph-name="Egrave" horiz-adv-x="461" unicode="È"/>
<glyph d="M566 830q0 -14 -72.5 -66t-81.5 -52q-23 0 -23 25q0 17 68 66t87 49q22 0 22 -22zM495 630q0 -50 -61 -124q-63 -77 -111 -77q-23 0 -23 24q0 13 36 42q54 43 68 58q36 37 36 71q0 24 -31 24q-66 0 -141.5 -76.5t-75.5 -142.5q0 -25 23 -54t23 -47q0 -17 -41 -44 q-57 -38 -77 -59q-41 -44 -41 -103q0 -95 123 -95q69 0 131 33q39 21 83 61q36 33 43 33q26 0 26 -29q0 -12 -19 -32q-117 -121 -262 -121q-73 0 -123 36q-57 41 -57 111q0 132 155 211q-41 38 -41 90q0 101 91.5 191.5t192.5 90.5q73 0 73 -72z" glyph-name="Eacute" horiz-adv-x="461" unicode="É"/>
<glyph d="M549 723q0 -26 -26 -26q-11 0 -44 41t-49 47q-16 -6 -62 -43t-47 -37q-10 0 -18 9t-8 19q0 16 57.5 59.5t78.5 43.5q23 0 70.5 -45.5t47.5 -67.5zM495 630q0 -50 -61 -124q-63 -77 -111 -77q-23 0 -23 24q0 13 36 42q54 43 68 58q36 37 36 71q0 24 -31 24 q-66 0 -141.5 -76.5t-75.5 -142.5q0 -25 23 -54t23 -47q0 -17 -41 -44q-57 -38 -77 -59q-41 -44 -41 -103q0 -95 123 -95q69 0 131 33q39 21 83 61q36 33 43 33q26 0 26 -29q0 -12 -19 -32q-117 -121 -262 -121q-73 0 -123 36q-57 41 -57 111q0 132 155 211q-41 38 -41 90 q0 101 91.5 191.5t192.5 90.5q73 0 73 -72z" glyph-name="Ecircumflex" horiz-adv-x="461" unicode="Ê"/>
<glyph d="M578 769q0 -17 -24.5 -29t-43.5 -12q-41 0 -41 39q0 21 13 39t34 18q20 0 41 -18t21 -37zM401 769q0 -17 -28 -30q-23 -11 -43 -11q-37 0 -37 39q0 21 13 39t34 18q19 0 40 -18t21 -37zM495 630q0 -50 -61 -124q-63 -77 -111 -77q-23 0 -23 24q0 13 36 42q54 43 68 58 q36 37 36 71q0 24 -31 24q-66 0 -141.5 -76.5t-75.5 -142.5q0 -25 23 -54t23 -47q0 -17 -41 -44q-57 -38 -77 -59q-41 -44 -41 -103q0 -95 123 -95q69 0 131 33q39 21 83 61q36 33 43 33q26 0 26 -29q0 -12 -19 -32q-117 -121 -262 -121q-73 0 -123 36q-57 41 -57 111 q0 132 155 211q-41 38 -41 90q0 101 91.5 191.5t192.5 90.5q73 0 73 -72z" glyph-name="Edieresis" horiz-adv-x="461" unicode="Ë"/>
<glyph d="M484 722q0 -25 -26 -25q-7 0 -72 46t-65 55q0 26 27 26q18 0 77 -43t59 -59zM519 593q0 -104 -95 -297q-158 -321 -298 -321q-121 0 -121 91q0 27 28 27q19 0 23 -16q8 -26 13 -31q14 -16 57 -16q66 0 151 118q73 101 132 243q57 137 57 203q0 57 -49 57q-50 0 -98 -53 q-40 -46 -57 -101q-3 -21 -11 -63q-6 -29 -29 -29q-25 0 -25 33q0 95 64 178q69 89 160 89q49 0 75 -33q23 -29 23 -79z" glyph-name="Igrave" horiz-adv-x="481" unicode="Ì"/>
<glyph d="M555 839q0 -14 -72.5 -66t-81.5 -52q-23 0 -23 25q0 17 68 66t87 49q22 0 22 -22zM519 593q0 -104 -95 -297q-158 -321 -298 -321q-121 0 -121 91q0 27 28 27q19 0 23 -16q8 -26 13 -31q14 -16 57 -16q66 0 151 118q73 101 132 243q57 137 57 203q0 57 -49 57 q-50 0 -98 -53q-40 -46 -57 -101q-3 -21 -11 -63q-6 -29 -29 -29q-25 0 -25 33q0 95 64 178q69 89 160 89q49 0 75 -33q23 -29 23 -79z" glyph-name="Iacute" horiz-adv-x="481" unicode="Í"/>
<glyph d="M549 727q0 -26 -26 -26q-11 0 -44 41t-49 47q-16 -6 -62 -42.5t-47 -36.5q-10 0 -18 8.5t-8 18.5q0 16 58 60t78 44q23 0 70.5 -46t47.5 -68zM519 593q0 -104 -95 -297q-158 -321 -298 -321q-121 0 -121 91q0 27 28 27q19 0 23 -16q8 -26 13 -31q14 -16 57 -16 q66 0 151 118q73 101 132 243q57 137 57 203q0 57 -49 57q-50 0 -98 -53q-40 -46 -57 -101q-3 -21 -11 -63q-6 -29 -29 -29q-25 0 -25 33q0 95 64 178q69 89 160 89q49 0 75 -33q23 -29 23 -79z" glyph-name="Icircumflex" horiz-adv-x="481" unicode="Î"/>
<glyph d="M569 767q0 -18 -26 -30q-22 -11 -42 -11q-40 0 -40 38q0 22 13 40t34 18q19 0 40 -18t21 -37zM392 767q0 -17 -28 -30q-23 -11 -43 -11q-37 0 -37 38q0 22 13 40t34 18q19 0 40 -18t21 -37zM519 593q0 -104 -95 -297q-158 -321 -298 -321q-121 0 -121 91q0 27 28 27 q19 0 23 -16q8 -26 13 -31q14 -16 57 -16q66 0 151 118q73 101 132 243q57 137 57 203q0 57 -49 57q-50 0 -98 -53q-40 -46 -57 -101q-3 -21 -11 -63q-6 -29 -29 -29q-25 0 -25 33q0 95 64 178q69 89 160 89q49 0 75 -33q23 -29 23 -79z" glyph-name="Idieresis" horiz-adv-x="481" unicode="Ï"/>
<glyph d="M745 791q0 -27 -47 -49q-40 -19 -71 -19q-30 0 -64.5 27t-50.5 27q-22 0 -49.5 -27t-37.5 -27q-25 0 -25 25q0 24 41 51.5t68 27.5q38 0 72 -27.5t55 -27.5q25 0 50.5 22.5t31.5 22.5q10 0 18.5 -8t8.5 -18zM766 678q0 -10 -14 -27q-57 -70 -118 -247q-14 -44 -81 -272 l-20 -74q-12 -43 -27 -70q-11 -19 -19 -25t-28 -6q-32 0 -36 45q-3 62 -11 188q-13 176 -41 394q-34 -123 -145 -322t-197 -288q-10 -10 -22 -10q-10 0 -18 7.5t-8 17.5q0 11 10 24q227 300 307 526q13 47 26 93q22 67 48 67q30 0 43 -43q3 -11 13 -84q43 -325 47 -509 q31 105 62 209q57 183 101 288q62 145 101 145q27 0 27 -27z" glyph-name="Ntilde" horiz-adv-x="669" unicode="Ñ"/>
<glyph d="M613 724q0 -25 -26 -25q-7 0 -72 46t-65 55q0 27 27 27q18 0 77 -43.5t59 -59.5zM632 438q0 -169 -128 -320q-134 -159 -299 -159q-94 0 -143 61q-45 57 -45 153q0 197 158 358.5t354 161.5q49 0 49 -28q0 -22 -28 -28q-14 -3 -79 -10q-48 -6 -79 -17q-137 -50 -228 -169 q-93 -122 -93 -265q0 -70 31 -113q35 -49 103 -49q135 0 255 145q115 139 115 278q0 109 -94 109q-134 0 -219 -170q-9 -18 -25 -18q-28 0 -28 25q0 27 25 67q92 149 254 149q144 0 144 -161z" glyph-name="Ograve" unicode="Ò"/>
<glyph d="M655 830q0 -14 -72.5 -66t-81.5 -52q-23 0 -23 25q0 17 68 66t87 49q22 0 22 -22zM632 438q0 -169 -128 -320q-134 -159 -299 -159q-94 0 -143 61q-45 57 -45 153q0 197 158 358.5t354 161.5q49 0 49 -28q0 -22 -28 -28q-14 -3 -79 -10q-48 -6 -79 -17 q-137 -50 -228 -169q-93 -122 -93 -265q0 -70 31 -113q35 -49 103 -49q135 0 255 145q115 139 115 278q0 109 -94 109q-134 0 -219 -170q-9 -18 -25 -18q-28 0 -28 25q0 27 25 67q92 149 254 149q144 0 144 -161z" glyph-name="Oacute" unicode="Ó"/>
<glyph d="M628 727q0 -26 -26 -26q-11 0 -43 40q-35 42 -50 48q-16 -6 -62 -42.5t-47 -36.5q-10 0 -18.5 8.5t-8.5 18.5q0 16 58 60t79 44q23 0 70.5 -46t47.5 -68zM632 438q0 -169 -128 -320q-134 -159 -299 -159q-94 0 -143 61q-45 57 -45 153q0 197 158 358.5t354 161.5 q49 0 49 -28q0 -22 -28 -28q-14 -3 -79 -10q-48 -6 -79 -17q-137 -50 -228 -169q-93 -122 -93 -265q0 -70 31 -113q35 -49 103 -49q135 0 255 145q115 139 115 278q0 109 -94 109q-134 0 -219 -170q-9 -18 -25 -18q-28 0 -28 25q0 27 25 67q92 149 254 149q144 0 144 -161z " glyph-name="Ocircumflex" unicode="Ô"/>
<glyph d="M690 791q0 -27 -47 -49q-40 -19 -71 -19q-29 0 -64 27t-51 27q-22 0 -49.5 -27t-37.5 -27q-25 0 -25 25q0 24 41 51.5t68 27.5q39 0 73 -27.5t54 -27.5q25 0 51 22.5t32 22.5q10 0 18 -8t8 -18zM632 438q0 -169 -128 -320q-134 -159 -299 -159q-94 0 -143 61 q-45 57 -45 153q0 197 158 358.5t354 161.5q49 0 49 -28q0 -22 -28 -28q-14 -3 -79 -10q-48 -6 -79 -17q-137 -50 -228 -169q-93 -122 -93 -265q0 -70 31 -113q35 -49 103 -49q135 0 255 145q115 139 115 278q0 109 -94 109q-134 0 -219 -170q-9 -18 -25 -18q-28 0 -28 25 q0 27 25 67q92 149 254 149q144 0 144 -161z" glyph-name="Otilde" unicode="Õ"/>
<glyph d="M682 751q0 -17 -26 -29q-22 -11 -41 -11q-41 0 -41 38q0 21 13.5 39.5t33.5 18.5t40.5 -18t20.5 -38zM506 751q0 -17 -28 -30q-23 -10 -43 -10q-38 0 -38 38q0 21 13.5 39.5t33.5 18.5q19 0 40.5 -18.5t21.5 -37.5zM632 438q0 -169 -128 -320q-134 -159 -299 -159 q-94 0 -143 61q-45 57 -45 153q0 197 158 358.5t354 161.5q49 0 49 -28q0 -22 -28 -28q-14 -3 -79 -10q-48 -6 -79 -17q-137 -50 -228 -169q-93 -122 -93 -265q0 -70 31 -113q35 -49 103 -49q135 0 255 145q115 139 115 278q0 109 -94 109q-134 0 -219 -170q-9 -18 -25 -18 q-28 0 -28 25q0 27 25 67q92 149 254 149q144 0 144 -161z" glyph-name="Odieresis" unicode="Ö"/>
<glyph d="M726 666q0 -13 -58 -50q-37 -24 -75 -48q71 -22 71 -115q0 -107 -70 -223.5t-175 -190.5q-113 -80 -222 -80q-79 0 -134 36q-87 -82 -106 -82q-11 0 -19.5 8.5t-8.5 19.5t41 47q27 23 54 45q-30 42 -30 114q0 189 150.5 345.5t338.5 156.5q38 0 38 -30q0 -17 -21 -22 q-40 -8 -79 -15q-46 -10 -78 -23q-133 -55 -212 -165q-82 -114 -82 -254q0 -41 15 -71q74 72 193 218q127 156 190 220q-100 -29 -158 -123q-11 -17 -23 -17q-11 0 -20 8t-9 20q0 5 2 11q22 69 116 120q83 46 163 49q32 29 90 69q71 50 92 50q26 0 26 -28zM604 447 q0 77 -67 73q-83 -77 -218 -243q-141 -173 -216 -246q31 -18 82 -18q91 0 192 71q96 68 160 168q67 105 67 195z" glyph-name="Oslash" unicode="Ø"/>
<glyph d="M595 722q0 -25 -26 -25q-7 0 -72 46t-65 55q0 26 28 26q17 0 76 -43t59 -59zM784 630q0 -23 -56 -119q-75 -129 -105 -195q-56 -125 -56 -217q0 -44 16 -74q8 -16 29 -40q16 -18 16 -29q0 -9 -7.5 -16.5t-16.5 -7.5q-41 0 -69 67q-23 55 -23 103q0 30 4 54 q-136 -192 -272 -192q-100 0 -100 95q0 63 53 160q48 85 97 171q53 101 53 172q0 79 -58 79q-61 0 -118 -64q-48 -53 -71 -121l-18 -75q-7 -25 -26 -25q-29 0 -29 31q0 102 79 202q84 106 183 106q56 0 85.5 -34t29.5 -90q0 -77 -52 -184q-47 -88 -95 -176q-52 -97 -52 -150 q0 -42 46 -42q78 0 185 125q82 96 132 197l76 180q63 135 107 135q33 0 33 -26z" glyph-name="Ugrave" horiz-adv-x="710" unicode="Ù"/>
<glyph d="M723 810q0 -14 -72.5 -66t-81.5 -52q-23 0 -23 25q0 17 68 66t87 49q22 0 22 -22zM784 630q0 -23 -56 -119q-75 -129 -105 -195q-56 -125 -56 -217q0 -44 16 -74q8 -16 29 -40q16 -18 16 -29q0 -9 -7.5 -16.5t-16.5 -7.5q-41 0 -69 67q-23 55 -23 103q0 30 4 54 q-136 -192 -272 -192q-100 0 -100 95q0 63 53 160q48 85 97 171q53 101 53 172q0 79 -58 79q-61 0 -118 -64q-48 -53 -71 -121l-18 -75q-7 -25 -26 -25q-29 0 -29 31q0 102 79 202q84 106 183 106q56 0 85.5 -34t29.5 -90q0 -77 -52 -184q-47 -88 -95 -176q-52 -97 -52 -150 q0 -42 46 -42q78 0 185 125q82 96 132 197l76 180q63 135 107 135q33 0 33 -26z" glyph-name="Uacute" horiz-adv-x="710" unicode="Ú"/>
<glyph d="M704 727q0 -26 -26 -26q-11 0 -44 41t-49 47q-16 -6 -62 -42.5t-47 -36.5q-10 0 -18 8.5t-8 18.5q0 16 58 60t79 44q23 0 70 -46t47 -68zM784 630q0 -23 -56 -119q-75 -129 -105 -195q-56 -125 -56 -217q0 -44 16 -74q8 -16 29 -40q16 -18 16 -29q0 -9 -7.5 -16.5 t-16.5 -7.5q-41 0 -69 67q-23 55 -23 103q0 30 4 54q-136 -192 -272 -192q-100 0 -100 95q0 63 53 160q48 85 97 171q53 101 53 172q0 79 -58 79q-61 0 -118 -64q-48 -53 -71 -121l-18 -75q-7 -25 -26 -25q-29 0 -29 31q0 102 79 202q84 106 183 106q56 0 85.5 -34t29.5 -90 q0 -77 -52 -184q-47 -88 -95 -176q-52 -97 -52 -150q0 -42 46 -42q78 0 185 125q82 96 132 197l76 180q63 135 107 135q33 0 33 -26z" glyph-name="Ucircumflex" horiz-adv-x="710" unicode="Û"/>
<glyph d="M709 751q0 -17 -26 -29q-22 -11 -42 -11q-41 0 -41 38q0 21 13.5 39.5t33.5 18.5t41 -18t21 -38zM532 751q0 -17 -28 -30q-23 -10 -43 -10q-37 0 -37 38q0 22 13 40t34 18q19 0 40 -18.5t21 -37.5zM784 630q0 -23 -56 -119q-75 -129 -105 -195q-56 -125 -56 -217 q0 -44 16 -74q8 -16 29 -40q16 -18 16 -29q0 -9 -7.5 -16.5t-16.5 -7.5q-41 0 -69 67q-23 55 -23 103q0 30 4 54q-136 -192 -272 -192q-100 0 -100 95q0 63 53 160q48 85 97 171q53 101 53 172q0 79 -58 79q-61 0 -118 -64q-48 -53 -71 -121l-18 -75q-7 -25 -26 -25 q-29 0 -29 31q0 102 79 202q84 106 183 106q56 0 85.5 -34t29.5 -90q0 -77 -52 -184q-47 -88 -95 -176q-52 -97 -52 -150q0 -42 46 -42q78 0 185 125q82 96 132 197l76 180q63 135 107 135q33 0 33 -26z" glyph-name="Udieresis" horiz-adv-x="710" unicode="Ü"/>
<glyph d="M572 126q0 -9 -8 -19q-52 -64 -133.5 -102t-165.5 -38q-35 0 -45 3q-23 7 -23 33q0 28 43 28q13 0 37.5 -3t36.5 -3q39 0 51.5 15t12.5 55q0 91 -21 159q-83 -137 -309 -305q-17 -59 -34 -119q-27 -88 -56 -136q-39 -65 -86 -65q-72 0 -72 85q0 70 72 151q39 44 130 118 q30 93 55 167q-42 -50 -57 -50q-10 0 -18.5 8.5t-8.5 19.5q0 12 61 83l76 88q59 191 79 236q70 164 151 164q34 0 34 -64q0 -71 -83 -190q-66 -86 -132 -173q-12 -17 -80 -228q186 149 251 272q-20 24 -20 39q0 38 47 38q37 0 37 -37q0 -18 -6 -38q46 -96 46 -199 q0 -26 -4 -51q8 5 61 47q47 38 53 38q11 0 19.5 -8t8.5 -19zM329 642l-6 8q-16 -3 -62 -101q-34 -74 -52 -123q119 164 120 216zM-28 -115q-115 -96 -115 -167q0 -29 26 -29q21 0 53 86q4 10 36 110z" glyph-name="germandbls" horiz-adv-x="545" unicode="ß"/>
<glyph d="M331 490q0 -29 -24 -29q-10 0 -67 40q-68 48 -73 51q-16 9 -16 23q0 30 27 30q21 0 87 -48t66 -67zM474 126q0 -39 -96 -99q-91 -57 -135 -57q-21 0 -36 16.5t-15 37.5q-65 -59 -129 -59q-89 0 -89 110q0 138 113 231q106 88 247 88q54 0 54 -28q0 -24 -40 -27 q-112 -7 -177 -40q-81 -41 -122 -133q-23 -51 -23 -95q0 -51 43 -51q49 0 122 91q50 61 91 136q20 36 39 36q24 0 24 -24q0 -26 -49 -108t-49 -107q0 -18 11 -18q33 0 106 64t86 64q24 0 24 -28z" glyph-name="agrave" horiz-adv-x="448" unicode="à"/>
<glyph d="M467 575q0 -15 -16 -24q-6 -3 -71 -50q-57 -40 -64 -40q-12 0 -20.5 9t-8.5 21q0 15 67.5 64t85.5 49q27 0 27 -29zM474 126q0 -39 -96 -99q-91 -57 -135 -57q-21 0 -36 16.5t-15 37.5q-65 -59 -129 -59q-89 0 -89 110q0 138 113 231q106 88 247 88q54 0 54 -28 q0 -24 -40 -27q-112 -7 -177 -40q-81 -41 -122 -133q-23 -51 -23 -95q0 -51 43 -51q49 0 122 91q50 61 91 136q20 36 39 36q24 0 24 -24q0 -26 -49 -108t-49 -107q0 -18 11 -18q33 0 106 64t86 64q24 0 24 -28z" glyph-name="aacute" horiz-adv-x="448" unicode="á"/>
<glyph d="M417 454q0 -26 -26 -26q-11 0 -43 39q-34 43 -50 49q-18 -7 -66.5 -53t-52.5 -46q-10 0 -18 8.5t-8 18.5q0 17 61.5 70t84.5 53t70.5 -45.5t47.5 -67.5zM474 126q0 -39 -96 -99q-91 -57 -135 -57q-21 0 -36 16.5t-15 37.5q-65 -59 -129 -59q-89 0 -89 110q0 138 113 231 q106 88 247 88q54 0 54 -28q0 -24 -40 -27q-112 -7 -177 -40q-81 -41 -122 -133q-23 -51 -23 -95q0 -51 43 -51q49 0 122 91q50 61 91 136q20 36 39 36q24 0 24 -24q0 -26 -49 -108t-49 -107q0 -18 11 -18q33 0 106 64t86 64q24 0 24 -28z" glyph-name="acircumflex" horiz-adv-x="448" unicode="â"/>
<glyph d="M506 502q0 -31 -52 -55q-44 -20 -80 -20q-32 0 -70.5 30t-56.5 30q-25 0 -54.5 -30.5t-41.5 -30.5q-11 0 -19.5 8.5t-8.5 19.5q0 27 46 58q43 29 74 29q44 0 81.5 -30t59.5 -30q29 0 58 24.5t35 24.5q11 0 20 -8.5t9 -19.5zM474 126q0 -39 -96 -99q-91 -57 -135 -57 q-21 0 -36 16.5t-15 37.5q-65 -59 -129 -59q-89 0 -89 110q0 138 113 231q106 88 247 88q54 0 54 -28q0 -24 -40 -27q-112 -7 -177 -40q-81 -41 -122 -133q-23 -51 -23 -95q0 -51 43 -51q49 0 122 91q50 61 91 136q20 36 39 36q24 0 24 -24q0 -26 -49 -108t-49 -107 q0 -18 11 -18q33 0 106 64t86 64q24 0 24 -28z" glyph-name="atilde" horiz-adv-x="448" unicode="ã"/>
<glyph d="M440 504q0 -17 -26 -29q-22 -11 -41 -11q-41 0 -41 38q0 21 13.5 39.5t33.5 18.5q19 0 40 -18t21 -38zM263 504q0 -17 -28 -30q-23 -10 -43 -10q-37 0 -37 38q0 21 13.5 39.5t33.5 18.5q19 0 40 -18.5t21 -37.5zM474 126q0 -39 -96 -99q-91 -57 -135 -57q-21 0 -36 16.5 t-15 37.5q-65 -59 -129 -59q-89 0 -89 110q0 138 113 231q106 88 247 88q54 0 54 -28q0 -24 -40 -27q-112 -7 -177 -40q-81 -41 -122 -133q-23 -51 -23 -95q0 -51 43 -51q49 0 122 91q50 61 91 136q20 36 39 36q24 0 24 -24q0 -26 -49 -108t-49 -107q0 -18 11 -18 q33 0 106 64t86 64q24 0 24 -28z" glyph-name="adieresis" horiz-adv-x="448" unicode="ä"/>
<glyph d="M352 502q0 -22 -18.5 -49.5t-39.5 -27.5q-20 0 -20 21q0 7 20 21t20 33q0 18 -12 33.5t-31 15.5q-46 0 -46 -50q0 -20 10 -20q3 0 8 2t8 2q16 0 16 -23q0 -15 -31 -15q-48 0 -48 57q0 33 24 58t57 25q32 0 57.5 -25.5t25.5 -57.5zM474 126q0 -39 -96 -99 q-91 -57 -135 -57q-21 0 -36 16.5t-15 37.5q-65 -59 -129 -59q-89 0 -89 110q0 138 113 231q106 88 247 88q54 0 54 -28q0 -24 -40 -27q-112 -7 -177 -40q-81 -41 -122 -133q-23 -51 -23 -95q0 -51 43 -51q49 0 122 91q50 61 91 136q20 36 39 36q24 0 24 -24q0 -26 -49 -108 t-49 -107q0 -18 11 -18q33 0 106 64t86 64q24 0 24 -28z" glyph-name="aring" horiz-adv-x="448" unicode="å"/>
<glyph d="M622 130q0 -8 -5 -16q-40 -61 -112 -104q-75 -45 -145 -45q-93 0 -119 104q-31 -42 -75 -71q-51 -33 -97 -33q-95 0 -95 107q0 130 101 226t231 96q43 0 43 -28q0 -23 -27 -27q-30 -3 -60 -7q-34 -4 -59 -13q-70 -26 -122 -95t-52 -142q0 -33 7 -45q9 -17 39 -17 q50 0 102 56q43 45 66 101q41 99 63 130q48 68 120 68q31 0 54.5 -16t23.5 -46q0 -54 -83 -113q-64 -41 -128 -81q-2 -99 76 -99q43 0 98 36q32 21 81 65q39 36 46 36q11 0 19.5 -8.5t8.5 -18.5zM443 309q0 15 -16 15q-34 0 -74 -50q-34 -42 -47 -82q61 33 82 48 q55 38 55 69z" glyph-name="ae" horiz-adv-x="590" unicode="æ"/>
<glyph d="M382 126q0 -34 -84 -90q-76 -51 -119 -61q-1 -67 -22 -97q-25 -35 -89 -35q-54 0 -54 29q0 16 15 21q5 1 28 2q44 2 55 15q8 10 12 57q-146 3 -146 140q0 88 66 179q71 98 156 98q42 0 72 -22q34 -24 34 -65q0 -46 -31 -46q-27 0 -27 19q0 4 2 12t2 12q0 16 -14.5 26 t-30.5 10q-62 0 -120 -78q-54 -73 -54 -138q0 -42 24 -67t66 -25q51 0 106 34q33 21 81 64q37 34 45 34q10 0 18.5 -9t8.5 -19z" glyph-name="ccedilla" horiz-adv-x="355" unicode="ç"/>
<glyph d="M241 490q0 -29 -24 -29q-10 0 -66 40q-67 48 -73 51q-17 9 -17 23q0 12 8 21t19 9q22 0 87.5 -48t65.5 -67zM357 126q0 -11 -15 -28q-120 -133 -235 -133q-134 0 -134 152q0 79 54 164q61 94 135 94q77 0 77 -64q0 -40 -54 -70q-50 -25 -101 -49q-54 -34 -54 -86 q0 -88 75 -88q48 0 100 35q29 19 79 66q37 35 48 35q10 0 17.5 -9t7.5 -19zM183 305q0 15 -18 15q-36 0 -76 -48q-33 -39 -48 -81q46 20 85 46q57 38 57 68z" glyph-name="egrave" horiz-adv-x="333" unicode="è"/>
<glyph d="M323 575q0 -15 -16 -24q-6 -4 -72 -50q-56 -40 -64 -40q-11 0 -19.5 9.5t-8.5 20.5q0 16 67.5 64.5t85.5 48.5q27 0 27 -29zM357 126q0 -11 -15 -28q-120 -133 -235 -133q-134 0 -134 152q0 79 54 164q61 94 135 94q77 0 77 -64q0 -40 -54 -70q-50 -25 -101 -49 q-54 -34 -54 -86q0 -88 75 -88q48 0 100 35q29 19 79 66q37 35 48 35q10 0 17.5 -9t7.5 -19zM183 305q0 15 -18 15q-36 0 -76 -48q-33 -39 -48 -81q46 20 85 46q57 38 57 68z" glyph-name="eacute" horiz-adv-x="333" unicode="é"/>
<glyph d="M313 454q0 -26 -26 -26q-11 0 -44 41t-49 47q-15 -6 -54 -52.5t-48 -46.5q-10 0 -18 8.5t-8 18.5q0 15 51.5 69t77.5 54q24 0 71 -45.5t47 -67.5zM357 126q0 -11 -15 -28q-120 -133 -235 -133q-134 0 -134 152q0 79 54 164q61 94 135 94q77 0 77 -64q0 -40 -54 -70 q-50 -25 -101 -49q-54 -34 -54 -86q0 -88 75 -88q48 0 100 35q29 19 79 66q37 35 48 35q10 0 17.5 -9t7.5 -19zM183 305q0 15 -18 15q-36 0 -76 -48q-33 -39 -48 -81q46 20 85 46q57 38 57 68z" glyph-name="ecircumflex" horiz-adv-x="333" unicode="ê"/>
<glyph d="M355 504q0 -17 -26 -29q-22 -11 -42 -11q-40 0 -40 38q0 22 13 40t34 18q19 0 40 -18t21 -38zM178 504q0 -17 -28 -30q-23 -10 -43 -10q-37 0 -37 38q0 21 13.5 39.5t33.5 18.5q19 0 40 -18.5t21 -37.5zM357 126q0 -11 -15 -28q-120 -133 -235 -133q-134 0 -134 152 q0 79 54 164q61 94 135 94q77 0 77 -64q0 -40 -54 -70q-50 -25 -101 -49q-54 -34 -54 -86q0 -88 75 -88q48 0 100 35q29 19 79 66q37 35 48 35q10 0 17.5 -9t7.5 -19zM183 305q0 15 -18 15q-36 0 -76 -48q-33 -39 -48 -81q46 20 85 46q57 38 57 68z" glyph-name="edieresis" horiz-adv-x="333" unicode="ë"/>
<glyph d="M217 490q0 -29 -24 -29q-10 0 -67 40q-67 48 -73 51q-16 9 -16 23q0 12 8 21t19 9q22 0 87.5 -48t65.5 -67zM272 127q0 -33 -87 -93t-129 -60q-59 0 -59 58q0 38 15 72q-12 -4 -17 -4q-10 0 -18 7.5t-8 17.5q0 12 12 23t85 114q63 90 81 90q10 0 18.5 -8.5t8.5 -18.5 q0 -12 -61.5 -130t-61.5 -155q0 -14 13 -14q28 0 101.5 64.5t79.5 64.5q10 0 18.5 -8.5t8.5 -19.5z" glyph-name="igrave" horiz-adv-x="245" unicode="ì"/>
<glyph d="M330 575q0 -14 -17 -24q-7 -4 -71 -50q-57 -40 -64 -40q-11 0 -19.5 9.5t-8.5 20.5q0 16 67 64.5t85 48.5q28 0 28 -29zM272 127q0 -33 -87 -93t-129 -60q-59 0 -59 58q0 38 15 72q-12 -4 -17 -4q-10 0 -18 7.5t-8 17.5q0 12 12 23t85 114q63 90 81 90q10 0 18.5 -8.5 t8.5 -18.5q0 -12 -61.5 -130t-61.5 -155q0 -14 13 -14q28 0 101.5 64.5t79.5 64.5q10 0 18.5 -8.5t8.5 -19.5z" glyph-name="iacute" horiz-adv-x="245" unicode="í"/>
<glyph d="M301 454q0 -26 -26 -26q-11 0 -43 39q-34 43 -50 49q-51 -20 -113 -90q-8 -9 -18 -9t-18 8.5t-8 18.5q0 16 68 69.5t90 53.5q24 0 71 -45.5t47 -67.5zM272 127q0 -33 -87 -93t-129 -60q-59 0 -59 58q0 38 15 72q-12 -4 -17 -4q-10 0 -18 7.5t-8 17.5q0 12 12 23t85 114 q63 90 81 90q10 0 18.5 -8.5t8.5 -18.5q0 -12 -61.5 -130t-61.5 -155q0 -14 13 -14q28 0 101.5 64.5t79.5 64.5q10 0 18.5 -8.5t8.5 -19.5z" glyph-name="icircumflex" horiz-adv-x="245" unicode="î"/>
<glyph d="M344 504q0 -17 -26 -29q-22 -11 -42 -11q-40 0 -40 38q0 21 13.5 39.5t33.5 18.5q19 0 40 -18t21 -38zM167 504q0 -17 -28 -30q-23 -10 -43 -10q-37 0 -37 38q0 21 13.5 39.5t33.5 18.5q19 0 40 -18.5t21 -37.5zM272 127q0 -33 -87 -93t-129 -60q-59 0 -59 58q0 38 15 72 q-12 -4 -17 -4q-10 0 -18 7.5t-8 17.5q0 12 12 23t85 114q63 90 81 90q10 0 18.5 -8.5t8.5 -18.5q0 -12 -61.5 -130t-61.5 -155q0 -14 13 -14q28 0 101.5 64.5t79.5 64.5q10 0 18.5 -8.5t8.5 -19.5z" glyph-name="idieresis" horiz-adv-x="245" unicode="ï"/>
<glyph d="M512 502q0 -31 -52 -55q-44 -20 -80 -20q-32 0 -70.5 29.5t-56.5 29.5q-24 0 -53.5 -30t-42.5 -30q-10 0 -18.5 8.5t-8.5 19.5q0 27 46 58q43 29 74 29q44 0 81.5 -30t59.5 -30q29 0 58 24.5t35 24.5q11 0 19.5 -8.5t8.5 -19.5zM527 126q0 -33 -85 -93t-121 -60 q-47 0 -47 35q0 18 46.5 133.5t47.5 160.5q-104 -57 -175 -133q-66 -70 -123 -181q-42 -2 -42 32q0 14 24 75q29 76 31 81q-66 -76 -82 -76q-28 0 -28 26q0 9 7 19q12 15 78 89q48 53 74 93q11 17 25 17q25 0 25 -17q0 -30 -24 -121q37 41 103 90q80 60 116 60q44 0 44 -57 q0 -38 -36 -137q-28 -76 -56 -136q29 1 98.5 64.5t73.5 63.5q26 0 26 -28z" glyph-name="ntilde" horiz-adv-x="503" unicode="ñ"/>
<glyph d="M287 490q0 -29 -24 -29q-10 0 -67 40q-67 48 -73 51q-16 9 -16 23q0 12 8 21t19 9q21 0 87 -48t66 -67zM430 128q0 -23 -35 -39q-29 -13 -56 -13q-17 0 -37 5q-80 -114 -190 -114q-66 0 -101.5 41t-35.5 108q0 100 64 176q68 79 166 79q87 0 87 -35q0 -13 -9 -22 q38 0 60 -24.5t22 -62.5q0 -55 -30 -96q24 -1 43 10.5t24 11.5q10 0 19 -7.5t9 -17.5zM310 228q0 31 -29 31q-39 0 -39 -38q0 -43 41 -71q27 41 27 78zM252 106q-64 49 -64 113q0 30 17 55.5t45 34.5q-21 7 -45 7q-71 0 -123.5 -58t-52.5 -130q0 -106 85 -106q74 0 138 84z " glyph-name="ograve" horiz-adv-x="402" unicode="ò"/>
<glyph d="M430 575q0 -15 -16 -24q-6 -4 -72 -50q-56 -40 -64 -40q-11 0 -19.5 9.5t-8.5 20.5q0 15 67.5 64t85.5 49q27 0 27 -29zM430 128q0 -23 -35 -39q-29 -13 -56 -13q-17 0 -37 5q-80 -114 -190 -114q-66 0 -101.5 41t-35.5 108q0 100 64 176q68 79 166 79q87 0 87 -35 q0 -13 -9 -22q38 0 60 -24.5t22 -62.5q0 -55 -30 -96q24 -1 43 10.5t24 11.5q10 0 19 -7.5t9 -17.5zM310 228q0 31 -29 31q-39 0 -39 -38q0 -43 41 -71q27 41 27 78zM252 106q-64 49 -64 113q0 30 17 55.5t45 34.5q-21 7 -45 7q-71 0 -123.5 -58t-52.5 -130q0 -106 85 -106 q74 0 138 84z" glyph-name="oacute" horiz-adv-x="402" unicode="ó"/>
<glyph d="M357 454q0 -26 -26 -26q-11 0 -43 39q-34 43 -50 49q-18 -7 -69 -54q-47 -45 -51 -45q-10 0 -18 8.5t-8 18.5q0 17 62 70t85 53t70.5 -45.5t47.5 -67.5zM430 128q0 -23 -35 -39q-29 -13 -56 -13q-17 0 -37 5q-80 -114 -190 -114q-66 0 -101.5 41t-35.5 108q0 100 64 176 q68 79 166 79q87 0 87 -35q0 -13 -9 -22q38 0 60 -24.5t22 -62.5q0 -55 -30 -96q24 -1 43 10.5t24 11.5q10 0 19 -7.5t9 -17.5zM310 228q0 31 -29 31q-39 0 -39 -38q0 -43 41 -71q27 41 27 78zM252 106q-64 49 -64 113q0 30 17 55.5t45 34.5q-21 7 -45 7q-71 0 -123.5 -58 t-52.5 -130q0 -106 85 -106q74 0 138 84z" glyph-name="ocircumflex" horiz-adv-x="402" unicode="ô"/>
<glyph d="M431 502q0 -31 -52 -55q-43 -20 -79 -20q-32 0 -70.5 30t-56.5 30q-24 0 -54 -30.5t-43 -30.5q-10 0 -18.5 8.5t-8.5 19.5q0 27 46 58q43 29 74 29q44 0 81.5 -30t59.5 -30q29 0 58 24.5t35 24.5q28 0 28 -28zM430 128q0 -23 -35 -39q-29 -13 -56 -13q-17 0 -37 5 q-80 -114 -190 -114q-66 0 -101.5 41t-35.5 108q0 100 64 176q68 79 166 79q87 0 87 -35q0 -13 -9 -22q38 0 60 -24.5t22 -62.5q0 -55 -30 -96q24 -1 43 10.5t24 11.5q10 0 19 -7.5t9 -17.5zM310 228q0 31 -29 31q-39 0 -39 -38q0 -43 41 -71q27 41 27 78zM252 106 q-64 49 -64 113q0 30 17 55.5t45 34.5q-21 7 -45 7q-71 0 -123.5 -58t-52.5 -130q0 -106 85 -106q74 0 138 84z" glyph-name="otilde" horiz-adv-x="402" unicode="õ"/>
<glyph d="M414 504q0 -17 -26 -29q-22 -11 -42 -11q-40 0 -40 38q0 22 13 40t34 18q19 0 40 -18t21 -38zM237 504q0 -17 -28 -30q-23 -10 -43 -10q-37 0 -37 38q0 21 13.5 39.5t33.5 18.5q19 0 40 -18.5t21 -37.5zM430 128q0 -23 -35 -39q-29 -13 -56 -13q-17 0 -37 5 q-80 -114 -190 -114q-66 0 -101.5 41t-35.5 108q0 100 64 176q68 79 166 79q87 0 87 -35q0 -13 -9 -22q38 0 60 -24.5t22 -62.5q0 -55 -30 -96q24 -1 43 10.5t24 11.5q10 0 19 -7.5t9 -17.5zM310 228q0 31 -29 31q-39 0 -39 -38q0 -43 41 -71q27 41 27 78zM252 106 q-64 49 -64 113q0 30 17 55.5t45 34.5q-21 7 -45 7q-71 0 -123.5 -58t-52.5 -130q0 -106 85 -106q74 0 138 84z" glyph-name="odieresis" horiz-adv-x="402" unicode="ö"/>
<glyph d="M431 131q0 -24 -36 -37q-28 -9 -66 -9q-13 0 -22 1q-84 -119 -193 -119q-44 0 -79 22q-19 -18 -54 -44q-44 -32 -56 -32q-11 0 -19.5 9t-8.5 20t43 43l58 42q-23 38 -23 92q0 100 63 174q67 78 165 78q80 0 87 -31q85 65 114 65q11 0 19 -9.5t8 -20.5q0 -12 -43 -39 q-30 -18 -59 -36q36 -24 36 -74q0 -40 -25 -88q17 0 38 8.5t24 8.5q29 0 29 -24zM309 224q0 29 -23 41q-7 -8 -22.5 -23t-23.5 -23q8 -42 45 -66q24 39 24 71zM253 308q-26 8 -50 8q-71 0 -122.5 -59t-51.5 -131q0 -35 9 -59q50 60 151 177q4 24 22.5 42t41.5 22zM255 109 q-39 26 -56 63q-40 -49 -123 -145q15 -5 35 -5q81 0 144 87z" glyph-name="oslash" horiz-adv-x="402" unicode="ø"/>
<glyph d="M337 490q0 -29 -24 -29q-10 0 -66 40q-67 48 -73 51q-17 9 -17 23q0 12 8 21t20 9q21 0 86.5 -48t65.5 -67zM562 134q0 -39 -85 -100t-129 -61q-67 0 -67 75q0 28 12 62q-127 -134 -219 -134q-57 0 -57 55q0 43 35 117q-39 -43 -56 -43q-25 0 -25 24q0 11 10 21 q99 102 171 197l10 4q25 -2 25 -20q0 -2 -60.5 -126.5t-60.5 -161.5q0 -18 12 -18q72 0 153 82q50 50 120 152q56 82 66 82q28 0 28 -23q0 -4 -57 -108.5t-57 -153.5q0 -36 26 -36q35 0 107 69.5t76 69.5q22 0 22 -25z" glyph-name="ugrave" horiz-adv-x="541" unicode="ù"/>
<glyph d="M502 575q0 -15 -16 -24q-6 -4 -72 -50q-56 -40 -64 -40q-11 0 -19.5 9.5t-8.5 20.5q0 15 67.5 64t85.5 49q27 0 27 -29zM562 134q0 -39 -85 -100t-129 -61q-67 0 -67 75q0 28 12 62q-127 -134 -219 -134q-57 0 -57 55q0 43 35 117q-39 -43 -56 -43q-25 0 -25 24 q0 11 10 21q99 102 171 197l10 4q25 -2 25 -20q0 -2 -60.5 -126.5t-60.5 -161.5q0 -18 12 -18q72 0 153 82q50 50 120 152q56 82 66 82q28 0 28 -23q0 -4 -57 -108.5t-57 -153.5q0 -36 26 -36q35 0 107 69.5t76 69.5q22 0 22 -25z" glyph-name="uacute" horiz-adv-x="541" unicode="ú"/>
<glyph d="M453 454q0 -26 -26 -26q-11 0 -43 39q-34 43 -50 49q-19 -7 -68.5 -53t-52.5 -46q-10 0 -18 8.5t-8 18.5q0 17 62.5 70t85.5 53q24 0 71 -45.5t47 -67.5zM562 134q0 -39 -85 -100t-129 -61q-67 0 -67 75q0 28 12 62q-127 -134 -219 -134q-57 0 -57 55q0 43 35 117 q-39 -43 -56 -43q-25 0 -25 24q0 11 10 21q99 102 171 197l10 4q25 -2 25 -20q0 -2 -60.5 -126.5t-60.5 -161.5q0 -18 12 -18q72 0 153 82q50 50 120 152q56 82 66 82q28 0 28 -23q0 -4 -57 -108.5t-57 -153.5q0 -36 26 -36q35 0 107 69.5t76 69.5q22 0 22 -25z" glyph-name="ucircumflex" horiz-adv-x="541" unicode="û"/>
<glyph d="M506 504q0 -17 -24.5 -28.5t-43.5 -11.5q-41 0 -41 38q0 21 13.5 39.5t33.5 18.5t41 -18t21 -38zM329 504q0 -17 -28 -30q-23 -10 -43 -10q-37 0 -37 38q0 21 13 39.5t33 18.5q19 0 40.5 -18.5t21.5 -37.5zM562 134q0 -39 -85 -100t-129 -61q-67 0 -67 75q0 28 12 62 q-127 -134 -219 -134q-57 0 -57 55q0 43 35 117q-39 -43 -56 -43q-25 0 -25 24q0 11 10 21q99 102 171 197l10 4q25 -2 25 -20q0 -2 -60.5 -126.5t-60.5 -161.5q0 -18 12 -18q72 0 153 82q50 50 120 152q56 82 66 82q28 0 28 -23q0 -4 -57 -108.5t-57 -153.5q0 -36 26 -36 q35 0 107 69.5t76 69.5q22 0 22 -25z" glyph-name="udieresis" horiz-adv-x="541" unicode="ü"/>
</font>
</defs>
</svg>
