<?xml version="1.0" standalone="no"?>
<!DOCTYPE svg PUBLIC "-//W3C//DTD SVG 1.1//EN" "http://www.w3.org/Graphics/SVG/1.1/DTD/svg11.dtd" >
<svg>
<metadata>
Created by FontForge 20090914 at Thu Apr 21 18:01:29 2016
 By www-data
Copyright (c) 2011 TypeSETit, LLC (typesetit@att.net),
with Reserved Font Name "Qwigley"
</metadata>
<defs>
<font id="Qwigley-Regular" horiz-adv-x="233" >
  <font-face 
    font-family="Qwigley"
    font-weight="400"
    font-stretch="normal"
    units-per-em="1000"
    panose-1="2 0 0 0 0 0 0 0 0 0"
    ascent="800"
    descent="-200"
    x-height="262"
    cap-height="481.006"
    bbox="-419.001 -499.999 1038 750"
    underline-thickness="50"
    underline-position="-50"
    unicode-range="U+0020-U+F8FF"
  />
<missing-glyph horiz-adv-x="185" 
 />
    <glyph glyph-name=".notdef" horiz-adv-x="185" 
 />
    <glyph glyph-name="space" unicode=" " horiz-adv-x="185" 
 />
    <glyph glyph-name="exclam" unicode="!" horiz-adv-x="195" 
d="M282.5 404.5c13 -3.66699 19.499 -6.66797 19.499 -9.00098s-0.333008 -3.83301 -1 -4.5c-24.667 -33.333 -59.667 -89.666 -105 -168.999c-1.33301 -2 -9 -16.667 -23 -44c-39.333 -78 -61.666 -117 -66.999 -117c-3.33301 0 -5 4 -5 12c0 22.667 21 84.5 63 185.5
s70 151.5 84 151.5c10 0 21.5 -1.83301 34.5 -5.5zM124.999 8.99902c0 2 -22.333 -19.333 -67 -64c-6.66699 0 -10 3.33301 -10 10c0 18 4.33301 33.5 13 46.5s21.5 19.5 38.5 19.5s25.5 -4 25.5 -12z" />
    <glyph glyph-name="quotedbl" unicode="&#x22;" horiz-adv-x="155" 
d="M145.5 321c6.33301 -4.66699 9.5 -12.834 9.5 -24.501s-6 -27.167 -18 -46.5s-26.333 -29 -43 -29c-2.66699 0 -4 0.666992 -4 2c11.333 11.333 19.5 22 24.5 32s7.5 17 7.5 21s-3.33301 9.33301 -10 16s-10 11.334 -10 14.001c0 14.667 7.33301 22 22 22
c8 0 15.167 -2.33301 21.5 -7zM47 328c21.333 0 32 -10.668 32 -32.001c0 -11.333 -6 -26.666 -18 -45.999s-26.667 -29 -44 -29c-2.66699 0 -4 0.666992 -4 2c22 24 33 40 33 48s-3.33301 15.167 -10 21.5s-10 10.833 -10 13.5c0 14.667 7 22 21 22z" />
    <glyph glyph-name="numbersign" unicode="#" horiz-adv-x="596" 
d="M434 330l129 4c15.333 0 23 -2.5 23 -7.5s-12.333 -10.833 -37 -17.5s-43 -10 -55 -10h-70l-51 -131h110c24.667 0 37 -2.83301 37 -8.5s-12 -11.167 -36 -16.5s-42.333 -8 -55 -8l-68 -2l-27 -74c-15.333 -38 -28.666 -57 -39.999 -57c-4.66699 0 -7 3.83301 -7 11.5
s12.333 47.5 37 119.5l-149 -1l-26 -73c-15.333 -38 -28.333 -57 -39 -57c-6 0 -9 5.66699 -9 17s5.66699 29.666 17 54.999l24 58c-66.667 0 -108 0.833008 -124 2.5s-24 7.16699 -24 16.5c0 10.667 12.333 16 37 16l125 1c14 34.667 29.667 78 47 130
c-64 0 -104 0.833008 -120 2.5s-24 6.83398 -24 15.501c0 11.333 12.333 17 37 17l119 -2l35 98c8.66699 22 15.167 33 19.5 33s6.5 -10.333 6.5 -31s-8.66699 -54 -26 -100c73.333 -1.33301 115.666 -2 126.999 -2h17c34 88 54.667 132 62 132c4.66699 0 7 -5.66699 7 -17
c0 -28 -9.66699 -66 -29 -114zM383 298h-144.001l-51 -130h148c0.666992 2.66699 16.334 46 47.001 130z" />
    <glyph glyph-name="dollar" unicode="$" horiz-adv-x="318" 
d="M230 534l-0.999023 9.00391l1 2c6.66699 0 10 -7 10 -21s-4.66699 -33.333 -14 -58c4.66699 1.33301 11.167 2 19.5 2s13.833 -0.333008 16.5 -1l17 -17c6.66699 -7.33301 10 -14 10 -20c0 -8 -11.167 -18.333 -33.5 -31s-36.5 -19 -42.5 -19v3
c37.333 27.333 56 43.666 56 48.999c0 3.33301 -5.33301 5 -16 5c-41.333 0 -83.833 -10.667 -127.5 -32s-65.5 -44.666 -65.5 -69.999c0 -16.667 18.667 -44.667 56 -84s56 -69 56 -89c0 -13.333 -7.33301 -25 -22 -35s-31 -15 -49 -15h-13
c-30.667 -36.667 -46 -63.334 -46 -80.001l3 -10l-2 -2c-6.66699 0 -10 8.66699 -10 26s7.33301 39.666 22 66.999v1c-26.667 6 -46.334 18.333 -59.001 37l1 4c16.667 -8.66699 36.667 -13 60 -13s45 4.16699 65 12.5s30 18.166 30 29.499c0 7.33301 -18 29 -54 65
c-36 39.333 -54 72 -54 98c0 49.333 48.333 86.333 145 111c27.333 33.333 41 58.666 41 75.999z" />
    <glyph glyph-name="percent" unicode="%" horiz-adv-x="529" 
d="M107 -82c0 -7.33301 3.66797 -13.999 11.001 -19.999c0 -8 -6 -12 -18 -12s-18 9.33301 -18 28c0 42 54.333 138.333 163 289c82 113.333 152.667 203.666 212 270.999c-71.333 -34 -132 -51.333 -182 -52c0.666992 0 1 -1 1 -3c0 -23.333 -19.5 -56.666 -58.5 -99.999
s-70.5 -65 -94.5 -65h-12c-10.667 0 -19.834 5.5 -27.501 16.5s-11.5 23.167 -11.5 36.5c0 27.333 21.833 68.833 65.5 124.5s79.167 83.5 106.5 83.5c25.333 0 38 -13.333 38 -40c0 -8 -1 -17 -3 -27c0 -1.33301 2.66699 -2 8 -2c51.333 0 117.666 19.333 198.999 58
c0.666992 0.666992 2.33398 1 5.00098 1s10 -4.66699 22 -14s18 -16.333 18 -21s-2.66699 -9.33398 -8 -14.001l-231 -265c-123.333 -145.333 -185 -236.333 -185 -273zM443.001 96.001c0 -6 -5.66699 -11.667 -17 -17c0.666992 0 1 -1 1 -3
c0 -22.667 -19.667 -55.834 -59 -99.501s-70.666 -65.5 -93.999 -65.5h-12c-10.667 0 -19.834 5.5 -27.501 16.5s-11.5 22.833 -11.5 35.5c0 28 22 69.833 66 125.5s79.333 83.5 106 83.5c25.333 0 38 -13.667 38 -41c0 -9.33301 -1.33301 -18 -4 -26
c0 -1.33301 2.33301 -2.66602 7 -3.99902s7 -3 7 -5zM153.001 392.001c-30.667 -41.333 -45.999 -70.668 -45.999 -88.001s6 -26 18 -26c19.333 0 45.833 19 79.5 57s51.167 66.333 52.5 85c-8 6.66699 -18 18.667 -30 36c-18.667 -1.33301 -43.334 -22.666 -74.001 -63.999
zM304.502 48.999c-31 -41.333 -46.5 -71 -46.5 -89s6 -27 18 -27c18.667 0 45 19.5 79 58.5s51.667 67.5 53 85.5c-11.333 7.33301 -21.333 19 -30 35c-18 -0.666992 -42.5 -21.667 -73.5 -63z" />
    <glyph glyph-name="ampersand" unicode="&#x26;" horiz-adv-x="445" 
d="M439 300c0 2.66699 2.00195 4.66992 6.00195 6.00293c16.667 0 25 -8 25 -24c0 -23.333 -22.333 -46.333 -67 -69l-77 -36c30.667 -18 46 -41.333 46 -70c0 -39.333 -22 -73 -66 -101s-93.667 -42 -149 -42c-13.333 1.33301 -22 2 -26 2
c12 -16 27.833 -30.167 47.5 -42.5s36.167 -18.5 49.5 -18.5s21.666 0.666992 24.999 2s5.33301 1.66602 6 0.999023c0 -4 -4.33301 -7.66699 -13 -11s-17 -5 -25 -5c-42.667 0 -78.667 26 -108 78c-32.667 3.33301 -56.834 15 -72.501 35s-23.5 43 -23.5 69
c0 38.667 18 74 54 106s81.667 53.667 137 65l-28 4c-14.667 4 -22 11.667 -22 23c0 23.333 24.167 47.833 72.5 73.5s102.166 38.5 161.499 38.5c30.667 34 52.167 51 64.5 51s18.5 -5.33301 18.5 -16c-6.66699 -10 -16 -21 -28 -33s-22.5 -23.167 -31.5 -33.5l-21.5 -24
c-5.33301 -5.66699 -9.66602 -11.834 -12.999 -18.501s-5 -10.667 -5 -12c-3.33301 -8.66699 -5 -15.667 -5 -21c-10.667 2 -16 12.333 -16 31s10.333 41.334 31 68.001c-36.667 -2 -71.167 -11.333 -103.5 -28s-56 -33 -71 -49s-22.5 -27 -22.5 -33
c0 -8.66699 8 -13 24 -13l75 8c21.333 0 32 -6 32 -18c0 -7.33301 -1.66699 -11 -5 -11l-13 2h-13l-13 1c-52 0 -103.167 -18.667 -153.5 -56s-75.5 -75.333 -75.5 -114s19.667 -65.334 59 -80.001c-3.33301 10 -5 20.333 -5 31s1.5 20.167 4.5 28.5
s8.33301 16.666 16 24.999l20 21.5c5.66699 6 15.5 13.333 29.5 22l30 18.5c6 3.66699 18 10.5 36 20.5l34 19c-1.33301 2.66699 -5.33301 4 -12 4c-20 0 -42 -6.83301 -66 -20.5s-37.667 -26.5 -41 -38.5c-1.33301 1.33301 -2 4.33301 -2 9c0 14.667 11.333 29 34 43
s52 21 88 21c6 0 15.667 -0.666992 29 -2c23.333 6 54 23.5 92 52.5s57 46.833 57 53.5c0 2 -1.83301 3.5 -5.5 4.5s-5.5 1.83301 -5.5 2.5zM346.002 126.003c0 9.33301 -4.83301 18.668 -14.5 28.001s-19.167 14 -28.5 14c-17.333 0 -52 -24.167 -104 -72.5
s-78 -83.833 -78 -106.5v-7c7.33301 -2 16 -3 26 -3c45.333 0 89.833 15.667 133.5 47s65.5 64.666 65.5 99.999z" />
    <glyph glyph-name="quotesingle" unicode="'" horiz-adv-x="149" 
d="M157 399c0 -34 -18 -64.999 -54 -92.999c-7.33301 -6 -12.5 -9 -15.5 -9s-4.5 1 -4.5 3c28 36.667 42 60 42 70c0 4 -3.5 9.5 -10.5 16.5s-10.5 11.833 -10.5 14.5c0 14.667 7.33301 22 22 22c8 0 15.167 -2.33301 21.5 -7s9.5 -10.334 9.5 -17.001z" />
    <glyph glyph-name="parenleft" unicode="(" horiz-adv-x="282" 
d="M152 -53h-8c-42 2.66699 -77.167 21.334 -105.5 56.001s-42.5 74.667 -42.5 120s10.333 90.166 31 134.499s56.167 89 106.5 134s105.833 81.833 166.5 110.5s115 43 163 43c10 0 15 -2.66699 15 -8c0 -4 -17.333 -9.33301 -52 -16s-53.667 -10.667 -57 -12
c-58.667 -20.667 -113.667 -55 -165 -103s-91.5 -99.833 -120.5 -155.5s-43.5 -107.167 -43.5 -154.5c0 -63.333 24.333 -104 73 -122c5.33301 0 16 -2 32 -6s24 -7.33301 24 -10c0 -7.33301 -5.66699 -11 -17 -11z" />
    <glyph glyph-name="parenright" unicode=")" horiz-adv-x="490" 
d="M447 489c28 -34.667 41.998 -73.499 41.998 -116.499s-10.333 -88.5 -31 -136.5c-31.333 -69.333 -93.666 -135 -186.999 -197s-176.333 -93 -249 -93c-10.667 0 -16 3.33301 -16 10c0 3.33301 6.66699 6 20 8c71.333 8.66699 140 36.5 206 83.5s118.333 102.333 157 166
s58 125.667 58 186s-25 99.833 -75 118.5c-1.33301 0.666992 -6.66602 2 -15.999 4c-26 4 -39 8.33301 -39 13c0 6.66699 6.66699 10 20 10h4c42.667 -2.66699 78 -21.334 106 -56.001z" />
    <glyph glyph-name="asterisk" unicode="*" horiz-adv-x="265" 
d="M245 242c0 -8 -27.333 -12.998 -82 -14.998c32.667 -42 49 -64.5 49 -67.5s-1.33301 -4.5 -4 -4.5c-8.66699 0 -30 19 -64 57c-10 -49.333 -19.333 -74 -28 -74c-4.66699 0 -7 5 -7 15c0 4 3.66699 24.333 11 61c-37.333 -27.333 -58.5 -41 -63.5 -41
s-7.5 1.33301 -7.5 4c0 5.33301 3 10 9 14l50 37c-52.667 0 -79 3 -79 9s6 9.33301 18 10l66 2c-26.667 35.333 -39.834 56.166 -39.501 62.499s1.83301 9.5 4.5 9.5c5.33301 0 10.333 -3.33301 15 -10l39 -48l12 56c4.66699 16.667 8.33398 25 11.001 25
c4.66699 0 7 -4.83301 7 -14.5s-3.33301 -32.834 -10 -69.501c41.333 28.667 63.5 43 66.5 43s4.5 -1.33301 4.5 -4c0 -8.66699 -18.667 -26 -56 -52h60c12 0 18 -1.66699 18 -5z" />
    <glyph glyph-name="plus" unicode="+" horiz-adv-x="306" 
d="M300 168c0 -6.66699 -19.668 -14.001 -59.001 -22.001l-73 -10c-20 -75.333 -36.333 -113 -49 -113c-9.33301 0 -14 6.66699 -14 20c0 2 7.66699 31.667 23 89c-76 0 -114 6 -114 18c0 8 2.83301 13.167 8.5 15.5s14.834 3.5 27.501 3.5h89
c0 0.666992 12.667 45.334 38 134.001c5.33301 0 8 -8.33301 8 -25s-3.66699 -53 -11 -109h54c27.333 0 51 0.666992 71 2c0.666992 -0.666992 1 -1.66699 1 -3z" />
    <glyph glyph-name="comma" unicode="," horiz-adv-x="147" 
d="M116.5 12.5c6.33301 -5 9.49902 -13.167 9.49902 -24.5s-6 -26.666 -18 -45.999s-26.333 -29 -43 -29c-2.66699 0 -4 0.666992 -4 2c18.667 20.667 29.334 38 32.001 52c0 5.33301 -3.33301 11.166 -10 17.499s-10 10.833 -10 13.5c0 14.667 7.33301 22 22 22
c8 0 15.167 -2.5 21.5 -7.5z" />
    <glyph glyph-name="hyphen" unicode="-" horiz-adv-x="224" 
d="M80 168l48 1.00098h31c17.333 0 36 0.666992 56 2v-3c0 -8.66699 -21 -16.334 -63 -23.001c-58 -8.66699 -89 -13 -93 -13c-30 0 -45 6 -45 18s6.33301 18 19 18h47z" />
    <glyph glyph-name="period" unicode="." horiz-adv-x="170" 
d="M116.5 12.5c6.33301 -5 9.5 -10.667 9.5 -17s-3.16699 -11.833 -9.5 -16.5s-12.5 -7 -18.5 -7c-21.333 0 -32 9 -32 27c0 14 9.66699 21 29 21c8 0 15.167 -2.5 21.5 -7.5z" />
    <glyph glyph-name="slash" unicode="/" horiz-adv-x="455" 
d="M44 -74c0 -6.66699 3.66699 -13 11 -19c0 -8 -6.16699 -12 -18.5 -12s-18.5 10 -18.5 30s3.5 36.5 10.5 49.5s32.5 51.833 76.5 116.5c190 272 296 408 318 408c30 0 45 -6.33301 45 -19c0 -3.33301 -2.33301 -8 -7 -14l-107 -124c-206.667 -239.333 -310 -378 -310 -416
z" />
    <glyph glyph-name="zero" unicode="0" horiz-adv-x="447" 
d="M105 334l-5 -2.99902c-2 0 -3 0.666992 -3 2c10 19.333 34.167 34 72.5 44s76 15 113 15s73.167 -11.833 108.5 -35.5s53 -52 53 -85s-11 -68.167 -33 -105.5s-49 -71.166 -81 -101.499s-67 -55.833 -105 -76.5s-72.167 -31 -102.5 -31s-55.833 9.33301 -76.5 28
s-31 42 -31 70c0 39.333 20.667 93.166 62 161.499s77.333 102.5 108 102.5c6 0 14.833 -3.83301 26.5 -11.5s17.5 -13.834 17.5 -18.501c0 -2.66699 -4 -4 -12 -4h-7c-23.333 0 -56.333 -30.667 -99 -92s-64 -107.666 -64 -138.999c0 -35.333 19.667 -53 59 -53
c32 0 72 16.667 120 50s90.167 73.666 126.5 120.999s54.5 88.333 54.5 123c0 44 -45 66 -135 66c-64 0 -119.667 -9 -167 -27z" />
    <glyph glyph-name="one" unicode="1" horiz-adv-x="180" 
d="M49 -1l6.99902 -36.001c0 -2.66699 -1.33301 -4 -4 -4c-9.33301 0 -17.166 8.33301 -23.499 25s-9.5 35.334 -9.5 56.001c0 57.333 29 146 87 266c-14 -14.667 -32.667 -31.667 -56 -51c-0.666992 1.33301 -1 2.5 -1 3.5s0.333008 2.16699 1 3.5l53 73
c29.333 39.333 47.5 59 54.5 59s17 -2.66699 30 -8s19.5 -10.333 19.5 -15c0 -0.666992 -0.666992 -2 -2 -4c-32 -44 -66 -108 -102 -192s-54 -142.667 -54 -176z" />
    <glyph glyph-name="two" unicode="2" horiz-adv-x="414" 
d="M149 265l6.99902 -13.001c0 -2.66699 -2 -4 -6 -4s-10.667 5.83301 -20 17.5s-14 20.834 -14 27.501c0 22 29.167 43.667 87.5 65s110.5 32 156.5 32c53.333 0 80 -20 80 -60c0 -29.333 -30.833 -74.166 -92.5 -134.499s-140.5 -115.833 -236.5 -166.5
c40.667 8 81.667 12 123 12c80 0 120 -17 120 -51c0 -20 -4 -30 -12 -30c-1.33301 0 -1.66602 1.66699 -0.999023 5s0.5 6.33301 -0.5 9s-6.66699 5.66699 -17 9s-31.5 5 -63.5 5s-68 -2 -108 -6c-63.333 -7.33301 -101.666 -11.333 -114.999 -12
c-7.33301 0 -13.333 12 -18 36c185.333 106 308.666 214.333 369.999 325c4.66699 7.33301 7 13.666 7 18.999c0 10 -8.66699 15 -26 15c-28.667 0 -72.667 -12 -132 -36s-89 -45.333 -89 -64z" />
    <glyph glyph-name="three" unicode="3" horiz-adv-x="412" 
d="M160 308l2 -9.99902c0 -4 -1.33301 -6 -4 -6s-6.16699 6 -10.5 18s-6.5 20.667 -6.5 26c0 16.667 12.5 30.5 37.5 41.5s57.833 16.5 98.5 16.5s75.834 -6.5 105.501 -19.5s44.5 -30.333 44.5 -52s-9.33301 -40.334 -28 -56.001s-51 -35.167 -97 -58.5
c44 -30 66 -61.667 66 -95c0 -42.667 -25.5 -81.5 -76.5 -116.5s-103.5 -52.5 -157.5 -52.5c-36.667 0 -65.667 11.167 -87 33.5s-32 51.666 -32 87.999s7 54.5 21 54.5c3.33301 0 5 -2.33301 5 -7c0 -1.33301 -2.16699 -8.66602 -6.5 -21.999s-6.5 -22.333 -6.5 -27
c0 -39.333 29.333 -59 88 -59c50.667 0 100 14.833 148 44.5s72 59.334 72 89.001s-34.333 44.5 -103 44.5l-67 -8c-6.66699 0 -12.334 6 -17.001 18l-13 27c1.33301 0 6.83301 0.5 16.5 1.5s18.167 1.83301 25.5 2.5c22.667 2 64 16 124 42s90 47.5 90 64.5
s-34 25.5 -102 25.5c-39.333 0 -70.833 -4.33301 -94.5 -13s-35.5 -20.334 -35.5 -35.001z" />
    <glyph glyph-name="four" unicode="4" horiz-adv-x="376" 
d="M339 99l14 36.998c0 7.33301 -11.667 11 -35 11h-8c-7.33301 -16 -18.333 -49.167 -33 -99.5s-22 -79.5 -22 -87.5s1.83301 -14.667 5.5 -20s5.5 -8.66602 5.5 -9.99902s-2.66699 -2 -8 -2c-23.333 0 -35 29.333 -35 88c0 36.667 7.33301 79 22 127
c-2.66699 0.666992 -7.66699 1 -15 1c-40 -1.33301 -91 -9.66602 -153 -24.999c-6.66699 -2 -13.167 -3.83301 -19.5 -5.5l-15 -4c-3.66699 -1 -7 -1.83301 -10 -2.5s-6.16699 -1.16699 -9.5 -1.5s-7.83301 4 -13.5 13s-8.5 16.5 -8.5 22.5c0 24 37.667 66 113 126l153 112
c-178 -252.667 -186.667 -251.667 -26 3c0 4.66699 10.667 7 32 7c20.667 0 31 -8 31 -24c0 -6 -32 -33.833 -96 -83.5l-155 -122.5c66.667 15.333 128.667 23 186 23h22l43 97c20.667 48 31 78.333 31 91c0 4 -2.83301 7.83301 -8.5 11.5s-8.5 5.83398 -8.5 6.50098
c2 5.33301 9.33301 8 22 8s25 -3.66699 37 -11s18 -16.833 18 -28.5s-10.667 -40.834 -32 -87.501l-44 -94c12 -2 23.833 -7.5 35.5 -16.5s17.5 -17.833 17.5 -26.5s-3.33301 -17.167 -10 -25.5s-12.167 -12.5 -16.5 -12.5s-6.5 1.66699 -6.5 5z" />
    <glyph glyph-name="five" unicode="5" horiz-adv-x="350" 
d="M322 385c27.333 3.33301 44 5 50 5s9 -0.833008 9 -2.5s-3.33301 -5.5 -10 -11.5c-38 -32 -93.667 -48 -167 -48c-21.333 0 -38 3 -50 9l-59 -88c38 12 75.5 18 112.5 18s66.667 -8.33301 89 -25s33.5 -40.334 33.5 -71.001c0 -44 -17.5 -85 -52.5 -123
s-76.333 -66.833 -124 -86.5s-93.834 -29.5 -138.501 -29.5s-82.834 8.16699 -114.501 24.5s-47.5 37.5 -47.5 63.5c0 6.66699 2 10 6 10c28 -50 68.667 -75 122 -75c37.333 0 81.5 12.5 132.5 37.5s95.167 56 132.5 93s56 70.167 56 99.5c0 32.667 -29.333 49 -88 49
c-36 0 -77.667 -12.333 -125 -37c-8 -4.66699 -16.167 -11.5 -24.5 -20.5s-14.166 -13.5 -17.499 -13.5s-8.83301 4.33301 -16.5 13s-11.5 15.334 -11.5 20.001c10 18 21.333 39.5 34 64.5l29 56l21 38.5c12.667 23.333 21.334 35 26.001 35s17.667 -1.66699 39 -5
s45.5 -5 72.5 -5s54.167 1.66699 81.5 5z" />
    <glyph glyph-name="six" unicode="6" horiz-adv-x="371" 
d="M401 382c-10 10 -18.333 15 -25 15c-31.333 0 -74.666 -24.167 -129.999 -72.5s-104.333 -102.333 -147 -162s-64 -104.667 -64 -135s15 -45.5 45 -45.5c38 0 86.5 20.667 145.5 62s88.5 78.333 88.5 111c0 20.667 -11.833 31 -35.5 31s-56.334 -12.667 -98.001 -38
s-65.834 -48.333 -72.501 -69c-2.66699 -7.33301 -5.16699 -11 -7.5 -11s-3.5 3.33301 -3.5 10c0 31.333 19.167 61.833 57.5 91.5s72.833 44.5 103.5 44.5s55.5 -7 74.5 -21s28.5 -31.667 28.5 -53c0 -42 -28.833 -83.667 -86.5 -125s-113.167 -62 -166.5 -62
c-65.333 0 -98 34.333 -98 103c0 58 41.333 134.333 124 229c82.667 96.667 153.334 145 212.001 145c12 0 24.5 -4.33301 37.5 -13s19.5 -16.667 19.5 -24s-0.666992 -11 -2 -11z" />
    <glyph glyph-name="seven" unicode="7" horiz-adv-x="326" 
d="M376 347l-6 -7.99805c11.333 -6 17 -15.667 17 -29c-137.333 -65.333 -246.333 -162 -327 -290c-17.333 -28 -26 -50.333 -26 -67c0 -4 1.83301 -8.33301 5.5 -13s5.5 -7.83398 5.5 -9.50098s-1.66699 -2.5 -5 -2.5c-8.66699 0 -15.334 7.16699 -20.001 21.5
s-7 29.166 -7 44.499c0 42.667 34.667 104.167 104 184.5s131.333 133.5 186 159.5c-19.333 2 -40.666 3 -63.999 3c-87.333 0 -148 -10.333 -182 -31c-6 -4 -11.167 -11.833 -15.5 -23.5s-6.83301 -17.5 -7.5 -17.5c-6.66699 0 -10 8.5 -10 25.5s5 34.167 15 51.5
c68 24.667 141.167 37 219.5 37s117.5 -12 117.5 -36z" />
    <glyph glyph-name="eight" unicode="8" horiz-adv-x="458" 
d="M486 438c0 -39.333 -35.666 -88.667 -106.999 -148l-161 -116c51.333 -46.667 77 -84.334 77 -113.001c0 -22 -11.333 -43 -34 -63c-29.333 -27.333 -67.333 -41 -114 -41c-29.333 0 -58 6.16699 -86 18.5s-42 26.833 -42 43.5c0 24.667 18.667 54 56 88l88 67
c-10 6.66699 -22 20.334 -36 41.001s-21 36.334 -21 47.001c0 19.333 14.333 39.5 43 60.5s62 38.167 100 51.5s72.667 21 104 23h2c13.333 0 26.666 -2.66699 39.999 -8s20 -11.666 20 -18.999c0 -2.66699 -1.66699 -4 -5 -4c-20 0 -45 -5 -75 -15
c-132.667 -44 -199 -80.333 -199 -109c0 -2.66699 8.83301 -11 26.5 -25s27.5 -21 29.5 -21c0 -2.66699 4.5 -0.333984 13.5 6.99902s17.167 13.666 24.5 18.999c2.66699 1.33301 53 36 151 104c48 38.667 80.333 79 97 121h2c4 0 6 -3 6 -9zM106.001 1.99902
l4.99707 -0.998047c4 0 14 3 30 9c73.333 28 110 55.333 110 82c0 5.33301 -7.66699 16.666 -23 33.999s-26.666 26 -33.999 26c-7.33301 -2 -27.166 -16 -59.499 -42s-54.166 -46.333 -65.499 -61s-17 -30.334 -17 -47.001l14 -7c12 0 21.333 1.33301 28 4l4 -1z" />
    <glyph glyph-name="nine" unicode="9" horiz-adv-x="305" 
d="M171 -91l17.001 1.99902c3.33301 0 5.66602 -1.33301 6.99902 -4c-2 -6 -10 -9 -24 -9c-34 0 -51 23.333 -51 70c0 32 11.833 76.667 35.5 134s48.5 103.333 74.5 138c-66 -48 -115.333 -72 -148 -72c-20.667 0 -39.5 8 -56.5 24s-25.5 34.333 -25.5 55
c-0 31.333 23.333 65 70 101s88.334 54 125.001 54c12 0 26.833 -6.33301 44.5 -19s26.5 -26.167 26.5 -40.5s-6.33301 -21.5 -19 -21.5c-6.66699 0 -11.667 9.83301 -15 29.5s-11 29.5 -23 29.5c-28.667 0 -65.834 -19.667 -111.501 -59s-68.5 -73.333 -68.5 -102
c0 -13.333 10.333 -20 31 -20s42.167 3.83301 64.5 11.5s42.166 16.834 59.499 27.501c31.333 19.333 62 43.333 92 72c4.66699 0 11.834 -3.66699 21.501 -11s14.5 -13.666 14.5 -18.999c-4 -5.33301 -8 -12 -12 -20s-8.33301 -16.167 -13 -24.5
s-9.66699 -16.833 -15 -25.5c-78.667 -136.667 -118 -227.334 -118 -272.001c0 -19.333 5.66699 -29 17 -29z" />
    <glyph glyph-name="colon" unicode=":" horiz-adv-x="170" 
d="M146 159c6.66699 -5.33301 10 -11.168 10 -17.501s-3 -11.666 -9 -15.999s-12.333 -6.5 -19 -6.5c-21.333 0 -32 8.66699 -32 26c0 14.667 9.66699 22 29 22c7.33301 0 14.333 -2.66699 21 -8zM116.5 12.498c6.33301 -5 9.5 -10.667 9.5 -17s-3.16699 -11.833 -9.5 -16.5
s-12.5 -7 -18.5 -7c-21.333 0 -32 9 -32 27c0 14 9.66699 21 29 21c8 0 15.167 -2.5 21.5 -7.5z" />
    <glyph glyph-name="semicolon" unicode=";" horiz-adv-x="170" 
d="M146 159c6.66699 -5.33301 10 -11.168 10 -17.501s-3 -11.666 -9 -15.999s-12.333 -6.5 -19 -6.5c-21.333 0 -32 8.66699 -32 26c0 14.667 9.66699 22 29 22c7.33301 0 14.333 -2.66699 21 -8zM116.5 12.498c6.33301 -5 9.49902 -13.167 9.49902 -24.5
s-6 -26.666 -18 -45.999s-26.333 -29 -43 -29c-2.66699 0 -4 0.666992 -4 2c18.667 20.667 29.334 38 32.001 52c0 5.33301 -3.33301 11.166 -10 17.499s-10 10.833 -10 13.5c0 14.667 7.33301 22 22 22c8 0 15.167 -2.5 21.5 -7.5z" />
    <glyph glyph-name="less" unicode="&#x3c;" horiz-adv-x="240" 
d="M172 301c0 -8.66699 -24.667 -47 -74 -115c48.667 -60.667 73 -94.167 73 -100.5s-2 -9.5 -6 -9.5h-1l-7 3c-12 18 -42.333 45.333 -91 82c-1.33301 1.33301 -2 3 -2 5c0 7.33301 15.667 32.5 47 75.5s50 64.5 56 64.5c3.33301 0 5 -1.66699 5 -5z" />
    <glyph glyph-name="equal" unicode="=" horiz-adv-x="306" 
d="M323 259c0 -6.66699 -22 -14.333 -66 -23s-77.667 -13 -101 -13c-77.333 0 -116 5.66699 -116 17c0 12.667 6 19 18 19l193 1c38 0 62 0.333008 72 1v-2zM300 168.001c0 -6 -22.5 -13.5 -67.5 -22.5s-78.5 -13.5 -100.5 -13.5c-78.667 0 -118 6 -118 18s6.33301 18 19 18
l194 1c28 0 52 0.666992 72 2c0.666992 -0.666992 1 -1.66699 1 -3z" />
    <glyph glyph-name="greater" unicode="&#x3e;" horiz-adv-x="240" 
d="M172 211c0 -8 -16 -33.499 -48 -76.499s-50.667 -64.5 -56 -64.5c-2.66699 0 -4 1.66699 -4 5c0 7.33301 25 45.666 75 114.999c-49.333 62.667 -74 96.667 -74 102s2 8 6 8h2l6 -2c12.667 -18 43 -45.667 91 -83c1.33301 -0.666992 2 -2 2 -4z" />
    <glyph glyph-name="question" unicode="?" horiz-adv-x="302" 
d="M97 319l4 -16.001c0 -3.33301 -1 -5 -3 -5c-4 0 -9.16699 7 -15.5 21s-9.5 23 -9.5 27c0 16.667 11.5 29.834 34.5 39.501s55.333 14.5 97 14.5s78.5 -7.5 110.5 -22.5s48 -33 48 -54s-13.833 -41 -41.5 -60s-58.167 -35.167 -91.5 -48.5
c-88.667 -35.333 -133 -65.333 -133 -90c0 -14 17 -29.667 51 -47c11.333 -5.33301 17 -8.33301 17 -9c0 -4.66699 -7.83301 -7 -23.5 -7s-30.667 8.5 -45 25.5s-21.5 35.333 -21.5 55s13 39.5 39 59.5s54.667 36.333 86 49c83.333 34 125 62 125 84
c0 17.333 -38 26 -114 26s-114 -14 -114 -42zM125 8.99902c0 2 -22.333 -19.333 -67 -64c-6.66699 0 -10 3.33301 -10 10c0 18 4.33301 33.5 13 46.5s21.5 19.5 38.5 19.5s25.5 -4 25.5 -12z" />
    <glyph glyph-name="at" unicode="@" horiz-adv-x="635" 
d="M618 412c0 -14.667 -6.33301 -37.667 -19 -69l6 -39c0 -54 -23.5 -105.667 -70.5 -155s-103.5 -87.833 -169.5 -115.5s-127 -41.5 -183 -41.5c-114 0 -171 46 -171 138c0 47.333 14.333 94.666 43 141.999s65 88.333 109 123s93 62.834 147 84.501s105.333 32.5 154 32.5
s86.5 -9 113.5 -27s40.5 -42.333 40.5 -73zM588 369c5.33301 5.33301 8 16.6689 8 34.002c0 28.667 -11.833 51.5 -35.5 68.5s-55.5 25.5 -95.5 25.5c-62 0 -125.5 -19.5 -190.5 -58.5s-118.5 -88.667 -160.5 -149s-63 -119.166 -63 -176.499c0 -70 39.667 -105 119 -105
c100.667 0 195.667 39.667 285 119c69.333 62 104 114 104 156c0 1.33301 -1 2 -3 2c-72.667 -117.333 -131.334 -176 -176.001 -176c-17.333 0 -31.166 7.33301 -41.499 22s-15.5 34 -15.5 58s5 53 15 87c-0.666992 0 -9.66699 -14 -27 -42c-54 -84 -97.333 -126 -130 -126
c-13.333 0 -25.5 6.33301 -36.5 19s-16.5 26 -16.5 40c0 24.667 11.833 57 35.5 97s52.334 75.5 86.001 106.5s62.5 46.5 86.5 46.5h10c24 0 44.667 -4.5 62 -13.5s26 -21.5 26 -37.5c0 -7.33301 -3 -11 -9 -11c-0.666992 0 -1.66699 0.666992 -3 2
c-10 25.333 -26.833 38 -50.5 38s-52.167 -15.833 -85.5 -47.5s-61 -66.334 -83 -104.001s-33 -64.334 -33 -80.001s3.33301 -23.5 10 -23.5c29.333 0 92.666 67.333 189.999 202c0 0.666992 1.83301 1 5.5 1s10.667 -2.83301 21 -8.5s15.5 -10.834 15.5 -15.501
c-30.667 -55.333 -46 -105 -46 -149c0 -28.667 8.66699 -43 26 -43c22 0 51.333 26.667 88 80l77 112l-1 11c0 14.667 1.66699 27.167 5 37.5s6.5 15.5 9.5 15.5s8.83301 -4.66699 17.5 -14z" />
    <glyph glyph-name="A" unicode="A" horiz-adv-x="580" 
d="M249 147l34.9971 1h33c30 24 66.333 57.333 109 100s72.667 76.667 90 102l31 45c2.66699 0 4 -3.66699 4 -11c0 -30 -23.667 -71 -71 -123l-104 -110l119 12c21.333 46 44.666 92.833 69.999 140.5l47.5 90l19 37c6.33301 12.333 13.5 23.833 21.5 34.5s15.5 16 22.5 16
s15.667 -2.16699 26 -6.5s15.5 -8.83301 15.5 -13.5c-8.66699 -12.667 -18.167 -27.667 -28.5 -45l-33.5 -56c-118 -197.333 -177 -335.666 -177 -414.999c0 -9.33301 2.66699 -21 8 -35c6.66699 -16 8.66699 -24 6 -24c-13.333 0 -24.166 8.16699 -32.499 24.5
s-12.5 37.333 -12.5 63s13.667 80.5 41 164.5c-9.33301 0 -35 -3.33301 -77 -10s-68 -11.334 -78 -14.001c-109.333 -94.667 -194.666 -142 -255.999 -142c-26 0 -46 8.66699 -60 26c2.66699 0.666992 4.33398 1 5.00098 1l29 -5c49.333 0 123.333 38.667 222 116v1l-54 -2
c-16 0 -29.833 4.5 -41.5 13.5s-17.5 20.167 -17.5 33.5l2 2c0 0.666992 0.333008 1 1 1l3 -2c6.66699 -6.66699 34.334 -10 83.001 -10z" />
    <glyph glyph-name="B" unicode="B" horiz-adv-x="530" 
d="M580 380c0 -35.333 -23.665 -70.332 -70.998 -104.999s-105.333 -60.334 -174 -77.001c51.333 -4 92.333 -16.833 123 -38.5s46 -51 46 -88s-18.5 -68.833 -55.5 -95.5s-80.833 -40 -131.5 -40c-29.333 0 -58.333 4.83301 -87 14.5s-43 21.834 -43 36.501
c0 1.33301 0.666992 2 2 2l6 -2c15.333 -10 34.666 -15 57.999 -15c57.333 0 107.333 13.667 150 41s64 53.5 64 78.5s-16.833 46.167 -50.5 63.5s-66.334 26 -98.001 26s-56.5 -3.66699 -74.5 -11c-6.66699 1.33301 -10 5.66602 -10 12.999c0 9.33301 7 16 21 20l32 5
c74 20 131.667 45.833 173 77.5s62 67.167 62 106.5c0 19.333 -11 35 -33 47s-55.167 18 -99.5 18s-81.333 -3.83301 -111 -11.5s-78.5 -23 -146.5 -46s-103 -34.5 -105 -34.5c-11.333 0 -17 8 -17 24c0 7.33301 2.33301 12 7 14c125.333 50 246 75 362 75
c134 0 201 -32.667 201 -98zM307.002 398.001c0 -1.33301 -0.333008 -2.33301 -1 -3c-144 -208.667 -216 -363 -216 -463c0 -12.667 2.66699 -25 8 -37s8.66602 -18 9.99902 -18v1c0 -3.33301 -2 -5 -6 -5c-11.333 0 -21.166 9 -29.499 27s-12.5 39 -12.5 63
c0 86.667 48.333 211.667 145 375c28 52.667 46.667 79 56 79s19.333 -2.16699 30 -6.5s16 -8.5 16 -12.5z" />
    <glyph glyph-name="C" unicode="C" horiz-adv-x="513" 
d="M551 438c15.333 36 30.0029 54 44.0029 54c22.667 0 34 -4.33301 34 -13l-59 -77c-39.333 -53.333 -59 -92.333 -59 -117l4 -15c0 -1.33301 -0.666992 -2 -2 -2c-8 0 -12 8.66699 -12 26c0 29.333 13.333 71.333 40 126c-20.667 18.667 -49.667 28 -87 28
c-56.667 0 -115 -18.167 -175 -54.5s-109.333 -82 -148 -137s-58 -106.167 -58 -153.5s15 -84.833 45 -112.5s68.333 -41.5 115 -41.5c91.333 0 173.666 38.667 246.999 116c9.33301 9.33301 16 14 20 14c2.66699 0 4 -2.5 4 -7.5s-3 -10.833 -9 -17.5
c-36 -40.667 -82.333 -72.5 -139 -95.5s-110.334 -34.5 -161.001 -34.5s-91.834 14.5 -123.501 43.5s-47.5 66.333 -47.5 112s12 91.167 36 136.5s55.333 86 94 122s84.167 65.833 136.5 89.5s101.833 35.5 148.5 35.5s84 -8.33301 112 -25z" />
    <glyph glyph-name="D" unicode="D" horiz-adv-x="694" 
d="M686 269c0 -38 -10.8311 -76.333 -32.498 -115s-51.334 -73.667 -89.001 -105s-85 -56.833 -142 -76.5s-117.667 -29.5 -182 -29.5s-96.5 5.33301 -96.5 16c0 6 5 9 15 9h16c4.66699 -0.666992 10.667 -1 18 -1c66 0 128.667 10.333 188 31
s108.166 46.834 146.499 78.501s68.666 65.667 90.999 102s33.5 70.833 33.5 103.5c0 51.333 -20.333 92.166 -61 122.499s-93 45.5 -157 45.5h-7c-91.333 -2 -219.666 -33.333 -384.999 -94c-14 0 -21 10.333 -21 31c0 6.66699 3 11.5 9 14.5s25.333 9.16699 58 18.5
c119.333 36 228.666 54 327.999 54c78.667 0 143.334 -18.667 194.001 -56s76 -87 76 -149zM124.002 -102l-1.99902 -0.999023c-10.667 0 -19.334 6.16699 -26.001 18.5s-10 30.166 -10 53.499c0 82.667 46.667 206 140 370c0 2.66699 3.5 9.83398 10.5 21.501l17.5 29.5
c9.33301 16.667 17.5 25 24.5 25s15.167 -1.83301 24.5 -5.5s14 -7.5 14 -11.5c-17.333 -30 -35.333 -59.333 -54 -88c-102 -176.667 -153 -297.334 -153 -362.001c0 -7.33301 2.33301 -17 7 -29s7 -19 7 -21z" />
    <glyph glyph-name="E" unicode="E" horiz-adv-x="490" 
d="M13 183l29.001 -6c27.333 77.333 80.5 145.666 159.5 204.999s155.833 89 230.5 89c26 0 43.667 -2.66699 53 -8c6.66699 24 14 37.667 22 41c2 0.666992 4.33301 1 7 1c23.333 0 35 -4.33301 35 -13c-1.33301 0 -8.83301 -9.33301 -22.5 -28
s-27.334 -39.667 -41.001 -63s-20.5 -40 -20.5 -50l4 -15c0 -1.33301 -0.666992 -2 -2 -2c-10 0 -15 12 -15 36s7.66699 49 23 75c-9.33301 1.33301 -17.666 2 -24.999 2c-69.333 0 -140.666 -27.833 -213.999 -83.5s-122.666 -118.5 -147.999 -188.5c82 0 144.667 1 188 3
c40 2.66699 81.667 9.33398 125 20.001c4.66699 0 7 -1.66699 7 -5c0 -12.667 -41.333 -25.167 -124 -37.5s-152 -19.166 -208 -20.499c-2 -12.667 -3 -24.667 -3 -36c0 -44.667 15 -80.834 45 -108.501s68.333 -41.5 115 -41.5c93.333 0 175.666 38.667 246.999 116
c9.33301 9.33301 16 14 20 14c2.66699 0 4 -2.5 4 -7.5s-3 -10.833 -9 -17.5c-36 -40.667 -82.333 -72.5 -139 -95.5s-110.334 -34.5 -161.001 -34.5s-91.834 14.5 -123.501 43.5s-47.5 68.5 -47.5 118.5c0 14.667 1.66699 32 5 52c-3.33301 0 -7.5 5.83301 -12.5 17.5
s-7.5 19.167 -7.5 22.5s1.33301 5 4 5z" />
    <glyph glyph-name="F" unicode="F" horiz-adv-x="476" 
d="M297 -88l5 -37.0029c0 -3.33301 -0.333008 -5 -1 -5c-5.33301 0 -10 6 -14 18s-6 24.667 -6 38c0 44.667 29.667 126.334 89 245.001c-14 -3.33301 -38.667 -8 -74 -14c-72 -14.667 -123 -22 -153 -22s-45 15 -45 45c0 1.33301 0.666992 2.33301 2 3
c20.667 -5.33301 52.5 -8 95.5 -8s104.167 4.33301 183.5 13l54 110c21.333 46.667 32 85.667 32 117c0 46 -25.667 69 -77 69c-44 0 -101.5 -17 -172.5 -51s-127.167 -71.333 -168.5 -112c-1.33301 -1.33301 -3.33301 -2 -6 -2c-9.33301 0 -14 9.33301 -14 28
c0 22.667 24 46.5 72 71.5s100.667 45 158 60s103 22.5 137 22.5c76 0 114 -34 114 -102c0 -30.667 -4.33301 -56.167 -13 -76.5s-34 -63.5 -76 -129.5c36.667 7.33301 58.167 11 64.5 11s9.5 -1.16699 9.5 -3.5s-1 -4.16602 -3 -5.49902s-5.83301 -2.66602 -11.5 -3.99902
s-11.167 -2.33301 -16.5 -3c-18 -4 -35 -7.33301 -51 -10c-76 -122 -114 -210.667 -114 -266z" />
    <glyph glyph-name="G" unicode="G" horiz-adv-x="606" 
d="M297 192l59.001 -6.00391c76 0 134 2 174 6c4 13.333 8.83301 20 14.5 20s15.834 -4.33301 30.501 -13l30 5c5.33301 0 8 -1.83301 8 -5.5s-11 -7.5 -33 -11.5c-48 -121.333 -101.5 -223.833 -160.5 -307.5s-107.833 -125.5 -146.5 -125.5c-12 0 -18 3 -18 9
c0 2 4.33301 4.66699 13 8c30 11.333 47.333 18.666 52 21.999c53.333 46.667 107.666 139 162.999 277c-92 -97.333 -187 -146 -285 -146c-52.667 0 -94.834 14.333 -126.501 43s-47.5 66 -47.5 112s11.833 91.333 35.5 136s54.5 85.334 92.5 122.001
s83.333 66.834 136 90.501s101.667 35.5 147 35.5s81 -6 107 -18c8.66699 15.333 14.667 25.666 18 30.999c11.333 14.667 24.666 22 39.999 22s23 -3.33301 23 -10c0 -2 -7.66699 -10.167 -23 -24.5s-26 -25.166 -32 -32.499c8.66699 -5.33301 16.167 -11.166 22.5 -17.499
s9.5 -10.166 9.5 -11.499c0 -0.666992 -4.5 -6.5 -13.5 -17.5l-26.5 -32.5c-23.333 -30 -35.666 -49.667 -36.999 -59l3 -3c0 -3.33301 -1.66699 -5 -5 -5c-10 0 -15 10 -15 30c0 37.333 9.33301 75.333 28 114c-24.667 12.667 -52 19 -82 19
c-60 0 -120.667 -18.833 -182 -56.5s-111.333 -84.167 -150 -139.5s-58 -106.666 -58 -153.999s15.167 -84 45.5 -110s70.5 -39 120.5 -39c76.667 0 160.334 52 251.001 156c17.333 18.667 28.666 32.667 33.999 42l10 29c-105.333 -20.667 -171.333 -31 -198 -31
c-8 0 -15.333 4 -22 12s-10 18.333 -10 31c0 2.66699 1.33301 4 4 4zM576.001 400.996l-11 10c-20.667 -34 -34.667 -63.333 -42 -88c10 12.667 27.667 38.667 53 78z" />
    <glyph glyph-name="H" unicode="H" horiz-adv-x="547" 
d="M13 183l19 -5.00293c69.333 0 110.666 1 123.999 3c37.333 86.667 83.333 177 138 271c4.66699 4.66699 16 7 34 7s27 -4.33301 27 -13l-48 -77c-40 -68 -73 -130 -99 -186l165 8c24.667 1.33301 59.334 5.33301 104.001 12c27.333 53.333 56.333 104.5 87 153.5
s50 73.5 58 73.5s16.5 -1.83301 25.5 -5.5s13.5 -7.5 13.5 -11.5l-24.5 -34l-27.5 -38c-100 -133.333 -150 -232.666 -150 -297.999c0 -30 12 -45 36 -45l34 5c2 0 3 -0.666992 3 -2c0 -3.33301 -6 -7.16602 -18 -11.499s-21.333 -6.5 -28 -6.5
c-15.333 0 -27.833 6.66699 -37.5 20s-14.5 30 -14.5 50c0 38 11.333 80.667 34 128c-108 -26 -201 -39 -279 -39c-48.667 -107.333 -73 -187.333 -73 -240c0 -16 2 -27.667 6 -35s6 -11.666 6 -12.999s-1.66699 -2 -5 -2c-24 0 -36 25 -36 75s17.333 120 52 210
c-38.667 -2.66699 -65.667 -4 -81 -4c-32.667 0 -49 15.667 -49 47c0 2 1.33301 3 4 3z" />
    <glyph glyph-name="I" unicode="I" horiz-adv-x="351" 
d="M-10 -11l59 -4.99414h57v8c0 68.667 81.333 213.334 244 434.001c-126.667 -10.667 -202 -34.667 -226 -72c-0.666992 -2 -2 -6.66699 -4 -14c-2.66699 -14 -7.33398 -21 -14.001 -21c-2 0 -3 1.33301 -3 4c0 77.333 88.333 119.666 265 126.999
c8.66699 20.667 19.667 31 33 31c8.66699 0 18.667 -2 30 -6s17 -8.33301 17 -13c0 -2 -2.33301 -5.66699 -7 -11c12 -0.666992 18 -1.66699 18 -3c0 -2.66699 -2.16699 -6.33398 -6.5 -11.001s-8.16602 -7 -11.499 -7h-18
c-86.667 -96.667 -156.334 -186.334 -209.001 -269.001s-80 -141.334 -82 -176.001c70 1.33301 123.333 6.66602 160 15.999c2.66699 0.666992 5.83398 1 9.50098 1s5.5 -1.33301 5.5 -4c0 -4.66699 -8.33301 -8.33398 -25 -11.001l-146 -28c5.33301 -7.33301 15 -11 29 -11
l38 7c3.33301 0 5 -0.666992 5 -2c-2 -4.66699 -10 -9.33398 -24 -14.001s-24.667 -7 -32 -7c-18 0 -31 8 -39 24c-49.333 -8.66699 -81.333 -13 -96 -13s-23.667 2.83301 -27 8.5s-5 16.5 -5 32.5c0 3.33301 1.66699 5 5 5z" />
    <glyph glyph-name="J" unicode="J" horiz-adv-x="636" 
d="M697 357c0 -46 -19.334 -98.666 -58.001 -157.999s-85 -113.666 -139 -162.999s-111.167 -91 -171.5 -125s-110.833 -51 -151.5 -51c-22.667 0 -41.667 5 -57 15s-23 23.333 -23 40c0 65.333 59.667 136.666 179 213.999c88 58 178.333 102.333 271 133
c1.33301 0 2.83301 0.333008 4.5 1s2.83398 1 3.50098 1s1 -0.666992 1 -2c0 -4 -5 -8.33301 -15 -13c-281.333 -148.667 -422 -260.667 -422 -336c0 -27.333 13.333 -41 40 -41c38.667 0 84.334 18 137.001 54c90.667 62 172.5 138.833 245.5 230.5
s109.5 166.167 109.5 223.5c0 51.333 -36.667 77 -110 77c-58.667 0 -136 -20.667 -232 -62c-70.667 -31.333 -135.834 -68 -195.501 -110s-89.5 -75 -89.5 -99c0 -14 8 -26 24 -36c0.666992 0 1 -0.833008 1 -2.5s-2.66699 -2.5 -8 -2.5s-12 5.66699 -20 17
s-12 21.666 -12 30.999c0 32 31.667 70.333 95 115s136.333 83.167 219 115.5s150 48.5 202 48.5c114.667 0 172 -38.333 172 -115z" />
    <glyph glyph-name="K" unicode="K" horiz-adv-x="455" 
d="M593 417c0 -4.66699 -3.33398 -7.00098 -10.001 -7.00098c-17.333 4.66699 -28.666 7 -33.999 7c-30 0 -67 -14.333 -111 -43s-99.167 -68.5 -165.5 -119.5l-123.5 -94.5c37.333 -77.333 83.333 -140.166 138 -188.499s99.667 -72.5 135 -72.5c18 0 27 8.33301 27 25
c0 16 -16.667 48.667 -50 98l2 2c4 0 11 -5 21 -15c32 -30.667 48 -58.667 48 -84c0 -15.333 -6.83301 -28 -20.5 -38s-31.167 -15 -52.5 -15c-42 0 -84.5 19.167 -127.5 57.5s-81.833 89.166 -116.5 152.499c-24 50.667 -36 76.834 -36 78.501s2.5 5.83398 7.5 12.501
s9 10 12 10s4.83301 -2.33301 5.5 -7c34 22.667 73.667 55 119 97l89 81c42 34 76 56.5 102 67.5s48.667 16.5 68 16.5s36.333 -2.33301 51 -7s22 -9.33398 22 -14.001zM31.999 -52.001c0 -8 2.33496 -18 7.00195 -30c5.33301 -14 7 -21 5 -21
c-10 0 -18.667 5.83301 -26 17.5s-11 29.834 -11 54.501c0 80.667 47.333 204 142 370c25.333 50.667 42.666 76 51.999 76c7.33301 0 15.666 -2.16699 24.999 -6.5s14 -7.83301 14 -10.5c-9.33301 -14 -16 -24.333 -20 -31l-15.5 -25l-19.5 -32
c-102 -176.667 -153 -297.334 -153 -362.001z" />
    <glyph glyph-name="L" unicode="L" horiz-adv-x="468" 
d="M457 -39c0 -6 -4.49902 -17.333 -13.499 -34s-19.167 -25 -30.5 -25c-1.33301 1.33301 -2 2.33301 -2 3c10.667 10.667 18.167 20.834 22.5 30.501s6.5 16.167 6.5 19.5c0 31.333 -41.333 47 -124 47c-54.667 0 -129.667 -14.333 -225 -43c0 -12 2.5 -26.667 7.5 -44
s7.5 -26.5 7.5 -27.5s-0.666992 -1.5 -2 -1.5c-24 0 -37 22 -39 66l-55 -18c-6 0 -9 4.33301 -9 13c0 19.333 2.83301 31.166 8.5 35.499s25.834 10.166 60.501 17.499c7.33301 57.333 27.666 128 60.999 212s70.5 157.667 111.5 221s73.833 95 98.5 95
c16 0 32.167 -5 48.5 -15s24.5 -20.667 24.5 -32c0 -22 -18.667 -61.333 -56 -118s-83.333 -117 -138 -181c-2 -4.66699 -9.16699 -14.5 -21.5 -29.5s-20.5 -22.5 -24.5 -22.5l-3 2c0 2.66699 18.333 27.334 55 74.001c104 134 156 223.333 156 268
c0 13.333 -4.33301 20 -13 20c-11.333 0 -25.333 -11.667 -42 -35c-50.667 -72.667 -97.834 -152.5 -141.501 -239.5s-72.167 -158.167 -85.5 -213.5c76.667 16 146 24 208 24c99.333 0 149 -23 149 -69z" />
    <glyph glyph-name="M" unicode="M" horiz-adv-x="694" 
d="M676 312c-64 -116 -96.001 -213.666 -96.001 -292.999c0 -52 8.66699 -78 26 -78c16 0 39 35 69 105c4.66699 8.66699 8.16699 13 10.5 13s3.5 -2.16699 3.5 -6.5s-0.333008 -7.5 -1 -9.5c-19.333 -76.667 -48.666 -115 -87.999 -115c-18.667 0 -33.5 9.16699 -44.5 27.5
s-16.5 40 -16.5 65s3.83301 57 11.5 96s18.167 79 31.5 120s30.333 76.333 51 106s42 44.5 64 44.5c10 0 15 -1.83301 15 -5.5s-12 -26.834 -36 -69.501zM315.999 0.000976562c-4.66699 -6.66699 -15.333 -10.0029 -32 -10.0029s-25 4.66699 -25 14
c-0.666992 0 24.5 51 75.5 153s76.5 170 76.5 204c0 18.667 -7.33301 28 -22 28c-37.333 -0.666992 -79 -22.334 -125 -65.001s-90 -96.667 -132 -162c-53.333 -77.333 -80 -149.666 -80 -216.999c0 -15.333 1.33301 -27.166 4 -35.499s4.66699 -13.166 6 -14.499
c3.33301 -3.33301 5 -6.16602 5 -8.49902s-1.66699 -3.5 -5 -3.5c-10 0 -19.333 9.16699 -28 27.5s-13 39.166 -13 62.499c0 93.333 54.667 234.333 164 423c4.66699 10.667 13.834 27.5 27.501 50.5s24.667 34.5 33 34.5s17.666 -2 27.999 -6s15.5 -8.66699 15.5 -14
c-74 -121.333 -121.667 -203.666 -143 -246.999c97.333 135.333 182.333 203 255 203c35.333 0 53 -20.333 53 -61c0 -51.333 -31 -140 -93 -266c34.667 32 93.667 90.667 177 176c6 9.33301 21.833 27.5 47.5 54.5s43.167 40.5 52.5 40.5c2 0 3 -1 3 -3
c-150 -165.333 -252 -271.333 -306 -318z" />
    <glyph glyph-name="N" unicode="N" horiz-adv-x="473" 
d="M63 -47c0 -13.333 3.99902 -25.999 11.999 -37.999c0 -2.66699 -1.66699 -4 -5 -4c-12 0 -21.833 9.5 -29.5 28.5s-11.5 39.833 -11.5 62.5c0 89.333 52.333 221.666 157 396.999c27.333 54.667 47.333 82 60 82c8 0 17.167 -2 27.5 -6s15.5 -8.66699 15.5 -14
l-55.5 -93.5l-44 -74.5l-20.5 -35c-46 -83.333 -78 -154 -96 -212c43.333 70.667 145.333 177.667 306 321l78 71c10 8.66699 23.667 13.667 41 15c8 0 12 -2.33301 12 -7l-1 -4c-98 -194 -147 -336.667 -147 -428c0 -48.667 8.66699 -73 26 -73s40.333 35 69 105
c4.66699 8.66699 8.33398 13 11.001 13s4 -1.66699 4 -5s-0.666992 -7 -2 -11c-21.333 -76.667 -50.333 -115 -87 -115c-18 0 -32.833 9 -44.5 27s-17.5 43.167 -17.5 75.5s8.5 81 25.5 146s37.167 123.5 60.5 175.5l-205 -185c-92.667 -94 -139 -165.333 -139 -214z" />
    <glyph glyph-name="O" unicode="O" horiz-adv-x="591" 
d="M627 350c0 -16.667 -7 -39.333 -21 -68c2.66699 -8 4 -19 4 -33c0 -64.667 -36 -129 -108 -193c-54.667 -48 -106.667 -81.833 -156 -101.5s-106.333 -29.5 -171 -29.5c-44 0 -80.5 14.667 -109.5 44s-43.5 66.333 -43.5 111c0 59.333 23.333 118.166 70 176.499
s105.167 105.5 175.5 141.5s138.833 54 205.5 54c46.667 0 84 -9.16699 112 -27.5s42 -43.166 42 -74.499zM603 342.001c0 28.667 -11.8311 51.498 -35.498 68.498s-55.167 25.5 -94.5 25.5c-60 0 -120.667 -16.167 -182 -48.5s-112.333 -75.833 -153 -130.5
s-61 -110.667 -61 -168c0 -44 12.833 -78 38.5 -102s61 -36 106 -36s92.833 11.5 143.5 34.5s95.667 56.333 135 100s61.666 90.834 66.999 141.501c-34 -38 -79.333 -72 -136 -102c-2.66699 -1.33301 -4.5 -2 -5.5 -2s-1.5 0.333008 -1.5 1
c0 -0.666992 9.33301 6.66602 28 21.999c50.667 42.667 88.667 79.667 114 111c-4.66699 26 -17.167 48.833 -37.5 68.5s-45.5 33.834 -75.5 42.501c-11.333 2.66699 -31.833 4.83398 -61.5 6.50098s-45.834 3.16699 -48.501 4.5l3 2c23.333 7.33301 50.5 11 81.5 11
s63.167 -7.83301 96.5 -23.5s57.333 -36.5 72 -62.5c4.66699 12 7 24 7 36z" />
    <glyph glyph-name="P" unicode="P" horiz-adv-x="625" 
d="M188 -82l2.00098 -11.9971c0 -2.66699 -1.33301 -4 -4 -4c-18.667 0 -28 15 -28 45c0 58 23.167 132.5 69.5 223.5s104.5 177.5 174.5 259.5v1c-162 -13.333 -287 -52 -375 -116c-1.33301 -1.33301 -3.33301 -2 -6 -2c-10.667 0 -16 8.33301 -16 25s13.667 31.667 41 45
c115.333 54.667 239.333 82 372 82c84.667 0 151 -12.333 199 -37s72 -59.334 72 -104.001s-32.167 -85.334 -96.5 -122.001s-129.833 -55 -196.5 -55c-36.667 0 -73.334 6.66699 -110.001 20c-21.333 -30 -43 -72.833 -65 -128.5s-33 -95.834 -33 -120.501z
M668.001 349.003c0 54.667 -83 81.998 -249 81.998c17.333 -10.667 26 -16.667 26 -18c-102 -143.333 -153 -220.666 -153 -231.999c13.333 -4 35.833 -6 67.5 -6s72.667 8.5 123 25.5s93.833 39.333 130.5 67s55 54.834 55 81.501z" />
    <glyph glyph-name="Q" unicode="Q" horiz-adv-x="600" 
d="M776 -166c0 -42 -22.999 -63.001 -68.999 -63.001c-54 0 -115.667 21 -185 63c-20.667 12.667 -74.334 52.334 -161.001 119.001c-47.333 -23.333 -94 -35 -140 -35s-84.5 15 -115.5 45s-46.5 69.333 -46.5 118c0 71.333 32.5 136.833 97.5 196.5
s136.167 89.5 213.5 89.5c29.333 0 45 -6 47 -18c-7.33301 4 -20 6 -38 6c-32.667 0 -73.334 -16.833 -122.001 -50.5s-91.167 -73.667 -127.5 -120s-54.5 -85.833 -54.5 -118.5c0 -72.667 43.333 -109 130 -109c34.667 0 73.334 8.33301 116.001 25
c-64.667 46.667 -119.334 70 -164.001 70c-24.667 0 -44.334 -6.33301 -59.001 -19c-2 0 -3 0.666992 -3 2c0 9.33301 8.83301 17.666 26.5 24.999s32.834 11 45.501 11c41.333 0 99.666 -26.667 174.999 -80c68.667 31.333 126.334 76.333 173.001 135s70 116 70 172
c0 44 -14.333 77.833 -43 101.5s-67.667 35.5 -117 35.5c-67.333 0 -142 -21 -224 -63s-136.667 -88.667 -164 -140c-3.33301 0 -5 2.83301 -5 8.5s10 19.834 30 42.501c46 52 100.5 94.333 163.5 127s125.833 49 188.5 49c50.667 0 98.334 -19.833 143.001 -59.5
s67 -84 67 -133s-23.5 -102.833 -70.5 -161.5s-104.5 -106 -172.5 -142c82.667 -59.333 145.167 -99 187.5 -119s84 -30 125 -30s61.5 15.333 61.5 46c0 33.333 -24.333 65 -73 95c-22.667 14 -51.167 26.667 -85.5 38s-51.5 16.333 -51.5 15c0 1.33301 3.66699 2 11 2
c68.667 0 122.5 -17.5 161.5 -52.5s58.5 -76.167 58.5 -123.5z" />
    <glyph glyph-name="R" unicode="R" horiz-adv-x="583" 
d="M617 428.5c51.333 -21 77.0039 -49 77.0039 -84s-17.167 -67.333 -51.5 -97s-77.5 -53 -129.5 -70s-104 -25.5 -156 -25.5c-18 0 -34.333 1 -49 3c79.333 -128 138.666 -192 177.999 -192c15.333 0 25 8.33301 29 25l8 42c6.66699 -4.66699 10 -13.834 10 -27.501
s-6.16699 -27.167 -18.5 -40.5s-28.833 -20 -49.5 -20s-51.5 21.167 -92.5 63.5s-82.5 96.833 -124.5 163.5c-53.333 -90.667 -80 -158 -80 -202c0 -12 4 -20.333 12 -25c0 -2 -1.66699 -3 -5 -3c-14 0 -21 19.333 -21 58c0 59.333 23.667 129.666 71 210.999
c-10.667 19.333 -16 31.666 -16 36.999c0 12.667 8.66699 19 26 19c7.33301 0 12.666 -4 15.999 -12c56 84 113 140 171 168c2 0.666992 4.5 1 7.5 1s7.5 -1.66699 13.5 -5s9 -6.5 9 -9.5s-1 -4.5 -3 -4.5l-46 -46c-38.667 -39.333 -81.334 -88.333 -128.001 -147
c10 -18 18.5 -29.167 25.5 -33.5s20.167 -6.5 39.5 -6.5c45.333 0 94 9.66699 146 29s95.667 43.333 131 72s53 56 53 82s-20 46.5 -60 61.5s-92.667 22.5 -158 22.5c-171.333 0 -309.666 -36.667 -414.999 -110c-8.66699 -5.33301 -15.334 -8 -20.001 -8
c-10.667 0 -16 5.33301 -16 16c0 22.667 22.5 43.834 67.5 63.501s98 34.834 159 45.501s119.167 16.334 174.5 17.001h13c83.333 0 150.666 -10.5 201.999 -31.5z" />
    <glyph glyph-name="S" unicode="S" horiz-adv-x="318" 
d="M435 434c0 6 -8.33398 8.99902 -25.001 8.99902c-40 0 -83 -7.16699 -129 -21.5s-85.5 -34.166 -118.5 -59.499s-49.5 -50.5 -49.5 -75.5s29 -67.833 87 -128.5s87 -106.334 87 -137.001c0 -22 -11 -40.333 -33 -55s-48.333 -22 -79 -22h-25
c-64 0 -108.667 19.667 -134 59l2 6c28.667 -13.333 59.334 -20 92.001 -20s65.167 6.33301 97.5 19s48.5 27.667 48.5 45c0 10 -14.333 30.333 -43 61c-55.333 58 -89.833 97.333 -103.5 118s-20.5 45.334 -20.5 74.001c0 74 69 129 207 165c61.333 14 96.333 21 105 21
s16.667 -1 24 -3l25 -26c10.667 -12 16.667 -22 18 -30c0 -14 -17.833 -30.5 -53.5 -49.5s-57.5 -28.5 -65.5 -28.5l-1 5l51 35c24 16 36 29 36 39z" />
    <glyph glyph-name="T" unicode="T" horiz-adv-x="498" 
d="M209 336l19 1.00098c4.66699 0 7 -1.33301 7 -4c0 -6.66699 -8 -10 -24 -10c-40.667 0 -84 13.333 -130 40s-69 54.667 -69 84c0 38.667 19.333 58 58 58c9.33301 0 19.666 -1 30.999 -3c226 -58 387.333 -87 484 -87c59.333 0 89 13 89 39c0 18 -18.667 33 -56 45
l-54 21c0 3.33301 4.33301 5 13 5c26 0 53.667 -11.5 83 -34.5s44 -45.833 44 -68.5c0 -26 -25.333 -39 -76 -39h-4c-68.667 2.66699 -125.667 8.66699 -171 18l-218 44.5c-17.333 3.66699 -31.166 6.5 -41.499 8.5s-23.833 4.33301 -40.5 7c-29.333 4.66699 -57 7 -83 7
s-39 -7 -39 -21c0 -24.667 22.5 -49.334 67.5 -74.001s81.833 -37 110.5 -37zM495 374.001c0 -2 -1.66797 -6.33301 -5.00098 -13l-63 -63c-114 -127.333 -171 -240 -171 -338c0 -18.667 9.66699 -28 29 -28c13.333 0 29.333 4.66699 48 14l25 14
c2.66699 0 4 -0.666992 4 -2c0 -8 -10.667 -16.167 -32 -24.5s-35.666 -12.5 -42.999 -12.5c-18 0 -32 6.16699 -42 18.5s-15 31.333 -15 57s13.5 70.5 40.5 134.5s60.333 123 100 177s73.5 81 101.5 81c15.333 0 23 -5 23 -15z" />
    <glyph glyph-name="U" unicode="U" horiz-adv-x="381" 
d="M585 441c0 -20.667 -13 -46.667 -39 -78l-46 -52l-152 -167c-10.667 -17.333 -21.834 -49.833 -33.501 -97.5s-17.5 -82.834 -17.5 -105.501c0 -80.667 14 -136 42 -166c0.666992 0 0.833984 -0.5 0.500977 -1.5s-1.16602 -1.83301 -2.49902 -2.5
c-16.667 0 -33 24.167 -49 72.5s-24 90.833 -24 127.5s5.33301 71.667 16 105c-62.667 -76.667 -112.334 -115 -149.001 -115c-18 0 -34.833 9.83301 -50.5 29.5s-23.5 38.5 -23.5 56.5c0 44.667 21.333 103.334 64 176.001l103 167
c-33.333 -10.667 -70 -29.334 -110 -56.001c-70.667 -49.333 -106.667 -74 -108 -74l-1 1l2 4c20 25.333 55.833 55.833 107.5 91.5s87.167 53.5 106.5 53.5c10.667 0 20.5 -4.16699 29.5 -12.5s13.5 -17.5 13.5 -27.5s-21 -48.333 -63 -115s-70.5 -115.667 -85.5 -147
s-22.5 -62.333 -22.5 -93c0 -11.333 4.66699 -17 14 -17c17.333 0 54.5 25.333 111.5 76s94.833 94.334 113.5 131.001c38.667 79.333 78.5 141.833 119.5 187.5s78.167 68.5 111.5 68.5c14.667 0 22 -6.66699 22 -20zM568 441c0 3.33301 -2.00098 4.99902 -6.00098 4.99902
c-19.333 0 -50.833 -26.167 -94.5 -78.5s-79.5 -107.166 -107.5 -164.499v-2c0 -0.666992 0.333008 -1.66699 1 -3c48.667 47.333 95.334 97 140.001 149s67 83.333 67 94z" />
    <glyph glyph-name="V" unicode="V" horiz-adv-x="501" 
d="M791 440c0 -4.66699 -0.668945 -7 -2.00195 -7l-11 18c-7.33301 11.333 -18.666 17 -33.999 17c-32.667 0 -79 -27.333 -139 -82s-114.833 -112.5 -164.5 -173.5s-90.167 -115.5 -121.5 -163.5c-38 -75.333 -62.333 -113 -73 -113c-6.66699 0 -14.334 2.33301 -23.001 7
s-13 9.33398 -13 14.001l32 102c40.667 128.667 61.667 231 63 307c0 62.667 -18 94 -54 94c-20.667 0 -47.667 -11.833 -81 -35.5s-64.666 -52.5 -93.999 -86.5c-4 -8 -11.667 -19.833 -23 -35.5s-19.666 -23.5 -24.999 -23.5c-1.33301 0 -2 1.5 -2 4.5
s1.33301 6.83301 4 11.5c29.333 51.333 64 94.5 104 129.5s75.333 52.5 106 52.5c68 0 102 -48.667 102 -146c0 -32 -4.5 -66.667 -13.5 -104s-24.833 -92 -47.5 -164c101.333 149.333 186.5 256.666 255.5 321.999s131.5 98 187.5 98c18.667 0 34.5 -3.83301 47.5 -11.5
s19.5 -18.167 19.5 -31.5z" />
    <glyph glyph-name="W" unicode="W" horiz-adv-x="752" 
d="M532 298c-4 -61.333 -6.00098 -106.663 -6.00098 -135.996c0 -128.667 15 -193 45 -193s56.667 29.667 80 89s35 115.666 35 168.999c0 80.667 -20.667 127.667 -62 141c-2 1.33301 -3 2.33301 -3 3c0 6.66699 10.667 10 32 10s38.666 -13.833 51.999 -41.5
s20 -64.834 20 -111.501c0 -74.667 -15 -139.334 -45 -194.001s-68 -82 -114 -82c-54.667 0 -82 56 -82 168c0 42.667 4 93.667 12 153c-18.667 -19.333 -62.167 -69.833 -130.5 -151.5s-123.833 -139.667 -166.5 -174s-81.667 -51.5 -117 -51.5
c-20 0 -36.833 8.66699 -50.5 26s-20.5 37.666 -20.5 60.999c0 50.667 27 114.667 81 192s114.333 144 181 200s118 84 154 84c12 0 18 -3.66699 18 -11c0 -2.66699 -1.66699 -4.66699 -5 -6c-41.333 -21.333 -80.5 -48 -117.5 -80s-79.833 -75.5 -128.5 -130.5
s-86.5 -107 -113.5 -156s-40.5 -87 -40.5 -114s10.333 -40.5 31 -40.5c18.667 0 34.834 2.83301 48.501 8.5s39.334 25.167 77.001 58.5s98.167 95.333 181.5 186s129.833 136 139.5 136s14.5 -4 14.5 -12z" />
    <glyph glyph-name="X" unicode="X" horiz-adv-x="483" 
d="M157 359l1.00098 -4.99805l-3 -2c-3.33301 1.33301 -5 20.666 -5 57.999c0 25.333 10.667 38 32 38c8.66699 0 23.5 -29 44.5 -87s35.167 -95.333 42.5 -112c178 160 272.333 240 283 240c5.33301 0 11.333 -3 18 -9s10 -12 10 -18c0 2 -39.667 -30.5 -119 -97.5
l-180 -153.5l41 -109c17.333 -44.667 37.666 -79.334 60.999 -104.001c8.66699 -9.33301 15.5 -14 20.5 -14s8.66699 0.5 11 1.5s8 9.83301 17 26.5s20.167 43.334 33.5 80.001c2.66699 -7.33301 4 -14.333 4 -21c0 -30.667 -8.16699 -55.5 -24.5 -74.5
s-37.5 -28.5 -63.5 -28.5c-24.667 0 -48 22 -70 66c-16.667 32.667 -37.667 81.667 -63 147c-94 -82 -173 -173 -237 -273c-5.33301 -8 -8.83301 -12 -10.5 -12s-2.5 5 -2.5 15s2 20 6 30c8.66699 23.333 42.667 71.666 102 144.999s101 118.333 125 135
c-16 48 -37 102.667 -63 164h-1c-6.66699 0 -10 -8.66699 -10 -26z" />
    <glyph glyph-name="Y" unicode="Y" horiz-adv-x="540" 
d="M542 323c10 3.33301 18.667 4.99805 26 4.99805s11 -1.16699 11 -3.5s-1.5 -4.83301 -4.5 -7.5s-6.5 -5 -10.5 -7c-13.333 -7.33301 -22.666 -12.333 -27.999 -15c-20.667 -63.333 -70.667 -150.666 -150 -261.999c-72.667 -106.667 -128.667 -180.667 -168 -222
s-71 -62 -95 -62c-31.333 0 -47 14.667 -47 44c0 18 14 51 42 99s60.667 92.333 98 133c18 20 54.667 54.667 110 104l150 139c5.33301 4.66699 12.333 26.334 21 65.001s13 67 13 85s-4.66699 27 -14 27c-26.667 0 -122.667 -115 -288 -345l-49 -68
c-8.66699 -18 -20.334 -27 -35.001 -27s-22 6.66699 -22 20v3l70 165c22.667 53.333 39.667 102.333 51 147s17.333 75.667 18 93c0 40.667 -13 61 -39 61c-12.667 0 -34.167 -11.5 -64.5 -34.5s-57.833 -46.167 -82.5 -69.5s-37 -37 -37 -41h1c-2 0 -3 0.833008 -3 2.5
s1 4.16699 3 7.5c27.333 40 58 73.833 92 101.5s63 41.5 87 41.5c48.667 0 73 -30.667 73 -92c0 -69.333 -30.667 -174 -92 -314l151 211c82.667 112 134.5 168 155.5 168s31.5 -4.33301 31.5 -13c-0.666992 -1.33301 -2.66699 -3.33301 -6 -6c26 -26 39 -53.333 39 -82
c0 -16 -2.66699 -33 -8 -51zM119 -192.002c-7.33301 -16 -11 -26.166 -11 -30.499s1.66699 -6.5 5 -6.5h4c2.66699 0 10.667 5.66699 24 17c50 42 106.167 106.167 168.5 192.5s112.5 169.166 150.5 248.499c-173.333 -156.667 -287 -297 -341 -421z" />
    <glyph glyph-name="Z" unicode="Z" horiz-adv-x="669" 
d="M669 -44c0 -45.333 -24.3301 -83.668 -72.9971 -115.001c-15.333 -9.33301 -25 -14 -29 -14s-6 1 -6 3c0.666992 0.666992 1 1.33398 1 2.00098c57.333 51.333 86 93.666 86 126.999c0 38.667 -63.667 58 -191 58c-60.667 0 -126.834 -5 -198.501 -15
s-129.334 -20.5 -173.001 -31.5s-65.5 -18.833 -65.5 -23.5h1c-11.333 0 -17 8 -17 24l-1 8c0 2.66699 2 5 6 7s18.667 6.66699 44 14l-1 7c0 10 17.5 28.5 52.5 55.5s71.333 52.333 109 76s89.167 54.167 154.5 91.5c159.333 90 239.666 137 240.999 141
c-21.333 24 -69.333 36 -144 36c-20.667 0 -63.5 -3.33301 -128.5 -10s-103.5 -10 -115.5 -10c-27.333 0 -41 8 -41 24c0 6.66699 3 12.334 9 17.001c6 -5.33301 11.5 -8 16.5 -8s44.833 4.33301 119.5 13s134.667 13 180 13c68 0 109 -32.333 123 -97
c6.66699 -7.33301 10 -19 10 -35c0 -4 -17.333 -13 -52 -27l-63 -27c-96 -45.333 -207.333 -107.333 -334 -186l-107 -65c165.333 28 302.333 42 411 42c52 0 94.333 -8.5 127 -25.5s49 -40.167 49 -69.5z" />
    <glyph glyph-name="bracketleft" unicode="[" horiz-adv-x="441" 
d="M123 -24l57 3.00195c14.667 0 22 -2.66699 22 -8c0 -7.33301 -23 -11 -69 -11c-84.667 0 -127 9 -127 27c0 59.333 32 150.666 96 273.999s121 202.666 171 237.999c14 10 44 15 90 15s69 -5.33301 69 -16l-1 -9c-2 -0.666992 -5.33301 -1 -10 -1l-55 3
c-19.333 0 -33 -1.66699 -41 -5c-20.667 -10.667 -52 -48 -94 -112s-80.167 -132 -114.5 -204s-51.5 -122.667 -51.5 -152c0 -28 19.333 -42 58 -42z" />
    <glyph glyph-name="backslash" unicode="\" horiz-adv-x="415" 
d="M394 -90c0 -16.667 -6.66602 -24.9971 -19.999 -24.9971c1.33301 1.33301 2 3.66602 2 6.99902c0 70 -34.833 162.667 -104.5 278s-157.834 227.666 -264.501 336.999c2 3.33301 8 5 18 5s20.833 -5.16699 32.5 -15.5s33.5 -36.833 65.5 -79.5
c80.667 -102 146 -199.833 196 -293.5s75 -164.834 75 -213.501z" />
    <glyph glyph-name="bracketright" unicode="]" horiz-adv-x="419" 
d="M322 496l-57.0029 -4.00098c-14.667 0 -22 3.33301 -22 10s23 10 69 10c84.667 0 127 -9.33301 127 -28c0 -59.333 -32.167 -150.5 -96.5 -273.5s-121.166 -202.5 -170.499 -238.5c-12 -9.33301 -41.333 -14 -88 -14s-70 5.33301 -70 16v10
c2.66699 0.666992 6.66699 1 12 1l53 -3c21.333 0 35.333 1.66699 42 5c16.667 8.66699 41.834 36.5 75.501 83.5s67.834 101.833 102.501 164.5c54 100.667 81 173.334 81 218.001c0 28.667 -19.333 43 -58 43z" />
    <glyph glyph-name="asciicircum" unicode="^" horiz-adv-x="279" 
d="M55 220c-4.66699 0 -6.99902 2.66699 -6.99902 8s15.833 20.5 47.5 45.5s50.167 38.167 55.5 39.5l4 -2c18 -20 49.333 -47 94 -81l5 -8l-4 -5c-9.33301 0.666992 -27.833 9.5 -55.5 26.5s-45.834 30.167 -54.501 39.5c-52 -42 -80.333 -63 -85 -63z" />
    <glyph glyph-name="underscore" unicode="_" horiz-adv-x="608" 
d="M19 -82c-8.66699 0 -13.002 6 -13.002 18s4.33301 18 13 18h558c12.667 0 19.334 -7 20.001 -21l-4 -5c-66.667 0 -160.167 -1.66699 -280.5 -5s-218.166 -5 -293.499 -5z" />
    <glyph glyph-name="grave" unicode="`" horiz-adv-x="167" 
d="M93.5 267c41.667 -31.333 62.499 -49.167 62.499 -53.5s-2 -6.5 -6 -6.5c-10 3.33301 -31.667 15 -65 35s-53.166 32.667 -59.499 38s-9.5 10 -9.5 14v7c0 8.66699 3.33301 13 10 13c3.33301 0 25.833 -15.667 67.5 -47z" />
    <glyph glyph-name="a" unicode="a" horiz-adv-x="282" 
d="M269 -29l9.99805 2.00098l2 -1c0 -6 -8.16699 -9 -24.5 -9s-29.666 7.33301 -39.999 22s-15.5 34.5 -15.5 59.5s4.66699 53.5 14 85.5c0 -2 -9 -15.667 -27 -41c-54.667 -84.667 -97.667 -127 -129 -127c-13.333 0 -25.5 6.16699 -36.5 18.5s-16.5 28.333 -16.5 48
s11.833 49.667 35.5 90s52.167 76.166 85.5 107.499s62 47 86 47h10c24.667 0 45.667 -4.83301 63 -14.5s26 -22.5 26 -38.5c0 -7.33301 -3 -11 -9 -11c-2 0 -3 1 -3 3c-11.333 24.667 -27.666 37 -48.999 37c-37.333 0 -80.5 -31.167 -129.5 -93.5
s-73.5 -109.833 -73.5 -142.5c0 -12.667 3.33301 -19 10 -19c30 0 93 67.667 189 203c1.33301 1.33301 3.5 2 6.5 2s9.83301 -3.16699 20.5 -9.5s16 -11.833 16 -16.5l-14 -26c-22 -46.667 -33 -87.667 -33 -123s8.66699 -53 26 -53z" />
    <glyph glyph-name="b" unicode="b" horiz-adv-x="296" 
d="M167 480l-34.9971 -7c-4.66699 0 -7 2 -7 6c0 10 12.333 15 37 15s44 -4.33301 58 -13s21 -20.834 21 -36.501s-13 -49.167 -39 -100.5l-52 -102c21.333 14.667 45.666 22 72.999 22c46 0 69 -22.333 69 -67c0 -51.333 -24.5 -107.666 -73.5 -168.999
s-95.5 -92 -139.5 -92c-32.667 0 -59.334 16.333 -80.001 49c-1.33301 2.66699 -2 4.33398 -2 5.00098s0.666992 1.66699 2 3c21.333 -15.333 41.666 -23 60.999 -23c44 0 85.833 27.167 125.5 81.5s59.5 108.166 59.5 161.499c0 20.667 -7 31 -21 31
c-28.667 0 -62.667 -29.167 -102 -87.5s-59 -104.5 -59 -138.5c0 -5.33301 2.33301 -13.333 7 -24c0 -2 -2.83301 -3 -8.5 -3s-10.5 4.66699 -14.5 14s-6 20 -6 32c0 37.333 16 93 48 167l73 168c15.333 42 23 70.5 23 85.5s-6 22.5 -18 22.5z" />
    <glyph glyph-name="c" unicode="c" horiz-adv-x="242" 
d="M250 125c4 0 6.00293 -1.5 6.00293 -4.5s-0.666992 -5.83301 -2 -8.5c-70 -102 -128 -153 -174 -153c-56.667 0 -85 26.333 -85 79c0 40 20.167 89.167 60.5 147.5s79.166 87.5 116.499 87.5c13.333 0 27.166 -4.83301 41.499 -14.5s21.5 -20.167 21.5 -31.5
c0 -31.333 -10.667 -47 -32 -47c-6 0 -9.33301 1.66699 -10 5c8 18 12 32.833 12 44.5s-2.66699 17.5 -8 17.5c-8 0 -21.333 -7.66699 -40 -23c-32.667 -26.667 -61 -60 -85 -100s-36 -73.667 -36 -101s10.333 -41 31 -41c23.333 0 49.666 12.333 78.999 37
c18.667 17.333 40.5 39.333 65.5 66s37.833 40 38.5 40z" />
    <glyph glyph-name="d" unicode="d" horiz-adv-x="305" 
d="M321 475l-34 -6.99707c-4.66699 0 -7 2 -7 6c0 10.667 15 16 45 16c46 0 69 -15.667 69 -47c0 -10.667 -20.5 -57.834 -61.5 -141.501s-62.167 -127.167 -63.5 -130.5c-35.333 -77.333 -53 -139.333 -53 -186c0 -27.333 6.66699 -41 20 -41l30 11l3 -1
c0 -4.66699 -4.83301 -9.33398 -14.5 -14.001s-17.167 -7 -22.5 -7c-30 0 -45 24 -45 72c0 30 10.667 81 32 153c-24.667 -50 -52 -94.833 -82 -134.5s-55.667 -59.5 -77 -59.5c-13.333 0 -26.833 8.16699 -40.5 24.5s-20.5 31.5 -20.5 45.5
c0 41.333 22.5 91.833 67.5 151.5s85.167 89.5 120.5 89.5c9.33301 0 19.833 -2.83301 31.5 -8.5s17.5 -11.667 17.5 -18s-3 -9.5 -9 -9.5l-20 11c-23.333 0 -58.333 -33.5 -105 -100.5s-70 -114.167 -70 -141.5c0 -10 2.83301 -15 8.5 -15s17.167 7.33301 34.5 22
s40.833 39.167 70.5 73.5s59.834 73.5 90.501 117.5c13.333 29.333 34.166 78.666 62.499 147.999s42.5 104.333 42.5 105c0 10.667 -6.66699 16 -20 16z" />
    <glyph glyph-name="e" unicode="e" 
d="M250 125c4 0 6 -1.5 6 -4.5s-0.666992 -5.83301 -2 -8.5c-70 -102 -128 -153 -174 -153c-56.667 0 -85 26.333 -85 79c0 40.667 20.167 90 60.5 148s79.5 87 117.5 87c16 0 30.167 -5.16699 42.5 -15.5s18.5 -22.833 18.5 -37.5c0 -25.333 -15.667 -50.333 -47 -75
s-61.666 -37 -90.999 -37c-6 0 -9 1.33301 -9 4l3 5c76.667 24 115 63.333 115 118c0 8 -2.66699 12 -8 12c-8 0 -21.333 -7.66699 -40 -23c-32.667 -26.667 -61 -60 -85 -100s-36 -73.667 -36 -101s10.333 -41 31 -41c23.333 0 49.666 12.333 78.999 37
c18.667 17.333 40.5 39.333 65.5 66s37.833 40 38.5 40z" />
    <glyph glyph-name="f" unicode="f" horiz-adv-x="221" 
d="M70 276l51.0039 -9.00195c1.33301 0 3.5 -0.166992 6.5 -0.5s5.16699 0.833984 6.5 3.50098c6.66699 10 11.667 22 15 36c24.667 78 47.167 132.667 67.5 164s45.833 47 76.5 47c15.333 0 28.666 -4.33301 39.999 -13s17 -19.667 17 -33c0 -32 -10.333 -48 -31 -48
c-6.66699 0 -10 2 -10 6c5.33301 11.333 8 25.833 8 43.5s-5 26.5 -15 26.5c-20.667 0 -45.334 -28.667 -74.001 -86c-4.66699 -9.33301 -13.834 -32.833 -27.501 -70.5s-20.5 -58.5 -20.5 -62.5c0 -6.66699 4.33301 -10 13 -10l127 3c2 0 3 -1.33301 3 -4
c-90.667 -31.333 -146.334 -49.333 -167.001 -54c0 -4.66699 -10.667 -38.667 -32 -102c-46.667 -158 -94.334 -272 -143.001 -342s-103 -105 -163 -105c-28.667 0 -55 10 -79 30s-36 47.333 -36 82c0 4 1.16699 6 3.5 6s4.5 -3.66699 6.5 -11
c14.667 -50.667 47.334 -76 98.001 -76c71.333 0 141.333 84 210 252c12 30 27.5 73 46.5 129l45.5 133c-32 8.66699 -48 27.334 -48 56.001c0 6 1.66699 9 5 9z" />
    <glyph glyph-name="g" unicode="g" 
d="M169 22c10 -18.667 15 -43.668 15 -75.001c0 -6.66699 -0.333008 -13 -1 -19c27.333 -11.333 50.166 -26 68.499 -44s27.5 -35.167 27.5 -51.5s-4 -24.5 -12 -24.5c-2 0 -3.66699 2 -5 6c5.33301 7.33301 8 14.333 8 21c0 14 -9 28 -27 42s-37.667 24.333 -59 31
c-8 -68.667 -33.5 -133.5 -76.5 -194.5s-97.167 -109.667 -162.5 -146s-132.333 -54.5 -201 -54.5c-46.667 0 -85.5 13 -116.5 39s-46.5 61.833 -46.5 107.5s25.667 91.334 77 137.001s114.833 81.834 190.5 108.501s149.834 40 222.501 40c34 0 63 -3 87 -9
c2.66699 8 4 15.333 4 22c0 22.667 -2.66699 38.667 -8 48c-26 -24 -49.667 -36 -71 -36s-40 10.333 -56 31s-24 42.667 -24 66c0 46.667 25.667 95 77 145c0 38 4.16699 63.667 12.5 77s24 20 47 20s48.167 -22 75.5 -66c48 -8.66699 72 -26.334 72 -53.001
c0 -6 -1.83301 -12.167 -5.5 -18.5s-7.5 -9.5 -11.5 -9.5s-6 1.33301 -6 4c6.66699 4.66699 10 10 10 16c0 20 -16 30 -48 30c0.666992 -5.33301 1 -12.333 1 -21c0 -64 -19.333 -120.333 -58 -169zM126 280.999c-18.667 0 -28 -18 -28 -54v-1c22 14.667 42.667 22 62 22h8
c-9.33301 22 -23.333 33 -42 33zM194 160.999c0 18.667 -3 35.333 -9 50c-11.333 -4 -27.5 -11.5 -48.5 -22.5s-31.5 -18.833 -31.5 -23.5c0 -5.33301 17.667 -45 53 -119c24 34.667 36 73 36 115zM42 33.998c0 -34.667 13.333 -52 40 -52c23.333 0 45.333 16.333 66 49
l-52 124c-14 -14 -26.5 -33 -37.5 -57s-16.5 -45.333 -16.5 -64zM88 -81.002c-63.333 0 -125.668 -8.16699 -187.001 -24.5s-113.666 -37 -156.999 -62s-78.333 -52.5 -105 -82.5s-40 -60.5 -40 -91.5s11.833 -56 35.5 -75s56.834 -28.5 99.501 -28.5
c92 0 179.167 36.5 261.5 109.5s135.166 156.167 158.499 249.5c-16 3.33301 -38 5 -66 5z" />
    <glyph glyph-name="h" unicode="h" horiz-adv-x="261" 
d="M159 483l-35 -7.00098c-3.33301 0 -5 2 -5 6c0 10 12.833 15 38.5 15s44.667 -4.66699 57 -14s18.5 -21.166 18.5 -35.499s-15 -52.166 -45 -113.499l-59 -121l-59 -136c27.333 24 54.5 52.167 81.5 84.5s47.333 58.333 61 78s21.5 29.5 23.5 29.5h5
c24 0 36 -4.66699 36 -14c0 2.66699 -1.66699 1 -5 -5c-18.667 -34 -35.334 -75 -50.001 -123s-22 -79.333 -22 -94c0 -40.667 7 -61 21 -61c4.66699 0 14.334 6.33301 29.001 19c2 0 3 -2.66699 3 -8c0 -17.333 -9.5 -26 -28.5 -26s-34.5 9.66699 -46.5 29s-18 42 -18 68
s6.33301 56.333 19 91c-43.333 -44 -84.666 -81 -123.999 -111c-13.333 -36.667 -20 -62.334 -20 -77.001v-5c6 -4 9 -7.33301 9 -10c0 -6 -4 -9 -12 -9c-4 0 -7.66699 1.66699 -11 5c-35.333 36.667 -53 57 -53 61s2 6 6 6h2c18 10.667 33 20.667 45 30
c13.333 50.667 33.333 106.667 60 168l57 131c25.333 58 38.666 100.333 39.999 127c0 14.667 -6.33301 22 -19 22zM13 -36.001c-0.666992 3.33301 -1 8.16699 -1 14.5s1 15.5 3 27.5c-15.333 -8 -24.333 -12.333 -27 -13c6 -10 14.333 -19.667 25 -29z" />
    <glyph glyph-name="i" unicode="i" horiz-adv-x="154" 
d="M198 415c1.33301 0 2.00098 -1.66699 2.00098 -5l-5 -29c-10 -41.333 -25.333 -62 -46 -62c-15.333 0 -27.333 4 -36 12c25.333 17.333 53.666 45.333 84.999 84zM87.001 116.5c-18.667 -54.333 -27.999 -91.834 -27.999 -112.501s4.33301 -31 13 -31
c6 0 13.667 3.66699 23 11s15 12 17 14s4.33301 4 7 6c2.66699 0 4 -1.33301 4 -4c0 -8 -9.5 -17.5 -28.5 -28.5s-32.833 -16.5 -41.5 -16.5c-25.333 0 -38 18.333 -38 55c0 54.667 20 127.667 60 219c0 2.66699 1.83301 7.66699 5.5 15s6.5 12 8.5 14
c4.66699 4.66699 11 7 19 7c23.333 0 36 -4.66699 38 -14c-20.667 -35.333 -40.334 -80.166 -59.001 -134.499z" />
    <glyph glyph-name="j" unicode="j" horiz-adv-x="158" 
d="M166 394c2 0 2.66699 -1.83203 2 -5.49902s-1 -6.83398 -1 -9.50098c-8 -54.667 -24.333 -82 -49 -82c-15.333 0 -27.666 4.33301 -36.999 13c25.333 17.333 53.666 45.333 84.999 84zM76 212.001l-3.00195 40.998v2c0 4.66699 3 7 9 7s14.667 -2.66699 26 -8
s18 -10.666 20 -15.999c2.66699 -10.667 4 -24.667 4 -42c0 -66.667 -23.333 -154.667 -70 -264s-106.834 -208.666 -180.501 -297.999s-135.167 -134 -184.5 -134c-23.333 0 -40.166 5 -50.499 15s-15.5 26.333 -15.5 49c0 52 37.167 119.833 111.5 203.5
s157.5 154.167 249.5 211.5l8 4c1.33301 0 2 -1.16699 2 -3.5s-4 -7.5 -12 -15.5c-224.667 -187.333 -337 -322.333 -337 -405c0 -32 12.333 -48 37 -48c36.667 0 78.334 26.667 125.001 80s88.834 117 126.501 191s69.5 151.167 95.5 231.5s39 146.5 39 198.5z" />
    <glyph glyph-name="k" unicode="k" horiz-adv-x="277" 
d="M150 483l-34.0029 -7c-4.66699 0 -7 2 -7 6c0 10 12.833 15 38.5 15s44.834 -4.66699 57.501 -14s19 -20.333 19 -33s-26 -78 -78 -196c-56 -122.667 -88.333 -197 -97 -223c2.66699 6 25.667 37.333 69 94l-20 17c0 4.66699 4.83301 12.667 14.5 24s16 17 19 17
s10.5 -4.33301 22.5 -13c30.667 34.667 62.5 65.5 95.5 92.5s56.5 40.5 70.5 40.5c6.66699 0 10 -7.33301 10 -22c0 -35.333 -13.667 -68.333 -41 -99s-58.666 -49.667 -93.999 -57c26.667 -43.333 40 -90.666 40 -141.999c0 -20 -2.16699 -40.333 -6.5 -61
s-9.33301 -31 -15 -31s-8.5 2.33301 -8.5 7l5 40c0 58.667 -27 116.667 -81 174c-51.333 -72.667 -80.666 -118.334 -87.999 -137.001c2 -2 3 -4 3 -6c0 -6 -4 -9 -12 -9c-11.333 0 -17 9.83301 -17 29.5s5.66699 49.5 17 89.5l77 193c40 104 60 165.167 60 183.5
s-6.33301 27.5 -19 27.5zM274.997 259c0 2 -0.5 3.00195 -1.5 3.00195s-18.333 -15.833 -52 -47.5s-52.167 -49.834 -55.5 -54.501c2.66699 -6 11 -9 25 -9s31.5 13.167 52.5 39.5s31.5 49.166 31.5 68.499z" />
    <glyph glyph-name="l" unicode="l" horiz-adv-x="172" 
d="M82 -23l15.999 5c3.33301 0 5 -1.66699 5 -5c0 -10.667 -11.667 -16 -35 -16c-32 0 -48 26.667 -48 80c0 35.333 10.667 91.5 32 168.5s48.333 149.167 81 216.5s62 101 88 101c14.667 0 29.334 -4.83301 44.001 -14.5s22 -20.167 22 -31.5
c0 -48 -70.667 -154.667 -212 -320c-11.333 -49.333 -17 -92.333 -17 -129s8 -55 24 -55zM262.999 484c0 8 -2.33301 12 -7 12c-20 0 -49 -35.5 -87 -106.5s-67 -138.5 -87 -202.5c120.667 158 181 257 181 297z" />
    <glyph glyph-name="m" unicode="m" horiz-adv-x="449" 
d="M447 198c-26.667 -73.333 -40 -125.832 -40 -157.499s5.66699 -47.5 17 -47.5c2 5.33301 4.33301 12.666 7 21.999c2 -4.66699 3 -11.667 3 -21c0 -17.333 -5.33301 -26 -16 -26c-34.667 0 -52 30 -52 90c0 28.667 4.66699 66 14 112
c-15.333 -15.333 -30.666 -34.333 -45.999 -57l-52 -73c-28.667 -40.667 -46.334 -61 -53.001 -61c-22.667 0 -34 4 -34 12c0 2 3.66699 17.667 11 47c23.333 86.667 35 145.667 35 177c0 14 -4.33301 21 -13 21c-24.667 0 -58 -36.333 -100 -109
c-14.667 -26.667 -30.834 -59.834 -48.501 -99.501s-27.167 -59.5 -28.5 -59.5c-6.66699 0 -13.667 1.66699 -21 5s-11 7.33301 -11 12c0 11.333 11 51.5 33 120.5s33 120.833 33 155.5c0 11.333 -4.66699 17.5 -14 18.5s-14 2.83301 -14 5.5c0 6 5 9 15 9
c44.667 0 67 -18.333 67 -55c0 -18.667 -7.66699 -49.667 -23 -93l23 39c18.667 30.667 35.834 53 51.501 67s32.167 21 49.5 21h2c30.667 0 46 -20.667 46 -62c0 -33.333 -12.333 -86.666 -37 -159.999l137 148c8.66699 5.33301 20.667 8 36 8s23 -3 23 -9z" />
    <glyph glyph-name="n" unicode="n" horiz-adv-x="305" 
d="M309 255c0 2.66699 -1.66797 0.998047 -5.00098 -5.00195c-18.667 -34 -35.334 -75 -50.001 -123s-22 -79.333 -22 -94c0 -40.667 7.33301 -61 22 -61c4.66699 0 10.834 3.16699 18.501 9.5s10.834 9.5 9.50098 9.5c2 0 3 -2.66699 3 -8c0 -17.333 -10 -26 -30 -26
s-35.333 8.83301 -46 26.5s-16 42.834 -16 75.501s8.66699 75.834 26 129.501s34 80.5 50 80.5h5c23.333 0 35 -4.66699 35 -14zM230.999 244.998c0.666992 -0.666992 1.00293 -1.83203 1.00293 -3.49902s-2.66699 -5.83398 -8 -12.501c-72 -87.333 -122 -162 -150 -224
l-9 -26c-4 -7.33301 -9 -11 -15 -11s-12.667 1.66699 -20 5s-11 7.33301 -11 12c0 11.333 11 51.5 33 120.5s33 120.833 33 155.5c0 9.33301 -2.33301 15 -7 17s-9.33398 2.83301 -14.001 2.5s-7 1.16699 -7 4.5c0 6 5 9 15 9c44.667 0 67 -18.333 67 -55
c0 -14 -16 -68.333 -48 -163c29.333 46 57.666 85.667 84.999 119s45.666 50 54.999 50z" />
    <glyph glyph-name="o" unicode="o" 
d="M253 208l-24.999 3.99805c1.33301 -13.333 2 -24 2 -32c0 -55.333 -14 -104.166 -42 -146.499s-63 -63.5 -105 -63.5c-54 0 -81 28.333 -81 85c0 22.667 5.16699 46.834 15.5 72.501s23.166 46.5 38.499 62.5c-7.33301 12 -11 27.667 -11 47s8 36.833 24 52.5
s35.667 23.5 59 23.5c44 0 73.333 -22.667 88 -68c31.333 -6 47 -13.333 47 -22c0 -10 -3.33301 -15 -10 -15zM116.001 284.998c-14 0 -25.666 -6.33301 -34.999 -19s-14 -25.5 -14 -38.5s1 -22.5 3 -28.5c45.333 34 76.666 51 93.999 51h3
c-8.66699 23.333 -25.667 35 -51 35zM105.002 164.998c6.66699 -4.66699 12 -6.83398 16 -6.50098s6.33301 0.5 7 0.5c3.33301 0 5 -1.66699 5 -5c0 -5.33301 -4.5 -8 -13.5 -8s-17.167 2.33301 -24.5 7c-35.333 -41.333 -53 -80.166 -53 -116.499s13.5 -54.5 40.5 -54.5
s52.5 21.5 76.5 64.5s36 84.167 36 123.5c0 17.333 -3 31.333 -9 42c-25.333 -4 -52.333 -19.667 -81 -47z" />
    <glyph glyph-name="p" unicode="p" horiz-adv-x="339" 
d="M112 275l-33.999 -8.00098c-4 0 -6 2.33301 -6 7c0 10.667 14.667 16 44 16c46 0 69 -15.667 69 -47c0 -10 -9.66699 -37 -29 -81c51.333 71.333 97 107 137 107c32 0 48 -18.333 48 -55c0 -48.667 -23.833 -101.667 -71.5 -159s-93.834 -86 -138.501 -86
c-22.667 0 -42 5 -58 15c-42.667 -94 -64 -166 -64 -216c0 -16 6 -24 18 -24l31 11c1.33301 0 2 -0.666992 2 -2c0 -4.66699 -4.66699 -9.16699 -14 -13.5s-18.333 -6.5 -27 -6.5s-18.167 6 -28.5 18s-15.5 24.333 -15.5 37c0 56 20.667 133.333 62 232
c-6.66699 12.667 -10 21.334 -10 26.001s1 7 3 7l2 -1c2 -8.66699 5.33301 -15.667 10 -21c60.667 142 91 218.167 91 228.5s-7 15.5 -21 15.5zM294.001 218.999c0 17.333 -5.66797 26 -17.001 26c-22 0 -51.833 -22 -89.5 -66s-73.834 -103.667 -108.501 -179v-1
c8.66699 -3.33301 21.334 -5 38.001 -5c38.667 0 77.834 26 117.501 78s59.5 101 59.5 147z" />
    <glyph glyph-name="q" unicode="q" horiz-adv-x="276" 
d="M309 199l-1 -0.00195312c-7.33301 0 -21.333 -15.667 -42 -47s-39.334 -67 -56.001 -107c21.333 -19.333 32 -53.166 32 -101.499s-13.333 -99.166 -40 -152.499l-21 -44c-11.333 -20 -20 -32.667 -26 -38s-14.5 -8 -25.5 -8s-23.5 5.33301 -37.5 16s-21 23.5 -21 38.5
s16.5 67.833 49.5 158.5s61.167 159.334 84.5 206.001c-60.667 -98 -113 -147 -157 -147c-28 0 -42 15.167 -42 45.5s12.333 65.666 37 105.999s55 75.333 91 105s68.333 44.5 97 44.5c35.333 0 53 -14.667 53 -44c0 -6.66699 -2 -10.667 -6 -12l-2 1
c-6.66699 14 -20.667 21 -42 21s-44.666 -12.833 -69.999 -38.5s-51 -60.5 -77 -104.5s-39 -74.667 -39 -92c0 -8.66699 3.33301 -13 10 -13c18.667 0 50.667 29.167 96 87.5s74.5 94.333 87.5 108s22.333 20.5 28 20.5s13.667 -1 24 -3s15.5 -4 15.5 -6zM227 -41.002
c0 31.333 -8 55 -24 71c-56.667 -148 -85 -243.333 -85 -286c0 -9.33301 2 -14 6 -14c6 0 16.333 9.33301 31 28c48 60 72 127 72 201z" />
    <glyph glyph-name="r" unicode="r" horiz-adv-x="260" 
d="M305 272c0 2.66699 -3.66602 -1.00098 -10.999 -11.001c-25.333 -35.333 -39 -61.333 -41 -78c0 -18 6.33301 -29 19 -33c4.66699 -1.33301 7 -2.33301 7 -3c0 -5.33301 -6.5 -8 -19.5 -8s-24.167 5.16699 -33.5 15.5s-14 22 -14 35s1.66699 24.167 5 33.5
c-32.667 -26 -59.834 -52.667 -81.501 -80s-36.5 -51 -44.5 -71s-14 -38.167 -18 -54.5s-7.33301 -28.666 -10 -36.999s-7 -12.5 -13 -12.5s-12.667 1.66699 -20 5s-11 7.33301 -11 12c0 11.333 11 51.5 33 120.5s33 120.833 33 155.5c0 11.333 -4.66699 17.5 -14 18.5
s-14 2.83301 -14 5.5c0 6 5 9 15 9c44.667 0 67 -18.333 67 -55c0 -10.667 -11 -50 -33 -118c36 58.667 76 99 120 121c10.667 24 26.5 36 47.5 36s31.5 -2 31.5 -6z" />
    <glyph glyph-name="s" unicode="s" horiz-adv-x="203" 
d="M210 267c14 -14 21.001 -22.833 21.001 -26.5s-1.66699 -5.5 -5 -5.5c-14.667 3.33301 -24 5 -28 5c-30 0 -60.833 -11 -92.5 -33s-47.5 -44.333 -47.5 -67c0 -4.66699 15.667 -24.834 47 -60.501s47 -60 47 -73s-9.33301 -26.167 -28 -39.5s-37.5 -20 -56.5 -20
s-35.167 2.83301 -48.5 8.5s-20 11.5 -20 17.5c76.667 16 115 35.333 115 58c0 4.66699 -9 15 -27 31c-34.667 30.667 -52 65 -52 103c0 26.667 17.167 53.834 51.5 81.501s66.166 41.5 95.499 41.5c4.66699 0 14 -7 28 -21z" />
    <glyph glyph-name="t" unicode="t" horiz-adv-x="173" 
d="M121 375l-20.001 -5c-2 0 -3 1 -3 3c0 5.33301 4 9.5 12 12.5s14 4.5 18 4.5c29.333 0 44 -16.667 44 -50c0 -20 -6 -45.333 -18 -76c2.66699 -2.66699 14.667 -4 36 -4s38 2.5 50 7.5s19.167 7.5 21.5 7.5s3.5 -1 3.5 -3s-1.33301 -4.33301 -4 -7
c-31.333 -26.667 -69.666 -43 -114.999 -49c-4 0 -8.66699 -1 -14 -3c-60.667 -121.333 -91 -198 -91 -230c0 -10.667 4 -16 12 -16l28 6l1 -1c0 -14 -11 -21 -33 -21c-29.333 0 -44 15.667 -44 47c0 26.667 9.33301 63.667 28 111l47 110
c-22.667 9.33301 -34 22.333 -34 39c0 5.33301 1.33301 9 4 11c10.667 -4.66699 26 -8 46 -10c22 48.667 33 80.167 33 94.5s-2.66699 21.5 -8 21.5z" />
    <glyph glyph-name="u" unicode="u" horiz-adv-x="311" 
d="M94 260l-9 18.001c0 2 2.5 3 7.5 3s15.833 -3.33301 32.5 -10s25 -12.334 25 -17.001l-54.5 -111c-29.667 -60.667 -44.5 -101.5 -44.5 -122.5s4.33301 -31.5 13 -31.5c10.667 0 26 12 46 36s39.667 52 59 84l84 136c9.33301 16 20 24 32 24c24 0 36 -4.66699 36 -14
c0 2.66699 -1.66699 1 -5 -5c-18.667 -34 -35.5 -75 -50.5 -123s-22.5 -79.333 -22.5 -94c0 -40.667 7.33301 -61 22 -61c4.66699 0 14.334 6.33301 29.001 19c1.33301 0 2 -2.66699 2 -8c0 -17.333 -9.83301 -26 -29.5 -26s-35 8.83301 -46 26.5s-16.5 39.667 -16.5 66
s5.33301 61.5 16 105.5c-52 -84.667 -86.833 -138 -104.5 -160s-34.834 -33 -51.501 -33s-30.5 6.16699 -41.5 18.5s-16.5 25.833 -16.5 40.5c0 28 14.667 74.167 44 138.5s44 97.833 44 100.5z" />
    <glyph glyph-name="v" unicode="v" horiz-adv-x="227" 
d="M338 298c0 -3.33301 -0.998047 -6 -2.99805 -8c-38.667 -23.333 -81.5 -60.166 -128.5 -110.499s-82.5 -108.166 -106.5 -173.499c-8 -32 -16.333 -48 -25 -48c-20 0 -30 4.66699 -30 14c10 107.333 15 170.666 15 189.999c0 55.333 -8.33301 83.333 -25 84
c-1.33301 -0.666992 -3.5 -3.66699 -6.5 -9s-5.5 -8 -7.5 -8c-6 0 -9 4.66699 -9 14c0 13.333 11 20 33 20c42 0 63 -37 63 -111c0 -6.66699 -2.33301 -28.334 -7 -65.001c0 -2.66699 1.33301 -4 4 -4c1.33301 0 3.66602 2.66699 6.99902 8
c47.333 66 90.166 118.833 128.499 158.5s66.833 59.5 85.5 59.5c8 0 12 -3.66699 12 -11z" />
    <glyph glyph-name="w" unicode="w" horiz-adv-x="453" 
d="M455 171c0 -48.667 -14.001 -93.667 -42.001 -135s-60.667 -62 -98 -62c-26 0 -46 15.5 -60 46.5s-21 71.833 -21 122.5c0 18 1.33301 32.333 4 43c-58 -92 -99.667 -152.167 -125 -180.5s-50.666 -42.5 -75.999 -42.5c-11.333 0 -20.5 4.66699 -27.5 14
s-10.5 20.333 -10.5 33c0 42 41.667 113.667 125 215c9.33301 11.333 16.5 17 21.5 17s7.5 -2 7.5 -6l-2 -3c-16 -20.667 -37.167 -59.5 -63.5 -116.5s-39.5 -92 -39.5 -105s3 -19.5 9 -19.5c10 0 39.167 30.667 87.5 92s77.5 103 87.5 125c2 2 12.167 3 30.5 3
s27.5 -3 27.5 -9v1c-2 0 -3 -30 -3 -90c0 -84.667 10.333 -127 31 -127c18 0 36.333 20.833 55 62.5s28 80.834 28 117.501c0 47.333 -14.333 75.666 -43 84.999c3.33301 6.66699 15 10 35 10c41.333 0 62 -30.333 62 -91z" />
    <glyph glyph-name="x" unicode="x" horiz-adv-x="284" 
d="M333 267c0 -4.66699 -5.33203 -10.999 -15.999 -18.999c-41.333 -32.667 -94 -79.334 -158 -140.001c11.333 -86 34.333 -129 69 -129c4.66699 0 15.667 3.66699 33 11c2 0 3 -1 3 -3c0 -6.66699 -9.66699 -14.334 -29 -23.001s-34.333 -13 -45 -13
c-18 0 -31.667 9.16699 -41 27.5s-19 51.833 -29 100.5c-36 -36.667 -59.667 -61.667 -71 -75s-23 -28.333 -35 -45c-30 -42 -46.667 -63 -50 -63c-6 0 -9 3 -9 9c0 11.333 37 59.333 111 144l25 29c7.33301 8.66699 13.166 15.334 17.499 20.001s6.16602 7 5.49902 7
l-10 81c-4.66699 20.667 -10.5 36.167 -17.5 46.5s-12.833 16.333 -17.5 18s-7 2.83398 -7 3.50098c0 6.66699 11.833 10 35.5 10s36.834 -3.33301 39.501 -10c4 -4.66699 10 -44.334 18 -119.001c12 13.333 41.167 42 87.5 86s70.5 66 72.5 66c12 0 18 -6.66699 18 -20z
" />
    <glyph glyph-name="y" unicode="y" horiz-adv-x="292" 
d="M305 188c0 -64 -21.9961 -148.671 -65.9961 -254.004c-49.333 -114.667 -108.333 -211.667 -177 -291s-128.334 -119 -179.001 -119c-44 0 -66 21.667 -66 65c0 52.667 37.667 121 113 205c78.667 88.667 164.334 159.334 257.001 212.001c3.33301 0 0 -6 -10 -18
c-225.333 -187.333 -338 -322.666 -338 -405.999c0 -32 12.667 -48 38 -48c43.333 0 95.666 42 156.999 126s113.833 178.833 157.5 284.5s65.5 189.5 65.5 251.5c0 23.333 -4 39.333 -12 48c-88.667 -92.667 -150.667 -170.667 -186 -234c-11.333 -28 -21.333 -42 -30 -42
c-20 0 -30 5.66699 -30 17c-0.666992 6.66699 12.666 46.334 39.999 119.001l28 77c8.66699 26.667 13.667 53.334 15 80.001v4c0 7.33301 -0.833008 11.666 -2.5 12.999s-6 2 -13 2s-10.5 1.66699 -10.5 5c0 6 5.33301 9 16 9c42.667 0 64 -16 64 -48
c0 -15.333 -20 -72 -60 -170c23.333 32 57.166 71.833 101.499 119.5s72.166 71.5 83.499 71.5c0 -6 -2.66699 -11.333 -8 -16c30 -3.33301 46 -10 48 -20c2.66699 -17.333 4 -31.666 4 -42.999z" />
    <glyph glyph-name="z" unicode="z" horiz-adv-x="334" 
d="M106 252l156.004 14.9961c19.333 0 35.666 -7.16699 48.999 -21.5s20 -33.833 20 -58.5c0 -3.33301 -19.333 -18.666 -58 -45.999l-168 -119c26.667 7.33301 74.667 11 144 11c50.667 0 76 -23.333 76 -70c0 -26 -6.66699 -39 -20 -39c-2 0 -3 1.33301 -3 4
c8 22.667 12 35.334 12 38.001c0 23.333 -35 35 -105 35s-135.667 -13.333 -197 -40c-2 0 -3 4.5 -3 13.5s3 17.5 9 25.5l1 1c9.33301 1.33301 16.333 5.33301 21 12c0 10.667 45.667 46.834 137 108.501s137.666 94.834 138.999 99.501
c-8.66699 11.333 -20.834 17 -36.501 17s-47.834 -5.5 -96.501 -16.5s-77 -16.5 -85 -16.5s-12 6.83301 -12 20.5s4 24.167 12 31.5c4 -3.33301 6.66699 -5 8 -5z" />
    <glyph glyph-name="braceleft" unicode="{" horiz-adv-x="243" 
d="M134 105c0 -10 -4.16699 -36.833 -12.5 -80.5s-12.5 -70.5 -12.5 -80.5c0 -22 6.66699 -36.667 20 -44l51 -8l6 -7c-5.33301 -2.66699 -10 -4 -14 -4c-74.667 0 -112 22 -112 66c0 10 4.66699 36.833 14 80.5s14 70.5 14 80.5c0 40 -27.333 60 -82 60l9 13
c36.667 2.66699 62.5 10.334 77.5 23.001s25.5 34.334 31.5 65.001c4 31.333 8.66699 57 14 77s14 39.333 26 58c22 34.667 65.333 52 130 52c4 0 7 -2.66699 9 -8l-10 -3c-48.667 0 -80.334 -19.667 -95.001 -59c-1.33301 -4.66699 -3.66602 -15.5 -6.99902 -32.5
l-6.99902 -35s-4.16602 -16.833 -8.49902 -31.5s-8.33301 -25.334 -12 -32.001s-8.83398 -15.5 -15.501 -26.5s-13.667 -19.167 -21 -24.5c-18.667 -14.667 -39.334 -25 -62.001 -31c46 -16.667 69 -39.334 69 -68.001z" />
    <glyph glyph-name="bar" unicode="|" horiz-adv-x="165" 
d="M89 445c20 0 30 -22.001 30 -66.001s-6 -119 -18 -225s-22.167 -175 -30.5 -207s-18.5 -49 -30.5 -51l-1 1c1.33301 8.66699 5 26.334 11 53.001c26.667 110.667 40 229 40 355c0 62.667 -4.66699 106.667 -14 132c0 5.33301 4.33301 8 13 8z" />
    <glyph glyph-name="braceright" unicode="}" horiz-adv-x="320" 
d="M32 -113c-2.66699 0 -5.33496 2.33203 -8.00195 6.99902l9 4c48.667 0 80.334 19.333 95.001 58c2 8 5.16699 22.833 9.5 44.5s8.66602 39.667 12.999 54s8.33301 25 12 32s8.83398 15.833 15.501 26.5s13.667 19 21 25c18.667 15.333 39.334 26 62.001 32
c-45.333 16 -68 38.667 -68 68c0 9.33301 4.16699 35.833 12.5 79.5s12.5 70.5 12.5 80.5c0 22.667 -7 37.334 -21 44.001l-50 8l-7 7c6 2.66699 10.667 4 14 4c74.667 0 112 -22 112 -66c0 -10 -4.33301 -36.833 -13 -80.5s-13 -70.5 -13 -80.5
c0 -39.333 26.667 -59.333 80 -60l-8 -12c-38 -4.66699 -64.333 -13 -79 -25s-25 -33 -31 -63c-7.33301 -65.333 -22 -112.833 -44 -142.5s-64 -44.5 -126 -44.5z" />
    <glyph glyph-name="asciitilde" unicode="~" horiz-adv-x="228" 
d="M95 312l71.999 -16.001c12 0 22.333 5.66699 31 17c2.66699 0 4 -1 4 -3s-1.83301 -6 -5.5 -12s-9.66699 -11.833 -18 -17.5s-17.166 -8.5 -26.499 -8.5l-74 20c-6.66699 0 -15 -3.16699 -25 -9.5s-15.333 -9.5 -16 -9.5l-1 2c0 2 2.5 5.83301 7.5 11.5
s12.333 11.334 22 17.001s19.5 8.5 29.5 8.5z" />
    <glyph glyph-name="DEL" horiz-adv-x="0" 
 />
    <glyph glyph-name="exclamdown" unicode="&#xa1;" horiz-adv-x="223" 
d="M211 252c0 -17.333 -4.16699 -32.667 -12.5 -46s-18.833 -20 -31.5 -20c-22 0 -33 4.33301 -33 13c0 -2 22.667 19 68 63c6 0 9 -3.33301 9 -10zM158 134.999c0 -23.333 -20.832 -85.168 -62.499 -185.501s-69.834 -150.5 -84.501 -150.5c-10 0 -21.333 1.33301 -34 4
s-19 6.33398 -19 11.001c56.667 86 91.5 142.333 104.5 169l31 62.5l24.5 46.5c18.667 36 30 54 34 54s6 -3.66699 6 -11z" />
    <glyph glyph-name="cent" unicode="&#xa2;" horiz-adv-x="310" 
d="M57 -48c-13.333 0 -20.001 11.5 -20.001 34.5s22 78.5 66 166.5c-31.333 10 -47 35 -47 75c0 24.667 9 55.334 27 92.001s41.333 69.5 70 98.5s55.334 43.5 80.001 43.5c6 0 10.333 -0.333008 13 -1c9.33301 14 18.666 29.167 27.999 45.5s16.833 28.666 22.5 36.999
s14 17 25 26s20.167 13.5 27.5 13.5c13.333 0 20 -4.33301 20 -13c0 -2.66699 -1.33301 -4 -4 -4c-2 1.33301 -5 2 -9 2c-24 0 -51.667 -40 -83 -120h1c14.667 -10 22 -20.667 22 -32c0 -31.333 -10.667 -47 -32 -47c-6 0 -9.33301 1.66699 -10 5c8 18 12 32.833 12 44.5
s-2.66699 17.5 -8 17.5c-9.33301 0 -22.666 -7.33301 -39.999 -22c-32.667 -27.333 -61 -61 -85 -101s-36 -73.667 -36 -101s10.333 -41 31 -41c22 0 48.333 12.333 79 37c18.667 17.333 40.5 39.333 65.5 66s37.833 40 38.5 40c4 0 6 -1.16699 6 -3.5
s-0.666992 -5.5 -2 -9.5c-70.667 -102 -128.667 -153 -174 -153h-2c-56 -95.333 -84 -152.666 -84 -171.999c0 -7.33301 1.66699 -12.333 5 -15s5 -4.83398 5 -6.50098s-2.66699 -2.5 -8 -2.5z" />
    <glyph glyph-name="sterling" unicode="&#xa3;" horiz-adv-x="507" 
d="M498 -6c0 -23.333 -8.16406 -42.668 -24.4971 -58.001s-36.5 -23 -60.5 -23c-49.333 0 -117.666 22.333 -204.999 67c-29.333 -18 -59 -27 -89 -27s-55.5 8 -76.5 24s-31.5 35.333 -31.5 58c0 14 8 21 24 21c24.667 0 77.334 -20.667 158.001 -62c26 36 50.667 88 74 156
h-103c-5.33301 0 -8 1.33301 -8 4c0 8.66699 4.66699 13 14 13h104c21.333 63.333 47.166 117.333 77.499 162s62.166 67 95.499 67c14 0 25.5 -5.83301 34.5 -17.5s13.5 -25.834 13.5 -42.501c0 -38 -20.333 -67 -61 -87c-4 -1.33301 -6.66699 -2 -8 -2s-2 1 -2 3l23 25
c20.667 26 31 48.333 31 67s-6.66699 28 -20 28c-20.667 0 -41.667 -13.833 -63 -41.5s-48.333 -81.5 -81 -161.5h126c2.66699 0 4 -1.66699 4 -5c0 -8 -5.33301 -12 -16 -12h-121c-26.667 -61.333 -44.167 -100.166 -52.5 -116.499s-19.833 -31.166 -34.5 -44.499
c17.333 -10 42.666 -19.5 75.999 -28.5s61.666 -13.5 84.999 -13.5c69.333 0 104 17.667 104 53c0 5.33301 -7.33301 17 -22 35c0 2 2.16699 3 6.5 3s10.166 -5.5 17.499 -16.5s11 -20.167 11 -27.5zM108.003 15.998c-32.667 12 -53.332 18 -61.999 18s-13 -3.33301 -13 -10
c0 -13.333 8.5 -26.333 25.5 -39s35.667 -19 56 -19s39.833 6.33301 58.5 19c-10.667 8.66699 -32.334 19 -65.001 31z" />
    <glyph glyph-name="currency" unicode="&#xa4;" horiz-adv-x="377" 
d="M326 495c1.33301 0 2.00195 -6.66992 2.00195 -20.0029s-2.66699 -21.666 -8 -24.999l-43 -31c5.33301 -10.667 8 -20.667 8 -30c0 -21.333 -7.66699 -40.666 -23 -57.999l33 -31c0.666992 -0.666992 1 -2.66699 1 -6s-0.666992 -8 -2 -14
c-3.33301 -16.667 -6 -25 -8 -25l-53 51c-18 -10.667 -37.167 -16 -57.5 -16s-38.833 6 -55.5 18l-74 -53h-1c-0.666992 2 -1 9 -1 21s2.66699 20 8 24l46 33c-5.33301 10.667 -8 23.667 -8 39s6.66699 32.333 20 51l-28 27c-1.33301 1.33301 -2 4.33301 -2 9
s1.66699 11.834 5 21.501s5.66602 14.5 6.99902 14.5h1l47 -46c17.333 11.333 37.166 17 59.499 17s41.833 -6.66699 58.5 -20zM249.002 385.997c0 16 -5.16992 29.5 -15.5029 40.5s-24.166 16.5 -41.499 16.5s-33 -7.16699 -47 -21.5s-21 -30.5 -21 -48.5
s5.33301 -32.5 16 -43.5s24.334 -16.5 41.001 -16.5s31.834 6.5 45.501 19.5s21.167 28.5 22.5 46.5v7z" />
    <glyph glyph-name="yen" unicode="&#xa5;" horiz-adv-x="501" 
d="M392 150c0.666992 -1.33301 1.00098 -2.83301 1.00098 -4.5s-6.66699 -4.83398 -20 -9.50098c-34 -13.333 -75.333 -21.333 -124 -24c-16.667 -48 -25 -83.167 -25 -105.5s4 -33.5 12 -33.5c4 0 8.16699 1.5 12.5 4.5s8.16602 5.5 11.499 7.5s6.5 4.16699 9.5 6.5
s5.5 4.5 7.5 6.5s4.33301 4 7 6c2.66699 0 4 -1.33301 4 -4c0 -8 -9.5 -17.5 -28.5 -28.5s-32.833 -16.5 -41.5 -16.5c-25.333 0 -38 18.333 -38 55c0 28.667 5.33301 62.334 16 101.001c-59.333 1.33301 -89 7 -89 17c0 12 6.33301 18 19 18h81l20 56
c-62.667 0.666992 -94 6.33398 -94 17.001c0 12 6 18 18 18h88c28.667 97.333 43 165.166 43 203.499s-16.667 57.5 -50 57.5c-18 0 -40 -10.667 -66 -32s-48.667 -42.833 -68 -64.5s-30.166 -32.5 -32.499 -32.5s-3.5 2 -3.5 6s3.66699 11 11 21l24.5 32.5
c9 11.667 21.167 24.834 36.5 39.501c30.667 31.333 61.667 47 93 47s53.833 -6.83301 67.5 -20.5s20.5 -37.334 20.5 -71.001s-11.333 -83.167 -34 -148.5l-12 -38h5c36.667 53.333 84 109 142 167c76.667 78 142.667 117 198 117c15.333 0 27.833 -3 37.5 -9
s14.5 -12.167 14.5 -18.5s-0.666992 -9.5 -2 -9.5l-8 13c-6.66699 8.66699 -15.667 13 -27 13c-30.667 0 -81.834 -31.667 -153.501 -95s-126.5 -122.333 -164.5 -177h34c37.333 0 61 0.333008 71 1v-2c0 -10 -42 -21 -126 -33l-14 -22c-7.33301 -18 -12 -30 -14 -36l58 1
c38 0 62 1 72 3z" />
    <glyph glyph-name="brokenbar" unicode="&#xa6;" horiz-adv-x="0" 
 />
    <glyph glyph-name="section" unicode="&#xa7;" horiz-adv-x="336" 
d="M361 355l0.00195312 4.99902l51 35c23.333 14.667 35 27.667 35 39c0 6 -8.33301 9 -25 9h-10c-40.667 0 -92.334 -12 -155.001 -36c-88 -33.333 -132 -74 -132 -122c0 -23.333 28.667 -65.666 86 -126.999s86 -107 86 -137c0 -21.333 -6.5 -40.5 -19.5 -57.5
s-29.833 -27.833 -50.5 -32.5c0 -21.333 -11 -39.333 -33 -54s-47.667 -22 -77 -22h-26c-63.333 0 -108.333 20 -135 60l2 6c28 -13.333 58.833 -20 92.5 -20s66.667 6.33301 99 19s48.5 28 48.5 46c0 12 -14.667 32 -44 60c-54 55.333 -88.167 93.833 -102.5 115.5
s-21.5 46.834 -21.5 75.501c0 43.333 24.333 80.666 73 111.999c11.333 63.333 79.666 110.666 204.999 141.999c62.667 14 98 21 106 21s15.667 -1 23 -3l25 -26c10 -10.667 15.667 -20.667 17 -30c0 -13.333 -17.5 -29.666 -52.5 -48.999s-56.833 -29 -65.5 -29z
M250.002 -18.501c3.33301 4.33301 7.33301 11.667 12 22s7 19.5 7 27.5s-0.666992 14.5 -2 19.5s-2.83301 9.5 -4.5 13.5s-4.33398 8.66699 -8.00098 14l-8.5 12.5c-2 3 -5.66699 7.33301 -11 13s-9.16602 9.83398 -11.499 12.501s-11.5 12 -27.5 28
c-52 52.667 -82 97.334 -90 134.001c-34 -26 -51 -52 -51 -78s25.833 -66.833 77.5 -122.5s81.834 -96.5 90.501 -122.5c2 2 5 4.66699 9 8s7.16699 6.16602 9.5 8.49902s5.16602 5.66602 8.49902 9.99902z" />
    <glyph glyph-name="dieresis" unicode="&#xa8;" horiz-adv-x="197" 
d="M132 232c-4 0 -7.66602 2.49805 -10.999 7.49805s-5 10.333 -5 16s7.33301 13.834 22 24.501s26 16 34 16l2 -1v1v-1c-2 -3.33301 -5.33301 -7.66602 -10 -12.999l-12 -30c-4.66699 -13.333 -11.334 -20 -20.001 -20zM40.001 231.998
c-3.33301 0 -6.66602 2.49805 -9.99902 7.49805s-5 10.333 -5 16s7.33301 13.834 22 24.501s25.667 16 33 16l3 -1v1v-1c-2 -3.33301 -5.33301 -7.66602 -10 -12.999l-13 -30c-6.66699 -13.333 -13.334 -20 -20.001 -20z" />
    <glyph glyph-name="copyright" unicode="&#xa9;" horiz-adv-x="480" 
d="M449 247c0 -62 -32.333 -118.831 -97 -170.498s-133 -77.5 -205 -77.5c-85.333 0 -128 37.667 -128 113c0 36.667 15.667 75.167 47 115.5s69.833 73.666 115.5 99.999s87.5 39.5 125.5 39.5s71.167 -11.833 99.5 -35.5s42.5 -51.834 42.5 -84.501zM409 242.002
c0 32 -9.83301 58.334 -29.5 79.001s-45.5 31 -77.5 31c-55.333 0 -109.833 -26.333 -163.5 -79s-80.5 -106.334 -80.5 -161.001c0 -65.333 34.667 -98 104 -98c61.333 0 117.833 23.5 169.5 70.5s77.5 99.5 77.5 157.5zM355 282.003
c0 -14.667 -4.66699 -22.665 -14 -23.998l-4 3c2.66699 10.667 4 16.667 4 18c0 18 -8.66699 27 -26 27c-35.333 0 -73.5 -22.667 -114.5 -68s-61.5 -89.333 -61.5 -132c0 -19.333 10.333 -29 31 -29c28.667 0 75.667 19.333 141 58l3 -3c0 -14.667 -19 -30.334 -57 -47.001
s-69.667 -25 -95 -25c-42.667 0 -64 16 -64 48c0 43.333 24.667 88.166 74 134.499s98 69.5 146 69.5c24.667 0 37 -10 37 -30z" />
    <glyph glyph-name="ordfeminine" unicode="&#xaa;" horiz-adv-x="282" 
d="M269 421l9.99707 2.00195l2 -1c0 -5.33301 -8.16699 -8 -24.5 -8s-29.666 7.16699 -39.999 21.5s-15.5 34.166 -15.5 59.499s4.66699 54 14 86c0 -1.33301 -9 -15.333 -27 -42c-54.667 -84 -97.667 -126 -129 -126c-13.333 0 -25.5 6.16699 -36.5 18.5
s-16.5 25.833 -16.5 40.5c0 39.333 25.333 91 76 155s94.334 96 131.001 96h10c24.667 0 45.667 -4.66699 63 -14s26 -22 26 -38c0 -7.33301 -3 -11 -9 -11c-2 0 -3 0.666992 -3 2c-11.333 25.333 -27.666 38 -48.999 38c-37.333 0 -80.5 -31.167 -129.5 -93.5
s-73.5 -110.166 -73.5 -143.499c0 -12 3.33301 -18 10 -18c30 0 93 67.333 189 202c1.33301 1.33301 3.5 2 6.5 2s9.83301 -3.16699 20.5 -9.5s16 -11.5 16 -15.5c0 -0.666992 -4.66699 -9.33398 -14 -26.001c-22 -46.667 -33 -87.834 -33 -123.501s8.66699 -53.5 26 -53.5z
" />
    <glyph glyph-name="guillemotleft" unicode="&#xab;" horiz-adv-x="346" 
d="M299 301c0 -7.33301 -24.668 -45.667 -74.001 -115c48 -61.333 72 -95 72 -101s-2 -9 -6 -9h-1l-6 3c-13.333 18 -43.666 45.333 -90.999 82c-2 2 -3 3.66699 -3 5c0 7.33301 15.667 32.5 47 75.5s50 64.5 56 64.5c4 0 6 -1.66699 6 -5zM171.999 300.999
c0 -8.66699 -24.667 -47 -74 -115c48.667 -60.667 73 -94.167 73 -100.5s-2 -9.5 -6 -9.5h-1l-7 3c-12 18 -42.333 45.333 -91 82c-1.33301 1.33301 -2 3 -2 5c0 7.33301 15.667 32.5 47 75.5s50 64.5 56 64.5c3.33301 0 5 -1.66699 5 -5z" />
    <glyph glyph-name="logicalnot" unicode="&#xac;" horiz-adv-x="764" 
d="M633 100c0 -7.33301 4.5 -12.6689 13.5 -16.002s13.5 -5.33301 13.5 -6c0 -5.33301 -11 -8 -33 -8c-30 2.66699 -45 15.667 -45 39c0 36 20.667 83 62 141c-115.333 10 -222 15 -320 15c-155.333 0 -245 -8.66699 -269 -26c-7.33301 -4 -12.333 -6 -15 -6
c-5.33301 0 -8 3.33301 -8 10s3 13.834 9 21.501s13.333 12.167 22 13.5c103.333 15.333 210.333 23 321 23c233.333 0 350 -8 350 -24c-24 -26 -46.833 -57.667 -68.5 -95s-32.5 -64.666 -32.5 -81.999z" />
    <glyph glyph-name="uni00AD" unicode="&#xad;" horiz-adv-x="224" 
d="M80 168l48 1.00098h31c17.333 0 36 0.666992 56 2v-3c0 -8.66699 -21 -16.334 -63 -23.001c-58 -8.66699 -89 -13 -93 -13c-30 0 -45 6 -45 18s6.33301 18 19 18h47z" />
    <glyph glyph-name="registered" unicode="&#xae;" horiz-adv-x="480" 
d="M400.5 333c25 -22.667 37.498 -51.1689 37.498 -85.502s-12.5 -70.166 -37.5 -107.499s-57.833 -69.666 -98.5 -96.999c14.667 -12.667 25.667 -19 33 -19s12 4.33301 14 13l4 22c3.33301 -4.66699 5 -8.33398 5 -11.001c0 -22.667 -11 -34 -33 -34
c-9.33301 0 -21.666 6.66699 -36.999 20c-44.667 -26.667 -85.5 -40 -122.5 -40s-68.667 11.167 -95 33.5s-39.5 50.5 -39.5 84.5c0 54.667 27.333 108.334 82 161.001c-4 -1.33301 -14.167 -6.83301 -30.5 -16.5s-26.666 -14.5 -30.999 -14.5s-6.5 2.66699 -6.5 8
c0 20 34 37 102 51c57.333 44 111.333 66 162 66c36 0 66.5 -11.333 91.5 -34zM375.998 141.998c22 35.333 32.9971 68.832 32.9971 100.499s-9.83301 57.834 -29.5 78.501s-46.5 31 -80.5 31s-72.333 -14.667 -115 -44c20.667 3.33301 48.334 5 83.001 5
s64.834 -5.33301 90.501 -16s38.5 -25 38.5 -43c0 -30 -19.667 -53.5 -59 -70.5s-82.666 -25.5 -129.999 -25.5c34 -46 62 -81 84 -105c34.667 24 63 53.667 85 89zM272.995 283.997c-34.667 -29.333 -64.002 -61.335 -88.002 -96.002l15 -20
c6.66699 -1.33301 12.334 -2 17.001 -2c32 0 67.833 10.333 107.5 31s59.5 41.334 59.5 62.001c0 29.333 -36.667 44 -110 44c-35.333 0 -74.666 -5 -117.999 -15c-65.333 -56 -98 -114.667 -98 -176c0 -29.333 11.333 -53.666 34 -72.999s50 -29 82 -29s66 11.333 102 34
c-34.667 33.333 -69.334 75 -104.001 125c-28.667 -48 -43 -83 -43 -105c0 -6 2 -10.333 6 -13l-1 -2c-8 0 -12 12.5 -12 37.5s12.333 58.833 37 101.5c-6 8.66699 -9 14 -9 16c0 6.66699 4.66699 10 14 10c2.66699 0 5.33398 -2 8.00098 -6c11.333 17.333 27 36 47 56
s34 30 42 30s12 -3.33301 12 -10z" />
    <glyph glyph-name="macron" unicode="&#xaf;" horiz-adv-x="256" 
d="M233 433c0 -3.33301 -2.16699 -5.50293 -6.5 -6.50293s-15 -1.83301 -32 -2.5s-32.5 -1.66699 -46.5 -3s-26.833 -2.5 -38.5 -3.5l-30 -2.5c-8.33301 -0.666992 -15.333 -1.16699 -21 -1.5s-13.5 -0.666016 -23.5 -0.999023s-15 1.83398 -15 6.50098s3 9.33398 9 14.001
c16 12.667 37.5 19 64.5 19s57 -1.83301 90 -5.5s49.5 -8.16699 49.5 -13.5z" />
    <glyph glyph-name="degree" unicode="&#xb0;" horiz-adv-x="213" 
d="M179 279c0 -17.333 -6.5 -32.5 -19.5 -45.5s-28.333 -19.5 -46 -19.5s-32.834 6.5 -45.501 19.5s-19 28.167 -19 45.5s6.33301 32.333 19 45s27.834 19 45.501 19s33 -6.33301 46 -19s19.5 -27.667 19.5 -45zM162 279c0 13.333 -4.83301 24.666 -14.5 33.999
s-21 14 -34 14s-24.333 -4.66699 -34 -14s-14.5 -20.666 -14.5 -33.999s4.83301 -24.666 14.5 -33.999s21 -14 34 -14s24.333 4.66699 34 14s14.5 20.666 14.5 33.999z" />
    <glyph glyph-name="plusminus" unicode="&#xb1;" horiz-adv-x="330" 
d="M165 211l-4.99902 103.001c0 7.33301 5.66699 12 17 14l4 -4c2 -16.667 3 -45 3 -85v-28c3.33301 -0.666992 16 -1.33398 38 -2.00098c55.333 -2 83 -4.66699 83 -8v-3l-8 -5c-38.667 0 -76.334 -0.333008 -113.001 -1c0 -76.667 -4 -115 -12 -115
c-2 -2 -3.16699 0.333008 -3.5 7s-0.833008 14 -1.5 22c-1.33301 16 -2 43.667 -2 83v2l-105 -3c-8 0 -12.667 5 -14 15l3 4c21.333 2.66699 50 4 86 4h30zM101.001 22.001c-8.66699 0 -14 6 -16 18h1c8.66699 4 35 6 79 6s69.333 -3.66699 76 -11
c0 -2 -19.5 -4.66699 -58.5 -8s-66.167 -5 -81.5 -5z" />
    <glyph glyph-name="twosuperior" unicode="&#xb2;" horiz-adv-x="368" 
d="M149 265l6.99902 -13.001c0 -2.66699 -2 -4 -6 -4s-10.667 5.83301 -20 17.5s-14 20.834 -14 27.501c0 22 29.167 43.667 87.5 65s110.5 32 156.5 32c53.333 0 80 -20 80 -60c0 -29.333 -30.833 -74.166 -92.5 -134.499s-140.5 -115.833 -236.5 -166.5
c40.667 8 81.667 12 123 12c80 0 120 -17 120 -51c0 -20 -4 -30 -12 -30c-1.33301 0 -1.66602 1.66699 -0.999023 5s0.5 6.33301 -0.5 9s-6.66699 5.66699 -17 9s-31.5 5 -63.5 5s-68 -2 -108 -6c-63.333 -7.33301 -101.666 -11.333 -114.999 -12
c-7.33301 0 -13.333 12 -18 36c185.333 106 308.666 214.333 369.999 325c4.66699 7.33301 7 13.666 7 18.999c0 10 -8.66699 15 -26 15c-28.667 0 -72.667 -12 -132 -36s-89 -45.333 -89 -64z" />
    <glyph glyph-name="threesuperior" unicode="&#xb3;" horiz-adv-x="412" 
d="M160 308l2 -9.99902c0 -4 -1.33301 -6 -4 -6s-6.16699 6 -10.5 18s-6.5 20.667 -6.5 26c0 16.667 12.5 30.5 37.5 41.5s57.833 16.5 98.5 16.5s75.834 -6.5 105.501 -19.5s44.5 -30.333 44.5 -52s-9.33301 -40.334 -28 -56.001s-51 -35.167 -97 -58.5
c44 -30 66 -61.667 66 -95c0 -42.667 -25.5 -81.5 -76.5 -116.5s-103.5 -52.5 -157.5 -52.5c-36.667 0 -65.667 11.167 -87 33.5s-32 51.666 -32 87.999s7 54.5 21 54.5c3.33301 0 5 -2.33301 5 -7c0 -1.33301 -2.16699 -8.66602 -6.5 -21.999s-6.5 -22.333 -6.5 -27
c0 -39.333 29.333 -59 88 -59c50.667 0 100 14.833 148 44.5s72 59.334 72 89.001s-34.333 44.5 -103 44.5l-67 -8c-6.66699 0 -12.334 6 -17.001 18l-13 27c1.33301 0 6.83301 0.5 16.5 1.5s18.167 1.83301 25.5 2.5c22.667 2 64 16 124 42s90 47.5 90 64.5
s-34 25.5 -102 25.5c-39.333 0 -70.833 -4.33301 -94.5 -13s-35.5 -20.334 -35.5 -35.001z" />
    <glyph glyph-name="acute" unicode="&#xb4;" horiz-adv-x="167" 
d="M152 263c6.66699 0 10.001 -3.66699 10.001 -11s-2 -13 -6 -17s-24.667 -17.167 -62 -39.5s-57.5 -33.5 -60.5 -33.5s-4.5 1.83301 -4.5 5.5s19.667 20.5 59 50.5s60.666 45 63.999 45z" />
    <glyph glyph-name="mu" unicode="&#xb5;" horiz-adv-x="311" 
d="M94 260l-8.99902 18c0 2 2.5 3 7.5 3s15.833 -3.33301 32.5 -10s25 -12.334 25 -17.001l-54.5 -111c-29.667 -60.667 -44.5 -101.5 -44.5 -122.5s4.33301 -31.5 13 -31.5c10.667 0 26 12 46 36s39.667 52 59 84l84 136c9.33301 16 20 24 32 24c24 0 36 -4.66699 36 -14
c0 2.66699 -1.66699 1 -5 -5c-18.667 -34 -35.5 -75 -50.5 -123s-22.5 -79.333 -22.5 -94c0 -40.667 7.33301 -61 22 -61c4.66699 0 14.334 6.33301 29.001 19c1.33301 0 2 -2.66699 2 -8c0 -17.333 -9.83301 -26 -29.5 -26s-35 8.83301 -46 26.5s-16.5 39.667 -16.5 66
s5.33301 61.5 16 105.5c-52 -84.667 -86.833 -138 -104.5 -160s-36.5 -33 -56.5 -33c-10.667 0 -21.334 4.66699 -32.001 14c-40.667 -89.333 -61 -158.666 -61 -207.999c0 -16 6 -24 18 -24c3.33301 0 9 1.83301 17 5.5s12.667 5.5 14 5.5s2 -0.666992 2 -2
c0 -4.66699 -4.66699 -9.16699 -14 -13.5s-18.333 -6.5 -27 -6.5s-18 6 -28 18s-15 24.333 -15 37c0 42 10.167 92 30.5 150s41.666 114.167 63.999 168.5s39 93 50 116s16.5 35.5 16.5 37.5z" />
    <glyph glyph-name="paragraph" unicode="&#xb6;" horiz-adv-x="413" 
d="M368 419c-28 0 -56.333 -24.3359 -85 -73.0029s-65.667 -135 -111 -259c-22.667 -64.667 -54 -122.167 -94 -172.5s-75 -75.5 -105 -75.5c-8 0 -12.333 2.66699 -13 8c2.66699 2.66699 5.33398 4 8.00098 4c36 0 68.667 23.167 98 69.5s67.666 135.5 114.999 267.5
c-77.333 6 -116 34.333 -116 85c0 43.333 24.333 81 73 113c39.333 26 84.666 41 135.999 45c18 1.33301 38.333 2 61 2s38.667 -1 48 -3c20.667 20.667 39.834 31 57.501 31s27.834 -3.33301 30.501 -10c-22 -3.33301 -43.333 -16.666 -64 -39.999
s-43 -62.666 -67 -117.999c-64.667 -162.667 -108.667 -264 -132 -304s-41.333 -60.333 -54 -61c-3.33301 0 -5 1 -5 3c2 4 5.33301 8.33301 10 13c27.333 26.667 57.666 88.334 90.999 185.001c47.333 150 89.333 246.667 126 290h-8z" />
    <glyph glyph-name="periodcentered" unicode="&#xb7;" horiz-adv-x="170" 
d="M116.5 194.5c6.33301 -5 9.5 -10.667 9.5 -17s-3.16699 -11.833 -9.5 -16.5s-12.5 -7 -18.5 -7c-21.333 0 -32 9 -32 27c0 14 9.66699 21 29 21c8 0 15.167 -2.5 21.5 -7.5z" />
    <glyph glyph-name="cedilla" unicode="&#xb8;" horiz-adv-x="169" 
d="M131 -163c0 -22 -11.333 -39.998 -34 -53.998s-49 -21 -79 -21c-4 0 -6 3 -6 9c0 3.33301 7.33301 5.66602 22 6.99902c42.667 4 64 21 64 51c0 3.33301 -6.33301 16 -19 38s-19 36 -19 42c0 18 4.83301 33.333 14.5 46s22.167 19 37.5 19c6 0 9 -1.66699 9 -5
c-22.667 -2.66699 -34 -18.334 -34 -47.001c0 -2 7.33301 -14.5 22 -37.5s22 -38.833 22 -47.5z" />
    <glyph glyph-name="onesuperior" unicode="&#xb9;" horiz-adv-x="180" 
d="M49 326l6.99902 -34.999c0 -2.66699 -1.33301 -4 -4 -4c-9.33301 0 -17.166 8.16699 -23.499 24.5s-9.5 35.166 -9.5 56.499c0 56.667 29 145 87 265c-15.333 -16 -34 -32.667 -56 -50c-0.666992 0.666992 -1 1.5 -1 2.5s0.333008 2.16699 1 3.5l53 73
c28.667 39.333 46.667 59 54 59s17.5 -2.66699 30.5 -8s19.5 -10.333 19.5 -15c0 -0.666992 -0.666992 -2 -2 -4c-32 -43.333 -66 -107 -102 -191s-54 -143 -54 -177z" />
    <glyph glyph-name="ordmasculine" unicode="&#xba;" 
d="M216 681c31.333 -4.66699 47.001 -11.835 47.001 -21.502s-3.33301 -14.5 -10 -14.5c-2 0 -6.33301 0.5 -13 1.5s-10.667 1.5 -12 1.5c1.33301 -12 2 -22.667 2 -32c0 -55.333 -14 -104.166 -42 -146.499s-63 -63.5 -105 -63.5c-54 0 -81 28.667 -81 86
c0 22.667 5.16699 46.834 15.5 72.501s23.166 46.5 38.499 62.5c-7.33301 12 -11 27.667 -11 47s8 36.833 24 52.5s35.667 23.5 59 23.5c44 0 73.333 -23 88 -69zM116.001 721.999c-14 0 -25.667 -6.33203 -35 -18.999s-14 -25.334 -14 -38.001s1 -22.667 3 -30
c46 34.667 77.333 52 94 52h3c-9.33301 23.333 -26.333 35 -51 35zM105.001 601c7.33301 -4 12.832 -5.83105 16.499 -5.49805s5.83398 0.5 6.50098 0.5c3.33301 0 5 -2.16699 5 -6.5s-4.33301 -6.5 -13 -6.5s-17 2 -25 6c-35.333 -40.667 -53 -79.334 -53 -116.001
s13.5 -55 40.5 -55s52.5 21.5 76.5 64.5s36 84.167 36 123.5c0 17.333 -3 31.333 -9 42c-25.333 -2.66699 -52.333 -18.334 -81 -47.001z" />
    <glyph glyph-name="guillemotright" unicode="&#xbb;" horiz-adv-x="346" 
d="M64 301c0 3.33301 1.99902 5.00098 5.99902 5.00098s22 -21.167 54 -63.5s48 -67.833 48 -76.5c0 -2 -0.666992 -3.66699 -2 -5c-47.333 -36.667 -77.666 -64 -90.999 -82l-6 -3h-2c-4 0 -6 2.83301 -6 8.5s24.333 39.5 73 101.5c-49.333 69.333 -74 107.666 -74 114.999
zM189.999 301.001c0 3.33301 1.99902 5.00098 5.99902 5.00098s22.167 -21.167 54.5 -63.5s48.5 -67.833 48.5 -76.5c0 -1.33301 -1 -3 -3 -5c-47.333 -36.667 -77.666 -64 -90.999 -82l-6 -3h-2c-3.33301 0 -5 3 -5 9s24 39.667 72 101
c-49.333 69.333 -74 107.666 -74 114.999z" />
    <glyph glyph-name="onequarter" unicode="&#xbc;" horiz-adv-x="707" 
d="M40 243l4.99902 -28c0 -2 -1 -3 -3 -3c-7.33301 0 -13.666 6.5 -18.999 19.5s-8 27.833 -8 44.5c0 43.333 23.333 114.333 70 213c-12 -13.333 -26.667 -27 -44 -41c-0.666992 0.666992 -1 1.66699 -1 3l42 60c22.667 31.333 37.167 47 43.5 47s14.5 -1.83301 24.5 -5.5
s15 -7.5 15 -11.5v-4c-26 -34.667 -53.333 -85.667 -82 -153s-43 -114.333 -43 -141zM40.999 -74c0 -7.33301 3.33301 -13.667 10 -19c0 -8 -6 -12 -18 -12s-18 10 -18 30s3.5 36.5 10.5 49.5s32.5 51.833 76.5 116.5c190 272 295.667 408 317 408c30 0 45 -6.33301 45 -19
c0 -4 -2 -8.66699 -6 -14l-107 -124c-206.667 -239.333 -310 -378 -310 -416zM598.999 290.999c0 2 -4.33398 6.66895 -13.001 14.002c1.33301 4 7 6 17 6s19.833 -3 29.5 -9s14.5 -13.833 14.5 -23.5s-8.33301 -32.167 -25 -67.5l-36 -76
c9.33301 -2 18.833 -6.66699 28.5 -14s14.5 -14.333 14.5 -21s-2.5 -13.5 -7.5 -20.5s-9.33301 -10.5 -13 -10.5s-5.5 1.66699 -5.5 5l11 30c0 5.33301 -9.33301 8 -28 8h-6c-6 -12 -15 -38.167 -27 -78.5s-18 -64 -18 -71s3.33301 -14.5 10 -22.5c0 -2 -2.33301 -3 -7 -3
c-19.333 0 -29 23.333 -29 70c0 26 6.33301 60 19 102c-2.66699 0.666992 -8.16699 1 -16.5 1s-32.666 -3.5 -72.999 -10.5s-69.5 -14.167 -87.5 -21.5c-4 0 -8 3.66699 -12 11s-6 13.666 -6 18.999c0 18.667 30.333 52 91 100l122 89h-5c-11.333 0 -17 1 -17 3
c0 4 8.5 6 25.5 6s25.5 -6.33301 25.5 -19c0 -3.33301 -4.5 -8.83301 -13.5 -16.5l-24.5 -20.5l-30 -24l-36 -28.5l-45.5 -35.5l-51.5 -40c55.333 12 104 18 146 18h20l35 78c16 37.333 24 61.666 24 72.999z" />
    <glyph glyph-name="onehalf" unicode="&#xbd;" horiz-adv-x="683" 
d="M553 -18.5c-8 2.33301 -22.501 3.50195 -43.501 3.50195s-82.833 -4.66699 -185.5 -14c-5.33301 0 -10.333 9.66699 -15 29c148 82.667 247 169.334 297 260.001c3.33301 6.66699 5 11.667 5 15c0 8 -9 12 -27 12s-51 -9.5 -99 -28.5s-72 -36.167 -72 -51.5
c0 -2 1 -4 3 -6s3 -3.83301 3 -5.5s-1.66699 -2.5 -5 -2.5s-8.83301 4.66699 -16.5 14s-11.5 16.666 -11.5 21.999c0 17.333 23.5 34.666 70.5 51.999s90.333 26 130 26s59.5 -16 59.5 -48c0 -23.333 -24.667 -59.333 -74 -108s-112.333 -93 -189 -133
c36.667 6.66699 69.334 10 98.001 10c64.667 0 97 -13.667 97 -41c0 -16.667 -3.33301 -25 -10 -25c-2 0 -2.66699 1.5 -2 4.5s0.666992 5.66699 0 8s-5 4.66602 -13 6.99902zM39.999 243.002l4.99902 -28c0 -2 -1 -3 -3 -3c-7.33301 0 -13.666 6.5 -18.999 19.5
s-8 27.833 -8 44.5c0 43.333 23.333 114.333 70 213c-12 -13.333 -26.667 -27 -44 -41c-0.666992 0.666992 -1 1.66699 -1 3l42 60c22.667 31.333 37.167 47 43.5 47s14.5 -1.83301 24.5 -5.5s15 -7.5 15 -11.5v-4c-26 -34.667 -53.333 -85.667 -82 -153
s-43 -114.333 -43 -141zM40.998 -73.998c0 -7.33301 3.33301 -13.667 10 -19c0 -8 -6 -12 -18 -12s-18 10 -18 30s3.5 36.5 10.5 49.5s32.5 51.833 76.5 116.5c190 272 295.667 408 317 408c30 0 45 -6.33301 45 -19c0 -4 -2 -8.66699 -6 -14l-107 -124
c-206.667 -239.333 -310 -378 -310 -416z" />
    <glyph glyph-name="threequarters" unicode="&#xbe;" horiz-adv-x="805" 
d="M128 489c0.666992 -4.66699 1 -8 1 -10s-1 -3 -3 -3s-4.66699 5 -8 15s-5 16.667 -5 20c0 13.333 9.83301 24.333 29.5 33s46 13 79 13s61.167 -5 84.5 -15s35 -23.833 35 -41.5s-7.33301 -32.667 -22 -45s-40.334 -27.5 -77.001 -45.5c34.667 -24.667 52 -50 52 -76
c0 -34 -20.5 -65.167 -61.5 -93.5s-82.833 -42.5 -125.5 -42.5c-29.333 0 -52.5 8.83301 -69.5 26.5s-25.5 41.167 -25.5 70.5s5.66699 44 17 44c2 0 3 -1.66699 3 -5l-10 -40c0 -31.333 22.333 -47 67 -47s85.834 12 123.501 36s56.5 47.667 56.5 71s-27.667 35 -83 35
l-53 -6c-6 0 -10.667 5 -14 15l-10 21c29.333 0 70.833 11.333 124.5 34s80.5 41 80.5 55c0 12.667 -27.333 19 -82 19c-31.333 0 -56.5 -3.5 -75.5 -10.5s-28.5 -16.167 -28.5 -27.5zM162 -74c0 -7.33301 3.33301 -13.667 10 -19c0 -8 -6 -12 -18 -12s-18 10 -18 30
s3.5 36.5 10.5 49.5s32.5 51.833 76.5 116.5c190 272 295.667 408 317 408c30 0 45 -6.33301 45 -19c0 -4 -2 -8.66699 -6 -14l-107 -124c-95.333 -110 -170.833 -202.167 -226.5 -276.5s-83.5 -120.833 -83.5 -139.5zM720 290.999c0 2 -4.33301 6.66895 -13 14.002
c0.666992 4 6.16699 6 16.5 6s20.333 -3 30 -9s14.5 -13.833 14.5 -23.5s-8.33301 -32.167 -25 -67.5l-36 -76c9.33301 -2 18.833 -6.66699 28.5 -14s14.5 -14.333 14.5 -21s-2.5 -13.5 -7.5 -20.5s-9.33301 -10.5 -13 -10.5s-5.5 1.66699 -5.5 5l11 30
c0 5.33301 -9.33301 8 -28 8h-6c-6 -12 -15 -38.167 -27 -78.5s-18 -64 -18 -71s3.33301 -14.5 10 -22.5c0 -2 -2.33301 -3 -7 -3c-19.333 0 -29 23.333 -29 70c0 24.667 6 58.667 18 102c-2 0.666992 -7.16699 1 -15.5 1s-32.833 -3.5 -73.5 -10.5
s-69.667 -14.167 -87 -21.5c-4 0 -8 3.66699 -12 11s-6 13.666 -6 18.999c0 18.667 30.333 52 91 100l122 89h-5c-11.333 0 -17 1 -17 3c0 4 8.33301 6 25 6s25 -6.33301 25 -19c0 -5.33301 -8.66699 -14.833 -26 -28.5l-37 -29l-27.5 -22l-31.5 -25.5l-78 -60
c55.333 12 104 18 146 18h20l34 78c16.667 37.333 25 61.666 25 72.999z" />
    <glyph glyph-name="questiondown" unicode="&#xbf;" horiz-adv-x="302" 
d="M303 252c0 -18 -4.16699 -33.5 -12.5 -46.5s-18.833 -19.5 -31.5 -19.5c-22 0 -33 4 -33 12c0 -4 22.667 17.333 68 64c6 0 9 -3.33301 9 -10zM254 -112l-4.00098 16.998c0 2.66699 1.33301 4 4 4s7.33398 -7 14.001 -21s10 -23.333 10 -28
c0 -16 -11.5 -28.833 -34.5 -38.5s-55.167 -14.5 -96.5 -14.5s-78.166 7.5 -110.499 22.5s-48.5 32.833 -48.5 53.5s13.833 40.5 41.5 59.5s58.167 35.167 91.5 48.5s63.833 28.5 91.5 45.5s41.5 31.333 41.5 43s-11.167 24.167 -33.5 37.5s-33.5 20.333 -33.5 21
c0 4.66699 7.66699 7 23 7s30.166 -8.5 44.499 -25.5s21.5 -35.333 21.5 -55s-13 -39.667 -39 -60s-54.667 -36.666 -86 -48.999s-60 -26.166 -86 -41.499s-39 -29.333 -39 -42c0 -18 38 -27 114 -27s114 14.333 114 43z" />
    <glyph glyph-name="Agrave" unicode="&#xc0;" horiz-adv-x="580" 
d="M249 147l34.9971 1h33c30 24 66.333 57.333 109 100s72.667 76.667 90 102l31 45c2.66699 0 4 -3.66699 4 -11c0 -30 -23.667 -71 -71 -123l-104 -110l119 12c21.333 46 44.666 92.833 69.999 140.5l47.5 90l19 37c6.33301 12.333 13.5 23.833 21.5 34.5s15.5 16 22.5 16
s15.667 -2.16699 26 -6.5s15.5 -8.83301 15.5 -13.5c-8.66699 -12.667 -18.167 -27.667 -28.5 -45l-33.5 -56c-118 -197.333 -177 -335.666 -177 -414.999c0 -9.33301 2.66699 -21 8 -35c6.66699 -16 8.66699 -24 6 -24c-13.333 0 -24.166 8.16699 -32.499 24.5
s-12.5 37.333 -12.5 63s13.667 80.5 41 164.5c-9.33301 0 -35 -3.33301 -77 -10s-68 -11.334 -78 -14.001c-109.333 -94.667 -194.666 -142 -255.999 -142c-26 0 -46 8.66699 -60 26c2.66699 0.666992 4.33398 1 5.00098 1l29 -5c49.333 0 123.333 38.667 222 116v1l-54 -2
c-16 0 -29.833 4.5 -41.5 13.5s-17.5 20.167 -17.5 33.5l2 2c0 0.666992 0.333008 1 1 1l3 -2c6.66699 -6.66699 34.334 -10 83.001 -10zM693.997 522c0 -4.66699 -2.49902 -6.99805 -7.49902 -6.99805s-25.167 11.333 -60.5 34
c-36.667 21.333 -57.834 34.666 -63.501 39.999s-8.5 12.166 -8.5 20.499s3.33301 12.5 10 12.5c3.33301 0 25.833 -15.5 67.5 -46.5s62.5 -48.833 62.5 -53.5z" />
    <glyph glyph-name="Aacute" unicode="&#xc1;" horiz-adv-x="580" 
d="M249 147l34.9971 1h33c30 24 66.333 57.333 109 100s72.667 76.667 90 102l31 45c2.66699 0 4 -3.66699 4 -11c0 -30 -23.667 -71 -71 -123l-104 -110l119 12c21.333 46 44.666 92.833 69.999 140.5l47.5 90l19 37c6.33301 12.333 13.5 23.833 21.5 34.5s15.5 16 22.5 16
s15.667 -2.16699 26 -6.5s15.5 -8.83301 15.5 -13.5c-8.66699 -12.667 -18.167 -27.667 -28.5 -45l-33.5 -56c-118 -197.333 -177 -335.666 -177 -414.999c0 -9.33301 2.66699 -21 8 -35c6.66699 -16 8.66699 -24 6 -24c-13.333 0 -24.166 8.16699 -32.499 24.5
s-12.5 37.333 -12.5 63s13.667 80.5 41 164.5c-9.33301 0 -35 -3.33301 -77 -10s-68 -11.334 -78 -14.001c-109.333 -94.667 -194.666 -142 -255.999 -142c-26 0 -46 8.66699 -60 26c2.66699 0.666992 4.33398 1 5.00098 1l29 -5c49.333 0 123.333 38.667 222 116v1l-54 -2
c-16 0 -29.833 4.5 -41.5 13.5s-17.5 20.167 -17.5 33.5l2 2c0 0.666992 0.333008 1 1 1l3 -2c6.66699 -6.66699 34.334 -10 83.001 -10zM694.497 570c39 30 61 45 66 45s7.5 -3.83301 7.5 -11.5s-2.16699 -13.5 -6.5 -17.5s-24.833 -17 -61.5 -39s-56.5 -33 -59.5 -33
s-4.5 1.83301 -4.5 5.5s19.5 20.5 58.5 50.5z" />
    <glyph glyph-name="Acircumflex" unicode="&#xc2;" horiz-adv-x="580" 
d="M249 147l34.9971 1h33c30 24 66.333 57.333 109 100s72.667 76.667 90 102l31 45c2.66699 0 4 -3.66699 4 -11c0 -30 -23.667 -71 -71 -123l-104 -110l119 12c21.333 46 44.666 92.833 69.999 140.5l47.5 90l19 37c6.33301 12.333 13.5 23.833 21.5 34.5s15.5 16 22.5 16
s15.667 -2.16699 26 -6.5s15.5 -8.83301 15.5 -13.5c-8.66699 -12.667 -18.167 -27.667 -28.5 -45l-33.5 -56c-118 -197.333 -177 -335.666 -177 -414.999c0 -9.33301 2.66699 -21 8 -35c6.66699 -16 8.66699 -24 6 -24c-13.333 0 -24.166 8.16699 -32.499 24.5
s-12.5 37.333 -12.5 63s13.667 80.5 41 164.5c-9.33301 0 -35 -3.33301 -77 -10s-68 -11.334 -78 -14.001c-109.333 -94.667 -194.666 -142 -255.999 -142c-26 0 -46 8.66699 -60 26c2.66699 0.666992 4.33398 1 5.00098 1l29 -5c49.333 0 123.333 38.667 222 116v1l-54 -2
c-16 0 -29.833 4.5 -41.5 13.5s-17.5 20.167 -17.5 33.5l2 2c0 0.666992 0.333008 1 1 1l3 -2c6.66699 -6.66699 34.334 -10 83.001 -10zM582.997 522c-4 0 -5.99805 2.50098 -5.99805 7.50098s15.667 20.167 47 45.5s49.666 38.666 54.999 39.999l5 -2
c18 -20.667 49.333 -47.667 94 -81l4 -8l-3 -5c-9.33301 0.666992 -27.833 9.5 -55.5 26.5s-45.834 30.167 -54.501 39.5c-52 -42 -80.667 -63 -86 -63z" />
    <glyph glyph-name="Atilde" unicode="&#xc3;" horiz-adv-x="580" 
d="M249 147l34.9971 1h33c30 24 66.333 57.333 109 100s72.667 76.667 90 102l31 45c2.66699 0 4 -3.66699 4 -11c0 -30 -23.667 -71 -71 -123l-104 -110l119 12c21.333 46 44.666 92.833 69.999 140.5l47.5 90l19 37c6.33301 12.333 13.5 23.833 21.5 34.5s15.5 16 22.5 16
s15.667 -2.16699 26 -6.5s15.5 -8.83301 15.5 -13.5c-8.66699 -12.667 -18.167 -27.667 -28.5 -45l-33.5 -56c-118 -197.333 -177 -335.666 -177 -414.999c0 -9.33301 2.66699 -21 8 -35c6.66699 -16 8.66699 -24 6 -24c-13.333 0 -24.166 8.16699 -32.499 24.5
s-12.5 37.333 -12.5 63s13.667 80.5 41 164.5c-9.33301 0 -35 -3.33301 -77 -10s-68 -11.334 -78 -14.001c-109.333 -94.667 -194.666 -142 -255.999 -142c-26 0 -46 8.66699 -60 26c2.66699 0.666992 4.33398 1 5.00098 1l29 -5c49.333 0 123.333 38.667 222 116v1l-54 -2
c-16 0 -29.833 4.5 -41.5 13.5s-17.5 20.167 -17.5 33.5l2 2c0 0.666992 0.333008 1 1 1l3 -2c6.66699 -6.66699 34.334 -10 83.001 -10zM685.997 599l72.0039 -15.999c11.333 0 22 5.33301 32 16c2.66699 0 4 -1.16699 4 -3.5s-1.83301 -6.33301 -5.5 -12
s-9.66699 -11.334 -18 -17.001s-16.333 -8.5 -24 -8.5s-21.334 3.5 -41.001 10.5s-31.834 10.5 -36.501 10.5s-10.334 -1.83301 -17.001 -5.5s-12.334 -7.16699 -17.001 -10.5s-7.33398 -5 -8.00098 -5l-1 2c0 2.66699 2.5 7 7.5 13s12.333 11.833 22 17.5
s19.834 8.5 30.501 8.5z" />
    <glyph glyph-name="Adieresis" unicode="&#xc4;" horiz-adv-x="580" 
d="M249 147l34.9971 1h33c30 24 66.333 57.333 109 100s72.667 76.667 90 102l31 45c2.66699 0 4 -3.66699 4 -11c0 -30 -23.667 -71 -71 -123l-104 -110l119 12c21.333 46 44.666 92.833 69.999 140.5l47.5 90l19 37c6.33301 12.333 13.5 23.833 21.5 34.5s15.5 16 22.5 16
s15.667 -2.16699 26 -6.5s15.5 -8.83301 15.5 -13.5c-8.66699 -12.667 -18.167 -27.667 -28.5 -45l-33.5 -56c-118 -197.333 -177 -335.666 -177 -414.999c0 -9.33301 2.66699 -21 8 -35c6.66699 -16 8.66699 -24 6 -24c-13.333 0 -24.166 8.16699 -32.499 24.5
s-12.5 37.333 -12.5 63s13.667 80.5 41 164.5c-9.33301 0 -35 -3.33301 -77 -10s-68 -11.334 -78 -14.001c-109.333 -94.667 -194.666 -142 -255.999 -142c-26 0 -46 8.66699 -60 26c2.66699 0.666992 4.33398 1 5.00098 1l29 -5c49.333 0 123.333 38.667 222 116v1l-54 -2
c-16 0 -29.833 4.5 -41.5 13.5s-17.5 20.167 -17.5 33.5l2 2c0 0.666992 0.333008 1 1 1l3 -2c6.66699 -6.66699 34.334 -10 83.001 -10zM724.997 537c-3.33301 0 -6.83301 2.49805 -10.5 7.49805s-5.5 10.333 -5.5 16s7.5 13.834 22.5 24.501s26.5 16 34.5 16l2 -1v1v-1
c-2 -3.33301 -5.33301 -7.66602 -10 -12.999l-12 -30c-6 -13.333 -13 -20 -21 -20zM632.997 536.998c-2.66699 0 -5.83301 2.49805 -9.5 7.49805s-5.5 10.333 -5.5 16s7.5 13.834 22.5 24.501s26.167 16 33.5 16l3 -1v1v-1c-2 -3.33301 -5.33301 -7.66602 -10 -12.999
l-13 -30c-6.66699 -13.333 -13.667 -20 -21 -20z" />
    <glyph glyph-name="Aring" unicode="&#xc5;" horiz-adv-x="580" 
d="M249 147l34.9961 0.999023h33c30 24 66.333 57.333 109 100s72.667 76.667 90 102l31 45c2.66699 0 4 -3.66699 4 -11c0 -30 -23.667 -71 -71 -123l-104 -110l119 12c53.333 112.667 106.666 214 159.999 304c-7.33301 -2 -13.666 -3 -18.999 -3c-20.667 0 -31 10 -31 30
c0 16.667 7 34.334 21 53.001s29.333 28 46 28c21.333 0 32 -12 32 -36s-9 -43.333 -27 -58c26.667 -4 40 -10.667 40 -20c-8.66699 -12.667 -18.167 -27.667 -28.5 -45l-33.5 -56c-118 -197.333 -177 -335.666 -177 -414.999c0 -9.33301 2.66699 -21 8 -35
c6.66699 -16 8.66699 -24 6 -24c-13.333 0 -24.166 8.16699 -32.499 24.5s-12.5 37.333 -12.5 63s13.667 80.5 41 164.5c-9.33301 0 -35 -3.33301 -77 -10s-68 -11.334 -78 -14.001c-109.333 -94.667 -194.666 -142 -255.999 -142c-26 0 -46 8.66699 -60 26
c2.66699 0.666992 4.33398 1 5.00098 1l29 -5c49.333 0 123.333 38.667 222 116v1l-54 -2c-16 0 -29.833 4.5 -41.5 13.5s-17.5 20.167 -17.5 33.5l2 2c0 0.666992 0.333008 1 1 1l3 -2c6.66699 -6.66699 34.334 -10 83.001 -10zM673.996 496.499
c8.66699 11.667 12.998 25.166 12.998 40.499s-5.66699 23 -17 23c-5.33301 0 -12.666 -3 -21.999 -9l8 -3c-16 -27.333 -24 -45.666 -24 -54.999s4.83301 -14 14.5 -14s18.834 5.83301 27.501 17.5z" />
    <glyph glyph-name="AE" unicode="&#xc6;" horiz-adv-x="935" 
d="M477 183l25.998 -4.99805c36 75.333 61.667 127 77 155l32.5 60.5l19 37c6.33301 12.333 13.5 23.833 21.5 34.5s15.5 16 22.5 16s15.667 -2.16699 26 -6.5s15.5 -8.83301 15.5 -13.5c-8 -10 -23.333 -34.667 -46 -74c75.333 56 150.666 84 225.999 84
c24.667 0 41.667 -2.66699 51 -8c0.666992 1.33301 1.5 4 2.5 8s1.83301 7 2.5 9c6 14 11.667 22 17 24c2 0.666992 4.33301 1 7 1c23.333 0 35 -4.33301 35 -13c-1.33301 0 -8.83301 -9.33301 -22.5 -28s-27.167 -39.667 -40.5 -63s-20 -40 -20 -50l3 -15
c0 -1.33301 -0.666992 -2 -2 -2c-10 0 -15 12 -15 36s7.66699 49 23 75c-8 1.33301 -16 2 -24 2c-71.333 0 -140 -25.5 -206 -76.5s-117.333 -116.167 -154 -195.5c146 0 249.667 7.66699 311 23c4 0 6 -1.66699 6 -5c0 -12.667 -41.333 -25.167 -124 -37.5
s-151.667 -19.166 -207 -20.499c-2.66699 -17.333 -4 -29.333 -4 -36c0 -44 15 -80 45 -108s68.667 -42 116 -42c92 0 174.667 38.667 248 116c8 9.33301 13.833 14 17.5 14s5.5 -2.33301 5.5 -7s-2.66699 -10.667 -8 -18c-42.667 -42 -90.5 -74.167 -143.5 -96.5
s-104.333 -33.5 -154 -33.5s-92.5 16.167 -128.5 48.5s-54 71.166 -54 116.499c0 15.333 2.66699 31.666 8 48.999c-9.33301 0 -35 -3.33301 -77 -10s-68 -11.334 -78 -14.001c-109.333 -94.667 -194.666 -142 -255.999 -142c-26 0 -46 8.66699 -60 26
c2.66699 0.666992 4.33398 1 5.00098 1l29 -5c49.333 0 123.333 38.667 222 116v1l-54 -2c-16 0 -29.833 4.5 -41.5 13.5s-17.5 20.167 -17.5 33.5l2 2c0 0.666992 0.333008 1 1 1l3 -2c6.66699 -6.66699 34.334 -10 83.001 -10l35 1h33c30 24 66.333 57.333 109 100
s72.667 76.667 90 102l31 45c2.66699 0 4 -3.66699 4 -11c0 -30 -23.667 -71 -71 -123l-104 -110c21.333 1.33301 55 4.33301 101 9c-2.66699 8.66699 -4 14.667 -4 18s1.33301 5 4 5z" />
    <glyph glyph-name="Ccedilla" unicode="&#xc7;" horiz-adv-x="557" 
d="M511 285l4.00195 -15.001c0 -1.33301 -0.666992 -2 -2 -2c-8 0 -12 8.66699 -12 26c0 29.333 13.333 71.333 40 126c-20.667 18.667 -49.667 28 -87 28c-56.667 0 -115 -18.167 -175 -54.5s-109.333 -82 -148 -137s-58 -106.167 -58 -153.5s15 -84.833 45 -112.5
s68.333 -41.5 115 -41.5c91.333 0 173.666 38.667 246.999 116c9.33301 9.33301 16 14 20 14c2.66699 0 4 -2.5 4 -7.5s-3 -10.833 -9 -17.5c-36 -40.667 -82.333 -72.5 -139 -95.5s-109.334 -34.5 -158.001 -34.5c-8 0 -14 0.333008 -18 1c-12 -8 -18 -22.333 -18 -43
c0 -0.666992 7.16699 -12.5 21.5 -35.5s21.5 -39.167 21.5 -48.5c0 -21.333 -10.833 -39.166 -32.5 -53.499s-48.167 -21.5 -79.5 -21.5c-4 0 -6 2.66699 -6 8c0 2 2 4.33301 6 7l56 7c16.667 4.66699 25 19.334 25 44.001c0 3.33301 -6.5 16 -19.5 38
s-19.5 36.333 -19.5 43c0 26 8 45 24 57c-42 6.66699 -75 24 -99 52s-36 63.167 -36 105.5s12 86.166 36 131.499s55.333 86 94 122s84.167 65.833 136.5 89.5s101.833 35.5 148.5 35.5s84 -8.33301 112 -25c15.333 36 30 54 44 54c22.667 0 34 -4.33301 34 -13l-59 -77
c-39.333 -53.333 -59 -92.333 -59 -117z" />
    <glyph glyph-name="Egrave" unicode="&#xc8;" horiz-adv-x="490" 
d="M13 183l29.001 -6c27.333 77.333 80.5 145.666 159.5 204.999s155.833 89 230.5 89c26 0 43.667 -2.66699 53 -8c6.66699 24 14 37.667 22 41c2 0.666992 4.33301 1 7 1c23.333 0 35 -4.33301 35 -13c-1.33301 0 -8.83301 -9.33301 -22.5 -28
s-27.334 -39.667 -41.001 -63s-20.5 -40 -20.5 -50l4 -15c0 -1.33301 -0.666992 -2 -2 -2c-10 0 -15 12 -15 36s7.66699 49 23 75c-9.33301 1.33301 -17.666 2 -24.999 2c-69.333 0 -140.666 -27.833 -213.999 -83.5s-122.666 -118.5 -147.999 -188.5c82 0 144.667 1 188 3
c40 2.66699 81.667 9.33398 125 20.001c4.66699 0 7 -1.66699 7 -5c0 -12.667 -41.333 -25.167 -124 -37.5s-152 -19.166 -208 -20.499c-2 -12.667 -3 -24.667 -3 -36c0 -44.667 15 -80.834 45 -108.501s68.333 -41.5 115 -41.5c93.333 0 175.666 38.667 246.999 116
c9.33301 9.33301 16 14 20 14c2.66699 0 4 -2.5 4 -7.5s-3 -10.833 -9 -17.5c-36 -40.667 -82.333 -72.5 -139 -95.5s-110.334 -34.5 -161.001 -34.5s-91.834 14.5 -123.501 43.5s-47.5 68.5 -47.5 118.5c0 14.667 1.66699 32 5 52c-3.33301 0 -7.5 5.83301 -12.5 17.5
s-7.5 19.167 -7.5 22.5s1.33301 5 4 5zM392.001 638l-0.000976562 6.99609c0 8.66699 2.5 13 7.5 13s28.333 -15.833 70 -47.5s62.5 -49.5 62.5 -53.5s-2.33301 -6 -7 -6c-13.333 4.66699 -32 14.334 -56 29.001l-43.5 26.5c-5 3 -9.16699 5.83301 -12.5 8.5
s-6.33301 4.83398 -9 6.50098s-4.66699 3.33398 -6 5.00098s-2.66602 2.83398 -3.99902 3.50098c-1.33301 1.33301 -2 4 -2 8z" />
    <glyph glyph-name="Eacute" unicode="&#xc9;" horiz-adv-x="490" 
d="M13 183l29.001 -6c27.333 77.333 80.5 145.666 159.5 204.999s155.833 89 230.5 89c26 0 43.667 -2.66699 53 -8c6.66699 24 14 37.667 22 41c2 0.666992 4.33301 1 7 1c23.333 0 35 -4.33301 35 -13c-1.33301 0 -8.83301 -9.33301 -22.5 -28
s-27.334 -39.667 -41.001 -63s-20.5 -40 -20.5 -50l4 -15c0 -1.33301 -0.666992 -2 -2 -2c-10 0 -15 12 -15 36s7.66699 49 23 75c-9.33301 1.33301 -17.666 2 -24.999 2c-69.333 0 -140.666 -27.833 -213.999 -83.5s-122.666 -118.5 -147.999 -188.5c82 0 144.667 1 188 3
c40 2.66699 81.667 9.33398 125 20.001c4.66699 0 7 -1.66699 7 -5c0 -12.667 -41.333 -25.167 -124 -37.5s-152 -19.166 -208 -20.499c-2 -12.667 -3 -24.667 -3 -36c0 -44.667 15 -80.834 45 -108.501s68.333 -41.5 115 -41.5c93.333 0 175.666 38.667 246.999 116
c9.33301 9.33301 16 14 20 14c2.66699 0 4 -2.5 4 -7.5s-3 -10.833 -9 -17.5c-36 -40.667 -82.333 -72.5 -139 -95.5s-110.334 -34.5 -161.001 -34.5s-91.834 14.5 -123.501 43.5s-47.5 68.5 -47.5 118.5c0 14.667 1.66699 32 5 52c-3.33301 0 -7.5 5.83301 -12.5 17.5
s-7.5 19.167 -7.5 22.5s1.33301 5 4 5zM513.501 598c39 30 61 45.001 66 45.001s7.5 -3.83301 7.5 -11.5s-1.83301 -13.334 -5.5 -17.001s-24.167 -16.667 -61.5 -39s-57.5 -33.5 -60.5 -33.5s-4.5 1.83301 -4.5 5.5s19.5 20.5 58.5 50.5z" />
    <glyph glyph-name="Ecircumflex" unicode="&#xca;" horiz-adv-x="490" 
d="M13 183l29.001 -6c27.333 77.333 80.5 145.666 159.5 204.999s155.833 89 230.5 89c26 0 43.667 -2.66699 53 -8c6.66699 24 14 37.667 22 41c2 0.666992 4.33301 1 7 1c23.333 0 35 -4.33301 35 -13c-1.33301 0 -8.83301 -9.33301 -22.5 -28
s-27.334 -39.667 -41.001 -63s-20.5 -40 -20.5 -50l4 -15c0 -1.33301 -0.666992 -2 -2 -2c-10 0 -15 12 -15 36s7.66699 49 23 75c-9.33301 1.33301 -17.666 2 -24.999 2c-69.333 0 -140.666 -27.833 -213.999 -83.5s-122.666 -118.5 -147.999 -188.5c82 0 144.667 1 188 3
c40 2.66699 81.667 9.33398 125 20.001c4.66699 0 7 -1.66699 7 -5c0 -12.667 -41.333 -25.167 -124 -37.5s-152 -19.166 -208 -20.499c-2 -12.667 -3 -24.667 -3 -36c0 -44.667 15 -80.834 45 -108.501s68.333 -41.5 115 -41.5c93.333 0 175.666 38.667 246.999 116
c9.33301 9.33301 16 14 20 14c2.66699 0 4 -2.5 4 -7.5s-3 -10.833 -9 -17.5c-36 -40.667 -82.333 -72.5 -139 -95.5s-110.334 -34.5 -161.001 -34.5s-91.834 14.5 -123.501 43.5s-47.5 68.5 -47.5 118.5c0 14.667 1.66699 32 5 52c-3.33301 0 -7.5 5.83301 -12.5 17.5
s-7.5 19.167 -7.5 22.5s1.33301 5 4 5zM392.001 544c-4.66699 0 -6.99902 2.66797 -6.99902 8.00098s15.833 20.5 47.5 45.5s50.167 38.167 55.5 39.5l4 -2c18 -20 49.333 -47 94 -81l5 -7l-4 -6c-9.33301 0.666992 -27.833 9.66699 -55.5 27s-45.834 30.666 -54.501 39.999
c-52 -42.667 -80.333 -64 -85 -64z" />
    <glyph glyph-name="Edieresis" unicode="&#xcb;" horiz-adv-x="490" 
d="M13 183l29.001 -6c27.333 77.333 80.5 145.666 159.5 204.999s155.833 89 230.5 89c26 0 43.667 -2.66699 53 -8c6.66699 24 14 37.667 22 41c2 0.666992 4.33301 1 7 1c23.333 0 35 -4.33301 35 -13c-1.33301 0 -8.83301 -9.33301 -22.5 -28
s-27.334 -39.667 -41.001 -63s-20.5 -40 -20.5 -50l4 -15c0 -1.33301 -0.666992 -2 -2 -2c-10 0 -15 12 -15 36s7.66699 49 23 75c-9.33301 1.33301 -17.666 2 -24.999 2c-69.333 0 -140.666 -27.833 -213.999 -83.5s-122.666 -118.5 -147.999 -188.5c82 0 144.667 1 188 3
c40 2.66699 81.667 9.33398 125 20.001c4.66699 0 7 -1.66699 7 -5c0 -12.667 -41.333 -25.167 -124 -37.5s-152 -19.166 -208 -20.499c-2 -12.667 -3 -24.667 -3 -36c0 -44.667 15 -80.834 45 -108.501s68.333 -41.5 115 -41.5c93.333 0 175.666 38.667 246.999 116
c9.33301 9.33301 16 14 20 14c2.66699 0 4 -2.5 4 -7.5s-3 -10.833 -9 -17.5c-36 -40.667 -82.333 -72.5 -139 -95.5s-110.334 -34.5 -161.001 -34.5s-91.834 14.5 -123.501 43.5s-47.5 68.5 -47.5 118.5c0 14.667 1.66699 32 5 52c-3.33301 0 -7.5 5.83301 -12.5 17.5
s-7.5 19.167 -7.5 22.5s1.33301 5 4 5zM514.001 542c-4 0 -7.66699 2.5 -11 7.5s-5 10.5 -5 16.5s7.33301 14.167 22 24.5s26 15.5 34 15.5l2 -1v1v-1c-2.66699 -4 -6 -8 -10 -12l-12 -30c-5.33301 -14 -12 -21 -20 -21zM422.001 542c-3.33301 0 -6.66602 2.5 -9.99902 7.5
s-5 10.5 -5 16.5s7.33301 14.167 22 24.5s25.667 15.5 33 15.5l3 -1v1v-1c-2.66699 -4 -6 -8 -10 -12l-13 -30c-6.66699 -14 -13.334 -21 -20.001 -21z" />
    <glyph glyph-name="Igrave" unicode="&#xcc;" horiz-adv-x="351" 
d="M-10 -11l59 -4.99414h57v8c0 68.667 81.333 213.334 244 434.001c-126.667 -10.667 -202 -34.667 -226 -72c-0.666992 -2 -2 -6.66699 -4 -14c-2.66699 -14 -7.33398 -21 -14.001 -21c-2 0 -3 1.33301 -3 4c0 77.333 88.333 119.666 265 126.999
c8.66699 20.667 19.667 31 33 31c8.66699 0 18.667 -2 30 -6s17 -8.33301 17 -13c0 -2 -2.33301 -5.66699 -7 -11c12 -0.666992 18 -1.66699 18 -3c0 -2.66699 -2.16699 -6.33398 -6.5 -11.001s-8.16602 -7 -11.499 -7h-18
c-86.667 -96.667 -156.334 -186.334 -209.001 -269.001s-80 -141.334 -82 -176.001c70 1.33301 123.333 6.66602 160 15.999c2.66699 0.666992 5.83398 1 9.50098 1s5.5 -1.33301 5.5 -4c0 -4.66699 -8.33301 -8.33398 -25 -11.001l-146 -28c5.33301 -7.33301 15 -11 29 -11
l38 7c3.33301 0 5 -0.666992 5 -2c-2 -4.66699 -10 -9.33398 -24 -14.001s-24.667 -7 -32 -7c-18 0 -31 8 -39 24c-49.333 -8.66699 -81.333 -13 -96 -13s-23.667 2.83301 -27 8.5s-5 16.5 -5 32.5c0 3.33301 1.66699 5 5 5zM346 612.006l-0.000976562 5.99707
c0 8.66699 2.5 13 7.5 13s28.333 -15.833 70 -47.5s62.5 -49.5 62.5 -53.5s-2.33301 -6 -7 -6c-12.667 4 -31.167 13.5 -55.5 28.5l-44 27c-5 3 -9.16699 5.83301 -12.5 8.5s-6.33301 4.83398 -9 6.50098s-4.66699 3.33398 -6 5.00098s-2.66602 2.83398 -3.99902 3.50098
c-1.33301 1.33301 -2 4.33301 -2 9z" />
    <glyph glyph-name="Iacute" unicode="&#xcd;" horiz-adv-x="351" 
d="M-10 -11l59 -4.99414h57v8c0 68.667 81.333 213.334 244 434.001c-126.667 -10.667 -202 -34.667 -226 -72c-0.666992 -2 -2 -6.66699 -4 -14c-2.66699 -14 -7.33398 -21 -14.001 -21c-2 0 -3 1.33301 -3 4c0 77.333 88.333 119.666 265 126.999
c8.66699 20.667 19.667 31 33 31c8.66699 0 18.667 -2 30 -6s17 -8.33301 17 -13c0 -2 -2.33301 -5.66699 -7 -11c12 -0.666992 18 -1.66699 18 -3c0 -2.66699 -2.16699 -6.33398 -6.5 -11.001s-8.16602 -7 -11.499 -7h-18
c-86.667 -96.667 -156.334 -186.334 -209.001 -269.001s-80 -141.334 -82 -176.001c70 1.33301 123.333 6.66602 160 15.999c2.66699 0.666992 5.83398 1 9.50098 1s5.5 -1.33301 5.5 -4c0 -4.66699 -8.33301 -8.33398 -25 -11.001l-146 -28c5.33301 -7.33301 15 -11 29 -11
l38 7c3.33301 0 5 -0.666992 5 -2c-2 -4.66699 -10 -9.33398 -24 -14.001s-24.667 -7 -32 -7c-18 0 -31 8 -39 24c-49.333 -8.66699 -81.333 -13 -96 -13s-23.667 2.83301 -27 8.5s-5 16.5 -5 32.5c0 3.33301 1.66699 5 5 5zM542 632.006
c6.66699 0 10.001 -3.83301 10.001 -11.5s-2.16699 -13.5 -6.5 -17.5s-24.833 -16.833 -61.5 -38.5s-56.667 -32.5 -60 -32.5s-5 1.66699 -5 5s19.667 20 59 50s60.666 45 63.999 45z" />
    <glyph glyph-name="Icircumflex" unicode="&#xce;" horiz-adv-x="351" 
d="M-10 -11l59 -4.99414h57v8c0 68.667 81.333 213.334 244 434.001c-126.667 -10.667 -202 -34.667 -226 -72c-0.666992 -2 -2 -6.66699 -4 -14c-2.66699 -14 -7.33398 -21 -14.001 -21c-2 0 -3 1.33301 -3 4c0 77.333 88.333 119.666 265 126.999
c8.66699 20.667 19.667 31 33 31c8.66699 0 18.667 -2 30 -6s17 -8.33301 17 -13c0 -2 -2.33301 -5.66699 -7 -11c12 -0.666992 18 -1.66699 18 -3c0 -2.66699 -2.16699 -6.33398 -6.5 -11.001s-8.16602 -7 -11.499 -7h-18
c-86.667 -96.667 -156.334 -186.334 -209.001 -269.001s-80 -141.334 -82 -176.001c70 1.33301 123.333 6.66602 160 15.999c2.66699 0.666992 5.83398 1 9.50098 1s5.5 -1.33301 5.5 -4c0 -4.66699 -8.33301 -8.33398 -25 -11.001l-146 -28c5.33301 -7.33301 15 -11 29 -11
l38 7c3.33301 0 5 -0.666992 5 -2c-2 -4.66699 -10 -9.33398 -24 -14.001s-24.667 -7 -32 -7c-18 0 -31 8 -39 24c-49.333 -8.66699 -81.333 -13 -96 -13s-23.667 2.83301 -27 8.5s-5 16.5 -5 32.5c0 3.33301 1.66699 5 5 5zM432 581.006
c-50.667 -42 -78.666 -62.998 -83.999 -62.998s-8 2.5 -8 7.5s15.833 20.167 47.5 45.5s50.167 38.666 55.5 39.999l4 -2c20.667 -22.667 52 -50 94 -82l5 -7l-4 -6c-9.33301 1.33301 -27.833 10.666 -55.5 27.999s-45.834 30.333 -54.501 39z" />
    <glyph glyph-name="Idieresis" unicode="&#xcf;" horiz-adv-x="351" 
d="M-10 -11l59 -4.99414h57v8c0 68.667 81.333 213.334 244 434.001c-126.667 -10.667 -202 -34.667 -226 -72c-0.666992 -2 -2 -6.66699 -4 -14c-2.66699 -14 -7.33398 -21 -14.001 -21c-2 0 -3 1.33301 -3 4c0 77.333 88.333 119.666 265 126.999
c8.66699 20.667 19.667 31 33 31c8.66699 0 18.667 -2 30 -6s17 -8.33301 17 -13c0 -2 -2.33301 -5.66699 -7 -11c12 -0.666992 18 -1.66699 18 -3c0 -2.66699 -2.16699 -6.33398 -6.5 -11.001s-8.16602 -7 -11.499 -7h-18
c-86.667 -96.667 -156.334 -186.334 -209.001 -269.001s-80 -141.334 -82 -176.001c70 1.33301 123.333 6.66602 160 15.999c2.66699 0.666992 5.83398 1 9.50098 1s5.5 -1.33301 5.5 -4c0 -4.66699 -8.33301 -8.33398 -25 -11.001l-146 -28c5.33301 -7.33301 15 -11 29 -11
l38 7c3.33301 0 5 -0.666992 5 -2c-2 -4.66699 -10 -9.33398 -24 -14.001s-24.667 -7 -32 -7c-18 0 -31 8 -39 24c-49.333 -8.66699 -81.333 -13 -96 -13s-23.667 2.83301 -27 8.5s-5 16.5 -5 32.5c0 3.33301 1.66699 5 5 5zM473 536.006
c-4 0 -7.66504 2.49902 -10.998 7.49902s-5 10.333 -5 16s7.5 13.834 22.5 24.501s26.5 16 34.5 16l2 -1v1v-1c-2.66699 -4 -6.33398 -8.33301 -11.001 -13l-12 -30c-4.66699 -13.333 -11.334 -20 -20.001 -20zM381.002 536.005
c-3.33301 0 -6.66602 2.49902 -9.99902 7.49902s-5 10.333 -5 16s7.5 13.834 22.5 24.501s26.167 16 33.5 16l3 -1v1v-1c-2.66699 -4 -6.33398 -8.33301 -11.001 -13l-13 -30c-6 -13.333 -12.667 -20 -20 -20z" />
    <glyph glyph-name="Eth" unicode="&#xd0;" horiz-adv-x="694" 
d="M686 269c0 -38 -10.8311 -76.333 -32.498 -115s-51.334 -73.667 -89.001 -105s-85 -56.833 -142 -76.5s-117.667 -29.5 -182 -29.5s-96.5 5.33301 -96.5 16c0 6 5 9 15 9h16c4.66699 -0.666992 10.667 -1 18 -1c66 0 128.667 10.333 188 31
s108.166 46.834 146.499 78.501s68.666 65.667 90.999 102s33.5 70.833 33.5 103.5c0 51.333 -20.333 92.166 -61 122.499s-93 45.5 -157 45.5h-7c-91.333 -2 -219.666 -33.333 -384.999 -94c-14 0 -21 10.333 -21 31c0 6.66699 3 11.5 9 14.5s25.333 9.16699 58 18.5
c119.333 36 228.666 54 327.999 54c78.667 0 143.334 -18.667 194.001 -56s76 -87 76 -149zM124.002 -102l-1.99902 -0.999023c-10.667 0 -19.334 6.16699 -26.001 18.5s-10 32.666 -10 60.999s7.33301 65.833 22 112.5h-3c-2.66699 -1.33301 -7 -2 -13 -2
c-30 0 -45 6 -45 18s6.33301 18 19 18h54c22 58.667 57.333 130.667 106 216c0 2.66699 3.5 9.83398 10.5 21.501l17.5 29.5c9.33301 16.667 17.5 25 24.5 25s15 -1.83301 24 -5.5s13.833 -7.16699 14.5 -10.5c-4 0 -27 -38 -69 -114s-69.667 -129.667 -83 -161h28
c16.667 0 35 0.666992 55 2v-3c0 -8.66699 -21 -16.334 -63 -23.001l-34 -5c-27.333 -61.333 -41 -110.333 -41 -147c0 -7.33301 2.33301 -17 7 -29s7 -19 7 -21z" />
    <glyph glyph-name="Ntilde" unicode="&#xd1;" horiz-adv-x="473" 
d="M63 -47c0 -13.333 3.99902 -25.999 11.999 -37.999c0 -2.66699 -1.66699 -4 -5 -4c-12 0 -21.833 9.5 -29.5 28.5s-11.5 39.833 -11.5 62.5c0 89.333 52.333 221.666 157 396.999c27.333 54.667 47.333 82 60 82c8 0 17.167 -2 27.5 -6s15.5 -8.66699 15.5 -14
l-55.5 -93.5l-44 -74.5l-20.5 -35c-46 -83.333 -78 -154 -96 -212c43.333 70.667 145.333 177.667 306 321l78 71c10 8.66699 23.667 13.667 41 15c8 0 12 -2.33301 12 -7l-1 -4c-98 -194 -147 -336.667 -147 -428c0 -48.667 8.66699 -73 26 -73s40.333 35 69 105
c4.66699 8.66699 8.33398 13 11.001 13s4 -1.66699 4 -5s-0.666992 -7 -2 -11c-21.333 -76.667 -50.333 -115 -87 -115c-18 0 -32.833 9 -44.5 27s-17.5 43.167 -17.5 75.5s8.5 81 25.5 146s37.167 123.5 60.5 175.5l-205 -185c-92.667 -94 -139 -165.333 -139 -214z
M396.999 557.001l72.0029 -16c10.667 0 21.334 5.33301 32.001 16c2.66699 0 4 -1 4 -3s-1.83301 -5.83301 -5.5 -11.5s-9.66699 -11.334 -18 -17.001s-16.333 -8.5 -24 -8.5s-21.334 3.33301 -41.001 10s-31.834 10 -36.501 10s-10.334 -1.66699 -17.001 -5
s-12.334 -6.66602 -17.001 -9.99902s-7.33398 -5 -8.00098 -5l-1 2c0 2 2.5 6 7.5 12s12.333 11.833 22 17.5s19.834 8.5 30.501 8.5z" />
    <glyph glyph-name="Ograve" unicode="&#xd2;" horiz-adv-x="591" 
d="M627 350c0 -16.667 -7 -39.333 -21 -68c2.66699 -8 4 -19 4 -33c0 -64.667 -36 -129 -108 -193c-54.667 -48 -106.667 -81.833 -156 -101.5s-106.333 -29.5 -171 -29.5c-44 0 -80.5 14.667 -109.5 44s-43.5 66.333 -43.5 111c0 59.333 23.333 118.166 70 176.499
s105.167 105.5 175.5 141.5s138.833 54 205.5 54c46.667 0 84 -9.16699 112 -27.5s42 -43.166 42 -74.499zM603 342.001c0 28.667 -11.8311 51.498 -35.498 68.498s-55.167 25.5 -94.5 25.5c-60 0 -120.667 -16.167 -182 -48.5s-112.333 -75.833 -153 -130.5
s-61 -110.667 -61 -168c0 -44 12.833 -78 38.5 -102s61 -36 106 -36s92.833 11.5 143.5 34.5s95.667 56.333 135 100s61.666 90.834 66.999 141.501c-34 -38 -79.333 -72 -136 -102c-2.66699 -1.33301 -4.5 -2 -5.5 -2s-1.5 0.333008 -1.5 1
c0 -0.666992 9.33301 6.66602 28 21.999c50.667 42.667 88.667 79.667 114 111c-4.66699 26 -17.167 48.833 -37.5 68.5s-45.5 33.834 -75.5 42.501c-11.333 2.66699 -31.833 4.83398 -61.5 6.50098s-45.834 3.16699 -48.501 4.5l3 2c23.333 7.33301 50.5 11 81.5 11
s63.167 -7.83301 96.5 -23.5s57.333 -36.5 72 -62.5c4.66699 12 7 24 7 36zM422.002 567.999l-0.000976562 6.99609c0 8.66699 2.5 13 7.5 13s28.333 -15.667 70 -47s62.5 -49.166 62.5 -53.499s-2.33301 -6.5 -7 -6.5c-12.667 4 -31.167 13.5 -55.5 28.5l-44 27
c-5 3 -9.16699 5.83301 -12.5 8.5s-6.33301 4.83398 -9 6.50098s-4.66699 3.33398 -6 5.00098s-2.66602 2.83398 -3.99902 3.50098c-1.33301 1.33301 -2 4 -2 8z" />
    <glyph glyph-name="Oacute" unicode="&#xd3;" horiz-adv-x="591" 
d="M627 350c0 -16.667 -7 -39.333 -21 -68c2.66699 -8 4 -19 4 -33c0 -64.667 -36 -129 -108 -193c-54.667 -48 -106.667 -81.833 -156 -101.5s-106.333 -29.5 -171 -29.5c-44 0 -80.5 14.667 -109.5 44s-43.5 66.333 -43.5 111c0 59.333 23.333 118.166 70 176.499
s105.167 105.5 175.5 141.5s138.833 54 205.5 54c46.667 0 84 -9.16699 112 -27.5s42 -43.166 42 -74.499zM603 342.001c0 28.667 -11.8311 51.498 -35.498 68.498s-55.167 25.5 -94.5 25.5c-60 0 -120.667 -16.167 -182 -48.5s-112.333 -75.833 -153 -130.5
s-61 -110.667 -61 -168c0 -44 12.833 -78 38.5 -102s61 -36 106 -36s92.833 11.5 143.5 34.5s95.667 56.333 135 100s61.666 90.834 66.999 141.501c-34 -38 -79.333 -72 -136 -102c-2.66699 -1.33301 -4.5 -2 -5.5 -2s-1.5 0.333008 -1.5 1
c0 -0.666992 9.33301 6.66602 28 21.999c50.667 42.667 88.667 79.667 114 111c-4.66699 26 -17.167 48.833 -37.5 68.5s-45.5 33.834 -75.5 42.501c-11.333 2.66699 -31.833 4.83398 -61.5 6.50098s-45.834 3.16699 -48.501 4.5l3 2c23.333 7.33301 50.5 11 81.5 11
s63.167 -7.83301 96.5 -23.5s57.333 -36.5 72 -62.5c4.66699 12 7 24 7 36zM638.002 581.999c0 -8 -2.99902 -14.333 -8.99902 -19c-2 -2.66699 -21.5 -15 -58.5 -37s-57.167 -33 -60.5 -33s-5 1.83301 -5 5.5s19.667 20.5 59 50.5s60.666 45 63.999 45
c6.66699 0 10 -4 10 -12z" />
    <glyph glyph-name="Ocircumflex" unicode="&#xd4;" horiz-adv-x="591" 
d="M627 350c0 -16.667 -7 -39.333 -21 -68c2.66699 -8 4 -19 4 -33c0 -64.667 -36 -129 -108 -193c-54.667 -48 -106.667 -81.833 -156 -101.5s-106.333 -29.5 -171 -29.5c-44 0 -80.5 14.667 -109.5 44s-43.5 66.333 -43.5 111c0 59.333 23.333 118.166 70 176.499
s105.167 105.5 175.5 141.5s138.833 54 205.5 54c46.667 0 84 -9.16699 112 -27.5s42 -43.166 42 -74.499zM603 342.001c0 28.667 -11.8311 51.498 -35.498 68.498s-55.167 25.5 -94.5 25.5c-60 0 -120.667 -16.167 -182 -48.5s-112.333 -75.833 -153 -130.5
s-61 -110.667 -61 -168c0 -44 12.833 -78 38.5 -102s61 -36 106 -36s92.833 11.5 143.5 34.5s95.667 56.333 135 100s61.666 90.834 66.999 141.501c-34 -38 -79.333 -72 -136 -102c-2.66699 -1.33301 -4.5 -2 -5.5 -2s-1.5 0.333008 -1.5 1
c0 -0.666992 9.33301 6.66602 28 21.999c50.667 42.667 88.667 79.667 114 111c-4.66699 26 -17.167 48.833 -37.5 68.5s-45.5 33.834 -75.5 42.501c-11.333 2.66699 -31.833 4.83398 -61.5 6.50098s-45.834 3.16699 -48.501 4.5l3 2c23.333 7.33301 50.5 11 81.5 11
s63.167 -7.83301 96.5 -23.5s57.333 -36.5 72 -62.5c4.66699 12 7 24 7 36zM416.002 493.999c-4 0 -5.99902 2.66699 -5.99902 8s15.833 20.5 47.5 45.5s50.167 38.167 55.5 39.5l4 -2c20.667 -22.667 52 -49.667 94 -81l4 -8l-3 -5
c-9.33301 0.666992 -27.833 9.5 -55.5 26.5s-45.834 30.167 -54.501 39.5c-52 -42 -80.667 -63 -86 -63z" />
    <glyph glyph-name="Otilde" unicode="&#xd5;" horiz-adv-x="591" 
d="M627 350c0 -16.667 -7 -39.333 -21 -68c2.66699 -8 4 -19 4 -33c0 -64.667 -36 -129 -108 -193c-54.667 -48 -106.667 -81.833 -156 -101.5s-106.333 -29.5 -171 -29.5c-44 0 -80.5 14.667 -109.5 44s-43.5 66.333 -43.5 111c0 59.333 23.333 118.166 70 176.499
s105.167 105.5 175.5 141.5s138.833 54 205.5 54c46.667 0 84 -9.16699 112 -27.5s42 -43.166 42 -74.499zM603 342.001c0 28.667 -11.8311 51.498 -35.498 68.498s-55.167 25.5 -94.5 25.5c-60 0 -120.667 -16.167 -182 -48.5s-112.333 -75.833 -153 -130.5
s-61 -110.667 -61 -168c0 -44 12.833 -78 38.5 -102s61 -36 106 -36s92.833 11.5 143.5 34.5s95.667 56.333 135 100s61.666 90.834 66.999 141.501c-34 -38 -79.333 -72 -136 -102c-2.66699 -1.33301 -4.5 -2 -5.5 -2s-1.5 0.333008 -1.5 1
c0 -0.666992 9.33301 6.66602 28 21.999c50.667 42.667 88.667 79.667 114 111c-4.66699 26 -17.167 48.833 -37.5 68.5s-45.5 33.834 -75.5 42.501c-11.333 2.66699 -31.833 4.83398 -61.5 6.50098s-45.834 3.16699 -48.501 4.5l3 2c23.333 7.33301 50.5 11 81.5 11
s63.167 -7.83301 96.5 -23.5s57.333 -36.5 72 -62.5c4.66699 12 7 24 7 36zM511.002 548.999l72.002 -16c12.667 0 23.334 5.33301 32.001 16c3.33301 0 5 -1.16699 5 -3.5s-1.83301 -6.33301 -5.5 -12s-9.83398 -11.334 -18.501 -17.001s-16.834 -8.5 -24.501 -8.5
s-21.334 3.33301 -41.001 10s-31.834 10 -36.501 10s-10.334 -1.66699 -17.001 -5s-12.167 -6.66602 -16.5 -9.99902s-6.83301 -5 -7.5 -5l-1 2c0 2 2.33301 6 7 12s11.834 12 21.501 18s19.834 9 30.501 9z" />
    <glyph glyph-name="Odieresis" unicode="&#xd6;" horiz-adv-x="591" 
d="M627 350c0 -16.667 -7 -39.333 -21 -68c2.66699 -8 4 -19 4 -33c0 -64.667 -36 -129 -108 -193c-54.667 -48 -106.667 -81.833 -156 -101.5s-106.333 -29.5 -171 -29.5c-44 0 -80.5 14.667 -109.5 44s-43.5 66.333 -43.5 111c0 59.333 23.333 118.166 70 176.499
s105.167 105.5 175.5 141.5s138.833 54 205.5 54c46.667 0 84 -9.16699 112 -27.5s42 -43.166 42 -74.499zM603 344.001c0 27.333 -11.8311 49.498 -35.498 66.498s-55.167 25.5 -94.5 25.5c-60 0 -120.667 -16.167 -182 -48.5s-112.333 -75.833 -153 -130.5
s-61 -110.667 -61 -168c0 -44 12.833 -78 38.5 -102s61 -36 106 -36s92.833 11.5 143.5 34.5s95.667 56.333 135 100s61.666 90.834 66.999 141.501c-34 -38 -79.333 -72 -136 -102c-2.66699 -1.33301 -4.5 -2 -5.5 -2s-1.5 0.333008 -1.5 1
c0 -0.666992 9.33301 6.66602 28 21.999c50.667 42.667 88.667 79.667 114 111c-4.66699 26 -17.167 48.833 -37.5 68.5s-45.5 33.834 -75.5 42.501c-11.333 2.66699 -31.833 4.83398 -61.5 6.50098s-45.834 3.16699 -48.501 4.5l3 2c23.333 7.33301 50.5 11 81.5 11
s63.167 -7.83301 96.5 -23.5s57.333 -36.5 72 -62.5c4.66699 12 7 24.667 7 38zM564.002 493.999c-4 0 -7.66602 2.5 -10.999 7.5s-5 10.5 -5 16.5s7.5 14.167 22.5 24.5s26.5 15.5 34.5 15.5l2 -1v1v-1l-3 -3c-2.66699 -4 -5.33398 -7.33301 -8.00098 -10l-12 -30
c-5.33301 -13.333 -12 -20 -20 -20zM472.003 493.999c-3.33301 0 -6.66602 2.5 -9.99902 7.5s-5 10.5 -5 16.5s7.5 14.167 22.5 24.5s26.167 15.5 33.5 15.5l3 -1v1v-1c-0.666992 -0.666992 -1.33398 -1.66699 -2.00098 -3c-3.33301 -4 -6.33301 -7.33301 -9 -10l-13 -30
c-6 -13.333 -12.667 -20 -20 -20z" />
    <glyph glyph-name="multiply" unicode="&#xd7;" horiz-adv-x="284" 
d="M125 249l13 1.00391c6.66699 0 11.167 -3.83301 13.5 -11.5s6.83301 -34.834 13.5 -81.501c8 8 28.5 25.333 61.5 52s50.167 40 51.5 40c8.66699 0 13 -4 13 -12c0 -2 -1.5 -4.33301 -4.5 -7s-42.5 -33 -118.5 -91c10 -60.667 29.667 -91 59 -91
c3.33301 0 12.666 2.33301 27.999 7c2 0 3 -0.666992 3 -2c0 -4.66699 -8.33301 -10 -25 -16s-31 -9 -43 -9s-22.167 6.66699 -30.5 20s-16.5 37 -24.5 71c-5.33301 -6.66699 -22.666 -23.834 -51.999 -51.501s-47 -41.5 -53 -41.5s-9 1.66699 -9 5
c3.33301 6.66699 20.5 24.667 51.5 54s50.5 46.666 58.5 51.999l-10 56c-4 15.333 -9 26.666 -15 33.999s-10.833 11.5 -14.5 12.5s-5.5 2.16699 -5.5 3.5c0 4 13 6 39 6z" />
    <glyph glyph-name="Oslash" unicode="&#xd8;" horiz-adv-x="591" 
d="M131 -69c-5.33301 -10.667 -7.99805 -19.8301 -7.99805 -27.4971s3.66699 -14.5 11 -20.5c0 -8 -6.16699 -12 -18.5 -12s-18.5 9.66699 -18.5 29c0 8.66699 3 22 9 40c-56 26.667 -84 71.667 -84 135s23.667 124.166 71 182.499s106 105.333 176 141s138 53.5 204 53.5h2
c15.333 16 24.666 24 27.999 24c29.333 0 44 -6.33301 44 -19c0 -4.66699 -2 -9.33398 -6 -14.001c57.333 -15.333 86 -46.333 86 -93c0 -16.667 -7 -39.334 -21 -68.001c2.66699 -8 4 -19 4 -33c0 -64.667 -36 -129 -108 -193c-54.667 -48 -106.667 -81.833 -156 -101.5
s-106.333 -29.5 -171 -29.5c-16.667 0 -31.334 2 -44.001 6zM596.002 306.004c4.66699 12 6.99902 25.833 6.99902 41.5s-6.5 31.667 -19.5 48s-30.833 27.833 -53.5 34.5l-41 -48c50.667 -14 86.334 -39.333 107.001 -76zM431.001 125.004
c-2.66699 -1.33301 -4.49805 -2 -5.49805 -2s-1.5 0.333008 -1.5 1c0 -0.666992 9.33301 6.66602 28 21.999c50.667 42.667 88.667 79.667 114 111c-6.66699 48 -38.334 82.667 -95.001 104c-124 -140 -231.333 -272.333 -322 -397c17.333 -8.66699 45 -13 83 -13
s82.333 11.5 133 34.5s95.667 56.333 135 100s61.666 90.834 66.999 141.501c-34 -38 -79.333 -72 -136 -102zM411.003 374.004l-12.999 -1.00098c-29.333 0 -47.666 2 -54.999 6l3 2c23.333 7.33301 45.666 11 66.999 11h12c22 26.667 34.333 41.334 37 44.001
c-58 -1.33301 -116.833 -18.333 -176.5 -51s-109.334 -75.834 -149.001 -129.501s-59.5 -107 -59.5 -160s16 -92.167 48 -117.5c17.333 30.667 55.833 87.334 115.5 170.001z" />
    <glyph glyph-name="Ugrave" unicode="&#xd9;" horiz-adv-x="354" 
d="M585 441c0 -20.667 -13 -46.667 -39 -78l-46 -52l-152 -167c-10.667 -17.333 -21.834 -49.833 -33.501 -97.5s-17.5 -82.834 -17.5 -105.501c0 -80.667 14 -136 42 -166c0.666992 0 0.833984 -0.5 0.500977 -1.5s-1.16602 -1.83301 -2.49902 -2.5
c-16.667 0 -33 24.167 -49 72.5s-24 90.833 -24 127.5s5.33301 71.667 16 105c-62.667 -76.667 -112.334 -115 -149.001 -115c-18 0 -34.833 9.83301 -50.5 29.5s-23.5 38.5 -23.5 56.5c0 44.667 21.333 103.334 64 176.001l103 167
c-33.333 -10.667 -70 -29.334 -110 -56.001c-70.667 -49.333 -106.667 -74 -108 -74l-1 1l2 4c20 25.333 55.833 55.833 107.5 91.5s87.167 53.5 106.5 53.5c10.667 0 20.5 -4.16699 29.5 -12.5s13.5 -17.5 13.5 -27.5s-21 -48.333 -63 -115s-70.5 -115.667 -85.5 -147
s-22.5 -62.333 -22.5 -93c0 -11.333 4.66699 -17 14 -17c17.333 0 54.5 25.333 111.5 76s94.833 94.334 113.5 131.001c38.667 79.333 78.5 141.833 119.5 187.5s78.167 68.5 111.5 68.5c14.667 0 22 -6.66699 22 -20zM568 441c0 3.33301 -2.00098 4.99902 -6.00098 4.99902
c-19.333 0 -50.833 -26.167 -94.5 -78.5s-79.5 -107.166 -107.5 -164.499v-2c0 -0.666992 0.333008 -1.66699 1 -3c48.667 47.333 95.334 97 140.001 149s67 83.333 67 94zM274.999 541.999l-0.000976562 5.99609c0 8 3.33301 12 10 12c3.33301 0 25.833 -15.667 67.5 -47
s62.5 -49.166 62.5 -53.499s-2 -6.5 -6 -6.5c-10.667 3.33301 -25.667 11 -45 23l-38 23.5l-17 10c-5.33301 3 -9.66602 5.83301 -12.999 8.5s-6.33301 4.83398 -9 6.50098s-4.66699 3.33398 -6 5.00098s-2.33301 2.83398 -3 3.50098c-2 1.33301 -3 4.33301 -3 9z" />
    <glyph glyph-name="Uacute" unicode="&#xda;" horiz-adv-x="354" 
d="M585 441c0 -20.667 -13 -46.667 -39 -78l-46 -52l-152 -167c-10.667 -17.333 -21.834 -49.833 -33.501 -97.5s-17.5 -82.834 -17.5 -105.501c0 -80.667 14 -136 42 -166c0.666992 0 0.833984 -0.5 0.500977 -1.5s-1.16602 -1.83301 -2.49902 -2.5
c-16.667 0 -33 24.167 -49 72.5s-24 90.833 -24 127.5s5.33301 71.667 16 105c-62.667 -76.667 -112.334 -115 -149.001 -115c-18 0 -34.833 9.83301 -50.5 29.5s-23.5 38.5 -23.5 56.5c0 44.667 21.333 103.334 64 176.001l103 167
c-33.333 -10.667 -70 -29.334 -110 -56.001c-70.667 -49.333 -106.667 -74 -108 -74l-1 1l2 4c20 25.333 55.833 55.833 107.5 91.5s87.167 53.5 106.5 53.5c10.667 0 20.5 -4.16699 29.5 -12.5s13.5 -17.5 13.5 -27.5s-21 -48.333 -63 -115s-70.5 -115.667 -85.5 -147
s-22.5 -62.333 -22.5 -93c0 -11.333 4.66699 -17 14 -17c17.333 0 54.5 25.333 111.5 76s94.833 94.334 113.5 131.001c38.667 79.333 78.5 141.833 119.5 187.5s78.167 68.5 111.5 68.5c14.667 0 22 -6.66699 22 -20zM568 441c0 3.33301 -2.00098 4.99902 -6.00098 4.99902
c-19.333 0 -50.833 -26.167 -94.5 -78.5s-79.5 -107.166 -107.5 -164.499v-2c0 -0.666992 0.333008 -1.66699 1 -3c48.667 47.333 95.334 97 140.001 149s67 83.333 67 94zM390.499 502.999c39 30 61 45 66 45s7.5 -3.83301 7.5 -11.5s-1.83301 -13.5 -5.5 -17.5
s-24.167 -17 -61.5 -39s-57.5 -33 -60.5 -33s-4.5 1.83301 -4.5 5.5s19.5 20.5 58.5 50.5z" />
    <glyph glyph-name="Ucircumflex" unicode="&#xdb;" horiz-adv-x="354" 
d="M585 441c0 -20.667 -13 -46.667 -39 -78l-46 -52l-152 -167c-10.667 -17.333 -21.834 -49.833 -33.501 -97.5s-17.5 -82.834 -17.5 -105.501c0 -80.667 14 -136 42 -166c0.666992 0 0.833984 -0.5 0.500977 -1.5s-1.16602 -1.83301 -2.49902 -2.5
c-16.667 0 -33 24.167 -49 72.5s-24 90.833 -24 127.5s5.33301 71.667 16 105c-62.667 -76.667 -112.334 -115 -149.001 -115c-18 0 -34.833 9.83301 -50.5 29.5s-23.5 38.5 -23.5 56.5c0 44.667 21.333 103.334 64 176.001l103 167
c-33.333 -10.667 -70 -29.334 -110 -56.001c-70.667 -49.333 -106.667 -74 -108 -74l-1 1l2 4c20 25.333 55.833 55.833 107.5 91.5s87.167 53.5 106.5 53.5c10.667 0 20.5 -4.16699 29.5 -12.5s13.5 -17.5 13.5 -27.5s-21 -48.333 -63 -115s-70.5 -115.667 -85.5 -147
s-22.5 -62.333 -22.5 -93c0 -11.333 4.66699 -17 14 -17c17.333 0 54.5 25.333 111.5 76s94.833 94.334 113.5 131.001c38.667 79.333 78.5 141.833 119.5 187.5s78.167 68.5 111.5 68.5c14.667 0 22 -6.66699 22 -20zM568 441c0 3.33301 -2.00098 4.99902 -6.00098 4.99902
c-19.333 0 -50.833 -26.167 -94.5 -78.5s-79.5 -107.166 -107.5 -164.499v-2c0 -0.666992 0.333008 -1.66699 1 -3c48.667 47.333 95.334 97 140.001 149s67 83.333 67 94zM272.999 451.999c-4.66699 0 -7 2.66699 -7 8s15.833 20.5 47.5 45.5s50.167 38.167 55.5 39.5l4 -2
c22.667 -23.333 54.334 -50.333 95.001 -81l4 -8l-3 -5c-10 0.666992 -28.833 9.5 -56.5 26.5s-45.834 30.167 -54.501 39.5c-52 -42 -80.333 -63 -85 -63z" />
    <glyph glyph-name="Udieresis" unicode="&#xdc;" horiz-adv-x="354" 
d="M585 441c0 -20.667 -13 -46.667 -39 -78l-46 -52l-152 -167c-10.667 -17.333 -21.834 -49.833 -33.501 -97.5s-17.5 -82.834 -17.5 -105.501c0 -80.667 14 -136 42 -166c0.666992 0 0.833984 -0.5 0.500977 -1.5s-1.16602 -1.83301 -2.49902 -2.5
c-16.667 0 -33 24.167 -49 72.5s-24 90.833 -24 127.5s5.33301 71.667 16 105c-62.667 -76.667 -112.334 -115 -149.001 -115c-18 0 -34.833 9.83301 -50.5 29.5s-23.5 38.5 -23.5 56.5c0 44.667 21.333 103.334 64 176.001l103 167
c-33.333 -10.667 -70 -29.334 -110 -56.001c-70.667 -49.333 -106.667 -74 -108 -74l-1 1l2 4c20 25.333 55.833 55.833 107.5 91.5s87.167 53.5 106.5 53.5c10.667 0 20.5 -4.16699 29.5 -12.5s13.5 -17.5 13.5 -27.5s-21 -48.333 -63 -115s-70.5 -115.667 -85.5 -147
s-22.5 -62.333 -22.5 -93c0 -11.333 4.66699 -17 14 -17c17.333 0 54.5 25.333 111.5 76s94.833 94.334 113.5 131.001c38.667 79.333 78.5 141.833 119.5 187.5s78.167 68.5 111.5 68.5c14.667 0 22 -6.66699 22 -20zM568 441c0 3.33301 -2.00098 4.99902 -6.00098 4.99902
c-19.333 0 -50.833 -26.167 -94.5 -78.5s-79.5 -107.166 -107.5 -164.499v-2c0 -0.666992 0.333008 -1.66699 1 -3c48.667 47.333 95.334 97 140.001 149s67 83.333 67 94zM430.999 466.999c-3.33301 0 -6.83203 2.5 -10.499 7.5s-5.5 10.5 -5.5 16.5s7.5 14.333 22.5 25
s26.5 16 34.5 16l2 -2v2v-2c-2.66699 -4 -6.33398 -8 -11.001 -12l-11 -30c-6 -14 -13 -21 -21 -21zM339 466.999c-3.33301 0 -6.66602 2.5 -9.99902 7.5s-5 10.5 -5 16.5s7.5 14.333 22.5 25s26.167 16 33.5 16l3 -2v2v-2c-2.66699 -4 -6.33398 -8 -11.001 -12l-12 -30
c-6.66699 -14 -13.667 -21 -21 -21z" />
    <glyph glyph-name="Yacute" unicode="&#xdd;" horiz-adv-x="540" 
d="M542 323c10 3.33301 18.667 4.99805 26 4.99805s11 -1.16699 11 -3.5s-1.5 -4.83301 -4.5 -7.5s-6.5 -5 -10.5 -7c-13.333 -7.33301 -22.666 -12.333 -27.999 -15c-20.667 -63.333 -70.667 -150.666 -150 -261.999c-72.667 -106.667 -128.667 -180.667 -168 -222
s-71 -62 -95 -62c-31.333 0 -47 14.667 -47 44c0 18 14 51 42 99s60.667 92.333 98 133c18 20 54.667 54.667 110 104l150 139c5.33301 4.66699 12.333 26.334 21 65.001s13 67 13 85s-4.66699 27 -14 27c-26.667 0 -122.667 -115 -288 -345l-49 -68
c-8.66699 -18 -20.334 -27 -35.001 -27s-22 6.66699 -22 20v3l70 165c22.667 53.333 39.667 102.333 51 147s17.333 75.667 18 93c0 40.667 -13 61 -39 61c-12.667 0 -34.167 -11.5 -64.5 -34.5s-57.833 -46.167 -82.5 -69.5s-37 -37 -37 -41h1c-2 0 -3 0.833008 -3 2.5
s1 4.16699 3 7.5c27.333 40 58 73.833 92 101.5s63 41.5 87 41.5c48.667 0 73 -30.667 73 -92c0 -69.333 -30.667 -174 -92 -314l151 211c82.667 112 134.5 168 155.5 168s31.5 -4.33301 31.5 -13c-0.666992 -1.33301 -2.66699 -3.33301 -6 -6c26 -26 39 -53.333 39 -82
c0 -16 -2.66699 -33 -8 -51zM119 -192.002c-7.33301 -16 -11 -26.166 -11 -30.499s1.66699 -6.5 5 -6.5h4c2.66699 0 10.667 5.66699 24 17c50 42 106.167 106.167 168.5 192.5s112.5 169.166 150.5 248.499c-173.333 -156.667 -287 -297 -341 -421zM481 580.999
c6.66699 0 10.001 -3.83301 10.001 -11.5s-2 -13.5 -6 -17.5s-24.5 -17 -61.5 -39s-57.167 -33 -60.5 -33s-5 1.83301 -5 5.5s19.667 20.5 59 50.5s60.666 45 63.999 45z" />
    <glyph glyph-name="Thorn" unicode="&#xde;" horiz-adv-x="165" 
d="M105 480l-35 -7.00098c-4.66699 0 -7 2 -7 6c0 10 12.333 15 37 15s44 -4.33301 58 -13s21 -20.667 21 -36s-13 -49 -39 -101l-6 2c22.667 15.333 47 23 73 23c46 0 69 -24 69 -72s-24.5 -102.833 -73.5 -164.5s-95.5 -92.5 -139.5 -92.5c-16 0 -31.333 4.66699 -46 14
c-62 -166.667 -93 -262 -93 -286c0 -16 6 -24 18 -24c3.33301 0 9 1.83301 17 5.5s12.667 5.5 14 5.5s2 -0.666992 2 -2c0 -4.66699 -4.66699 -9.16699 -14 -13.5s-18.333 -6.5 -27 -6.5s-18 6 -28 18s-15 24.333 -15 37c0 35.333 25 118 75 248l19 51
c-2.66699 0 -4 1.5 -4 4.5s0.666992 5.16699 2 6.5l4 -3c44 112.667 81.667 205 113 277c15.333 44.667 23 73.834 23 87.501s-6 20.5 -18 20.5zM208 348.999c-28.667 0 -60.667 -25.332 -96 -75.999c-43.333 -92 -72 -157.333 -86 -196c8 -1.33301 14 -2 18 -2
c44 0 85.833 27.167 125.5 81.5s59.5 108.166 59.5 161.499c0 20.667 -7 31 -21 31z" />
    <glyph glyph-name="germandbls" unicode="&#xdf;" horiz-adv-x="438" 
d="M438 343c0 -39.333 -16.499 -72.8311 -49.499 -100.498s-70.5 -42.167 -112.5 -43.5c38.667 -6.66699 69 -19.334 91 -38.001s33 -40.334 33 -65.001c0 -44.667 -30.667 -82.167 -92 -112.5s-139 -45.5 -233 -45.5c-27.333 4 -41 7.33301 -41 10
c-45.333 -67.333 -87 -101 -125 -101c-7.33301 0 -12.333 2.33301 -15 7c0.666992 4.66699 3.66699 7 9 7c55.333 0 117.333 89.667 186 269l16.5 46c2.33301 6.66699 7.66602 21 15.999 43s14.333 37 18 45l18 39.5c8.33301 18.333 15.5 31.333 21.5 39
s13.667 18.167 23 31.5s18.166 23 26.499 29s17.833 12.333 28.5 19c18.667 12.667 43.334 19 74.001 19s56.167 -9 76.5 -27s30.5 -41.667 30.5 -71zM269.001 173.002l-79.001 -10.002c-4.66699 0 -7 2.83301 -7 8.5s2.33301 12.334 7 20.001s9.66699 12.5 15 14.5
c5.33301 -2 14 -3 26 -3c48 0 88.167 12.667 120.5 38s48.5 58 48.5 98c0 24 -7 44 -21 60s-32.333 24 -55 24c-44 0 -81 -33.667 -111 -101c-1.33301 -1.33301 -6.33301 -12.666 -15 -33.999c-30.667 -79.333 -81 -189 -151 -329c26.667 -2.66699 42.334 -4 47.001 -4
c66 0 125.167 16.5 177.5 49.5s78.5 68.833 78.5 107.5c0 40.667 -27 61 -81 61z" />
    <glyph glyph-name="agrave" unicode="&#xe0;" horiz-adv-x="374" 
d="M269 -29l9.99902 2l2 -1c0 -6 -8.16699 -9 -24.5 -9s-29.666 7.33301 -39.999 22s-15.5 34.5 -15.5 59.5s4.66699 53.5 14 85.5c0 -2 -9 -15.667 -27 -41c-54.667 -84.667 -97.667 -127 -129 -127c-13.333 0 -25.5 6.16699 -36.5 18.5s-16.5 28.333 -16.5 48
s11.667 49.5 35 89.5s51.666 75.667 84.999 107s62.333 47.333 87 48h10c24.667 0 45.667 -4.83301 63 -14.5s26 -22.5 26 -38.5c0 -7.33301 -3 -11 -9 -11c-2 0 -3 1 -3 3c-11.333 24.667 -27.666 37 -48.999 37c-37.333 0 -80.5 -31.167 -129.5 -93.5
s-73.5 -109.833 -73.5 -142.5c0 -12.667 3.33301 -19 10 -19c30 0 93 67.667 189 203c1.33301 1.33301 3.5 2 6.5 2s9.83301 -3.16699 20.5 -9.5s16 -11.833 16 -16.5l-14 -26c-22 -46.667 -33 -87.667 -33 -123s8.66699 -53 26 -53zM255.499 381.5
c41.667 -31 62.5 -48.833 62.5 -53.5s-2.33301 -7 -7 -7c-10 2.66699 -28 12 -54 28l-52.5 32c-9 5.33301 -15.833 10.5 -20.5 15.5s-7 8.16699 -7 9.5v9c0 8.66699 2.66699 13 8 13s28.833 -15.5 70.5 -46.5z" />
    <glyph glyph-name="aacute" unicode="&#xe1;" horiz-adv-x="374" 
d="M269 -29l9.99902 2l2 -1c0 -6 -8.16699 -9 -24.5 -9s-29.666 7.33301 -39.999 22s-15.5 34.5 -15.5 59.5s4.66699 53.5 14 85.5c0 -2 -9 -15.667 -27 -41c-54.667 -84.667 -97.667 -127 -129 -127c-13.333 0 -25.5 6.16699 -36.5 18.5s-16.5 28.333 -16.5 48
s11.667 49.5 35 89.5s51.666 75.667 84.999 107s62.333 47.333 87 48h10c24.667 0 45.667 -4.83301 63 -14.5s26 -22.5 26 -38.5c0 -7.33301 -3 -11 -9 -11c-2 0 -3 1 -3 3c-11.333 24.667 -27.666 37 -48.999 37c-37.333 0 -80.5 -31.167 -129.5 -93.5
s-73.5 -109.833 -73.5 -142.5c0 -12.667 3.33301 -19 10 -19c30 0 93 67.667 189 203c1.33301 1.33301 3.5 2 6.5 2s9.83301 -3.16699 20.5 -9.5s16 -11.833 16 -16.5l-14 -26c-22 -46.667 -33 -87.667 -33 -123s8.66699 -53 26 -53zM348.999 411
c0 -7.33301 -2.33301 -13.168 -7 -17.501s-25 -17.333 -61 -39s-55.833 -32.5 -59.5 -32.5s-5.5 1.83301 -5.5 5.5s19.667 20.334 59 50.001s61.5 44.5 66.5 44.5s7.5 -3.66699 7.5 -11z" />
    <glyph glyph-name="acircumflex" unicode="&#xe2;" horiz-adv-x="374" 
d="M269 -29l9.99902 2l2 -1c0 -6 -8.16699 -9 -24.5 -9s-29.666 7.33301 -39.999 22s-15.5 34.5 -15.5 59.5s4.66699 53.5 14 85.5c0 -2 -9 -15.667 -27 -41c-54.667 -84.667 -97.667 -127 -129 -127c-13.333 0 -25.5 6.16699 -36.5 18.5s-16.5 28.333 -16.5 48
s11.667 49.5 35 89.5s51.666 75.667 84.999 107s62.333 47.333 87 48h10c24.667 0 45.667 -4.83301 63 -14.5s26 -22.5 26 -38.5c0 -7.33301 -3 -11 -9 -11c-2 0 -3 1 -3 3c-11.333 24.667 -27.666 37 -48.999 37c-37.333 0 -80.5 -31.167 -129.5 -93.5
s-73.5 -109.833 -73.5 -142.5c0 -12.667 3.33301 -19 10 -19c30 0 93 67.667 189 203c1.33301 1.33301 3.5 2 6.5 2s9.83301 -3.16699 20.5 -9.5s16 -11.833 16 -16.5l-14 -26c-22 -46.667 -33 -87.667 -33 -123s8.66699 -53 26 -53zM153.999 304
c-3.33301 0 -5 2.50098 -5 7.50098s15.667 20.167 47 45.5s49.666 38.666 54.999 39.999l5 -2c16.667 -19.333 48 -46.666 94 -81.999l3 -7l-3 -6c-9.33301 1.33301 -27.666 10.666 -54.999 27.999s-45.333 30.333 -54 39c-52 -42 -81 -63 -87 -63z" />
    <glyph glyph-name="atilde" unicode="&#xe3;" horiz-adv-x="374" 
d="M269 -29l9.99902 2l2 -1c0 -6 -8.16699 -9 -24.5 -9s-29.666 7.33301 -39.999 22s-15.5 34.5 -15.5 59.5s4.66699 53.5 14 85.5c0 -2 -9 -15.667 -27 -41c-54.667 -84.667 -97.667 -127 -129 -127c-13.333 0 -25.5 6.16699 -36.5 18.5s-16.5 28.333 -16.5 48
s11.667 49.5 35 89.5s51.666 75.667 84.999 107s62.333 47.333 87 48h10c24.667 0 45.667 -4.83301 63 -14.5s26 -22.5 26 -38.5c0 -7.33301 -3 -11 -9 -11c-2 0 -3 1 -3 3c-11.333 24.667 -27.666 37 -48.999 37c-37.333 0 -80.5 -31.167 -129.5 -93.5
s-73.5 -109.833 -73.5 -142.5c0 -12.667 3.33301 -19 10 -19c30 0 93 67.667 189 203c1.33301 1.33301 3.5 2 6.5 2s9.83301 -3.16699 20.5 -9.5s16 -11.833 16 -16.5l-14 -26c-22 -46.667 -33 -87.667 -33 -123s8.66699 -53 26 -53zM229.999 356l72 -15.002
c12.667 0 23 5.33301 31 16c2.66699 0 4 -1 4 -3s-2 -5.83301 -6 -11.5s-10.167 -11.667 -18.5 -18s-15.666 -9.5 -21.999 -9.5s-19.5 3.5 -39.5 10.5s-32.5 10.5 -37.5 10.5s-10.667 -1.66699 -17 -5s-11.833 -6.66602 -16.5 -9.99902s-7.33398 -5 -8.00098 -5l-1 3
c0 2.66699 2.5 6.83398 7.5 12.501s12.333 11.167 22 16.5s19.5 8 29.5 8z" />
    <glyph glyph-name="adieresis" unicode="&#xe4;" horiz-adv-x="374" 
d="M269 -29l9.99902 2l2 -1c0 -6 -8.16699 -9 -24.5 -9s-29.666 7.33301 -39.999 22s-15.5 34.5 -15.5 59.5s4.66699 53.5 14 85.5c0 -2 -9 -15.667 -27 -41c-54.667 -84.667 -97.667 -127 -129 -127c-13.333 0 -25.5 6.16699 -36.5 18.5s-16.5 28.333 -16.5 48
s11.667 49.5 35 89.5s51.666 75.667 84.999 107s62.333 47.333 87 48h10c24.667 0 45.667 -4.83301 63 -14.5s26 -22.5 26 -38.5c0 -7.33301 -3 -11 -9 -11c-2 0 -3 1 -3 3c-11.333 24.667 -27.666 37 -48.999 37c-37.333 0 -80.5 -31.167 -129.5 -93.5
s-73.5 -109.833 -73.5 -142.5c0 -12.667 3.33301 -19 10 -19c30 0 93 67.667 189 203c1.33301 1.33301 3.5 2 6.5 2s9.83301 -3.16699 20.5 -9.5s16 -11.833 16 -16.5l-14 -26c-22 -46.667 -33 -87.667 -33 -123s8.66699 -53 26 -53zM298.999 306
c-3.33301 0 -6.99805 2.5 -10.998 7.5s-6 10.167 -6 15.5s7.5 13.5 22.5 24.5s26.5 16.5 34.5 16.5l3 -1v1v-1c-2.66699 -4 -6.33398 -8.33301 -11.001 -13l-12 -30c-4.66699 -13.333 -11.334 -20 -20.001 -20zM208.001 306c-4 0 -7.66602 2.49902 -10.999 7.49902
s-5 10.333 -5 16s7.33301 13.834 22 24.501s26 16 34 16l3 -1v1v-1c-0.666992 -0.666992 -2.16699 -2.5 -4.5 -5.5s-4.5 -5.5 -6.5 -7.5l-12 -30c-4.66699 -13.333 -11.334 -20 -20.001 -20z" />
    <glyph glyph-name="aring" unicode="&#xe5;" horiz-adv-x="374" 
d="M269 -29l9.99902 2l2 -1c0 -6 -8.16699 -9 -24.5 -9s-29.666 7.33301 -39.999 22s-15.5 34.5 -15.5 59.5s4.66699 53.5 14 85.5c0 -2 -9 -15.667 -27 -41c-54.667 -84.667 -97.667 -127 -129 -127c-13.333 0 -25.5 6.16699 -36.5 18.5s-16.5 28.333 -16.5 48
s11.667 49.5 35 89.5s51.666 75.667 84.999 107s62.333 47.333 87 48h10c24.667 0 45.667 -4.83301 63 -14.5s26 -22.5 26 -38.5c0 -7.33301 -3 -11 -9 -11c-2 0 -3 1 -3 3c-11.333 24.667 -27.666 37 -48.999 37c-37.333 0 -80.5 -31.167 -129.5 -93.5
s-73.5 -109.833 -73.5 -142.5c0 -12.667 3.33301 -19 10 -19c30 0 93 67.667 189 203c1.33301 1.33301 3.5 2 6.5 2s9.83301 -3.16699 20.5 -9.5s16 -11.833 16 -16.5l-14 -26c-22 -46.667 -33 -87.667 -33 -123s8.66699 -53 26 -53zM317.999 334c0 26 -10.667 39 -32 39
c-14 0 -28.833 -8.33301 -44.5 -25s-23.5 -35 -23.5 -55s10 -30 30 -30c18 0 34.167 7.33301 48.5 22s21.5 31 21.5 49zM286.999 295.5c-8.66699 -11.667 -18.667 -17.5 -30 -17.5c-7.33301 0 -11 5.5 -11 16.5s6 24.5 18 40.5c4 6 6 9.33301 6 10l-9 5c10 6 17.667 9 23 9
c10.667 0 16 -7.66699 16 -23s-4.33301 -28.833 -13 -40.5z" />
    <glyph glyph-name="ae" unicode="&#xe6;" horiz-adv-x="474" 
d="M223 273c43.333 0 71.999 -13.6641 85.999 -40.9971c30 27.333 53.833 41 71.5 41s32.834 -5.16699 45.501 -15.5s19 -22.833 19 -37.5c0 -26 -15.667 -51.167 -47 -75.5s-61.666 -36.5 -90.999 -36.5c-7.33301 0 -11 1.33301 -11 4l5 5c76.667 24 115 63.333 115 118
c0 8 -3 12 -9 12c-7.33301 0 -20.333 -7.66699 -39 -23c-32.667 -26.667 -61 -59.834 -85 -99.501s-36 -73.334 -36 -101.001s10 -41.5 30 -41.5c22.667 0 48.667 12.333 78 37c16 13.333 51.333 48.666 106 105.999c2.66699 0 4 -1.83301 4 -5.5
s-0.666992 -6.16699 -2 -7.5c-68.667 -102 -125.667 -153 -171 -153c-8.66699 0 -19.667 1.33301 -33 4h-1c-18 0 -32 7.5 -42 22.5s-15 34.833 -15 59.5s4.66699 53 14 85c0 -2 -9 -15.667 -27 -41c-54.667 -84.667 -97.667 -127 -129 -127
c-13.333 0 -25.5 6.16699 -36.5 18.5s-16.5 28.333 -16.5 48s11.667 49.5 35 89.5s51.666 75.667 84.999 107s62.333 47.333 87 48h10zM250.999 249.003c-37.333 0 -80.499 -31.167 -129.499 -93.5s-73.5 -109.833 -73.5 -142.5c0 -12.667 3.33301 -19 10 -19
c30 0 93 67.667 189 203c1.33301 1.33301 3.16602 2 5.49902 2s8.83301 -2.66699 19.5 -8c6 8.66699 14 18 24 28c-9.33301 20 -24.333 30 -45 30z" />
    <glyph glyph-name="ccedilla" unicode="&#xe7;" horiz-adv-x="242" 
d="M250 125c4 0 6.00293 -1.5 6.00293 -4.5s-0.666992 -5.83301 -2 -8.5c-70 -102 -128 -153 -174 -153c-56.667 0 -85 26.333 -85 79c0 40 20.167 89.167 60.5 147.5s79.166 87.5 116.499 87.5c13.333 0 27.166 -4.83301 41.499 -14.5s21.5 -20.167 21.5 -31.5
c0 -31.333 -10.667 -47 -32 -47c-6 0 -9.33301 1.66699 -10 5c8 18 12 32.833 12 44.5s-2.66699 17.5 -8 17.5c-8 0 -21.333 -7.66699 -40 -23c-32.667 -26.667 -61 -60 -85 -100s-36 -73.667 -36 -101s10.333 -41 31 -41c23.333 0 49.666 12.333 78.999 37
c18.667 17.333 40.5 39.333 65.5 66s37.833 40 38.5 40zM71.0029 -163c0 -22 -11.167 -40 -33.5 -54s-48.833 -21 -79.5 -21c-4 0 -6 3 -6 9c0 4 14.667 7.66699 44 11c10.667 0.666992 20.667 5 30 13s14 19.333 14 34c0 2.66699 -6.66699 15.167 -20 37.5
s-20 36.5 -20 42.5c0 18 4.83301 33.333 14.5 46s22.167 19 37.5 19c6 0 9.33301 -1.66699 10 -5c-23.333 -3.33301 -35 -19 -35 -47c0 -2 7.33301 -14.5 22 -37.5s22 -38.833 22 -47.5z" />
    <glyph glyph-name="egrave" unicode="&#xe8;" horiz-adv-x="263" 
d="M250 125c4 0 6 -1.5 6 -4.5s-0.666992 -5.83301 -2 -8.5c-70 -102 -128 -153 -174 -153c-56.667 0 -85 26.333 -85 79c0 40.667 20.167 90 60.5 148s79.5 87 117.5 87c16 0 30.167 -5.16699 42.5 -15.5s18.5 -22.833 18.5 -37.5c0 -25.333 -15.667 -50.333 -47 -75
s-61.666 -37 -90.999 -37c-6 0 -9 1.33301 -9 4l3 5c76.667 24 115 63.333 115 118c0 8 -2.66699 12 -8 12c-8 0 -21.333 -7.66699 -40 -23c-32.667 -26.667 -61 -60 -85 -100s-36 -73.667 -36 -101s10.333 -41 31 -41c23.333 0 49.666 12.333 78.999 37
c18.667 17.333 40.5 39.333 65.5 66s37.833 40 38.5 40zM188 365c42 -32 63.002 -49.833 63.002 -53.5s-2.83301 -5.5 -8.5 -5.5s-28.334 12.167 -68.001 36.5s-60.334 38 -62.001 41s-2.5 8.66699 -2.5 17s3.33301 12.5 10 12.5c3.33301 0 26 -16 68 -48z" />
    <glyph glyph-name="eacute" unicode="&#xe9;" horiz-adv-x="263" 
d="M250 125c4 0 6 -1.5 6 -4.5s-0.666992 -5.83301 -2 -8.5c-70 -102 -128 -153 -174 -153c-56.667 0 -85 26.333 -85 79c0 40.667 20.167 90 60.5 148s79.5 87 117.5 87c16 0 30.167 -5.16699 42.5 -15.5s18.5 -22.833 18.5 -37.5c0 -25.333 -15.667 -50.333 -47 -75
s-61.666 -37 -90.999 -37c-6 0 -9 1.33301 -9 4l3 5c76.667 24 115 63.333 115 118c0 8 -2.66699 12 -8 12c-8 0 -21.333 -7.66699 -40 -23c-32.667 -26.667 -61 -60 -85 -100s-36 -73.667 -36 -101s10.333 -41 31 -41c23.333 0 49.666 12.333 78.999 37
c18.667 17.333 40.5 39.333 65.5 66s37.833 40 38.5 40zM255 359.5c40 30.333 62.002 45.5 66.002 45.5s6 -3.83301 6 -11.5s-1.83301 -13.5 -5.5 -17.5s-23.834 -17 -60.501 -39s-56.834 -33 -60.501 -33s-5.5 2 -5.5 6c0 2.66699 20 19.167 60 49.5z" />
    <glyph glyph-name="ecircumflex" unicode="&#xea;" horiz-adv-x="263" 
d="M250 125c4 0 6 -1.5 6 -4.5s-0.666992 -5.83301 -2 -8.5c-70 -102 -128 -153 -174 -153c-56.667 0 -85 26.333 -85 79c0 40.667 20.167 90 60.5 148s79.5 87 117.5 87c16 0 30.167 -5.16699 42.5 -15.5s18.5 -22.833 18.5 -37.5c0 -25.333 -15.667 -50.333 -47 -75
s-61.666 -37 -90.999 -37c-6 0 -9 1.33301 -9 4l3 5c76.667 24 115 63.333 115 118c0 8 -2.66699 12 -8 12c-8 0 -21.333 -7.66699 -40 -23c-32.667 -26.667 -61 -60 -85 -100s-36 -73.667 -36 -101s10.333 -41 31 -41c23.333 0 49.666 12.333 78.999 37
c18.667 17.333 40.5 39.333 65.5 66s37.833 40 38.5 40zM189 359c-49.333 -42.667 -76.832 -64.002 -82.499 -64.002s-8.5 2.5 -8.5 7.5s15.667 20.333 47 46s49.666 38.834 54.999 39.501l5 -1c21.333 -23.333 53 -50.333 95 -81l3 -8l-3 -5
c-9.33301 0 -27.333 8.33301 -54 25s-45.667 30.334 -57 41.001z" />
    <glyph glyph-name="edieresis" unicode="&#xeb;" horiz-adv-x="263" 
d="M250 125c4 0 6 -1.5 6 -4.5s-0.666992 -5.83301 -2 -8.5c-70 -102 -128 -153 -174 -153c-56.667 0 -85 26.333 -85 79c0 40.667 20.167 90 60.5 148s79.5 87 117.5 87c16 0 30.167 -5.16699 42.5 -15.5s18.5 -22.833 18.5 -37.5c0 -25.333 -15.667 -50.333 -47 -75
s-61.666 -37 -90.999 -37c-6 0 -9 1.33301 -9 4l3 5c76.667 24 115 63.333 115 118c0 8 -2.66699 12 -8 12c-8 0 -21.333 -7.66699 -40 -23c-32.667 -26.667 -61 -60 -85 -100s-36 -73.667 -36 -101s10.333 -41 31 -41c23.333 0 49.666 12.333 78.999 37
c18.667 17.333 40.5 39.333 65.5 66s37.833 40 38.5 40zM246 304c-3.33301 0 -6.83203 2.66602 -10.499 7.99902s-5.5 10.833 -5.5 16.5s7.5 13.834 22.5 24.501s26.5 16 34.5 16l2 -1v-1c-4 -6 -7.66699 -10.333 -11 -13l-12 -30c-4.66699 -13.333 -11.334 -20 -20.001 -20
zM154.001 303.999c-2.66699 0 -5.83301 2.66602 -9.5 7.99902s-5.5 10.833 -5.5 16.5s7.5 13.834 22.5 24.501s26.167 16 33.5 16l3 -1v-1c-4 -6 -7.66699 -10.333 -11 -13l-13 -30c-6 -13.333 -12.667 -20 -20 -20z" />
    <glyph glyph-name="igrave" unicode="&#xec;" horiz-adv-x="180" 
d="M195 87c0 -13.333 -22.833 -37.167 -68.5 -71.5s-76.834 -51.5 -93.501 -51.5c-30 0 -45 17 -45 51c0 23.333 15 60 45 110s54 75 72 75c4.66699 0 10.334 -2 17.001 -6s10 -8 10 -12c-3.33301 -3.33301 -6.5 -7 -9.5 -11l-11.5 -15l-16.5 -21.5l-20.5 -26.5
c-38 -49.333 -57 -83 -57 -101s6.66699 -27 20 -27c8 0 26 9.33301 54 28s52.167 36.5 72.5 53.5s30.5 26.833 30.5 29.5c0.666992 -0.666992 1 -2 1 -4zM110 332.999c41.333 -31.333 62.001 -49.168 62.001 -53.501s-2 -6.5 -6 -6.5
c-11.333 2.66699 -33.833 14.5 -67.5 35.5s-53.167 33.833 -58.5 38.5s-8 11.334 -8 20.001s2.66699 13 8 13s28.666 -15.667 69.999 -47z" />
    <glyph glyph-name="iacute" unicode="&#xed;" horiz-adv-x="180" 
d="M195 87c0 -13.333 -22.833 -37.167 -68.5 -71.5s-76.834 -51.5 -93.501 -51.5c-30 0 -45 17 -45 51c0 23.333 15 60 45 110s54 75 72 75c4.66699 0 10.334 -2 17.001 -6s10 -8 10 -12c-3.33301 -3.33301 -6.5 -7 -9.5 -11l-11.5 -15l-16.5 -21.5l-20.5 -26.5
c-38 -49.333 -57 -83 -57 -101s6.66699 -27 20 -27c8 0 26 9.33301 54 28s52.167 36.5 72.5 53.5s30.5 26.833 30.5 29.5c0.666992 -0.666992 1 -2 1 -4zM201 330.499c48.667 37 76 55.501 82 55.501s9 -4.83301 9 -14.5s-2.5 -16.834 -7.5 -21.501s-30.5 -20.5 -76.5 -47.5
s-69.667 -40.5 -71 -40.5c-6 0 -9 2.16699 -9 6.5s24.333 25 73 62z" />
    <glyph glyph-name="icircumflex" unicode="&#xee;" horiz-adv-x="180" 
d="M195 87c0 -13.333 -22.833 -37.167 -68.5 -71.5s-76.834 -51.5 -93.501 -51.5c-30 0 -45 17 -45 51c0 23.333 15 60 45 110s54 75 72 75c4.66699 0 10.334 -2 17.001 -6s10 -8 10 -12c-3.33301 -3.33301 -6.5 -7 -9.5 -11l-11.5 -15l-16.5 -21.5l-20.5 -26.5
c-38 -49.333 -57 -83 -57 -101s6.66699 -27 20 -27c8 0 26 9.33301 54 28s52.167 36.5 72.5 53.5s30.5 26.833 30.5 29.5c0.666992 -0.666992 1 -2 1 -4zM127 310.999c-51.333 -42 -79.499 -62.999 -84.499 -62.999s-7.5 2.5 -7.5 7.5s15.833 20.167 47.5 45.5
s50.167 38.666 55.5 39.999l4 -2c22 -22.667 53.333 -49.667 94 -81l5 -8l-3 -5c-10 0.666992 -28.833 9.5 -56.5 26.5s-45.834 30.167 -54.501 39.5z" />
    <glyph glyph-name="idieresis" unicode="&#xef;" horiz-adv-x="180" 
d="M195 87c0 -13.333 -22.833 -37.167 -68.5 -71.5s-76.834 -51.5 -93.501 -51.5c-30 0 -45 17 -45 51c0 23.333 15 60 45 110s54 75 72 75c4.66699 0 10.334 -2 17.001 -6s10 -8 10 -12c-3.33301 -3.33301 -6.5 -7 -9.5 -11l-11.5 -15l-16.5 -21.5l-20.5 -26.5
c-38 -49.333 -57 -83 -57 -101s6.66699 -27 20 -27c8 0 26 9.33301 54 28s52.167 36.5 72.5 53.5s30.5 26.833 30.5 29.5c0.666992 -0.666992 1 -2 1 -4zM186 271.999c-3.33301 0 -6.83301 2.49805 -10.5 7.49805s-5.5 10.333 -5.5 16s7.5 13.834 22.5 24.501
s26.5 16 34.5 16l3 -1c-2 -3.33301 -6 -7.66602 -12 -12.999l-11 -30c-6 -13.333 -13 -20 -21 -20zM95 271.997c-3.33301 0 -6.83301 2.49902 -10.5 7.49902s-5.5 10.5 -5.5 16.5s7.5 14.167 22.5 24.5s26.5 15.5 34.5 15.5l3 -1c-4 -5.33301 -8 -9.66602 -12 -12.999
l-11 -30c-6 -13.333 -13 -20 -21 -20z" />
    <glyph glyph-name="eth" unicode="&#xf0;" 
d="M253 208l-25.001 3.99805c1.33301 -13.333 2 -24 2 -32c0 -55.333 -14 -104.166 -42 -146.499s-63 -63.5 -105 -63.5c-54 0 -81 28.333 -81 85c0 49.333 18.833 94.166 56.5 134.499s73.834 60.5 108.501 60.5c0 16.667 -9 40.667 -27 72l-32 -23
c-16 -8 -27.667 -12 -35 -12c-10.667 0 -16 5.33301 -16 16c0 4.66699 3.66699 9.66699 11 15l56 31c-17.333 22 -33.333 33 -48 33c-28.667 0 -53 -21.333 -73 -64c-2 -4.66699 -4 -7 -6 -7c-5.33301 0 -8 5 -8 15c0 22.667 12.167 42.334 36.5 59.001s48.333 25 72 25
s45.167 -13.333 64.5 -40c23.333 12 45 24.333 65 37l2 -3v-2c0 -7.33301 -18.333 -25.666 -55 -54.999c10.667 -18.667 24.667 -52.667 42 -102c31.333 -6 47 -13.333 47 -22c0 -10 -3.33301 -15 -10 -15zM194.999 169.998c0 17.333 -3 31.335 -9 42.002
c-30 -3.33301 -56.667 -16.833 -80 -40.5s-39.833 -47.834 -49.5 -72.501s-14.5 -46.334 -14.5 -65.001c0 -34.667 13.5 -52 40.5 -52s52.5 21.5 76.5 64.5s36 84.167 36 123.5z" />
    <glyph glyph-name="ntilde" unicode="&#xf1;" horiz-adv-x="305" 
d="M309 255c0 2.66699 -1.66797 0.998047 -5.00098 -5.00195c-18.667 -34 -35.334 -75 -50.001 -123s-22 -79.333 -22 -94c0 -40.667 7.33301 -61 22 -61c4.66699 0 10.834 3.16699 18.501 9.5s10.834 9.5 9.50098 9.5c2 0 3 -2.66699 3 -8c0 -17.333 -10 -26 -30 -26
s-35.333 8.83301 -46 26.5s-16 42.834 -16 75.501s8.66699 75.834 26 129.501s34 80.5 50 80.5h5c23.333 0 35 -4.66699 35 -14zM230.999 244.998c0.666992 -0.666992 1.00293 -1.83203 1.00293 -3.49902s-2.66699 -5.83398 -8 -12.501c-72 -87.333 -122 -162 -150 -224
l-9 -26c-4 -7.33301 -9 -11 -15 -11s-12.667 1.66699 -20 5s-11 7.33301 -11 12c0 11.333 11 51.5 33 120.5s33 120.833 33 155.5c0 9.33301 -2.33301 15 -7 17s-9.33398 2.83301 -14.001 2.5s-7 1.16699 -7 4.5c0 6 5 9 15 9c44.667 0 67 -18.333 67 -55
c0 -14 -16 -68.333 -48 -163c29.333 46 57.666 85.667 84.999 119s45.666 50 54.999 50zM210.002 369l70.9971 -16.001c14 0 24.333 5.33301 31 16c3.33301 0 5 -0.666992 5 -2c0 -5.33301 -5.16699 -13.166 -15.5 -23.499s-19.833 -15.5 -28.5 -15.5s-23 3.5 -43 10.5
s-32.5 10.5 -37.5 10.5s-10.667 -1.83301 -17 -5.5s-11.666 -7.16699 -15.999 -10.5s-6.83301 -5 -7.5 -5l-1 3c0 2 2.33301 6 7 12s11.834 11.833 21.501 17.5s19.834 8.5 30.501 8.5z" />
    <glyph glyph-name="ograve" unicode="&#xf2;" 
d="M253 208l-24.999 3.99805c1.33301 -13.333 2 -24 2 -32c0 -55.333 -14 -104.166 -42 -146.499s-63 -63.5 -105 -63.5c-54 0 -81 28.333 -81 85c0 22.667 5.16699 46.834 15.5 72.501s23.166 46.5 38.499 62.5c-7.33301 12 -11 27.667 -11 47s8 36.833 24 52.5
s35.667 23.5 59 23.5c44 0 73.333 -22.667 88 -68c31.333 -6 47 -13.333 47 -22c0 -10 -3.33301 -15 -10 -15zM116.001 284.998c-14 0 -25.666 -6.33301 -34.999 -19s-14 -25.5 -14 -38.5s1 -22.5 3 -28.5c45.333 34 76.666 51 93.999 51h3
c-8.66699 23.333 -25.667 35 -51 35zM105.002 164.998c6.66699 -4.66699 12 -6.83398 16 -6.50098s6.33301 0.5 7 0.5c3.33301 0 5 -1.66699 5 -5c0 -5.33301 -4.5 -8 -13.5 -8s-17.167 2.33301 -24.5 7c-35.333 -41.333 -53 -80.166 -53 -116.499s13.5 -54.5 40.5 -54.5
s52.5 21.5 76.5 64.5s36 84.167 36 123.5c0 17.333 -3 31.333 -9 42c-25.333 -4 -52.333 -19.667 -81 -47zM88.002 441.998l-0.000976562 6.99707c0 8.66699 2.5 13 7.5 13s28.333 -15.833 70 -47.5s62.5 -49.5 62.5 -53.5s-2.33301 -6 -7 -6
c-12.667 4 -31.167 13.5 -55.5 28.5l-44 27c-5 3 -9.16699 5.83301 -12.5 8.5s-6.33301 4.83398 -9 6.50098s-4.66699 3.33398 -6 5.00098s-2.66602 2.83398 -3.99902 3.50098c-1.33301 1.33301 -2 4 -2 8z" />
    <glyph glyph-name="oacute" unicode="&#xf3;" 
d="M253 208l-24.999 3.99805c1.33301 -13.333 2 -24 2 -32c0 -55.333 -14 -104.166 -42 -146.499s-63 -63.5 -105 -63.5c-54 0 -81 28.333 -81 85c0 22.667 5.16699 46.834 15.5 72.501s23.166 46.5 38.499 62.5c-7.33301 12 -11 27.667 -11 47s8 36.833 24 52.5
s35.667 23.5 59 23.5c44 0 73.333 -22.667 88 -68c31.333 -6 47 -13.333 47 -22c0 -10 -3.33301 -15 -10 -15zM116.001 284.998c-14 0 -25.666 -6.33301 -34.999 -19s-14 -25.5 -14 -38.5s1 -22.5 3 -28.5c45.333 34 76.666 51 93.999 51h3
c-8.66699 23.333 -25.667 35 -51 35zM105.002 164.998c6.66699 -4.66699 12 -6.83398 16 -6.50098s6.33301 0.5 7 0.5c3.33301 0 5 -1.66699 5 -5c0 -5.33301 -4.5 -8 -13.5 -8s-17.167 2.33301 -24.5 7c-35.333 -41.333 -53 -80.166 -53 -116.499s13.5 -54.5 40.5 -54.5
s52.5 21.5 76.5 64.5s36 84.167 36 123.5c0 17.333 -3 31.333 -9 42c-25.333 -4 -52.333 -19.667 -81 -47zM291.002 448.998c6.66699 0 10.001 -3.66699 10.001 -11s-2 -13 -6 -17s-24.667 -17 -62 -39s-57.5 -33 -60.5 -33s-4.5 1.66699 -4.5 5s19.667 20 59 50
s60.666 45 63.999 45z" />
    <glyph glyph-name="ocircumflex" unicode="&#xf4;" 
d="M253 208l-24.999 3.99805c1.33301 -13.333 2 -24 2 -32c0 -55.333 -14 -104.166 -42 -146.499s-63 -63.5 -105 -63.5c-54 0 -81 28.333 -81 85c0 22.667 5.16699 46.834 15.5 72.501s23.166 46.5 38.499 62.5c-7.33301 12 -11 27.667 -11 47s8 36.833 24 52.5
s35.667 23.5 59 23.5c44 0 73.333 -22.667 88 -68c31.333 -6 47 -13.333 47 -22c0 -10 -3.33301 -15 -10 -15zM116.001 284.998c-14 0 -25.666 -6.33301 -34.999 -19s-14 -25.5 -14 -38.5s1 -22.5 3 -28.5c45.333 34 76.666 51 93.999 51h3
c-8.66699 23.333 -25.667 35 -51 35zM105.002 164.998c6.66699 -4.66699 12 -6.83398 16 -6.50098s6.33301 0.5 7 0.5c3.33301 0 5 -1.66699 5 -5c0 -5.33301 -4.5 -8 -13.5 -8s-17.167 2.33301 -24.5 7c-35.333 -41.333 -53 -80.166 -53 -116.499s13.5 -54.5 40.5 -54.5
s52.5 21.5 76.5 64.5s36 84.167 36 123.5c0 17.333 -3 31.333 -9 42c-25.333 -4 -52.333 -19.667 -81 -47zM91.002 339.998c-4 0 -5.99902 2.50098 -5.99902 7.50098s15.667 20.167 47 45.5s49.666 38.666 54.999 39.999l5 -2c20.667 -22.667 52 -49.667 94 -81l4 -8l-3 -5
c-10 0.666992 -28.667 9.5 -56 26.5s-45.333 30.167 -54 39.5c-52 -42 -80.667 -63 -86 -63z" />
    <glyph glyph-name="otilde" unicode="&#xf5;" 
d="M253 208l-24.999 3.99805c1.33301 -13.333 2 -24 2 -32c0 -55.333 -14 -104.166 -42 -146.499s-63 -63.5 -105 -63.5c-54 0 -81 28.333 -81 85c0 22.667 5.16699 46.834 15.5 72.501s23.166 46.5 38.499 62.5c-7.33301 12 -11 27.667 -11 47s8 36.833 24 52.5
s35.667 23.5 59 23.5c44 0 73.333 -22.667 88 -68c31.333 -6 47 -13.333 47 -22c0 -10 -3.33301 -15 -10 -15zM116.001 284.998c-14 0 -25.666 -6.33301 -34.999 -19s-14 -25.5 -14 -38.5s1 -22.5 3 -28.5c45.333 34 76.666 51 93.999 51h3
c-8.66699 23.333 -25.667 35 -51 35zM105.002 164.998c6.66699 -4.66699 12 -6.83398 16 -6.50098s6.33301 0.5 7 0.5c3.33301 0 5 -1.66699 5 -5c0 -5.33301 -4.5 -8 -13.5 -8s-17.167 2.33301 -24.5 7c-35.333 -41.333 -53 -80.166 -53 -116.499s13.5 -54.5 40.5 -54.5
s52.5 21.5 76.5 64.5s36 84.167 36 123.5c0 17.333 -3 31.333 -9 42c-25.333 -4 -52.333 -19.667 -81 -47zM169.002 400.998l72.0039 -16c11.333 0 22 5.33301 32 16c2.66699 0 4 -1 4 -3s-1.83301 -5.83301 -5.5 -11.5s-9.66699 -11.5 -18 -17.5s-16.333 -9 -24 -9
s-21.334 3.5 -41.001 10.5s-31.834 10.5 -36.501 10.5s-10.334 -1.83301 -17.001 -5.5s-12.334 -7.16699 -17.001 -10.5s-7.33398 -5 -8.00098 -5l-1 2c0 2.66699 2.5 7 7.5 13s12.333 11.833 22 17.5s19.834 8.5 30.501 8.5z" />
    <glyph glyph-name="odieresis" unicode="&#xf6;" 
d="M253 208l-24.999 3.99805c1.33301 -13.333 2 -24 2 -32c0 -55.333 -14 -104.166 -42 -146.499s-63 -63.5 -105 -63.5c-54 0 -81 28.333 -81 85c0 22.667 5.16699 46.834 15.5 72.501s23.166 46.5 38.499 62.5c-7.33301 12 -11 27.667 -11 47s8 36.833 24 52.5
s35.667 23.5 59 23.5c44 0 73.333 -22.667 88 -68c31.333 -6 47 -13.333 47 -22c0 -10 -3.33301 -15 -10 -15zM116.001 284.998c-14 0 -25.666 -6.33301 -34.999 -19s-14 -25.5 -14 -38.5s1 -22.5 3 -28.5c45.333 34 76.666 51 93.999 51h3
c-8.66699 23.333 -25.667 35 -51 35zM105.002 164.998c6.66699 -4.66699 12 -6.83398 16 -6.50098s6.33301 0.5 7 0.5c3.33301 0 5 -1.66699 5 -5c0 -5.33301 -4.5 -8 -13.5 -8s-17.167 2.33301 -24.5 7c-35.333 -41.333 -53 -80.166 -53 -116.499s13.5 -54.5 40.5 -54.5
s52.5 21.5 76.5 64.5s36 84.167 36 123.5c0 17.333 -3 31.333 -9 42c-25.333 -4 -52.333 -19.667 -81 -47zM232.002 351.998c-3.33301 0 -6.83301 2.49902 -10.5 7.49902s-5.5 10.333 -5.5 16s7.5 13.834 22.5 24.501s26.5 16 34.5 16l2 -1v1v-1
c-4 -6 -7.66699 -10.333 -11 -13l-11 -30c-6 -13.333 -13 -20 -21 -20zM140.002 351.997c-2.66699 0 -5.83301 2.49902 -9.5 7.49902s-5.5 10.333 -5.5 16s7.5 13.834 22.5 24.501s26.167 16 33.5 16l3 -1v1v-1c-4 -6 -7.66699 -10.333 -11 -13l-13 -30
c-6 -13.333 -12.667 -20 -20 -20z" />
    <glyph glyph-name="divide" unicode="&#xf7;" horiz-adv-x="306" 
d="M192 243.5c6.66699 -5 10 -10.667 10 -17s-3.16699 -11.833 -9.5 -16.5s-12.833 -7 -19.5 -7c-21.333 0 -32 8.66699 -32 26c0 14.667 9.66699 22 29 22c8 0 15.333 -2.5 22 -7.5zM300 168c0 -6 -22.5 -13.5 -67.5 -22.5s-78.5 -13.5 -100.5 -13.5
c-78.667 0 -118 6 -118 18s6.33301 18 19 18l194 1c28 0 52 0.666992 72 2c0.666992 -0.666992 1 -1.66699 1 -3zM157.5 92.5c6.33301 -5 9.5 -10.667 9.5 -17s-3.16699 -11.833 -9.5 -16.5s-12.5 -7 -18.5 -7c-21.333 0 -32 9 -32 27c0 14 9.66699 21 29 21
c8 0 15.167 -2.5 21.5 -7.5z" />
    <glyph glyph-name="oslash" unicode="&#xf8;" 
d="M244 235c12.667 0 19 -4 19 -12c0 -10 -4 -15 -12 -15c-1.33301 0 -5.16602 0.666992 -11.499 2s-10.5 2 -12.5 2c2 -10 3 -20.667 3 -32c0 -56.667 -14 -105.834 -42 -147.501s-63.333 -62.5 -106 -62.5c-6.66699 0 -14 0.666992 -22 2c-22 -44 -33 -76.333 -33 -97
c0 -6 1 -10.333 3 -13s3 -4.33398 3 -5.00098c0 -6.66699 -3 -10 -9 -10c-8 0 -12 10.833 -12 32.5s10 54.5 30 98.5c-26.667 12.667 -40 38.334 -40 77.001c0 22.667 5.16699 47 15.5 73s23.166 46.667 38.499 62c-8 11.333 -12 26.833 -12 46.5
s8.16699 37.334 24.5 53.001s36 23.5 59 23.5s42.167 -6.66699 57.5 -20c34 69.333 53.333 104 58 104c17.333 0 26 -5.66699 26 -17c0 -2.66699 -1.33301 -6.66699 -4 -12l-57 -105c4.66699 -9.33301 10.5 -16.333 17.5 -21s13.167 -7 18.5 -7zM114 285
c-14 0 -25.333 -6.5 -34 -19.5s-13 -26.333 -13 -40s1 -22.5 3 -26.5c43.333 33.333 75 50.333 95 51l1 3c-10 21.333 -27.333 32 -52 32zM195 170c0 17.333 -3.33301 31.334 -10 42.001c-1.33301 -0.666992 -3 -1 -5 -1c-36.667 -68.667 -71.667 -138.334 -105 -209.001
l-9 -16c8 -2.66699 13.333 -4 16 -4c27.333 0 53 21.667 77 65s36 84.333 36 123zM108 160.001c0 -5.33301 -2.00098 -8 -6.00098 -8s-6.66699 0.333008 -8 1c-35.333 -41.333 -53 -81 -53 -119c0 -14.667 3 -26 9 -34c10.667 22.667 23.834 52.667 39.501 90
s31.167 71 46.5 101c-12 -7.33301 -22.333 -16 -31 -26z" />
    <glyph glyph-name="ugrave" unicode="&#xf9;" horiz-adv-x="383" 
d="M94 260l-9 18.001c0 2 2.5 3 7.5 3s15.833 -3.33301 32.5 -10s25 -12.334 25 -17.001l-54.5 -111c-29.667 -60.667 -44.5 -101.5 -44.5 -122.5s4.33301 -31.5 13 -31.5c10.667 0 26 12 46 36s39.667 52 59 84l84 136c9.33301 16 20 24 32 24c24 0 36 -4.66699 36 -14
c0 2.66699 -1.66699 1 -5 -5c-18.667 -34 -35.5 -75 -50.5 -123s-22.5 -79.333 -22.5 -94c0 -40.667 7.33301 -61 22 -61c4.66699 0 14.334 6.33301 29.001 19c1.33301 0 2 -2.66699 2 -8c0 -17.333 -9.83301 -26 -29.5 -26s-35 8.83301 -46 26.5s-16.5 39.667 -16.5 66
s5.33301 61.5 16 105.5c-52 -84.667 -86.833 -138 -104.5 -160s-34.834 -33 -51.501 -33s-30.5 6.16699 -41.5 18.5s-16.5 25.833 -16.5 40.5c0 28 14.667 74.167 44 138.5s44 97.833 44 100.5zM300 324.001c0 -3.33301 -2.33105 -4.99902 -6.99805 -4.99902
s-25.834 11.333 -63.501 34s-58.834 36 -63.501 40s-7 10.5 -7 19.5s3.33301 13.5 10 13.5c3.33301 0 26 -15.833 68 -47.5s63 -49.834 63 -54.501z" />
    <glyph glyph-name="uacute" unicode="&#xfa;" horiz-adv-x="383" 
d="M94 260l-8.99902 18.001c0 2 2.5 3 7.5 3s15.833 -3.33301 32.5 -10s25 -12.334 25 -17.001l-54.5 -111c-29.667 -60.667 -44.5 -101.5 -44.5 -122.5s4.33301 -31.5 13 -31.5c10.667 0 26 12 46 36s39.667 52 59 84l84 136c9.33301 16 20 24 32 24
c24 0 36 -4.66699 36 -14c0 2.66699 -2 0.666992 -6 -6c-18.667 -33.333 -35.334 -74 -50.001 -122s-22 -79.333 -22 -94c0 -40.667 7.33301 -61 22 -61c4.66699 0 14.334 6.33301 29.001 19c1.33301 0 2 -2.66699 2 -8c0 -17.333 -9.83301 -26 -29.5 -26
s-35 8.83301 -46 26.5s-16.5 39.667 -16.5 66s5.33301 61.5 16 105.5c-52 -84.667 -86.833 -138 -104.5 -160s-34.834 -33 -51.501 -33s-30.5 6.16699 -41.5 18.5s-16.5 25.833 -16.5 40.5c0 28 14.667 74.167 44 138.5s44 97.833 44 100.5zM242.001 351.001
c39.333 30 61.5 45.001 66.5 45.001s7.5 -3.66699 7.5 -11s-2.16699 -13.333 -6.5 -18s-24.833 -17.834 -61.5 -39.501s-56.667 -32.5 -60 -32.5s-5 1.83301 -5 5.5s19.667 20.5 59 50.5z" />
    <glyph glyph-name="ucircumflex" unicode="&#xfb;" horiz-adv-x="383" 
d="M94 260l-9 18c0 2 2.5 3 7.5 3s15.833 -3.33301 32.5 -10s25 -12.334 25 -17.001l-54.5 -111c-29.667 -60.667 -44.5 -101.5 -44.5 -122.5s4.33301 -31.5 13 -31.5c10.667 0 26 12 46 36s39.667 52 59 84l84 136c9.33301 16 20 24 32 24c24 0 36 -4.66699 36 -14
c0 2.66699 -1.66699 1 -5 -5c-19.333 -34 -36.333 -74.667 -51 -122s-22 -78.666 -22 -93.999c0 -41.333 7.33301 -62 22 -62c4.66699 0 14.334 6.33301 29.001 19c1.33301 0 2 -2.66699 2 -8c0 -17.333 -9.83301 -26 -29.5 -26s-35 8.83301 -46 26.5s-16.5 39.667 -16.5 66
s5.33301 61.5 16 105.5c-52 -84.667 -86.833 -138 -104.5 -160s-34.834 -33 -51.501 -33s-30.5 6.16699 -41.5 18.5s-16.5 25.833 -16.5 40.5c0 28 14.667 74.167 44 138.5s44 97.833 44 100.5zM124 319c-3.33301 0 -5.00195 2.5 -5.00195 7.5s15.5 20.167 46.5 45.5
s49.167 38.333 54.5 39l6 -1c18.667 -22.667 50 -50 94 -82l3 -7l-3 -6c-9.33301 0 -27.166 8.5 -53.499 25.5s-45.166 30.833 -56.499 41.5c-50 -42 -78.667 -63 -86 -63z" />
    <glyph glyph-name="udieresis" unicode="&#xfc;" horiz-adv-x="383" 
d="M94 260l-8.99902 18.001c0 2 2.5 3 7.5 3s15.833 -3.33301 32.5 -10s25 -12.334 25 -17.001l-54.5 -111c-29.667 -60.667 -44.5 -101.5 -44.5 -122.5s4.33301 -31.5 13 -31.5c10.667 0 26 12 46 36s39.667 52 59 84l84 136c9.33301 16 20 24 32 24
c24 0 36 -4.66699 36 -14c0 2.66699 -2 0.666992 -6 -6c-18.667 -33.333 -35.334 -74 -50.001 -122s-22 -79.333 -22 -94c0 -40.667 7.33301 -61 22 -61c4.66699 0 14.334 6.33301 29.001 19c1.33301 0 2 -2.66699 2 -8c0 -17.333 -9.83301 -26 -29.5 -26
s-35 8.83301 -46 26.5s-16.5 39.667 -16.5 66s5.33301 61.5 16 105.5c-52 -84.667 -86.833 -138 -104.5 -160s-34.834 -33 -51.501 -33s-30.5 6.16699 -41.5 18.5s-16.5 25.833 -16.5 40.5c0 28 14.667 74.167 44 138.5s44 97.833 44 100.5zM274.001 313.001
c-3.33301 0 -6.66699 2.66797 -10 8.00098s-5 11 -5 17s7.5 14.333 22.5 25s26.167 16 33.5 16l3 -2v-1c-0.666992 -0.666992 -2.16699 -2.33398 -4.5 -5.00098s-4.5 -5 -6.5 -7l-13 -30c-5.33301 -14 -12 -21 -20 -21zM183 313.002c-3.33301 0 -6.83301 2.66699 -10.5 8
s-5.5 10.833 -5.5 16.5s7.5 14 22.5 25s26.5 16.5 34.5 16.5l3 -2v-1l-12 -12l-12 -30c-5.33301 -14 -12 -21 -20 -21z" />
    <glyph glyph-name="yacute" unicode="&#xfd;" horiz-adv-x="292" 
d="M305 188c0 -64 -21.9961 -148.671 -65.9961 -254.004c-49.333 -114.667 -108.333 -211.667 -177 -291s-128.334 -119 -179.001 -119c-44 0 -66 21.667 -66 65c0 52.667 37.667 121 113 205c78.667 88.667 164.334 159.334 257.001 212.001c3.33301 0 0 -6 -10 -18
c-225.333 -187.333 -338 -322.666 -338 -405.999c0 -32 12.667 -48 38 -48c43.333 0 95.666 42 156.999 126s113.833 178.833 157.5 284.5s65.5 189.5 65.5 251.5c0 23.333 -4 39.333 -12 48c-88.667 -92.667 -150.667 -170.667 -186 -234c-11.333 -28 -21.333 -42 -30 -42
c-20 0 -30 5.66699 -30 17c-0.666992 6.66699 12.666 46.334 39.999 119.001l28 77c8.66699 26.667 13.667 53.334 15 80.001v4c0 7.33301 -0.833008 11.666 -2.5 12.999s-6 2 -13 2s-10.5 1.66699 -10.5 5c0 6 5.33301 9 16 9c42.667 0 64 -16 64 -48
c0 -15.333 -20 -72 -60 -170c23.333 32 57.166 71.833 101.499 119.5s72.166 71.5 83.499 71.5c0 -6 -2.66699 -11.333 -8 -16c30 -3.33301 46 -10 48 -20c2.66699 -17.333 4 -31.666 4 -42.999zM250.504 393.496c39 29.667 61 44.5 66 44.5s7.5 -3.5 7.5 -10.5
s-2.66699 -13.833 -8 -20.5c-3.33301 -2.66699 -23.333 -14.834 -60 -36.501s-56.5 -32.5 -59.5 -32.5s-4.5 1.83301 -4.5 5.5s19.5 20.334 58.5 50.001z" />
    <glyph glyph-name="thorn" unicode="&#xfe;" horiz-adv-x="165" 
d="M105 480l-35.001 -7c-4.66699 0 -7 2 -7 6c0 10 12.333 15 37 15s44 -4.33301 58 -13s21 -20.834 21 -36.501s-13 -49.167 -39 -100.5l-52 -102c21.333 14.667 45.333 22 72 22c46.667 0 70 -22.333 70 -67c0 -51.333 -24.5 -107.666 -73.5 -168.999
s-95.5 -92 -139.5 -92c-17.333 0 -32.666 4.33301 -45.999 13c-31.333 -84.667 -47 -145 -47 -181c0 -16 6 -24 18 -24c3.33301 0 9 1.83301 17 5.5s12.667 5.5 14 5.5s2 -0.666992 2 -2c0 -4.66699 -4.66699 -9.16699 -14 -13.5s-18.333 -6.5 -27 -6.5s-18 6 -28 18
s-15 24.333 -15 37c0 45.333 9.66699 93 29 143l19 52c-2.66699 0 -4 1.33301 -4 4s0.666992 4.66699 2 6l4 -3c40 101.333 93 228.666 159 381.999c15.333 44.667 23 73.834 23 87.501s-6 20.5 -18 20.5zM161.999 244c-28.667 0 -60.667 -25.332 -96 -75.999
c-43.333 -92 -72 -157.333 -86 -196c8 -1.33301 14 -2 18 -2c44 0 85.833 27.167 125.5 81.5s59.5 108.166 59.5 161.499c0 20.667 -7 31 -21 31z" />
    <glyph glyph-name="ydieresis" unicode="&#xff;" horiz-adv-x="292" 
d="M305 188c0 -64 -21.9961 -148.671 -65.9961 -254.004c-49.333 -114.667 -108.333 -211.667 -177 -291s-128.334 -119 -179.001 -119c-44 0 -66 21.667 -66 65c0 52.667 37.667 121 113 205c78.667 88.667 164.334 159.334 257.001 212.001c3.33301 0 0 -6 -10 -18
c-225.333 -187.333 -338 -322.666 -338 -405.999c0 -32 12.667 -48 38 -48c43.333 0 95.666 42 156.999 126s113.833 178.833 157.5 284.5s65.5 189.5 65.5 251.5c0 23.333 -4 39.333 -12 48c-88.667 -92.667 -150.667 -170.667 -186 -234c-11.333 -28 -21.333 -42 -30 -42
c-20 0 -30 5.66699 -30 17c-0.666992 6.66699 12.666 46.334 39.999 119.001l28 77c8.66699 26.667 13.667 53.334 15 80.001v4c0 7.33301 -0.833008 11.666 -2.5 12.999s-6 2 -13 2s-10.5 1.66699 -10.5 5c0 6 5.33301 9 16 9c42.667 0 64 -16 64 -48
c0 -15.333 -20 -72 -60 -170c23.333 32 57.166 71.833 101.499 119.5s72.166 71.5 83.499 71.5c0 -6 -2.66699 -11.333 -8 -16c30 -3.33301 46 -10 48 -20c2.66699 -17.333 4 -31.666 4 -42.999zM132.004 231.996c8.66699 0 15.333 6.66895 20 20.002l12 30
c4.66699 5.33301 8 9.66602 10 12.999v1v-1l-2 1c-8 0 -19.333 -5.33301 -34 -16s-22 -18.834 -22 -24.501s1.66699 -11 5 -16s7 -7.5 11 -7.5zM40.0029 231.998c-3.33301 0 -6.66602 2.49805 -9.99902 7.49805s-5 10.333 -5 16s7.33301 13.834 22 24.501s25.667 16 33 16
l3 -1v1v-1c-2 -3.33301 -5.33301 -7.66602 -10 -12.999l-13 -30c-6.66699 -13.333 -13.334 -20 -20.001 -20zM250.003 322.996c-3.33301 0 -6.83203 2.66602 -10.499 7.99902s-5.5 10.833 -5.5 16.5s7.66699 13.834 23 24.501s26.666 16 33.999 16l3 -1v1v-1
c-1.33301 -2 -5.33301 -6.33301 -12 -13l-11 -31c-6 -13.333 -13 -20 -21 -20zM159.004 322.995c-3.33301 0 -6.83301 2.66504 -10.5 7.99805s-5.5 10.833 -5.5 16.5s7.5 13.834 22.5 24.501s26.5 16 34.5 16l2 -1v1v-1c-2 -3.33301 -5.33301 -7.66602 -10 -12.999l-12 -31
c-6 -13.333 -13 -20 -21 -20z" />
    <glyph glyph-name="hbar" unicode="&#x127;" horiz-adv-x="0" 
d="M159 483l-35 -7.00098c-3.33301 0 -5 2 -5 6c0 10 12.833 15 38.5 15s44.667 -4.66699 57 -14s18.5 -21.166 18.5 -35.499s-15 -52.166 -45 -113.499l-59 -121l-59 -136c27.333 24 54.5 52.167 81.5 84.5s47.333 58.333 61 78s21.5 29.5 23.5 29.5h5
c24 0 36 -4.66699 36 -14c0 2.66699 -1.66699 1 -5 -5c-18.667 -34 -35.334 -75 -50.001 -123s-22 -79.333 -22 -94c0 -40.667 7 -61 21 -61c4.66699 0 14.334 6.33301 29.001 19c2 0 3 -2.66699 3 -8c0 -17.333 -9.5 -26 -28.5 -26s-34.5 9.66699 -46.5 29s-18 42 -18 68
s6.33301 56.333 19 91c-43.333 -44 -84.666 -81 -123.999 -111c-13.333 -36.667 -20 -62.334 -20 -77.001v-5c6 -4 9 -7.33301 9 -10c0 -6 -4 -9 -12 -9c-4 0 -7.66699 1.66699 -11 5c-35.333 36.667 -53 57 -53 61s2 6 6 6h2c18 10.667 33 20.667 45 30
c13.333 50.667 33.333 106.667 60 168l57 131c25.333 58 38.666 100.333 39.999 127c0 14.667 -6.33301 22 -19 22zM13 -36.001c-0.666992 3.33301 -1 8.16699 -1 14.5s1 15.5 3 27.5c-15.333 -8 -24.333 -12.333 -27 -13c6 -10 14.333 -19.667 25 -29zM267 329
c0 -5.33301 -6.33301 -8 -19 -8c-28 0 -85.333 -4.33301 -172 -13c-14 0 -21 2.33301 -21 7s3 9.66699 9 15c15.333 12.667 36.5 19 63.5 19s57 -2 90 -6s49.5 -8.66699 49.5 -14z" />
    <glyph glyph-name="dotlessi" unicode="&#x131;" horiz-adv-x="154" 
d="M87 116.5c-18.667 -54.333 -27.999 -91.834 -27.999 -112.501s4.33301 -31 13 -31c6 0 13.667 3.66699 23 11s15 12 17 14s4.33301 4 7 6c2.66699 0 4 -1.33301 4 -4c0 -8 -9.5 -17.5 -28.5 -28.5s-32.833 -16.5 -41.5 -16.5c-25.333 0 -38 18.333 -38 55
c0 54.667 20 127.667 60 219c0 2.66699 1.83301 7.66699 5.5 15s6.5 12 8.5 14c4.66699 4.66699 11 7 19 7c23.333 0 36 -4.66699 38 -14c-20.667 -35.333 -40.334 -80.166 -59.001 -134.499z" />
    <glyph glyph-name="ij" unicode="&#x133;" horiz-adv-x="312" 
d="M198 415c1.33301 0 2.00098 -1.66699 2.00098 -5l-5 -29c-10 -41.333 -25.333 -62 -46 -62c-15.333 0 -27.333 4 -36 12c25.333 17.333 53.666 45.333 84.999 84zM320.001 394c2 0 2.66699 -1.83203 2 -5.49902s-1 -6.83398 -1 -9.50098c-8 -54.667 -24.333 -82 -49 -82
c-15.333 0 -27.666 4.33301 -36.999 13c25.333 17.333 53.666 45.333 84.999 84zM230.001 212.001l-3 40.9971v2c0 4.66699 3 7 9 7s14.667 -2.66699 26 -8s18 -10.666 20 -15.999c2.66699 -10.667 4 -24.667 4 -42c0 -66.667 -23.167 -154.167 -69.5 -262.5
s-104 -202.5 -173 -282.5s-128.5 -120 -178.5 -120c-23.333 0 -40.166 5.16699 -50.499 15.5s-15.5 26.5 -15.5 48.5c0 43.333 24 96.833 72 160.5s113.667 127.5 197 191.5c-13.333 3.33301 -25.5 11.333 -36.5 24s-16.5 25.667 -16.5 39c0 54.667 20 127.667 60 219
c0 2.66699 1.83301 7.66699 5.5 15s6.5 12 8.5 14c4.66699 4.66699 11 7 19 7c23.333 0 36 -4.66699 38 -14c-20.667 -35.333 -40.334 -80.166 -59.001 -134.499s-28 -92.833 -28 -115.5s7 -34 21 -34c7.33301 0 34 14.333 80 43l8 4c1.33301 0 2 -1.16699 2 -3.5
s-4 -7.5 -12 -15.5c-118 -103.333 -203.667 -186.166 -257 -248.499s-80 -114.5 -80 -156.5c0 -32 12.333 -48 37 -48c48.667 0 103 41.167 163 123.5s109.833 176.5 149.5 282.5s59.5 194 59.5 264z" />
    <glyph glyph-name="Kcommaaccent" unicode="&#x136;" horiz-adv-x="455" 
d="M593 417c0 -4.66699 -3.33398 -7.00098 -10.001 -7.00098c-17.333 4.66699 -28.666 7 -33.999 7c-30 0 -67 -14.333 -111 -43s-99.167 -68.5 -165.5 -119.5l-123.5 -94.5c37.333 -77.333 83.333 -140.166 138 -188.499s99.667 -72.5 135 -72.5c18 0 27 8.33301 27 25
c0 16 -16.667 48.667 -50 98l2 2c4 0 11 -5 21 -15c32 -30.667 48 -58.667 48 -84c0 -15.333 -6.83301 -28 -20.5 -38s-31.167 -15 -52.5 -15c-42 0 -84.5 19.167 -127.5 57.5s-81.833 89.166 -116.5 152.499c-24 50.667 -36 76.834 -36 78.501s2.5 5.83398 7.5 12.501
s9 10 12 10s4.83301 -2.33301 5.5 -7c34 22.667 73.667 55 119 97l89 81c42 34 76 56.5 102 67.5s48.667 16.5 68 16.5s36.333 -2.33301 51 -7s22 -9.33398 22 -14.001zM31.999 -52.001c0 -8 2.33496 -18 7.00195 -30c5.33301 -14 7 -21 5 -21
c-10 0 -18.667 5.83301 -26 17.5s-11 29.834 -11 54.501c0 80.667 47.333 204 142 370c25.333 50.667 42.666 76 51.999 76c7.33301 0 15.666 -2.16699 24.999 -6.5s14 -7.83301 14 -10.5c-9.33301 -14 -16 -24.333 -20 -31l-15.5 -25l-19.5 -32
c-102 -176.667 -153 -297.334 -153 -362.001zM88.001 -204.001c21.333 21.333 32 38.668 32 52.001c0 5.33301 -3.33301 11.166 -10 17.499s-10 10.833 -10 13.5c0 14.667 7.33301 22 22 22c8 0 15.167 -2.33301 21.5 -7s9.5 -12.667 9.5 -24s-6 -26.833 -18 -46.5
s-26.333 -29.5 -43 -29.5c-2.66699 0 -4 0.666992 -4 2z" />
    <glyph glyph-name="kcommaaccent" unicode="&#x137;" horiz-adv-x="277" 
d="M150 483l-34.0029 -7c-4.66699 0 -7 2 -7 6c0 10 12.833 15 38.5 15s44.834 -4.66699 57.501 -14s19 -20.333 19 -33s-26 -78 -78 -196c-56 -122.667 -88.333 -197 -97 -223c2.66699 6 25.667 37.333 69 94l-20 17c0 4.66699 4.83301 12.667 14.5 24s16 17 19 17
s10.5 -4.33301 22.5 -13c30.667 34.667 62.5 65.5 95.5 92.5s56.5 40.5 70.5 40.5c6.66699 0 10 -7.33301 10 -22c0 -35.333 -13.667 -68.333 -41 -99s-58.666 -49.667 -93.999 -57c26.667 -43.333 40 -90.666 40 -141.999c0 -20 -2.16699 -40.333 -6.5 -61
s-9.33301 -31 -15 -31s-8.5 2.33301 -8.5 7l5 40c0 58.667 -27 116.667 -81 174c-51.333 -72.667 -80.666 -118.334 -87.999 -137.001c2 -2 3 -4 3 -6c0 -6 -4 -9 -12 -9c-11.333 0 -17 9.83301 -17 29.5s5.66699 49.5 17 89.5l77 193c40 104 60 165.167 60 183.5
s-6.33301 27.5 -19 27.5zM274.997 259c0 2 -0.5 3.00195 -1.5 3.00195s-18.333 -15.833 -52 -47.5s-52.167 -49.834 -55.5 -54.501c2.66699 -6 11 -9 25 -9s31.5 13.167 52.5 39.5s31.5 49.166 31.5 68.499zM140.497 -56.498c6.33301 -5 9.5 -13.167 9.5 -24.5
s-6 -26.666 -18 -45.999s-26.333 -29 -43 -29c-2.66699 0 -4 0.666992 -4 2l3 3c18.667 22.667 28.167 37.667 28.5 45s-3 14.166 -10 20.499s-10.5 10.833 -10.5 13.5c0 15.333 7.66699 23 23 23c8 0 15.167 -2.5 21.5 -7.5z" />
    <glyph glyph-name="kgreenlandic" unicode="&#x138;" horiz-adv-x="357" 
d="M40 -15l0.999023 -10c2 -2 3 -4 3 -6c0 -6 -4 -9 -12 -9c-11.333 0 -17 9.83301 -17 29.5s5.66699 49.5 17 89.5l77 193c40 104 60 165.167 60 183.5s-6.33301 27.5 -19 27.5l-34 -7c-4.66699 0 -7 2 -7 6c0 10 12.833 15 38.5 15s44.834 -4.66699 57.501 -14
s19 -20.333 19 -33s-15.167 -53.167 -45.5 -121.5l-71 -156.5l-36.5 -78c-20.667 -46.667 -31 -83 -31 -109zM431.999 346c-11.333 4.66699 -18.666 6.99805 -21.999 6.99805c-14.667 0 -51.5 -22.833 -110.5 -68.5s-111.5 -89.834 -157.5 -132.501
c25.333 -61.333 56.333 -111 93 -149s66.334 -57 89.001 -57c12 0 18 7 18 21c0 11.333 -11 37 -33 77l1 1c9.33301 0 19.333 -10.5 30 -31.5s16 -37 16 -48s-4.5 -20.333 -13.5 -28s-20.5 -11.5 -34.5 -11.5c-26 0 -55.5 12.167 -88.5 36.5s-59.667 58.833 -80 103.5
s-30.5 69.334 -30.5 74.001s3.5 10.667 10.5 18s11.667 11 14 11s3.83301 -1.33301 4.5 -4c8 6.66699 25.833 24.334 53.5 53.001l84.5 86c28.667 26.667 51.667 44.334 69 53.001s32.166 13 44.499 13s23.666 -2 33.999 -6s15.5 -7.66699 15.5 -11
c0 -4.66699 -2.33301 -7 -7 -7z" />
    <glyph glyph-name="ldot" unicode="&#x140;" horiz-adv-x="284" 
d="M82 -23l15.999 5c3.33301 0 5 -1.66699 5 -5c0 -10.667 -11.667 -16 -35 -16c-32 0 -48 26.667 -48 80c0 35.333 10.667 91.5 32 168.5s48.333 149.167 81 216.5s62 101 88 101c14.667 0 29.334 -4.83301 44.001 -14.5s22 -20.167 22 -31.5
c0 -48 -70.667 -154.667 -212 -320c-11.333 -49.333 -17 -92.333 -17 -129s8 -55 24 -55zM262.999 484c0 8 -2.33301 12 -7 12c-20 0 -49 -35.5 -87 -106.5s-67 -138.5 -87 -202.5c120.667 158 181 257 181 297zM230.499 194.5c6.33301 -5 9.5 -10.667 9.5 -17
s-3.16699 -11.833 -9.5 -16.5s-12.5 -7 -18.5 -7c-21.333 0 -32 9 -32 27c0 14 9.66699 21 29 21c8 0 15.167 -2.5 21.5 -7.5z" />
    <glyph glyph-name="lslash" unicode="&#x142;" horiz-adv-x="172" 
d="M72 150l115 1.99805v-2c0 -4 -16 -9.33301 -48 -16s-56.333 -10 -73 -10c-5.33301 -31.333 -8 -63.666 -8 -96.999s8 -50 24 -50l16 5c3.33301 0 5 -1.66699 5 -5c0 -10.667 -11.667 -16 -35 -16c-32 0 -48 26.667 -48 80c0 28.667 3 56.334 9 83.001
c-32.667 2 -49 6.33301 -49 13c0 8.66699 4.66699 13 14 13h40c18.667 84.667 48.167 168.667 88.5 252s73.166 125 98.499 125c14.667 0 29.334 -4.83301 44.001 -14.5s22 -20.167 22 -31.5c0 -48 -70.667 -154.667 -212 -320zM263 483.998c0 8 -2.33301 12 -7 12
c-20 0 -49 -35.5 -87 -106.5s-67 -138.5 -87 -202.5c120.667 158 181 257 181 297z" />
    <glyph glyph-name="OE" unicode="&#x152;" horiz-adv-x="985" 
d="M975 463c7.33301 26.667 16.998 40.665 28.998 41.998c22.667 0 34 -4.33301 34 -13c-1.33301 0 -8.66602 -9.33301 -21.999 -28s-26.666 -39.667 -39.999 -63s-20 -40 -20 -50l3 -15c0 -1.33301 -0.666992 -2 -2 -2c-10 0 -15 11.833 -15 35.5s7.33301 48.834 22 75.501
c-6.66699 1.33301 -14.334 2 -23.001 2c-70 0 -141.667 -27.667 -215 -83s-122.666 -118.333 -147.999 -189c152.667 0 256.667 7.66699 312 23c5.33301 0 8 -1.66699 8 -5c0 -12 -41.333 -24.333 -124 -37s-152 -19.667 -208 -21c-2 -12.667 -3 -24.667 -3 -36
c0 -43.333 14.833 -79.166 44.5 -107.499s67.834 -42.5 114.501 -42.5c93.333 0 176 38.667 248 116c9.33301 9.33301 16 14 20 14c2.66699 0 4 -2.5 4 -7.5s-3 -10.833 -9 -17.5c-36 -40.667 -82.333 -72.5 -139 -95.5s-109.5 -34.5 -158.5 -34.5
s-89.167 12.833 -120.5 38.5s-49 60.834 -53 105.501c-90 -95.333 -203 -143 -339 -143c-44 0 -80.5 14.667 -109.5 44s-43.5 66.333 -43.5 111c0 59.333 23.333 118.166 70 176.499s105.167 105.5 175.5 141.5s138.833 54 205.5 54c46.667 0 84 -9.16699 112 -27.5
s42 -43.166 42 -74.499c0 -12 -1.66699 -21.667 -5 -29c42.667 45.333 91 81.666 145 108.999s106 41 156 41c25.333 0 42.666 -2.66699 51.999 -8zM502.998 182.998l28.001 -6.00195c1.33301 3.33301 3.33301 9.66602 6 18.999c5.33301 18.667 15 39 29 61
c-4.66699 26 -17.167 48.833 -37.5 68.5s-45.5 33.834 -75.5 42.501c-11.333 2.66699 -31.833 4.83398 -61.5 6.50098s-45.834 3.16699 -48.501 4.5l3 2c23.333 7.33301 50.5 11 81.5 11s63.167 -7.83301 96.5 -23.5s57.333 -36.5 72 -62.5c4.66699 12 7 24 7 36
c0 28.667 -11.833 51.5 -35.5 68.5s-55.167 25.5 -94.5 25.5c-60 0 -120.667 -16.167 -182 -48.5s-112.333 -75.833 -153 -130.5s-61 -110.667 -61 -168c0 -44 12.833 -78 38.5 -102s61.5 -36 107.5 -36c87.333 0 171.333 36.333 252 109
c14.667 12.667 24.667 23.334 30 32.001s10 24 14 46c-3.33301 0 -7.5 5.83301 -12.5 17.5s-7.5 19.167 -7.5 22.5s1.33301 5 4 5z" />
    <glyph glyph-name="oe" unicode="&#x153;" horiz-adv-x="430" 
d="M423 125c3.33301 0 5 -1.50098 5 -4.50098s-0.666992 -5.83301 -2 -8.5c-70 -102 -127.667 -153 -173 -153s-73 16.333 -83 49c-23.333 -25.333 -52.333 -38 -87 -38c-54 0 -81 28.333 -81 85c0 22.667 5.16699 46.834 15.5 72.501s23.166 46.5 38.499 62.5
c-7.33301 12 -11 27.667 -11 47s8 36.833 24 52.5s37.333 23.5 64 23.5s49.167 -12.333 67.5 -37s28.166 -54 29.499 -88c44 56.667 82.667 85 116 85c16 0 30.167 -5.16699 42.5 -15.5s18.5 -22.833 18.5 -37.5c0 -25.333 -15.667 -50.333 -47 -75s-61.666 -37 -90.999 -37
c-6.66699 0 -10 1.33301 -10 4l3 5c77.333 24 116 63.333 116 118c0 8 -3 12 -9 12c-7.33301 0 -20.333 -7.66699 -39 -23c-32.667 -26.667 -61 -60 -85 -100s-36 -73.667 -36 -101s10.333 -41 31 -41c22.667 0 48.667 12.333 78 37c16 13.333 37.333 34.333 64 63
s40.334 43 41.001 43zM105 164.999c6.66699 -4.66699 12.001 -6.83496 16.001 -6.50195s6.33301 0.5 7 0.5c3.33301 0 5 -1.66699 5 -5c0 -5.33301 -4.5 -8 -13.5 -8s-17.167 2.33301 -24.5 7c-35.333 -41.333 -53 -80.166 -53 -116.499s13.667 -54.5 41 -54.5
c29.333 0 56.666 24.333 81.999 73l4 9c1.33301 6.66699 6 22 14 46s12 44.333 12 61s-3 30.334 -9 41.001c-25.333 -4 -52.333 -19.667 -81 -47zM116.001 284.998c-14 0 -25.666 -6.33301 -34.999 -19s-14 -25.5 -14 -38.5s1 -22.5 3 -28.5c45.333 34 76.666 51 93.999 51
h3c-8 23.333 -25 35 -51 35z" />
    <glyph glyph-name="Rcommaaccent" unicode="&#x156;" horiz-adv-x="583" 
d="M617 428.5c51.333 -21 77.0039 -49 77.0039 -84s-17.167 -67.333 -51.5 -97s-77.5 -53 -129.5 -70s-104 -25.5 -156 -25.5c-18 0 -34.333 1 -49 3c79.333 -128 138.666 -192 177.999 -192c15.333 0 25 8.33301 29 25l8 42c6.66699 -4.66699 10 -13.834 10 -27.501
s-6.16699 -27.167 -18.5 -40.5s-28.833 -20 -49.5 -20s-51.5 21.167 -92.5 63.5s-82.5 96.833 -124.5 163.5c-53.333 -90.667 -80 -158 -80 -202c0 -12 4 -20.333 12 -25c0 -2 -1.66699 -3 -5 -3c-14 0 -21 19.333 -21 58c0 59.333 23.667 129.666 71 210.999
c-10.667 19.333 -16 31.666 -16 36.999c0 12.667 8.66699 19 26 19c7.33301 0 12.666 -4 15.999 -12c56 84 113 140 171 168c2 0.666992 4.5 1 7.5 1s7.5 -1.66699 13.5 -5s9 -6.5 9 -9.5s-1 -4.5 -3 -4.5l-46 -46c-38.667 -39.333 -81.334 -88.333 -128.001 -147
c10 -18 18.5 -29.167 25.5 -33.5s20.167 -6.5 39.5 -6.5c45.333 0 94 9.66699 146 29s95.667 43.333 131 72s53 56 53 82s-20 46.5 -60 61.5s-92.667 22.5 -158 22.5c-171.333 0 -309.666 -36.667 -414.999 -110c-8.66699 -5.33301 -15.334 -8 -20.001 -8
c-10.667 0 -16 5.33301 -16 16c0 22.667 22.5 43.834 67.5 63.501s98 34.834 159 45.501s119.167 16.334 174.5 17.001h13c83.333 0 150.666 -10.5 201.999 -31.5zM268.504 -94.5c6.33301 -5 9.49902 -13.167 9.49902 -24.5s-6 -26.666 -18 -45.999s-26.333 -29 -43 -29
c-2.66699 0 -4 0.666992 -4 2c18.667 20.667 29.334 38 32.001 52c0 5.33301 -3.33301 11.166 -10 17.499s-10 10.833 -10 13.5c0 14.667 7.33301 22 22 22c8 0 15.167 -2.5 21.5 -7.5z" />
    <glyph glyph-name="rcommaaccent" unicode="&#x157;" horiz-adv-x="260" 
d="M305 272c0 2.66699 -3.66602 -1.00098 -10.999 -11.001c-25.333 -35.333 -39 -61.333 -41 -78c0 -18 6.33301 -29 19 -33c4.66699 -1.33301 7 -2.33301 7 -3c0 -5.33301 -6.5 -8 -19.5 -8s-24.167 5.16699 -33.5 15.5s-14 22 -14 35s1.66699 24.167 5 33.5
c-32.667 -26 -59.834 -52.667 -81.501 -80s-36.5 -51 -44.5 -71s-14 -38.167 -18 -54.5s-7.33301 -28.666 -10 -36.999s-7 -12.5 -13 -12.5s-12.667 1.66699 -20 5s-11 7.33301 -11 12c0 11.333 11 51.5 33 120.5s33 120.833 33 155.5c0 11.333 -4.66699 17.5 -14 18.5
s-14 2.83301 -14 5.5c0 6 5 9 15 9c44.667 0 67 -18.333 67 -55c0 -10.667 -11 -50 -33 -118c36 58.667 76 99 120 121c10.667 24 26.5 36 47.5 36s31.5 -2 31.5 -6zM78.501 -92.001c6.33301 -4.66699 9.5 -12.665 9.5 -23.998s-6 -26.833 -18 -46.5
s-26.333 -29.5 -43 -29.5c-3.33301 0 -5 0.666992 -5 2c19.333 21.333 30.333 38.666 33 51.999c0 5.33301 -3.5 11.166 -10.5 17.499s-10.5 10.833 -10.5 13.5c0 14.667 7.66699 22 23 22c8 0 15.167 -2.33301 21.5 -7z" />
    <glyph glyph-name="Scaron" unicode="&#x160;" horiz-adv-x="318" 
d="M435 434c0 6 -8.33398 8.99902 -25.001 8.99902c-40 0 -83 -7.16699 -129 -21.5s-85.5 -34.166 -118.5 -59.499s-49.5 -50.5 -49.5 -75.5s29 -67.833 87 -128.5s87 -106.334 87 -137.001c0 -22 -11 -40.333 -33 -55s-48.333 -22 -79 -22h-25
c-64 0 -108.667 19.667 -134 59l2 6c28.667 -13.333 59.334 -20 92.001 -20s65.167 6.33301 97.5 19s48.5 27.667 48.5 45c0 10 -14.333 30.333 -43 61c-55.333 58 -89.833 97.333 -103.5 118s-20.5 45.334 -20.5 74.001c0 74 69 129 207 165c61.333 14 96.333 21 105 21
s16.667 -1 24 -3l25 -26c10.667 -12 16.667 -22 18 -30c0 -14 -17.833 -30.5 -53.5 -49.5s-57.5 -28.5 -65.5 -28.5l-1 5l51 35c24 16 36 29 36 39zM247.999 613.999c0 4.66699 2.00488 7 6.00488 7c5.33301 0 33.666 -21 84.999 -63
c9.33301 9.33301 27.666 22.5 54.999 39.5s45.666 26.167 54.999 27.5l3 -6l-4 -7c-38.667 -29.333 -71.334 -57.333 -98.001 -84c-6.66699 2.66699 -25.334 16.5 -56.001 41.5s-46 39.833 -46 44.5z" />
    <glyph glyph-name="scaron" unicode="&#x161;" horiz-adv-x="203" 
d="M210 267c14 -14 21.001 -22.833 21.001 -26.5s-1.66699 -5.5 -5 -5.5c-14.667 3.33301 -24 5 -28 5c-30 0 -60.833 -11 -92.5 -33s-47.5 -44.333 -47.5 -67c0 -4.66699 15.667 -24.834 47 -60.501s47 -60 47 -73s-9.33301 -26.167 -28 -39.5s-37.5 -20 -56.5 -20
s-35.167 2.83301 -48.5 8.5s-20 11.5 -20 17.5c76.667 16 115 35.333 115 58c0 4.66699 -9 15 -27 31c-34.667 30.667 -52 65 -52 103c0 26.667 17.167 53.834 51.5 81.501s66.166 41.5 95.499 41.5c4.66699 0 14 -7 28 -21zM72.001 472
c0 4.66699 1.66895 7.00098 5.00195 7.00098c5.33301 0 34 -21 86 -63c9.33301 9.33301 27.666 22.5 54.999 39.5s45.666 25.833 54.999 26.5l2 -5l-3 -8c-46.667 -34.667 -78 -61.334 -94 -80.001l-5 -3c-5.33301 2 -23.5 15.667 -54.5 41s-46.5 40.333 -46.5 45z" />
    <glyph glyph-name="Ydieresis" unicode="&#x178;" horiz-adv-x="540" 
d="M542 323c10 3.33301 18.667 4.99805 26 4.99805s11 -1.16699 11 -3.5s-1.5 -4.83301 -4.5 -7.5s-6.5 -5 -10.5 -7c-13.333 -7.33301 -22.666 -12.333 -27.999 -15c-20.667 -63.333 -70.667 -150.666 -150 -261.999c-72.667 -106.667 -128.667 -180.667 -168 -222
s-71 -62 -95 -62c-31.333 0 -47 14.667 -47 44c0 18 14 51 42 99s60.667 92.333 98 133c18 20 54.667 54.667 110 104l150 139c5.33301 4.66699 12.333 26.334 21 65.001s13 67 13 85s-4.66699 27 -14 27c-26.667 0 -122.667 -115 -288 -345l-49 -68
c-8.66699 -18 -20.334 -27 -35.001 -27s-22 6.66699 -22 20v3l70 165c22.667 53.333 39.667 102.333 51 147s17.333 75.667 18 93c0 40.667 -13 61 -39 61c-12.667 0 -34.167 -11.5 -64.5 -34.5s-57.833 -46.167 -82.5 -69.5s-37 -37 -37 -41h1c-2 0 -3 0.833008 -3 2.5
s1 4.16699 3 7.5c27.333 40 58 73.833 92 101.5s63 41.5 87 41.5c48.667 0 73 -30.667 73 -92c0 -69.333 -30.667 -174 -92 -314l151 211c82.667 112 134.5 168 155.5 168s31.5 -4.33301 31.5 -13c-0.666992 -1.33301 -2.66699 -3.33301 -6 -6c26 -26 39 -53.333 39 -82
c0 -16 -2.66699 -33 -8 -51zM119 -192.002c-7.33301 -16 -11 -26.166 -11 -30.499s1.66699 -6.5 5 -6.5h4c2.66699 0 10.667 5.66699 24 17c50 42 106.167 106.167 168.5 192.5s112.5 169.166 150.5 248.499c-173.333 -156.667 -287 -297 -341 -421zM453 524.999
c-3.33301 0 -6.83301 2.66699 -10.5 8s-5.5 11 -5.5 17s7.5 14.167 22.5 24.5s26.167 15.5 33.5 15.5l3 -1v-1c-2.66699 -2.66699 -6 -7 -10 -13l-13 -30c-5.33301 -13.333 -12 -20 -20 -20zM362 524.999c-3.33301 0 -6.83301 2.66699 -10.5 8s-5.5 10.666 -5.5 15.999
s7.33301 13.5 22 24.5s26 16.5 34 16.5l4 -1v-1c-2 -1.33301 -6 -5.66602 -12 -12.999l-12 -30c-5.33301 -13.333 -12 -20 -20 -20z" />
    <glyph glyph-name="Zcaron" unicode="&#x17d;" horiz-adv-x="669" 
d="M669 -44c0 -45.333 -24.3301 -83.668 -72.9971 -115.001c-15.333 -9.33301 -25 -14 -29 -14s-6 1 -6 3c0.666992 0.666992 1 1.33398 1 2.00098c57.333 51.333 86 93.666 86 126.999c0 38.667 -63.667 58 -191 58c-60.667 0 -126.834 -5 -198.501 -15
s-129.334 -20.5 -173.001 -31.5s-65.5 -18.833 -65.5 -23.5h1c-11.333 0 -17 8 -17 24l-1 8c0 2.66699 2 5 6 7s18.667 6.66699 44 14l-1 7c0 10 17.5 28.5 52.5 55.5s71.333 52.333 109 76s89.167 54.167 154.5 91.5c159.333 90 239.666 137 240.999 141
c-21.333 24 -69.333 36 -144 36c-20.667 0 -63.5 -3.33301 -128.5 -10s-103.5 -10 -115.5 -10c-27.333 0 -41 8 -41 24c0 6.66699 3 12.334 9 17.001c6 -5.33301 11.5 -8 16.5 -8s44.833 4.33301 119.5 13s134.667 13 180 13c68 0 109 -32.333 123 -97
c6.66699 -7.33301 10 -19 10 -35c0 -4 -17.333 -13 -52 -27l-63 -27c-96 -45.333 -207.333 -107.333 -334 -186l-107 -65c165.333 28 302.333 42 411 42c52 0 94.333 -8.5 127 -25.5s49 -40.167 49 -69.5zM373.503 549.498c-31 25 -46.499 39.999 -46.499 44.999
s2 7.5 6 7.5c5.33301 0 33.666 -21 84.999 -63c10.667 10 29.5 23.333 56.5 40s45.167 25.334 54.5 26.001l2 -5l-3 -7c-47.333 -36 -79 -63 -95 -81l-4 -3c-6 2 -24.5 15.5 -55.5 40.5z" />
    <glyph glyph-name="zcaron" unicode="&#x17e;" horiz-adv-x="334" 
d="M106 252l156.004 14.9961c19.333 0 35.666 -7.16699 48.999 -21.5s20 -33.833 20 -58.5c0 -3.33301 -19.333 -18.666 -58 -45.999l-168 -119c26.667 7.33301 74.667 11 144 11c50.667 0 76 -23.333 76 -70c0 -26 -6.66699 -39 -20 -39c-2 0 -3 1.33301 -3 4
c8 22.667 12 35.334 12 38.001c0 23.333 -35 35 -105 35s-135.667 -13.333 -197 -40c-2 0 -3 4.5 -3 13.5s3 17.5 9 25.5l1 1c9.33301 1.33301 16.333 5.33301 21 12c0 10.667 45.667 46.834 137 108.501s137.666 94.834 138.999 99.501
c-8.66699 11.333 -20.834 17 -36.501 17s-47.834 -5.5 -96.501 -16.5s-77 -16.5 -85 -16.5s-12 6.83301 -12 20.5s4 24.167 12 31.5c4 -3.33301 6.66699 -5 8 -5zM200.504 426.496c-31 25 -46.498 40.001 -46.498 45.001s1.66699 7.5 5 7.5c6 0 34.667 -21 86 -63
c9.33301 9.33301 27.666 22.5 54.999 39.5s45.666 25.833 54.999 26.5l2 -5l-3 -8c-46.667 -34.667 -78 -61.334 -94 -80.001l-4 -3c-6 2 -24.5 15.5 -55.5 40.5z" />
    <glyph glyph-name="florin" unicode="&#x192;" horiz-adv-x="256" 
d="M368 474.5c7.33301 -8.33301 11.001 -15.501 11.001 -21.501s-2 -10 -6 -12l-33 -26c-74.667 -66.667 -160.667 -165 -258 -295c30.667 0 54.667 -9.66699 72 -29s26 -43.833 26 -73.5s-11 -65.167 -33 -106.5s-49.167 -77.666 -81.5 -108.999s-61.166 -47 -86.499 -47
c-53.333 0 -80 28.333 -80 85c0 31.333 32.167 101.333 96.5 210s133.166 208.667 206.499 300s121.333 137 144 137c7.33301 0 14.666 -4.16699 21.999 -12.5zM149.001 1.99902c0 61.333 -24.6689 92.001 -74.002 92.001c-11.333 0 -30.166 -19.5 -56.499 -58.5
s-47.333 -77.833 -63 -116.5s-23.5 -70.334 -23.5 -95.001c0 -34 15.333 -51 46 -51c19.333 0 42.833 14 70.5 42s51.334 60.333 71.001 97s29.5 66.667 29.5 90z" />
    <glyph glyph-name="circumflex" unicode="&#x2c6;" horiz-adv-x="279" 
d="M55 220c-4.66699 0 -6.99902 2.66699 -6.99902 8s15.833 20.5 47.5 45.5s50.167 38.167 55.5 39.5l4 -2c18 -20 49.333 -47 94 -81l5 -8l-4 -5c-9.33301 0.666992 -27.833 9.5 -55.5 26.5s-45.834 30.167 -54.501 39.5c-52 -42 -80.333 -63 -85 -63z" />
    <glyph glyph-name="caron" unicode="&#x2c7;" horiz-adv-x="279" 
d="M72 472c0 4.66699 1.66895 7.00098 5.00195 7.00098c5.33301 0 34 -21 86 -63c9.33301 9.33301 27.666 22.5 54.999 39.5s45.666 25.833 54.999 26.5l2 -5l-3 -8c-46.667 -34.667 -78 -61.334 -94 -80.001l-5 -3c-5.33301 2 -23.5 15.667 -54.5 41s-46.5 40.333 -46.5 45
z" />
    <glyph glyph-name="breve" unicode="&#x2d8;" horiz-adv-x="139" 
d="M174 318c0 -2 -0.333008 -3.66602 -1 -4.99902c-19.333 -42.667 -46 -64 -80 -64c-15.333 0 -29 5 -41 15s-18 22 -18 36c0 5.33301 2 8 6 8c10 -20.667 24.333 -34 43 -40c4.66699 -2 10.667 -3 18 -3s17.333 4.66699 30 14s23.167 18.666 31.5 27.999s11.5 14 9.5 14
c1.33301 0 2 -1 2 -3z" />
    <glyph glyph-name="dotaccent" unicode="&#x2d9;" horiz-adv-x="131" 
d="M58 339c-4 0 -7.66699 2.49902 -11 7.49902s-5 10.333 -5 16s7.5 13.834 22.5 24.501s26.167 16 33.5 16l3 -1v1l1 -1l-11 -13l-13 -30c-6 -13.333 -12.667 -20 -20 -20z" />
    <glyph glyph-name="ring" unicode="&#x2da;" horiz-adv-x="172" 
d="M133 370c0 -17.333 -7.00098 -33.5 -21.001 -48.5s-30.833 -22.5 -50.5 -22.5s-29.5 10 -29.5 30s7.83301 38.5 23.5 55.5s30.834 25.5 45.501 25.5c21.333 0 32 -13.333 32 -40zM101.499 331c8.33301 12 12.499 25.833 12.499 41.5s-5.33301 23.5 -16 23.5
c-3.33301 0 -10.666 -3.33301 -21.999 -10l9 -4c0 -0.666992 -1.16699 -2.5 -3.5 -5.5s-4.5 -6.33301 -6.5 -10l-7 -12.5c-5.33301 -8 -8 -16.833 -8 -26.5s4.83301 -14.5 14.5 -14.5s18.667 6 27 18z" />
    <glyph glyph-name="ogonek" unicode="&#x2db;" horiz-adv-x="177" 
d="M152 -109c0 -5.33301 -10.833 -12.002 -32.5 -20.002s-38.167 -12 -49.5 -12c-27.333 0 -41 10.667 -41 32c0 14.667 5.5 32.834 16.5 54.501s21.167 32.834 30.5 33.501l2 -2c-17.333 -24.667 -26 -47 -26 -67s11.667 -30 35 -30c9.33301 0 28 5.66699 56 17
c6 0 9 -2 9 -6z" />
    <glyph glyph-name="tilde" unicode="&#x2dc;" horiz-adv-x="205" 
d="M81 343l72 -15.999c10.667 0 21.334 5.33301 32.001 16c2.66699 0 4 -1 4 -3s-1.83301 -5.83301 -5.5 -11.5s-9.66699 -11.334 -18 -17.001s-16.333 -8.5 -24 -8.5s-21.334 3.33301 -41.001 10s-32.334 10 -38.001 10s-19.167 -6.66699 -40.5 -20l-1 2c0 2 2.5 6 7.5 12
s12.333 11.833 22 17.5s19.834 8.5 30.501 8.5z" />
    <glyph glyph-name="hungarumlaut" unicode="&#x2dd;" horiz-adv-x="213" 
d="M76 474c6.66699 -2.66699 10.001 -10 10.001 -22s-2.16699 -25.5 -6.5 -40.5s-10.5 -29.167 -18.5 -42.5c-5.33301 0 -8 10.5 -8 31.5s1.16699 38.167 3.5 51.5s4.16602 20.833 5.49902 22.5s3.5 2.5 6.5 2.5s5.5 -1 7.5 -3zM168.001 474
c6.66699 -2.66699 9.99902 -10 9.99902 -22s-2.16699 -25.5 -6.5 -40.5s-10.5 -29.167 -18.5 -42.5c-4.66699 0 -7 10.5 -7 31.5s1 38.167 3 51.5s3.83301 20.833 5.5 22.5s3.83398 2.5 6.50098 2.5s5 -1 7 -3z" />
    <glyph glyph-name="endash" unicode="&#x2013;" horiz-adv-x="306" 
d="M300 168c0 -6 -22.5 -13.5 -67.5 -22.5s-78.5 -13.5 -100.5 -13.5c-78.667 0 -118 6 -118 18s6.33301 18 19 18l194 1c28 0 52 0.666992 72 2c0.666992 -0.666992 1 -1.66699 1 -3z" />
    <glyph glyph-name="emdash" unicode="&#x2014;" horiz-adv-x="456" 
d="M458 168c0 -7.33301 -59.667 -16.667 -179 -28c-2.66699 0 -18.167 -2 -46.5 -6s-71.833 -6 -130.5 -6s-88 4 -88 12c0 4 2.5 9.66699 7.5 17s8.83301 11 11.5 11l315 1c53.333 0 90 0.666992 110 2v-3z" />
    <glyph glyph-name="quoteleft" unicode="&#x2018;" horiz-adv-x="132" 
d="M80 428c0 -4.66699 3.5 -10.167 10.5 -16.5s10.5 -10.833 10.5 -13.5c0 -15.333 -7.66699 -23 -23 -23c-7.33301 0 -14.333 2.5 -21 7.5s-10 13.167 -10 24.5s6.16699 26.833 18.5 46.5s26.5 29.5 42.5 29.5c2.66699 0 4 -0.666992 4 -2c-21.333 -21.333 -32 -39 -32 -53
z" />
    <glyph glyph-name="quoteright" unicode="&#x2019;" horiz-adv-x="119" 
d="M82 375c22.667 22.667 34 39.999 34 51.999c0 4.66699 -3.5 10.334 -10.5 17.001s-10.5 11.667 -10.5 15c0 14.667 7.66699 22 23 22c7.33301 0 14.333 -2.33301 21 -7s10 -13 10 -25s-6.33301 -27.833 -19 -47.5s-27 -29.5 -43 -29.5c-3.33301 0 -5 1 -5 3z" />
    <glyph glyph-name="quotesinglbase" unicode="&#x201a;" horiz-adv-x="65" 
d="M65 26c0 -10.667 -2.16797 -27.833 -6.50098 -51.5s-8.16602 -35.5 -11.499 -35.5c-0.666992 0 -1.83398 13.5 -3.50098 40.5s-2.5 42.5 -2.5 46.5c10 2 16.333 3 19 3s4.33398 -0.333008 5.00098 -1v-2z" />
    <glyph glyph-name="quotedblleft" unicode="&#x201c;" horiz-adv-x="155" 
d="M120 434c0 -5.33301 3.33301 -11 10 -17s10 -10 10 -12c0 -14.667 -7 -22 -21 -22c-8 0 -15.333 2.5 -22 7.5s-10 13 -10 24s6.16699 26.5 18.5 46.5s26.833 30 43.5 30c2.66699 0 4 -0.666992 4 -2c-22 -22 -33 -40.333 -33 -55zM44 435c0 -5.33301 3.33301 -11 10 -17
s10 -10.333 10 -13c0 -14.667 -7.33301 -22 -22 -22c-8 0 -15.167 2.33301 -21.5 7s-9.5 12.667 -9.5 24s6.33301 27 19 47s26.667 30 42 30c2.66699 0 4 -1 4 -3c-21.333 -24 -32 -41.667 -32 -53z" />
    <glyph glyph-name="quotedblright" unicode="&#x201d;" horiz-adv-x="155" 
d="M137 480.5c6.66699 -5 10 -13 10 -24s-6.5 -26.5 -19.5 -46.5s-27.167 -30 -42.5 -30c-3.33301 0 -5 1 -5 3c22 23.333 33 39 33 47s-3.33301 15.333 -10 22s-10 11 -10 13c0 15.333 7.66699 23 23 23c7.33301 0 14.333 -2.5 21 -7.5zM60 480.5
c6.66699 -5 10.001 -13.333 10.001 -25s-6.33301 -27.167 -19 -46.5s-27.334 -29 -44.001 -29c-2 0 -3 0.666992 -3 2c22 24 33 40 33 48s-3.5 15.333 -10.5 22s-10.5 11 -10.5 13c0 15.333 7.66699 23 23 23c7.33301 0 14.333 -2.5 21 -7.5z" />
    <glyph glyph-name="quotedblbase" unicode="&#x201e;" horiz-adv-x="118" 
d="M118 26c0 -10 -2.5 -27 -7.5 -51s-9.16699 -36 -12.5 -36c-0.666992 0 -1.66699 13 -3 39s-2 42 -2 48c10 2 17.667 3 23 3l2 -1v-2zM65 26c0 -10.667 -2.16797 -27.833 -6.50098 -51.5s-8.16602 -35.5 -11.499 -35.5c-0.666992 0 -1.83398 13.5 -3.50098 40.5
s-2.5 42.5 -2.5 46.5c10 2 16.333 3 19 3s4.33398 -0.333008 5.00098 -1v-2z" />
    <glyph glyph-name="dagger" unicode="&#x2020;" horiz-adv-x="292" 
d="M21 289c12 4 51.334 6.00098 118.001 6.00098c2 40.667 3 86 3 136c0 7.33301 8.33301 12.666 25 15.999l1 -15c0 -35.333 -2.66699 -81 -8 -137c43.333 0 75.333 -1.5 96 -4.5s31 -5.16699 31 -6.5c0 -3.33301 -18.833 -5 -56.5 -5s-61.5 -0.333008 -71.5 -1
c-6 -70.667 -13.167 -137.667 -21.5 -201s-14.5 -95 -18.5 -95c-2 0 -3 1.33301 -3 4c8 92.667 15.667 189.667 23 291c-52 -3.33301 -81.333 -5 -88 -5s-12.834 2 -18.501 6s-9.5 7.66699 -11.5 11z" />
    <glyph glyph-name="daggerdbl" unicode="&#x2021;" horiz-adv-x="281" 
d="M21 289c12 4 51.335 6.00098 118.002 6.00098c2 40.667 3 86 3 136c0 7.33301 8.33301 12.666 25 15.999l1 -15c0 -35.333 -2.66699 -81 -8 -137c43.333 0 75.333 -1.5 96 -4.5s31 -5.16699 31 -6.5c0 -3.33301 -18.833 -5 -56.5 -5s-61.5 -0.333008 -71.5 -1l-5 -55
c10 0 33.5 -1.16699 70.5 -3.5s55.5 -4.5 55.5 -6.5c0 -3.33301 -2.66699 -5 -8 -5h-43c-34 0 -59.667 -0.666992 -77 -2c-14.667 -149.333 -25.667 -224 -33 -224c-2 0 -3 1.33301 -3 4c1.33301 14 2.66602 29.333 3.99902 46c1.33301 28 6 85.667 14 173
c-53.333 -3.33301 -83.166 -5 -89.499 -5s-12.5 2 -18.5 6s-9.66699 7.66699 -11 11c8 4 48 6 120 6c1.33301 11.333 2.66602 29.333 3.99902 54c-52 -3.33301 -81.333 -5 -88 -5s-12.834 2 -18.501 6s-9.5 7.66699 -11.5 11z" />
    <glyph glyph-name="bullet" unicode="&#x2022;" horiz-adv-x="404" 
d="M318.5 265.5c32.333 -32.333 48.5 -70.5 48.5 -114.5s-16 -82.167 -48 -114.5s-70.5 -48.5 -115.5 -48.5s-83.333 16 -115 48s-47.5 70.5 -47.5 115.5s16.167 83.333 48.5 115s70.5 47.5 114.5 47.5s82.167 -16.167 114.5 -48.5z" />
    </font>
</defs>
</svg>
