<?xml version="1.0" standalone="no"?>
<!DOCTYPE svg PUBLIC "-//W3C//DTD SVG 1.1//EN" "http://www.w3.org/Graphics/SVG/1.1/DTD/svg11.dtd" >
<svg xmlns="http://www.w3.org/2000/svg" xmlns:xlink="http://www.w3.org/1999/xlink" version="1.1">
<metadata>
Created by FontForge 20170731 at Wed Apr  7 22:01:02 1999
 By Aleksey,,,
Digitized data copyright The Monotype Corporation 1991-1995. All rights reserved. Rockwell is a trademark of The Monotype Corporation which may be registered in certain jurisdictions.
</metadata>
<defs>
<font id="Rockwell-CondensedBold" horiz-adv-x="682" >
  <font-face 
    font-family="Rockwell Condensed"
    font-weight="700"
    font-stretch="condensed"
    units-per-em="2048"
    panose-1="2 6 9 2 2 1 5 2 4 3"
    ascent="1638"
    descent="-410"
    x-height="1004"
    cap-height="1438"
    bbox="-254 -459 2060 1927"
    underline-thickness="102"
    underline-position="-358"
    unicode-range="U+0020-FB02"
  />
<missing-glyph horiz-adv-x="2048" 
d="M256 0v1536h1536v-1536h-1536zM384 128h1280v1280h-1280v-1280z" />
    <glyph glyph-name=".notdef" horiz-adv-x="2048" 
d="M256 0v1536h1536v-1536h-1536zM384 128h1280v1280h-1280v-1280z" />
    <glyph glyph-name=".null" horiz-adv-x="0" 
 />
    <glyph glyph-name="nonmarkingreturn" 
 />
    <glyph glyph-name="space" unicode=" " 
 />
    <glyph glyph-name="exclam" unicode="!" horiz-adv-x="598" 
d="M238 481l-91 545v412h306v-412l-91 -545h-124zM139 0v319h320v-319h-320z" />
    <glyph glyph-name="quotedbl" unicode="&#x22;" horiz-adv-x="971" 
d="M98 1438h289v-258l-94 -326h-100l-95 326v258zM584 1438h288v-258l-94 -326h-100l-94 326v258z" />
    <glyph glyph-name="numbersign" unicode="#" horiz-adv-x="1368" 
d="M248 373h-168v190h207l63 301h-270v191h311l80 383h191l-80 -383h352l80 383h190l-80 -383h166v-191h-207l-63 -301h270v-190h-309l-80 -379h-190l80 379h-353l-80 -379h-190zM541 864l-64 -301h352l64 301h-352z" />
    <glyph glyph-name="dollar" unicode="$" horiz-adv-x="961" 
d="M442 -193v173q-363 26 -381 436h256q8 -224 125 -228v418q-176 133 -257 241.5t-81 237.5q0 140 89.5 233.5t248.5 111.5v38h109v-38q310 -31 330 -379h-230q-4 141 -100 174v-351q187 -144 268.5 -264.5t81.5 -261.5q0 -148 -94.5 -251t-255.5 -117v-173h-109zM442 965
v260q-88 -24 -88 -105q0 -83 88 -155zM551 508v-320q46 9 73 44.5t27 82.5q0 102 -100 193z" />
    <glyph glyph-name="percent" unicode="%" horiz-adv-x="1237" 
d="M258 -16l567 1470h154l-567 -1470h-154zM260 659q-125 0 -178 96t-53 302q0 211 55.5 304t175.5 93t174.5 -96t54.5 -301q0 -207 -55 -302.5t-174 -95.5zM301 938v236q0 83 -8 107t-33 24t-34 -24.5t-9 -109.5v-231q0 -84 8.5 -107.5t32.5 -23.5q27 0 35 22.5t8 106.5z
M981 -16q-125 0 -178 95.5t-53 301.5q0 196 51.5 296.5t179.5 100.5q120 0 174.5 -96t54.5 -301q0 -207 -55 -302t-174 -95zM1022 262v236q0 84 -8 107.5t-33 23.5t-34 -24.5t-9 -108.5v-232q0 -84 8.5 -107.5t32.5 -23.5q27 0 35 22.5t8 106.5z" />
    <glyph glyph-name="ampersand" unicode="&#x26;" horiz-adv-x="1217" 
d="M823 0l-59 102q-149 -125 -305 -125q-178 0 -292 124.5t-114 318.5q0 250 250 450q-78 146 -78 273q0 131 101 224t243 93q138 0 229 -82.5t91 -206.5q0 -182 -223 -337l157 -261q58 147 82 316h244v-215h-64q-33 -158 -127 -328l78 -131h113v-215h-326zM545 1036
q108 71 108 156q0 35 -23 60.5t-55 25.5q-36 0 -62 -25.5t-26 -62.5q0 -76 58 -154zM643 307l-217 367q-80 -68 -80 -152q0 -100 54.5 -194.5t127.5 -94.5q69 0 115 74z" />
    <glyph glyph-name="quotesingle" unicode="'" horiz-adv-x="487" 
d="M100 1438h289v-258l-94 -326h-100l-95 326v258z" />
    <glyph glyph-name="parenleft" unicode="(" horiz-adv-x="575" 
d="M522 1456v-192q-70 -72 -102.5 -244.5t-32.5 -517.5q0 -346 32.5 -519.5t102.5 -242.5v-195q-219 111 -332.5 366t-113.5 591q0 337 118 594t328 360z" />
    <glyph glyph-name="parenright" unicode=")" horiz-adv-x="575" 
d="M53 -455v193q70 71 102.5 244t32.5 518q0 346 -32 519t-103 243v194q219 -111 333 -365.5t114 -590.5q0 -338 -118 -595t-329 -360z" />
    <glyph glyph-name="asterisk" unicode="*" horiz-adv-x="1067" 
d="M377 563l-201 144l98 133q90 20 187 129q-57 20 -113 20q-64 0 -117 -20l-155 51l76 227l157 -53q52 -80 183 -139q-9 128 -78 215v168h237v-168q-67 -88 -76 -215q129 57 183 139l157 53l76 -227l-155 -51q-53 20 -117 20q-56 0 -113 -20q97 -109 187 -129l98 -133
l-201 -144l-94 133q0 125 -64 215q-22 -32 -38 -72.5t-19.5 -65.5t-3.5 -77z" />
    <glyph glyph-name="plus" unicode="+" horiz-adv-x="1366" 
d="M127 784h448v449h216v-449h448v-215h-448v-448h-216v448h-448v215z" />
    <glyph glyph-name="comma" unicode="," horiz-adv-x="598" 
d="M139 -383v160q154 14 154 223h-154v319h320v-309q0 -375 -320 -393z" />
    <glyph glyph-name="hyphen" unicode="-" 
d="M78 385v242h528v-242h-528z" />
    <glyph glyph-name="period" unicode="." horiz-adv-x="598" 
d="M139 0v319h320v-319h-320z" />
    <glyph glyph-name="slash" unicode="/" horiz-adv-x="1194" 
d="M850 1438h233l-741 -1467h-231z" />
    <glyph glyph-name="zero" unicode="0" horiz-adv-x="874" 
d="M436 -29q-179 0 -272.5 157.5t-93.5 582.5q0 430 90 586.5t278 156.5q196 0 282.5 -177t86.5 -566q0 -405 -89.5 -572.5t-281.5 -167.5zM344 985v-563q0 -123 21.5 -179.5t72.5 -56.5q53 0 73.5 66.5t20.5 249.5v377q0 218 -17.5 289t-76.5 71q-54 0 -74 -58.5
t-20 -195.5z" />
    <glyph glyph-name="one" unicode="1" horiz-adv-x="874" 
d="M172 0v215h115v889q-50 -21 -115 -31v209q168 34 297 172h117v-1239h112v-215h-526z" />
    <glyph glyph-name="two" unicode="2" horiz-adv-x="874" 
d="M793 0h-742q0 179 34 300.5t84.5 201.5t132.5 178q92 110 135.5 193.5t43.5 207.5q0 164 -90 164q-98 0 -98 -174q0 -51 6 -98l-250 14q-2 11 -2 70q0 181 98.5 289t264.5 108q168 0 272 -106.5t104 -282.5q0 -111 -37.5 -198t-91 -149.5t-142.5 -145.5
q-114 -107 -169.5 -186t-56.5 -187h289v219h215v-418z" />
    <glyph glyph-name="three" unicode="3" horiz-adv-x="874" 
d="M53 414l252 22q0 -125 6 -169.5t27.5 -69.5t58.5 -25q57 0 78 55t21 199q0 92 -14.5 143t-43 69.5t-86.5 18.5v215q52 0 73.5 6.5t37 27.5t22.5 58.5t7 96.5q0 103 -21.5 147.5t-71.5 44.5q-55 0 -74 -53.5t-20 -167.5l-235 27q21 395 352 395q165 0 262.5 -97t97.5 -286
q0 -115 -40 -185t-128 -116q187 -106 187 -373q0 -195 -100.5 -310.5t-270.5 -115.5q-185 0 -281 101.5t-96 341.5z" />
    <glyph glyph-name="four" unicode="4" horiz-adv-x="874" 
d="M346 0v215h103v195h-361q-9 75 -43 159l418 885h254v-870h84v-174h-84v-195h84v-215h-455zM449 584q0 343 20 501h-27q-75 -256 -198 -501h205z" />
    <glyph glyph-name="five" unicode="5" horiz-adv-x="874" 
d="M49 356l244 29q3 -107 25 -159t71 -52q52 0 73 60.5t21 240.5q0 153 -18 203.5t-74 50.5q-81 0 -90 -125l-199 111l35 723h582v-287h-187l-4 88h-200l-17 -365q84 80 191 80q139 0 212.5 -117.5t73.5 -342.5q0 -523 -387 -523q-323 0 -352 385z" />
    <glyph glyph-name="six" unicode="6" horiz-adv-x="874" 
d="M786 1106l-270 -21q-2 87 -19 127.5t-59 40.5q-43 0 -60.5 -45t-17.5 -155v-203q64 49 146 49q144 0 224.5 -115t80.5 -323q0 -237 -95.5 -363.5t-273.5 -126.5q-170 0 -250.5 99.5t-101 258.5t-20.5 431q0 397 87.5 545.5t280.5 148.5q147 0 241.5 -92t106.5 -256z
M360 649v-309q0 -94 15.5 -132t62.5 -38q46 0 63 50t17 202q0 166 -18.5 218t-65.5 52q-43 0 -74 -43z" />
    <glyph glyph-name="seven" unicode="7" horiz-adv-x="874" 
d="M158 0v215h104q14 535 275 1022h-295v-193h-193v394h737v-166q-86 -161 -152.5 -434.5t-68.5 -622.5h111v-215h-518z" />
    <glyph glyph-name="eight" unicode="8" horiz-adv-x="874" 
d="M598 768q116 -54 169.5 -142t53.5 -233q0 -193 -97 -307.5t-286 -114.5q-186 0 -285.5 112.5t-99.5 305.5q0 149 53 237t168 142q-200 91 -200 315q0 166 101 268.5t263 102.5q161 0 262 -103t101 -268q0 -225 -203 -315zM543 1047q0 120 -24.5 169.5t-84.5 49.5
q-57 0 -79.5 -51.5t-22.5 -174.5q0 -101 23 -145.5t79 -44.5q59 0 84 47t25 150zM541 428q0 138 -24.5 197t-80.5 59q-57 0 -79.5 -59t-22.5 -197q0 -153 20 -210.5t84 -57.5q60 0 81.5 61.5t21.5 206.5z" />
    <glyph glyph-name="nine" unicode="9" horiz-adv-x="874" 
d="M86 319l270 21q3 -87 20 -127.5t58 -40.5q48 0 64 53t16 215v135q-65 -49 -147 -49q-144 0 -224 114.5t-80 324.5q0 250 101 369.5t268 119.5q199 0 286 -154t87 -518v-182q0 -314 -85.5 -471.5t-285.5 -157.5q-146 0 -241 92.5t-107 255.5zM514 776v299q0 100 -17 140
t-61 40q-50 0 -66 -52.5t-16 -198.5q0 -165 18.5 -218t67.5 -53q40 0 74 43z" />
    <glyph glyph-name="colon" unicode=":" horiz-adv-x="598" 
d="M139 684v320h320v-320h-320zM139 0v319h320v-319h-320z" />
    <glyph glyph-name="semicolon" unicode=";" horiz-adv-x="598" 
d="M139 684v320h320v-320h-320zM139 -383v160q154 14 154 223h-154v319h320v-309q0 -375 -320 -393z" />
    <glyph glyph-name="less" unicode="&#x3c;" horiz-adv-x="1366" 
d="M1239 115l-1112 465v192l1112 465v-233l-819 -328l819 -328v-233z" />
    <glyph glyph-name="equal" unicode="=" horiz-adv-x="1366" 
d="M127 1024h1112v-215h-1112v215zM127 547h1112v-215h-1112v215z" />
    <glyph glyph-name="greater" unicode="&#x3e;" horiz-adv-x="1366" 
d="M127 115v233l819 328l-819 328v233l1112 -465v-192z" />
    <glyph glyph-name="question" unicode="?" horiz-adv-x="831" 
d="M330 483l-27 336q38 -10 66 -10q66 0 95.5 50.5t29.5 160.5q0 128 -20.5 184t-74.5 56q-82 0 -82 -146v-98h-276q0 216 98 330t267 114q172 0 279.5 -119.5t107.5 -312.5q0 -161 -75 -275t-210 -114l-10 -156h-168zM258 0v319h320v-319h-320z" />
    <glyph glyph-name="at" unicode="@" horiz-adv-x="1997" 
d="M1397 1034l-127 -792q-3 -19 -3 -32q0 -40 36 -40q99 0 203 136.5t104 355.5q0 255 -154.5 413t-402.5 158q-294 0 -480 -204.5t-186 -528.5q0 -314 180 -507.5t471 -193.5q270 0 504 187h211q-122 -158 -315.5 -246t-399.5 -88q-335 0 -566.5 227t-231.5 610
q0 384 217 637.5t594 253.5q325 0 515.5 -206t190.5 -515q0 -195 -77.5 -345t-204.5 -232t-234 -82q-127 0 -156 117q-65 -62 -114 -89.5t-123 -27.5q-150 0 -239 115t-89 311q0 247 124.5 443t305.5 196q143 0 232 -145l16 114h199zM979 909q-115 0 -182.5 -170.5
t-67.5 -369.5q0 -101 42 -162.5t110 -61.5q109 0 175 182t66 380q0 95 -39.5 148.5t-103.5 53.5z" />
    <glyph glyph-name="A" unicode="A" horiz-adv-x="1130" 
d="M10 0v215h96l154 1008h-92v215h795v-215h-97l164 -1008h90v-215h-491v215h90l-35 268h-235l-33 -268h88v-215h-494zM473 662h186l-75 598h-39z" />
    <glyph glyph-name="B" unicode="B" horiz-adv-x="1110" 
d="M47 0v215h103v1008h-103v215h498q216 0 339.5 -96.5t123.5 -280.5q0 -228 -199 -299q225 -99 225 -340q0 -199 -134.5 -310.5t-377.5 -111.5h-475zM492 1233v-399q113 0 143.5 45.5t30.5 146.5q0 88 -19 133t-54 59.5t-101 14.5zM492 637v-422q72 0 110 12.5t58 57
t20 139.5q0 94 -21.5 140t-58.5 59.5t-108 13.5z" />
    <glyph glyph-name="C" unicode="C" horiz-adv-x="1004" 
d="M690 508l262 -78q-23 -214 -134 -333.5t-273 -119.5q-210 0 -340.5 199t-130.5 563q0 337 114 529t283 192q117 0 205 -121h4v99h229v-486h-229q-18 267 -129 267q-74 0 -88 -107t-14 -371q0 -322 21.5 -422t96.5 -100q59 0 86.5 70.5t36.5 218.5z" />
    <glyph glyph-name="D" unicode="D" horiz-adv-x="1130" 
d="M47 0v215h103v1008h-103v215h498q227 0 366.5 -194.5t139.5 -526.5q0 -321 -129 -519t-377 -198h-498zM492 1223v-1008q73 0 114 37.5t61.5 147t20.5 325.5q0 217 -24 325t-64.5 140.5t-107.5 32.5z" />
    <glyph glyph-name="E" unicode="E" horiz-adv-x="1087" 
d="M47 0v215h125v1008h-125v215h971v-457h-256v242h-248v-381h191v-215h-191v-412h248v254h256v-469h-971z" />
    <glyph glyph-name="F" unicode="F" horiz-adv-x="1087" 
d="M51 0v215h125v1008h-125v215h983v-457h-256v242h-260v-381h193v-215h-193v-412h137v-215h-604z" />
    <glyph glyph-name="G" unicode="G" horiz-adv-x="1087" 
d="M698 457h-96v215h436q0 -199 -27 -319.5t-89 -206.5t-150.5 -127.5t-200.5 -41.5q-231 0 -364 190.5t-133 543.5q0 356 108 552.5t303 196.5q131 0 224 -129h4v107h229v-490h-229q-3 136 -41.5 203.5t-102.5 67.5q-77 0 -98.5 -88.5t-21.5 -378.5q0 -230 10.5 -341.5
t36.5 -151.5t77 -40q122 0 125 238z" />
    <glyph glyph-name="H" unicode="H" horiz-adv-x="1217" 
d="M47 0v215h109v1008h-109v215h508v-215h-57v-361h217v361h-58v215h510v-215h-110v-1008h110v-215h-510v215h58v432h-217v-432h57v-215h-508z" />
    <glyph glyph-name="I" unicode="I" horiz-adv-x="725" 
d="M49 0v215h139v1008h-139v215h629v-215h-148v-1008h148v-215h-629z" />
    <glyph glyph-name="J" unicode="J" 
d="M8 -438v248q16 -5 37 -5q125 0 125 170v1248h-127v215h596v-215h-127v-1260q0 -191 -94.5 -306.5t-270.5 -115.5q-73 0 -139 21z" />
    <glyph glyph-name="K" unicode="K" horiz-adv-x="1153" 
d="M47 0v215h105v1008h-105v215h535v-215h-88v-1008h69v-215h-516zM664 0v215h71l-207 539l244 469h-90v215h420v-215h-86l-193 -367l250 -641h88v-215h-497z" />
    <glyph glyph-name="L" unicode="L" horiz-adv-x="1067" 
d="M51 0v215h127v1008h-127v215h627v-215h-158v-1008h242v426h256v-641h-967z" />
    <glyph glyph-name="M" unicode="M" horiz-adv-x="1493" 
d="M66 0v215h98v1008h-98v215h559l88 -566h24l88 566h600v-215h-94v-1008h94v-215h-512v215h76v1030h-22l-230 -1245h-112l-234 1245h-26v-1030h75v-215h-374z" />
    <glyph glyph-name="N" unicode="N" horiz-adv-x="1130" 
d="M66 0v215h90v1008h-90v215h413q163 -377 289 -860h18q-14 317 -14 364v281h-84v215h377v-215h-78v-1235h-266l-110 288q-73 188 -130.5 355t-109.5 352h-19q19 -249 19 -487v-281h78v-215h-383z" />
    <glyph glyph-name="O" unicode="O" horiz-adv-x="1130" 
d="M565 -23q-222 0 -356.5 201.5t-134.5 540.5q0 338 133.5 539.5t357.5 201.5q223 0 357.5 -201t134.5 -540t-134.5 -540.5t-357.5 -201.5zM565 219q49 0 73 37.5t34 142t10 320.5t-10 320.5t-34 142t-73 37.5q-48 0 -72.5 -37.5t-34 -142t-9.5 -320.5t9.5 -320.5t34 -142
t72.5 -37.5z" />
    <glyph glyph-name="P" unicode="P" horiz-adv-x="1110" 
d="M47 0v215h100v1008h-100v215h463q254 0 395.5 -122t141.5 -339q0 -449 -558 -449v-313h121v-215h-563zM489 1223v-475q114 0 154.5 63t40.5 176q0 236 -195 236z" />
    <glyph glyph-name="Q" unicode="Q" horiz-adv-x="1110" 
d="M346 -229l-84 143q89 66 184 76v4q-180 47 -281.5 242t-101.5 483q0 339 135 540t357 201t357 -201t135 -540q0 -300 -109 -497.5t-303 -233.5v-4q46 -11 128 -58q64 -38 115.5 -57t127.5 -19l-39 -210q-86 0 -149 17t-157 80q-72 49 -112 61t-76 12q-60 0 -127 -39z
M555 219q51 0 74.5 35t33 138t9.5 327q0 215 -10.5 320t-34.5 142.5t-72 37.5q-49 0 -73 -37.5t-34 -142t-10 -320.5q0 -224 9.5 -327t33 -138t74.5 -35z" />
    <glyph glyph-name="R" unicode="R" horiz-adv-x="1110" 
d="M74 0v215h88v1008h-88v215h534q198 0 314 -119.5t116 -302.5q0 -99 -32.5 -165.5t-108.5 -123.5l111 -512h59v-215h-315l-136 631h-112v-416h88v-215h-518zM504 1233v-395q125 0 158.5 48t33.5 156q0 92 -31.5 141.5t-160.5 49.5z" />
    <glyph glyph-name="S" unicode="S" horiz-adv-x="897" 
d="M74 0v467h215q0 -164 35 -213t92 -49q51 0 79.5 38t28.5 105q0 54 -32 113t-161 179q-174 160 -222 263t-48 203q0 151 84 247.5t213 96.5q64 0 112 -19.5t114 -82.5v90h215v-434h-215q0 137 -32 184t-91 47q-43 0 -68.5 -29t-25.5 -78q0 -60 29.5 -105t117.5 -120
q198 -170 259 -284t61 -244q0 -167 -92.5 -277t-231.5 -110q-122 0 -221 102v-90h-215z" />
    <glyph glyph-name="T" unicode="T" horiz-adv-x="1087" 
d="M256 0v215h117v1008h-121v-316h-215v531h1014v-531h-215v316h-121v-1008h116v-215h-575z" />
    <glyph glyph-name="U" unicode="U" horiz-adv-x="1067" 
d="M35 1223v215h512v-215h-60v-877q0 -153 103 -153q112 0 112 167v863h-61v215h391v-215h-114v-871q0 -168 -102 -271.5t-269 -103.5q-196 0 -299 100.5t-103 295.5v850h-110z" />
    <glyph glyph-name="V" unicode="V" horiz-adv-x="1153" 
d="M434 -23l-317 1246h-103v215h525v-215h-105l164 -686l162 686h-121v215h498v-215h-99l-329 -1246h-275z" />
    <glyph glyph-name="W" unicode="W" horiz-adv-x="1516" 
d="M373 -23l-279 1246h-76v215h465v-215h-77l135 -590l118 590h-71v215h395v-215h-80l137 -605l125 605h-82v215h414v-215h-74l-266 -1246h-254l-143 629l-131 -629h-256z" />
    <glyph glyph-name="X" unicode="X" horiz-adv-x="1194" 
d="M39 0v215h84l305 469l-305 539h-84v215h549v-215h-99l146 -258l145 258h-94v215h453v-215h-109l-272 -475l305 -533h94v-215h-569v215h106l-143 254l-166 -254h104v-215h-450z" />
    <glyph glyph-name="Y" unicode="Y" horiz-adv-x="1174" 
d="M291 0v215h119v332l-285 676h-98v215h551v-215h-129l176 -430l184 430h-131v215h467v-215h-101l-292 -676v-332h112v-215h-573z" />
    <glyph glyph-name="Z" unicode="Z" horiz-adv-x="961" 
d="M51 0v215l498 1008h-252v-240h-215v455h819v-215l-495 -1008h288v258h215v-473h-858z" />
    <glyph glyph-name="bracketleft" unicode="[" horiz-adv-x="618" 
d="M150 1438h425v-183h-126v-1497h126v-182h-425v1862z" />
    <glyph glyph-name="backslash" unicode="\" horiz-adv-x="1194" 
d="M344 1438l739 -1467h-231l-741 1467h233z" />
    <glyph glyph-name="bracketright" unicode="]" horiz-adv-x="618" 
d="M469 1438v-1862h-426v182h127v1497h-127v183h426z" />
    <glyph glyph-name="asciicircum" unicode="^" horiz-adv-x="1196" 
d="M121 662l366 798h224l366 -798h-284l-193 489l-194 -489h-285z" />
    <glyph glyph-name="underscore" unicode="_" horiz-adv-x="1024" 
d="M1036 -256h-1048v102h1048v-102z" />
    <glyph glyph-name="grave" unicode="`" 
d="M561 1094h-176l-405 379h387z" />
    <glyph glyph-name="a" unicode="a" horiz-adv-x="1004" 
d="M952 0h-393v78q-91 -92 -207 -92q-117 0 -195.5 92t-78.5 233q0 144 85 239t216 95q91 0 180 -61v106q0 81 -20.5 114.5t-73.5 33.5q-71 0 -98 -78l-269 55q119 217 404 217q166 0 261 -77t95 -226v-514h94v-215zM559 258v152q-38 47 -86 47q-44 0 -70 -36.5t-26 -96.5
q0 -59 24.5 -91t67.5 -32q53 0 90 57z" />
    <glyph glyph-name="b" unicode="b" horiz-adv-x="981" 
d="M37 0v215h98v1008h-98v215h397v-525h4q66 107 189 107q131 0 209.5 -126t78.5 -366q0 -262 -75.5 -402t-214.5 -140q-110 0 -191 94v-80h-397zM434 573v-204q0 -85 18.5 -126.5t65.5 -41.5q55 0 70.5 63.5t15.5 237.5q0 157 -17.5 217.5t-70.5 60.5q-47 0 -64.5 -47
t-17.5 -160z" />
    <glyph glyph-name="c" unicode="c" horiz-adv-x="897" 
d="M596 397l231 -86q-57 -340 -362 -340q-184 0 -289.5 144t-105.5 397q0 228 91.5 368t239.5 140q142 0 191 -125h4v109h215v-406h-215q-7 109 -34.5 161t-82.5 52q-58 0 -78 -68.5t-20 -230.5q0 -177 19.5 -251.5t91.5 -74.5q50 0 73 51t31 160z" />
    <glyph glyph-name="d" unicode="d" horiz-adv-x="981" 
d="M944 0h-397v80q-81 -94 -191 -94q-139 0 -214.5 140t-75.5 402q0 256 83 374t205 118t189 -107h4v310h-96v215h395v-1223h98v-215zM547 369v204q0 113 -17.5 160t-64.5 47q-52 0 -70 -56.5t-18 -221.5q0 -174 15.5 -237.5t70.5 -63.5q44 0 64 38.5t20 129.5z" />
    <glyph glyph-name="e" unicode="e" horiz-adv-x="874" 
d="M557 313l248 -92q-46 -120 -141 -185t-220 -65q-378 0 -378 543q0 256 101.5 387t285.5 131q160 0 263 -123t103 -358v-94h-457q0 -167 19.5 -219t73.5 -52q46 0 69 31.5t33 95.5zM362 606h158v49q0 172 -78 172q-46 0 -63 -52.5t-17 -168.5z" />
    <glyph glyph-name="f" unicode="f" horiz-adv-x="618" 
d="M82 0v215h78v573h-76v216h76v86q0 175 103 272.5t263 97.5q92 0 168 -37.5t113 -103.5l-238 -109q-12 45 -55 45q-31 0 -43 -22.5t-12 -73.5v-155h110v-216h-110v-573h114v-215h-491z" />
    <glyph glyph-name="g" unicode="g" horiz-adv-x="1004" 
d="M100 -389l123 205q105 -45 191 -45q143 0 143 153v182h-4q-67 -122 -197 -122t-202 130t-72 384q0 240 72.5 381t203.5 141q109 0 195 -148h4v132h404v-216h-103v-800q0 -204 -113.5 -325.5t-314.5 -121.5q-148 0 -330 70zM557 348v268q0 164 -82 164q-84 0 -84 -172
v-221q0 -188 82 -188q84 0 84 149z" />
    <glyph glyph-name="h" unicode="h" horiz-adv-x="1067" 
d="M31 0v215h110v1008h-110v215h409v-496q112 90 217 90q127 0 198 -89t71 -251v-477h100v-215h-399v666q0 74 -19 105.5t-65 31.5q-44 0 -103 -43v-545h88v-215h-497z" />
    <glyph glyph-name="i" unicode="i" horiz-adv-x="618" 
d="M498 1286q0 -72 -51 -123t-123 -51t-123 51t-51 123t51 123t123 51q71 0 122.5 -51t51.5 -123zM63 0v215h109v573h-109v216h408v-789h96v-215h-504z" />
    <glyph glyph-name="j" unicode="j" horiz-adv-x="598" 
d="M485 1286q0 -72 -51 -123t-123 -51t-123 51t-51 123t51 123t123 51t123 -51t51 -123zM0 -455v238q72 0 102.5 14t45 52.5t14.5 107.5v831h-115v216h414v-1045q0 -217 -103 -317.5t-270 -100.5q-19 0 -88 4z" />
    <glyph glyph-name="k" unicode="k" horiz-adv-x="961" 
d="M47 0v215h92v1008h-92v215h391v-1223h60v-215h-451zM680 0l-231 506v24l169 277h-71v197h362v-216h-61l-135 -217l166 -356h43v-215h-242z" />
    <glyph glyph-name="l" unicode="l" horiz-adv-x="575" 
d="M25 0v215h112v1008h-112v215h411v-1223h99v-215h-510z" />
    <glyph glyph-name="m" unicode="m" horiz-adv-x="1579" 
d="M53 0v215h101v573h-101v216h400v-107h6q99 123 219 123q140 0 217 -135q76 70 137 102.5t129 32.5q119 0 190.5 -93t71.5 -263v-449h107v-215h-406v629q0 86 -20 124t-68 38t-98 -52v-524h84v-215h-383v629q0 87 -20 124.5t-66 37.5q-53 0 -100 -52v-524h84v-215h-484z
" />
    <glyph glyph-name="n" unicode="n" horiz-adv-x="1087" 
d="M53 0v215h111v573h-111v216h410v-107h8q67 123 217 123q116 0 187 -86.5t71 -237.5v-481h101v-215h-400v647q0 80 -18 112t-66 32q-25 0 -43 -9t-57 -39v-528h86v-215h-496z" />
    <glyph glyph-name="o" unicode="o" horiz-adv-x="981" 
d="M492 -29q-186 0 -305 148.5t-119 382.5q0 233 118 381.5t306 148.5q184 0 302.5 -148.5t118.5 -381.5q0 -234 -118.5 -382.5t-302.5 -148.5zM492 803q-60 0 -86.5 -73t-26.5 -228t26.5 -228t86.5 -73q110 0 110 301t-110 301z" />
    <glyph glyph-name="p" unicode="p" horiz-adv-x="981" 
d="M37 -459v215h98v1032h-98v216h397v-115h4q46 131 183 131q140 0 215 -132t75 -382q0 -253 -75 -387.5t-213 -134.5q-105 0 -189 94v-322h137v-215h-534zM434 385q0 -100 19 -143t65 -43q57 0 69.5 68.5t12.5 240.5q0 153 -18 212.5t-66 59.5q-82 0 -82 -178v-217z" />
    <glyph glyph-name="q" unicode="q" horiz-adv-x="981" 
d="M944 -459h-534v215h137v322q-84 -94 -189 -94q-138 0 -213 134.5t-75 387.5q0 250 75 382t215 132q137 0 183 -131h4v115h397v-216h-98v-1032h98v-215zM547 385v217q0 178 -82 178q-49 0 -66.5 -62t-17.5 -210q0 -172 12.5 -240.5t69.5 -68.5q46 0 65 43t19 143z" />
    <glyph glyph-name="r" unicode="r" horiz-adv-x="705" 
d="M53 0v215h107v573h-107v216h406v-201h4q20 82 51 130.5t69.5 67.5t100.5 19v-336q-225 0 -225 -297v-172h119v-215h-525z" />
    <glyph glyph-name="s" unicode="s" horiz-adv-x="748" 
d="M70 0v272h215q9 -108 86 -108q30 0 47.5 19t17.5 50q0 28 -21.5 58t-113.5 92q-156 106 -201 188t-45 168q0 126 64.5 203.5t169.5 77.5q92 0 157 -82h5v66h215v-261h-215q-15 105 -84 105q-31 0 -49.5 -19.5t-18.5 -50.5q0 -30 23 -61.5t118 -93.5q78 -50 128 -92.5
t86 -109.5t36 -159q0 -126 -64 -202t-169 -76q-65 0 -94 15.5t-56 46.5q-12 14 -18 20h-4v-66h-215z" />
    <glyph glyph-name="t" unicode="t" horiz-adv-x="618" 
d="M555 227v-223q-94 -33 -182 -33q-238 0 -238 287v530h-90v216h90v126l299 234v-360h121v-216h-121v-448q0 -67 17 -95t59 -28q21 0 45 10z" />
    <glyph glyph-name="u" unicode="u" horiz-adv-x="1067" 
d="M920 1004v-789h110v-215h-409v80q-115 -96 -226 -96q-116 0 -187 86t-71 237v481h-100v216h399v-648q0 -80 18.5 -111.5t65.5 -31.5q26 0 43.5 8.5t57.5 38.5v528h-86v216h385z" />
    <glyph glyph-name="v" unicode="v" horiz-adv-x="897" 
d="M338 -14l-246 802h-78v216h412v-216h-57l108 -452l101 452h-54v216h359v-216h-78l-217 -802h-250z" />
    <glyph glyph-name="w" unicode="w" horiz-adv-x="1260" 
d="M264 -14l-190 802h-62v216h402v-216h-66l86 -430l123 646h229l125 -646l78 430h-59v216h317v-216h-61l-176 -802h-252l-117 454l-123 -454h-254z" />
    <glyph glyph-name="x" unicode="x" horiz-adv-x="811" 
d="M29 0v215h63l144 262l-148 311h-59v216h284l101 -289l112 289h228v-216h-62l-141 -258l164 -315h65v-215h-299l-104 309h-4l-107 -309h-237z" />
    <glyph glyph-name="y" unicode="y" horiz-adv-x="918" 
d="M207 -455v215h141l43 185l-295 843h-71v216h409v-216h-67l135 -391h4l94 391h-65v216h358v-216h-80l-309 -1243h-297z" />
    <glyph glyph-name="z" unicode="z" horiz-adv-x="831" 
d="M45 0v197l440 630h-223v-143h-190v320h708v-193l-440 -635h256v152h190v-328h-741z" />
    <glyph glyph-name="braceleft" unicode="{" horiz-adv-x="797" 
d="M651 -221v-238q-127 0 -195 24.5t-108 82t-54.5 146t-14.5 222.5q0 168 -28 249t-106 112v248q78 30 106 111t28 249q0 136 15 224.5t55.5 146t108.5 81t193 23.5v-237q-79 -11 -99 -49t-20 -173q0 -236 -48 -353.5t-154 -145.5v-4q106 -29 154 -145.5t48 -352.5
q0 -135 20 -173t99 -48z" />
    <glyph glyph-name="bar" unicode="|" horiz-adv-x="1204" 
d="M494 1438h217v-1702h-217v1702z" />
    <glyph glyph-name="braceright" unicode="}" horiz-adv-x="797" 
d="M145 -221q80 10 99.5 48t19.5 173q0 236 48 352.5t155 145.5v4q-107 28 -155 145.5t-48 353.5q0 135 -19.5 173t-99.5 49v237q128 0 196 -24.5t107.5 -82t54.5 -145.5t15 -223q0 -168 28 -249t105 -111v-248q-77 -31 -105 -112t-28 -249q0 -135 -15 -223.5t-55.5 -146
t-109 -81.5t-193.5 -24v238z" />
    <glyph glyph-name="asciitilde" unicode="~" horiz-adv-x="1343" 
d="M1227 895v-223q-168 -140 -301 -140q-72 0 -130 21t-169 74q-140 67 -207 67q-143 0 -303 -147v223q159 137 315 137q101 0 264 -80q168 -79 238 -79q129 0 293 147z" />
    <glyph glyph-name="nbspace" unicode="&#xa0;" 
 />
    <glyph glyph-name="exclamdown" unicode="&#xa1;" horiz-adv-x="598" 
d="M459 1004v-320h-320v320h320zM360 522l91 -545v-411h-306v411l91 545h124z" />
    <glyph glyph-name="cent" unicode="&#xa2;" horiz-adv-x="897" 
d="M365 -201v183q-144 42 -219.5 182t-75.5 348q0 210 78 346.5t217 157.5v192h145v-215q59 -35 82 -102h4v113h215v-406h-215q-7 109 -34.5 161t-82.5 52q-58 0 -78 -68.5t-20 -230.5q0 -177 19.5 -251.5t91.5 -74.5q50 0 73 51.5t31 159.5l231 -86q-51 -314 -317 -338
v-174h-145z" />
    <glyph glyph-name="sterling" unicode="&#xa3;" horiz-adv-x="1087" 
d="M1030 428q3 -87 3 -103q0 -354 -255 -354q-149 0 -274 148q-96 -148 -236 -148q-96 0 -159.5 68.5t-63.5 173.5q0 97 55.5 158t143.5 61q78 0 149 -59q-9 97 -59 278h-211v215h166q-21 95 -21 189q0 199 95.5 302t279.5 103q363 0 369 -366l-277 -9q0 103 -19.5 146
t-72.5 43q-86 0 -86 -113q0 -64 35 -295h211v-215h-174q10 -61 10 -137q0 -131 -47 -254q77 -63 135 -63q49 0 68.5 44.5t19.5 147.5v39h215zM379 223q-61 68 -119 68q-38 0 -61 -24.5t-23 -65.5q0 -44 23.5 -70.5t62.5 -26.5q91 0 117 119z" />
    <glyph glyph-name="currency" unicode="&#xa4;" horiz-adv-x="1366" 
d="M158 1059l141 143l135 -135q106 74 246 74t252 -74l135 135l141 -143l-135 -135q76 -124 76 -252q0 -134 -76 -246l135 -131l-141 -141l-135 131q-118 -76 -254 -76q-135 0 -244 76l-135 -131l-141 141l135 131q-76 124 -76 256q0 133 76 242zM950 676q0 110 -78.5 188
t-189.5 78q-110 0 -188 -78t-78 -188q0 -111 78 -189.5t188 -78.5t189 79t79 189z" />
    <glyph glyph-name="yen" unicode="&#xa5;" horiz-adv-x="1174" 
d="M752 367v-152h112v-215h-573v215h119v152h-381v145h381v35l-31 76h-350v145h288l-192 455h-98v215h551v-215h-129l176 -430l184 430h-131v215h467v-215h-101l-196 -455h295v-145h-359l-32 -76v-35h391v-145h-391z" />
    <glyph glyph-name="brokenbar" unicode="&#xa6;" horiz-adv-x="1204" 
d="M489 1438h218v-731h-218v731zM489 465h218v-729h-218v729z" />
    <glyph glyph-name="section" unicode="&#xa7;" horiz-adv-x="874" 
d="M111 -147h233q0 -125 111 -125q47 0 76.5 29.5t29.5 74.5q0 33 -29 74.5t-151 143.5q-201 168 -259.5 272.5t-58.5 201.5q0 186 170 328q-79 73 -115 139t-36 158q0 144 93.5 227.5t254.5 83.5q333 0 336 -319h-231q0 133 -113 133q-48 0 -78.5 -28t-30.5 -70
q0 -44 32 -93.5t164 -155.5q96 -77 156 -136.5t103 -141.5t43 -182q0 -182 -170 -324q152 -143 152 -297q0 -142 -94 -223.5t-259 -81.5q-146 0 -237.5 72t-91.5 240zM498 262q84 78 84 166q0 131 -209 301q-80 -81 -80 -164q0 -63 48 -129t157 -174z" />
    <glyph glyph-name="dieresis" unicode="&#xa8;" 
d="M-2 1290q0 54 38.5 91.5t92.5 37.5t91.5 -37.5t37.5 -91.5t-38 -92.5t-91 -38.5t-92 39t-39 92zM426 1290q0 53 38.5 91t92.5 38t91.5 -37.5t37.5 -91.5t-38 -92.5t-91 -38.5t-92 39t-39 92z" />
    <glyph glyph-name="copyright" unicode="&#xa9;" horiz-adv-x="1511" 
d="M-10 715q0 205 102.5 383t280 280.5t383.5 102.5q316 0 541 -225t225 -541q0 -317 -225 -541.5t-541 -224.5q-317 0 -541.5 224.5t-224.5 541.5zM141 715q0 -254 180.5 -434.5t434.5 -180.5q253 0 433.5 180.5t180.5 434.5q0 255 -179.5 434.5t-434.5 179.5
q-254 0 -434.5 -180.5t-180.5 -433.5zM940 602l162 -55q-82 -258 -336 -258q-174 0 -279.5 115t-105.5 307q0 198 104.5 314t282.5 116q248 0 334 -244l-162 -39q-52 139 -178 139q-98 0 -152.5 -74t-54.5 -208q0 -132 52 -207.5t141 -75.5q146 0 192 170z" />
    <glyph glyph-name="ordfeminine" unicode="&#xaa;" horiz-adv-x="662" 
d="M625 842h-256v49q-61 -55 -136 -55q-76 0 -127 55t-51 139q0 88 55.5 143.5t141.5 55.5q59 0 117 -37v65q0 48 -13.5 67t-48.5 19q-48 0 -63 -47l-174 33q76 131 262 131q107 0 168 -45.5t61 -128.5v-317h64v-127zM369 997v90q-27 27 -56 27q-61 0 -61 -76q0 -75 57 -75
q35 0 60 34z" />
    <glyph glyph-name="guillemotleft" unicode="&#xab;" horiz-adv-x="1087" 
d="M313 0l-274 502l274 502h260l-272 -502l272 -502h-260zM797 0l-275 502l275 502h260l-273 -502l273 -502h-260z" />
    <glyph glyph-name="logicalnot" unicode="&#xac;" horiz-adv-x="1366" 
d="M127 1034h1112v-702h-215v487h-897v215z" />
    <glyph glyph-name="sfthyphen" unicode="&#xad;" 
d="M78 385v242h528v-242h-528z" />
    <glyph glyph-name="registered" unicode="&#xae;" horiz-adv-x="1511" 
d="M-10 715q0 205 102.5 383t280 280.5t383.5 102.5q316 0 541 -225t225 -541q0 -317 -225 -541.5t-541 -224.5q-317 0 -541.5 224.5t-224.5 541.5zM141 715q0 -254 180.5 -434.5t434.5 -180.5q253 0 433.5 180.5t180.5 434.5q0 255 -179.5 434.5t-434.5 179.5
q-254 0 -434.5 -180.5t-180.5 -433.5zM410 305v813h393q122 0 194 -59.5t72 -167.5q0 -91 -58 -152.5t-163 -74.5v-5q53 -12 92.5 -65t177.5 -289h-205q-95 191 -125.5 238.5t-72 71.5t-97.5 24h-43v-334h-165zM575 768h170q68 0 109 30.5t41 82.5q0 108 -170 108h-150v-221
z" />
    <glyph glyph-name="overscore" unicode="&#xaf;" horiz-adv-x="1024" 
d="M1036 1592h-1048v102h1048v-102z" />
    <glyph glyph-name="degree" unicode="&#xb0;" horiz-adv-x="819" 
d="M737 1126q0 -134 -96.5 -230.5t-230.5 -96.5q-135 0 -231.5 96.5t-96.5 230.5q0 136 96 232t232 96q134 0 230.5 -96.5t96.5 -231.5zM563 1126q0 63 -45 108.5t-108 45.5t-108.5 -45.5t-45.5 -108.5t45.5 -108t108.5 -45q62 0 107.5 45.5t45.5 107.5z" />
    <glyph glyph-name="plusminus" unicode="&#xb1;" horiz-adv-x="1368" 
d="M127 995h448v418h216v-418h448v-215h-448v-418h-216v418h-448v215zM127 215h1112v-215h-1112v215z" />
    <glyph glyph-name="twosuperior" unicode="&#xb2;" horiz-adv-x="512" 
d="M477 676h-463q0 117 27 195t125 181q69 73 85.5 114t16.5 81q0 62 -43 62t-43 -70q0 -21 6 -68l-174 9q-2 17 -2 45q0 107 60.5 168t167.5 61q104 0 168.5 -59.5t64.5 -155.5q0 -59 -29.5 -118.5t-137.5 -150.5q-118 -99 -126 -157h144v113h153v-250z" />
    <glyph glyph-name="threesuperior" unicode="&#xb3;" horiz-adv-x="512" 
d="M16 922l177 14q0 -94 7.5 -115.5t35.5 -21.5q29 0 36 24.5t7 91.5q0 43 -8 64.5t-22.5 27t-55.5 5.5v145q46 0 58.5 3.5t18.5 20t6 54.5q0 80 -43 80q-25 0 -32.5 -20t-7.5 -95l-168 17q11 237 223 237q104 0 165.5 -57t61.5 -154q0 -100 -78 -158q86 -71 86 -190
q0 -108 -63 -172t-170 -64q-115 0 -174.5 57.5t-59.5 205.5z" />
    <glyph glyph-name="acute" unicode="&#xb4;" 
d="M150 1094l194 379h387l-405 -379h-176z" />
    <glyph glyph-name="mu1" unicode="&#xb5;" horiz-adv-x="1251" 
d="M236 -459v1463h299v-660q0 -121 75 -121q54 0 109 60v721h299v-1004h-295v82h-4q-45 -94 -131 -94q-38 0 -58 20v-467h-294z" />
    <glyph glyph-name="paragraph" unicode="&#xb6;" horiz-adv-x="1139" 
d="M639 -459h-242v1073q-189 15 -291 122.5t-102 283.5v6q0 180 115 296t317 116h699v-262h-113v-1635h-242v1635h-141v-1635z" />
    <glyph glyph-name="periodcentered" unicode="&#xb7;" horiz-adv-x="598" 
d="M139 580v319h320v-319h-320z" />
    <glyph glyph-name="periodcentered" unicode="&#x2219;" horiz-adv-x="598" 
d="M139 580v319h320v-319h-320z" />
    <glyph glyph-name="cedilla" unicode="&#xb8;" 
d="M160 -340l10 115q105 0 130.5 21t25.5 52q0 54 -93 68q28 36 46 84q206 -13 206 -168q0 -84 -61 -132t-168 -48q-59 0 -96 8z" />
    <glyph glyph-name="onesuperior" unicode="&#xb9;" horiz-adv-x="512" 
d="M90 676v147h68v412q-33 -10 -68 -14v143q106 17 184 90h84v-631h66v-147h-334z" />
    <glyph glyph-name="ordmasculine" unicode="&#xba;" horiz-adv-x="641" 
d="M319 825q-120 0 -197 89t-77 229t76.5 228.5t197.5 88.5t198 -88.5t77 -228.5t-77 -229t-198 -89zM393 1143q0 103 -18 140.5t-56 37.5q-40 0 -56.5 -43t-16.5 -135q0 -178 73 -178q42 0 58 40.5t16 137.5z" />
    <glyph glyph-name="guillemotright" unicode="&#xbb;" horiz-adv-x="1087" 
d="M772 0h-258l270 502l-270 502h258l277 -502zM289 0h-258l270 502l-270 502h258l276 -502z" />
    <glyph glyph-name="onequarter" unicode="&#xbc;" horiz-adv-x="1237" 
d="M90 676v147h68v412q-33 -10 -68 -14v143q106 17 184 90h84v-631h66v-147h-334zM283 -16l567 1470h152l-565 -1470h-154zM913 0v147h60v62h-209q-7 51 -31 102l256 467h166v-442h49v-127h-49v-62h49v-147h-291zM891 336h82q2 127 8 194l-4 5q-37 -110 -86 -199z" />
    <glyph glyph-name="onehalf" unicode="&#xbd;" horiz-adv-x="1237" 
d="M90 676v147h68v412q-33 -10 -68 -14v143q106 17 184 90h84v-631h66v-147h-334zM258 -16l567 1470h152l-565 -1470h-154zM1202 0h-463q0 117 27 195t125 181q69 73 85.5 114t16.5 81q0 62 -43 62t-43 -70q0 -21 6 -68l-174 9q-2 17 -2 45q0 107 60.5 168t167.5 61
q104 0 168.5 -59.5t64.5 -155.5q0 -59 -29.5 -118.5t-137.5 -150.5q-118 -99 -126 -157h144v113h153v-250z" />
    <glyph glyph-name="threequarters" unicode="&#xbe;" horiz-adv-x="1237" 
d="M16 922l177 14q0 -94 7.5 -115.5t35.5 -21.5q29 0 36 24.5t7 91.5q0 43 -8 64.5t-22.5 27t-55.5 5.5v145q46 0 58.5 3.5t18.5 20t6 54.5q0 80 -43 80q-25 0 -32.5 -20t-7.5 -95l-168 17q11 237 223 237q104 0 165.5 -57t61.5 -154q0 -100 -78 -158q86 -71 86 -190
q0 -108 -63 -172t-170 -64q-115 0 -174.5 57.5t-59.5 205.5zM283 -16l567 1470h152l-565 -1470h-154zM913 0v147h60v62h-209q-7 51 -31 102l256 467h166v-442h49v-127h-49v-62h49v-147h-291zM891 336h82q2 127 8 194l-4 5q-37 -110 -86 -199z" />
    <glyph glyph-name="questiondown" unicode="&#xbf;" horiz-adv-x="831" 
d="M573 1004v-320h-319v320h319zM502 520l26 -336q-37 11 -65 11q-67 0 -96 -50.5t-29 -160.5q0 -128 20.5 -184t73.5 -56q82 0 82 145v99h277q0 -220 -100.5 -332.5t-264.5 -112.5q-173 0 -280 119.5t-107 312.5q0 161 74.5 275.5t210.5 114.5l10 155h168z" />
    <glyph glyph-name="Agrave" unicode="&#xc0;" horiz-adv-x="1130" 
d="M10 0v215h96l154 1008h-92v215h795v-215h-97l164 -1008h90v-215h-491v215h90l-35 268h-235l-33 -268h88v-215h-494zM473 662h186l-75 598h-39zM786 1520h-176l-405 379h387z" />
    <glyph glyph-name="Aacute" unicode="&#xc1;" horiz-adv-x="1130" 
d="M10 0v215h96l154 1008h-92v215h795v-215h-97l164 -1008h90v-215h-491v215h90l-35 268h-235l-33 -268h88v-215h-494zM473 662h186l-75 598h-39zM375 1520l194 379h387l-405 -379h-176z" />
    <glyph glyph-name="Acircumflex" unicode="&#xc2;" horiz-adv-x="1130" 
d="M10 0v215h96l154 1008h-92v215h795v-215h-97l164 -1008h90v-215h-491v215h90l-35 268h-235l-33 -268h88v-215h-494zM473 662h186l-75 598h-39zM236 1511l185 388h292l185 -388h-191l-139 197l-141 -197h-191z" />
    <glyph glyph-name="Atilde" unicode="&#xc3;" horiz-adv-x="1130" 
d="M10 0v215h96l154 1008h-92v215h795v-215h-97l164 -1008h90v-215h-491v215h90l-35 268h-235l-33 -268h88v-215h-494zM473 662h186l-75 598h-39zM362 1573h-139q8 119 70 192.5t145 73.5q47 0 148 -40q85 -34 118 -34q43 0 62 76h143q-12 -121 -73.5 -193.5t-141.5 -72.5
q-56 0 -166 45q-73 31 -98 31q-51 0 -68 -78z" />
    <glyph glyph-name="Adieresis" unicode="&#xc4;" horiz-adv-x="1130" 
d="M10 0v215h96l154 1008h-92v215h795v-215h-97l164 -1008h90v-215h-491v215h90l-35 268h-235l-33 -268h88v-215h-494zM473 662h186l-75 598h-39zM223 1716q0 54 38.5 91.5t92.5 37.5t91.5 -37.5t37.5 -91.5t-38 -92.5t-91 -38.5t-92 39t-39 92zM651 1716q0 53 38.5 91
t92.5 38t91.5 -37.5t37.5 -91.5t-38 -92.5t-91 -38.5t-92 39t-39 92z" />
    <glyph glyph-name="Aring" unicode="&#xc5;" horiz-adv-x="1130" 
d="M10 0v215h96l154 1008h-92v215h795v-215h-97l164 -1008h90v-215h-491v215h90l-35 268h-235l-33 -268h88v-215h-494zM473 662h186l-75 598h-39zM358 1720q0 86 61.5 146.5t147.5 60.5t146.5 -60.5t60.5 -146.5t-61 -147.5t-146 -61.5q-86 0 -147.5 62t-61.5 147zM669 1720
q0 43 -30.5 73t-73.5 30t-72.5 -30t-29.5 -73t29.5 -73.5t72.5 -30.5t73.5 31t30.5 73z" />
    <glyph glyph-name="AE" unicode="&#xc6;" horiz-adv-x="1450" 
d="M16 0v215h72l176 1008h-67v215h1169v-455h-256v240h-188v-381h157v-215h-157v-412h188v254h256v-469h-856v215h70v412h-193l-70 -412h95v-215h-396zM420 817h160v432h-86z" />
    <glyph glyph-name="Ccedilla" unicode="&#xc7;" horiz-adv-x="1004" 
d="M322 -340l10 115q104 0 129.5 21t25.5 52q0 54 -92 68q21 25 43 78q-172 50 -268 244t-96 501q0 337 114 529t283 192q117 0 205 -121h4v99h229v-486h-229q-18 267 -129 267q-74 0 -88 -107t-14 -371q0 -322 21.5 -422t96.5 -100q59 0 86.5 70.5t36.5 218.5l262 -78
q-23 -213 -134 -333t-271 -120v-4q100 -32 100 -141q0 -84 -61.5 -132t-167.5 -48q-59 0 -96 8z" />
    <glyph glyph-name="Egrave" unicode="&#xc8;" horiz-adv-x="1087" 
d="M47 0v215h125v1008h-125v215h971v-457h-256v242h-248v-381h191v-215h-191v-412h248v254h256v-469h-971zM763 1520h-176l-405 379h387z" />
    <glyph glyph-name="Eacute" unicode="&#xc9;" horiz-adv-x="1087" 
d="M47 0v215h125v1008h-125v215h971v-457h-256v242h-248v-381h191v-215h-191v-412h248v254h256v-469h-971zM352 1520l194 379h387l-405 -379h-176z" />
    <glyph glyph-name="Ecircumflex" unicode="&#xca;" horiz-adv-x="1087" 
d="M47 0v215h125v1008h-125v215h971v-457h-256v242h-248v-381h191v-215h-191v-412h248v254h256v-469h-971zM213 1511l185 388h292l185 -388h-191l-139 197l-141 -197h-191z" />
    <glyph glyph-name="Edieresis" unicode="&#xcb;" horiz-adv-x="1087" 
d="M47 0v215h125v1008h-125v215h971v-457h-256v242h-248v-381h191v-215h-191v-412h248v254h256v-469h-971zM201 1716q0 54 38.5 91.5t92.5 37.5t91.5 -37.5t37.5 -91.5t-38 -92.5t-91 -38.5t-92 39t-39 92zM629 1716q0 53 38.5 91t92.5 38t91.5 -37.5t37.5 -91.5t-38 -92.5
t-91 -38.5t-92 39t-39 92z" />
    <glyph glyph-name="Igrave" unicode="&#xcc;" horiz-adv-x="725" 
d="M49 0v215h139v1008h-139v215h629v-215h-148v-1008h148v-215h-629zM583 1520h-176l-405 379h387z" />
    <glyph glyph-name="Iacute" unicode="&#xcd;" horiz-adv-x="725" 
d="M49 0v215h139v1008h-139v215h629v-215h-148v-1008h148v-215h-629zM172 1520l194 379h387l-405 -379h-176z" />
    <glyph glyph-name="Icircumflex" unicode="&#xce;" horiz-adv-x="725" 
d="M49 0v215h139v1008h-139v215h629v-215h-148v-1008h148v-215h-629zM33 1511l185 388h292l185 -388h-191l-139 197l-141 -197h-191z" />
    <glyph glyph-name="Idieresis" unicode="&#xcf;" horiz-adv-x="725" 
d="M49 0v215h139v1008h-139v215h629v-215h-148v-1008h148v-215h-629zM20 1716q0 54 38.5 91.5t92.5 37.5t91.5 -37.5t37.5 -91.5t-38 -92.5t-91 -38.5t-92 39t-39 92zM448 1716q0 53 38.5 91t92.5 38t91.5 -37.5t37.5 -91.5t-38 -92.5t-91 -38.5t-92 39t-39 92z" />
    <glyph glyph-name="Eth" unicode="&#xd0;" horiz-adv-x="1130" 
d="M47 0v215h103v395h-103v215h103v398h-103v215h498q227 0 366.5 -194.5t139.5 -526.5q0 -321 -129 -519t-377 -198h-498zM492 215q73 0 114 37.5t61.5 147t20.5 325.5q0 217 -24 325t-64.5 140.5t-107.5 32.5v-398h83v-215h-83v-395z" />
    <glyph glyph-name="Ntilde" unicode="&#xd1;" horiz-adv-x="1130" 
d="M66 0v215h90v1008h-90v215h413q163 -377 289 -860h18q-14 317 -14 364v281h-84v215h377v-215h-78v-1235h-266l-110 288q-73 188 -130.5 355t-109.5 352h-19q19 -249 19 -487v-281h78v-215h-383zM362 1573h-139q8 119 70 192.5t145 73.5q47 0 148 -40q85 -34 118 -34
q43 0 62 76h143q-12 -121 -73.5 -193.5t-141.5 -72.5q-56 0 -166 45q-73 31 -98 31q-51 0 -68 -78z" />
    <glyph glyph-name="Ograve" unicode="&#xd2;" horiz-adv-x="1130" 
d="M565 -23q-222 0 -356.5 201.5t-134.5 540.5q0 338 133.5 539.5t357.5 201.5q223 0 357.5 -201t134.5 -540t-134.5 -540.5t-357.5 -201.5zM565 219q49 0 73 37.5t34 142t10 320.5t-10 320.5t-34 142t-73 37.5q-48 0 -72.5 -37.5t-34 -142t-9.5 -320.5t9.5 -320.5t34 -142
t72.5 -37.5zM786 1520h-176l-405 379h387z" />
    <glyph glyph-name="Oacute" unicode="&#xd3;" horiz-adv-x="1130" 
d="M565 -23q-222 0 -356.5 201.5t-134.5 540.5q0 338 133.5 539.5t357.5 201.5q223 0 357.5 -201t134.5 -540t-134.5 -540.5t-357.5 -201.5zM565 219q49 0 73 37.5t34 142t10 320.5t-10 320.5t-34 142t-73 37.5q-48 0 -72.5 -37.5t-34 -142t-9.5 -320.5t9.5 -320.5t34 -142
t72.5 -37.5zM375 1520l194 379h387l-405 -379h-176z" />
    <glyph glyph-name="Ocircumflex" unicode="&#xd4;" horiz-adv-x="1130" 
d="M565 -23q-222 0 -356.5 201.5t-134.5 540.5q0 338 133.5 539.5t357.5 201.5q223 0 357.5 -201t134.5 -540t-134.5 -540.5t-357.5 -201.5zM565 219q49 0 73 37.5t34 142t10 320.5t-10 320.5t-34 142t-73 37.5q-48 0 -72.5 -37.5t-34 -142t-9.5 -320.5t9.5 -320.5t34 -142
t72.5 -37.5zM236 1511l185 388h292l185 -388h-191l-139 197l-141 -197h-191z" />
    <glyph glyph-name="Otilde" unicode="&#xd5;" horiz-adv-x="1130" 
d="M565 -23q-222 0 -356.5 201.5t-134.5 540.5q0 338 133.5 539.5t357.5 201.5q223 0 357.5 -201t134.5 -540t-134.5 -540.5t-357.5 -201.5zM565 219q49 0 73 37.5t34 142t10 320.5t-10 320.5t-34 142t-73 37.5q-48 0 -72.5 -37.5t-34 -142t-9.5 -320.5t9.5 -320.5t34 -142
t72.5 -37.5zM362 1573h-139q8 119 70 192.5t145 73.5q47 0 148 -40q85 -34 118 -34q43 0 62 76h143q-12 -121 -73.5 -193.5t-141.5 -72.5q-56 0 -166 45q-73 31 -98 31q-51 0 -68 -78z" />
    <glyph glyph-name="Odieresis" unicode="&#xd6;" horiz-adv-x="1130" 
d="M565 -23q-222 0 -356.5 201.5t-134.5 540.5q0 338 133.5 539.5t357.5 201.5q223 0 357.5 -201t134.5 -540t-134.5 -540.5t-357.5 -201.5zM565 219q49 0 73 37.5t34 142t10 320.5t-10 320.5t-34 142t-73 37.5q-48 0 -72.5 -37.5t-34 -142t-9.5 -320.5t9.5 -320.5t34 -142
t72.5 -37.5zM223 1716q0 54 38.5 91.5t92.5 37.5t91.5 -37.5t37.5 -91.5t-38 -92.5t-91 -38.5t-92 39t-39 92zM651 1716q0 53 38.5 91t92.5 38t91.5 -37.5t37.5 -91.5t-38 -92.5t-91 -38.5t-92 39t-39 92z" />
    <glyph glyph-name="multiply" unicode="&#xd7;" horiz-adv-x="1366" 
d="M309 1200l371 -371l371 371l155 -151l-372 -373l370 -371l-151 -151l-371 370l-373 -372l-151 151l372 373l-372 373z" />
    <glyph glyph-name="Oslash" unicode="&#xd8;" horiz-adv-x="1130" 
d="M174 233q-100 204 -100 486q0 338 133.5 539.5t357.5 201.5q152 0 273 -102l69 102l150 -90l-105 -162q105 -203 105 -489q0 -339 -134.5 -540.5t-357.5 -201.5q-150 0 -274 105l-62 -111l-155 90zM453 700l215 369q-9 77 -32 113.5t-71 36.5t-72.5 -37.5t-34 -142
t-9.5 -320.5v-19h4zM678 745l-217 -374q8 -77 29 -114.5t75 -37.5q72 0 94.5 96.5t22.5 403.5v26h-4z" />
    <glyph glyph-name="Ugrave" unicode="&#xd9;" horiz-adv-x="1067" 
d="M35 1223v215h512v-215h-60v-877q0 -153 103 -153q112 0 112 167v863h-61v215h391v-215h-114v-871q0 -168 -102 -271.5t-269 -103.5q-196 0 -299 100.5t-103 295.5v850h-110zM753 1520h-176l-405 379h387z" />
    <glyph glyph-name="Uacute" unicode="&#xda;" horiz-adv-x="1067" 
d="M35 1223v215h512v-215h-60v-877q0 -153 103 -153q112 0 112 167v863h-61v215h391v-215h-114v-871q0 -168 -102 -271.5t-269 -103.5q-196 0 -299 100.5t-103 295.5v850h-110zM342 1520l194 379h387l-405 -379h-176z" />
    <glyph glyph-name="Ucircumflex" unicode="&#xdb;" horiz-adv-x="1067" 
d="M35 1223v215h512v-215h-60v-877q0 -153 103 -153q112 0 112 167v863h-61v215h391v-215h-114v-871q0 -168 -102 -271.5t-269 -103.5q-196 0 -299 100.5t-103 295.5v850h-110zM203 1511l185 388h292l185 -388h-191l-139 197l-141 -197h-191z" />
    <glyph glyph-name="Udieresis" unicode="&#xdc;" horiz-adv-x="1067" 
d="M35 1223v215h512v-215h-60v-877q0 -153 103 -153q112 0 112 167v863h-61v215h391v-215h-114v-871q0 -168 -102 -271.5t-269 -103.5q-196 0 -299 100.5t-103 295.5v850h-110zM190 1716q0 54 38.5 91.5t92.5 37.5t91.5 -37.5t37.5 -91.5t-38 -92.5t-91 -38.5t-92 39t-39 92
zM618 1716q0 53 38.5 91t92.5 38t91.5 -37.5t37.5 -91.5t-38 -92.5t-91 -38.5t-92 39t-39 92z" />
    <glyph glyph-name="Yacute" unicode="&#xdd;" horiz-adv-x="1174" 
d="M291 0v215h119v332l-285 676h-98v215h551v-215h-129l176 -430l184 430h-131v215h467v-215h-101l-292 -676v-332h112v-215h-573zM395 1520l194 379h387l-405 -379h-176z" />
    <glyph glyph-name="Thorn" unicode="&#xde;" horiz-adv-x="1110" 
d="M147 1249h-100v189h543v-189h-101v-78h41q230 0 373.5 -120.5t143.5 -339.5q0 -158 -62.5 -252.5t-153 -135.5t-161 -49t-181.5 -8v-78h101v-188h-543v188h100v1061zM489 956v-475q105 0 150 58.5t45 181.5q0 235 -195 235z" />
    <glyph glyph-name="germandbls" unicode="&#xdf;" horiz-adv-x="981" 
d="M25 0v215h114v807q0 438 383 438q185 0 281 -84t96 -246q0 -229 -160 -286q94 -45 136.5 -137t42.5 -263q0 -236 -62 -347t-203 -111q-55 0 -118 24v217q43 4 57 34t14 212q0 106 -22.5 148.5t-83.5 42.5v262q49 0 68.5 40.5t19.5 137.5q0 76 -17 108.5t-59 32.5
q-40 0 -57 -29t-17 -96v-905h33v-215h-446z" />
    <glyph glyph-name="agrave" unicode="&#xe0;" horiz-adv-x="1004" 
d="M952 0h-393v78q-91 -92 -207 -92q-117 0 -195.5 92t-78.5 233q0 144 85 239t216 95q91 0 180 -61v106q0 81 -20.5 114.5t-73.5 33.5q-71 0 -98 -78l-269 55q119 217 404 217q166 0 261 -77t95 -226v-514h94v-215zM559 258v152q-38 47 -86 47q-44 0 -70 -36.5t-26 -96.5
q0 -59 24.5 -91t67.5 -32q53 0 90 57zM722 1094h-176l-405 379h387z" />
    <glyph glyph-name="aacute" unicode="&#xe1;" horiz-adv-x="1004" 
d="M952 0h-393v78q-91 -92 -207 -92q-117 0 -195.5 92t-78.5 233q0 144 85 239t216 95q91 0 180 -61v106q0 81 -20.5 114.5t-73.5 33.5q-71 0 -98 -78l-269 55q119 217 404 217q166 0 261 -77t95 -226v-514h94v-215zM559 258v152q-38 47 -86 47q-44 0 -70 -36.5t-26 -96.5
q0 -59 24.5 -91t67.5 -32q53 0 90 57zM311 1094l194 379h387l-405 -379h-176z" />
    <glyph glyph-name="acircumflex" unicode="&#xe2;" horiz-adv-x="1004" 
d="M952 0h-393v78q-91 -92 -207 -92q-117 0 -195.5 92t-78.5 233q0 144 85 239t216 95q91 0 180 -61v106q0 81 -20.5 114.5t-73.5 33.5q-71 0 -98 -78l-269 55q119 217 404 217q166 0 261 -77t95 -226v-514h94v-215zM559 258v152q-38 47 -86 47q-44 0 -70 -36.5t-26 -96.5
q0 -59 24.5 -91t67.5 -32q53 0 90 57zM172 1085l185 388h292l185 -388h-191l-139 197l-141 -197h-191z" />
    <glyph glyph-name="atilde" unicode="&#xe3;" horiz-adv-x="1004" 
d="M952 0h-393v78q-91 -92 -207 -92q-117 0 -195.5 92t-78.5 233q0 144 85 239t216 95q91 0 180 -61v106q0 81 -20.5 114.5t-73.5 33.5q-71 0 -98 -78l-269 55q119 217 404 217q166 0 261 -77t95 -226v-514h94v-215zM559 258v152q-38 47 -86 47q-44 0 -70 -36.5t-26 -96.5
q0 -59 24.5 -91t67.5 -32q53 0 90 57zM299 1147h-139q8 119 70 192.5t145 73.5q47 0 148 -40q85 -34 118 -34q43 0 62 76h143q-12 -121 -73.5 -193.5t-141.5 -72.5q-56 0 -166 45q-73 31 -98 31q-51 0 -68 -78z" />
    <glyph glyph-name="adieresis" unicode="&#xe4;" horiz-adv-x="1004" 
d="M952 0h-393v78q-91 -92 -207 -92q-117 0 -195.5 92t-78.5 233q0 144 85 239t216 95q91 0 180 -61v106q0 81 -20.5 114.5t-73.5 33.5q-71 0 -98 -78l-269 55q119 217 404 217q166 0 261 -77t95 -226v-514h94v-215zM559 258v152q-38 47 -86 47q-44 0 -70 -36.5t-26 -96.5
q0 -59 24.5 -91t67.5 -32q53 0 90 57zM160 1290q0 54 38.5 91.5t92.5 37.5t91.5 -37.5t37.5 -91.5t-38 -92.5t-91 -38.5t-92 39t-39 92zM588 1290q0 53 38.5 91t92.5 38t91.5 -37.5t37.5 -91.5t-38 -92.5t-91 -38.5t-92 39t-39 92z" />
    <glyph glyph-name="aring" unicode="&#xe5;" horiz-adv-x="1004" 
d="M952 0h-393v78q-91 -92 -207 -92q-117 0 -195.5 92t-78.5 233q0 144 85 239t216 95q91 0 180 -61v106q0 81 -20.5 114.5t-73.5 33.5q-71 0 -98 -78l-269 55q119 217 404 217q166 0 261 -77t95 -226v-514h94v-215zM559 258v152q-38 47 -86 47q-44 0 -70 -36.5t-26 -96.5
q0 -59 24.5 -91t67.5 -32q53 0 90 57zM295 1294q0 86 61.5 146.5t147.5 60.5t146.5 -60.5t60.5 -146.5t-61 -147.5t-146 -61.5q-86 0 -147.5 62t-61.5 147zM606 1294q0 43 -30.5 73t-73.5 30t-72.5 -30t-29.5 -73t29.5 -73.5t72.5 -30.5t73.5 31t30.5 73z" />
    <glyph glyph-name="ae" unicode="&#xe6;" horiz-adv-x="1386" 
d="M1059 313l248 -92q-100 -250 -363 -250q-203 0 -295 162q-148 -162 -287 -162q-122 0 -199 91t-77 237q0 155 83.5 247.5t221.5 92.5q90 0 172 -64v136q0 68 -22 97.5t-74 29.5q-71 0 -94 -82l-269 53q116 223 400 223q126 0 239 -59q97 59 203 59q73 0 141.5 -25.5
t125.5 -92t83.5 -171.5t26.5 -286h-461q0 -180 21 -225.5t71 -45.5q49 0 71.5 30.5t33.5 96.5zM862 606h162q0 135 -15.5 178t-62.5 43q-48 0 -66 -42.5t-18 -178.5zM563 238v170q-44 43 -86 43q-47 0 -73.5 -33.5t-26.5 -91.5q0 -64 26 -102t70 -38q41 0 90 52z" />
    <glyph glyph-name="ccedilla" unicode="&#xe7;" horiz-adv-x="897" 
d="M268 -340l11 115q104 0 129.5 21t25.5 52q0 54 -92 68q20 24 37 64q-149 35 -229 174.5t-80 357.5q0 228 91.5 368t239.5 140q142 0 191 -125h4v109h215v-406h-215q-7 109 -34.5 161t-82.5 52q-58 0 -78 -68.5t-20 -230.5q0 -177 19.5 -251.5t91.5 -74.5q50 0 73 51
t31 160l231 -86q-55 -324 -323 -338v-4q90 -29 90 -137q0 -84 -61.5 -132t-167.5 -48q-60 0 -97 8z" />
    <glyph glyph-name="egrave" unicode="&#xe8;" horiz-adv-x="874" 
d="M557 313l248 -92q-46 -120 -141 -185t-220 -65q-378 0 -378 543q0 256 101.5 387t285.5 131q160 0 263 -123t103 -358v-94h-457q0 -167 19.5 -219t73.5 -52q46 0 69 31.5t33 95.5zM362 606h158v49q0 172 -78 172q-46 0 -63 -52.5t-17 -168.5zM657 1094h-176l-405 379h387
z" />
    <glyph glyph-name="eacute" unicode="&#xe9;" horiz-adv-x="874" 
d="M557 313l248 -92q-46 -120 -141 -185t-220 -65q-378 0 -378 543q0 256 101.5 387t285.5 131q160 0 263 -123t103 -358v-94h-457q0 -167 19.5 -219t73.5 -52q46 0 69 31.5t33 95.5zM362 606h158v49q0 172 -78 172q-46 0 -63 -52.5t-17 -168.5zM246 1094l194 379h387
l-405 -379h-176z" />
    <glyph glyph-name="ecircumflex" unicode="&#xea;" horiz-adv-x="874" 
d="M557 313l248 -92q-46 -120 -141 -185t-220 -65q-378 0 -378 543q0 256 101.5 387t285.5 131q160 0 263 -123t103 -358v-94h-457q0 -167 19.5 -219t73.5 -52q46 0 69 31.5t33 95.5zM362 606h158v49q0 172 -78 172q-46 0 -63 -52.5t-17 -168.5zM106 1085l185 388h292
l185 -388h-191l-139 197l-141 -197h-191z" />
    <glyph glyph-name="edieresis" unicode="&#xeb;" horiz-adv-x="874" 
d="M557 313l248 -92q-46 -120 -141 -185t-220 -65q-378 0 -378 543q0 256 101.5 387t285.5 131q160 0 263 -123t103 -358v-94h-457q0 -167 19.5 -219t73.5 -52q46 0 69 31.5t33 95.5zM362 606h158v49q0 172 -78 172q-46 0 -63 -52.5t-17 -168.5zM109 1290q0 54 38.5 91.5
t92.5 37.5t91.5 -37.5t37.5 -91.5t-38 -92.5t-91 -38.5t-92 39t-39 92zM537 1290q0 53 38.5 91t92.5 38t91.5 -37.5t37.5 -91.5t-38 -92.5t-91 -38.5t-92 39t-39 92z" />
    <glyph glyph-name="igrave" unicode="&#xec;" horiz-adv-x="618" 
d="M63 0v215h109v573h-109v216h408v-789h96v-215h-504zM530 1094h-176l-405 379h387z" />
    <glyph glyph-name="iacute" unicode="&#xed;" horiz-adv-x="618" 
d="M63 0v215h109v573h-109v216h408v-789h96v-215h-504zM119 1094l194 379h387l-405 -379h-176z" />
    <glyph glyph-name="icircumflex" unicode="&#xee;" horiz-adv-x="618" 
d="M63 0v215h109v573h-109v216h408v-789h96v-215h-504zM-20 1085l185 388h292l185 -388h-191l-139 197l-141 -197h-191z" />
    <glyph glyph-name="idieresis" unicode="&#xef;" horiz-adv-x="618" 
d="M63 0v215h109v573h-109v216h408v-789h96v-215h-504zM-33 1290q0 54 38.5 91.5t92.5 37.5t91.5 -37.5t37.5 -91.5t-38 -92.5t-91 -38.5t-92 39t-39 92zM395 1290q0 53 38.5 91t92.5 38t91.5 -37.5t37.5 -91.5t-38 -92.5t-91 -38.5t-92 39t-39 92z" />
    <glyph glyph-name="eth" unicode="&#xf0;" horiz-adv-x="981" 
d="M213 1184l211 100q-62 69 -141 113l155 63q86 -32 166 -90l189 90l88 -78l-191 -92q223 -220 223 -696q0 -307 -115.5 -465t-312.5 -158q-177 0 -297 146.5t-120 365.5q0 238 107.5 393.5t258.5 155.5q92 0 146 -45l4 4q-34 128 -90 205l-191 -92zM492 803
q-60 0 -86.5 -73t-26.5 -228t26.5 -228t86.5 -73q110 0 110 301t-110 301z" />
    <glyph glyph-name="ntilde" unicode="&#xf1;" horiz-adv-x="1087" 
d="M53 0v215h111v573h-111v216h410v-107h8q67 123 217 123q116 0 187 -86.5t71 -237.5v-481h101v-215h-400v647q0 80 -18 112t-66 32q-25 0 -43 -9t-57 -39v-528h86v-215h-496zM340 1147h-139q8 119 70 192.5t145 73.5q47 0 148 -40q85 -34 118 -34q43 0 62 76h143
q-12 -121 -73.5 -193.5t-141.5 -72.5q-56 0 -166 45q-73 31 -98 31q-51 0 -68 -78z" />
    <glyph glyph-name="ograve" unicode="&#xf2;" horiz-adv-x="981" 
d="M492 -29q-186 0 -305 148.5t-119 382.5q0 233 118 381.5t306 148.5q184 0 302.5 -148.5t118.5 -381.5q0 -234 -118.5 -382.5t-302.5 -148.5zM492 803q-60 0 -86.5 -73t-26.5 -228t26.5 -228t86.5 -73q110 0 110 301t-110 301zM710 1094h-176l-405 379h387z" />
    <glyph glyph-name="oacute" unicode="&#xf3;" horiz-adv-x="981" 
d="M492 -29q-186 0 -305 148.5t-119 382.5q0 233 118 381.5t306 148.5q184 0 302.5 -148.5t118.5 -381.5q0 -234 -118.5 -382.5t-302.5 -148.5zM492 803q-60 0 -86.5 -73t-26.5 -228t26.5 -228t86.5 -73q110 0 110 301t-110 301zM299 1094l194 379h387l-405 -379h-176z" />
    <glyph glyph-name="ocircumflex" unicode="&#xf4;" horiz-adv-x="981" 
d="M492 -29q-186 0 -305 148.5t-119 382.5q0 233 118 381.5t306 148.5q184 0 302.5 -148.5t118.5 -381.5q0 -234 -118.5 -382.5t-302.5 -148.5zM492 803q-60 0 -86.5 -73t-26.5 -228t26.5 -228t86.5 -73q110 0 110 301t-110 301zM160 1085l185 388h292l185 -388h-191
l-139 197l-141 -197h-191z" />
    <glyph glyph-name="otilde" unicode="&#xf5;" horiz-adv-x="981" 
d="M492 -29q-186 0 -305 148.5t-119 382.5q0 233 118 381.5t306 148.5q184 0 302.5 -148.5t118.5 -381.5q0 -234 -118.5 -382.5t-302.5 -148.5zM492 803q-60 0 -86.5 -73t-26.5 -228t26.5 -228t86.5 -73q110 0 110 301t-110 301zM286 1147h-139q8 119 70 192.5t145 73.5
q47 0 148 -40q85 -34 118 -34q43 0 62 76h143q-12 -121 -73.5 -193.5t-141.5 -72.5q-56 0 -166 45q-73 31 -98 31q-51 0 -68 -78z" />
    <glyph glyph-name="odieresis" unicode="&#xf6;" horiz-adv-x="981" 
d="M492 -29q-186 0 -305 148.5t-119 382.5q0 233 118 381.5t306 148.5q184 0 302.5 -148.5t118.5 -381.5q0 -234 -118.5 -382.5t-302.5 -148.5zM492 803q-60 0 -86.5 -73t-26.5 -228t26.5 -228t86.5 -73q110 0 110 301t-110 301zM150 1290q0 54 38.5 91.5t92.5 37.5
t91.5 -37.5t37.5 -91.5t-38 -92.5t-91 -38.5t-92 39t-39 92zM578 1290q0 53 38.5 91t92.5 38t91.5 -37.5t37.5 -91.5t-38 -92.5t-91 -38.5t-92 39t-39 92z" />
    <glyph glyph-name="divide" unicode="&#xf7;" horiz-adv-x="1368" 
d="M553 1090q0 53 37.5 91t91.5 38q53 0 91 -38t38 -91q0 -54 -37.5 -91.5t-91.5 -37.5t-91.5 37.5t-37.5 91.5zM127 784h1112v-215h-1112v215zM553 264q0 54 37.5 91.5t91.5 37.5q53 0 91 -37.5t38 -91.5q0 -53 -38 -91t-91 -38q-54 0 -91.5 38t-37.5 91z" />
    <glyph glyph-name="oslash" unicode="&#xf8;" horiz-adv-x="981" 
d="M154 168q-37 49 -61.5 144t-24.5 190q0 233 118 381.5t306 148.5q143 0 241 -86l58 86l122 -84l-82 -117q82 -137 82 -329q0 -234 -118.5 -382.5t-302.5 -148.5q-138 0 -240 82l-64 -82l-118 88zM383 471l190 260q-24 72 -81 72q-60 0 -86.5 -73t-26.5 -228v-31h4z
M598 524l-188 -260q25 -63 82 -63q110 0 110 301v22h-4z" />
    <glyph glyph-name="ugrave" unicode="&#xf9;" horiz-adv-x="1067" 
d="M920 1004v-789h110v-215h-409v80q-115 -96 -226 -96q-116 0 -187 86t-71 237v481h-100v216h399v-648q0 -80 18.5 -111.5t65.5 -31.5q26 0 43.5 8.5t57.5 38.5v528h-86v216h385zM753 1094h-176l-405 379h387z" />
    <glyph glyph-name="uacute" unicode="&#xfa;" horiz-adv-x="1067" 
d="M920 1004v-789h110v-215h-409v80q-115 -96 -226 -96q-116 0 -187 86t-71 237v481h-100v216h399v-648q0 -80 18.5 -111.5t65.5 -31.5q26 0 43.5 8.5t57.5 38.5v528h-86v216h385zM342 1094l194 379h387l-405 -379h-176z" />
    <glyph glyph-name="ucircumflex" unicode="&#xfb;" horiz-adv-x="1067" 
d="M920 1004v-789h110v-215h-409v80q-115 -96 -226 -96q-116 0 -187 86t-71 237v481h-100v216h399v-648q0 -80 18.5 -111.5t65.5 -31.5q26 0 43.5 8.5t57.5 38.5v528h-86v216h385zM203 1085l185 388h292l185 -388h-191l-139 197l-141 -197h-191z" />
    <glyph glyph-name="udieresis" unicode="&#xfc;" horiz-adv-x="1067" 
d="M920 1004v-789h110v-215h-409v80q-115 -96 -226 -96q-116 0 -187 86t-71 237v481h-100v216h399v-648q0 -80 18.5 -111.5t65.5 -31.5q26 0 43.5 8.5t57.5 38.5v528h-86v216h385zM190 1290q0 54 38.5 91.5t92.5 37.5t91.5 -37.5t37.5 -91.5t-38 -92.5t-91 -38.5t-92 39
t-39 92zM618 1290q0 53 38.5 91t92.5 38t91.5 -37.5t37.5 -91.5t-38 -92.5t-91 -38.5t-92 39t-39 92z" />
    <glyph glyph-name="yacute" unicode="&#xfd;" horiz-adv-x="918" 
d="M207 -455v215h141l43 185l-295 843h-71v216h409v-216h-67l135 -391h4l94 391h-65v216h358v-216h-80l-309 -1243h-297zM268 1094l194 379h387l-405 -379h-176z" />
    <glyph glyph-name="thorn" unicode="&#xfe;" horiz-adv-x="981" 
d="M37 -459v215h98v1467h-98v215h397v-535h4q66 117 180 117q141 0 217 -132.5t76 -381.5q0 -253 -75 -387.5t-213 -134.5q-105 0 -189 94v-322h137v-215h-534zM434 602v-217q0 -100 19 -143t65 -43q57 0 69.5 68.5t12.5 240.5q0 153 -18 212.5t-66 59.5q-82 0 -82 -178z
" />
    <glyph glyph-name="ydieresis" unicode="&#xff;" horiz-adv-x="918" 
d="M207 -455v215h141l43 185l-295 843h-71v216h409v-216h-67l135 -391h4l94 391h-65v216h358v-216h-80l-309 -1243h-297zM117 1290q0 54 38.5 91.5t92.5 37.5t91.5 -37.5t37.5 -91.5t-38 -92.5t-91 -38.5t-92 39t-39 92zM545 1290q0 53 38.5 91t92.5 38t91.5 -37.5
t37.5 -91.5t-38 -92.5t-91 -38.5t-92 39t-39 92z" />
    <glyph glyph-name="dotlessi" unicode="&#x131;" horiz-adv-x="618" 
d="M63 0v215h109v573h-109v216h408v-789h96v-215h-504z" />
    <glyph glyph-name="Lslash" unicode="&#x141;" horiz-adv-x="1067" 
d="M51 0v215h127v279l-127 -88v243l127 88v486h-127v215h627v-215h-158v-267l205 152v-246l-205 -149v-498h242v426h256v-641h-967z" />
    <glyph glyph-name="lslash" unicode="&#x142;" horiz-adv-x="575" 
d="M25 0v215h112v297l-127 -98v219l127 96v494h-112v215h411v-477l113 88v-218l-113 -90v-526h99v-215h-510z" />
    <glyph glyph-name="OE" unicode="&#x152;" horiz-adv-x="1493" 
d="M1417 0h-747q-287 0 -441.5 179t-154.5 503q0 756 600 756h743v-459h-256v244h-186v-381h155v-215h-155v-412h186v256h256v-471zM633 215v1008q-105 -15 -144.5 -104.5t-39.5 -377.5q0 -199 11 -300.5t50 -157t123 -68.5z" />
    <glyph glyph-name="oe" unicode="&#x153;" horiz-adv-x="1366" 
d="M1036 311l244 -96q-98 -244 -358 -244q-142 0 -232 80q-99 -80 -221 -80q-185 0 -295.5 144.5t-110.5 390.5q0 239 111 382.5t293 143.5q135 0 231 -82q98 82 230 82q82 0 151 -29t121 -97.5t74 -171t22 -277.5h-456v-107q0 -94 20.5 -129t71.5 -35q41 0 64.5 29t39.5 96
zM838 606h161q0 122 -14 171.5t-63 49.5q-52 0 -68 -45.5t-16 -175.5zM457 803q-48 0 -65 -67.5t-17 -260.5q0 -144 17 -209t69 -65q47 0 64.5 61.5t17.5 251.5q0 157 -17 223t-69 66z" />
    <glyph glyph-name="Scaron" unicode="&#x160;" horiz-adv-x="897" 
d="M74 0v467h215q0 -164 35 -213t92 -49q51 0 79.5 38t28.5 105q0 54 -32 113t-161 179q-174 160 -222 263t-48 203q0 151 84 247.5t213 96.5q64 0 112 -19.5t114 -82.5v90h215v-434h-215q0 137 -32 184t-91 47q-43 0 -68.5 -29t-25.5 -78q0 -60 29.5 -105t117.5 -120
q198 -170 259 -284t61 -244q0 -167 -92.5 -277t-231.5 -110q-122 0 -221 102v-90h-215zM781 1899l-185 -388h-292l-185 388h191l139 -197l141 197h191z" />
    <glyph glyph-name="scaron" unicode="&#x161;" horiz-adv-x="748" 
d="M70 0v272h215q9 -108 86 -108q30 0 47.5 19t17.5 50q0 28 -21.5 58t-113.5 92q-156 106 -201 188t-45 168q0 126 64.5 203.5t169.5 77.5q92 0 157 -82h5v66h215v-261h-215q-15 105 -84 105q-31 0 -49.5 -19.5t-18.5 -50.5q0 -30 23 -61.5t118 -93.5q78 -50 128 -92.5
t86 -109.5t36 -159q0 -126 -64 -202t-169 -76q-65 0 -94 15.5t-56 46.5q-12 14 -18 20h-4v-66h-215zM705 1473l-185 -388h-292l-185 388h191l139 -197l141 197h191z" />
    <glyph glyph-name="Ydieresis" unicode="&#x178;" horiz-adv-x="1174" 
d="M291 0v215h119v332l-285 676h-98v215h551v-215h-129l176 -430l184 430h-131v215h467v-215h-101l-292 -676v-332h112v-215h-573zM244 1716q0 54 38.5 91.5t92.5 37.5t91.5 -37.5t37.5 -91.5t-38 -92.5t-91 -38.5t-92 39t-39 92zM672 1716q0 53 38.5 91t92.5 38t91.5 -37.5
t37.5 -91.5t-38 -92.5t-91 -38.5t-92 39t-39 92z" />
    <glyph glyph-name="Zcaron" unicode="&#x17d;" horiz-adv-x="961" 
d="M51 0v215l498 1008h-252v-240h-215v455h819v-215l-495 -1008h288v258h215v-473h-858zM812 1899l-185 -388h-292l-185 388h191l139 -197l141 197h191z" />
    <glyph glyph-name="zcaron" unicode="&#x17e;" horiz-adv-x="831" 
d="M45 0v197l440 630h-223v-143h-190v320h708v-193l-440 -635h256v152h190v-328h-741zM748 1473l-185 -388h-292l-185 388h191l139 -197l141 197h191z" />
    <glyph glyph-name="florin" unicode="&#x192;" horiz-adv-x="1139" 
d="M905 1004l-43 -310h-133l-139 -846q-25 -145 -81.5 -226t-133.5 -81h-217l37 271q76 0 108 29t49 130l121 723h-121l43 310h123q36 210 57 282t67 123t120 51h217l-37 -264q-70 0 -85 -2t-30 -18t-23.5 -43t-29.5 -129h131z" />
    <glyph glyph-name="circumflex" unicode="&#x2c6;" 
d="M10 1085l185 388h292l185 -388h-191l-139 197l-141 -197h-191z" />
    <glyph glyph-name="caron" unicode="&#x2c7;" 
d="M672 1473l-185 -388h-292l-185 388h191l139 -197l141 197h191z" />
    <glyph glyph-name="macron" unicode="&#x2c9;" 
d="M-49 1370h782v-184h-782v184z" />
    <glyph glyph-name="breve" unicode="&#x2d8;" 
d="M506 1438h156q-21 -141 -109 -221t-213 -80q-126 0 -212.5 79.5t-104.5 221.5h155q23 -154 164 -154q139 0 164 154z" />
    <glyph glyph-name="dotaccent" unicode="&#x2d9;" 
d="M211 1290q0 54 38.5 91.5t92.5 37.5t91.5 -37.5t37.5 -91.5t-38 -92.5t-91 -38.5t-92 39t-39 92z" />
    <glyph glyph-name="ring" unicode="&#x2da;" 
d="M133 1294q0 86 61.5 146.5t147.5 60.5t146.5 -60.5t60.5 -146.5t-61 -147.5t-146 -61.5q-86 0 -147.5 62t-61.5 147zM444 1294q0 43 -30.5 73t-73.5 30t-72.5 -30t-29.5 -73t29.5 -73.5t72.5 -30.5t73.5 31t30.5 73z" />
    <glyph glyph-name="ogonek" unicode="&#x2db;" 
d="M215 0h158q-41 -74 -41 -145q0 -129 112 -129q43 0 82 20v-133q-91 -45 -166 -45q-92 0 -149 58t-57 153q0 84 61 221z" />
    <glyph glyph-name="tilde" unicode="&#x2dc;" 
d="M137 1147h-139q8 119 70 192.5t145 73.5q47 0 148 -40q85 -34 118 -34q43 0 62 76h143q-12 -121 -73.5 -193.5t-141.5 -72.5q-56 0 -166 45q-73 31 -98 31q-51 0 -68 -78z" />
    <glyph glyph-name="hungarumlaut" unicode="&#x2dd;" 
d="M426 1094l195 379h387l-406 -379h-176zM-20 1094l194 379h387l-405 -379h-176z" />
    <glyph glyph-name="endash" unicode="&#x2013;" horiz-adv-x="1024" 
d="M-12 604h1048v-184h-1048v184z" />
    <glyph glyph-name="emdash" unicode="&#x2014;" horiz-adv-x="2048" 
d="M-12 604h2072v-184h-2072v184z" />
    <glyph glyph-name="quoteleft" unicode="&#x2018;" horiz-adv-x="598" 
d="M459 1438v-160q-154 -14 -154 -223h154v-320h-320v309q0 376 320 394z" />
    <glyph glyph-name="quoteright" unicode="&#x2019;" horiz-adv-x="598" 
d="M139 735v160q154 14 154 223h-154v320h320v-310q0 -375 -320 -393z" />
    <glyph glyph-name="quotesinglbase" unicode="&#x201a;" horiz-adv-x="598" 
d="M139 -383v160q154 14 154 223h-154v319h320v-309q0 -375 -320 -393z" />
    <glyph glyph-name="quotedblleft" unicode="&#x201c;" horiz-adv-x="1067" 
d="M932 1438v-160q-154 -14 -154 -223h154v-320h-320v309q0 376 320 394zM455 1438v-160q-154 -14 -154 -223h154v-320h-320v309q0 376 320 394z" />
    <glyph glyph-name="quotedblright" unicode="&#x201d;" horiz-adv-x="1067" 
d="M612 735v160q154 14 154 223h-154v320h320v-310q0 -375 -320 -393zM135 735v160q154 14 154 223h-154v320h320v-310q0 -375 -320 -393z" />
    <glyph glyph-name="quotedblbase" unicode="&#x201e;" horiz-adv-x="1067" 
d="M612 -383v160q154 14 154 223h-154v319h320v-309q0 -375 -320 -393zM135 -383v160q154 14 154 223h-154v319h320v-309q0 -375 -320 -393z" />
    <glyph glyph-name="dagger" unicode="&#x2020;" horiz-adv-x="874" 
d="M371 -459l-72 770v271q82 73 84 258h-8q-84 0 -109 -76h-205v252h205q25 -72 117 -74q0 105 -19.5 161t-64.5 93v242h279v-242q-48 -38 -67 -94t-19 -160q91 2 116 74h207v-252h-207q-24 76 -108 76h-8q1 -186 86 -258v-271l-74 -770h-133z" />
    <glyph glyph-name="daggerdbl" unicode="&#x2021;" horiz-adv-x="874" 
d="M301 -459v242q51 37 68.5 92.5t17.5 157.5q-61 -1 -87 -16.5t-36 -57.5h-203v258h203q19 -75 123 -80q0 142 -19 213.5t-67 136.5q86 101 86 353q-102 0 -123 -78h-203v254h203q17 -72 123 -74q0 199 -86 252v244h274v-244q-46 -31 -67 -87.5t-21 -164.5q107 2 123 74
h205v-254h-205q-20 78 -123 78q0 -253 88 -353q-50 -66 -69 -137t-19 -213q105 4 123 80h205v-258h-205q-10 43 -35.5 58t-87.5 16q0 -108 20.5 -162.5t67.5 -87.5v-242h-274z" />
    <glyph glyph-name="bullet" unicode="&#x2022;" horiz-adv-x="717" 
d="M74 678q0 118 84 201.5t202 83.5t201.5 -83.5t83.5 -201.5q0 -119 -83 -203t-202 -84q-117 0 -201.5 84.5t-84.5 202.5z" />
    <glyph glyph-name="ellipsis" unicode="&#x2026;" horiz-adv-x="2048" 
d="M864 0v319h320v-319h-320zM1546 0v319h320v-319h-320zM182 0v319h320v-319h-320z" />
    <glyph glyph-name="perthousand" unicode="&#x2030;" horiz-adv-x="1749" 
d="M256 -16l567 1470h154l-567 -1470h-154zM260 659q-125 0 -178 96t-53 302q0 211 55.5 304t175.5 93t174.5 -96t54.5 -301q0 -207 -55 -302.5t-174 -95.5zM301 938v236q0 83 -8 107t-33 24t-34 -24.5t-9 -109.5v-231q0 -84 8.5 -107.5t32.5 -23.5q27 0 35 22.5t8 106.5z
M1493 -16q-125 0 -178 95.5t-53 301.5q0 212 55.5 304.5t175.5 92.5t174.5 -96t54.5 -301q0 -200 -53.5 -298.5t-175.5 -98.5zM1534 262v236q0 84 -8 107.5t-33 23.5t-34 -24.5t-9 -108.5v-232q0 -84 8.5 -107.5t32.5 -23.5q27 0 35 22.5t8 106.5zM977 -16
q-125 0 -178.5 95.5t-53.5 301.5q0 212 56 304.5t176 92.5t174.5 -96t54.5 -301q0 -200 -53.5 -298.5t-175.5 -98.5zM1018 262v236q0 84 -8 107.5t-33 23.5t-34 -24.5t-9 -108.5v-232q0 -84 8.5 -107.5t32.5 -23.5q27 0 35 22.5t8 106.5z" />
    <glyph glyph-name="guilsinglleft" unicode="&#x2039;" horiz-adv-x="598" 
d="M309 0l-274 502l274 502h260l-272 -502l272 -502h-260z" />
    <glyph glyph-name="guilsinglright" unicode="&#x203a;" horiz-adv-x="598" 
d="M287 0h-258l270 502l-270 502h258l276 -502z" />
    <glyph glyph-name="Euro" unicode="&#x20ac;" horiz-adv-x="874" 
d="M823 397q-19 -209 -106.5 -317.5t-231.5 -108.5q-152 0 -248 136.5t-124 404.5h-88v145h77v111h-77v145h84q22 266 106 403.5t207 137.5q71 0 109.5 -26.5t68.5 -67.5h2v78h184v-424h-186q-18 225 -108 225q-55 0 -75 -82t-24 -244h207v-145h-209v-111h209v-145h-205
q5 -164 28.5 -245t82.5 -81q46 0 67.5 55.5t30.5 182.5z" />
    <glyph glyph-name="trademark" unicode="&#x2122;" horiz-adv-x="2048" 
d="M451 618v676h-254v144h665v-144h-246v-676h-165zM958 618v820h261l147 -566h4l148 566h260v-820h-158v654h-4l-174 -654h-150l-172 654h-4v-654h-158z" />
    <glyph glyph-name="Ohm" unicode="&#x2126;" horiz-adv-x="1573" 
d="M1506 0h-604l33 311q161 59 226 200t65 313q0 227 -107 373t-331 146t-331 -146t-107 -373q0 -172 65 -313t226 -200l33 -311h-604v332h30q16 -66 40 -95.5t96 -29.5h323l-4 57q-238 65 -341 221t-103 332q0 259 192 425.5t485 166.5t485 -166.5t192 -425.5
q0 -176 -103 -332t-341 -221l-4 -57h323q72 0 96 29.5t40 95.5h30v-332z" />
    <glyph glyph-name="partialdiff" unicode="&#x2202;" horiz-adv-x="1012" 
d="M295 1120h-45q131 303 379 303q161 0 263.5 -127t102.5 -376q0 -358 -164.5 -654.5t-427.5 -296.5q-155 0 -246 91t-91 245q0 239 166.5 420.5t383.5 181.5q222 0 312 -190h4q10 144 10 186q0 175 -92.5 276t-253.5 101q-194 0 -301 -160zM911 629q-81 225 -284 225
q-178 0 -286 -190.5t-108 -399.5q0 -108 54 -172.5t143 -64.5q136 0 279.5 162.5t201.5 439.5z" />
    <glyph glyph-name="increment" unicode="&#x2206;" horiz-adv-x="1253" 
d="M668 1409l577 -1409h-1233zM594 1059l-447 -959h844z" />
    <glyph glyph-name="product" unicode="&#x220f;" horiz-adv-x="1686" 
d="M1645 -207h-629v47q120 0 159.5 41t39.5 125v1419h-734v-1419q0 -84 39.5 -125t159.5 -41v-47h-629v47q122 0 160.5 41t38.5 125v1282q0 101 -48.5 152t-146.5 51v47h1586v-47q-98 0 -146.5 -51t-48.5 -152v-1282q0 -84 38.5 -125t160.5 -41v-47z" />
    <glyph glyph-name="summation" unicode="&#x2211;" horiz-adv-x="1460" 
d="M1423 238q-32 -125 -54 -240t-34 -219q-63 11 -102.5 16.5t-54.5 5.5h-1031q-20 0 -59 -3t-59 -3l714 815l-710 930q70 -7 123 -10.5t90 -3.5h1018l12 -326h-41q-31 102 -52.5 141t-81.5 66q-30 13 -74.5 20t-104.5 7h-539l559 -734l-602 -694h760q127 0 177.5 52
t98.5 180h47z" />
    <glyph glyph-name="minus" unicode="&#x2212;" horiz-adv-x="1366" 
d="M127 784h1112v-215h-1112v215z" />
    <glyph glyph-name="fraction" unicode="&#x2215;" horiz-adv-x="213" 
d="M-254 -16l567 1470h152l-565 -1470h-154z" />
    <glyph glyph-name="radical" unicode="&#x221a;" horiz-adv-x="1124" 
d="M1055 1868l-307 -1946l-498 1028l-197 -96l-33 68l299 147l404 -825l260 1634z" />
    <glyph glyph-name="infinity" unicode="&#x221e;" horiz-adv-x="1460" 
d="M653 668q71 169 159 222.5t212 53.5q161 0 272 -116.5t111 -301.5q0 -186 -111.5 -303t-238.5 -117q-95 0 -170.5 63t-165.5 224q-117 -233 -324 -233q-149 0 -246.5 104.5t-97.5 263.5q0 157 89 262t218 105q80 0 149 -42t144 -185zM750 465q64 -138 134.5 -201
t176.5 -63q126 0 207.5 91t81.5 234q0 140 -84 240t-199 100q-55 0 -97.5 -21.5t-74.5 -62t-64 -116.5zM614 557l11 33q-96 215 -267 215q-110 0 -179.5 -76.5t-69.5 -198.5q0 -123 66.5 -207.5t162.5 -84.5q82 0 149.5 65t126.5 254z" />
    <glyph glyph-name="integral" unicode="&#x222b;" horiz-adv-x="561" 
d="M602 1760q0 -39 -29.5 -64t-75.5 -25q-37 0 -60 25t-44 25q-18 0 -27.5 -14.5t-9.5 -43.5q0 -34 19.5 -256t19.5 -551q0 -505 -30 -709.5t-79 -282.5q-26 -41 -67.5 -62t-85.5 -21q-49 0 -86 35t-37 85q0 38 25.5 65t64.5 27q34 0 65.5 -33t44.5 -33q25 0 39.5 44.5
t14.5 153.5q0 37 -6 197t-6 562q0 481 17 638.5t41 215.5q29 70 69 104t84 34q57 0 98 -32.5t41 -83.5z" />
    <glyph glyph-name="approxequal" unicode="&#x2248;" horiz-adv-x="1124" 
d="M1022 874h51q-21 -155 -95.5 -238t-186.5 -83q-97 0 -304 117q-139 78 -211 78q-149 0 -178 -187h-47q20 154 93.5 238t181.5 84q47 0 107 -19.5t224 -107.5q118 -62 193 -62q144 0 172 180zM1022 487h51q-21 -155 -95.5 -238t-186.5 -83q-96 0 -268.5 97t-246.5 97
q-149 0 -178 -186h-47q20 153 93.5 236.5t181.5 83.5q47 0 112 -21.5t219 -103.5q118 -62 193 -62q144 0 172 180z" />
    <glyph glyph-name="notequal" unicode="&#x2260;" horiz-adv-x="1124" 
d="M1106 279h-621l-184 -330l-100 57l151 273h-321v112h385l157 285h-542v112h606l186 336l101 -57l-156 -279h338v-112h-399l-160 -285h559v-112z" />
    <glyph glyph-name="lessequal" unicode="&#x2264;" horiz-adv-x="1124" 
d="M1077 240l-1018 471v127l1018 471v-127l-887 -408l887 -407v-127zM1077 0h-1018v112h1018v-112z" />
    <glyph glyph-name="greaterequal" unicode="&#x2265;" horiz-adv-x="1124" 
d="M1077 711l-1018 -471v127l887 407l-887 408v127l1018 -471v-127zM1077 0h-1018v112h1018v-112z" />
    <glyph glyph-name="lozenge" unicode="&#x25ca;" horiz-adv-x="1012" 
d="M962 763l-397 -763h-122l-397 763l397 763h122zM839 763l-335 652l-335 -652l335 -652z" />
    <glyph glyph-name="apple" unicode="&#xf000;" horiz-adv-x="1618" 
d="M1123 1617q0 -64 -30 -140t-95 -141q-45 -45 -92 -66t-125 -25q2 152 79.5 263t256.5 152q4 -13 5 -23t1 -20zM1509 414q-19 -62 -50.5 -126t-75.5 -131q-66 -101 -132 -151t-132 -50q-52 0 -143.5 33t-154.5 33t-146.5 -34.5t-135.5 -34.5q-78 0 -155 66.5t-153 199.5
q-75 131 -113 260t-38 256q0 235 115.5 383t291.5 148q75 0 181.5 -31t141.5 -31q45 0 147 35t177 35q97 0 176 -40.5t150 -128.5q-111 -94 -147.5 -172.5t-36.5 -160.5q0 -127 71 -229t162 -129z" />
    <glyph glyph-name="foursuperior" unicode="&#xf003;" horiz-adv-x="512" 
d="M197 676v147h60v62h-209q-7 51 -31 102l256 467h166v-442h49v-127h-49v-62h49v-147h-291zM175 1012h82q2 127 8 194l-4 5q-37 -110 -86 -199z" />
    <glyph glyph-name="pi1" unicode="&#xf006;" horiz-adv-x="1124" 
d="M1085 309q-5 -155 -75.5 -248.5t-167.5 -93.5q-79 0 -138.5 91.5t-59.5 281.5q0 42 2 80t5 72l35 329h-231q-60 -624 -98.5 -742.5t-130.5 -118.5q-39 0 -74 31t-35 82q0 46 72.5 128.5t80.5 150.5l60 469h-97q-40 0 -78.5 -19.5t-56.5 -45.5l-43 -64h-35
q49 152 120.5 228.5t164.5 76.5h764v-176h-258q-12 -120 -18.5 -240t-6.5 -241q0 -82 38 -133t95 -51q35 0 73.5 28.5t43.5 74.5q3 22 4.5 34.5t1.5 15.5h43z" />
    <glyph glyph-name="fi" unicode="&#xfb01;" horiz-adv-x="1087" 
d="M41 0v215h100v573h-100v216h100v65q0 180 112.5 285.5t293.5 105.5q269 0 379 -264l-299 -96q-3 75 -23 110t-69 35q-52 0 -73.5 -39t-21.5 -129v-73h486v-789h106v-215h-446v215h41v573h-187v-573h43v-215h-442z" />
    <glyph glyph-name="fl" unicode="&#xfb02;" horiz-adv-x="1067" 
d="M39 0v215h100v573h-100v216h100v63q0 176 117 284.5t287 108.5q26 0 48.5 -2t45.5 -8l49 -12h238v-1223h104v-215h-446v215h43v573h-187v-573h43v-215h-442zM438 1004h187v73q0 88 -21 128t-69 40q-52 0 -74.5 -40t-22.5 -128v-73z" />
    </font>
</defs>
</svg>
