<?xml version="1.0" encoding="UTF-8"?>
<!DOCTYPE svg  PUBLIC '-//W3C//DTD SVG 1.1//EN'  'http://www.w3.org/Graphics/SVG/1.1/DTD/svg11.dtd'>
<svg version="1.1" xmlns="http://www.w3.org/2000/svg">
<defs>
<font id="Rubik-SemiBold" horiz-adv-x="580">
<font-face font-family="Rubik SemiBold" font-weight="600" ascent="800" bbox="-220 -220 918 911" cap-height="700" descent="-200" panose-1="0 0 0 0 0 0 0 0 0 0" underline-position="-75" underline-thickness="50" unicode-range="U+0020-2084" units-per-em="1000" x-height="520"/>
<missing-glyph/>
<glyph glyph-name="space" horiz-adv-x="221" unicode=" "/>
<glyph d="M91 207q-11 0 -18 7.5t-7 17.5v443q0 11 7 18t18 7h98q10 0 17 -7t7 -18v-443q0 -10 -7 -17.5t-17 -7.5h-98zM85 0q-10 0 -17 7t-7 18v108q0 10 7 17.5t17 7.5h108q11 0 18 -7.5t7 -17.5v-108q0 -11 -7 -18t-18 -7h-108z" glyph-name="exclam" horiz-adv-x="279" unicode="!"/>
<glyph d="M288 456q-13 0 -18.5 8t-7.5 18l-21 200q-2 13 4.5 20.5t18.5 7.5h100q12 0 18.5 -7.5t4.5 -20.5l-21 -200q-1 -10 -6.5 -18t-19.5 -8h-52zM92 456q-13 0 -18.5 8t-7.5 18l-21 200q-2 13 5 20.5t18 7.5h100q12 0 18.5 -7.5t4.5 -20.5l-21 -200q-1 -10 -6.5 -18t-19.5 -8 h-52z" glyph-name="quotedbl" horiz-adv-x="432" unicode='"'/>
<glyph d="M153 39q-9 0 -15.5 6.5t-5.5 15.5l15 102h-78q-10 0 -16.5 6.5t-6.5 16.5v68q0 10 6.5 16.5t16.5 6.5h95l21 140h-90q-10 0 -16.5 6.5t-6.5 16.5v68q0 10 6.5 16.5t16.5 6.5h107l16 103q2 8 7.5 14.5t15.5 6.5h69q9 0 15 -6.5t6 -15.5l-16 -102h114l16 103q2 8 7.5 14.5 t15.5 6.5h69q9 0 15 -6.5t6 -15.5l-16 -102h77q11 0 17.5 -6.5t6.5 -16.5v-68q0 -10 -6.5 -16.5t-17.5 -6.5h-94l-20 -140h88q11 0 17.5 -6.5t6.5 -16.5v-68q0 -10 -6.5 -16.5t-17.5 -6.5h-106l-14 -103q-3 -21 -24 -21h-69q-9 0 -15 6.5t-6 15.5l15 102h-114l-14 -103 q-3 -21 -24 -21h-69zM278 277h113l21 140h-114z" glyph-name="numbersign" horiz-adv-x="689" unicode="#"/>
<glyph d="M291 -100q-11 0 -18 7t-7 18v69q-76 9 -127 37.5t-77 69.5t-28 86q0 9 6.5 15t15.5 6h107q13 0 20.5 -5t12.5 -13q7 -18 22.5 -34t42.5 -26t67 -10q65 0 97.5 21t32.5 57q0 25 -17.5 41t-55 29t-100.5 27q-75 17 -127 42.5t-78.5 66t-26.5 100.5q0 79 56.5 134t156.5 68 v69q0 11 7 18t18 7h71q11 0 18 -7t7 -18v-71q69 -11 115 -41.5t70.5 -69t25.5 -74.5q0 -9 -6 -15.5t-15 -6.5h-113q-9 0 -17 4t-14 14q-6 27 -35.5 46t-75.5 19q-49 0 -77.5 -17.5t-28.5 -54.5q0 -24 14.5 -40.5t49 -29t91.5 -26.5q88 -18 143 -43.5t81 -65t26 -99.5 q0 -58 -29.5 -102.5t-82 -71.5t-122.5 -36v-69q0 -11 -7 -18t-18 -7h-71z" glyph-name="dollar" horiz-adv-x="655" unicode="$"/>
<glyph d="M111 0q-22 0 -22 20q0 6 4 11l494 650q7 9 14 14t20 5h62q22 0 22 -20q0 -6 -4 -11l-493 -650q-7 -9 -14 -14t-21 -5h-62zM603 -5q-67 0 -107 36t-44 96q-2 26 -1.5 46t1.5 48q3 60 41.5 97t109.5 37q72 0 110 -37t42 -97q2 -28 2 -48t-2 -46q-4 -60 -44 -96t-108 -36z M603 77q19 0 30 8.5t16.5 21t6.5 26.5q2 23 2 41.5t-2 41.5q-1 21 -13 38t-40 17t-39.5 -17t-12.5 -38q-1 -23 -1 -41.5t1 -41.5q1 -14 6 -26.5t16.5 -21t29.5 -8.5zM192 347q-68 0 -107.5 35.5t-43.5 95.5q-2 26 -1.5 45.5t1.5 47.5q3 61 41.5 97.5t109.5 36.5 q72 0 110 -36.5t41 -97.5q2 -28 2 -47.5t-2 -45.5q-3 -60 -43 -95.5t-108 -35.5zM192 428q19 0 30 8t16.5 21t6.5 26q2 24 2 42.5t-2 40.5q-1 21 -13 38.5t-40 17.5t-39.5 -17.5t-13.5 -38.5q-1 -22 -1 -40.5t1 -42.5q2 -13 7 -26t16 -21t30 -8z" glyph-name="percent" horiz-adv-x="795" unicode="%"/>
<glyph d="M296 -10q-75 0 -131 24.5t-87 70.5t-31 108q0 44 17.5 78t48.5 61.5t71 50.5q-41 44 -58.5 80t-17.5 74q0 46 24 85t71 63.5t115 24.5q64 0 109 -23.5t69 -62.5t24 -85q0 -41 -18 -73.5t-50.5 -58.5t-73.5 -50l131 -130q10 16 25 46t27 77q3 16 21 16h87q9 0 14.5 -5.5 t5.5 -14.5q0 -19 -8.5 -44.5t-22.5 -53.5t-30.5 -55t-34.5 -50l109 -110q7 -8 7 -15q0 -8 -5 -13t-14 -5h-115q-10 0 -16 3.5t-11 6.5l-50 48q-40 -34 -89.5 -51t-112.5 -17zM296 105q33 0 62.5 11t54.5 34l-147 145q-31 -17 -53.5 -40.5t-22.5 -56.5q0 -29 15.5 -50 t39.5 -32t51 -11zM300 441q25 13 46 26.5t33 30t12 37.5q0 31 -20.5 49t-52.5 18q-29 0 -51 -18t-22 -49q0 -14 5 -27.5t17.5 -29.5t32.5 -37z" glyph-name="ampersand" horiz-adv-x="730" unicode="&amp;"/>
<glyph d="M92 456q-13 0 -18.5 8t-7.5 18l-21 200q-2 13 5 20.5t18 7.5h100q12 0 18.5 -7.5t4.5 -20.5l-21 -200q-1 -10 -6.5 -18t-19.5 -8h-52z" glyph-name="quotesingle" horiz-adv-x="236" unicode="'"/>
<glyph d="M325 -159q-68 0 -120 26.5t-87.5 83t-53.5 145.5t-18 213q0 125 18 213.5t53.5 144.5t87.5 82.5t120 26.5q10 0 17 -7.5t7 -17.5v-72q0 -10 -7 -17t-16 -7q-41 -2 -68.5 -24.5t-44 -65.5t-23.5 -107t-7 -149t7 -149.5t23.5 -107.5t44 -65.5t68.5 -24.5q9 0 16 -7t7 -17 v-72q0 -10 -7 -17.5t-17 -7.5z" glyph-name="parenleft" horiz-adv-x="373" unicode="("/>
<glyph d="M48 -159q-10 0 -17.5 7.5t-7.5 17.5v72q0 10 7.5 17t16.5 7q41 2 68.5 24.5t43.5 65.5t23 107.5t7 149.5t-7 149t-23 107t-43.5 65.5t-68.5 24.5q-9 0 -16.5 7t-7.5 17v72q0 10 7.5 17.5t17.5 7.5q68 0 120 -26.5t87.5 -82.5t53.5 -144.5t18 -213.5q0 -124 -18 -213 t-53.5 -145.5t-87.5 -83t-120 -26.5z" glyph-name="parenright" horiz-adv-x="373" unicode=")"/>
<glyph d="M152 392l-65 49q-7 5 -8 14t3 16q0 1 6 6l67 58l-88 7q-4 1 -5.5 1.5t-2.5 0.5q-7 2 -11.5 10.5t-2.5 17.5l25 77q2 8 11 12t16 2q2 0 8 -3l75 -45l-19 85q-1 3 -1 5v3q0 8 6.5 15t15.5 7h81q9 0 15.5 -7t6.5 -15v-3t-1 -5l-20 -86l76 46q6 3 8 3q8 2 16.5 -2t10.5 -12 l25 -77q2 -9 -2 -17.5t-12 -10.5q-1 0 -2.5 -0.5t-5.5 -1.5l-88 -8l67 -57q6 -5 6 -6q5 -7 4 -16t-9 -14l-65 -49q-8 -4 -17 -2.5t-14 8.5q-1 1 -2 2.5t-3 3.5l-35 82l-34 -82q-1 -2 -2.5 -3.5l-2.5 -2.5q-4 -7 -13.5 -8.5t-17.5 2.5z" glyph-name="asterisk" horiz-adv-x="445" unicode="*"/>
<glyph d="M270 33q-10 0 -17 7t-7 18v189h-185q-11 0 -18 7t-7 17v63q0 11 7 18t18 7h185v183q0 11 7 18t17 7h71q10 0 17 -7t7 -18v-183h185q10 0 17 -7t7 -18v-63q0 -10 -7 -17t-17 -7h-185v-189q0 -11 -7 -18t-17 -7h-71z" glyph-name="plus" horiz-adv-x="610" unicode="+"/>
<glyph d="M56 -75q-9 0 -14 6.5t-4 15.5l28 182q2 13 10 23.5t24 10.5h105q8 0 13 -6t5 -13t-2 -13l-70 -179q-4 -10 -11.5 -18.5t-23.5 -8.5h-60z" glyph-name="comma" horiz-adv-x="271" unicode=","/>
<glyph d="M84 235q-10 0 -17 7t-7 18v80q0 11 7 18t17 7h311q10 0 17 -7t7 -18v-80q0 -11 -7 -18t-17 -7h-311z" glyph-name="hyphen" horiz-adv-x="479" unicode="-"/>
<glyph d="M82 0q-11 0 -18 7t-7 18v113q0 10 7 17.5t18 7.5h113q10 0 17.5 -7.5t7.5 -17.5v-113q0 -11 -7.5 -18t-17.5 -7h-113z" glyph-name="period" horiz-adv-x="276" unicode="."/>
<glyph d="M45 -84q-9 0 -15 6.5t-6 14.5q0 5 2 10l340 816q3 8 10.5 15.5t22.5 7.5h77q9 0 15 -6.5t6 -14.5q0 -4 -2 -10l-341 -816q-2 -7 -10 -15t-23 -8h-76z" glyph-name="slash" horiz-adv-x="521" unicode="/"/>
<glyph d="M334 -10q-72 0 -123.5 20.5t-85 57t-50 85t-19.5 103.5q-1 27 -1.5 60.5t0 67.5t1.5 62q2 55 19.5 103t51.5 84t85.5 56.5t121.5 20.5t121 -20.5t85 -56.5t51.5 -84t20.5 -103q1 -28 1.5 -62t0 -67.5t-1.5 -60.5q-3 -55 -20 -103.5t-50.5 -85t-85 -57t-122.5 -20.5z M334 120q58 0 85 38t28 103q2 29 2 60v62t-2 58q-1 62 -28 101t-85 39t-85 -39t-29 -101q0 -27 -0.5 -58t0 -62t0.5 -60q2 -65 29.5 -103t84.5 -38z" glyph-name="zero" horiz-adv-x="669" unicode="0"/>
<glyph d="M277 0q-10 0 -17.5 7t-7.5 18v497l-144 -112q-9 -6 -18.5 -4.5t-16.5 10.5l-50 66q-6 9 -4.5 19t10.5 16l228 176q6 4 11.5 5.5t12.5 1.5h106q11 0 18 -7t7 -18v-650q0 -11 -7 -18t-18 -7h-110z" glyph-name="one" horiz-adv-x="480" unicode="1"/>
<glyph d="M68 0q-11 0 -18 7t-7 18v60q0 8 4.5 22t20.5 27l131 129q73 56 119 95.5t68 71.5t22 62q0 39 -21.5 64t-68.5 25q-32 0 -54 -13.5t-33.5 -35.5t-16.5 -47q-3 -13 -12 -18t-20 -5h-106q-10 0 -16 6t-6 15q1 46 19.5 87t52.5 73t82 50.5t109 18.5q84 0 141 -27.5t86 -75.5 t29 -111q0 -48 -19.5 -89t-56 -78.5t-88.5 -77.5l-117 -118h271q11 0 18 -7t7 -18v-85q0 -11 -7 -18t-18 -7h-495z" glyph-name="two" horiz-adv-x="634" unicode="2"/>
<glyph d="M318 -10q-74 0 -127 18t-87 46t-51 61.5t-18 64.5q0 9 6 15t15 6h111q11 0 18 -4.5t12 -15.5q9 -23 26.5 -37t42 -19.5t52.5 -5.5q56 0 88 26t32 73q0 48 -30 69t-85 21h-107q-10 0 -17 7t-7 17v49q0 12 4.5 20t9.5 13l172 156h-282q-11 0 -18 7t-7 18v80q0 11 7 18t18 7 h445q11 0 18 -7t7 -18v-73q0 -10 -4.5 -17.5t-10.5 -12.5l-162 -159l10 -2q59 -6 105 -29t72 -65.5t26 -107.5q0 -68 -37 -117t-101 -75.5t-146 -26.5z" glyph-name="three" horiz-adv-x="645" unicode="3"/>
<glyph d="M392 0q-10 0 -17 7t-7 18v120h-315q-10 0 -17 7t-7 18v81q0 8 3 16t8 15l293 401q13 17 37 17h127q11 0 18 -7t7 -18v-396h89q11 0 18 -7t7 -18v-84q0 -11 -7 -18t-18 -7h-89v-120q0 -11 -7 -18t-18 -7h-105zM185 273h186v263z" glyph-name="four" horiz-adv-x="667" unicode="4"/>
<glyph d="M313 -11q-90 0 -151 29t-92.5 76t-33.5 100q0 9 6 15t15 6h113q13 0 20.5 -5t10.5 -15q10 -26 26.5 -43.5t38.5 -25t48 -7.5q32 0 58.5 13t42.5 39t16 64q0 33 -15 58t-41.5 39t-60.5 14q-27 0 -43.5 -6.5t-27.5 -14.5t-20 -14.5t-19 -6.5h-112q-9 0 -15.5 6.5t-6.5 15.5 l35 345q2 14 10.5 21.5t20.5 7.5h388q11 0 18 -7t7 -18v-80q0 -11 -7 -18t-18 -7h-289l-14 -146q19 14 49 24t82 10q48 0 91.5 -15.5t78 -45.5t54 -71.5t19.5 -94.5q0 -72 -34.5 -126.5t-97.5 -85t-150 -30.5z" glyph-name="five" horiz-adv-x="633" unicode="5"/>
<glyph d="M325 -10q-87 0 -152 32t-100.5 88.5t-35.5 127.5q0 30 9 60t22 56.5t26.5 47.5t22.5 34l180 244q4 5 12.5 12.5t22.5 7.5h113q9 0 15 -6.5t6 -15.5q0 -4 -1.5 -7.5t-3.5 -5.5l-137 -189q8 2 18 3t18 1q48 -1 92.5 -19.5t79.5 -50t55.5 -74.5t20.5 -96q0 -67 -34.5 -124 t-98 -91.5t-150.5 -34.5zM323 120q33 0 61 13.5t45 40t17 64.5q0 39 -17 65.5t-45 40t-61 13.5q-32 0 -60.5 -13.5t-45 -40t-16.5 -65.5q0 -38 17 -64.5t45 -40t60 -13.5z" glyph-name="six" horiz-adv-x="639" unicode="6"/>
<glyph d="M143 0q-9 0 -15 6.5t-6 15.5q0 4 2 9l236 534h-307q-10 0 -17.5 7t-7.5 18v85q0 11 7.5 18t17.5 7h454q11 0 18 -7t7 -18v-75q0 -15 -3 -25t-7 -20l-235 -531q-4 -6 -11.5 -15t-22.5 -9h-110z" glyph-name="seven" horiz-adv-x="558" unicode="7"/>
<glyph d="M333 -10q-70 0 -123.5 16.5t-89.5 46t-54 69t-18 86.5q0 57 27.5 99t71.5 65q-35 23 -54.5 58.5t-19.5 82.5q0 56 29 100.5t86.5 70.5t144.5 26q86 0 143.5 -25.5t86 -69.5t28.5 -101q0 -47 -18.5 -83t-54.5 -59q46 -22 73.5 -65t27.5 -100q0 -62 -32.5 -111t-96.5 -77.5 t-157 -28.5zM333 106q35 0 63.5 12t45.5 35t17 54q0 32 -17 54.5t-45.5 34.5t-63.5 12t-64 -12t-45.5 -34.5t-16.5 -54.5q0 -31 16.5 -54t45.5 -35t64 -12zM333 418q31 1 56 12t40 30.5t15 45.5q0 27 -14.5 46.5t-39.5 30.5t-57 11t-57 -11t-39.5 -30.5t-14.5 -46.5 t14.5 -46.5t39.5 -30.5t57 -11z" glyph-name="eight" horiz-adv-x="666" unicode="8"/>
<glyph d="M179 0q-9 0 -15 6.5t-6 15.5q0 5 1.5 8l2.5 5l144 198q-17 -4 -35 -4q-48 2 -91 20t-77 49t-53 73t-19 93q0 46 17.5 90t52.5 79t87 56t121 21t122 -19t89 -52.5t54 -77t18 -92.5q0 -44 -15.5 -82t-37.5 -71t-44 -64l-168 -232q-4 -5 -11.5 -12.5t-23.5 -7.5h-113z M310 348q34 0 60.5 14t42 40t15.5 62q0 37 -15.5 62.5t-42.5 39.5t-60 14q-32 0 -58.5 -14t-42.5 -39.5t-16 -62.5q0 -36 16 -62t42.5 -40t58.5 -14z" glyph-name="nine" horiz-adv-x="629" unicode="9"/>
<glyph d="M85 350q-11 0 -18 7t-7 18v107q0 11 7 18t18 7h113q10 0 17.5 -7t7.5 -18v-107q0 -11 -7.5 -18t-17.5 -7h-113zM85 0q-11 0 -18 7t-7 18v107q0 11 7 18t18 7h113q10 0 17.5 -7t7.5 -18v-107q0 -11 -7.5 -18t-17.5 -7h-113z" glyph-name="colon" horiz-adv-x="283" unicode=":"/>
<glyph d="M64 -75q-9 0 -14 6.5t-4 15.5l28 182q2 13 10 23.5t24 10.5h105q8 0 13 -6t5 -13t-2 -13l-70 -179q-4 -10 -11.5 -18.5t-23.5 -8.5h-60zM98 350q-11 0 -18 7t-7 18v107q0 11 7 18t18 7h113q10 0 17.5 -7t7.5 -18v-107q0 -11 -7.5 -18t-17.5 -7h-113z" glyph-name="semicolon" horiz-adv-x="293" unicode=";"/>
<glyph d="M428 48q-4 0 -9 2.5t-10 4.5l-349 238q-14 10 -21.5 20t-7.5 24v28q0 15 7.5 24.5t21.5 19.5l349 238q5 2 10 4.5t9 2.5q9 0 15 -5.5t6 -14.5v-92q0 -15 -8.5 -23t-18.5 -15l-230 -153l230 -154q10 -6 18.5 -14t8.5 -23v-92q0 -9 -6 -14.5t-15 -5.5z" glyph-name="less" horiz-adv-x="510" unicode="&lt;"/>
<glyph d="M88 367q-10 0 -17 7t-7 18v66q0 11 7 18t17 7h391q10 0 17 -7t7 -18v-66q0 -11 -7 -18t-17 -7h-391zM88 117q-10 0 -17 7t-7 18v66q0 11 7 18t17 7h391q10 0 17 -7t7 -18v-66q0 -11 -7 -18t-17 -7h-391z" glyph-name="equal" horiz-adv-x="567" unicode="="/>
<glyph d="M82 48q-8 0 -14 5.5t-6 14.5v92q0 15 8 23t18 14l231 154l-231 153q-10 7 -18 15t-8 23v92q0 9 6 14.5t14 5.5q5 0 10 -2.5l9 -4.5l349 -238q15 -10 22 -19.5t7 -24.5v-28q0 -14 -7 -24t-22 -20l-349 -238l-9 -4.5t-10 -2.5z" glyph-name="greater" horiz-adv-x="510" unicode="&gt;"/>
<glyph d="M236 200q-8 0 -14 5.5t-6 14.5v13.5v13.5q5 37 22.5 66.5t41 54.5t46.5 46.5t38.5 43.5t17.5 44q3 25 -9.5 43t-34 27t-45.5 9q-43 0 -70 -21t-37 -65q-3 -11 -10 -17.5t-20 -6.5h-104q-9 0 -16 7.5t-7 18.5q1 40 19 78t53 68.5t85 48.5t116 18q72 0 120 -18t76 -46.5 t40 -61t11 -61.5q-2 -37 -16 -66.5t-35 -54.5t-43 -48.5t-40 -47t-25 -50.5q-2 -8 -3.5 -15.5t-2.5 -15.5q-5 -12 -11.5 -18.5t-17.5 -6.5h-119zM236 0q-11 0 -18 7t-7 18v100q0 10 7 17.5t18 7.5h112q11 0 18 -7.5t7 -17.5v-100q0 -11 -7 -18t-18 -7h-112z" glyph-name="question" unicode="?"/>
<glyph d="M424 -127q-118 0 -197.5 39t-122 110t-52.5 164q-1 14 -1.5 37t-0.5 49t0.5 49t1.5 36q7 65 32.5 122t70.5 100.5t109.5 68.5t149.5 25q100 0 170 -23t114.5 -65.5t67 -100.5t26.5 -127q2 -22 2 -46.5t-0.5 -46t-1.5 -34.5q-3 -49 -23.5 -83t-53 -51t-72.5 -17 q-33 0 -57 9.5t-39 21.5t-23 21q-7 -12 -21 -27t-39.5 -25t-68.5 -10q-74 0 -117 54.5t-43 149.5t42 150t116 55q40 0 63 -13.5t38 -32.5v13q0 11 7 18t17 7h46q10 0 17 -7t7 -18v-205q0 -35 15.5 -53t39.5 -18q23 0 35 12t16.5 28.5t4.5 30.5q0 20 1 50t-2 62 q-4 77 -33 128.5t-89.5 76.5t-161.5 25q-84 0 -140.5 -28.5t-87.5 -80t-39 -121.5q-2 -17 -2.5 -48t0 -62.5t2.5 -50.5q12 -108 79.5 -168t197.5 -60q65 0 103.5 8.5t61 22t39.5 25.5q8 6 14 10t16 4h63q10 0 17.5 -7t6.5 -18q0 -4 -2 -7.5t-4 -6.5q-28 -32 -69.5 -59.5 t-102 -44.5t-143.5 -17zM411 159q43 0 63 29t20 85t-20 85.5t-63 29.5q-42 0 -62 -29.5t-20 -85.5q0 -34 8.5 -60t27 -40t46.5 -14z" glyph-name="at" horiz-adv-x="841" unicode="@"/>
<glyph d="M33 0q-9 0 -15 6.5t-6 14.5q0 5 1 9l238 643q3 11 12 19t25 8h128q16 0 25 -8t13 -19l237 -643q2 -4 2 -9q0 -8 -6.5 -14.5t-15.5 -6.5h-105q-14 0 -21 7t-9 13l-43 112h-282l-42 -112q-3 -6 -9.5 -13t-21.5 -7h-105zM249 261h206l-103 287z" glyph-name="A" horiz-adv-x="704" unicode="A"/>
<glyph d="M98 0q-10 0 -17 7t-7 18v650q0 11 7 18t17 7h298q83 0 136.5 -24t78.5 -68t25 -103q0 -37 -13.5 -65t-33 -46t-37.5 -27q39 -18 69 -59.5t30 -98.5q0 -63 -28.5 -110t-83.5 -73t-134 -26h-307zM233 118h153q49 0 74 27.5t25 64.5q0 39 -25.5 65.5t-73.5 26.5h-153v-184z M233 417h144q47 0 70.5 23.5t23.5 60.5t-23.5 59t-70.5 22h-144v-165z" glyph-name="B" horiz-adv-x="695" unicode="B"/>
<glyph d="M352 -10q-93 0 -159 31.5t-102 92t-40 147.5q-1 41 -1 88t1 90q4 86 40.5 146.5t102.5 92.5t158 32q68 0 122.5 -17t94.5 -49t62.5 -75t23.5 -96q1 -9 -5.5 -15t-15.5 -6h-115q-12 0 -19 5.5t-11 19.5q-15 60 -50 81.5t-87 21.5q-61 0 -97 -34t-39 -112q-3 -82 0 -168 q3 -78 39 -112t97 -34q52 0 87.5 22t49.5 81q4 14 11 19.5t19 5.5h115q9 0 15.5 -6t5.5 -15q-1 -53 -23.5 -96t-62.5 -75t-94.5 -49t-122.5 -17z" glyph-name="C" horiz-adv-x="693" unicode="C"/>
<glyph d="M98 0q-10 0 -17 7t-7 18v650q0 11 7 18t17 7h252q100 0 167 -31.5t102.5 -92t37.5 -149.5q2 -44 2 -77t-2 -76q-3 -93 -37 -154t-99.5 -90.5t-165.5 -29.5h-257zM233 130h117q50 0 81.5 14.5t47.5 47t17 84.5q1 29 1.5 52t0 46t-1.5 51q-2 75 -38.5 110t-112.5 35h-112 v-440z" glyph-name="D" horiz-adv-x="709" unicode="D"/>
<glyph d="M98 0q-10 0 -17 7t-7 18v650q0 11 7 18t17 7h454q11 0 18 -7t7 -18v-80q0 -11 -7 -18t-18 -7h-324v-156h302q11 0 18 -7t7 -18v-74q0 -10 -7 -17.5t-18 -7.5h-302v-160h332q11 0 18 -7t7 -18v-80q0 -11 -7 -18t-18 -7h-462z" glyph-name="E" horiz-adv-x="631" unicode="E"/>
<glyph d="M98 0q-10 0 -17 7t-7 18v650q0 11 7 18t17 7h447q11 0 18 -7t7 -18v-86q0 -10 -7 -17t-18 -7h-314v-169h294q11 0 18 -7t7 -18v-85q0 -10 -7 -17t-18 -7h-294v-237q0 -11 -7 -18t-18 -7h-108z" glyph-name="F" horiz-adv-x="609" unicode="F"/>
<glyph d="M355 -10q-94 0 -160.5 31.5t-103 92t-39.5 146.5q-1 43 -1 92t1 93q3 84 39.5 143t104 90.5t159.5 31.5q74 0 130 -19t94.5 -49.5t58 -66.5t20.5 -70q0 -9 -6 -15t-16 -6h-124q-10 0 -15.5 4t-9.5 12q-7 17 -22.5 36t-41.5 31.5t-68 12.5q-63 0 -99.5 -33t-39.5 -107 q-3 -86 0 -175q3 -77 41 -111t100 -34q41 0 73.5 14.5t51.5 45t19 78.5v25h-109q-10 0 -17 7.5t-7 17.5v64q0 11 7 18t17 7h246q11 0 18 -7t7 -18v-109q0 -86 -38 -147t-107.5 -93.5t-162.5 -32.5z" glyph-name="G" horiz-adv-x="710" unicode="G"/>
<glyph d="M98 0q-10 0 -17 7t-7 18v650q0 11 7 18t17 7h110q11 0 18 -7t7 -18v-250h271v250q0 11 7 18t17 7h110q11 0 18 -7t7 -18v-650q0 -11 -7 -18t-18 -7h-110q-10 0 -17 7t-7 18v258h-271v-258q0 -11 -7 -18t-18 -7h-110z" glyph-name="H" horiz-adv-x="737" unicode="H"/>
<glyph d="M98 0q-10 0 -17 7t-7 18v650q0 11 7 18t17 7h115q10 0 17 -7t7 -18v-650q0 -11 -7 -18t-17 -7h-115z" glyph-name="I" horiz-adv-x="311" unicode="I"/>
<glyph d="M308 -10q-56 0 -106 14t-89 42.5t-62 70.5t-24 98q0 9 6 15.5t15 6.5h115q14 0 21 -6.5t11 -20.5q6 -31 22 -51.5t40.5 -29.5t54.5 -9q57 0 87 36.5t30 104.5v305h-332q-10 0 -17 7t-7 18v84q0 11 7 18t17 7h471q11 0 18 -7t7 -18v-418q0 -86 -36 -145.5t-100 -90.5 t-149 -31z" glyph-name="J" horiz-adv-x="661" unicode="J"/>
<glyph d="M98 0q-10 0 -17 7t-7 18v650q0 11 7 18t17 7h108q11 0 18 -7t7 -18v-228l205 234q4 6 13.5 12.5t25.5 6.5h122q8 0 14.5 -6.5t6.5 -14.5q0 -7 -4 -12l-257 -302l276 -332q4 -4 4 -12t-6.5 -14.5t-14.5 -6.5h-126q-18 0 -27 8t-12 11l-220 256v-250q0 -11 -7 -18t-18 -7 h-108z" glyph-name="K" horiz-adv-x="647" unicode="K"/>
<glyph d="M98 0q-10 0 -17 7t-7 18v650q0 11 7 18t17 7h113q10 0 17 -7t7 -18v-540h310q11 0 18 -7t7 -18v-85q0 -11 -7 -18t-18 -7h-447z" glyph-name="L" horiz-adv-x="588" unicode="L"/>
<glyph d="M99 0q-11 0 -18 7t-7 18v650q0 11 7 18t18 7h94q15 0 22.5 -8t9.5 -12l185 -338l185 338q2 4 9.5 12t22.5 8h93q11 0 18 -7t7 -18v-650q0 -11 -7 -18t-18 -7h-102q-10 0 -17 7t-7 18v403l-127 -237q-4 -9 -12 -16t-22 -7h-47q-13 0 -21 7t-13 16l-126 237v-403 q0 -11 -7 -18t-18 -7h-102z" glyph-name="M" horiz-adv-x="819" unicode="M"/>
<glyph d="M98 0q-10 0 -17 7t-7 18v650q0 11 7 18t17 7h92q15 0 22 -7t9 -11l266 -416v409q0 11 7 18t18 7h102q11 0 18 -7t7 -18v-650q0 -10 -7 -17.5t-18 -7.5h-92q-15 0 -22 7.5t-9 10.5l-265 403v-396q0 -11 -7 -18t-18 -7h-103z" glyph-name="N" horiz-adv-x="713" unicode="N"/>
<glyph d="M352 -10q-91 0 -157 30t-103 90.5t-40 152.5q-1 43 -1 85.5t1 86.5q3 90 40.5 151.5t104 92.5t155.5 31q88 0 154.5 -31t104.5 -92.5t41 -151.5q2 -44 2 -86.5t-2 -85.5q-3 -92 -40.5 -152.5t-103.5 -90.5t-156 -30zM352 120q58 0 95.5 35t39.5 113q2 44 2 82.5t-2 81.5 q-1 52 -19 85t-47.5 48t-68.5 15q-38 0 -68 -15t-48 -48t-20 -85q-1 -43 -1 -81.5t1 -82.5q3 -78 40 -113t96 -35z" glyph-name="O" horiz-adv-x="703" unicode="O"/>
<glyph d="M98 0q-10 0 -17 7t-7 18v650q0 11 7 18t17 7h274q81 0 141 -25t93 -75.5t33 -126.5q0 -75 -33 -124.5t-93 -73.5t-141 -24h-134v-226q0 -11 -7 -18t-18 -7h-115zM236 375h131q51 0 79 25t28 74q0 45 -25.5 73t-81.5 28h-131v-200z" glyph-name="P" horiz-adv-x="668" unicode="P"/>
<glyph d="M522 -65q-15 0 -23.5 8.5t-13.5 14.5l-36 48q-43 -16 -98 -16q-91 0 -157 30t-102.5 90.5t-40.5 152.5q-1 43 -1 85.5t1 86.5q4 90 41.5 151.5t104 92.5t154.5 31t154.5 -31t105 -92.5t40.5 -151.5q2 -44 2 -86.5t-2 -85.5q-5 -128 -72 -195l71 -102q1 -1 2 -4t1 -6 q1 -8 -5 -14.5t-15 -6.5h-111zM351 120q59 0 96 35t40 113q2 44 2 82.5t-2 81.5q-2 52 -19.5 85t-47.5 48t-69 15q-38 0 -68 -15t-47.5 -48t-19.5 -85q-1 -43 -1 -81.5t1 -82.5q3 -78 40 -113t95 -35z" glyph-name="Q" horiz-adv-x="703" unicode="Q"/>
<glyph d="M98 0q-10 0 -17 7t-7 18v650q0 11 7 18t17 7h266q125 0 197 -57.5t72 -165.5q0 -73 -35 -122t-94 -73l142 -250q3 -6 3 -11q0 -8 -6.5 -14.5t-14.5 -6.5h-112q-18 0 -27 9.5t-13 17.5l-122 229h-121v-231q0 -11 -7 -18t-18 -7h-110zM233 383h129q54 0 80.5 25t26.5 70 t-26 71t-81 26h-129v-192z" glyph-name="R" horiz-adv-x="682" unicode="R"/>
<glyph d="M326 -10q-96 0 -160.5 28t-97.5 73t-35 96q0 9 6 15t15 6h108q13 0 20 -5t13 -13q7 -18 22.5 -34t42 -26t66.5 -10q65 0 97.5 21t32.5 57q0 25 -17.5 41t-55 29t-99.5 27q-75 17 -127.5 42.5t-79 66t-26.5 100.5t33 106.5t93 73t143 26.5q67 0 118.5 -18t86 -47t52.5 -62 t19 -64q0 -9 -5.5 -15.5t-15.5 -6.5h-112q-10 0 -18 4t-14 14q-5 27 -34.5 46t-76.5 19q-49 0 -77.5 -17.5t-28.5 -54.5q0 -24 15 -40.5t49 -29t92 -26.5q87 -18 142 -43.5t81 -65t26 -99.5q0 -67 -37 -115t-103 -73.5t-153 -25.5z" glyph-name="S" horiz-adv-x="652" unicode="S"/>
<glyph d="M253 0q-11 0 -18 7t-7 18v535h-182q-10 0 -17 7t-7 18v90q0 11 7 18t17 7h524q11 0 18 -7t7 -18v-90q0 -11 -7 -18t-18 -7h-181v-535q0 -11 -7 -18t-18 -7h-111z" glyph-name="T" horiz-adv-x="617" unicode="T"/>
<glyph d="M360 -10q-88 0 -154 29.5t-102 91t-36 156.5v408q0 11 7 18t17 7h110q11 0 18 -7t7 -18v-407q0 -73 35 -109t98 -36q62 0 97 36t35 109v407q0 11 7.5 18t17.5 7h110q10 0 17 -7t7 -18v-408q0 -95 -35.5 -156.5t-101 -91t-154.5 -29.5z" glyph-name="U" horiz-adv-x="719" unicode="U"/>
<glyph d="M276 0q-16 0 -26 8.5t-14 20.5l-209 641q-1 5 -1 9q0 8 6 14.5t15 6.5h106q15 0 23.5 -8.5t10.5 -15.5l155 -489l155 489q2 7 10 15.5t24 8.5h106q8 0 14.5 -6.5t6.5 -14.5q0 -4 -2 -9l-209 -641q-4 -12 -13.5 -20.5t-26.5 -8.5h-131z" glyph-name="V" horiz-adv-x="683" unicode="V"/>
<glyph d="M188 0q-16 0 -25.5 9t-12.5 22l-113 641q-1 2 -1 4v3q0 8 6 14.5t15 6.5h106q26 0 29 -21l74 -422l81 262q3 8 10 17t23 9h63q16 0 23 -9t10 -17l81 -261l74 421q3 21 29 21h106q9 0 15 -6.5t6 -14.5v-3t-1 -4l-113 -641q-2 -13 -11.5 -22t-26.5 -9h-81q-16 0 -24.5 8.5 t-11.5 17.5l-106 310l-107 -310q-3 -9 -11.5 -17.5t-24.5 -8.5h-81z" glyph-name="W" horiz-adv-x="823" unicode="W"/>
<glyph d="M36 0q-9 0 -15 6.5t-6 14.5q0 3 1 6l2 6l221 324l-206 310q-3 6 -3 12q0 8 6 14.5t15 6.5h123q14 0 21.5 -7t11.5 -13l134 -199l134 199q4 6 12 13t21 7h117q9 0 15 -6.5t6 -14.5q0 -7 -3 -12l-207 -309l223 -325q2 -3 2.5 -6t0.5 -6q0 -8 -6.5 -14.5t-14.5 -6.5h-128 q-13 0 -21 7t-11 12l-146 209l-144 -209q-4 -5 -11.5 -12t-20.5 -7h-123z" glyph-name="X" horiz-adv-x="676" unicode="X"/>
<glyph d="M281 0q-11 0 -18 7t-7 18v220l-234 423q-1 3 -2 5.5t-1 5.5q0 8 6.5 14.5t14.5 6.5h107q13 0 21 -7t11 -13l157 -275l157 275q3 6 11 13t22 7h106q9 0 15 -6.5t6 -14.5q0 -3 -0.5 -5.5t-2.5 -5.5l-234 -423v-220q0 -11 -7 -18t-18 -7h-110z" glyph-name="Y" horiz-adv-x="672" unicode="Y"/>
<glyph d="M63 0q-11 0 -18 7.5t-7 17.5v84q0 14 6 23t9 13l336 421h-317q-10 0 -17 7t-7 18v84q0 11 7 18t17 7h492q11 0 18 -7t7 -18v-83q0 -11 -4 -19.5t-9 -14.5l-327 -423h326q11 0 18 -7t7 -18v-85q0 -11 -7 -18t-18 -7h-512z" glyph-name="Z" horiz-adv-x="638" unicode="Z"/>
<glyph d="M89 -159q-11 0 -18 7t-7 18v885q0 11 7 18t18 7h229q11 0 18 -7t7 -18v-73q0 -10 -7 -17t-18 -7h-116v-681h116q11 0 18 -7t7 -18v-82q0 -11 -7 -18t-18 -7h-229z" glyph-name="bracketleft" horiz-adv-x="369" unicode="["/>
<glyph d="M400 -84q-16 0 -23.5 8t-10.5 15l-341 816q-2 6 -2 10q0 8 6 14.5t15 6.5h77q15 0 23 -7.5t11 -15.5l339 -816q2 -5 2 -10q0 -8 -6 -14.5t-15 -6.5h-75z" glyph-name="backslash" horiz-adv-x="520" unicode="\"/>
<glyph d="M51 -159q-11 0 -18 7t-7 18v82q0 11 7 18t18 7h115v681h-115q-11 0 -18 7t-7 17v73q0 11 7 18t18 7h229q10 0 17 -7t7 -18v-885q0 -11 -7 -18t-17 -7h-229z" glyph-name="bracketright" horiz-adv-x="369" unicode="]"/>
<glyph d="M67 585q-15 0 -15 14q0 8 8 16l100 104q11 11 18.5 14t16.5 3h66q10 0 17.5 -3t17.5 -14l100 -104q8 -8 8 -16q0 -14 -15 -14h-42q-8 0 -16.5 1.5t-16.5 5.5l-86 51l-86 -51q-7 -4 -16 -5.5t-17 -1.5h-42z" glyph-name="asciicircum" horiz-adv-x="456" unicode="^"/>
<glyph d="M74 -64q-10 0 -17.5 7t-7.5 17v80q0 11 7.5 18t17.5 7h591q10 0 17 -7t7 -18v-80q0 -10 -7 -17t-17 -7h-591z" glyph-name="underscore" horiz-adv-x="739" unicode="_"/>
<glyph d="M232 595q-14 0 -21.5 3.5t-15.5 10.5l-129 105q-5 5 -5 12q0 20 19 20h116q13 0 20 -3.5t17 -15.5l85 -103q5 -5 5 -13q0 -16 -16 -16h-75z" glyph-name="grave" horiz-adv-x="383" unicode="`"/>
<glyph d="M216 -10q-53 0 -95 20.5t-67 55.5t-25 78q0 71 57.5 112t151.5 56l131 19v18q0 39 -18 60t-63 21q-27 0 -44 -9t-29 -20.5t-23 -20.5q-3 -6 -6 -8t-8 -2h-92q-10 0 -16.5 6.5t-5.5 15.5q0 17 13 40t40 45.5t69.5 37.5t102.5 15q63 0 108 -15t72.5 -42t40 -62.5 t12.5 -76.5v-309q0 -11 -7 -18t-17 -7h-99q-10 0 -17 7t-7 18v37q-13 -19 -35 -35.5t-52.5 -26.5t-71.5 -10zM256 94q33 0 59 14t41 43t15 73v17l-93 -15q-53 -9 -78 -27t-25 -44q0 -19 11.5 -32.5t30 -21t39.5 -7.5z" glyph-name="a" unicode="a"/>
<glyph d="M366 -10q-57 0 -95.5 19.5t-62.5 49.5v-34q0 -11 -7 -18t-18 -7h-95q-11 0 -18 7t-7 18v660q0 11 7 18t18 7h103q11 0 18 -7t7 -18v-217q24 27 61 44.5t89 17.5q51 0 89.5 -17.5t65.5 -49t41.5 -74.5t16.5 -95q1 -18 1 -33.5t-1 -34.5q-2 -53 -17 -96.5t-41.5 -75 t-65 -48t-89.5 -16.5zM320 110q38 0 60 16.5t31.5 43.5t11.5 59q2 31 0 62q-2 32 -11.5 59t-31.5 43.5t-60 16.5q-35 0 -58 -16t-34 -40.5t-12 -52.5q-1 -18 -1 -37t1 -38q1 -30 11.5 -56t33 -43t59.5 -17z" glyph-name="b" horiz-adv-x="622" unicode="b"/>
<glyph d="M295 -10q-74 0 -129.5 27t-87.5 78.5t-35 123.5q-1 16 -1 40.5t1 40.5q3 73 34.5 124.5t87.5 78.5t130 27q66 0 113 -18.5t77 -47t45 -58.5t16 -53q1 -11 -7 -18t-18 -7h-107q-11 0 -16.5 5t-10.5 16q-13 35 -35 50t-55 15q-45 0 -70.5 -29t-27.5 -90q-2 -39 0 -71 q2 -62 27.5 -90t70.5 -28q35 0 56 15t34 50q5 11 10.5 16t16.5 5h107q10 0 18 -7t7 -18q-1 -17 -10 -40t-27.5 -47t-47.5 -44.5t-70.5 -33t-95.5 -12.5z" glyph-name="c" unicode="c"/>
<glyph d="M256 -10q-50 0 -89 16.5t-66 48t-41 75t-17 96.5q-1 19 -1 34.5t1 33.5q2 52 16.5 95t41 74.5t66 49t89.5 17.5q52 0 89 -17.5t61 -44.5v217q0 11 7 18t18 7h103q11 0 18 -7t7 -18v-660q0 -11 -7 -18t-18 -7h-96q-10 0 -17 7t-7 18v34q-25 -30 -63 -49.5t-95 -19.5z M302 110q37 0 59.5 17t33 43t11.5 56q2 19 2 38t-2 37q-1 28 -12.5 52.5t-33.5 40.5t-58 16q-38 0 -60 -16.5t-31.5 -43.5t-11.5 -59q-2 -31 0 -62q2 -32 11.5 -59t31.5 -43.5t60 -16.5z" glyph-name="d" horiz-adv-x="622" unicode="d"/>
<glyph d="M295 -10q-115 0 -182.5 64t-71.5 186v21.5v20.5q4 78 35 133.5t87 85t131 29.5q85 0 141 -34.5t84.5 -94t28.5 -136.5v-23q0 -10 -7 -17.5t-18 -7.5h-326v-2.5v-4.5q1 -32 12 -58.5t32.5 -42.5t52.5 -16q24 0 40 7.5t26.5 17t15.5 16.5q9 11 14.5 13.5t16.5 2.5h106 q9 0 15.5 -6t5.5 -15q-1 -17 -16.5 -40.5t-45.5 -46t-74.5 -37.5t-102.5 -15zM197 309h195v3q0 35 -11.5 61.5t-33.5 41.5t-53 15t-52.5 -15t-33 -41.5t-11.5 -61.5v-3z" glyph-name="e" horiz-adv-x="586" unicode="e"/>
<glyph d="M145 0q-11 0 -18 7t-7 18v377h-78q-11 0 -18 7t-7 17v69q0 11 7 18t18 7h78v36q0 64 24 105t70.5 60t112.5 19h74q10 0 17 -7t7 -18v-69q0 -10 -7 -17t-17 -7h-67q-37 0 -51.5 -18.5t-14.5 -52.5v-31h123q10 0 17 -7t7 -18v-69q0 -10 -7 -17t-17 -7h-123v-377 q0 -11 -7 -18t-18 -7h-98z" glyph-name="f" horiz-adv-x="428" unicode="f"/>
<glyph d="M307 -220q-74 0 -123 19.5t-77.5 47t-40.5 54.5t-13 43q-1 10 7 17.5t18 7.5h107q10 0 16 -4.5t10 -16.5q6 -12 15 -25.5t27 -22.5t49 -9q35 0 58 10t34.5 34t11.5 65v67q-24 -26 -60.5 -43t-89.5 -17q-52 0 -91.5 16.5t-65.5 47t-40 73.5t-16 97q-1 27 0 53q2 52 16 95 t40 74.5t65.5 49t91.5 17.5q55 0 94 -21t64 -52v38q0 10 7 17.5t17 7.5h98q11 0 18 -7.5t7 -17.5l1 -481q0 -75 -29 -127t-85.5 -79.5t-140.5 -27.5zM302 125q36 0 58.5 16t33.5 41.5t12 53.5q1 11 1 31.5t-1 31.5q-1 28 -12 53t-33.5 41.5t-58.5 16.5q-38 0 -60 -16.5 t-31.5 -43.5t-11.5 -59q-2 -24 0 -47q2 -33 11.5 -60t31.5 -43t60 -16z" glyph-name="g" horiz-adv-x="625" unicode="g"/>
<glyph d="M88 0q-11 0 -18 7t-7 18v660q0 11 7 18t18 7h108q11 0 18 -7t7 -18v-225q26 32 65.5 51t94.5 19q59 0 104.5 -26.5t71 -77t25.5 -122.5v-279q0 -11 -7 -18t-18 -7h-109q-10 0 -17 7t-7 18v273q0 53 -26 82.5t-74 29.5q-47 0 -75 -29.5t-28 -82.5v-273q0 -11 -7 -18 t-18 -7h-108z" glyph-name="h" horiz-adv-x="639" unicode="h"/>
<glyph d="M87 0q-10 0 -17.5 7t-7.5 18v470q0 11 7.5 18t17.5 7h101q10 0 17 -7t7 -18v-470q0 -11 -7 -18t-17 -7h-101zM84 600q-10 0 -17 7t-7 18v81q0 10 7 17.5t17 7.5h106q10 0 17.5 -7.5t7.5 -17.5v-81q0 -11 -7.5 -18t-17.5 -7h-106z" glyph-name="i" horiz-adv-x="275" unicode="i"/>
<glyph d="M-24 -190q-11 0 -18 7t-7 18v69q0 10 7 17t18 7h32q27 0 41.5 10.5t19.5 28.5t5 40v488q0 11 7 18t17 7h105q11 0 18 -7t7 -18v-491q0 -61 -23.5 -104.5t-69 -66.5t-112.5 -23h-47zM95 600q-10 0 -17 7t-7 18v81q0 10 7 17.5t17 7.5h111q10 0 17.5 -7.5t7.5 -17.5v-81 q0 -11 -7.5 -18t-17.5 -7h-111z" glyph-name="j" horiz-adv-x="291" unicode="j"/>
<glyph d="M88 0q-11 0 -18 7t-7 18v660q0 11 7 18t18 7h98q10 0 17.5 -7t7.5 -18v-338l153 156q8 7 14.5 12t20.5 5h114q9 0 15.5 -6.5t6.5 -15.5q0 -4 -2 -9t-7 -8l-193 -194l218 -249q8 -8 8 -16q0 -9 -6 -15.5t-16 -6.5h-116q-15 0 -21.5 5t-14.5 12l-174 196v-188 q0 -11 -7.5 -18t-17.5 -7h-98z" glyph-name="k" horiz-adv-x="567" unicode="k"/>
<glyph d="M88 0q-11 0 -18 7t-7 18v660q0 11 7 18t18 7h100q11 0 18 -7t7 -18v-660q0 -11 -7 -18t-18 -7h-100z" glyph-name="l" horiz-adv-x="276" unicode="l"/>
<glyph d="M87 0q-10 0 -17.5 7t-7.5 18v470q0 11 7.5 18t17.5 7h93q11 0 18 -7t7 -18v-34q21 28 56.5 48t84.5 21q115 2 159 -88q23 39 66 63.5t95 24.5t94 -23.5t67 -72t25 -124.5v-285q0 -11 -7.5 -18t-17.5 -7h-99q-11 0 -18 7t-7 18v277q0 41 -11.5 64t-31 33.5t-43.5 10.5 q-21 0 -40.5 -10.5t-32 -33.5t-12.5 -64v-277q0 -11 -7 -18t-17 -7h-99q-11 0 -18 7t-7 18v277q0 41 -12 64t-31.5 33.5t-42.5 10.5q-21 0 -40.5 -10.5t-32 -33.5t-12.5 -63v-278q0 -11 -7 -18t-18 -7h-101z" glyph-name="m" horiz-adv-x="909" unicode="m"/>
<glyph d="M87 0q-10 0 -17.5 7t-7.5 18v470q0 11 7.5 18t17.5 7h98q11 0 18 -7t7 -18v-39q26 32 67.5 53t99.5 21q59 0 104 -26.5t70 -77t25 -122.5v-279q0 -11 -7 -18t-18 -7h-106q-11 0 -18 7t-7 18v273q0 53 -25.5 82.5t-74.5 29.5q-47 0 -74.5 -29.5t-27.5 -82.5v-273 q0 -11 -7 -18t-18 -7h-106z" glyph-name="n" horiz-adv-x="633" unicode="n"/>
<glyph d="M301 -10q-83 0 -139 27.5t-85.5 78.5t-32.5 119q-1 20 -1 45.5t1 44.5q3 69 34 119.5t87 78t136 27.5q79 0 135 -27.5t87 -78t35 -119.5q1 -19 1 -44.5t-1 -45.5q-4 -68 -33.5 -119t-85.5 -78.5t-138 -27.5zM301 101q49 0 73.5 30t27.5 89q1 15 1 40t-1 40 q-3 58 -27.5 88.5t-73.5 30.5t-74 -30.5t-28 -88.5q-1 -15 -1 -40t1 -40q3 -59 28 -89t74 -30z" glyph-name="o" horiz-adv-x="601" unicode="o"/>
<glyph d="M88 -190q-11 0 -18 7t-7 18v660q0 11 7 18t18 7h95q11 0 18 -7t7 -18v-38q24 32 62.5 52.5t95.5 20.5q51 0 89.5 -16.5t65 -47t41.5 -73.5t17 -97q1 -19 1 -36t-1 -37q-2 -51 -16.5 -94t-41.5 -74t-65.5 -48t-89.5 -17q-52 0 -89 18.5t-61 50.5v-224q0 -11 -7 -18t-18 -7 h-103zM320 110q38 0 60 16.5t31.5 43.5t11.5 59q2 31 0 62q-2 32 -11.5 59t-31.5 43.5t-60 16.5q-37 0 -59.5 -17t-33 -43t-11.5 -56q-1 -18 -1 -37t1 -38q1 -28 12 -52.5t34 -40.5t58 -16z" glyph-name="p" horiz-adv-x="622" unicode="p"/>
<glyph d="M431 -190q-10 0 -17 7t-7 18v224q-24 -32 -61.5 -50.5t-88.5 -18.5t-90 17t-66 48t-41 74t-16 94q-1 20 -1 37t1 36q2 54 16.5 97t41 73.5t65.5 47t90 16.5q56 0 95 -20.5t62 -52.5v38q0 11 7 18t18 7h96q10 0 17 -7t7 -18v-660q0 -11 -7 -18t-17 -7h-104zM302 110 q36 0 58.5 16t34 40.5t12.5 52.5q1 19 1 38t-1 37q-1 30 -12 56t-33 43t-60 17q-37 0 -59 -16.5t-31.5 -43.5t-11.5 -59q-3 -31 0 -62q2 -32 11.5 -59t31.5 -43.5t59 -16.5z" glyph-name="q" horiz-adv-x="622" unicode="q"/>
<glyph d="M87 0q-10 0 -17.5 7t-7.5 18v470q0 10 7.5 17.5t17.5 7.5h98q11 0 18 -7.5t7 -17.5v-40q25 31 62 48t84 17h43q11 0 18 -7t7 -18v-87q0 -10 -7 -17t-18 -7h-87q-45 0 -69.5 -25t-24.5 -69v-265q0 -11 -7.5 -18t-17.5 -7h-106z" glyph-name="r" horiz-adv-x="436" unicode="r"/>
<glyph d="M268 -10q-62 0 -106.5 14.5t-72 35.5t-41 42.5t-14.5 36.5q-1 11 7 18t16 7h97q4 0 6.5 -1t6.5 -5q13 -9 26.5 -20.5t32.5 -19.5t46 -8q33 0 55.5 13.5t22.5 38.5q0 18 -10 30t-39 22t-86 22q-54 12 -92 32t-57 50.5t-19 73.5q0 39 24.5 75t72.5 59.5t120 23.5 q55 0 96.5 -13.5t69.5 -34t42.5 -42t15.5 -37.5q1 -11 -6 -18t-16 -7h-89q-5 0 -9 2t-7 5q-12 7 -24.5 18t-29.5 19t-44 8q-32 0 -49.5 -14.5t-17.5 -36.5q0 -14 9 -26t36.5 -22t85.5 -21q68 -12 108 -36t57 -55.5t17 -67.5q0 -47 -27.5 -83.5t-81.5 -57t-132 -20.5z" glyph-name="s" horiz-adv-x="543" unicode="s"/>
<glyph d="M313 0q-62 0 -105.5 20.5t-66.5 63.5t-23 108v210h-78q-11 0 -18 7t-7 17v69q0 11 7 18t18 7h78v165q0 11 7.5 18t17.5 7h99q10 0 17 -7t7 -18v-165h125q11 0 18 -7t7 -18v-69q0 -10 -7 -17t-18 -7h-125v-198q0 -38 14 -59.5t47 -21.5h73q11 0 18 -7t7 -17v-74 q0 -11 -7 -18t-18 -7h-87z" glyph-name="t" horiz-adv-x="448" unicode="t"/>
<glyph d="M254 -10q-58 0 -102.5 26.5t-69.5 77t-25 122.5v279q0 11 7.5 18t17.5 7h107q10 0 17 -7t7 -18v-273q0 -112 98 -112q47 0 74.5 29.5t27.5 82.5v273q0 11 7 18t18 7h106q10 0 17 -7t7 -18v-470q0 -11 -7 -18t-17 -7h-99q-10 0 -17 7t-7 18v39q-26 -36 -67 -55t-100 -19z " glyph-name="u" horiz-adv-x="631" unicode="u"/>
<glyph d="M247 0q-15 0 -22.5 7.5t-12.5 17.5l-188 464q-2 4 -2 9q0 9 6.5 15.5t15.5 6.5h97q13 0 19.5 -7t8.5 -13l123 -329l123 329q3 6 9 13t19 7h97q9 0 15.5 -6.5t6.5 -15.5q0 -5 -1 -9l-188 -464q-4 -10 -12 -17.5t-24 -7.5h-90z" glyph-name="v" horiz-adv-x="584" unicode="v"/>
<glyph d="M206 0q-14 0 -21.5 7t-11.5 18l-143 463q-2 5 -2 10q0 9 6.5 15.5t15.5 6.5h89q12 0 19 -7t9 -13l91 -308l97 306q2 7 9.5 14.5t21.5 7.5h57q14 0 21.5 -7.5t9.5 -14.5l97 -306l91 308q1 6 8 13t20 7h89q9 0 15.5 -6.5t6.5 -15.5q0 -5 -2 -10l-143 -463q-4 -11 -11 -18 t-22 -7h-77q-14 0 -22 7t-12 18l-97 295l-98 -295q-4 -11 -11.5 -18t-22.5 -7h-77z" glyph-name="w" horiz-adv-x="829" unicode="w"/>
<glyph d="M41 0q-9 0 -15.5 6.5t-6.5 15.5q0 3 1.5 7.5t4.5 8.5l169 229l-155 215q-3 4 -4.5 8t-1.5 8q0 9 6.5 15.5t15.5 6.5h104q13 0 19 -6t10 -11l102 -139l103 138q4 5 10 11.5t19 6.5h100q9 0 15.5 -6.5t6.5 -15.5q0 -4 -1.5 -8t-4.5 -8l-158 -216l170 -228q4 -4 5 -8t1 -8 q0 -9 -6.5 -15.5t-15.5 -6.5h-109q-12 0 -18 5.5t-10 10.5l-110 148l-112 -148l-10 -10t-18 -6h-106z" glyph-name="x" horiz-adv-x="576" unicode="x"/>
<glyph d="M158 -190q-8 0 -14.5 6t-6.5 15q0 2 1 5.5t3 8.5l78 187l-192 453q-3 8 -3 13q1 9 7 15.5t15 6.5h98q12 0 18 -6.5t9 -13.5l124 -309l127 309q4 8 10 14t19 6h95q9 0 15.5 -6.5t6.5 -14.5q0 -5 -3 -14l-283 -655q-4 -8 -10.5 -14t-19.5 -6h-94z" glyph-name="y" horiz-adv-x="586" unicode="y"/>
<glyph d="M63 0q-10 0 -17 7t-7 18v67q0 10 4.5 18.5t10.5 14.5l245 278h-227q-11 0 -18 7t-7 18v67q0 11 7 18t18 7h391q10 0 17 -7t7 -18v-73q0 -8 -4 -15.5t-10 -14.5l-239 -275h249q11 0 18 -7t7 -18v-67q0 -11 -7 -18t-18 -7h-420z" glyph-name="z" horiz-adv-x="542" unicode="z"/>
<glyph d="M359 -158q-58 0 -105 18t-79.5 54.5t-49.5 90.5t-17 126q0 44 -13.5 73t-41.5 44l-12 5q-26 15 -26 40v32q0 25 26 40l12 5q29 16 42 44.5t13 72.5q0 72 17 126t49.5 90t79 54t104.5 19h6q10 0 16 -6.5t6 -15.5v-77q0 -10 -6 -16t-14 -6h-4q-44 -3 -69 -22t-36.5 -58.5 t-11.5 -103.5q0 -62 -20 -104t-54 -58q23 -10 39.5 -33.5t25.5 -56.5t9 -72q0 -63 11 -103t36.5 -58.5t68.5 -22.5h5q8 -1 14 -7t6 -15v-77q0 -10 -6 -16t-16 -6h-5z" glyph-name="braceleft" horiz-adv-x="411" unicode="{"/>
<glyph d="M90 -208q-11 0 -18 7t-7 18v1054q0 11 7 18t18 7h77q11 0 18 -7t7 -18v-1054q0 -11 -7 -18t-18 -7h-77z" glyph-name="bar" horiz-adv-x="257" unicode="|"/>
<glyph d="M52 776q59 -1 105.5 -19t79 -54t49.5 -90t17 -126q0 -45 13.5 -73.5t41.5 -44.5l12 -5q26 -14 26 -39v-33q0 -25 -26 -39l-12 -6q-29 -15 -42 -44t-13 -72q0 -73 -17 -126.5t-49.5 -89.5t-79 -54.5t-104.5 -18.5h-6q-10 0 -16 6t-6 16v77q0 9 6 15t14 7h4q44 3 69.5 22 t36.5 58.5t11 102.5t20 104.5t54 58.5q-22 11 -39 34t-26 55.5t-9 72.5q0 64 -11 103t-36 58.5t-69 21.5l-5 1q-8 0 -14 6t-6 16v77q0 9 6 15.5t16 6.5h5z" glyph-name="braceright" horiz-adv-x="411" unicode="}"/>
<glyph d="M83 221q-11 0 -15.5 7t-4.5 20v67q0 17 15 32.5t39.5 25.5t55.5 10q35 0 60.5 -6t48.5 -13.5t47.5 -13.5t55.5 -6q27 0 45 10.5t28 17.5q4 3 7.5 4.5t8.5 2.5q11 0 15.5 -7t4.5 -20v-67q0 -17 -15 -32.5t-39.5 -25.5t-55.5 -10q-34 0 -60 6t-48.5 13.5t-47 13.5t-56.5 6 q-27 0 -45 -11t-28 -18q-4 -2 -7.5 -4t-8.5 -2z" glyph-name="asciitilde" horiz-adv-x="556" unicode="~"/>
<glyph glyph-name="uni00A0" horiz-adv-x="221" unicode=" "/>
<glyph d="M186 311q10 0 17 -7.5t7 -17.5v-443q0 -11 -7 -18t-17 -7h-98q-11 0 -18 7t-7 18v443q0 10 7 17.5t18 7.5h98zM191 518q10 0 17 -7t7 -18v-108q0 -10 -7 -17.5t-17 -7.5h-108q-11 0 -18 7.5t-7 17.5v108q0 11 7 18t18 7h108z" glyph-name="exclamdown" horiz-adv-x="272" unicode="¡"/>
<glyph d="M250 -100q-11 0 -18 7t-7 18v73q-80 15 -128.5 72.5t-51.5 148.5q-1 16 -1 40.5t1 40.5q3 91 51.5 148.5t128.5 73.5v63q0 11 7 18t18 7h84q11 0 18 -7t7 -18v-62q51 -9 86.5 -30t58 -47t32.5 -51t11 -42q1 -11 -6.5 -18t-17.5 -7h-108q-10 0 -15.5 5t-10.5 16 q-14 35 -37.5 50t-56.5 15q-42 0 -67.5 -29t-27.5 -90q-1 -39 0 -71q3 -62 28 -90t67 -28q35 0 58 15t36 50q4 11 10 16t16 5h108q10 0 17.5 -7t6.5 -18q-1 -15 -11 -40t-31.5 -51.5t-57.5 -48t-88 -30.5v-72q0 -11 -7 -18t-18 -7h-84z" glyph-name="cent" horiz-adv-x="587" unicode="¢"/>
<glyph d="M487 -8q-35 0 -62.5 8.5t-51 20t-45 24t-43 20.5t-44.5 8q-32 0 -47 -16t-22 -42q-2 -5 -5.5 -10t-12.5 -5h-91q-8 0 -13.5 5.5t-5.5 12.5q2 65 33 108t80 61q-1 23 -4.5 46t-7.5 48h-76q-10 0 -17 7.5t-7 17.5v66q0 10 7 17t17 7h52q-1 13 -1.5 26.5t-0.5 28.5 q0 80 30 138.5t89.5 90t146.5 31.5q83 0 144 -29t95 -81.5t35 -120.5q0 -9 -6.5 -15.5t-15.5 -6.5h-113q-12 0 -20 6t-13 19q-11 48 -36.5 73t-69.5 25q-52 0 -76.5 -35.5t-24.5 -95.5q0 -14 0.5 -27.5t1.5 -26.5h161q10 0 17 -7t7 -17v-66q0 -10 -7 -17.5t-17 -7.5h-154 q3 -23 5.5 -46.5t2.5 -50.5q27 -5 47.5 -15.5t38.5 -21.5t36.5 -19t41.5 -8q36 0 53.5 18.5t27.5 46.5q2 5 6.5 9.5t11.5 4.5h80q9 0 14 -5.5t5 -13.5q-1 -60 -26 -102t-65 -64t-85 -22z" glyph-name="sterling" horiz-adv-x="710" unicode="£"/>
<glyph d="M106 58l-44 45q-7 7 -7 17t7 17l45 45q-34 52 -34 118q0 65 34 118l-45 45q-7 7 -7 17t7 17l44 45q8 7 18 7t17 -7l44 -45q26 16 56 25t62 9q33 0 63 -9t56 -25l44 45q8 7 17.5 7t17.5 -7l44 -45q8 -7 8 -17t-8 -17l-45 -45q16 -25 25 -55.5t9 -62.5q0 -33 -9 -63 t-25 -55l45 -45q8 -7 8 -17t-8 -17l-44 -45q-8 -7 -17.5 -7t-17.5 7l-44 45q-53 -34 -119 -34t-118 34l-44 -45q-7 -7 -17 -7t-18 7zM303 181q34 0 61 16t43 43t16 60t-16 60t-43 43t-61 16q-33 0 -60 -16t-43 -43t-16 -60t16 -60t43 -43t60 -16z" glyph-name="currency" horiz-adv-x="607" unicode="¤"/>
<glyph d="M280 0q-11 0 -18 7t-7 18v231l-223 412q-1 3 -2 5.5t-1 5.5q0 8 6.5 14.5t14.5 6.5h108q14 0 22 -7t11 -13l144 -261l145 261q3 6 11 13t22 7h107q9 0 15 -6.5t6 -14.5q0 -3 -0.5 -5.5t-2.5 -5.5l-223 -412v-231q0 -11 -7 -18t-18 -7h-110zM123 77q-10 0 -17 7t-7 17v68 q0 10 7 17t17 7h425q10 0 17 -7t7 -17v-68q0 -10 -7 -17t-17 -7h-425zM123 222q-10 0 -17 7t-7 18v68q0 10 7 17t17 7h425q10 0 17 -7t7 -17v-68q0 -11 -7 -18t-17 -7h-425z" glyph-name="yen" horiz-adv-x="671" unicode="¥"/>
<glyph d="M92 475q-10 0 -17 7t-7 18v304q0 11 7 18t17 7h77q11 0 18 -7t7 -18v-304q0 -11 -7 -18t-18 -7h-77zM92 0q-10 0 -17 7t-7 18v304q0 11 7 18t17 7h77q11 0 18 -7t7 -18v-304q0 -11 -7 -18t-18 -7h-77z" glyph-name="brokenbar" horiz-adv-x="262" unicode="¦"/>
<glyph d="M290 -140q-56 0 -98.5 14t-71 36.5t-43 48t-15.5 47.5q-1 10 5.5 15.5t15.5 5.5h94q9 0 15 -4t11 -12q6 -11 14.5 -21t25.5 -17t46 -7q36 0 53.5 19t17.5 45q0 20 -9 34t-35 25.5t-79 23.5q-74 21 -118 47t-63.5 63t-19.5 89q0 42 20 75.5t53 58.5q-11 17 -16 36.5 t-5 43.5q0 48 24.5 90t73 68t120.5 26q75 0 125 -24t76 -57.5t27 -63.5q1 -10 -5.5 -15.5t-15.5 -5.5h-95q-9 0 -15 4t-12 13q-5 10 -13.5 20t-25 16.5t-45.5 6.5q-36 0 -53.5 -19t-17.5 -45q0 -20 9 -34t35 -25t79 -24q74 -21 118 -47t63.5 -63t19.5 -89q0 -42 -20 -75.5 t-53 -58.5q12 -17 16.5 -36.5t4.5 -43.5q0 -48 -24.5 -90t-73 -68t-120.5 -26zM378 196q22 9 33.5 22.5t11.5 33.5t-8.5 35.5t-32 28.5t-67.5 25q-32 10 -54.5 17.5t-42.5 15.5q-23 -8 -34.5 -22.5t-11.5 -33.5t9 -34t32.5 -28.5t68.5 -27.5q47 -14 96 -32z" glyph-name="section" horiz-adv-x="596" unicode="§"/>
<glyph d="M280 611q-11 0 -17 6t-6 16v82q0 10 6 16.5t17 6.5h82q10 0 16.5 -6.5t6.5 -16.5v-82q0 -10 -6.5 -16t-16.5 -6h-82zM82 611q-10 0 -16 6t-6 16v82q0 10 6 16.5t16 6.5h83q10 0 16.5 -6.5t6.5 -16.5v-82q0 -10 -6.5 -16t-16.5 -6h-83z" glyph-name="dieresis" horiz-adv-x="445" unicode="¨"/>
<glyph d="M406 -10q-75 0 -140 28t-114.5 77.5t-77.5 114.5t-28 140t28 140t77.5 114.5t114.5 77.5t140 28t140 -28t114.5 -77.5t77.5 -114.5t28 -140t-28 -140t-77.5 -114.5t-114.5 -77.5t-140 -28zM406 66q59 0 109.5 22t88.5 61t60 91t22 110t-22 110t-60 91t-88.5 61t-109.5 22 q-58 0 -108.5 -22t-89 -61t-60 -91t-21.5 -110t21.5 -110t60 -91t89 -61t108.5 -22zM406 158q-52 0 -89 20.5t-57 55.5t-23 80q0 8 -0.5 22.5t0 29t0.5 22.5q3 45 23 80t57 55.5t89 20.5q59 0 96.5 -19t55.5 -46t19 -53q0 -10 -6 -16t-16 -6h-58q-11 0 -16.5 6.5t-8.5 13.5 q-8 19 -23 28.5t-43 9.5q-27 0 -41.5 -12t-20 -30t-6.5 -35q0 -7 -0.5 -20.5t0 -27t0.5 -20.5q1 -17 6.5 -35t20 -30t41.5 -12q28 0 43 9.5t23 28.5q3 7 8.5 13.5t16.5 6.5h58q10 0 16 -6t6 -16q-1 -25 -19 -52.5t-55.5 -46.5t-96.5 -19z" glyph-name="copyright" horiz-adv-x="812" unicode="©"/>
<glyph d="M136 429q-43 0 -70 23t-27 56q0 39 30.5 61.5t82.5 30.5l59 9q0 7 -2 14t-8.5 12t-22.5 5q-14 0 -22 -4.5t-14 -9t-16 -4.5h-53q-7 0 -12 3.5t-4 10.5q1 12 15 28t41.5 28.5t67.5 12.5q60 0 91.5 -28.5t31.5 -80.5v-144q0 -8 -5 -13t-13 -5h-54q-8 0 -13.5 5t-5.5 13v10 q-9 -15 -30.5 -24t-46.5 -9zM158 494q28 0 40.5 16t12.5 41l-37 -7q-27 -5 -36 -13t-9 -18q0 -9 8.5 -14t20.5 -5z" glyph-name="ordfeminine" horiz-adv-x="359" unicode="ª"/>
<glyph d="M541 71q-3 0 -8 2t-11 7l-203 197q-8 7 -11.5 15t-3.5 16v42q0 8 3.5 16t11.5 15l203 197q6 5 11 7t8 2q9 0 15 -6t6 -15v-81q0 -15 -4 -23t-14 -18l-117 -115l117 -115q10 -10 14 -18t4 -23v-81q0 -9 -6 -15t-15 -6zM271 71q-4 0 -9 2t-10 7l-203 197q-8 7 -11.5 15 t-3.5 16v42q0 8 3.5 16t11.5 15l203 197q5 5 10 7t9 2q9 0 15 -6t6 -15v-81q0 -15 -4 -23t-14 -18l-118 -115l118 -115q10 -10 14 -18t4 -23v-81q0 -9 -6 -15t-15 -6z" glyph-name="guillemotleft" horiz-adv-x="618" unicode="«"/>
<glyph d="M415 110q-11 0 -18 7t-7 17v100h-307q-10 0 -17.5 7t-7.5 18v66q0 11 7.5 18t17.5 7h401q10 0 17 -7t7 -18v-191q0 -10 -7 -17t-17 -7h-69z" glyph-name="logicalnot" horiz-adv-x="572" unicode="¬"/>
<glyph d="M84 235q-10 0 -17 7t-7 18v80q0 11 7 18t17 7h311q10 0 17 -7t7 -18v-80q0 -11 -7 -18t-17 -7h-311z" glyph-name="uni00AD" horiz-adv-x="600" unicode="­"/>
<glyph d="M406 -10q-75 0 -140 28t-114.5 77.5t-77.5 114.5t-28 140t28 140t77.5 114.5t114.5 77.5t140 28t140 -28t114.5 -77.5t77.5 -114.5t28 -140t-28 -140t-77.5 -114.5t-114.5 -77.5t-140 -28zM406 66q59 0 109.5 22t88.5 61t60 91t22 110t-22 110t-60 91t-88.5 61t-109.5 22 q-58 0 -108.5 -22t-89 -61t-60 -91t-21.5 -110t21.5 -110t60 -91t89 -61t108.5 -22zM284 168q-22 0 -22 22v322q0 22 22 22h137q38 0 72 -11.5t55.5 -38t21.5 -71.5q0 -40 -18.5 -65.5t-45.5 -37.5l56 -106q2 -3 3 -6t1 -8q0 -8 -5.5 -15t-16.5 -7h-50q-10 0 -17.5 4.5 t-11.5 14.5l-52 105h-54v-102q0 -22 -22 -22h-53zM359 371h61q29 0 39.5 13t10.5 29q0 18 -10.5 30.5t-39.5 12.5h-61v-85z" glyph-name="registered" horiz-adv-x="812" unicode="®"/>
<glyph d="M82 608q-10 0 -16 6t-6 17v60q0 10 6 16.5t16 6.5h265q10 0 16.5 -6.5t6.5 -16.5v-60q0 -11 -6.5 -17t-16.5 -6h-265z" glyph-name="macron" horiz-adv-x="429" unicode="¯"/>
<glyph d="M202 386q-45 0 -83 21.5t-61 58t-23 82.5t23 83t61 58t83 21q47 0 84.5 -21t60 -58t22.5 -83t-22.5 -82.5t-60 -58t-84.5 -21.5zM202 472q34 0 55 21t21 55t-21 55t-55 21t-55 -21t-21 -55t21 -55t55 -21z" glyph-name="degree" horiz-adv-x="405" unicode="°"/>
<glyph d="M248 189q-10 0 -17 7t-7 18v149h-146q-10 0 -17 7t-7 18v63q0 10 7 17t17 7h146v145q0 11 7 18t17 7h71q11 0 18 -7t7 -18v-145h144q11 0 18 -7t7 -17v-63q0 -11 -7 -18t-18 -7h-144v-149q0 -11 -7 -18t-18 -7h-71zM88 0q-10 0 -17 7t-7 18v63q0 10 7 17t17 7h390 q11 0 18 -7t7 -17v-63q0 -11 -7 -18t-18 -7h-390z" glyph-name="plusminus" horiz-adv-x="566" unicode="±"/>
<glyph d="M49 350q-22 0 -22 22v31q0 8 5 15.5t19 17.5q58 43 94 69t53 45t17 40q0 17 -10.5 27t-30.5 10q-17 0 -26 -5.5t-13.5 -12.5t-6.5 -12q-6 -11 -11 -14.5t-13 -3.5h-51q-19 0 -18 19q2 30 20.5 54t50 38.5t68.5 14.5q62 0 99 -31.5t37 -80.5q0 -32 -15 -57.5t-44.5 -50 t-74.5 -55.5h127q22 0 22 -22v-36q0 -22 -22 -22h-254z" glyph-name="uni00B2" horiz-adv-x="353" unicode="²"/>
<glyph d="M170 345q-53 0 -84.5 14.5t-46 35t-16.5 39.5q-1 10 6 14.5t11 4.5h36q9 0 17 -2.5t15 -4.5q8 -3 13 -8.5t15 -9.5t31 -4q25 0 39.5 9t14.5 26q0 19 -14 26t-37 7h-45q-9 0 -15 6t-6 15v23q0 7 3 12t8 10l64 59h-117q-22 0 -22 22v39q0 22 22 22h219q22 0 22 -22v-34 q0 -9 -2.5 -15.5t-11.5 -14.5l-66 -54q48 -7 73 -33t25 -70q0 -51 -41 -81.5t-110 -30.5z" glyph-name="uni00B3" horiz-adv-x="351" unicode="³"/>
<glyph d="M76 595q-16 0 -16 16q0 8 5 13l85 103q9 12 16.5 15.5t20.5 3.5h115q19 0 19 -20q0 -7 -5 -12l-128 -105q-8 -7 -16 -10.5t-21 -3.5h-75z" glyph-name="acute" horiz-adv-x="383" unicode="´"/>
<glyph d="M89 -199q-11 0 -18 7t-7 17v670q0 11 7 18t18 7h109q11 0 18 -7t7 -18v-273q0 -35 14.5 -60t37.5 -38.5t49 -13.5q27 0 49.5 13.5t37 38.5t14.5 60v273q0 11 7 18t18 7h106q11 0 18 -7t7 -18v-470q0 -11 -7 -18t-18 -7h-98q-11 0 -18 7t-7 18v39q-17 -23 -41 -39.5 t-60 -20.5q-36 -3 -62 5.5t-47 23.5v-208q0 -10 -7 -17t-18 -7h-109z" glyph-name="uni00B5" horiz-adv-x="644" unicode="µ"/>
<glyph d="M239 -100q-10 0 -17 7t-7 18v400q-52 0 -94.5 25.5t-68 68t-25.5 94.5t25.5 94t68 67.5t94.5 25.5h294q10 0 17 -7t7 -18v-750q0 -11 -7 -18t-17 -7h-71q-10 0 -17.5 7t-7.5 18v670h-79v-670q0 -11 -7 -18t-17 -7h-71z" glyph-name="paragraph" horiz-adv-x="603" unicode="¶"/>
<glyph d="M165 205q-33 0 -60.5 16.5t-44 44t-16.5 60.5t16.5 60.5t44 43.5t60.5 16q34 0 61 -16t43.5 -43.5t16.5 -60.5t-16.5 -60.5t-43.5 -44t-61 -16.5z" glyph-name="periodcentered" horiz-adv-x="330" unicode="·"/>
<glyph d="M144 -220q-27 0 -48.5 9t-31 21t0.5 21l17 16q9 8 15.5 4.5t17 -9.5t29.5 -6q16 0 25.5 9t9.5 23q0 13 -9.5 22t-25.5 9q-12 0 -22.5 -3.5t-18.5 -4.5t-16 6l-18 19q-6 6 -5 13.5t6 18.5l35 79h63l-40 -78q6 3 16.5 4.5t17.5 1.5q36 0 57.5 -24t21.5 -62t-25.5 -63.5 t-71.5 -25.5z" glyph-name="cedilla" horiz-adv-x="300" unicode="¸"/>
<glyph d="M147 350q-22 0 -22 22v215l-54 -40q-7 -5 -16 -4t-15 9l-23 31q-6 8 -4.5 16.5t8.5 14.5l104 79q10 7 23 7h52q22 0 22 -22v-306q0 -22 -22 -22h-53z" glyph-name="uni00B9" horiz-adv-x="265" unicode="¹"/>
<glyph d="M178 429q-63 0 -97.5 28.5t-37.5 82.5q-1 8 -1 27.5t1 26.5q3 54 39.5 82.5t95.5 28.5t95.5 -28.5t39.5 -82.5q1 -7 1 -26.5t-1 -27.5q-3 -54 -37.5 -82.5t-97.5 -28.5zM178 499q20 0 29.5 11t10.5 35q1 8 1 22.5t-1 21.5q-1 22 -10.5 34t-29.5 12t-29.5 -12t-11.5 -34 q-1 -7 -1 -21.5t1 -22.5q2 -24 11.5 -35t29.5 -11z" glyph-name="ordmasculine" horiz-adv-x="355" unicode="º"/>
<glyph d="M347 71q-9 0 -15 6t-6 15v81q0 15 4 23t14 18l118 115l-118 115q-10 10 -14 18t-4 23v81q0 9 6 15t15 6q4 0 9 -2t10 -7l203 -197q8 -7 11.5 -15t3.5 -16v-42q0 -8 -3.5 -16t-11.5 -15l-203 -197q-5 -5 -10 -7t-9 -2zM77 71q-9 0 -15 6t-6 15v81q0 15 4 23t14 18l117 115 l-117 115q-10 10 -14 18t-4 23v81q0 9 6 15t15 6q3 0 8.5 -2t10.5 -7l203 -197q8 -7 11.5 -15t3.5 -16v-42q0 -8 -3.5 -16t-11.5 -15l-203 -197q-5 -5 -10.5 -7t-8.5 -2z" glyph-name="guillemotright" horiz-adv-x="618" unicode="»"/>
<glyph d="M147 350q-22 0 -22 22v215l-54 -40q-7 -5 -16 -4t-15 9l-23 31q-6 8 -4.5 16.5t8.5 14.5l104 79q10 7 23 7h52q22 0 22 -22v-306q0 -22 -22 -22h-53zM67 0q-22 0 -22 20q0 6 4 11l493 650q7 9 14 14t21 5h46q22 0 22 -20q0 -6 -4 -11l-493 -650q-7 -9 -14 -14t-21 -5h-46 zM584 -1q-22 0 -22 22v38h-150q-22 0 -22 22v41q0 2 1.5 10t10.5 20l133 179q8 11 15.5 14.5t14.5 3.5h70q22 0 22 -22v-184h35q22 0 22 -22v-40q0 -22 -22 -22h-35v-38q0 -22 -22 -22h-51zM491 141h72v102z" glyph-name="onequarter" horiz-adv-x="753" unicode="¼"/>
<glyph d="M147 350q-22 0 -22 22v215l-54 -40q-7 -5 -16 -4t-15 9l-23 31q-6 8 -4.5 16.5t8.5 14.5l104 79q10 7 23 7h52q22 0 22 -22v-306q0 -22 -22 -22h-53zM67 0q-22 0 -22 20q0 6 4 11l493 650q7 9 14 14t21 5h46q22 0 22 -20q0 -6 -4 -11l-493 -650q-7 -9 -14 -14t-21 -5h-46 zM438 0q-22 0 -22 22v31q0 8 5 15.5t19 17.5q58 43 94 69t53 45t17 40q0 17 -10.5 27t-30.5 10q-17 0 -26 -5.5t-13.5 -12.5t-6.5 -12q-6 -11 -11 -14.5t-13 -3.5h-51q-19 0 -18 19q2 30 20.5 54t50 38.5t68.5 14.5q62 0 99 -31.5t37 -80.5q0 -32 -15 -57.5t-44.5 -50 t-74.5 -55.5h127q22 0 22 -22v-36q0 -22 -22 -22h-254z" glyph-name="onehalf" horiz-adv-x="757" unicode="½"/>
<glyph d="M170 345q-53 0 -84.5 14.5t-46 35t-16.5 39.5q-1 10 6 14.5t11 4.5h36q9 0 17 -2.5t15 -4.5q8 -3 13 -8.5t15 -9.5t31 -4q25 0 39.5 9t14.5 26q0 19 -14 26t-37 7h-45q-9 0 -15 6t-6 15v23q0 7 3 12t8 10l64 59h-117q-22 0 -22 22v39q0 22 22 22h219q22 0 22 -22v-34 q0 -9 -2.5 -15.5t-11.5 -14.5l-66 -54q48 -7 73 -33t25 -70q0 -51 -41 -81.5t-110 -30.5zM153 0q-22 0 -22 20q0 6 4 11l493 650q7 9 14 14t21 5h46q22 0 22 -20q0 -6 -4 -11l-493 -650q-7 -9 -14 -14t-21 -5h-46zM672 -2q-22 0 -22 22v38h-150q-22 0 -22 22v41q0 2 1.5 10 t10.5 20l133 179q8 11 15.5 14.5t14.5 3.5h70q22 0 22 -22v-184h35q22 0 22 -22v-40q0 -22 -22 -22h-35v-38q0 -22 -22 -22h-51zM579 140h72v102z" glyph-name="threequarters" horiz-adv-x="822" unicode="¾"/>
<glyph d="M341 319q9 0 15 -5.5t6 -14.5v-13.5t-1 -13.5q-5 -37 -22.5 -66.5t-40.5 -54.5t-46 -47t-39 -43t-18 -44q-2 -25 10.5 -43t33.5 -27t45 -9q44 0 70.5 21.5t36.5 64.5q4 12 11.5 18t18.5 6h104q10 0 16.5 -7.5t6.5 -18.5q-1 -40 -19 -78t-52.5 -68.5t-85 -48.5t-116.5 -18 q-72 0 -120 18t-76 46.5t-40 61t-10 61.5q1 37 15 66.5t35 54.5t43 48.5t40 47t26 50.5q1 8 2.5 15.5t2.5 15.5q6 12 12 18.5t18 6.5h118zM342 519q10 0 17 -7t7 -18v-100q0 -11 -7 -18t-17 -7h-113q-10 0 -17.5 7t-7.5 18v100q0 11 7.5 18t17.5 7h113z" glyph-name="questiondown" horiz-adv-x="575" unicode="¿"/>
<glyph d="M33 0q-9 0 -15 6.5t-6 14.5q0 5 1 9l238 643q3 11 12 19t25 8h128q16 0 25 -8t13 -19l237 -643q2 -4 2 -9q0 -8 -6.5 -14.5t-15.5 -6.5h-105q-14 0 -21 7t-9 13l-43 112h-282l-42 -112q-3 -6 -9.5 -13t-21.5 -7h-105zM249 261h206l-103 287zM327 750q-13 0 -20.5 3.5 t-15.5 10.5l-129 105q-5 5 -5 12q0 20 19 20h123q13 0 20.5 -3.5t16.5 -15.5l85 -103q5 -5 5 -13q0 -16 -16 -16h-83z" glyph-name="Agrave" horiz-adv-x="704" unicode="À"/>
<glyph d="M33 0q-9 0 -15 6.5t-6 14.5q0 5 1 9l238 643q3 11 12 19t25 8h128q16 0 25 -8t13 -19l237 -643q2 -4 2 -9q0 -8 -6.5 -14.5t-15.5 -6.5h-105q-14 0 -21 7t-9 13l-43 112h-282l-42 -112q-3 -6 -9.5 -13t-21.5 -7h-105zM249 261h206l-103 287zM298 750q-16 0 -16 16 q0 8 5 13l85 103q9 12 16.5 15.5t20.5 3.5h123q19 0 19 -20q0 -7 -5 -12l-129 -105q-8 -7 -15.5 -10.5t-20.5 -3.5h-83z" glyph-name="Aacute" horiz-adv-x="704" unicode="Á"/>
<glyph d="M33 0q-9 0 -15 6.5t-6 14.5q0 5 1 9l238 643q3 11 12 19t25 8h128q16 0 25 -8t13 -19l237 -643q2 -4 2 -9q0 -8 -6.5 -14.5t-15.5 -6.5h-105q-14 0 -21 7t-9 13l-43 112h-282l-42 -112q-3 -6 -9.5 -13t-21.5 -7h-105zM249 261h206l-103 287zM189 750q-15 0 -15 14 q0 8 8 16l100 104q11 11 18.5 14t16.5 3h72q9 0 16.5 -3t17.5 -14l100 -104q8 -8 8 -16q0 -14 -15 -14h-44q-9 0 -17.5 1.5t-15.5 5.5l-86 51l-87 -51q-7 -4 -15.5 -5.5t-16.5 -1.5h-45z" glyph-name="Acircumflex" horiz-adv-x="704" unicode="Â"/>
<glyph d="M33 0q-9 0 -15 6.5t-6 14.5q0 5 1 9l238 643q3 11 12 19t25 8h128q16 0 25 -8t13 -19l237 -643q2 -4 2 -9q0 -8 -6.5 -14.5t-15.5 -6.5h-105q-14 0 -21 7t-9 13l-43 112h-282l-42 -112q-3 -6 -9.5 -13t-21.5 -7h-105zM249 261h206l-103 287zM411 745q-27 0 -44.5 9 t-32 17.5t-31.5 8.5q-13 0 -19 -7t-11 -15t-16 -8h-53q-7 0 -12 5.5t-5 11.5q0 16 5.5 36t18.5 39t33 31.5t49 12.5q27 0 44.5 -9t32 -17.5t31.5 -8.5q14 0 19.5 7.5t10.5 15t16 7.5h53q8 0 12.5 -5t4.5 -12q0 -16 -6 -36t-18.5 -39t-33 -31.5t-48.5 -12.5z" glyph-name="Atilde" horiz-adv-x="704" unicode="Ã"/>
<glyph d="M33 0q-9 0 -15 6.5t-6 14.5q0 5 1 9l238 643q3 11 12 19t25 8h128q16 0 25 -8t13 -19l237 -643q2 -4 2 -9q0 -8 -6.5 -14.5t-15.5 -6.5h-105q-14 0 -21 7t-9 13l-43 112h-282l-42 -112q-3 -6 -9.5 -13t-21.5 -7h-105zM249 261h206l-103 287zM425 750q-11 0 -17 6t-6 17 v82q0 10 6 16.5t17 6.5h82q10 0 16.5 -6.5t6.5 -16.5v-82q0 -11 -6.5 -17t-16.5 -6h-82zM197 750q-10 0 -16 6t-6 17v82q0 10 6 16.5t16 6.5h83q10 0 16.5 -6.5t6.5 -16.5v-82q0 -11 -6.5 -17t-16.5 -6h-83z" glyph-name="Adieresis" horiz-adv-x="704" unicode="Ä"/>
<glyph d="M33 0q-9 0 -15 6.5t-6 14.5q0 5 1 9l238 643q3 11 12 19t25 8h128q16 0 25 -8t13 -19l237 -643q2 -4 2 -9q0 -8 -6.5 -14.5t-15.5 -6.5h-105q-14 0 -21 7t-9 13l-43 112h-282l-42 -112q-3 -6 -9.5 -13t-21.5 -7h-105zM249 261h206l-103 287zM352 740q-37 0 -63.5 24 t-26.5 61t26.5 61.5t63.5 24.5t63.5 -24.5t26.5 -61.5t-26.5 -61t-63.5 -24zM352 795q13 0 21.5 8.5t8.5 21.5t-8.5 21.5t-21.5 8.5t-21.5 -8.5t-8.5 -21.5t8.5 -21.5t21.5 -8.5z" glyph-name="Aring" horiz-adv-x="704" unicode="Å"/>
<glyph d="M26 0q-9 0 -15.5 6.5t-6.5 14.5q0 5 3 10q10 28 20.5 57.5t25 66t35.5 83.5t50 108.5t69 142.5t92 185q5 11 13.5 18.5t22.5 7.5h550q11 0 18 -7t7 -18v-80q0 -11 -7 -18t-18 -7h-308v-156h286q11 0 18 -7t7 -18v-74q0 -10 -7 -17.5t-18 -7.5h-286v-160h316q11 0 18 -7 t7 -18v-80q0 -11 -7 -18t-18 -7h-446q-10 0 -17 7t-7 18v107h-204q-18 -33 -28.5 -53.5t-16 -31.5t-8 -17t-3.5 -10q-4 -7 -10.5 -13.5t-20.5 -6.5h-106zM262 261h161v306h-17z" glyph-name="AE" horiz-adv-x="964" unicode="Æ"/>
<glyph d="M348 -220q-27 0 -49 9t-31 21t0 21l18 16q9 8 15.5 4.5t16.5 -9.5t30 -6q15 0 25 9t10 23q0 13 -9.5 22t-25.5 9q-13 0 -23 -3.5t-18.5 -4.5t-15.5 6l-19 19q-6 6 -5 13.5t7 18.5l20 46q-76 9 -129 42.5t-81.5 90t-32.5 134.5q-1 41 -1 88t1 90q4 86 40.5 146.5 t102.5 92.5t158 32q68 0 122.5 -17t94.5 -49t62.5 -75t23.5 -96q1 -9 -5.5 -15t-15.5 -6h-115q-12 0 -19 5.5t-11 19.5q-15 60 -50 81.5t-87 21.5q-61 0 -97 -34t-39 -112q-3 -82 0 -168q3 -78 39 -112t97 -34q52 0 87.5 22t49.5 81q4 14 11 19.5t19 5.5h115q9 0 15.5 -6 t5.5 -15q-1 -53 -23.5 -96t-62.5 -75t-94.5 -49t-122.5 -17l-20 -41q6 3 16.5 4.5t17.5 1.5q35 0 56.5 -24t21.5 -62t-25 -63.5t-71 -25.5z" glyph-name="Ccedilla" horiz-adv-x="693" unicode="Ç"/>
<glyph d="M98 0q-10 0 -17 7t-7 18v650q0 11 7 18t17 7h454q11 0 18 -7t7 -18v-80q0 -11 -7 -18t-18 -7h-324v-156h302q11 0 18 -7t7 -18v-74q0 -10 -7 -17.5t-18 -7.5h-302v-160h332q11 0 18 -7t7 -18v-80q0 -11 -7 -18t-18 -7h-462zM290 750q-13 0 -20.5 3.5t-15.5 10.5l-129 105 q-5 5 -5 12q0 20 19 20h123q13 0 20.5 -3.5t16.5 -15.5l85 -103q5 -5 5 -13q0 -16 -16 -16h-83z" glyph-name="Egrave" horiz-adv-x="631" unicode="È"/>
<glyph d="M98 0q-10 0 -17 7t-7 18v650q0 11 7 18t17 7h454q11 0 18 -7t7 -18v-80q0 -11 -7 -18t-18 -7h-324v-156h302q11 0 18 -7t7 -18v-74q0 -10 -7 -17.5t-18 -7.5h-302v-160h332q11 0 18 -7t7 -18v-80q0 -11 -7 -18t-18 -7h-462zM262 750q-16 0 -16 16q0 8 5 13l85 103 q9 12 16.5 15.5t20.5 3.5h123q19 0 19 -20q0 -7 -5 -12l-129 -105q-8 -7 -15.5 -10.5t-20.5 -3.5h-83z" glyph-name="Eacute" horiz-adv-x="631" unicode="É"/>
<glyph d="M98 0q-10 0 -17 7t-7 18v650q0 11 7 18t17 7h454q11 0 18 -7t7 -18v-80q0 -11 -7 -18t-18 -7h-324v-156h302q11 0 18 -7t7 -18v-74q0 -10 -7 -17.5t-18 -7.5h-302v-160h332q11 0 18 -7t7 -18v-80q0 -11 -7 -18t-18 -7h-462zM152 750q-15 0 -15 14q0 8 8 16l100 104 q11 11 18.5 14t16.5 3h72q9 0 16.5 -3t17.5 -14l100 -104q8 -8 8 -16q0 -14 -15 -14h-44q-9 0 -17.5 1.5t-15.5 5.5l-86 51l-87 -51q-7 -4 -15.5 -5.5t-16.5 -1.5h-45z" glyph-name="Ecircumflex" horiz-adv-x="631" unicode="Ê"/>
<glyph d="M98 0q-10 0 -17 7t-7 18v650q0 11 7 18t17 7h454q11 0 18 -7t7 -18v-80q0 -11 -7 -18t-18 -7h-324v-156h302q11 0 18 -7t7 -18v-74q0 -10 -7 -17.5t-18 -7.5h-302v-160h332q11 0 18 -7t7 -18v-80q0 -11 -7 -18t-18 -7h-462zM388 750q-11 0 -17 6t-6 17v82q0 10 6 16.5 t17 6.5h82q10 0 16.5 -6.5t6.5 -16.5v-82q0 -11 -6.5 -17t-16.5 -6h-82zM160 750q-10 0 -16 6t-6 17v82q0 10 6 16.5t16 6.5h83q10 0 16.5 -6.5t6.5 -16.5v-82q0 -11 -6.5 -17t-16.5 -6h-83z" glyph-name="Edieresis" horiz-adv-x="631" unicode="Ë"/>
<glyph d="M98 0q-10 0 -17 7t-7 18v650q0 11 7 18t17 7h115q10 0 17 -7t7 -18v-650q0 -11 -7 -18t-17 -7h-115zM130 750q-13 0 -20.5 3.5t-15.5 10.5l-129 105q-5 5 -5 12q0 20 19 20h123q13 0 20.5 -3.5t16.5 -15.5l85 -103q5 -5 5 -13q0 -16 -16 -16h-83z" glyph-name="Igrave" horiz-adv-x="311" unicode="Ì"/>
<glyph d="M98 0q-10 0 -17 7t-7 18v650q0 11 7 18t17 7h115q10 0 17 -7t7 -18v-650q0 -11 -7 -18t-17 -7h-115zM102 750q-16 0 -16 16q0 8 5 13l85 103q9 12 16.5 15.5t20.5 3.5h123q19 0 19 -20q0 -7 -5 -12l-129 -105q-8 -7 -15.5 -10.5t-20.5 -3.5h-83z" glyph-name="Iacute" horiz-adv-x="311" unicode="Í"/>
<glyph d="M98 0q-10 0 -17 7t-7 18v650q0 11 7 18t17 7h115q10 0 17 -7t7 -18v-650q0 -11 -7 -18t-17 -7h-115zM-8 750q-15 0 -15 14q0 8 8 16l100 104q11 11 18.5 14t16.5 3h72q9 0 16.5 -3t17.5 -14l100 -104q8 -8 8 -16q0 -14 -15 -14h-44q-9 0 -17.5 1.5t-15.5 5.5l-86 51 l-87 -51q-7 -4 -15.5 -5.5t-16.5 -1.5h-45z" glyph-name="Icircumflex" horiz-adv-x="311" unicode="Î"/>
<glyph d="M98 0q-10 0 -17 7t-7 18v650q0 11 7 18t17 7h115q10 0 17 -7t7 -18v-650q0 -11 -7 -18t-17 -7h-115zM228 750q-11 0 -17 6t-6 17v82q0 10 6 16.5t17 6.5h82q10 0 16.5 -6.5t6.5 -16.5v-82q0 -11 -6.5 -17t-16.5 -6h-82zM0 750q-10 0 -16 6t-6 17v82q0 10 6 16.5t16 6.5 h83q10 0 16.5 -6.5t6.5 -16.5v-82q0 -11 -6.5 -17t-16.5 -6h-83z" glyph-name="Idieresis" horiz-adv-x="311" unicode="Ï"/>
<glyph d="M114 0q-11 0 -18 7t-7 18v272h-50q-10 0 -17.5 7t-7.5 18v60q0 10 7.5 17t17.5 7h50v269q0 11 7 18t18 7h251q100 0 168 -31.5t103.5 -92t36.5 -149.5v-76v-77q-1 -93 -35.5 -154t-102 -90.5t-167.5 -29.5h-254zM249 130h116q51 0 82 14.5t46 47t15 84.5q1 27 1 50.5 v47.5t-1 51q-1 75 -35 110t-110 35h-114v-164h101q11 0 18 -7t7 -17v-60q0 -11 -7 -18t-18 -7h-101v-167z" glyph-name="Eth" horiz-adv-x="726" unicode="Ð"/>
<glyph d="M98 0q-10 0 -17 7t-7 18v650q0 11 7 18t17 7h92q15 0 22 -7t9 -11l266 -416v409q0 11 7 18t18 7h102q11 0 18 -7t7 -18v-650q0 -10 -7 -17.5t-18 -7.5h-92q-15 0 -22 7.5t-9 10.5l-265 403v-396q0 -11 -7 -18t-18 -7h-103zM415 745q-27 0 -44.5 9t-32 17.5t-31.5 8.5 q-13 0 -19 -7t-11 -15t-16 -8h-53q-7 0 -12 5.5t-5 11.5q0 16 5.5 36t18.5 39t33 31.5t49 12.5q27 0 44.5 -9t32 -17.5t31.5 -8.5q14 0 19.5 7.5t10.5 15t16 7.5h53q8 0 12.5 -5t4.5 -12q0 -16 -6 -36t-18.5 -39t-33 -31.5t-48.5 -12.5z" glyph-name="Ntilde" horiz-adv-x="713" unicode="Ñ"/>
<glyph d="M352 -10q-91 0 -157 30t-103 90.5t-40 152.5q-1 43 -1 85.5t1 86.5q3 90 40.5 151.5t104 92.5t155.5 31q88 0 154.5 -31t104.5 -92.5t41 -151.5q2 -44 2 -86.5t-2 -85.5q-3 -92 -40.5 -152.5t-103.5 -90.5t-156 -30zM352 120q58 0 95.5 35t39.5 113q2 44 2 82.5t-2 81.5 q-1 52 -19 85t-47.5 48t-68.5 15q-38 0 -68 -15t-48 -48t-20 -85q-1 -43 -1 -81.5t1 -82.5q3 -78 40 -113t96 -35zM326 750q-13 0 -20.5 3.5t-15.5 10.5l-129 105q-5 5 -5 12q0 20 19 20h123q13 0 20.5 -3.5t16.5 -15.5l85 -103q5 -5 5 -13q0 -16 -16 -16h-83z" glyph-name="Ograve" horiz-adv-x="703" unicode="Ò"/>
<glyph d="M352 -10q-91 0 -157 30t-103 90.5t-40 152.5q-1 43 -1 85.5t1 86.5q3 90 40.5 151.5t104 92.5t155.5 31q88 0 154.5 -31t104.5 -92.5t41 -151.5q2 -44 2 -86.5t-2 -85.5q-3 -92 -40.5 -152.5t-103.5 -90.5t-156 -30zM352 120q58 0 95.5 35t39.5 113q2 44 2 82.5t-2 81.5 q-1 52 -19 85t-47.5 48t-68.5 15q-38 0 -68 -15t-48 -48t-20 -85q-1 -43 -1 -81.5t1 -82.5q3 -78 40 -113t96 -35zM298 750q-16 0 -16 16q0 8 5 13l85 103q9 12 16.5 15.5t20.5 3.5h123q19 0 19 -20q0 -7 -5 -12l-129 -105q-8 -7 -15.5 -10.5t-20.5 -3.5h-83z" glyph-name="Oacute" horiz-adv-x="703" unicode="Ó"/>
<glyph d="M352 -10q-91 0 -157 30t-103 90.5t-40 152.5q-1 43 -1 85.5t1 86.5q3 90 40.5 151.5t104 92.5t155.5 31q88 0 154.5 -31t104.5 -92.5t41 -151.5q2 -44 2 -86.5t-2 -85.5q-3 -92 -40.5 -152.5t-103.5 -90.5t-156 -30zM352 120q58 0 95.5 35t39.5 113q2 44 2 82.5t-2 81.5 q-1 52 -19 85t-47.5 48t-68.5 15q-38 0 -68 -15t-48 -48t-20 -85q-1 -43 -1 -81.5t1 -82.5q3 -78 40 -113t96 -35zM188 750q-15 0 -15 14q0 8 8 16l100 104q11 11 18.5 14t16.5 3h72q9 0 16.5 -3t17.5 -14l100 -104q8 -8 8 -16q0 -14 -15 -14h-44q-9 0 -17.5 1.5t-15.5 5.5 l-86 51l-87 -51q-7 -4 -15.5 -5.5t-16.5 -1.5h-45z" glyph-name="Ocircumflex" horiz-adv-x="703" unicode="Ô"/>
<glyph d="M352 -10q-91 0 -157 30t-103 90.5t-40 152.5q-1 43 -1 85.5t1 86.5q3 90 40.5 151.5t104 92.5t155.5 31q88 0 154.5 -31t104.5 -92.5t41 -151.5q2 -44 2 -86.5t-2 -85.5q-3 -92 -40.5 -152.5t-103.5 -90.5t-156 -30zM352 120q58 0 95.5 35t39.5 113q2 44 2 82.5t-2 81.5 q-1 52 -19 85t-47.5 48t-68.5 15q-38 0 -68 -15t-48 -48t-20 -85q-1 -43 -1 -81.5t1 -82.5q3 -78 40 -113t96 -35zM410 745q-27 0 -44.5 9t-32 17.5t-31.5 8.5q-13 0 -19 -7t-11 -15t-16 -8h-53q-7 0 -12 5.5t-5 11.5q0 16 5.5 36t18.5 39t33 31.5t49 12.5q27 0 44.5 -9 t32 -17.5t31.5 -8.5q14 0 19.5 7.5t10.5 15t16 7.5h53q8 0 12.5 -5t4.5 -12q0 -16 -6 -36t-18.5 -39t-33 -31.5t-48.5 -12.5z" glyph-name="Otilde" horiz-adv-x="703" unicode="Õ"/>
<glyph d="M352 -10q-91 0 -157 30t-103 90.5t-40 152.5q-1 43 -1 85.5t1 86.5q3 90 40.5 151.5t104 92.5t155.5 31q88 0 154.5 -31t104.5 -92.5t41 -151.5q2 -44 2 -86.5t-2 -85.5q-3 -92 -40.5 -152.5t-103.5 -90.5t-156 -30zM352 120q58 0 95.5 35t39.5 113q2 44 2 82.5t-2 81.5 q-1 52 -19 85t-47.5 48t-68.5 15q-38 0 -68 -15t-48 -48t-20 -85q-1 -43 -1 -81.5t1 -82.5q3 -78 40 -113t96 -35zM424 750q-11 0 -17 6t-6 17v82q0 10 6 16.5t17 6.5h82q10 0 16.5 -6.5t6.5 -16.5v-82q0 -11 -6.5 -17t-16.5 -6h-82zM196 750q-10 0 -16 6t-6 17v82 q0 10 6 16.5t16 6.5h83q10 0 16.5 -6.5t6.5 -16.5v-82q0 -11 -6.5 -17t-16.5 -6h-83z" glyph-name="Odieresis" horiz-adv-x="703" unicode="Ö"/>
<glyph d="M125 94l-68 67q-7 8 -7 18t7 17l136 137l-136 137q-7 7 -7 17t7 17l68 68q7 7 17 7t17 -7l137 -137l136 136q8 8 17.5 8t17.5 -8l68 -67q7 -7 7 -17t-7 -18l-137 -136l137 -136q7 -8 7 -18t-7 -17l-68 -68q-8 -7 -17.5 -7t-17.5 7l-136 136l-137 -136q-7 -7 -17 -7t-17 7 z" glyph-name="multiply" horiz-adv-x="592" unicode="×"/>
<glyph d="M368 -10q-115 0 -189 49t-98 148l-37 -14q-7 -3 -12 -3q-9 0 -14.5 5.5t-5.5 14.5v65q0 12 5 18.5t17 10.5l33 13q-1 35 -0.5 69t1.5 69q4 90 41.5 151.5t104 92.5t154.5 31q106 0 180.5 -46.5t101.5 -138.5l40 15q8 3 12 3q8 0 14 -5t6 -14v-65q0 -12 -5 -18t-17 -11 l-31 -12q1 -40 1 -78.5t-2 -76.5q-3 -92 -40 -152.5t-103 -90.5t-157 -30zM368 120q59 0 96 35t40 113q0 25 0.5 44.5t0.5 41.5l-271 -106q7 -67 43.5 -97.5t90.5 -30.5zM231 362l268 104q-9 60 -44.5 87t-86.5 27q-38 0 -68 -15t-47.5 -48t-19.5 -85q-1 -20 -1.5 -36.5 t-0.5 -33.5z" glyph-name="Oslash" horiz-adv-x="733" unicode="Ø"/>
<glyph d="M360 -10q-88 0 -154 29.5t-102 91t-36 156.5v408q0 11 7 18t17 7h110q11 0 18 -7t7 -18v-407q0 -73 35 -109t98 -36q62 0 97 36t35 109v407q0 11 7.5 18t17.5 7h110q10 0 17 -7t7 -18v-408q0 -95 -35.5 -156.5t-101 -91t-154.5 -29.5zM334 750q-13 0 -20.5 3.5 t-15.5 10.5l-129 105q-5 5 -5 12q0 20 19 20h123q13 0 20.5 -3.5t16.5 -15.5l85 -103q5 -5 5 -13q0 -16 -16 -16h-83z" glyph-name="Ugrave" horiz-adv-x="719" unicode="Ù"/>
<glyph d="M360 -10q-88 0 -154 29.5t-102 91t-36 156.5v408q0 11 7 18t17 7h110q11 0 18 -7t7 -18v-407q0 -73 35 -109t98 -36q62 0 97 36t35 109v407q0 11 7.5 18t17.5 7h110q10 0 17 -7t7 -18v-408q0 -95 -35.5 -156.5t-101 -91t-154.5 -29.5zM306 750q-16 0 -16 16q0 8 5 13 l85 103q9 12 16.5 15.5t20.5 3.5h123q19 0 19 -20q0 -7 -5 -12l-129 -105q-8 -7 -15.5 -10.5t-20.5 -3.5h-83z" glyph-name="Uacute" horiz-adv-x="719" unicode="Ú"/>
<glyph d="M360 -10q-88 0 -154 29.5t-102 91t-36 156.5v408q0 11 7 18t17 7h110q11 0 18 -7t7 -18v-407q0 -73 35 -109t98 -36q62 0 97 36t35 109v407q0 11 7.5 18t17.5 7h110q10 0 17 -7t7 -18v-408q0 -95 -35.5 -156.5t-101 -91t-154.5 -29.5zM196 750q-15 0 -15 14q0 8 8 16 l100 104q11 11 18.5 14t16.5 3h72q9 0 16.5 -3t17.5 -14l100 -104q8 -8 8 -16q0 -14 -15 -14h-44q-9 0 -17.5 1.5t-15.5 5.5l-86 51l-87 -51q-7 -4 -15.5 -5.5t-16.5 -1.5h-45z" glyph-name="Ucircumflex" horiz-adv-x="719" unicode="Û"/>
<glyph d="M360 -10q-88 0 -154 29.5t-102 91t-36 156.5v408q0 11 7 18t17 7h110q11 0 18 -7t7 -18v-407q0 -73 35 -109t98 -36q62 0 97 36t35 109v407q0 11 7.5 18t17.5 7h110q10 0 17 -7t7 -18v-408q0 -95 -35.5 -156.5t-101 -91t-154.5 -29.5zM432 750q-11 0 -17 6t-6 17v82 q0 10 6 16.5t17 6.5h82q10 0 16.5 -6.5t6.5 -16.5v-82q0 -11 -6.5 -17t-16.5 -6h-82zM204 750q-10 0 -16 6t-6 17v82q0 10 6 16.5t16 6.5h83q10 0 16.5 -6.5t6.5 -16.5v-82q0 -11 -6.5 -17t-16.5 -6h-83z" glyph-name="Udieresis" horiz-adv-x="719" unicode="Ü"/>
<glyph d="M281 0q-11 0 -18 7t-7 18v220l-234 423q-1 3 -2 5.5t-1 5.5q0 8 6.5 14.5t14.5 6.5h107q13 0 21 -7t11 -13l157 -275l157 275q3 6 11 13t22 7h106q9 0 15 -6.5t6 -14.5q0 -3 -0.5 -5.5t-2.5 -5.5l-234 -423v-220q0 -11 -7 -18t-18 -7h-110zM282 750q-16 0 -16 16 q0 8 5 13l85 103q9 12 16.5 15.5t20.5 3.5h123q19 0 19 -20q0 -7 -5 -12l-129 -105q-8 -7 -15.5 -10.5t-20.5 -3.5h-83z" glyph-name="Yacute" horiz-adv-x="672" unicode="Ý"/>
<glyph d="M98 0q-10 0 -17 7t-7 18v650q0 11 7 18t17 7h116q10 0 17 -7t7 -18v-95h132q82 0 142.5 -25t93.5 -75.5t33 -126.5t-33 -125t-93.5 -73t-142.5 -24h-132v-106q0 -11 -7 -18t-18 -7h-115zM236 255h131q51 0 79 25t28 74q0 44 -25.5 72.5t-81.5 28.5h-131v-200z" glyph-name="Thorn" horiz-adv-x="670" unicode="Þ"/>
<glyph d="M88 0q-11 0 -18 7t-7 18v451q0 65 26 117.5t81 84.5t143 32t142 -29t78.5 -73.5t24.5 -92.5q0 -35 -10 -61.5t-26.5 -45.5t-37.5 -32q37 -14 60 -38.5t33.5 -56.5t10.5 -72q0 -36 -14.5 -72.5t-44.5 -67.5t-77 -50t-113 -19h-55q-13 0 -20 7t-7 18v65q0 11 7 18t20 7h33 q54 0 84 28.5t30 71.5t-29 72t-87 29h-33q-13 0 -19 7t-6 17v57q0 11 5.5 18t19.5 7h28q51 1 77.5 23.5t26.5 62.5q0 37 -27.5 62t-73.5 25t-73.5 -28.5t-27.5 -89.5v-452q0 -11 -7 -18t-17 -7h-100z" glyph-name="germandbls" horiz-adv-x="627" unicode="ß"/>
<glyph d="M216 -10q-53 0 -95 20.5t-67 55.5t-25 78q0 71 57.5 112t151.5 56l131 19v18q0 39 -18 60t-63 21q-27 0 -44 -9t-29 -20.5t-23 -20.5q-3 -6 -6 -8t-8 -2h-92q-10 0 -16.5 6.5t-5.5 15.5q0 17 13 40t40 45.5t69.5 37.5t102.5 15q63 0 108 -15t72.5 -42t40 -62.5 t12.5 -76.5v-309q0 -11 -7 -18t-17 -7h-99q-10 0 -17 7t-7 18v37q-13 -19 -35 -35.5t-52.5 -26.5t-71.5 -10zM256 94q33 0 59 14t41 43t15 73v17l-93 -15q-53 -9 -78 -27t-25 -44q0 -19 11.5 -32.5t30 -21t39.5 -7.5zM265 595q-14 0 -21.5 3.5t-15.5 10.5l-129 105 q-5 5 -5 12q0 20 19 20h116q13 0 20 -3.5t17 -15.5l85 -103q5 -5 5 -13q0 -16 -16 -16h-75z" glyph-name="agrave" unicode="à"/>
<glyph d="M216 -10q-53 0 -95 20.5t-67 55.5t-25 78q0 71 57.5 112t151.5 56l131 19v18q0 39 -18 60t-63 21q-27 0 -44 -9t-29 -20.5t-23 -20.5q-3 -6 -6 -8t-8 -2h-92q-10 0 -16.5 6.5t-5.5 15.5q0 17 13 40t40 45.5t69.5 37.5t102.5 15q63 0 108 -15t72.5 -42t40 -62.5 t12.5 -76.5v-309q0 -11 -7 -18t-17 -7h-99q-10 0 -17 7t-7 18v37q-13 -19 -35 -35.5t-52.5 -26.5t-71.5 -10zM256 94q33 0 59 14t41 43t15 73v17l-93 -15q-53 -9 -78 -27t-25 -44q0 -19 11.5 -32.5t30 -21t39.5 -7.5zM230 595q-16 0 -16 16q0 8 5 13l85 103q9 12 16.5 15.5 t20.5 3.5h115q19 0 19 -20q0 -7 -5 -12l-128 -105q-8 -7 -16 -10.5t-21 -3.5h-75z" glyph-name="aacute" unicode="á"/>
<glyph d="M216 -10q-53 0 -95 20.5t-67 55.5t-25 78q0 71 57.5 112t151.5 56l131 19v18q0 39 -18 60t-63 21q-27 0 -44 -9t-29 -20.5t-23 -20.5q-3 -6 -6 -8t-8 -2h-92q-10 0 -16.5 6.5t-5.5 15.5q0 17 13 40t40 45.5t69.5 37.5t102.5 15q63 0 108 -15t72.5 -42t40 -62.5 t12.5 -76.5v-309q0 -11 -7 -18t-17 -7h-99q-10 0 -17 7t-7 18v37q-13 -19 -35 -35.5t-52.5 -26.5t-71.5 -10zM256 94q33 0 59 14t41 43t15 73v17l-93 -15q-53 -9 -78 -27t-25 -44q0 -19 11.5 -32.5t30 -21t39.5 -7.5zM124 595q-15 0 -15 14q0 8 8 16l100 104q10 11 17.5 14 t17.5 3h66q10 0 17.5 -3t17.5 -14l100 -104q8 -8 8 -16q0 -14 -15 -14h-42q-8 0 -16.5 1.5t-16.5 5.5l-86 51l-86 -51q-7 -4 -16 -5.5t-17 -1.5h-42z" glyph-name="acircumflex" unicode="â"/>
<glyph d="M216 -10q-53 0 -95 20.5t-67 55.5t-25 78q0 71 57.5 112t151.5 56l131 19v18q0 39 -18 60t-63 21q-27 0 -44 -9t-29 -20.5t-23 -20.5q-3 -6 -6 -8t-8 -2h-92q-10 0 -16.5 6.5t-5.5 15.5q0 17 13 40t40 45.5t69.5 37.5t102.5 15q63 0 108 -15t72.5 -42t40 -62.5 t12.5 -76.5v-309q0 -11 -7 -18t-17 -7h-99q-10 0 -17 7t-7 18v37q-13 -19 -35 -35.5t-52.5 -26.5t-71.5 -10zM256 94q33 0 59 14t41 43t15 73v17l-93 -15q-53 -9 -78 -27t-25 -44q0 -19 11.5 -32.5t30 -21t39.5 -7.5zM343 590q-26 0 -43 9t-30.5 17.5t-30.5 8.5 q-13 0 -19 -7t-11 -15t-16 -8h-53q-7 0 -12 5.5t-5 11.5q0 16 5.5 36t18 38t32.5 30t48 12q27 0 44 -8.5t31 -17.5t30 -9q14 0 19.5 8t10.5 15.5t16 7.5h53q8 0 12.5 -5.5t4.5 -12.5q0 -15 -5.5 -35t-18 -38.5t-32.5 -30.5t-49 -12z" glyph-name="atilde" unicode="ã"/>
<glyph d="M216 -10q-53 0 -95 20.5t-67 55.5t-25 78q0 71 57.5 112t151.5 56l131 19v18q0 39 -18 60t-63 21q-27 0 -44 -9t-29 -20.5t-23 -20.5q-3 -6 -6 -8t-8 -2h-92q-10 0 -16.5 6.5t-5.5 15.5q0 17 13 40t40 45.5t69.5 37.5t102.5 15q63 0 108 -15t72.5 -42t40 -62.5 t12.5 -76.5v-309q0 -11 -7 -18t-17 -7h-99q-10 0 -17 7t-7 18v37q-13 -19 -35 -35.5t-52.5 -26.5t-71.5 -10zM256 94q33 0 59 14t41 43t15 73v17l-93 -15q-53 -9 -78 -27t-25 -44q0 -19 11.5 -32.5t30 -21t39.5 -7.5zM346 611q-11 0 -17 6t-6 16v82q0 10 6 16.5t17 6.5h82 q10 0 16.5 -6.5t6.5 -16.5v-82q0 -10 -6.5 -16t-16.5 -6h-82zM148 611q-10 0 -16 6t-6 16v82q0 10 6 16.5t16 6.5h83q10 0 16.5 -6.5t6.5 -16.5v-82q0 -10 -6.5 -16t-16.5 -6h-83z" glyph-name="adieresis" unicode="ä"/>
<glyph d="M216 -10q-53 0 -95 20.5t-67 55.5t-25 78q0 71 57.5 112t151.5 56l131 19v18q0 39 -18 60t-63 21q-27 0 -44 -9t-29 -20.5t-23 -20.5q-3 -6 -6 -8t-8 -2h-92q-10 0 -16.5 6.5t-5.5 15.5q0 17 13 40t40 45.5t69.5 37.5t102.5 15q63 0 108 -15t72.5 -42t40 -62.5 t12.5 -76.5v-309q0 -11 -7 -18t-17 -7h-99q-10 0 -17 7t-7 18v37q-13 -19 -35 -35.5t-52.5 -26.5t-71.5 -10zM256 94q33 0 59 14t41 43t15 73v17l-93 -15q-53 -9 -78 -27t-25 -44q0 -19 11.5 -32.5t30 -21t39.5 -7.5zM285 590q-37 0 -63.5 24t-26.5 61t26.5 61.5t63.5 24.5 t63.5 -24.5t26.5 -61.5t-26.5 -61t-63.5 -24zM285 645q13 0 21.5 8.5t8.5 21.5t-8.5 21.5t-21.5 8.5t-21.5 -8.5t-8.5 -21.5t8.5 -21.5t21.5 -8.5z" glyph-name="aring" unicode="å"/>
<glyph d="M227 -10q-61 0 -105.5 20.5t-68 55.5t-23.5 78q0 71 57 113t151 56l132 20v17q0 39 -18.5 59.5t-63.5 20.5q-26 0 -43.5 -9t-29.5 -20.5t-23 -20.5q-3 -6 -6 -8t-8 -2h-92q-10 0 -16 6.5t-6 15.5q0 17 12.5 40t39.5 45.5t70 37.5t103 15q66 0 106 -17t61 -45q30 28 70 45 t94 17q72 0 120 -23.5t76.5 -62.5t41.5 -85.5t13 -93.5v-23q0 -10 -7.5 -17.5t-17.5 -7.5h-322v-7q1 -42 14.5 -67.5t35 -37.5t45.5 -12q23 0 44.5 10t37.5 31q8 10 14 13t17 3h104q21 0 21 -21q0 -16 -14.5 -39t-44 -46t-74 -38.5t-104.5 -15.5q-67 0 -115 23t-77 62 q-38 -47 -90.5 -66t-110.5 -19zM257 94q32 0 58 14t41 43t15 73v17l-93 -15q-53 -9 -78 -27t-25 -44q0 -19 11.5 -32.5t30.5 -21t40 -7.5zM524 309h191v4q0 53 -23.5 85t-71.5 32q-25 0 -46.5 -12.5t-35 -38.5t-14.5 -66v-4z" glyph-name="ae" horiz-adv-x="909" unicode="æ"/>
<glyph d="M294 -220q-27 0 -49 9t-31 21t0 21l18 16q9 8 15.5 4.5t16.5 -9.5t30 -6q15 0 25 9t10 23q0 13 -9.5 22t-25.5 9q-13 0 -23 -3.5t-18.5 -4.5t-15.5 6l-19 19q-6 6 -5 13.5t6 18.5l21 46q-87 14 -140 72t-57 153q-1 16 -1 40.5t1 40.5q3 73 34.5 124.5t87.5 78.5t130 27 q66 0 113 -18.5t77 -47t45 -58.5t16 -53q1 -11 -7 -18t-18 -7h-107q-11 0 -16.5 5t-10.5 16q-13 35 -35 50t-55 15q-45 0 -70.5 -29t-27.5 -90q-2 -39 0 -71q2 -62 27.5 -90t70.5 -28q35 0 56 15t34 50q5 11 10.5 16t16.5 5h107q10 0 18 -7t7 -18q-1 -21 -15 -51t-43 -58.5 t-75.5 -47.5t-114.5 -20l-20 -41q6 3 16.5 4.5t17.5 1.5q35 0 56.5 -24t21.5 -62t-25 -63.5t-71 -25.5z" glyph-name="ccedilla" unicode="ç"/>
<glyph d="M295 -10q-115 0 -182.5 64t-71.5 186v21.5v20.5q4 78 35 133.5t87 85t131 29.5q85 0 141 -34.5t84.5 -94t28.5 -136.5v-23q0 -10 -7 -17.5t-18 -7.5h-326v-2.5v-4.5q1 -32 12 -58.5t32.5 -42.5t52.5 -16q24 0 40 7.5t26.5 17t15.5 16.5q9 11 14.5 13.5t16.5 2.5h106 q9 0 15.5 -6t5.5 -15q-1 -17 -16.5 -40.5t-45.5 -46t-74.5 -37.5t-102.5 -15zM197 309h195v3q0 35 -11.5 61.5t-33.5 41.5t-53 15t-52.5 -15t-33 -41.5t-11.5 -61.5v-3zM272 595q-14 0 -21.5 3.5t-15.5 10.5l-129 105q-5 5 -5 12q0 20 19 20h116q13 0 20 -3.5t17 -15.5 l85 -103q5 -5 5 -13q0 -16 -16 -16h-75z" glyph-name="egrave" horiz-adv-x="586" unicode="è"/>
<glyph d="M295 -10q-115 0 -182.5 64t-71.5 186v21.5v20.5q4 78 35 133.5t87 85t131 29.5q85 0 141 -34.5t84.5 -94t28.5 -136.5v-23q0 -10 -7 -17.5t-18 -7.5h-326v-2.5v-4.5q1 -32 12 -58.5t32.5 -42.5t52.5 -16q24 0 40 7.5t26.5 17t15.5 16.5q9 11 14.5 13.5t16.5 2.5h106 q9 0 15.5 -6t5.5 -15q-1 -17 -16.5 -40.5t-45.5 -46t-74.5 -37.5t-102.5 -15zM197 309h195v3q0 35 -11.5 61.5t-33.5 41.5t-53 15t-52.5 -15t-33 -41.5t-11.5 -61.5v-3zM245 595q-16 0 -16 16q0 8 5 13l85 103q9 12 16.5 15.5t20.5 3.5h115q19 0 19 -20q0 -7 -5 -12 l-128 -105q-8 -7 -16 -10.5t-21 -3.5h-75z" glyph-name="eacute" horiz-adv-x="586" unicode="é"/>
<glyph d="M295 -10q-115 0 -182.5 64t-71.5 186v21.5v20.5q4 78 35 133.5t87 85t131 29.5q85 0 141 -34.5t84.5 -94t28.5 -136.5v-23q0 -10 -7 -17.5t-18 -7.5h-326v-2.5v-4.5q1 -32 12 -58.5t32.5 -42.5t52.5 -16q24 0 40 7.5t26.5 17t15.5 16.5q9 11 14.5 13.5t16.5 2.5h106 q9 0 15.5 -6t5.5 -15q-1 -17 -16.5 -40.5t-45.5 -46t-74.5 -37.5t-102.5 -15zM197 309h195v3q0 35 -11.5 61.5t-33.5 41.5t-53 15t-52.5 -15t-33 -41.5t-11.5 -61.5v-3zM133 595q-15 0 -15 14q0 8 8 16l100 104q10 11 17.5 14t17.5 3h66q10 0 17.5 -3t17.5 -14l100 -104 q8 -8 8 -16q0 -14 -15 -14h-42q-8 0 -16.5 1.5t-16.5 5.5l-86 51l-86 -51q-7 -4 -16 -5.5t-17 -1.5h-42z" glyph-name="ecircumflex" horiz-adv-x="586" unicode="ê"/>
<glyph d="M295 -10q-115 0 -182.5 64t-71.5 186v21.5v20.5q4 78 35 133.5t87 85t131 29.5q85 0 141 -34.5t84.5 -94t28.5 -136.5v-23q0 -10 -7 -17.5t-18 -7.5h-326v-2.5v-4.5q1 -32 12 -58.5t32.5 -42.5t52.5 -16q24 0 40 7.5t26.5 17t15.5 16.5q9 11 14.5 13.5t16.5 2.5h106 q9 0 15.5 -6t5.5 -15q-1 -17 -16.5 -40.5t-45.5 -46t-74.5 -37.5t-102.5 -15zM197 309h195v3q0 35 -11.5 61.5t-33.5 41.5t-53 15t-52.5 -15t-33 -41.5t-11.5 -61.5v-3zM352 611q-11 0 -17 6t-6 16v82q0 10 6 16.5t17 6.5h82q10 0 16.5 -6.5t6.5 -16.5v-82q0 -10 -6.5 -16 t-16.5 -6h-82zM154 611q-10 0 -16 6t-6 16v82q0 10 6 16.5t16 6.5h83q10 0 16.5 -6.5t6.5 -16.5v-82q0 -10 -6.5 -16t-16.5 -6h-83z" glyph-name="edieresis" horiz-adv-x="586" unicode="ë"/>
<glyph d="M87 0q-10 0 -17.5 7t-7.5 18v470q0 11 7.5 18t17.5 7h101q10 0 17 -7t7 -18v-470q0 -11 -7 -18t-17 -7h-101zM113 595q-14 0 -21.5 3.5t-15.5 10.5l-129 105q-5 5 -5 12q0 20 19 20h116q13 0 20 -3.5t17 -15.5l85 -103q5 -5 5 -13q0 -16 -16 -16h-75z" glyph-name="igrave" horiz-adv-x="275" unicode="ì"/>
<glyph d="M87 0q-10 0 -17.5 7t-7.5 18v470q0 11 7.5 18t17.5 7h101q10 0 17 -7t7 -18v-470q0 -11 -7 -18t-17 -7h-101zM88 595q-16 0 -16 16q0 8 5 13l85 103q9 12 16.5 15.5t20.5 3.5h115q19 0 19 -20q0 -7 -5 -12l-128 -105q-8 -7 -16 -10.5t-21 -3.5h-75z" glyph-name="iacute" horiz-adv-x="275" unicode="í"/>
<glyph d="M87 0q-10 0 -17.5 7t-7.5 18v470q0 11 7.5 18t17.5 7h101q10 0 17 -7t7 -18v-470q0 -11 -7 -18t-17 -7h-101zM-24 595q-15 0 -15 14q0 8 8 16l100 104q10 11 17.5 14t17.5 3h66q10 0 17.5 -3t17.5 -14l100 -104q8 -8 8 -16q0 -14 -15 -14h-42q-8 0 -16.5 1.5t-16.5 5.5 l-86 51l-86 -51q-7 -4 -16 -5.5t-17 -1.5h-42z" glyph-name="icircumflex" horiz-adv-x="275" unicode="î"/>
<glyph d="M87 0q-10 0 -17.5 7t-7.5 18v470q0 11 7.5 18t17.5 7h101q10 0 17 -7t7 -18v-470q0 -11 -7 -18t-17 -7h-101zM195 611q-11 0 -17 6t-6 16v82q0 10 6 16.5t17 6.5h82q10 0 16.5 -6.5t6.5 -16.5v-82q0 -10 -6.5 -16t-16.5 -6h-82zM-3 611q-10 0 -16 6t-6 16v82q0 10 6 16.5 t16 6.5h83q10 0 16.5 -6.5t6.5 -16.5v-82q0 -10 -6.5 -16t-16.5 -6h-83z" glyph-name="idieresis" horiz-adv-x="275" unicode="ï"/>
<glyph d="M295 -10q-80 0 -137 28.5t-87.5 83t-30.5 128.5q0 76 31.5 129.5t89.5 82t134 28.5q22 0 39.5 -5t31.5 -14q-17 48 -47 87l-107 -42q-7 -3 -12 -3q-8 0 -14 5.5t-6 14.5v24q0 12 5 18.5t17 10.5l68 26q-17 17 -37.5 34t-41.5 33q-8 6 -11.5 11t-3.5 9q0 9 6 15t15 6h107 q16 0 27 -4t18 -9l26 -22t24 -23l92 36q8 3 12 3q8 0 14 -5.5t6 -14.5v-24q0 -12 -5 -18t-17 -11l-51 -20q45 -56 71.5 -134.5t29.5 -192.5v-17v-17q-2 -73 -33 -126.5t-87 -82t-136 -28.5zM295 101q34 0 56 15t33 41t11 58v14.5v14.5q-1 33 -11 59t-31.5 41t-57.5 15 q-34 0 -56 -15t-32.5 -41t-11.5 -59v-14.5v-14.5q1 -32 11.5 -58t32.5 -41t56 -15z" glyph-name="eth" horiz-adv-x="595" unicode="ð"/>
<glyph d="M87 0q-10 0 -17.5 7t-7.5 18v470q0 11 7.5 18t17.5 7h98q11 0 18 -7t7 -18v-39q26 32 67.5 53t99.5 21q59 0 104 -26.5t70 -77t25 -122.5v-279q0 -11 -7 -18t-18 -7h-106q-11 0 -18 7t-7 18v273q0 53 -25.5 82.5t-74.5 29.5q-47 0 -74.5 -29.5t-27.5 -82.5v-273 q0 -11 -7 -18t-18 -7h-106zM377 590q-26 0 -43 9t-30.5 17.5t-30.5 8.5q-13 0 -19 -7t-11 -15t-16 -8h-53q-7 0 -12 5.5t-5 11.5q0 16 5.5 36t18 38t32.5 30t48 12q27 0 44 -8.5t31 -17.5t30 -9q14 0 19.5 8t10.5 15.5t16 7.5h53q8 0 12.5 -5.5t4.5 -12.5q0 -15 -5.5 -35 t-18 -38.5t-32.5 -30.5t-49 -12z" glyph-name="ntilde" horiz-adv-x="633" unicode="ñ"/>
<glyph d="M301 -10q-83 0 -139 27.5t-85.5 78.5t-32.5 119q-1 20 -1 45.5t1 44.5q3 69 34 119.5t87 78t136 27.5q79 0 135 -27.5t87 -78t35 -119.5q1 -19 1 -44.5t-1 -45.5q-4 -68 -33.5 -119t-85.5 -78.5t-138 -27.5zM301 101q49 0 73.5 30t27.5 89q1 15 1 40t-1 40 q-3 58 -27.5 88.5t-73.5 30.5t-74 -30.5t-28 -88.5q-1 -15 -1 -40t1 -40q3 -59 28 -89t74 -30zM277 595q-14 0 -21.5 3.5t-15.5 10.5l-129 105q-5 5 -5 12q0 20 19 20h116q13 0 20 -3.5t17 -15.5l85 -103q5 -5 5 -13q0 -16 -16 -16h-75z" glyph-name="ograve" horiz-adv-x="601" unicode="ò"/>
<glyph d="M301 -10q-83 0 -139 27.5t-85.5 78.5t-32.5 119q-1 20 -1 45.5t1 44.5q3 69 34 119.5t87 78t136 27.5q79 0 135 -27.5t87 -78t35 -119.5q1 -19 1 -44.5t-1 -45.5q-4 -68 -33.5 -119t-85.5 -78.5t-138 -27.5zM301 101q49 0 73.5 30t27.5 89q1 15 1 40t-1 40 q-3 58 -27.5 88.5t-73.5 30.5t-74 -30.5t-28 -88.5q-1 -15 -1 -40t1 -40q3 -59 28 -89t74 -30zM249 595q-16 0 -16 16q0 8 5 13l85 103q9 12 16.5 15.5t20.5 3.5h115q19 0 19 -20q0 -7 -5 -12l-128 -105q-8 -7 -16 -10.5t-21 -3.5h-75z" glyph-name="oacute" horiz-adv-x="601" unicode="ó"/>
<glyph d="M301 -10q-83 0 -139 27.5t-85.5 78.5t-32.5 119q-1 20 -1 45.5t1 44.5q3 69 34 119.5t87 78t136 27.5q79 0 135 -27.5t87 -78t35 -119.5q1 -19 1 -44.5t-1 -45.5q-4 -68 -33.5 -119t-85.5 -78.5t-138 -27.5zM301 101q49 0 73.5 30t27.5 89q1 15 1 40t-1 40 q-3 58 -27.5 88.5t-73.5 30.5t-74 -30.5t-28 -88.5q-1 -15 -1 -40t1 -40q3 -59 28 -89t74 -30zM140 595q-15 0 -15 14q0 8 8 16l100 104q10 11 17.5 14t17.5 3h66q10 0 17.5 -3t17.5 -14l100 -104q8 -8 8 -16q0 -14 -15 -14h-42q-8 0 -16.5 1.5t-16.5 5.5l-86 51l-86 -51 q-7 -4 -16 -5.5t-17 -1.5h-42z" glyph-name="ocircumflex" horiz-adv-x="601" unicode="ô"/>
<glyph d="M301 -10q-83 0 -139 27.5t-85.5 78.5t-32.5 119q-1 20 -1 45.5t1 44.5q3 69 34 119.5t87 78t136 27.5q79 0 135 -27.5t87 -78t35 -119.5q1 -19 1 -44.5t-1 -45.5q-4 -68 -33.5 -119t-85.5 -78.5t-138 -27.5zM301 101q49 0 73.5 30t27.5 89q1 15 1 40t-1 40 q-3 58 -27.5 88.5t-73.5 30.5t-74 -30.5t-28 -88.5q-1 -15 -1 -40t1 -40q3 -59 28 -89t74 -30zM359 590q-26 0 -43 9t-30.5 17.5t-30.5 8.5q-13 0 -19 -7t-11 -15t-16 -8h-53q-7 0 -12 5.5t-5 11.5q0 16 5.5 36t18 38t32.5 30t48 12q27 0 44 -8.5t31 -17.5t30 -9 q14 0 19.5 8t10.5 15.5t16 7.5h53q8 0 12.5 -5.5t4.5 -12.5q0 -15 -5.5 -35t-18 -38.5t-32.5 -30.5t-49 -12z" glyph-name="otilde" horiz-adv-x="601" unicode="õ"/>
<glyph d="M301 -10q-83 0 -139 27.5t-85.5 78.5t-32.5 119q-1 20 -1 45.5t1 44.5q3 69 34 119.5t87 78t136 27.5q79 0 135 -27.5t87 -78t35 -119.5q1 -19 1 -44.5t-1 -45.5q-4 -68 -33.5 -119t-85.5 -78.5t-138 -27.5zM301 101q49 0 73.5 30t27.5 89q1 15 1 40t-1 40 q-3 58 -27.5 88.5t-73.5 30.5t-74 -30.5t-28 -88.5q-1 -15 -1 -40t1 -40q3 -59 28 -89t74 -30zM359 611q-11 0 -17 6t-6 16v82q0 10 6 16.5t17 6.5h82q10 0 16.5 -6.5t6.5 -16.5v-82q0 -10 -6.5 -16t-16.5 -6h-82zM161 611q-10 0 -16 6t-6 16v82q0 10 6 16.5t16 6.5h83 q10 0 16.5 -6.5t6.5 -16.5v-82q0 -10 -6.5 -16t-16.5 -6h-83z" glyph-name="odieresis" horiz-adv-x="601" unicode="ö"/>
<glyph d="M75 243q-11 0 -18 7t-7 17v67q0 10 7 17t18 7h390q11 0 18 -7t7 -17v-67q0 -10 -7 -17t-18 -7h-390zM226 51q-10 0 -17.5 7t-7.5 18v82q0 10 7.5 17.5t17.5 7.5h87q11 0 18 -7.5t7 -17.5v-82q0 -11 -7 -18t-18 -7h-87zM226 419q-10 0 -17.5 7t-7.5 17v82q0 11 7.5 18 t17.5 7h87q11 0 18 -7t7 -18v-82q0 -10 -7 -17t-18 -7h-87z" glyph-name="divide" horiz-adv-x="540" unicode="÷"/>
<glyph d="M317 -10q-64 0 -111.5 16.5t-78 47t-47.5 69.5l-37 -14q-7 -3 -12 -3q-8 0 -14 5t-6 14v45q0 12 5 18.5t17 10.5l27 10q-1 24 -1 48.5t1 47.5q2 48 18.5 89t48.5 71.5t79.5 47.5t110.5 17t109 -16.5t76.5 -46t47.5 -68.5l38 15q8 3 12 3q8 0 14 -5.5t6 -14.5v-44 q0 -12 -5 -18t-17 -11l-25 -10q2 -20 2 -49t-1 -50q-3 -48 -19 -89t-47 -71.5t-78.5 -47.5t-112.5 -17zM317 101q30 0 51.5 11.5t34.5 37.5t15 68v17v19l-198 -77q9 -40 34.5 -58t62.5 -18zM215 269l197 76q-9 40 -34.5 57t-60.5 17q-30 0 -51.5 -11t-35 -35.5t-15.5 -63.5 v-19v-21z" glyph-name="oslash" horiz-adv-x="632" unicode="ø"/>
<glyph d="M254 -10q-58 0 -102.5 26.5t-69.5 77t-25 122.5v279q0 11 7.5 18t17.5 7h107q10 0 17 -7t7 -18v-273q0 -112 98 -112q47 0 74.5 29.5t27.5 82.5v273q0 11 7 18t18 7h106q10 0 17 -7t7 -18v-470q0 -11 -7 -18t-17 -7h-99q-10 0 -17 7t-7 18v39q-26 -36 -67 -55t-100 -19z M288 595q-14 0 -21.5 3.5t-15.5 10.5l-129 105q-5 5 -5 12q0 20 19 20h116q13 0 20 -3.5t17 -15.5l85 -103q5 -5 5 -13q0 -16 -16 -16h-75z" glyph-name="ugrave" horiz-adv-x="631" unicode="ù"/>
<glyph d="M254 -10q-58 0 -102.5 26.5t-69.5 77t-25 122.5v279q0 11 7.5 18t17.5 7h107q10 0 17 -7t7 -18v-273q0 -112 98 -112q47 0 74.5 29.5t27.5 82.5v273q0 11 7 18t18 7h106q10 0 17 -7t7 -18v-470q0 -11 -7 -18t-17 -7h-99q-10 0 -17 7t-7 18v39q-26 -36 -67 -55t-100 -19z M263 595q-16 0 -16 16q0 8 5 13l85 103q9 12 16.5 15.5t20.5 3.5h115q19 0 19 -20q0 -7 -5 -12l-128 -105q-8 -7 -16 -10.5t-21 -3.5h-75z" glyph-name="uacute" horiz-adv-x="631" unicode="ú"/>
<glyph d="M254 -10q-58 0 -102.5 26.5t-69.5 77t-25 122.5v279q0 11 7.5 18t17.5 7h107q10 0 17 -7t7 -18v-273q0 -112 98 -112q47 0 74.5 29.5t27.5 82.5v273q0 11 7 18t18 7h106q10 0 17 -7t7 -18v-470q0 -11 -7 -18t-17 -7h-99q-10 0 -17 7t-7 18v39q-26 -36 -67 -55t-100 -19z M152 595q-15 0 -15 14q0 8 8 16l100 104q10 11 17.5 14t17.5 3h66q10 0 17.5 -3t17.5 -14l100 -104q8 -8 8 -16q0 -14 -15 -14h-42q-8 0 -16.5 1.5t-16.5 5.5l-86 51l-86 -51q-7 -4 -16 -5.5t-17 -1.5h-42z" glyph-name="ucircumflex" horiz-adv-x="631" unicode="û"/>
<glyph d="M254 -10q-58 0 -102.5 26.5t-69.5 77t-25 122.5v279q0 11 7.5 18t17.5 7h107q10 0 17 -7t7 -18v-273q0 -112 98 -112q47 0 74.5 29.5t27.5 82.5v273q0 11 7 18t18 7h106q10 0 17 -7t7 -18v-470q0 -11 -7 -18t-17 -7h-99q-10 0 -17 7t-7 18v39q-26 -36 -67 -55t-100 -19z M371 611q-11 0 -17 6t-6 16v82q0 10 6 16.5t17 6.5h82q10 0 16.5 -6.5t6.5 -16.5v-82q0 -10 -6.5 -16t-16.5 -6h-82zM173 611q-10 0 -16 6t-6 16v82q0 10 6 16.5t16 6.5h83q10 0 16.5 -6.5t6.5 -16.5v-82q0 -10 -6.5 -16t-16.5 -6h-83z" glyph-name="udieresis" horiz-adv-x="631" unicode="ü"/>
<glyph d="M158 -190q-8 0 -14.5 6t-6.5 15q0 2 1 5.5t3 8.5l78 187l-192 453q-3 8 -3 13q1 9 7 15.5t15 6.5h98q12 0 18 -6.5t9 -13.5l124 -309l127 309q4 8 10 14t19 6h95q9 0 15.5 -6.5t6.5 -14.5q0 -5 -3 -14l-283 -655q-4 -8 -10.5 -14t-19.5 -6h-94zM247 595q-16 0 -16 16 q0 8 5 13l85 103q9 12 16.5 15.5t20.5 3.5h115q19 0 19 -20q0 -7 -5 -12l-128 -105q-8 -7 -16 -10.5t-21 -3.5h-75z" glyph-name="yacute" horiz-adv-x="586" unicode="ý"/>
<glyph d="M88 -190q-10 0 -17.5 7t-7.5 18v850q0 11 7.5 18t17.5 7h104q10 0 17 -7t7 -18v-223q24 32 58.5 50t91.5 18q51 0 89.5 -16.5t65.5 -47t41.5 -73.5t16.5 -97q1 -19 1 -36t-1 -37q-1 -51 -16 -94t-41.5 -74t-65.5 -48t-90 -17q-52 0 -89 18.5t-61 50.5v-224q0 -11 -7 -18 t-17 -7h-104zM320 110q39 0 60.5 16.5t31 43.5t11.5 59q2 31 0 62q-2 32 -11.5 59t-31 43.5t-60.5 16.5q-36 0 -59 -17t-33 -43t-12 -56q-1 -18 -1 -37t1 -38q1 -28 12.5 -52.5t34 -40.5t57.5 -16z" glyph-name="thorn" horiz-adv-x="623" unicode="þ"/>
<glyph d="M87 0q-10 0 -17.5 7t-7.5 18v470q0 11 7.5 18t17.5 7h101q10 0 17 -7t7 -18v-470q0 -11 -7 -18t-17 -7h-101z" glyph-name="dotlessi" horiz-adv-x="275" unicode="ı"/>
<glyph d="M75 595q-15 0 -15 14q0 8 8 16l100 104q10 11 17.5 14t17.5 3h66q10 0 17.5 -3t17.5 -14l100 -104q8 -8 8 -16q0 -14 -15 -14h-42q-8 0 -16.5 1.5t-16.5 5.5l-86 51l-86 -51q-7 -4 -16 -5.5t-17 -1.5h-42z" glyph-name="circumflex" horiz-adv-x="472" unicode="ˆ"/>
<glyph d="M150 590q-37 0 -63.5 24t-26.5 61t26.5 61.5t63.5 24.5t63.5 -24.5t26.5 -61.5t-26.5 -61t-63.5 -24zM150 645q13 0 21.5 8.5t8.5 21.5t-8.5 21.5t-21.5 8.5t-21.5 -8.5t-8.5 -21.5t8.5 -21.5t21.5 -8.5z" glyph-name="ring" horiz-adv-x="300" unicode="˚"/>
<glyph d="M280 590q-26 0 -43 9t-30.5 17.5t-30.5 8.5q-13 0 -19 -7t-11 -15t-16 -8h-53q-7 0 -12 5.5t-5 11.5q0 16 5.5 36t18 38t32.5 30t48 12q27 0 44 -8.5t31 -17.5t30 -9q14 0 19.5 8t10.5 15.5t16 7.5h53q8 0 12.5 -5.5t4.5 -12.5q0 -15 -5.5 -35t-18 -38.5t-32.5 -30.5 t-49 -12z" glyph-name="tilde" horiz-adv-x="445" unicode="˜"/>
<glyph d="M-198 0q-22 0 -22 20q0 6 4 11l493 650q7 9 14 14t21 5h46q22 0 22 -20q0 -6 -4 -11l-493 -650q-7 -9 -14 -14t-21 -5h-46z" glyph-name="fraction" horiz-adv-x="160" unicode="⁄"/>
<glyph d="M147 -170q-22 0 -22 22v215l-54 -40q-7 -5 -16 -4t-15 9l-23 31q-6 8 -4.5 16.5t8.5 14.5l104 79q10 7 23 7h52q22 0 22 -22v-306q0 -22 -22 -22h-53z" glyph-name="uni2081" horiz-adv-x="265" unicode="₁"/>
<glyph d="M49 -170q-22 0 -22 22v31q0 8 5 15.5t19 17.5q58 43 94 69t53 45t17 40q0 17 -10.5 27t-30.5 10q-17 0 -26 -5.5t-13.5 -12.5t-6.5 -12q-6 -11 -11 -14.5t-13 -3.5h-51q-19 0 -18 19q2 30 20.5 54t50 38.5t68.5 14.5q62 0 99 -31.5t37 -80.5q0 -32 -15 -57.5t-44.5 -50 t-74.5 -55.5h127q22 0 22 -22v-36q0 -22 -22 -22h-254z" glyph-name="uni2082" horiz-adv-x="353" unicode="₂"/>
<glyph d="M170 -175q-53 0 -84.5 14.5t-46 35t-16.5 39.5q-1 10 6 14.5t11 4.5h36q9 0 17 -2.5t15 -4.5q8 -3 13 -8.5t15 -9.5t31 -4q25 0 39.5 9t14.5 26q0 19 -14 26t-37 7h-45q-9 0 -15 6t-6 15v23q0 7 3 12t8 10l64 59h-117q-22 0 -22 22v39q0 22 22 22h219q22 0 22 -22v-34 q0 -9 -2.5 -15.5t-11.5 -14.5l-66 -54q48 -7 73 -33t25 -70q0 -51 -41 -81.5t-110 -30.5z" glyph-name="uni2083" horiz-adv-x="351" unicode="₃"/>
<glyph d="M214 -170q-22 0 -22 22v38h-150q-22 0 -22 22v41q0 2 1.5 10t10.5 20l133 179q8 11 15.5 14.5t14.5 3.5h70q22 0 22 -22v-184h35q22 0 22 -22v-40q0 -22 -22 -22h-35v-38q0 -22 -22 -22h-51zM121 -28h72v102z" glyph-name="uni2084" horiz-adv-x="366" unicode="₄"/>
<glyph d="M310 750q-11 0 -17 6t-6 17v82q0 10 6 16.5t17 6.5h82q10 0 16.5 -6.5t6.5 -16.5v-82q0 -11 -6.5 -17t-16.5 -6h-82zM82 750q-10 0 -16 6t-6 17v82q0 10 6 16.5t16 6.5h83q10 0 16.5 -6.5t6.5 -16.5v-82q0 -11 -6.5 -17t-16.5 -6h-83z" glyph-name="uni0308.case" horiz-adv-x="0"/>
<glyph d="M270 750q-13 0 -20.5 3.5t-15.5 10.5l-129 105q-5 5 -5 12q0 20 19 20h123q13 0 20.5 -3.5t16.5 -15.5l85 -103q5 -5 5 -13q0 -16 -16 -16h-83z" glyph-name="gravecomb.case" horiz-adv-x="0"/>
<glyph d="M106 750q-16 0 -16 16q0 8 5 13l85 103q9 12 16.5 15.5t20.5 3.5h123q19 0 19 -20q0 -7 -5 -12l-129 -105q-8 -7 -15.5 -10.5t-20.5 -3.5h-83z" glyph-name="acutecomb.case" horiz-adv-x="0"/>
<glyph d="M78 750q-15 0 -15 14q0 8 8 16l100 104q11 11 18.5 14t16.5 3h72q9 0 16.5 -3t17.5 -14l100 -104q8 -8 8 -16q0 -14 -15 -14h-44q-9 0 -17.5 1.5t-15.5 5.5l-86 51l-87 -51q-7 -4 -15.5 -5.5t-16.5 -1.5h-45z" glyph-name="uni0302.case" horiz-adv-x="0"/>
<glyph d="M150 740q-37 0 -63.5 24t-26.5 61t26.5 61.5t63.5 24.5t63.5 -24.5t26.5 -61.5t-26.5 -61t-63.5 -24zM150 795q13 0 21.5 8.5t8.5 21.5t-8.5 21.5t-21.5 8.5t-21.5 -8.5t-8.5 -21.5t8.5 -21.5t21.5 -8.5z" glyph-name="uni030A.case" horiz-adv-x="0"/>
<glyph d="M284 745q-27 0 -44.5 9t-32 17.5t-31.5 8.5q-13 0 -19 -7t-11 -15t-16 -8h-53q-7 0 -12 5.5t-5 11.5q0 16 5.5 36t18.5 39t33 31.5t49 12.5q27 0 44.5 -9t32 -17.5t31.5 -8.5q14 0 19.5 7.5t10.5 15t16 7.5h53q8 0 12.5 -5t4.5 -12q0 -16 -6 -36t-18.5 -39t-33 -31.5 t-48.5 -12.5z" glyph-name="tildecomb.case" horiz-adv-x="0"/>
</font>
</defs>
</svg>
