<?xml version="1.0" encoding="UTF-8"?>
<!DOCTYPE svg  PUBLIC '-//W3C//DTD SVG 1.1//EN'  'http://www.w3.org/Graphics/SVG/1.1/DTD/svg11.dtd'>
<svg version="1.1" xmlns="http://www.w3.org/2000/svg">
<defs>
<font id="Saddlebag-Black" horiz-adv-x="770">
<font-face font-family="Saddlebag" font-weight="900" ascent="800" bbox="-62 -202 898 772" cap-height="520" descent="-200" panose-1="2 0 10 3 2 0 0 2 0 4" underline-position="-185" underline-thickness="70" unicode-range="U+0020-00FD" units-per-em="1000" x-height="374"/>
<missing-glyph/>
<glyph glyph-name="space" horiz-adv-x="520" unicode=" "/>
<glyph d="M336 363q-21 18 -31 47q-7 19 -14 59q-30 67 -118 67q-84 0 -115 -64q-5 -12 -16 -61q-8 -35 -28 -48q52 -23 68 -90q10 -38 11 -104h164q-9 148 79 194zM257 -2v135h-164v-135h164z" glyph-name="exclam" horiz-adv-x="383" unicode="!"/>
<glyph d="M279 520h-117l23 -234h68zM136 520h-117l23 -234h69z" glyph-name="quotedbl" horiz-adv-x="342" unicode='"'/>
<glyph d="M377 435h-66l19 85h-79l-19 -85h-39l16 85h-75q-8 -29 -13.5 -50t-8.5 -35h-64l-13 -63h64v-15q0 -13 -9 -20h-64l-16 -64h70l-19 -89h78q2 19 4 31.5t3 19.5q6 38 32 38q13 0 19 -2l-19 -90h78l23 92h60l13 63h-60v15q5 14 9 20h60zM219 371q-2 -11 -4 -20t-3 -14h-40 q3 11 5.5 19.5t4.5 14.5h37z" glyph-name="numbersign" horiz-adv-x="423" unicode="#"/>
<glyph d="M565 175q0 54 -30 83q-23 21 -74 36q-34 9 -58.5 15.5t-41.5 11.5t-36 38q-23 -29 -62 -29q-22 0 -41 11q-22 13 -22 35q0 49 81 49q107 0 132 -85h129v167h-113q1 -16 -2 -21q-60 25 -91 31v114h-94v-108q-87 -2 -150 -51q-67 -54 -67 -139q0 -89 81 -129q15 -7 50 -15 q36 -8 51 -15q27 -13 42 -41q28 26 65 26q67 0 67 -38q0 -42 -87 -42q-51 0 -88 18q-49 22 -51 68h-123v-165h117q0 23 2 25q7 -5 17 -9.5t24 -9.5q10 -3 22 -6.5t28 -7.5v-121h94v118q93 0 158 44q71 53 71 142z" glyph-name="dollar" horiz-adv-x="616" unicode="$"/>
<glyph d="M595 -15q119 0 151 74q26 61 35 69q-16 12 -22 25q-12 57 -61 87q-44 27 -106 27q-97 0 -137 -55q-9 -12 -20 -50q-9 -29 -22 -33q19 -11 26 -39q12 -42 19 -51q39 -54 137 -54zM651 125q0 -25 -11 -45q-12 -26 -35 -26q-29 -2 -46 21q-16 19 -16 49q0 27 14.5 46.5 t40.5 19.5q53 0 53 -65zM565 536h-75l-264 -550h78zM378 400q-18 16 -19 21q-39 115 -170 115q-79 0 -127 -42q-6 -4 -23 -44q-15 -37 -29 -48q14 -11 29 -51q14 -39 23 -49q42 -45 130 -45q73 0 113 30t63 100zM248 397q0 -24 -14 -46q-17 -24 -40 -24q-25 0 -39.5 21 t-14.5 47q0 65 55 65q53 0 53 -63z" glyph-name="percent" horiz-adv-x="814" unicode="%"/>
<glyph d="M682 165v98h-241q22 -35 22 -73q0 -51 -30.5 -81t-81.5 -30q-81 0 -81 70q0 78 94 74v94q-94 -4 -94 64q0 60 71 60q89 0 82 -88h161v173h-146q1 -14 -2 -21q-58 31 -149 31q-89 0 -135 -21q-68 -31 -123 -130q7 -6 14 -16t14 -24q15 -27 24 -36q35 -36 94 -44 q-52 -1 -94 -36q-18 -15 -71 -82q22 -20 27 -32q38 -85 130 -113q59 -17 166 -17q113 0 166 21q98 41 104 159h79z" glyph-name="ampersand" horiz-adv-x="706" unicode="&amp;"/>
<glyph d="M130 520h-117q8 -78 13.5 -136t8.5 -98h69z" glyph-name="quotesingle" horiz-adv-x="193" unicode="'"/>
<glyph d="M326 -160v81q-21 -15 -42 -15q-58 0 -74 69q-7 27 -7 90q0 26 0.5 41.5t1.5 20.5q7 38 49 52q-39 15 -48 54q-3 13 -3 86v6q-1 4 -1 11v24q0 100 73 100q32 0 51 -19v79q-28 16 -74 16q-61 0 -110 -41q-44 -38 -65 -101q-14 -44 -21 -120q-4 -52 -13 -69q-11 -20 -33 -26 q14 -6 31 -26q18 -20 18 -34q2 -120 37 -195q50 -101 156 -101q32 0 74 17z" glyph-name="parenleft" horiz-adv-x="370" unicode="("/>
<glyph d="M327 180q-5 0 -11 3.5t-12 9t-10 11t-4 10.5q-17 143 -39 200q-50 122 -165 122q-40 0 -76 -16v-79q7 5 25 12t28 7q55 0 68 -55q2 -10 3.5 -31t1.5 -55q0 -64 -3 -80q-7 -41 -46 -60q38 -14 46 -49q3 -14 3 -62q0 -162 -82 -162h-17q-8 1 -27 15v-81q46 -17 74 -17 q70 0 120 47q45 45 61 116q13 51 13 82q2 90 49 112z" glyph-name="parenright" horiz-adv-x="356" unicode=")"/>
<glyph d="M295 382l-32 100q-26 -8 -44 -32q-17 -20 -28 -33.5t-16 -18.5q13 -2 54 -12l39 -11q13 0 27 7zM212 503v17h-107v-17l52 -94q4 8 12.5 22t21.5 34q22 34 21 38zM273 322q-15 20 -55 36q-44 18 -49 23l2 -84q4 -16 18 -40q28 22 49 38t35 27zM140 398l-44 53 q-22 25 -41 35l-33 -104q17 -5 27 -4zM149 377q-1 0 -61 -20q-35 -12 -50 -35l88 -65q19 34 19 77v11q0 21 4 32z" glyph-name="asterisk" horiz-adv-x="346" unicode="*"/>
<glyph d="M476 146v124h-165v164h-120v-164h-165v-124h164v-160h121v160h165z" glyph-name="plus" horiz-adv-x="486" unicode="+"/>
<glyph d="M206 33q0 25 -14 58q-20 42 -51 42h-106v-135h84q12 0 38 24q2 -2 2 -7q0 -22 -23 -48q-22 -25 -47 -34q2 -8 6 -18t11 -22q46 17 73 54.5t27 85.5z" glyph-name="comma" horiz-adv-x="276" unicode=","/>
<glyph d="M304 112v138h-272v-138h272z" glyph-name="hyphen" horiz-adv-x="325" unicode="-"/>
<glyph d="M209 -2v135h-164v-135h164z" glyph-name="period" horiz-adv-x="277" unicode="."/>
<glyph d="M355 590h-78l-311 -671h75z" glyph-name="slash" horiz-adv-x="363" unicode="/"/>
<glyph d="M746 265q-10 7 -26 28q-15 19 -18 33q-56 210 -319 210q-210 0 -283 -121q-7 -10 -27 -79q-15 -50 -49 -71q14 -8 22 -14t10 -9q16 -24 19 -47q10 -77 75 -138q67 -61 144 -65l53 -4l40 -3q136 0 213 50q84 57 115 182q19 34 31 48zM486 179q0 -100 -94 -100 q-46 0 -73 28.5t-27 74.5q0 24 10 47q12 29 31 36q-28 21 -34 40q-4 8 -4 36q0 94 92 94q96 0 96 -91q0 -52 -38 -79q41 -17 41 -86z" glyph-name="zero" unicode="0"/>
<glyph d="M596 0v85h-65q-24 0 -29 35q-1 5 -1 47v7q0 5 -1 10v16q0 44 39 67q-7 3 -23 19q-15 16 -15 23v211h-320v-85q71 5 91 -17q16 -16 16 -67q0 -7 1 -12v-12q0 -37 -39 -62q30 -15 36 -40q1 -5 1.5 -19t0.5 -39l1 -10q1 -5 1 -10v-8q0 -54 -32 -54h-84v-85h422z" glyph-name="one" unicode="1"/>
<glyph d="M671 354q-27 16 -35 45q-32 137 -261 137q-97 0 -167 -27q-108 -42 -108 -140v-32h192q0 95 69 95q65 0 65 -59q0 -58 -85 -89q-57 -20 -96 -34.5t-61 -22.5q-84 -44 -84 -121v-102h551v151h-151q1 -3 1 -10q0 -17 -14 -30.5t-31 -13.5h-182v11q12 25 15 27q36 22 173 48 q118 22 163 67q7 7 22 49q15 43 24 51z" glyph-name="two" unicode="2"/>
<glyph d="M690 383q-23 17 -32 32q-72 121 -287 121q-88 0 -164 -24q-123 -39 -123 -127v-54h202q-5 104 77 104q66 0 66 -73q0 -38 -17 -53t-56 -15h-12q-6 0 -13 1v-82q23 1 39.5 -1t27.5 -6q35 -14 35 -54q0 -69 -77 -69q-43 0 -62 36q-16 27 -14 74h-200v-26q0 -107 115 -153 q75 -29 174 -29q38 0 75 4.5t74 12.5q91 22 123 65q8 12 26 47q19 37 19 46q0 8 -28 42q-24 30 -36 41q-8 8 -33 13q-33 6 -42 9q42 4 80 41q21 20 63 77z" glyph-name="three" unicode="3"/>
<glyph d="M699 0v85h-64q-28 0 -28 39q0 17 3 22h89v93h-95v26q0 14 29 35q-26 17 -26 28v192h-278l-258 -293v-81h324v-39q0 -5 -11 -13t-17 -9h-67v-85h399zM397 406q-1 -14 -1 -28v-27q-5 -35 -30 -51q28 -16 28 -31v-30h-145z" glyph-name="four" unicode="4"/>
<glyph d="M680 186q-52 94 -118 137q-68 45 -172 45q-97 0 -146 -29v77h212q29 0 37 -38h152v142h-542v-297h174q0 21 27 32q22 8 46 8q86 0 86 -87q0 -97 -81 -97q-33 0 -52.5 21.5t-19.5 54.5h-193v-11q8 -89 100 -130q69 -29 171 -29q110 0 179 32q95 47 140 169z" glyph-name="five" unicode="5"/>
<glyph d="M710 189q-21 13 -27 32q-24 69 -103 103q-62 28 -147 28q-71 0 -111 -22l-2 40q9 35 27.5 48.5t55.5 13.5q32 0 46 -9q21 -14 21 -54h199q-11 167 -271 167q-96 0 -150 -18q-84 -28 -118 -103q-8 -29 -13.5 -49t-8.5 -31q-14 -48 -48 -63q25 -20 30 -39q56 -248 308 -248 q239 0 291 172q5 17 21 32zM498 171q0 -82 -94 -82q-90 0 -90 81q0 38 29 61q26 20 66 20q39 0 64 -21t25 -59z" glyph-name="six" unicode="6"/>
<glyph d="M666 395v125h-561v-186h157q-5 62 36 77q15 5 74 5q23 0 38 -0.5t21 -1.5q-39 -56 -63 -87q-38 -52 -86 -61q5 -13 5 -26q0 -22 -46 -111q-45 -90 -45 -118v-11h304v88q-29 -2 -40 12q6 36 45 88q45 61 88 73q-6 10 -6 23q0 35 79 111z" glyph-name="seven" unicode="7"/>
<glyph d="M701 154q-51 62 -74 92q-19 10 -34.5 16.5t-28.5 8.5q40 9 72 46q23 26 36 40t16 16q-31 15 -41 36q-38 69 -130 102q-69 25 -148 25q-100 0 -166 -33q-73 -34 -121 -117q64 -108 133 -115q-44 1 -85 -38q-13 -13 -61 -76q25 -48 56.5 -82t71.5 -54q72 -36 185 -36 q112 0 186 36q78 40 133 133zM453 367q0 -26 -26 -43q-22 -13 -51 -13q-78 0 -78 57t74 57q30 0 53 -14q28 -16 28 -44zM466 151q0 -32 -30 -50q-26 -15 -59 -15q-32 0 -57 14q-29 18 -29 48q0 32 28 51q26 17 58 17q33 0 58 -16q31 -19 31 -49z" glyph-name="eight" unicode="8"/>
<glyph d="M725 265q-26 18 -31 45q-19 116 -111 175q-81 51 -206 51q-96 0 -175 -33q-105 -43 -129 -136q-14 -21 -28 -32q21 -18 25 -32q45 -151 250 -151q101 0 145 26l3 -40q-16 -55 -89 -55q-78 0 -78 42q0 7 1 11h-231q23 -84 122 -123q72 -28 179 -28q127 0 210 44 q101 55 112 172q1 23 31 64zM464 346q0 -37 -31 -56q-26 -17 -64 -17q-35 0 -60 18q-29 20 -29 52q0 79 94 79q37 0 62 -19q28 -22 28 -57z" glyph-name="nine" unicode="9"/>
<glyph d="M206 245v135h-164v-135h164zM206 -2v135h-164v-135h164z" glyph-name="colon" horiz-adv-x="266" unicode=":"/>
<glyph d="M203 245v135h-164v-135h164zM206 33q0 30 -14 60q-19 40 -51 40h-99v-135h77q12 0 38 21l2 -19q-9 -19 -29 -41q-24 -24 -41 -22l20 -44q45 17 71 54.5t26 85.5z" glyph-name="semicolon" horiz-adv-x="263" unicode=";"/>
<glyph d="M644 420l-52 113l-560 -265l564 -268l48 113l-323 152z" glyph-name="less" horiz-adv-x="683" unicode="&lt;"/>
<glyph d="M476 334v123h-453v-123h453zM476 89v123h-453v-123h453z" glyph-name="equal" horiz-adv-x="512" unicode="="/>
<glyph d="M644 268l-560 265l-52 -113l323 -152l-323 -155l48 -113z" glyph-name="greater" horiz-adv-x="644" unicode="&gt;"/>
<glyph d="M536 348q-6 1 -19 16q-12 15 -12 22q4 85 -97 124q-69 26 -160 26q-70 0 -134 -21q-101 -33 -101 -108v-51h180q-1 5 -1 15q0 61 62 61q31 0 41 -13.5t10 -45.5q0 -57 -49 -73l-26 -4q-29 -4 -45.5 -6.5t-20.5 -3.5q-46 -12 -46 -44v-77h164v29q0 23 39 31q14 2 28 3 t28 3q57 7 83 30q23 26 42.5 48t33.5 39zM282 -2v135h-164v-135h164z" glyph-name="question" horiz-adv-x="563" unicode="?"/>
<glyph d="M854 308q0 160 -122 247q-101 73 -251 73q-193 0 -319 -114q-130 -118 -130 -309q0 -171 119 -272q112 -97 287 -97q178 0 311 103q-17 25 -29 42t-17 28q-122 -81 -257 -81q-139 0 -224 69q-92 74 -92 209q0 147 101 240q99 90 247 90q115 0 189 -74q73 -73 73 -191 q0 -34 -12 -71q-18 -57 -54 -57q-12 0 -14 8v24q0 41 26 55q-26 26 -26 35v70q0 39 -74 62q-51 16 -91 16q-85 0 -141 -35q-3 5 -2 18h-110v-100h113q6 21 33 31q22 9 47 9q63 0 63 -39q0 -13 -2 -15h-91q-139 0 -205 -113q13 -4 18 -19q40 -106 161 -106q38 0 77 14 q3 1 25 15q20 13 24 13q-13 0 49 -21q61 -21 93 -21q106 0 162 90q45 73 45 174zM501 137q-19 -10 -50 -10q-67 0 -67 40q0 39 70 39h47v-69z" glyph-name="at" horiz-adv-x="907" unicode="@"/>
<glyph d="M771 0v85q-46 0 -59 4q-14 5 -38 62q-23 54 -23 74q0 27 14 41q-37 1 -70 63q-25 46 -33 95q16 10 38 12h13q10 0 24 -1v85h-491v-85h58q14 0 31 -12q0 -33 -30 -88q-35 -66 -75 -70q16 -12 16 -30q0 -17 -22 -67q-8 -20 -15.5 -34t-13.5 -22q-22 -29 -51 -28 q-12 1 -21 1h-13v-85h307v85h-46q-36 0 -36 29q0 12 12 35h201q12 -17 12 -32q0 -25 -26 -31q-5 -1 -14.5 -1.5t-25.5 0.5v-85h377zM412 245h-123l62 133z" glyph-name="A" horiz-adv-x="811" unicode="A"/>
<glyph d="M733 141q-41 57 -66 78q-46 39 -112 37q2 1 15 2.5t36 5.5q32 4 49 15q16 10 39 50q24 38 33 43q-43 80 -75 110q-43 38 -108 38h-528v-85h71q39 0 39 -41q0 -6 -1 -17t-1 -17q0 -40 -3 -53q-8 -32 -35 -39q28 -12 35 -46q3 -14 3 -55l1 -10v-18q0 -54 -32 -54h-77v-85 h553q29 0 67 20q38 21 55 45q8 13 21 52q4 15 21 24zM482 370q0 -24 -16 -43t-40 -19h-89v120h83q23 0 42.5 -17.5t19.5 -40.5zM482 148q0 -27 -17.5 -44.5t-44.5 -17.5h-83v123h89q22 0 39 -19.5t17 -41.5z" glyph-name="B" horiz-adv-x="786" unicode="B"/>
<glyph d="M654 185v14h-200q-2 -58 -17 -82q-21 -34 -72 -34q-89 0 -89 98q0 57 35 84q-35 24 -35 71q0 42 21 69t63 27q85 0 85 -121h180v209h-152q0 -21 -2 -25q-73 41 -149 41q-80 0 -141 -30q-71 -35 -94 -104q-8 -25 -13.5 -42t-8.5 -27q-15 -46 -46 -68q31 -17 47 -73 q22 -80 33 -96q43 -72 172 -104q27 -7 80 -7q104 0 184 33q119 51 119 167z" glyph-name="C" horiz-adv-x="692" unicode="C"/>
<glyph d="M743 265q-28 20 -31 35q-51 220 -181 220h-515v-85h71q39 0 39 -44q0 -5 -1 -16t-1 -16q0 -22 -0.5 -35t-1.5 -18q-6 -26 -36 -41q29 -15 35 -40q3 -12 3 -58l1 -10v-18q0 -54 -32 -54h-77v-85h518q43 0 89 31q40 28 57 72q5 23 11 45t12 45q13 48 40 72zM489 179 q0 -35 -14 -61q-17 -32 -49 -32h-89v134q0 7 12 24t19 21q-31 22 -31 45v125h83q33 0 53 -30q16 -25 16 -62q0 -58 -41 -78q27 -20 36 -43q5 -15 5 -43z" glyph-name="D" horiz-adv-x="772" unicode="D"/>
<glyph d="M631 315v205h-615v-85q74 2 91 -18q10 -10 10 -63q0 -39 -2 -49q-7 -27 -37 -40q32 -12 38 -44q1 -3 1 -54v-44q-5 -38 -30 -38h-71v-85h612v203h-145q1 -12 1 -20v-9q0 -89 -54 -89h-100v122h117v99h-117v126h68q16 0 43 -11q35 -15 35 -36v-70h155z" glyph-name="E" horiz-adv-x="690" unicode="E"/>
<glyph d="M631 315v205h-615v-85q74 2 91 -18q10 -10 10 -63q0 -39 -2 -49q-7 -27 -37 -40q32 -12 38 -44q1 -3 1 -54v-44q-5 -38 -30 -38h-71v-85h434v85h-80q-11 0 -25.5 8.5t-14.5 18.5v95h120v99h-120v129h74q53 0 69 -37q10 -22 7 -83h151z" glyph-name="F" horiz-adv-x="667" unicode="F"/>
<glyph d="M711 185v84h-326v-85q5 1 10 1.5t10 0.5q46 0 46 -35q0 -68 -81 -68q-45 0 -68 28t-23 73q0 52 35 84q-32 14 -32 70q0 97 94 97q99 0 101 -114h164v199h-139q1 -15 -2 -22q-56 38 -160 38q-227 0 -265 -179q-14 -65 -56 -89q33 -23 53 -91q21 -77 40 -100 q74 -92 228 -92q69 0 150 37q18 -11 22 -27h132v166q0 19 29 24h38z" glyph-name="G" horiz-adv-x="727" unicode="G"/>
<glyph d="M758 435v85h-342v-85q6 2 9 2q10 0 21 -4q20 -8 20 -19v-99h-162v90q0 31 51 30v85h-339v-85q61 3 72 -14q4 -5 4 -61q0 -46 -1 -49q-8 -36 -37 -43q39 -20 39 -67v-17q-1 -5 -1 -10v-6q0 -49 -2 -59q-9 -25 -50 -25h-11t-13 1v-85h339v85q-51 0 -51 27v100h162v-102 q0 -25 -50 -25v-85h342v85q-17 -3 -30 -3q-40 0 -47 27q-2 10 -2 54t3 58q7 31 35 47q-30 13 -36 46q-1 4 -1.5 15t-0.5 31q0 44 3 52q7 25 48 25q7 0 13.5 -0.5t14.5 -1.5z" glyph-name="H" horiz-adv-x="808" unicode="H"/>
<glyph d="M418 0v85h-64q-24 0 -29 35q-1 5 -1 47q0 49 1 52q6 33 37 48q-39 19 -39 64v15q1 5 1 8v5q-1 8 -1.5 14.5t-0.5 11.5q0 50 32 50h64v85h-398v-85q8 1 16 1.5t15 0.5q48 0 57 -21q3 -8 3 -56q0 -49 -1 -52q-6 -28 -37 -43q28 -15 36 -42q2 -10 2 -56q0 -53 -3 -60 q-9 -23 -56 -23h-15t-17 1v-85h398z" glyph-name="I" horiz-adv-x="473" unicode="I"/>
<glyph d="M634 435v85h-376v-85q61 1 71 -14q4 -5 4 -61q0 -45 -1 -48q-6 -29 -37 -45q29 -18 37 -45q1 -5 1 -43q0 -44 -4 -55q-12 -35 -56 -35q-13 0 -30 5q-27 9 -27 28v103h-213v-128q0 -71 119 -97q66 -15 143 -15q281 0 281 111v125q0 8 15 26q14 17 23 19q-30 19 -36 45 q-2 10 -2 48q0 50 4 57q11 20 56 20h13t15 -1z" glyph-name="J" horiz-adv-x="685" unicode="J"/>
<glyph d="M710 0v85q-15 -3 -39 1q-36 6 -36 26v80q0 81 -103 94q-22 3 -38.5 5t-27.5 3q42 46 64 71t27 29q47 43 106 43q6 0 12 -0.5t13 -1.5v85h-281v-85q17 3 28 -11q-37 -45 -66.5 -78.5t-52.5 -56.5l-2 119q3 29 37 29q4 0 10 -2v85h-345v-85q65 -2 79 -19q7 -8 7 -61 q0 -18 -0.5 -29t-1.5 -16q-8 -32 -37 -45q28 -10 36 -41q3 -14 3 -53q0 -50 -5 -62q-10 -25 -57 -25h-11t-13 1v-85h345v85q-47 2 -47 34q0 20 25 42q26 23 45 23q48 0 48 -37v-85q0 -21 23 -42q25 -20 45 -20h210z" glyph-name="K" horiz-adv-x="753" unicode="K"/>
<glyph d="M609 0v222h-152v-74q0 -31 -32 -48q-26 -14 -60 -14q-11 0 -18 0.5t-11 1.5v133q0 9 16 25q18 18 26 19q-31 16 -39 44q-3 10 -3 48q0 50 6 61q10 18 59 18h15t18 -1v85h-414v-85h67q38 0 38 -47v-7q0 -4 -1 -9v-13q0 -5 1 -14.5t1 -14.5q0 -41 -40 -65q30 -12 36 -47 q2 -10 2 -51l1 -10v-18q0 -54 -32 -54h-73v-85h589z" glyph-name="L" horiz-adv-x="655" unicode="L"/>
<glyph d="M818 435v83h-335q-23 -97 -40.5 -166t-28.5 -111q-2 2 -3 3.5t-2 2.5q-20 108 -54 273h-339v-85q7 1 12 1h11q40 0 48 -21q2 -8 2 -55q0 -45 -1 -48q-8 -29 -37 -45q28 -16 36 -47q1 -5 1.5 -18t0.5 -35q0 -49 -2 -57q-9 -26 -48 -26h-11q-5 0 -12 1v-85h234v85 q-54 -3 -54 27v253l109 -365h126l115 352v-242q0 -28 -54 -25v-85h326v85q-6 -1 -12 -1h-11q-41 0 -50 26q-2 8 -2 57v7q0 5 -1 10v16q0 44 39 67q-29 15 -36 42q-2 10 -2 50q0 51 4 58q13 22 71 18z" glyph-name="M" horiz-adv-x="870" unicode="M"/>
<glyph d="M698 435v85h-260v-85q64 6 64 -28v-220l-147 333h-335v-85q60 3 71 -14q4 -5 4 -61q0 -48 -1 -51q-7 -28 -40 -44q32 -9 39 -43q1 -5 1.5 -18.5t0.5 -36.5q0 -49 -2 -57q-9 -26 -50 -26h-11t-12 1v-85h268v85q-20 -2 -39 1q-37 4 -37 29v244l157 -359h243v221q2 10 15 26 q16 18 24 19q-29 15 -36 42q-2 10 -2 49q0 54 6 62q13 17 79 16z" glyph-name="N" horiz-adv-x="747" unicode="N"/>
<glyph d="M733 265q-10 7 -26 28q-15 19 -18 33q-56 210 -319 210q-208 0 -283 -121q-7 -10 -27 -79q-15 -50 -49 -71q14 -8 22 -14t10 -9q16 -24 19 -47q10 -77 75 -138q67 -61 144 -65q55 -4 78.5 -5.5t15.5 -1.5q135 0 212 50q84 57 115 182q19 34 31 48zM473 179 q0 -100 -94 -100q-46 0 -73 28.5t-27 74.5q0 24 11 49.5t31 33.5q-28 22 -35 40q-4 9 -4 36q0 94 93 94q95 0 95 -91q0 -52 -38 -79q41 -17 41 -86z" glyph-name="O" horiz-adv-x="773" unicode="O"/>
<glyph d="M698 364q-11 -2 -30 33l-30 56q-19 27 -66 46q-48 21 -82 21h-474v-85q10 1 18.5 1.5t16.5 0.5q47 0 54 -19q3 -8 3 -59q0 -46 -1 -49q-8 -30 -37 -45q28 -12 36 -42q1 -5 1.5 -18.5t0.5 -36.5q0 -56 -6 -63q-14 -23 -86 -20v-85h402v85h-64q-14 0 -25.5 13t-11.5 27v66 h186q30 0 78 20q45 19 62 44q10 15 24 59q10 34 31 50zM457 354q0 -27 -15 -49q-18 -25 -44 -25h-77v151h83q21 0 38 -29q15 -26 15 -48z" glyph-name="P" horiz-adv-x="719" unicode="P"/>
<glyph d="M708 265q-6 3 -13.5 10.5t-14 15.5t-11.5 16.5t-5 14.5q-14 118 -122 173q-80 41 -182 41q-217 0 -283 -150q-8 -28 -13 -43l-6 -18q-17 -44 -48 -60q25 -4 30 -23q27 -94 79 -162q69 -92 160 -92h13t13 1q-9 -4 -15.5 -6.5t-10.5 -4.5q17 -20 29 -35l20 -25q28 18 45 16 l182 -63q35 -3 78 26q42 29 59 64q-11 16 -22 30t-24 25q-22 -28 -56 -28q-41 0 -82 23q98 32 135 98q9 15 28 83q16 54 37 73zM457 184q0 -105 -90 -105q-91 0 -91 99q0 55 41 87q-41 29 -41 79q0 42 22 69.5t62 27.5q91 0 91 -93q0 -50 -35 -80q41 -38 41 -84z" glyph-name="Q" horiz-adv-x="737" unicode="Q"/>
<glyph d="M733 0v85q-3 -1 -8 -1q-9 0 -24 5q-22 7 -22 20v68q0 31 -43 56q-26 16 -55 22q41 2 83 50q13 14 26 30.5t27 34.5q-20 14 -21 22q-17 65 -88 101q-54 27 -112 27h-480v-85q10 1 18.5 1.5t16.5 0.5q47 0 54 -19q3 -8 3 -59q0 -48 -1 -51q-8 -36 -40 -43q30 -12 38 -39 q3 -11 3 -58q0 -56 -6 -63q-14 -23 -86 -20v-85h368v85q-45 2 -49 3q-18 7 -18 37v75h84q16 0 36 -15t20 -31v-85q0 -24 28 -46q29 -23 53 -23h195zM467 370q0 -23 -15 -42q-17 -23 -38 -23h-93v126h90q23 0 39.5 -19t16.5 -42z" glyph-name="R" horiz-adv-x="779" unicode="R"/>
<glyph d="M609 176q0 57 -24 89q-23 27 -78 51q-26 5 -44.5 8t-29.5 5q-51 9 -66 42q-23 -22 -56 -22q-76 0 -76 48q0 44 82 44q57 0 83 -17q30 -20 35 -74h145v170h-129q2 -23 -2 -31q-71 47 -165 47q-93 0 -166 -43q-93 -54 -93 -155q0 -107 103 -140q8 -2 21.5 -4t33.5 -3 q36 -2 54 -9q27 -10 47 -42q9 28 64 28q65 0 65 -41q0 -38 -88 -38q-113 0 -122 72h-171v-157h151q-3 9 -3 19q0 9 3 18q82 -50 182 -50q88 0 155 37q89 50 89 148z" glyph-name="S" horiz-adv-x="663" unicode="S"/>
<glyph d="M615 312v208h-599v-209h152v97q0 24 37 24q12 0 14 -2v-120q0 -13 -38 -45q30 -15 36 -40q2 -10 2 -58v-54q-3 -23 -39 -27q-3 -1 -53 -1v-85h377v85q-8 -1 -15 -1h-14q-49 0 -59 24q-3 7 -3 59q0 50 1 53q8 39 40 45q-5 3 -11.5 8.5t-13.5 12t-12 13t-5 10.5v123h24 q8 0 17.5 -11t10.5 -20v-89h151z" glyph-name="T" horiz-adv-x="657" unicode="T"/>
<glyph d="M698 435v85h-282v-85q52 4 63 -18q3 -8 3 -58q0 -46 -1 -49q-7 -31 -37 -43q31 -18 37 -45q1 -3 1 -40q0 -27 -4.5 -45t-15 -28.5t-28.5 -15t-45 -4.5q-53 0 -66 12q-18 16 -18 74q0 42 1 45q7 31 37 47q-30 19 -37 44q-1 5 -1 48q0 22 0.5 34t1.5 16q7 28 46 28 q5 0 10 -0.5t11 -1.5v85h-361v-85q8 1 14.5 1.5t13.5 0.5q40 0 49 -25q2 -8 2 -52q0 -43 -1 -48q-8 -30 -37 -46q8 -2 23 -20t15 -26v-116q0 -73 105 -101q67 -18 165 -18q247 0 247 127v109q0 9 14 26q16 18 24 19q-27 15 -35 44q-3 10 -3 47q0 54 7 62q15 17 82 16z" glyph-name="U" horiz-adv-x="748" unicode="U"/>
<glyph d="M742 435v85h-294v-85q51 0 66 -15q-5 -37 -36 -116l-64 -158l-36 105q3 25 15 37q-23 2 -47 48q-22 43 -22 70q0 29 37 30q7 1 19 0.5t29 -1.5v85h-402v-85q42 2 77 -11q12 -4 32 -54q20 -49 20 -67q0 -24 -15 -42q39 -14 66 -90q25 -71 40.5 -113.5t23.5 -57.5h231 q14 29 39 98q11 32 21 56.5t18 40.5q26 52 59 67q-16 15 -16 30q0 10 20 59q22 52 40 70q14 14 40 14h39z" glyph-name="V" horiz-adv-x="780" unicode="V"/>
<glyph d="M888 435v85h-262v-85q36 4 50 -14q-8 -43 -19 -90t-24 -99l-75 288h-148l-85 -291l-43 173q-4 18 14 27q13 7 34 7q10 0 15 -1v85h-341v-85q55 4 76 -20q15 -16 27 -74q7 -31 7 -46q0 -10 -8 -24.5t-17 -18.5q34 -12 52 -60q5 -14 10.5 -38t12.5 -59q11 -67 24 -95h195 q36 136 66 222l56 -222h193q5 16 11 39.5t11 55.5t11 56t11 40q16 47 45 64q-25 18 -25 39q0 10 14 61q17 57 26 66q15 13 42 15h14q11 0 30 -1z" glyph-name="W" horiz-adv-x="935" unicode="W"/>
<glyph d="M707 435v85h-281v-85h30q23 -3 23 -16q0 -12 -59 -86q-27 31 -46.5 53.5t-30.5 37.5q8 8 10 11q3 1 7 0t8 -1q5 0 9.5 -0.5t9.5 -1.5v88h-380v-85q8 4 19 4q40 0 99 -63q33 -37 55.5 -62.5t35.5 -39.5q-40 -61 -67 -61q-3 0 -9 2q3 -8 3 -16q0 -27 -32 -67 q-41 -50 -82 -50q-10 0 -19 3v-85h288v85h-34q-18 1 -26 18q14 39 59 84q70 -83 78 -93q-11 -9 -35 -9v-85h361v85q-10 -2 -15 -2q-31 0 -67 33q-10 9 -25 26t-35 42q-18 23 -33 39t-28 26q13 18 22 30.5t14 19.5q19 28 52 33q-5 25 2 37q36 67 105 67q10 0 14 -1z" glyph-name="X" horiz-adv-x="751" unicode="X"/>
<glyph d="M755 435v85h-320v-85h29q16 -3 25 -15q1 -19 -78 -118q-68 91 -68 112q0 15 23 20q15 3 24 1v85h-386v-85q15 5 26 5q42 0 89 -47q59 -59 59 -115q0 -5 -0.5 -8.5t-1.5 -7.5q35 -12 40 -15q5 -4 13 -12.5t19 -21.5q22 -25 22 -34v-72q0 -5 -11 -13t-17 -9h-67v-85h405v85 h-67q-31 0 -31 56q0 41 27 77q28 37 68 33q-6 13 -6 28q0 39 44 91q60 69 118 69q13 0 22 -4z" glyph-name="Y" horiz-adv-x="789" unicode="Y"/>
<glyph d="M558 190v-190h-545v88l95 101q59 64 59 98q0 3 -2 9q33 -5 61 19q8 7 20 21t29 34q34 43 52 57q-5 1 -20 1h-39q-55 0 -66 -4q-14 -4 -31 -47q-10 -24 -14 -40h-144v183h545v-116q-10 -15 -79 -87q-48 -50 -48 -80q0 -10 4 -17q-40 3 -83 -45q-34 -38 -52 -58t-21 -23 h101q50 12 46 96h132z" glyph-name="Z" horiz-adv-x="619" unicode="Z"/>
<glyph d="M307 -173v75h-67q-9 1 -21.5 8.5t-12.5 15.5v222q0 14 32 31q-32 17 -32 32v207q0 3 4 7.5t10 8.5t12.5 7.5t10.5 3.5h64v75h-243v-299q0 -10 -9.5 -24.5t-19.5 -15.5q29 -32 29 -37v-317h243z" glyph-name="bracketleft" horiz-adv-x="352" unicode="["/>
<glyph d="M358 -80l-311 670h-77l313 -670h75z" glyph-name="backslash" horiz-adv-x="360" unicode="\"/>
<glyph d="M289 183q-7 1 -18 12.5t-11 18.5v306h-247v-75h61q12 0 27.5 -9.5t15.5 -21.5v-203q0 -3 -3.5 -8t-8.5 -9.5t-10.5 -9t-8.5 -5.5q7 -3 19 -15.5t12 -19.5v-214q0 -28 -33 -28h-71v-75h247v318q0 12 29 38z" glyph-name="bracketright" horiz-adv-x="341" unicode="]"/>
<glyph d="M343 420l-99 158h-132l-99 -158h104l62 88l60 -88h104z" glyph-name="asciicircum" horiz-adv-x="408" unicode="^"/>
<glyph d="M460 -110v38h-460v-38h460z" glyph-name="underscore" horiz-adv-x="414" unicode="_"/>
<glyph d="M318 418l-35 158h-184l109 -158h110z" glyph-name="grave" horiz-adv-x="623" unicode="`"/>
<glyph d="M577 0v82q-38 -2 -49 6q-14 9 -14 44q0 48 32 60q-5 3 -19 18q-13 14 -13 20v77q0 44 -83 70q-57 17 -101 17q-75 0 -150 -35q-5 4 -3 18h-123v-116h126q17 47 85 47q71 0 71 -48q0 -10 -2 -12h-100q-155 0 -228 -123q15 -15 18 -19q46 -121 182 -121q85 0 132 44 q3 -14 2 -29h237zM336 86q-17 -10 -54 -10q-73 0 -73 45q0 44 77 44q53 0 50 -1v-78z" glyph-name="a" horiz-adv-x="623" unicode="a"/>
<glyph d="M616 192q-24 15 -36 51q-8 23 -14.5 38.5t-11.5 22.5q-57 80 -160 80q-72 0 -122 -41v177h-256v-78q20 -1 30.5 -1.5t11.5 -0.5q31 -6 31 -33v-180q0 -3 -3 -9t-7.5 -11.5t-9 -10t-7.5 -4.5q27 -3 27 -54q0 -40 -17 -51q-13 -8 -56 -5v-81h244q-3 10 -3 20q0 6 2 14 q47 -44 130 -44q156 0 205 172q4 13 22 29zM397 146q0 -60 -62 -60q-27 0 -46 14t-19 40q0 33 28 52q-9 2 -17 16t-8 25q0 23 20 39.5t43 16.5q58 0 58 -56q0 -25 -19 -41q17 -17 20 -27q2 -4 2 -19z" glyph-name="b" horiz-adv-x="640" unicode="b"/>
<glyph d="M542 146h-164q0 -32 -18.5 -51t-50.5 -19q-30 0 -52 17.5t-22 46.5q0 21 32 56q-14 3 -23 18t-9 30q0 54 68 54q71 0 75 -79h148v158h-132q0 -21 -2 -25q-57 42 -127 42q-50 0 -103 -17q-58 -19 -88 -54q-8 -9 -31 -63q-21 -52 -40 -68q4 0 9 -4t9.5 -9.5t8 -11.5 t4.5 -10q36 -172 256 -172q83 0 154 30q97 44 98 131z" glyph-name="c" horiz-adv-x="587" unicode="c"/>
<glyph d="M612 1v81q-50 -2 -60 3q-19 9 -19 50q0 46 29 57q-3 1 -8 6t-9.5 11t-8 12t-3.5 9v290h-263v-78q55 1 68 -4q17 -8 17 -48q0 -22 -2 -28q-41 32 -115 32q-108 0 -170 -80q-11 -14 -26 -65q-13 -43 -32 -57q21 -15 24 -35q12 -78 67 -125q56 -47 134 -47q82 0 144 56 q2 -10 2 -17q0 -11 -3 -23h234zM352 141q0 -55 -65 -55t-65 57q0 29 29 49q-20 16 -24 21q-8 11 -8 30q0 59 62 59q30 0 49 -16.5t19 -45.5v-20q-4 -13 -22 -28q25 -16 25 -51z" glyph-name="d" horiz-adv-x="620" unicode="d"/>
<glyph d="M571 120h-202q-11 -50 -71 -50q-35 0 -57 16q-25 19 -25 52q0 13 2 15h350v49q0 92 -108 148q-86 44 -166 44q-203 0 -263 -167q-4 -13 -28 -35q17 -8 24 -35q25 -87 103 -133q70 -39 167 -39q73 0 145 26q95 36 129 109zM377 232h-158v17q0 26 27 44q22 15 51 15 q30 0 55 -16.5t25 -45.5v-14z" glyph-name="e" horiz-adv-x="616" unicode="e"/>
<glyph d="M371 438v107h-75q-106 0 -149 -25q-66 -38 -61 -145h-73v-83h76v-74q0 -9 -29 -26q23 -20 27 -32q2 -8 2 -27q0 -36 -20 -47q-14 -5 -56 -4v-82h348v82h-67q-24 0 -24 47q0 22 2 28q4 16 26 35q-3 2 -8 6t-9.5 8.5t-7.5 9t-3 7.5v69h88v83h-88v27q0 8 5.5 14.5t14 11.5 t18.5 7.5t19 2.5h44z" glyph-name="f" horiz-adv-x="420" unicode="f"/>
<glyph d="M571 192q-33 18 -33 58q0 5 1 14.5t1 14.5q0 82 25 98h-190q1 -21 -3 -31q-41 28 -60 36q-29 12 -68 12q-46 0 -89 -18q-49 -20 -73 -52q-18 -22 -35 -70q-11 -29 -44 -62q21 -15 41 -65q21 -53 24 -57q67 -82 176 -82q24 0 56 8q36 8 50 23l2 -32q-9 -72 -112 -72 q-77 0 -141 29l-26 -107q99 -39 181 -39q129 0 206 64q83 68 83 193v102q0 19 28 35zM346 146q0 -60 -64 -60q-63 0 -63 54q0 44 32 52q-29 18 -29 46q0 24 18 40.5t42 16.5q23 0 43.5 -14.5t20.5 -37.5q0 -27 -32 -51q32 -12 32 -46z" glyph-name="g" horiz-adv-x="627" unicode="g"/>
<glyph d="M669 0v82q-53 1 -62 5q-13 7 -13 43q0 26 1 28q3 12 27 34q-3 1 -8 6t-9.5 10t-7.5 10.5t-3 8.5v73q0 45 -74 74q-54 20 -95 20q-84 0 -150 -48v174h-262v-82q12 1 19 1.5t9 0.5q51 0 51 -29v-190q0 -4 -28 -32q28 -13 28 -57q0 -38 -13 -44q-5 -3 -66 -6v-82h313v82 q-35 1 -43 6q-10 7 -10 39q0 27 10 43q1 4 18 22q-28 12 -28 37q0 23 26 40q22 13 49 13q61 0 61 -47q0 -26 -28 -44q22 -18 27 -32q1 -3 1 -29q0 -27 -2 -33q-8 -17 -42 -15v-82h304z" glyph-name="h" horiz-adv-x="701" unicode="h"/>
<glyph d="M253 419v117h-192v-117h192zM342 0v82q-40 -3 -51 2q-18 7 -18 43q0 26 1 29q4 19 28 36q-29 20 -29 28v154h-253v-78q8 1 14 1h12q28 0 37 -11t9 -40q0 -23 -2 -29q-7 -15 -30 -25q32 -11 32 -60q0 -37 -18 -46q-13 -5 -54 -4v-82h322z" glyph-name="i" horiz-adv-x="360" unicode="i"/>
<glyph d="M253 419v117h-192v-117h192zM305 192q-32 17 -32 28v154h-253v-82q44 3 53 -1q19 -7 19 -43q0 -24 -4 -32q-6 -14 -28 -24q3 -2 8.5 -6.5t11 -9.5t9 -10.5t3.5 -8.5v-186q0 -27 -23.5 -44.5t-51.5 -17.5t-47 9l-32 -91q53 -29 127 -29q63 0 123 28q85 39 85 113v218 q0 6 13 19q15 15 19 16z" glyph-name="j" horiz-adv-x="345" unicode="j"/>
<glyph d="M583 82q-14 -3 -25 -3q-33 0 -39 39q-9 59 -17 73q-25 40 -105 40q22 21 39 37t30 27h83v79h-154q-59 -59 -120 -114v260h-262v-82q12 1 19 1.5t9 0.5q51 0 51 -29v-190q0 -9 -32 -29q24 -17 30 -33q2 -8 2 -27q0 -38 -15 -45q-3 -1 -19 -2t-45 -3v-82h294v82 q-20 -2 -25 0q-9 4 -9 21q0 14 11 28.5t24 14.5q32 0 42 -37q2 -8 10 -71q14 -38 64 -38h159v82z" glyph-name="k" horiz-adv-x="617" unicode="k"/>
<glyph d="M326 0v82q-35 1 -43 6q-10 7 -10 39q0 12 0.5 19.5t1.5 11.5q6 21 30 34q-32 17 -32 28v300h-260v-82h43q36 -5 36 -24v-190q0 -7 -12 -17.5t-20 -14.5q24 -17 30 -33q2 -8 2 -27q0 -38 -15 -45q-3 -1 -19 -2t-45 -3v-82h313z" glyph-name="l" horiz-adv-x="368" unicode="l"/>
<glyph d="M898 0v82q-40 -2 -50 13q-7 8 -7 37q0 21 2 27q4 10 27 33q-3 1 -8 6t-9.5 11t-8 12t-3.5 9v73q0 51 -70 75q-45 16 -92 16q-105 0 -154 -67q-48 67 -135 67q-85 0 -140 -61q-3 10 -3 20t3 21h-234v-78q27 1 43 -0.5t21 -3.5q15 -8 15 -48q0 -22 -2 -28q-5 -12 -30 -24 q26 -17 30 -32q2 -8 2 -28q0 -38 -13 -44q-5 -3 -66 -6v-82h285v82q-29 2 -37 16q-4 7 -4 32q0 23 2 29q4 13 27 33q-26 14 -26 40q0 23 20 36.5t44 13.5q22 0 36.5 -14t14.5 -36q0 -13 -8.5 -25.5t-20.5 -14.5q25 -19 30 -34q2 -6 2 -28q0 -26 -2 -32q-6 -14 -33 -16v-82 h241v82q-38 3 -38 47q0 20 2 28q4 15 27 35q-19 9 -22 19q-1 1 -1 16q0 52 61 52q51 0 51 -46q0 -16 -6 -26q-5 -5 -9 -9.5t-8 -9.5q20 -12 24 -28q2 -6 2 -28q0 -25 -5 -33q-8 -14 -33 -17v-82h266z" glyph-name="m" horiz-adv-x="945" unicode="m"/>
<glyph d="M647 0v82q-54 1 -63 5q-13 7 -13 43q0 22 2 30q5 16 27 32q-3 1 -8 6t-9.5 10t-8 10.5t-3.5 8.5v67q0 51 -71 80q-52 20 -95 20q-88 0 -155 -61q-3 10 -3 20t3 21h-234v-78q27 1 43 -0.5t21 -3.5q15 -8 15 -48q0 -22 -2 -28q-5 -12 -30 -24q26 -17 30 -32q2 -8 2 -28 q0 -38 -13 -44q-5 -3 -66 -6v-82h298v82q-40 2 -45 5q-9 6 -9 40q0 24 2 30q5 19 27 35q-26 17 -26 38q0 12 6 22.5t16 19t22.5 13t24.5 4.5q58 0 58 -51q0 -22 -1 -25q-3 -12 -24 -21q32 -20 32 -62q0 -23 -5 -33q-11 -20 -42 -15v-82h297z" glyph-name="n" horiz-adv-x="693" unicode="n"/>
<glyph d="M606 192q-27 33 -34 48q-66 154 -266 154q-204 0 -269 -170q-5 -11 -27 -32q4 -3 9.5 -9t10 -13t8.5 -14t5 -12q23 -92 118 -132q66 -27 148 -27q210 0 276 184q6 17 21 23zM375 240q0 -30 -26 -45q1 -2 15 -18q7 -7 7 -31q0 -29 -18.5 -48t-47.5 -19q-27 0 -45.5 17 t-18.5 44q0 37 29 52q-32 21 -32 46q0 60 68 60q27 0 48 -16t21 -42z" glyph-name="o" horiz-adv-x="624" unicode="o"/>
<glyph d="M622 192q-19 11 -28 35q-62 167 -199 167q-71 0 -133 -55q-2 10 -2 16q0 8 3 19h-259v-82q56 2 67 -3q18 -8 18 -46q0 -18 -2 -26q-4 -13 -23 -29q3 0 7.5 -4.5t8.5 -10.5t6.5 -12.5t2.5 -10.5v-226q0 -29 -31 -33l-45 -2v-78h339v78q-51 0 -61 5q-24 13 -24 50l3 32 q1 14 1.5 24t-0.5 15q58 -30 119 -30q106 0 170 82q15 20 28 67q12 42 34 58zM406 143q0 -26 -17 -43.5t-43 -17.5q-28 0 -47.5 15t-19.5 43q0 40 29 52q-10 4 -18 15.5t-8 22.5q0 52 64 52q57 0 57 -49q0 -31 -25 -41q28 -25 28 -49z" glyph-name="p" horiz-adv-x="640" unicode="p"/>
<glyph d="M628 292v82h-263q3 -12 3 -21q0 -7 -2 -13q-56 54 -133 54q-104 0 -162 -87q-5 -7 -11.5 -21.5t-14.5 -37.5q-13 -35 -35 -56q26 -26 27 -38q12 -75 71 -119q55 -40 133 -40q76 0 115 24l3 -86q1 -45 -58 -45h-8q-5 0 -16 1v-78h341v78l-47 2q-31 4 -31 32v231q0 3 3 9 t7.5 12t9.5 10.5t8 6.5q-28 10 -28 51q0 37 21 46q12 4 67 3zM349 148q0 -56 -67 -56q-57 0 -57 57q0 26 26 43q-2 2 -6.5 7.5t-9.5 15.5q-10 19 -10 26q0 21 18 36t39 15q27 0 45.5 -15t18.5 -41q0 -28 -25 -44q28 -16 28 -44z" glyph-name="q" horiz-adv-x="681" unicode="q"/>
<glyph d="M441 257v117h-115q-13 0 -26.5 -5t-25 -14t-20.5 -20.5t-14 -23.5q-1 8 -1.5 15.5t-0.5 15.5t0.5 16t1.5 16h-220v-78q21 1 34 -0.5t18 -3.5q17 -8 17 -44q0 -23 -2 -31q-4 -16 -27 -25q23 -17 27 -32q2 -8 2 -28q0 -36 -14 -44q-10 -7 -55 -6v-82h329v82q-58 0 -64 2 q-15 6 -15 41q0 28 1 31q4 19 29 36q-27 13 -27 30q0 16 16 26q13 9 30 9h122z" glyph-name="r" horiz-adv-x="489" unicode="r"/>
<glyph d="M310 250q-26 11 -32 20q-16 -16 -46 -16q-48 0 -48 28q0 32 60 32q70 0 87 -44h129v107h-117q1 -13 -2 -18q-56 35 -125 35q-71 0 -126 -33q-71 -44 -71 -123q0 -64 52 -89q32 -15 103 -24q62 -8 72 -20q17 16 46 16q35 0 35 -23q0 -38 -65 -38q-70 0 -107 54h-120v-114 h117q-2 24 2 32q52 -47 149 -47q75 0 130 35q62 42 62 115q0 67 -64 95q-46 22 -121 20z" glyph-name="s" horiz-adv-x="547" unicode="s"/>
<glyph d="M365 292v83h-105v116h-181v-116h-79v-83h79v-74q0 -3 -3.5 -7.5t-8.5 -8.5t-10.5 -7t-8.5 -3q31 -22 31 -35v-88q0 -31 43 -52q36 -17 61 -17h175v82h-74q-24 0 -24 47q0 22 2 30q6 16 30 33q-9 1 -20.5 12t-11.5 19v69h105z" glyph-name="t" horiz-adv-x="420" unicode="t"/>
<glyph d="M625 1v78q-57 -2 -65 3q-14 8 -14 48q0 24 2 30q5 12 30 22q-32 23 -32 35v157h-222v-82q45 0 52 -7q5 -5 5 -37q0 -27 -3 -34q-4 -13 -26 -32q23 -12 26 -35v-38q-7 -9 -32 -16q-22 -7 -38 -7q-60 0 -60 50v23q5 12 25 25q-32 21 -32 43v147h-231v-82q39 1 49 -10 q8 -8 8 -38q0 -22 -2 -30q-5 -16 -27 -32q8 -4 18.5 -15.5t10.5 -19.5v-66q0 -52 73 -79q51 -17 95 -17q96 0 160 59q1 -5 1.5 -10t0.5 -10q0 -13 -3 -23h231z" glyph-name="u" horiz-adv-x="635" unicode="u"/>
<glyph d="M596 292v82h-231v-82h23q13 0 22 -11q2 -24 -30 -80l-48 -84q-27 51 -27 67q0 14 14 31q-52 18 -52 48t33 30h6q4 0 8 -1v82h-313v-82q4 1 12 1q26 0 43 -15t17 -40q0 -18 -13 -40q35 -9 73 -84q26 -52 40.5 -80.5t17.5 -33.5h195l73 122q44 72 70 79q-10 21 -8 35 q4 22 21 41t38 19q9 0 16 -4z" glyph-name="v" horiz-adv-x="644" unicode="v"/>
<glyph d="M809 292v82h-221v-82q10 1 16 1h8q14 -2 20 -9q-2 -23 -18 -54l-32 -62l-81 206h-119l-92 -199l-36 95q0 24 33 24q3 0 11 -2v82h-298v-82q63 6 63 -52q0 -23 -15 -39q41 -15 60 -67q43 -112 55 -134h160l75 171l66 -171h173q46 99 47 103q8 20 14 33t9 21q18 39 45 39 q4 0 10 -2q-17 17 -18 22q-1 2 -1 17q0 28 19 45t47 14z" glyph-name="w" horiz-adv-x="859" unicode="w"/>
<glyph d="M631 292v82h-243v-78q-3 1 28 1q14 0 16 -12q-14 -20 -26.5 -34.5t-23.5 -25.5q-65 56 -65 64q0 4 3 6h35v79h-351v-82h57q33 0 117 -78q-20 -27 -47 -27q-12 0 -13 1q4 -9 4 -22q0 -25 -25 -50q-36 -36 -78 -36q-5 0 -15 2v-82h237v76q-30 0 -38 11q14 19 28 34t28 28 l35 -29q23 -20 23 -32q-8 -12 -37 -12v-76h351v82q-75 -10 -164 85q30 42 53 42q4 0 10 -2q-4 7 -4 16q0 28 30 51q28 19 58 19h9t8 -1z" glyph-name="x" horiz-adv-x="688" unicode="x"/>
<glyph d="M593 214q-46 -10 -107 -106l-5 -8q-74 -116 -102 -162q-47 -74 -96 -99q-29 -16 -88 -16q-39 0 -93 20v107q2 -2 40 -8q17 -2 29 -3t17 -2q37 -2 71 40l-90 135q-56 82 -99 89q16 15 16 32q0 26 -22 43t-49 17q-8 0 -11 -1v82h326v-81q-1 -1 -25 0q-15 2 -23 -9 q0 -11 5.5 -21.5t15 -19t21 -13.5t23.5 -5q-11 -22 -11 -30q0 -19 31 -49q31 37 31 59q0 11 -8 19q28 4 38 17.5t10 42.5q-11 10 -27 9q-29 -2 -30 0v81h310v-82q-12 5 -24 5q-21 0 -44 -10q-43 -16 -43 -44q0 -15 13 -29z" glyph-name="y" horiz-adv-x="722" unicode="y"/>
<glyph d="M507 0v149h-107q1 -5 1.5 -9t0.5 -8q0 -38 -36 -47q-10 -2 -57 -2h-36t-19 1l60 54q33 30 64 30q4 0 11 -1t11 -1q-2 8 -2 13q0 28 36 58q57 48 58 50v87h-469v-129h107q-1 5 -1 15q0 29 24 37q5 1 47 1q20 0 31.5 -0.5t16.5 -1.5l-34 -30t-34 -31q-35 -26 -78 -23 q6 -8 6 -16q0 -26 -40 -60q-20 -17 -33.5 -29t-21.5 -19v-88h494z" glyph-name="z" horiz-adv-x="566" unicode="z"/>
<glyph d="M336 -173v75h-67q-10 1 -22 9.5t-12 17.5v204q-18 -2 -29 3q3 7 -10 23q-12 15 -21 20q8 1 21 19q9 12 13 25h26v192q0 9 13.5 19t23.5 11h64v75h-244v-295h-31q0 -30 -29 -44q29 -20 29 -47q20 2 31 -3v-304h244z" glyph-name="braceleft" horiz-adv-x="379" unicode="{"/>
<glyph d="M206 -173v693h-142v-693h142z" glyph-name="bar" horiz-adv-x="273" unicode="|"/>
<glyph d="M327 179q-12 5 -21 19t-8 27q-24 0 -31 3v292h-244v-75h61q11 -1 25.5 -9.5t14.5 -18.5v-194q17 2 29 -3q-2 -17 31 -41q-19 -8 -26 -23q-2 -5 -4 -11l-4 -12h-26v-206q0 -9 -11.5 -16.5t-22.5 -8.5h-67v-75h244v307h31q0 33 29 45z" glyph-name="braceright" horiz-adv-x="352" unicode="}"/>
<glyph d="M340 481q-43 46 -59 65q-35 -27 -53 -27q-3 0 -7 2l-118 22q-82 -7 -97 -43l49 -81q26 18 58 29l123 -26q60 -2 104 59z" glyph-name="asciitilde" horiz-adv-x="404" unicode="~"/>
<glyph d="M14 170q21 -18 31 -47q7 -19 14 -59q30 -66 118 -66q83 0 115 63q5 12 16 61q8 35 28 48q-52 23 -68 90q-10 38 -11 104h-164q9 -148 -79 -194zM93 536v-136h164v136h-164z" glyph-name="exclamdown" horiz-adv-x="383" unicode="¡"/>
<glyph d="M353 156v27h-98q2 -17 -13 -29t-32 -12q-53 0 -53 64q0 27 13 46q13 24 39 24q20 0 35 -16t11 -35h88v110h-65q0 -14 -3 -15q-26 15 -39 21v74h-73v-70q-48 -17 -51 -18q-26 -12 -43 -33q-2 -3 -9.5 -15.5t-18.5 -35.5q-17 -32 -27 -32q6 -6 15.5 -19t22.5 -33 q25 -39 42 -55q29 -26 69 -31v-73h75q-1 17 -1 30v23q0 19 1 20q36 -5 75 21q40 25 40 62z" glyph-name="cent" horiz-adv-x="403" unicode="¢"/>
<glyph d="M596 0v196h-161q4 -111 -62 -111h-88l27 91v59h132v86h-120v33q0 19 15 45q17 29 34 29q29 0 29 -33q0 -4 -2 -10h184v10q-36 141 -236 141q-209 0 -227 -215h-73v-86h70v-14q0 -31 -51 -58q8 -4 19.5 -16t11.5 -20q0 -27 -37 -36l-48 -6v-85h583z" glyph-name="sterling" horiz-adv-x="643" unicode="£"/>
<glyph d="M469 395l-53 52q-61 -61 -79 -76q-43 26 -91 26q-50 0 -96 -26l-77 76l-52 -52l76 -83q-11 -11 -18 -42q-7 -25 -7 -46q0 -51 25 -92q-29 -29 -47.5 -49t-28.5 -31l52 -52l77 76q57 -25 95 -25q64 0 92 28l79 -79l53 52q-50 54 -77 83q26 38 26 89q0 48 -26 91zM342 222 q0 -38 -29 -67q-28 -28 -67 -28q-20 0 -37.5 8t-31 21t-21.5 30.5t-8 37.5t8 37.5t21.5 30.5t31 20.5t37.5 7.5t37.5 -8t30.5 -21.5t20.5 -31t7.5 -37.5z" glyph-name="currency" horiz-adv-x="519" unicode="¤"/>
<glyph d="M758 235v87h-174q76 115 150 115q5 0 10.5 -0.5t10.5 -1.5v85h-320v-85h29q16 -3 25 -15q1 -17 -21 -45q-39 -50 -41 -55h-28q-7 10 -14.5 21.5t-16.5 25.5q-25 38 -25 47q0 15 23 20q15 3 24 1v85h-386v-85q12 3 24 3q87 0 140 -116h-164v-87h229q5 -9 23 -31 q14 -19 14 -22v-75q0 -5 -11 -13t-17 -9h-67v-85h405v85h-67q-31 13 -31 24v68q0 8 44 58h232z" glyph-name="yen" horiz-adv-x="794" unicode="¥"/>
<glyph d="M24 607v-315h151v315h-151zM24 157v-313h151v313h-151z" glyph-name="brokenbar" horiz-adv-x="200" unicode="¦"/>
<glyph d="M446 120q0 50 -39 76q39 37 39 91q0 52 -39 75q-14 8 -79 24q-60 15 -73 26q-17 -18 -43 -18q-40 0 -40 27t52 27q54 0 77 -35h113v91h-103q2 -15 -2 -17q-43 32 -110 32q-72 0 -121 -31q-56 -38 -56 -107q0 -32 13 -46q24 -25 26 -31q-39 -41 -39 -93t37 -73 q20 -12 81 -22q63 -11 84 -21q28 15 43 15q30 0 30 -21q0 -36 -57 -36q-67 0 -94 49h-108v-102h102q0 24 2 28q61 -46 133 -46q71 0 118 33q53 38 53 105zM297 256q0 -36 -70 -36q-20 0 -44 8q-29 11 -29 29q0 23 31 23q19 0 39 -17q20 14 43 14q30 0 30 -21z" glyph-name="section" horiz-adv-x="465" unicode="§"/>
<glyph d="M269 419v117h-137v-117h137zM453 418v117h-137v-117h137z" glyph-name="dieresis" horiz-adv-x="623" unicode="¨"/>
<glyph d="M543 219q0 102 -93 165q-80 54 -175 54q-93 0 -173 -53q-92 -62 -92 -166t92 -166q79 -53 173 -53q93 0 172 50q96 61 96 169zM482 219q0 -84 -77 -131q-59 -37 -130 -37q-80 0 -139 43q-66 48 -66 125t66 125q59 43 139 43q73 0 134 -40q73 -48 73 -128zM405 179v7h-98 q-1 -58 -45 -58t-44 49q0 27 18 41q-18 12 -18 36q0 47 42 47t42 -60h89v104h-75q0 -12 -1 -13q-36 21 -74 21q-95 0 -117 -67q-19 -57 -33 -68q16 -8 23 -36q5 -17 9 -28.5t8 -18.5q21 -36 85 -52q15 -4 39 -4q57 0 99 20q51 27 51 80z" glyph-name="copyright" horiz-adv-x="590" unicode="©"/>
<glyph d="M122 389l-106 -195l106 -194h180l-81 194l81 195h-180zM372 389l-106 -195l106 -194h180l-81 194l81 195h-180z" glyph-name="guillemotleft" horiz-adv-x="582" unicode="«"/>
<glyph glyph-name="logicalnot" horiz-adv-x="0" unicode="¬"/>
<glyph d="M543 221q0 101 -93 164q-80 53 -174 53q-93 0 -173 -53q-93 -63 -93 -164q0 -106 93 -169q76 -52 173 -52q94 0 171 50q96 61 96 171zM482 221q0 -85 -73 -131q-60 -39 -133 -39q-79 0 -139 45q-67 49 -67 125q0 80 74 127q61 39 132 39q79 0 138 -43q68 -48 68 -123z M417 118v34q-6 -1 -13 0q-9 3 -9 9v27q0 22 -38 31q16 0 54 45q-8 4 -9 9q-4 22 -31 38q-22 13 -48 13h-190v-34q30 2 34 -5q2 -4 2 -25q0 -33 -16 -37q16 -6 16 -39q0 -19 -2 -25q-6 -9 -34 -8v-33h146v33l-20 2q-7 1 -7 14v30h33q7 0 15 -6t8 -12v-34q0 -9 11.5 -18 t20.5 -9h77zM311 264q0 -26 -21 -26h-36v50h35q22 0 22 -24z" glyph-name="registered" horiz-adv-x="598" unicode="®"/>
<glyph d="M305 389q0 60 -44 104q-43 43 -105 43q-63 0 -106 -43q-44 -44 -44 -104q0 -61 44 -105q43 -43 106 -43q62 0 105 43q44 44 44 105zM219 389q0 -28 -18.5 -45t-46.5 -17q-26 0 -44 18t-18 44q0 27 17.5 44.5t44.5 17.5t46 -17.5t19 -44.5z" glyph-name="degree" horiz-adv-x="374" unicode="°"/>
<glyph d="M272 418h110l109 158h-184z" glyph-name="acute" horiz-adv-x="623" unicode="´"/>
<glyph d="M701 0v85q-69 -3 -86 20q-6 9 -6 63q0 23 0.5 35.5t1.5 16.5q6 40 36 47q-27 1 -35 39q-3 16 -3 53q0 51 3 57q11 20 59 20h14q8 0 16 -1v85h-474q-36 0 -82 -20q-47 -20 -65 -47q-4 -5 -11 -17t-18 -31q-17 -30 -32 -45q23 -17 31 -43q14 -49 27 -65q16 -23 63 -42 q48 -20 75 -20h84v-190h54v190h46v-190h302zM396 280h-43v151h43v-151zM297 286q-34 21 -34 69q0 23 4 31q6 18 30 39v-139z" glyph-name="paragraph" horiz-adv-x="756" unicode="¶"/>
<glyph d="M254 0l-44 -72l26 -29q17 5 30 5q37 0 37 -23q0 -9 -14.5 -14.5t-27.5 -5.5q-28 0 -76 19l-22 -50q54 -23 116 -23q48 0 81 18q40 19 40 58q0 66 -77 66q-8 0 -15 -0.5t-14 -1.5l33 53h-73z" glyph-name="cedilla" horiz-adv-x="587" unicode="¸"/>
<glyph d="M446 389l106 -195l-106 -194h-180l81 194l-81 195h180zM196 389l106 -195l-106 -194h-180l81 194l-81 195h180z" glyph-name="guillemotright" horiz-adv-x="582" unicode="»"/>
<glyph d="M13 185q6 -1 19 -17q12 -14 12 -21q-4 -85 97 -124q66 -25 160 -25q68 0 134 20q101 33 101 108v51h-180q1 -5 1 -15q0 -61 -62 -61q-32 0 -42 15q-9 12 -9 44q0 57 49 73l26 4q29 4 45.5 6.5t20.5 3.5q46 12 46 44v77h-164v-29q0 -24 -39 -31q-14 -2 -28 -3t-28 -3 q-57 -7 -83 -30q-23 -26 -42.5 -48t-33.5 -39zM267 536v-136h164v136h-164z" glyph-name="questiondown" horiz-adv-x="563" unicode="¿"/>
<glyph d="M771 0v85q-46 0 -59 4q-14 5 -38 62q-23 54 -23 74q0 27 14 41q-37 1 -70 63q-25 46 -33 95q16 10 38 12h13q10 0 24 -1v85h-491v-85h58q14 0 31 -12q0 -33 -30 -88q-35 -66 -75 -70q16 -12 16 -30q0 -17 -22 -67q-8 -20 -15.5 -34t-13.5 -22q-22 -29 -51 -28 q-12 1 -21 1h-13v-85h307v85h-46q-36 0 -36 29q0 12 12 35h201q12 -17 12 -32q0 -25 -26 -31q-5 -1 -14.5 -1.5t-25.5 0.5v-85h377zM412 245h-123l62 133zM442 560l-35 158h-184l109 -158h110z" glyph-name="Agrave" horiz-adv-x="811" unicode="À"/>
<glyph d="M771 0v85q-46 0 -59 4q-14 5 -38 62q-23 54 -23 74q0 27 14 41q-37 1 -70 63q-25 46 -33 95q16 10 38 12h13q10 0 24 -1v85h-491v-85h58q14 0 31 -12q0 -33 -30 -88q-35 -66 -75 -70q16 -12 16 -30q0 -17 -22 -67q-8 -20 -15.5 -34t-13.5 -22q-22 -29 -51 -28 q-12 1 -21 1h-13v-85h307v85h-46q-36 0 -36 29q0 12 12 35h201q12 -17 12 -32q0 -25 -26 -31q-5 -1 -14.5 -1.5t-25.5 0.5v-85h377zM412 245h-123l62 133zM370 560h110l109 158h-184z" glyph-name="Aacute" horiz-adv-x="811" unicode="Á"/>
<glyph d="M771 0v85q-46 0 -59 4q-14 5 -38 62q-23 54 -23 74q0 27 14 41q-37 1 -70 63q-25 46 -33 95q16 10 38 12h13q10 0 24 -1v85h-491v-85h58q14 0 31 -12q0 -33 -30 -88q-35 -66 -75 -70q16 -12 16 -30q0 -17 -22 -67q-8 -20 -15.5 -34t-13.5 -22q-22 -29 -51 -28 q-12 1 -21 1h-13v-85h307v85h-46q-36 0 -36 29q0 12 12 35h201q12 -17 12 -32q0 -25 -26 -31q-5 -1 -14.5 -1.5t-25.5 0.5v-85h377zM412 245h-123l62 133zM559 560l-99 158h-132l-99 -158h104l62 88l60 -88h104z" glyph-name="Acircumflex" horiz-adv-x="811" unicode="Â"/>
<glyph d="M771 0v85q-46 0 -59 4q-14 5 -38 62q-23 54 -23 74q0 27 14 41q-37 1 -70 63q-25 46 -33 95q16 10 38 12h13q10 0 24 -1v85h-491v-85h58q14 0 31 -12q0 -33 -30 -88q-35 -66 -75 -70q16 -12 16 -30q0 -17 -22 -67q-8 -20 -15.5 -34t-13.5 -22q-22 -29 -51 -28 q-12 1 -21 1h-13v-85h307v85h-46q-36 0 -36 29q0 12 12 35h201q12 -17 12 -32q0 -25 -26 -31q-5 -1 -14.5 -1.5t-25.5 0.5v-85h377zM412 245h-123l62 133zM562 619q-43 46 -59 65q-35 -27 -53 -27q-3 0 -7 2l-118 22q-82 -7 -97 -43l49 -81q26 18 58 29l123 -26 q60 -2 104 59z" glyph-name="Atilde" horiz-adv-x="811" unicode="Ã"/>
<glyph d="M771 0v85q-46 0 -59 4q-14 5 -38 62q-23 54 -23 74q0 27 14 41q-37 1 -70 63q-25 46 -33 95q16 10 38 12h13q10 0 24 -1v85h-491v-85h58q14 0 31 -12q0 -33 -30 -88q-35 -66 -75 -70q16 -12 16 -30q0 -17 -22 -67q-8 -20 -15.5 -34t-13.5 -22q-22 -29 -51 -28 q-12 1 -21 1h-13v-85h307v85h-46q-36 0 -36 29q0 12 12 35h201q12 -17 12 -32q0 -25 -26 -31q-5 -1 -14.5 -1.5t-25.5 0.5v-85h377zM412 245h-123l62 133zM333 561v117h-137v-117h137zM517 560v117h-137v-117h137z" glyph-name="Adieresis" horiz-adv-x="811" unicode="Ä"/>
<glyph d="M771 0v85q-46 0 -59 4q-14 5 -38 62q-23 54 -23 74q0 27 14 41q-37 1 -70 63q-25 46 -33 95q16 10 38 12h13q10 0 24 -1v85h-491v-85h58q14 0 31 -12q0 -33 -30 -88q-35 -66 -75 -70q16 -12 16 -30q0 -17 -22 -67q-8 -20 -15.5 -34t-13.5 -22q-22 -29 -51 -28 q-12 1 -21 1h-13v-85h307v85h-46q-36 0 -36 29q0 12 12 35h201q12 -17 12 -32q0 -25 -26 -31q-5 -1 -14.5 -1.5t-25.5 0.5v-85h377zM412 245h-123l62 133zM399 666q0 -18 -12.5 -30.5t-30.5 -12.5q-19 0 -31 12.5t-12 30.5q0 19 12 31t31 12q18 0 30.5 -12.5t12.5 -30.5z M462 666q0 43 -32 75q-31 31 -74 31q-45 0 -75.5 -30.5t-30.5 -75.5t30.5 -75.5t75.5 -30.5q43 0 74 31q32 32 32 75z" glyph-name="Aring" horiz-adv-x="811" unicode="Å"/>
<glyph d="M412 245h-123l62 133zM869 315v205h-723v-85h58q14 0 31 -12q0 -33 -30 -88q-35 -66 -75 -70q16 -12 16 -30q0 -17 -22 -67q-8 -20 -15.5 -34t-13.5 -22q-22 -29 -51 -28q-12 1 -21 1h-13v-85h307v85h-46q-36 0 -36 29q0 12 12 35h201q12 -17 12 -32q0 -25 -26 -31 q-3 -1 -8 -1h-32v-85h472v203h-145q1 -12 1 -20v-9q0 -89 -54 -89h-37q-55 0 -63 7v115h117v99h-117v126h68q16 0 43 -11q35 -15 35 -36v-70h155z" glyph-name="AE" horiz-adv-x="927" unicode="Æ"/>
<glyph d="M389 -14q80 4 146 32q119 51 119 167v14h-200q-2 -58 -17 -82q-21 -34 -72 -34q-89 0 -89 98q0 57 35 84q-35 24 -35 71q0 42 21 69t63 27q85 0 85 -121h180v209h-152q0 -21 -2 -25q-73 41 -149 41q-80 0 -141 -30q-71 -35 -94 -104q-8 -25 -13.5 -42t-8.5 -27 q-15 -46 -46 -68q31 -17 47 -73q22 -80 33 -96q43 -72 172 -104q18 -5 45 -6l-35 -58l26 -29q17 5 30 5q37 0 37 -23q0 -9 -14.5 -14.5t-27.5 -5.5q-28 0 -76 19l-22 -50q54 -23 116 -23q48 0 81 18q40 19 40 58q0 66 -77 66q-8 0 -15 -0.5t-14 -1.5z" glyph-name="Ccedilla" horiz-adv-x="692" unicode="Ç"/>
<glyph d="M631 315v205h-615v-85q74 2 91 -18q10 -10 10 -63q0 -39 -2 -49q-7 -27 -37 -40q32 -12 38 -44q1 -3 1 -54v-44q-5 -38 -30 -38h-71v-85h612v203h-145q1 -12 1 -20v-9q0 -89 -54 -89h-100v122h117v99h-117v126h68q16 0 43 -11q35 -15 35 -36v-70h155zM438 560l-35 158 h-184l109 -158h110z" glyph-name="Egrave" horiz-adv-x="690" unicode="È"/>
<glyph d="M631 315v205h-615v-85q74 2 91 -18q10 -10 10 -63q0 -39 -2 -49q-7 -27 -37 -40q32 -12 38 -44q1 -3 1 -54v-44q-5 -38 -30 -38h-71v-85h612v203h-145q1 -12 1 -20v-9q0 -89 -54 -89h-100v122h117v99h-117v126h68q16 0 43 -11q35 -15 35 -36v-70h155zM334 560h110 l109 158h-184z" glyph-name="Eacute" horiz-adv-x="690" unicode="É"/>
<glyph d="M631 315v205h-615v-85q74 2 91 -18q10 -10 10 -63q0 -39 -2 -49q-7 -27 -37 -40q32 -12 38 -44q1 -3 1 -54v-44q-5 -38 -30 -38h-71v-85h612v203h-145q1 -12 1 -20v-9q0 -89 -54 -89h-100v122h117v99h-117v126h68q16 0 43 -11q35 -15 35 -36v-70h155z" glyph-name="Ecircumflex" horiz-adv-x="690" unicode="Ê"/>
<glyph d="M631 315v205h-615v-85q74 2 91 -18q10 -10 10 -63q0 -39 -2 -49q-7 -27 -37 -40q32 -12 38 -44q1 -3 1 -54v-44q-5 -38 -30 -38h-71v-85h612v203h-145q1 -12 1 -20v-9q0 -89 -54 -89h-100v122h117v99h-117v126h68q16 0 43 -11q35 -15 35 -36v-70h155zM326 561v117h-137 v-117h137zM510 560v117h-137v-117h137z" glyph-name="Edieresis" horiz-adv-x="690" unicode="Ë"/>
<glyph d="M418 0v85h-64q-24 0 -29 35q-1 5 -1 47q0 49 1 52q6 33 37 48q-39 19 -39 64v15q1 5 1 8v5q-1 8 -1.5 14.5t-0.5 11.5q0 50 32 50h64v85h-398v-85q8 1 16 1.5t15 0.5q48 0 57 -21q3 -8 3 -56q0 -49 -1 -52q-6 -28 -37 -43q28 -15 36 -42q2 -10 2 -56q0 -53 -3 -60 q-9 -23 -56 -23h-15t-17 1v-85h398zM221 560l-35 158h-184l109 -158h110z" glyph-name="Igrave" horiz-adv-x="473" unicode="Ì"/>
<glyph d="M418 0v85h-64q-24 0 -29 35q-1 5 -1 47q0 49 1 52q6 33 37 48q-39 19 -39 64v15q1 5 1 8v5q-1 8 -1.5 14.5t-0.5 11.5q0 50 32 50h64v85h-398v-85q8 1 16 1.5t15 0.5q48 0 57 -21q3 -8 3 -56q0 -49 -1 -52q-6 -28 -37 -43q28 -15 36 -42q2 -10 2 -56q0 -53 -3 -60 q-9 -23 -56 -23h-15t-17 1v-85h398zM233 560h110l109 158h-184z" glyph-name="Iacute" horiz-adv-x="473" unicode="Í"/>
<glyph d="M418 0v85h-64q-24 0 -29 35q-1 5 -1 47q0 49 1 52q6 33 37 48q-39 19 -39 64v15q1 5 1 8v5q-1 8 -1.5 14.5t-0.5 11.5q0 50 32 50h64v85h-398v-85q8 1 16 1.5t15 0.5q48 0 57 -21q3 -8 3 -56q0 -49 -1 -52q-6 -28 -37 -43q28 -15 36 -42q2 -10 2 -56q0 -53 -3 -60 q-9 -23 -56 -23h-15t-17 1v-85h398zM387 560l-99 158h-132l-99 -158h104l62 88l60 -88h104z" glyph-name="Icircumflex" horiz-adv-x="473" unicode="Î"/>
<glyph d="M418 0v85h-64q-24 0 -29 35q-1 5 -1 47q0 49 1 52q6 33 37 48q-39 19 -39 64v15q1 5 1 8v5q-1 8 -1.5 14.5t-0.5 11.5q0 50 32 50h64v85h-398v-85q8 1 16 1.5t15 0.5q48 0 57 -21q3 -8 3 -56q0 -49 -1 -52q-6 -28 -37 -43q28 -15 36 -42q2 -10 2 -56q0 -53 -3 -60 q-9 -23 -56 -23h-15t-17 1v-85h398zM197 561v117h-137v-117h137zM381 560v117h-137v-117h137z" glyph-name="Idieresis" horiz-adv-x="473" unicode="Ï"/>
<glyph d="M698 435v85h-260v-85q64 6 64 -28v-220l-147 333h-335v-85q60 3 71 -14q4 -5 4 -61q0 -48 -1 -51q-7 -28 -40 -44q32 -9 39 -43q1 -5 1.5 -18.5t0.5 -36.5q0 -49 -2 -57q-9 -26 -50 -26h-11t-12 1v-85h268v85q-20 -2 -39 1q-37 4 -37 29v244l157 -359h243v221q2 10 15 26 q16 18 24 19q-29 15 -36 42q-2 10 -2 49q0 54 6 62q13 17 79 16zM562 619q-43 46 -59 65q-35 -27 -53 -27q-3 0 -7 2l-118 22q-82 -7 -97 -43l49 -81q26 18 58 29l123 -26q60 -2 104 59z" glyph-name="Ntilde" horiz-adv-x="747" unicode="Ñ"/>
<glyph d="M733 265q-10 7 -26 28q-15 19 -18 33q-56 210 -319 210q-208 0 -283 -121q-7 -10 -27 -79q-15 -50 -49 -71q14 -8 22 -14t10 -9q16 -24 19 -47q10 -77 75 -138q67 -61 144 -65q55 -4 78.5 -5.5t15.5 -1.5q135 0 212 50q84 57 115 182q19 34 31 48zM473 179 q0 -100 -94 -100q-46 0 -73 28.5t-27 74.5q0 24 11 49.5t31 33.5q-28 22 -35 40q-4 9 -4 36q0 94 93 94q95 0 95 -91q0 -52 -38 -79q41 -17 41 -86zM423 560l-35 158h-184l109 -158h110z" glyph-name="Ograve" horiz-adv-x="773" unicode="Ò"/>
<glyph d="M733 265q-10 7 -26 28q-15 19 -18 33q-56 210 -319 210q-208 0 -283 -121q-7 -10 -27 -79q-15 -50 -49 -71q14 -8 22 -14t10 -9q16 -24 19 -47q10 -77 75 -138q67 -61 144 -65q55 -4 78.5 -5.5t15.5 -1.5q135 0 212 50q84 57 115 182q19 34 31 48zM473 179 q0 -100 -94 -100q-46 0 -73 28.5t-27 74.5q0 24 11 49.5t31 33.5q-28 22 -35 40q-4 9 -4 36q0 94 93 94q95 0 95 -91q0 -52 -38 -79q41 -17 41 -86zM311 560h110l109 158h-184z" glyph-name="Oacute" horiz-adv-x="773" unicode="Ó"/>
<glyph d="M733 265q-10 7 -26 28q-15 19 -18 33q-56 210 -319 210q-208 0 -283 -121q-7 -10 -27 -79q-15 -50 -49 -71q14 -8 22 -14t10 -9q16 -24 19 -47q10 -77 75 -138q67 -61 144 -65q55 -4 78.5 -5.5t15.5 -1.5q135 0 212 50q84 57 115 182q19 34 31 48zM473 179 q0 -100 -94 -100q-46 0 -73 28.5t-27 74.5q0 24 11 49.5t31 33.5q-28 22 -35 40q-4 9 -4 36q0 94 93 94q95 0 95 -91q0 -52 -38 -79q41 -17 41 -86zM538 560l-99 158h-132l-99 -158h104l62 88l60 -88h104z" glyph-name="Ocircumflex" horiz-adv-x="773" unicode="Ô"/>
<glyph d="M733 265q-10 7 -26 28q-15 19 -18 33q-56 210 -319 210q-208 0 -283 -121q-7 -10 -27 -79q-15 -50 -49 -71q14 -8 22 -14t10 -9q16 -24 19 -47q10 -77 75 -138q67 -61 144 -65q55 -4 78.5 -5.5t15.5 -1.5q135 0 212 50q84 57 115 182q19 34 31 48zM473 179 q0 -100 -94 -100q-46 0 -73 28.5t-27 74.5q0 24 11 49.5t31 33.5q-28 22 -35 40q-4 9 -4 36q0 94 93 94q95 0 95 -91q0 -52 -38 -79q41 -17 41 -86zM562 619q-43 46 -59 65q-35 -27 -53 -27q-3 0 -7 2l-118 22q-82 -7 -97 -43l49 -81q26 18 58 29l123 -26q60 -2 104 59z" glyph-name="Otilde" horiz-adv-x="773" unicode="Õ"/>
<glyph d="M733 265q-10 7 -26 28q-15 19 -18 33q-56 210 -319 210q-208 0 -283 -121q-7 -10 -27 -79q-15 -50 -49 -71q14 -8 22 -14t10 -9q16 -24 19 -47q10 -77 75 -138q67 -61 144 -65q55 -4 78.5 -5.5t15.5 -1.5q135 0 212 50q84 57 115 182q19 34 31 48zM473 179 q0 -100 -94 -100q-46 0 -73 28.5t-27 74.5q0 24 11 49.5t31 33.5q-28 22 -35 40q-4 9 -4 36q0 94 93 94q95 0 95 -91q0 -52 -38 -79q41 -17 41 -86zM351 561v117h-137v-117h137zM535 560v117h-137v-117h137z" glyph-name="Odieresis" horiz-adv-x="773" unicode="Ö"/>
<glyph d="M365 5l88 88l-117 117l116 116l-85 85l-116 -116l-116 116l-88 -87l116 -116l-114 -114l86 -86l114 114z" glyph-name="multiply" horiz-adv-x="486" unicode="×"/>
<glyph d="M733 265q-10 7 -26 28q-15 19 -18 33q-56 210 -319 210q-208 0 -283 -121q-7 -10 -27 -79q-15 -50 -49 -71q14 -8 22 -14t10 -9q16 -24 19 -47q10 -77 75 -138q67 -61 144 -65q55 -4 78.5 -5.5t15.5 -1.5q135 0 212 50q84 57 115 182q19 34 31 48zM473 179 q0 -100 -94 -100q-46 0 -73 28.5t-27 74.5q0 24 11 49.5t31 33.5q-28 22 -35 40q-4 9 -4 36q0 94 93 94q95 0 95 -91q0 -52 -38 -79q41 -17 41 -86z" glyph-name="Oslash" horiz-adv-x="773" unicode="Ø"/>
<glyph d="M698 435v85h-282v-85q52 4 63 -18q3 -8 3 -58q0 -46 -1 -49q-7 -31 -37 -43q31 -18 37 -45q1 -3 1 -40q0 -27 -4.5 -45t-15 -28.5t-28.5 -15t-45 -4.5q-53 0 -66 12q-18 16 -18 74q0 42 1 45q7 31 37 47q-30 19 -37 44q-1 5 -1 48q0 22 0.5 34t1.5 16q7 28 46 28 q5 0 10 -0.5t11 -1.5v85h-361v-85q8 1 14.5 1.5t13.5 0.5q40 0 49 -25q2 -8 2 -52q0 -43 -1 -48q-8 -30 -37 -46q8 -2 23 -20t15 -26v-116q0 -73 105 -101q67 -18 165 -18q247 0 247 127v109q0 9 14 26q16 18 24 19q-27 15 -35 44q-3 10 -3 47q0 54 7 62q15 17 82 16z M442 560l-35 158h-184l109 -158h110z" glyph-name="Ugrave" horiz-adv-x="748" unicode="Ù"/>
<glyph d="M698 435v85h-282v-85q52 4 63 -18q3 -8 3 -58q0 -46 -1 -49q-7 -31 -37 -43q31 -18 37 -45q1 -3 1 -40q0 -27 -4.5 -45t-15 -28.5t-28.5 -15t-45 -4.5q-53 0 -66 12q-18 16 -18 74q0 42 1 45q7 31 37 47q-30 19 -37 44q-1 5 -1 48q0 22 0.5 34t1.5 16q7 28 46 28 q5 0 10 -0.5t11 -1.5v85h-361v-85q8 1 14.5 1.5t13.5 0.5q40 0 49 -25q2 -8 2 -52q0 -43 -1 -48q-8 -30 -37 -46q8 -2 23 -20t15 -26v-116q0 -73 105 -101q67 -18 165 -18q247 0 247 127v109q0 9 14 26q16 18 24 19q-27 15 -35 44q-3 10 -3 47q0 54 7 62q15 17 82 16z M341 560h110l109 158h-184z" glyph-name="Uacute" horiz-adv-x="748" unicode="Ú"/>
<glyph d="M698 435v85h-282v-85q52 4 63 -18q3 -8 3 -58q0 -46 -1 -49q-7 -31 -37 -43q31 -18 37 -45q1 -3 1 -40q0 -27 -4.5 -45t-15 -28.5t-28.5 -15t-45 -4.5q-53 0 -66 12q-18 16 -18 74q0 42 1 45q7 31 37 47q-30 19 -37 44q-1 5 -1 48q0 22 0.5 34t1.5 16q7 28 46 28 q5 0 10 -0.5t11 -1.5v85h-361v-85q8 1 14.5 1.5t13.5 0.5q40 0 49 -25q2 -8 2 -52q0 -43 -1 -48q-8 -30 -37 -46q8 -2 23 -20t15 -26v-116q0 -73 105 -101q67 -18 165 -18q247 0 247 127v109q0 9 14 26q16 18 24 19q-27 15 -35 44q-3 10 -3 47q0 54 7 62q15 17 82 16z M559 560l-99 158h-132l-99 -158h104l62 88l60 -88h104z" glyph-name="Ucircumflex" horiz-adv-x="748" unicode="Û"/>
<glyph d="M698 435v85h-282v-85q52 4 63 -18q3 -8 3 -58q0 -46 -1 -49q-7 -31 -37 -43q31 -18 37 -45q1 -3 1 -40q0 -27 -4.5 -45t-15 -28.5t-28.5 -15t-45 -4.5q-53 0 -66 12q-18 16 -18 74q0 42 1 45q7 31 37 47q-30 19 -37 44q-1 5 -1 48q0 22 0.5 34t1.5 16q7 28 46 28 q5 0 10 -0.5t11 -1.5v85h-361v-85q8 1 14.5 1.5t13.5 0.5q40 0 49 -25q2 -8 2 -52q0 -43 -1 -48q-8 -30 -37 -46q8 -2 23 -20t15 -26v-116q0 -73 105 -101q67 -18 165 -18q247 0 247 127v109q0 9 14 26q16 18 24 19q-27 15 -35 44q-3 10 -3 47q0 54 7 62q15 17 82 16z M374 561v117h-137v-117h137zM558 560v117h-137v-117h137z" glyph-name="Udieresis" horiz-adv-x="748" unicode="Ü"/>
<glyph d="M755 435v85h-320v-85h29q16 -3 25 -15q1 -19 -78 -118q-68 91 -68 112q0 15 23 20q15 3 24 1v85h-386v-85q15 5 26 5q42 0 89 -47q59 -59 59 -115q0 -5 -0.5 -8.5t-1.5 -7.5q35 -12 40 -15q5 -4 13 -12.5t19 -21.5q22 -25 22 -34v-72q0 -5 -11 -13t-17 -9h-67v-85h405v85 h-67q-31 0 -31 56q0 41 27 77q28 37 68 33q-6 13 -6 28q0 39 44 91q60 69 118 69q13 0 22 -4zM354 560h110l109 158h-184z" glyph-name="Yacute" horiz-adv-x="789" unicode="Ý"/>
<glyph d="M613 167q-24 14 -35 43q-14 40 -24 50q-19 21 -53 37q-10 5 -26.5 11t-39.5 14q62 2 120 115q-12 10 -29 43q-16 34 -32 45q-20 14 -90 23q-28 4 -49.5 5.5t-38.5 1.5q-118 0 -162 -23q-71 -38 -65 -158h-76v-82h79v-71q0 -9 -32 -29q32 -20 32 -59q0 -37 -19 -46 q-13 -6 -60 -5v-82h260v157q0 14 29 35q-29 14 -29 28v71h33q20 0 38 -8t32 -21.5t22 -31.5t8 -38q0 -36 -20 -61.5t-56 -25.5q-21 0 -28 3v-107q43 -10 84 -10q122 0 171 67q5 8 11.5 22t13.5 35q13 37 31 52zM362 400q0 -67 -78 -98h-11v99q0 21 12 38.5t32 17.5 q45 0 45 -57z" glyph-name="germandbls" horiz-adv-x="638" unicode="ß"/>
<glyph d="M577 0v82q-38 -2 -49 6q-14 9 -14 44q0 48 32 60q-5 3 -19 18q-13 14 -13 20v77q0 44 -83 70q-57 17 -101 17q-75 0 -150 -35q-5 4 -3 18h-123v-116h126q17 47 85 47q71 0 71 -48q0 -10 -2 -12h-100q-155 0 -228 -123q15 -15 18 -19q46 -121 182 -121q85 0 132 44 q3 -14 2 -29h237zM336 86q-17 -10 -54 -10q-73 0 -73 45q0 44 77 44q53 0 50 -1v-78zM318 418l-35 158h-184l109 -158h110z" glyph-name="agrave" horiz-adv-x="623" unicode="à"/>
<glyph d="M577 0v82q-38 -2 -49 6q-14 9 -14 44q0 48 32 60q-5 3 -19 18q-13 14 -13 20v77q0 44 -83 70q-57 17 -101 17q-75 0 -150 -35q-5 4 -3 18h-123v-116h126q17 47 85 47q71 0 71 -48q0 -10 -2 -12h-100q-155 0 -228 -123q15 -15 18 -19q46 -121 182 -121q85 0 132 44 q3 -14 2 -29h237zM336 86q-17 -10 -54 -10q-73 0 -73 45q0 44 77 44q53 0 50 -1v-78zM272 418h110l109 158h-184z" glyph-name="aacute" horiz-adv-x="623" unicode="á"/>
<glyph d="M577 0v82q-38 -2 -49 6q-14 9 -14 44q0 48 32 60q-5 3 -19 18q-13 14 -13 20v77q0 44 -83 70q-57 17 -101 17q-75 0 -150 -35q-5 4 -3 18h-123v-116h126q17 47 85 47q71 0 71 -48q0 -10 -2 -12h-100q-155 0 -228 -123q15 -15 18 -19q46 -121 182 -121q85 0 132 44 q3 -14 2 -29h237zM336 86q-17 -10 -54 -10q-73 0 -73 45q0 44 77 44q53 0 50 -1v-78zM460 418l-99 158h-132l-99 -158h104l62 88l60 -88h104z" glyph-name="acircumflex" horiz-adv-x="623" unicode="â"/>
<glyph d="M577 0v82q-38 -2 -49 6q-14 9 -14 44q0 48 32 60q-5 3 -19 18q-13 14 -13 20v77q0 44 -83 70q-57 17 -101 17q-75 0 -150 -35q-5 4 -3 18h-123v-116h126q17 47 85 47q71 0 71 -48q0 -10 -2 -12h-100q-155 0 -228 -123q15 -15 18 -19q46 -121 182 -121q85 0 132 44 q3 -14 2 -29h237zM336 86q-17 -10 -54 -10q-73 0 -73 45q0 44 77 44q53 0 50 -1v-78zM461 476q-43 46 -59 65q-35 -27 -53 -27q-3 0 -7 2l-118 22q-82 -7 -97 -43l49 -81q26 18 58 29l123 -26q60 -2 104 59z" glyph-name="atilde" horiz-adv-x="623" unicode="ã"/>
<glyph d="M577 0v82q-38 -2 -49 6q-14 9 -14 44q0 48 32 60q-5 3 -19 18q-13 14 -13 20v77q0 44 -83 70q-57 17 -101 17q-75 0 -150 -35q-5 4 -3 18h-123v-116h126q17 47 85 47q71 0 71 -48q0 -10 -2 -12h-100q-155 0 -228 -123q15 -15 18 -19q46 -121 182 -121q85 0 132 44 q3 -14 2 -29h237zM336 86q-17 -10 -54 -10q-73 0 -73 45q0 44 77 44q53 0 50 -1v-78zM269 419v117h-137v-117h137zM453 418v117h-137v-117h137z" glyph-name="adieresis" horiz-adv-x="623" unicode="ä"/>
<glyph d="M577 0v82q-38 -2 -49 6q-14 9 -14 44q0 48 32 60q-5 3 -19 18q-13 14 -13 20v77q0 44 -83 70q-57 17 -101 17q-75 0 -150 -35q-5 4 -3 18h-123v-116h126q17 47 85 47q71 0 71 -48q0 -10 -2 -12h-100q-155 0 -228 -123q15 -15 18 -19q46 -121 182 -121q85 0 132 44 q3 -14 2 -29h237zM336 86q-17 -10 -54 -10q-73 0 -73 45q0 44 77 44q53 0 50 -1v-78zM342 526q0 -18 -12.5 -30.5t-30.5 -12.5q-19 0 -31 12.5t-12 30.5q0 19 12 31t31 12q18 0 30.5 -12.5t12.5 -30.5zM405 526q0 43 -32 75q-31 31 -74 31q-45 0 -75.5 -30.5t-30.5 -75.5 t30.5 -75.5t75.5 -30.5q43 0 74 31q32 32 32 75z" glyph-name="aring" horiz-adv-x="623" unicode="å"/>
<glyph d="M333 165v-78q-17 -10 -54 -10q-73 0 -73 45q0 44 77 44q46 0 50 -1zM811 120h-202q-11 -50 -71 -50q-16 0 -41 6q-9 4 -9 6q-32 20 -32 56q0 7 2 15h350v49q0 86 -97 143q-83 49 -177 49q-35 0 -54 -6q-4 -2 -16.5 -7t-32.5 -15q-67 29 -104 29q-75 0 -150 -35 q-4 4 -3 13v5h-123v-116h126q17 47 85 47q71 0 71 -48q0 -6 -2 -12q-140 0 -186 -12q-89 -22 -142 -111q8 -8 12.5 -13t5.5 -6q7 -14 12 -24.5t9 -18.5q51 -78 161 -78q85 0 132 44q3 -12 2 -21v-8q47 -1 73 -1h31q4 0 38 -7q19 -4 33 -6t25 -2q85 0 157 31q86 38 117 104z M617 232h-158v17q0 26 27 44q22 15 51 15q30 0 55 -16.5t25 -45.5v-14z" glyph-name="ae" horiz-adv-x="854" unicode="æ"/>
<glyph d="M331 -13q62 6 113 28q97 44 98 131h-164q0 -32 -18.5 -51t-50.5 -19q-30 0 -52 17.5t-22 46.5q0 21 32 56q-14 3 -23 18t-9 30q0 54 68 54q71 0 75 -79h148v158h-132q0 -21 -2 -25q-57 42 -127 42q-50 0 -103 -17q-58 -19 -88 -54q-8 -9 -31 -63q-21 -52 -40 -68 q4 0 9 -4t9.5 -9.5t8 -11.5t4.5 -10q35 -159 224 -171l-35 -58l26 -29q17 5 30 5q37 0 37 -23q0 -9 -14.5 -14.5t-27.5 -5.5q-28 0 -76 19l-22 -50q54 -23 116 -23q48 0 81 18q40 19 40 58q0 66 -77 66q-8 0 -15 -0.5t-14 -1.5z" glyph-name="ccedilla" horiz-adv-x="587" unicode="ç"/>
<glyph d="M571 120h-202q-11 -50 -71 -50q-35 0 -57 16q-25 19 -25 52q0 13 2 15h350v49q0 92 -108 148q-86 44 -166 44q-203 0 -263 -167q-4 -13 -28 -35q17 -8 24 -35q25 -87 103 -133q70 -39 167 -39q73 0 145 26q95 36 129 109zM377 232h-158v17q0 26 27 44q22 15 51 15 q30 0 55 -16.5t25 -45.5v-14zM318 418l-35 158h-184l109 -158h110z" glyph-name="egrave" horiz-adv-x="616" unicode="è"/>
<glyph d="M571 120h-202q-11 -50 -71 -50q-35 0 -57 16q-25 19 -25 52q0 13 2 15h350v49q0 92 -108 148q-86 44 -166 44q-203 0 -263 -167q-4 -13 -28 -35q17 -8 24 -35q25 -87 103 -133q70 -39 167 -39q73 0 145 26q95 36 129 109zM377 232h-158v17q0 26 27 44q22 15 51 15 q30 0 55 -16.5t25 -45.5v-14zM272 418h110l109 158h-184z" glyph-name="eacute" horiz-adv-x="616" unicode="é"/>
<glyph d="M571 120h-202q-11 -50 -71 -50q-35 0 -57 16q-25 19 -25 52q0 13 2 15h350v49q0 92 -108 148q-86 44 -166 44q-203 0 -263 -167q-4 -13 -28 -35q17 -8 24 -35q25 -87 103 -133q70 -39 167 -39q73 0 145 26q95 36 129 109zM377 232h-158v17q0 26 27 44q22 15 51 15 q30 0 55 -16.5t25 -45.5v-14zM460 418l-99 158h-132l-99 -158h104l62 88l60 -88h104z" glyph-name="ecircumflex" horiz-adv-x="616" unicode="ê"/>
<glyph d="M571 120h-202q-11 -50 -71 -50q-35 0 -57 16q-25 19 -25 52q0 13 2 15h350v49q0 92 -108 148q-86 44 -166 44q-203 0 -263 -167q-4 -13 -28 -35q17 -8 24 -35q25 -87 103 -133q70 -39 167 -39q73 0 145 26q95 36 129 109zM377 232h-158v17q0 26 27 44q22 15 51 15 q30 0 55 -16.5t25 -45.5v-14zM269 419v117h-137v-117h137zM453 418v117h-137v-117h137z" glyph-name="edieresis" horiz-adv-x="616" unicode="ë"/>
<glyph d="M342 0v82q-40 -3 -51 2q-18 7 -18 43q0 26 1 29q4 19 28 36q-29 20 -29 28v154h-253v-78q8 1 14 1h12q28 0 37 -11t9 -40q0 -23 -2 -29q-7 -15 -30 -25q32 -11 32 -60q0 -37 -18 -46q-13 -5 -54 -4v-82h322zM196 418l-35 158h-183l108 -158h110z" glyph-name="igrave" horiz-adv-x="360" unicode="ì"/>
<glyph d="M342 0v82q-40 -3 -51 2q-18 7 -18 43q0 26 1 29q4 19 28 36q-29 20 -29 28v154h-253v-78q8 1 14 1h12q28 0 37 -11t9 -40q0 -23 -2 -29q-7 -15 -30 -25q32 -11 32 -60q0 -37 -18 -46q-13 -5 -54 -4v-82h322zM165 418h110l109 158h-184z" glyph-name="iacute" horiz-adv-x="360" unicode="í"/>
<glyph d="M342 0v82q-40 -3 -51 2q-18 7 -18 43q0 26 1 29q4 19 28 36q-29 20 -29 28v154h-253v-78q8 1 14 1h12q28 0 37 -11t9 -40q0 -23 -2 -29q-7 -15 -30 -25q32 -11 32 -60q0 -37 -18 -46q-13 -5 -54 -4v-82h322zM340 418l-99 158h-132l-99 -158h104l62 88l60 -88h104z" glyph-name="icircumflex" horiz-adv-x="360" unicode="î"/>
<glyph d="M342 0v82q-40 -3 -51 2q-18 7 -18 43q0 26 1 29q4 19 28 36q-29 20 -29 28v154h-253v-78q8 1 14 1h12q28 0 37 -11t9 -40q0 -23 -2 -29q-7 -15 -30 -25q32 -11 32 -60q0 -37 -18 -46q-13 -5 -54 -4v-82h322zM141 419v117h-137v-117h137zM325 418v117h-137v-117h137z" glyph-name="idieresis" horiz-adv-x="360" unicode="ï"/>
<glyph d="M647 0v82q-54 1 -63 5q-13 7 -13 43q0 22 2 30q5 16 27 32q-3 1 -8 6t-9.5 10t-8 10.5t-3.5 8.5v67q0 51 -71 80q-52 20 -95 20q-88 0 -155 -61q-3 10 -3 20t3 21h-234v-78q27 1 43 -0.5t21 -3.5q15 -8 15 -48q0 -22 -2 -28q-5 -12 -30 -24q26 -17 30 -32q2 -8 2 -28 q0 -38 -13 -44q-5 -3 -66 -6v-82h298v82q-40 2 -45 5q-9 6 -9 40q0 24 2 30q5 19 27 35q-26 17 -26 38q0 12 6 22.5t16 19t22.5 13t24.5 4.5q58 0 58 -51q0 -22 -1 -25q-3 -12 -24 -21q32 -20 32 -62q0 -23 -5 -33q-11 -20 -42 -15v-82h297zM461 476q-43 46 -59 65 q-35 -27 -53 -27q-3 0 -7 2l-118 22q-82 -7 -97 -43l49 -81q26 18 58 29l123 -26q60 -2 104 59z" glyph-name="ntilde" horiz-adv-x="693" unicode="ñ"/>
<glyph d="M606 192q-27 33 -34 48q-66 154 -266 154q-204 0 -269 -170q-5 -11 -27 -32q4 -3 9.5 -9t10 -13t8.5 -14t5 -12q23 -92 118 -132q66 -27 148 -27q210 0 276 184q6 17 21 23zM375 240q0 -30 -26 -45q1 -2 15 -18q7 -7 7 -31q0 -29 -18.5 -48t-47.5 -19q-27 0 -45.5 17 t-18.5 44q0 37 29 52q-32 21 -32 46q0 60 68 60q27 0 48 -16t21 -42zM318 418l-35 158h-184l109 -158h110z" glyph-name="ograve" horiz-adv-x="624" unicode="ò"/>
<glyph d="M606 192q-27 33 -34 48q-66 154 -266 154q-204 0 -269 -170q-5 -11 -27 -32q4 -3 9.5 -9t10 -13t8.5 -14t5 -12q23 -92 118 -132q66 -27 148 -27q210 0 276 184q6 17 21 23zM375 240q0 -30 -26 -45q1 -2 15 -18q7 -7 7 -31q0 -29 -18.5 -48t-47.5 -19q-27 0 -45.5 17 t-18.5 44q0 37 29 52q-32 21 -32 46q0 60 68 60q27 0 48 -16t21 -42zM272 418h110l109 158h-184z" glyph-name="oacute" horiz-adv-x="624" unicode="ó"/>
<glyph d="M606 192q-27 33 -34 48q-66 154 -266 154q-204 0 -269 -170q-5 -11 -27 -32q4 -3 9.5 -9t10 -13t8.5 -14t5 -12q23 -92 118 -132q66 -27 148 -27q210 0 276 184q6 17 21 23zM375 240q0 -30 -26 -45q1 -2 15 -18q7 -7 7 -31q0 -29 -18.5 -48t-47.5 -19q-27 0 -45.5 17 t-18.5 44q0 37 29 52q-32 21 -32 46q0 60 68 60q27 0 48 -16t21 -42zM460 418l-99 158h-132l-99 -158h104l62 88l60 -88h104z" glyph-name="ocircumflex" horiz-adv-x="624" unicode="ô"/>
<glyph d="M606 192q-27 33 -34 48q-66 154 -266 154q-204 0 -269 -170q-5 -11 -27 -32q4 -3 9.5 -9t10 -13t8.5 -14t5 -12q23 -92 118 -132q66 -27 148 -27q210 0 276 184q6 17 21 23zM375 240q0 -30 -26 -45q1 -2 15 -18q7 -7 7 -31q0 -29 -18.5 -48t-47.5 -19q-27 0 -45.5 17 t-18.5 44q0 37 29 52q-32 21 -32 46q0 60 68 60q27 0 48 -16t21 -42zM474 476q-43 46 -59 65q-35 -27 -53 -27q-3 0 -7 2l-118 22q-82 -7 -97 -43l49 -81q26 18 58 29l123 -26q60 -2 104 59z" glyph-name="otilde" horiz-adv-x="624" unicode="õ"/>
<glyph d="M606 192q-27 33 -34 48q-66 154 -266 154q-204 0 -269 -170q-5 -11 -27 -32q4 -3 9.5 -9t10 -13t8.5 -14t5 -12q23 -92 118 -132q66 -27 148 -27q210 0 276 184q6 17 21 23zM375 240q0 -30 -26 -45q1 -2 15 -18q7 -7 7 -31q0 -29 -18.5 -48t-47.5 -19q-27 0 -45.5 17 t-18.5 44q0 37 29 52q-32 21 -32 46q0 60 68 60q27 0 48 -16t21 -42zM284 419v117h-137v-117h137zM468 418v117h-137v-117h137z" glyph-name="odieresis" horiz-adv-x="624" unicode="ö"/>
<glyph d="M323 315v119h-148v-119h148zM476 146v123h-450v-123h450zM323 -18v119h-148v-119h148z" glyph-name="divide" horiz-adv-x="478" unicode="÷"/>
<glyph d="M606 192q-27 33 -34 48q-66 154 -266 154q-204 0 -269 -170q-5 -11 -27 -32q4 -3 9.5 -9t10 -13t8.5 -14t5 -12q23 -92 118 -132q66 -27 148 -27q210 0 276 184q6 17 21 23zM375 240q0 -30 -26 -45q1 -2 15 -18q7 -7 7 -31q0 -29 -18.5 -48t-47.5 -19q-27 0 -45.5 17 t-18.5 44q0 37 29 52q-32 21 -32 46q0 60 68 60q27 0 48 -16t21 -42z" glyph-name="oslash" horiz-adv-x="624" unicode="ø"/>
<glyph d="M625 1v78q-57 -2 -65 3q-14 8 -14 48q0 24 2 30q5 12 30 22q-32 23 -32 35v157h-222v-82q45 0 52 -7q5 -5 5 -37q0 -27 -3 -34q-4 -13 -26 -32q23 -12 26 -35v-38q-7 -9 -32 -16q-22 -7 -38 -7q-60 0 -60 50v23q5 12 25 25q-32 21 -32 43v147h-231v-82q39 1 49 -10 q8 -8 8 -38q0 -22 -2 -30q-5 -16 -27 -32q8 -4 18.5 -15.5t10.5 -19.5v-66q0 -52 73 -79q51 -17 95 -17q96 0 160 59q1 -5 1.5 -10t0.5 -10q0 -13 -3 -23h231zM318 418l-35 158h-184l109 -158h110z" glyph-name="ugrave" horiz-adv-x="635" unicode="ù"/>
<glyph d="M625 1v78q-57 -2 -65 3q-14 8 -14 48q0 24 2 30q5 12 30 22q-32 23 -32 35v157h-222v-82q45 0 52 -7q5 -5 5 -37q0 -27 -3 -34q-4 -13 -26 -32q23 -12 26 -35v-38q-7 -9 -32 -16q-22 -7 -38 -7q-60 0 -60 50v23q5 12 25 25q-32 21 -32 43v147h-231v-82q39 1 49 -10 q8 -8 8 -38q0 -22 -2 -30q-5 -16 -27 -32q8 -4 18.5 -15.5t10.5 -19.5v-66q0 -52 73 -79q51 -17 95 -17q96 0 160 59q1 -5 1.5 -10t0.5 -10q0 -13 -3 -23h231zM272 418h110l109 158h-184z" glyph-name="uacute" horiz-adv-x="635" unicode="ú"/>
<glyph d="M625 1v78q-57 -2 -65 3q-14 8 -14 48q0 24 2 30q5 12 30 22q-32 23 -32 35v157h-222v-82q45 0 52 -7q5 -5 5 -37q0 -27 -3 -34q-4 -13 -26 -32q23 -12 26 -35v-38q-7 -9 -32 -16q-22 -7 -38 -7q-60 0 -60 50v23q5 12 25 25q-32 21 -32 43v147h-231v-82q39 1 49 -10 q8 -8 8 -38q0 -22 -2 -30q-5 -16 -27 -32q8 -4 18.5 -15.5t10.5 -19.5v-66q0 -52 73 -79q51 -17 95 -17q96 0 160 59q1 -5 1.5 -10t0.5 -10q0 -13 -3 -23h231zM453 418l-99 158h-132l-99 -158h104l62 88l60 -88h104z" glyph-name="ucircumflex" horiz-adv-x="635" unicode="û"/>
<glyph d="M625 1v78q-57 -2 -65 3q-14 8 -14 48q0 24 2 30q5 12 30 22q-32 23 -32 35v157h-222v-82q45 0 52 -7q5 -5 5 -37q0 -27 -3 -34q-4 -13 -26 -32q23 -12 26 -35v-38q-7 -9 -32 -16q-22 -7 -38 -7q-60 0 -60 50v23q5 12 25 25q-32 21 -32 43v147h-231v-82q39 1 49 -10 q8 -8 8 -38q0 -22 -2 -30q-5 -16 -27 -32q8 -4 18.5 -15.5t10.5 -19.5v-66q0 -52 73 -79q51 -17 95 -17q96 0 160 59q1 -5 1.5 -10t0.5 -10q0 -13 -3 -23h231zM260 419v117h-137v-117h137zM444 418v117h-137v-117h137z" glyph-name="udieresis" horiz-adv-x="635" unicode="ü"/>
<glyph d="M593 214q-46 -10 -107 -106q-39 -61 -66 -103.5t-41 -66.5q-47 -74 -96 -99q-29 -16 -88 -16q-39 0 -93 20v107q2 -2 40 -8q17 -2 29 -3t17 -2q37 -2 71 40l-90 135q-56 82 -99 89q16 15 16 32q0 26 -22 43t-49 17q-8 0 -11 -1v82h326v-81q-1 -1 -25 0q-15 2 -23 -9 q0 -11 5.5 -21.5t15 -19t21 -13.5t23.5 -5q-11 -22 -11 -30q0 -19 31 -49q31 37 31 59q0 11 -8 19q28 4 38 17.5t10 42.5q-11 10 -27 9q-29 -2 -30 0v81h310v-82q-12 5 -24 5q-21 0 -44 -10q-43 -16 -43 -44q0 -15 13 -29zM299 418h110l109 158h-184z" glyph-name="yacute" horiz-adv-x="722" unicode="ý"/>
</font>
</defs>
</svg>
