<?xml version="1.0" standalone="no"?>
<!DOCTYPE svg PUBLIC "-//W3C//DTD SVG 1.1//EN" "http://www.w3.org/Graphics/SVG/1.1/DTD/svg11.dtd" >
<svg xmlns="http://www.w3.org/2000/svg" xmlns:xlink="http://www.w3.org/1999/xlink" version="1.1">
<metadata></metadata>
<defs>
<font id="tabarra_shadowblack" horiz-adv-x="1589" >
<font-face units-per-em="2048" ascent="1585" descent="-463" />
<missing-glyph horiz-adv-x="593" />
<glyph horiz-adv-x="0" />
<glyph horiz-adv-x="682" />
<glyph horiz-adv-x="0" />
<glyph horiz-adv-x="0" />
<glyph unicode="&#xd;" horiz-adv-x="593" />
<glyph unicode=" "  horiz-adv-x="593" />
<glyph unicode="&#x09;" horiz-adv-x="593" />
<glyph unicode="&#xa0;" horiz-adv-x="593" />
<glyph unicode="!" horiz-adv-x="716" d="M113 1585h505l-102 -1018h-301zM125 176q0 96 69.5 166t165.5 70q98 0 167 -70t69 -166q0 -98 -69.5 -166.5t-166.5 -68.5t-166 68.5t-69 166.5zM299 -96q30 -6 61 -6q116 0 197.5 80.5t81.5 197.5q0 24 -8 60q78 -71 78 -173q0 -98 -69.5 -166.5t-166.5 -68.5 q-104 0 -174 76zM319 524h236l94 949h82l-102 -1018h-301z" />
<glyph unicode="&#x22;" horiz-adv-x="1097" d="M125 1014v571h340v-571h-340zM238 901v70h270v502h70v-572h-340zM633 1014v571h340v-571h-340zM745 901v70h271v502h69v-572h-340z" />
<glyph unicode="#" horiz-adv-x="1523" d="M82 356v277h240l53 268h-191v277h240l76 407h325l-75 -407h206l76 407h324l-74 -407h188v-277h-239l-51 -268h188v-277h-238l-73 -389h-324l70 389h-207l-72 -389h-325l73 389h-190zM195 244v69h24l-14 -69h-10zM297 788v70h27l-15 -70h-12zM311 -145l13 69h237l72 389 h119l-13 -69h-30l-72 -389h-326zM647 633h207l53 268h-209zM698 676q7 40 19 94.5t18 87.5h121l-14 -70h-31l-23 -112h-90zM801 1221l47 252h90l-47 -252h-90zM846 -145l12 69h236l71 389h246v207h70v-276h-238l-74 -389h-323zM1231 676q7 40 19 94.5t18 87.5h245v207h70 v-277h-240l-22 -112h-90zM1335 1221l45 252h88l-47 -252h-86z" />
<glyph unicode="$" horiz-adv-x="1345" d="M29 236l237 280q9 -8 25.5 -21.5t66.5 -47.5t98.5 -59.5t113.5 -47t120 -21.5q88 0 137.5 33.5t49.5 89.5q0 49 -58.5 84.5t-210.5 69.5q-125 29 -213.5 65.5t-157.5 91t-103 132t-34 180.5q0 196 131 327t361 154v193h217v-195q236 -25 444 -196l-200 -291 q-114 83 -212 125.5t-194 42.5q-76 0 -113.5 -29t-37.5 -82q0 -51 53 -80.5t211 -62.5q138 -30 232.5 -69t162 -97t98.5 -138.5t31 -189.5q0 -208 -124 -334.5t-351 -154.5v-187h-217v185q-166 13 -300 74t-263 176zM252 33q139 -68 297 -86v-49q-156 39 -297 135zM365 627 q96 -41 233 -72q120 -27 172.5 -50t60.5 -50l-110 28q-240 57 -356 144zM539 1114q0 68 108 68q133 0 318 -117q-103 47 -205 47q-114 0 -142 -61q-45 14 -62 28.5t-17 34.5zM705 -242h147v193q226 39 350.5 174.5t124.5 351.5q0 91 -27 180q97 -106 97 -292 q0 -208 -124 -335t-351 -155v-186h-217v69zM852 1581v45h70v-59q-21 5 -70 14zM1071 1008l203 295q38 -25 92 -68l-201 -291q-81 56 -94 64z" />
<glyph unicode="%" horiz-adv-x="1878" d="M98 1167q0 164 117 282t281 118t280.5 -118.5t116.5 -281.5q0 -164 -117 -281.5t-280 -117.5q-164 0 -281 117.5t-117 281.5zM317 0l1076 1585h190l-1075 -1585h-191zM354 748q71 -23 142 -23q118 0 219.5 59t161 161t59.5 222q0 64 -25 144q84 -101 93 -221l-283 -418 q-52 -17 -113 -17q-143 0 -254 93zM375 1167q0 -52 35.5 -86t85.5 -34t86 34t36 84q0 51 -35.5 88t-86.5 37q-49 0 -85 -36.5t-36 -86.5zM418 1167q0 32 23 56t55 24q31 0 53.5 -22t25.5 -54q-64 -20 -83 -81q-32 2 -53 23t-21 54zM430 -113l47 70h53l1029 1516h137 l-453 -666q-131 -44 -215 -161t-84 -257v-24l-323 -478h-191zM987 389q0 162 116.5 279.5t280.5 117.5q162 0 279 -117.5t117 -279.5q0 -167 -116 -285t-280 -118t-280.5 118t-116.5 285zM1243 -35q71 -22 141 -22q183 0 311 130t128 316q0 61 -25 141q94 -115 94 -254 q0 -167 -115.5 -285t-279.5 -118q-141 0 -254 92zM1264 385q0 -51 35 -87t87 -36q48 0 84.5 35.5t36.5 85.5q0 53 -36 90t-87 37t-85.5 -37t-34.5 -88zM1307 385q0 34 22.5 58t54.5 24q29 0 53 -22.5t27 -53.5q-31 -9 -54 -32t-30 -54q-32 1 -52.5 25t-20.5 55z" />
<glyph unicode="&#x26;" horiz-adv-x="1615" d="M72 428q0 287 313 428q-102 149 -102 299q0 89 34 170t95 144t154.5 100t205.5 37q209 0 335 -124.5t126 -312.5q0 -136 -71 -225t-208 -151l174 -172q81 131 125 219l287 -144q-58 -131 -186 -299l211 -204l-318 -230l-160 162q-207 -150 -466 -150q-156 0 -279 51.5 t-196.5 155.5t-73.5 246zM342 -18q124 -50 279 -50q258 0 462 136l78 -80q-191 -125 -428 -125q-241 0 -391 119zM496 442q0 -70 51.5 -110.5t130.5 -40.5q97 0 192 61l-258 262q-58 -32 -87 -78t-29 -94zM539 442q0 66 65 117l82 -84q-68 -53 -78 -129q-69 26 -69 96z M649 1141q0 -89 82 -168q82 24 124 71t42 111q0 66 -37 110t-84 44q-56 0 -91.5 -51.5t-35.5 -116.5zM692 1141q0 48 23.5 86.5t60.5 38.5q24 0 45.5 -22t28.5 -56q-40 -17 -64 -62t-24 -98l-19 -6q-51 57 -51 119zM1028 780q123 65 185.5 157.5t62.5 231.5q0 86 -29 168 q99 -119 99 -280q0 -108 -50 -193l-63 33q-66 -132 -96 -182l-29 -15zM1278 -68l315 228l84 -80l-317 -230zM1411 401q87 122 143 232l99 -49q-55 -122 -160 -262z" />
<glyph unicode="'" horiz-adv-x="591" d="M125 1014v571h340v-571h-340zM238 901v70h270v502h70v-572h-340z" />
<glyph unicode="(" horiz-adv-x="811" d="M51 637q0 509 445 995l305 -182q-20 -32 -73.5 -113.5t-74 -115t-60.5 -102.5t-57 -113t-39 -107.5t-30 -124.5t-8 -127q0 -68 10.5 -134.5t23 -118t43 -118.5t50 -106t66.5 -112t69 -105.5t80 -116.5l-305 -182q-445 486 -445 983zM502 647q0 64 9 124.5t30.5 121.5 t40.5 107t57.5 111.5t62 103.5t72.5 112l43 68l96 -58q-22 -35 -65 -100.5t-64.5 -99t-56 -92t-53 -96.5t-41.5 -93.5t-34.5 -102t-19.5 -103.5t-8 -115q0 -218 99 -424q-83 140 -125.5 266.5t-42.5 269.5zM532 -373l318 189l63 -92l-305 -183q-50 53 -76 86z" />
<glyph unicode=")" horiz-adv-x="811" d="M0 -164q58 84 80 116.5t69 105.5t66.5 112t50 106t43 118.5t23 118t10.5 134.5q0 66 -8 127t-30 124.5t-39 107.5t-57 113t-60.5 102.5t-74 115t-73.5 113.5l305 182q445 -486 445 -995q0 -497 -445 -983zM315 -397q478 524 478 1034q0 306 -162 610q231 -358 231 -723 q0 -498 -444 -983z" />
<glyph unicode="*" horiz-adv-x="1083" d="M29 1120l86 252l303 -104v317h246v-317l303 116l86 -235l-318 -109l217 -266l-209 -160l-198 283l-199 -283l-209 156l207 266zM141 1008l13 34l116 -30l-24 -33zM367 569q25 37 87.5 123.5t90.5 128.5l69 -98l-155 -221zM707 1333v140h69v-113zM791 594l202 156l72 -88 l-209 -160zM807 1018l301 104l-51 142l22 8l86 -236l-293 -100z" />
<glyph unicode="+" horiz-adv-x="1511" d="M156 621v344h401v372h397v-372h402v-344h-402v-371h-397v371h-401zM268 508v70h246v-70h-246zM670 137v70h327v371h402v274h69v-344h-401v-371h-397zM997 1008v217h70v-217h-70z" />
<glyph unicode="," horiz-adv-x="589" d="M0 -174l180 571h379l-223 -571h-336zM113 -287l20 70h234l194 502h111l-223 -572h-336z" />
<glyph unicode="-" horiz-adv-x="757" d="M78 371v344h612v-344h-612zM190 258v70h543v274h70v-344h-613z" />
<glyph unicode="." horiz-adv-x="716" d="M131 209q0 97 68.5 165t165.5 68t164 -68t67 -165t-67.5 -165.5t-163.5 -68.5q-97 0 -165.5 68.5t-68.5 165.5zM305 -61q31 -7 60 -7q115 0 194.5 80.5t79.5 196.5q0 32 -6 59q76 -70 76 -172q0 -97 -67.5 -165t-164.5 -68q-102 0 -172 76z" />
<glyph unicode="/" horiz-adv-x="716" d="M53 -33l443 1618h206l-442 -1618h-207zM166 -145l18 69h109l422 1549h100l-442 -1618h-207z" />
<glyph unicode="0" horiz-adv-x="1353" d="M403 -37q112 -41 259 -41q146 0 259 42.5t187.5 116.5t122.5 183.5t68 235t20 278.5q0 297 -78 488q148 -202 148 -600q0 -813 -615 -813q-226 0 -371 110zM502 778q0 95 7.5 164.5t25.5 124t49.5 82t77.5 27.5q71 0 110 -70q-57 -1 -97 -32t-62.5 -90.5t-32 -136.5 t-9.5 -181q0 -170 25 -273q-94 67 -94 385z" />
<glyph unicode="1" horiz-adv-x="847" d="M199 1085l61 23v-109l-35 -12zM416 -43h360v1495h70v-1565h-430v70z" />
<glyph unicode="2" horiz-adv-x="1284" d="M176 -43h1073v270h70v-340h-1131q-9 39 -12 70zM367 1001q4 10 14 27.5t32 48.5t46.5 56t59 44t69.5 19q41 0 75 -19.5t48 -50.5h-11q-44 0 -85 -19t-68.5 -46t-48.5 -54t-31 -46l-10 -19zM565 383q22 33 71 69t138 93q58 38 89.5 59t86.5 61.5t86.5 70.5t71.5 76t61 88 t36.5 96.5t15.5 111.5q0 80 -27 166q96 -120 96 -279q0 -75 -29 -144.5t-71 -121t-106.5 -105t-118 -88.5t-124 -80.5t-106.5 -72.5h-170z" />
<glyph unicode="3" horiz-adv-x="1269" d="M211 1100v69h334l-68 -69h-266zM215 20q180 -88 369 -88q128 0 236 33.5t183.5 91t128.5 133.5t78 160.5t25 173.5q0 77 -23 154q93 -107 93 -266q0 -104 -38 -200t-111 -175t-192 -126.5t-268 -47.5q-276 0 -481 157zM436 668h49q80 0 145 -22.5t95 -63.5 q-62 16 -127 16h-113zM877 975l294 315v152h70v-248l-248 -266q-67 33 -116 47z" />
<glyph unicode="4" horiz-adv-x="1366" d="M141 260v70h584v-70h-584zM504 735l182 330v-229l-55 -101h-127zM881 -43h321v373h176v250h70v-320h-176v-373h-391v70zM1202 735v715h70v-715h-70z" />
<glyph unicode="5" horiz-adv-x="1363" d="M236 31q203 -99 421 -99q319 0 495.5 159.5t176.5 445.5q0 116 -33 217q103 -128 103 -330q0 -266 -165 -413.5t-464 -147.5q-300 0 -534 168zM252 659v21l156 -62q137 84 272 84q95 0 143 -71q-10 2 -30 2q-150 0 -279 -80zM565 1036l10 138h682v268h70v-338h-680 l-4 -45q-20 -4 -78 -23z" />
<glyph unicode="6" horiz-adv-x="1296" d="M391 -14q134 -54 287 -54q146 0 265 50.5t194 134.5t115 189t40 218q0 98 -32 189q102 -124 102 -301q0 -83 -23 -162t-70.5 -149.5t-114 -123t-160.5 -83.5t-203 -31q-236 0 -400 123zM459 508q0 -65 55 -116.5t145 -51.5q92 0 144.5 53t52.5 129q0 72 -50.5 125 t-148.5 53q-55 0 -95.5 -19.5t-59.5 -43.5t-29.5 -56.5t-12 -46.5t-1.5 -26zM502 508q0 9 1 20t9.5 36t23 44t46.5 34t75 15q105 0 140 -71q-8 2 -27 2q-51 0 -89.5 -16.5t-58 -38t-32 -51t-15.5 -46.5t-4 -33q-33 17 -51 46t-18 59zM567 1022q87 147 269 147 q47 0 108.5 -15.5t99.5 -31.5l37 -16l9 4l100 326q53 -15 92 -35l-108 -350q-12 5 -33.5 13.5t-81 22t-111.5 13.5q-111 0 -196 -56h-13q-98 0 -172 -22z" />
<glyph unicode="7" horiz-adv-x="1132" d="M141 1090v69h463l-33 -69h-430zM227 -113l33 70h326l542 1188v295h70v-398l-528 -1155h-443z" />
<glyph unicode="8" horiz-adv-x="1277" d="M315 -12q139 -56 314 -56q290 0 467.5 143.5t177.5 385.5q0 83 -27 162q96 -110 96 -275q0 -222 -165.5 -353.5t-436.5 -131.5q-264 0 -426 125zM485 518q0 58 43.5 99.5t102.5 41.5q38 0 70 -19t51 -50h-9q-76 0 -132 -54t-56 -130v-5q-70 41 -70 117zM500 1116 q0 49 37 82t90 33q38 0 69.5 -19.5t46.5 -50.5h-4q-70 0 -119.5 -44t-50.5 -109q-31 15 -50 44t-19 64zM1069 848q170 120 170 317q0 71 -20 127q90 -104 90 -239q0 -180 -152 -283q-39 44 -88 78z" />
<glyph unicode="9" horiz-adv-x="1296" d="M240 -68l8 29q128 -31 229 -31q162 0 300.5 55.5t235 149.5t165 218.5t101 263t32.5 282.5q0 190 -58 334q127 -169 127 -447q0 -138 -30.5 -270t-95.5 -251t-156.5 -209t-222.5 -142.5t-285 -52.5q-92 0 -179.5 17.5t-128.5 35.5zM336 541q98 -39 225 -39q105 0 166 20 q-32 -55 -86 -90q-178 9 -305 109zM487 1040q0 56 41 99t109 43q92 0 135 -72q-8 2 -22 2q-89 0 -141 -55t-52 -129v-13q-32 20 -51 53.5t-19 71.5z" />
<glyph unicode=":" horiz-adv-x="716" d="M125 209q0 97 69 166t166 69t165.5 -69t68.5 -166t-68.5 -165.5t-165.5 -68.5t-166 68.5t-69 165.5zM125 891q0 97 69 166t166 69q96 0 165 -69.5t69 -165.5q0 -98 -68.5 -167t-165.5 -69t-166 69t-69 167zM299 -61q35 -7 61 -7q116 0 196.5 81t80.5 196q0 32 -6 59 q76 -70 76 -172q0 -97 -68.5 -165t-165.5 -68q-104 0 -174 76zM299 618q30 -6 61 -6q116 0 196.5 81t80.5 198q0 23 -8 59q78 -71 78 -172q0 -98 -68.5 -166.5t-165.5 -68.5q-105 0 -174 75z" />
<glyph unicode=";" horiz-adv-x="716" d="M0 -174l180 571h379l-223 -571h-336zM113 -287l20 70h234l194 502h111l-223 -572h-336zM158 891q0 96 68.5 165.5t164.5 69.5q97 0 166.5 -70t69.5 -165q0 -98 -69.5 -167t-166.5 -69t-165 69t-68 167zM332 618q27 -6 59 -6q116 0 197.5 81t81.5 198q0 23 -8 59 q77 -70 77 -172q0 -98 -69 -166.5t-166 -68.5q-103 0 -172 75z" />
<glyph unicode="&#x3c;" horiz-adv-x="1462" d="M143 342v401l1135 453v-401l-746 -252l746 -248v-406zM256 229v19l1042 -414l23 14v357l70 -23v-405zM670 545l651 219v291l70 28v-401l-564 -190z" />
<glyph unicode="=" horiz-adv-x="1484" d="M156 301v375h1173v-375h-1173zM156 909v377h1173v-377h-1173zM268 188v70h1104v305h70v-375h-1174zM268 797v69h1104v308h70v-377h-1174z" />
<glyph unicode="&#x3e;" horiz-adv-x="1462" d="M145 -111v406l746 248l-746 252v401l1135 -453v-401zM258 -113l1065 424v346l70 -26v-402l-1135 -452v110zM258 682v29l498 -166l-47 -17z" />
<glyph unicode="?" horiz-adv-x="1177" d="M8 1112q0 93 34 182.5t99 165t174 122t246 46.5q160 0 287 -60.5t201.5 -179t74.5 -276.5q0 -91 -25.5 -167t-65.5 -126t-93 -86.5t-103.5 -55t-101.5 -24.5l-43 -108h-350v360l43 37q326 0 326 182q0 66 -42.5 112t-111.5 46q-41 0 -72.5 -18t-49 -46t-26.5 -55t-10 -51 h-391zM121 999q0 20 4 70h315q1 34 12 70t38.5 68t66.5 32q37 0 64 -19t38 -51q-49 -3 -84 -35t-48.5 -67.5t-14.5 -67.5h-391zM291 164q0 97 68 165t165 68t164.5 -68t67.5 -165t-67.5 -165.5t-164.5 -68.5t-165 68.5t-68 165.5zM455 432v70h266q7 18 43 112 q55 11 107.5 33t107.5 62.5t95.5 94.5t66.5 134t26 174q0 117 -34 207q104 -132 104 -320q0 -91 -25.5 -167t-65.5 -126t-93 -86t-103.5 -54.5t-101.5 -24.5l-43 -109h-215q-40 8 -66 8q-27 0 -67 -8h-2zM465 -106q31 -7 59 -7q115 0 195 80.5t80 196.5q0 32 -6 59 q75 -69 75 -172q0 -97 -67 -165t-164 -68q-102 0 -172 76z" />
<glyph unicode="@" horiz-adv-x="2013" d="M182 526q0 226 106 414.5t296 299t424 110.5q175 0 329.5 -65t262 -174t169.5 -255.5t62 -306.5q0 -500 -375 -500q-55 0 -100.5 7t-75 18.5t-52 25t-34.5 27.5t-19.5 25.5t-9.5 18.5l-2 7q-37 -30 -63 -47.5t-79.5 -36t-113.5 -18.5q-173 0 -288 132t-115 335 q0 121 50.5 224t141.5 164.5t201 61.5q137 0 266 -100v76h279v-682q0 -3 0.5 -7.5t3.5 -16.5t9.5 -21.5t20 -17t31.5 -7.5q85 0 120.5 81.5t35.5 252.5q0 135 -49.5 253t-136 202.5t-208.5 133t-261 48.5q-147 0 -271 -51.5t-208 -140.5t-130.5 -210t-46.5 -258 q0 -147 50 -272t137 -211t208.5 -134t260.5 -48q170 0 288 63l66 -149q-185 -76 -354 -76t-321.5 62.5t-263.5 170.5t-176 262.5t-65 329.5zM395 528q0 171 74 311t215 223t324 83q214 0 376 -121q-124 51 -264 51q-127 0 -239 -39q-118 -5 -215 -73.5t-151 -179.5t-54 -240 q0 -28 4 -82v-45q0 -150 51 -277q-121 158 -121 389zM643 -264q177 -78 365 -78q177 0 409 96l-22 53l14 7l66 -150q-185 -76 -355 -76q-264 0 -477 148zM774 53q59 -20 133 -20q129 0 242 80q38 -35 106 -64q-107 -86 -235 -86q-139 0 -246 90zM836 535q0 -65 47.5 -112.5 t111.5 -47.5q67 0 114.5 47t47.5 113q0 68 -47.5 116.5t-114.5 48.5q-65 0 -112 -49t-47 -116zM879 535q0 51 34 86.5t82 35.5q35 0 63.5 -19t43.5 -50q-62 -3 -107.5 -50t-46.5 -110q-31 14 -50 43t-19 64zM1288 35q85 -29 168 -29q418 0 418 543q0 172 -72 338 q142 -204 142 -451q0 -499 -375 -499q-215 0 -281 98zM1485 287v569h53q7 -16 16 -29v-553q-20 -14 -47 -14q-10 0 -15.5 7t-5.5 13z" />
<glyph unicode="A" d="M16 0l529 1585h487l531 -1585h-467l-60 207h-518l-59 -207h-443zM129 -113l23 70h340q9 33 30 105t29 102h453l20 -70h-393l-60 -207h-442zM618 539h328l-168 567zM676 582q20 68 102 370l51 -174l-55 -196h-98zM1114 1473h31l530 -1586h-467l-20 70h416l12 18z" />
<glyph unicode="B" horiz-adv-x="1478" d="M94 0v1585h631q58 0 101 -1.5t112.5 -10t120 -23.5t108 -44.5t94 -70.5t61 -104t24.5 -143q0 -245 -254 -346q313 -97 313 -391q0 -89 -25.5 -159.5t-64.5 -117t-100 -80.5t-117 -51.5t-130.5 -27.5t-126.5 -12.5t-118 -2.5h-629zM207 -43h516q70 0 125.5 2.5t134.5 13.5 t139 30.5t124 56.5t106 87.5t69 128.5t27 175q0 72 -21 147q91 -105 91 -260q0 -89 -25.5 -159.5t-64.5 -117t-100 -80.5t-117 -51.5t-130.5 -27.5t-126.5 -12.5t-118 -2.5h-629v70zM541 336h166q49 0 87 6.5t76.5 24t60 55.5t21.5 94q0 99 -64.5 136.5t-189.5 37.5h-157 v-354zM541 991h139q43 0 67.5 1.5t56 8.5t48.5 20.5t29 39.5t12 63t-13 62.5t-30.5 38.5t-48.5 20t-54 8.5t-59 1.5h-147v-264zM584 379v268h114q167 0 201 -74q-67 5 -88 5h-158v-199h-69zM584 1034v178h104q35 0 54.5 -1.5t46.5 -7.5t41 -21.5t18 -40.5q-16 2 -47 2h-148 v-109h-69zM1202 846q187 112 187 342q0 70 -19 135q88 -95 88 -248q0 -192 -153 -295q-47 39 -103 66z" />
<glyph unicode="C" horiz-adv-x="1644" d="M45 793q0 233 108 424t300.5 301t429.5 110q211 0 389.5 -82.5t290.5 -232.5l-353 -275q-49 76 -138.5 116t-188.5 40q-165 0 -277 -112.5t-112 -288.5q0 -162 114.5 -281t274.5 -119q94 0 177.5 48.5t135.5 129.5l373 -266q-108 -164 -288 -256t-398 -92 q-243 0 -435 108t-297.5 298.5t-105.5 429.5zM500 -8q173 -78 383 -78q212 0 395 90.5t309 253.5l94 -65q-108 -164 -288 -256.5t-398 -92.5q-282 0 -495 148zM537 793q0 157 99.5 257.5t246.5 100.5q128 0 237 -86q-66 16 -125 16q-165 0 -277 -112.5t-112 -288.5 q0 -63 19 -125q-88 101 -88 238zM1243 1008l356 278q39 -37 76 -86l-352 -274q-25 41 -80 82z" />
<glyph unicode="D" horiz-adv-x="1597" d="M94 0v1585h514q104 0 196.5 -10t186.5 -34t171.5 -62.5t146 -99t115 -138.5t73.5 -185.5t27 -236.5q0 -819 -994 -819h-436zM207 -43h323q1037 0 1037 862q0 199 -62 352q131 -181 131 -464q0 -820 -993 -820h-436v70zM545 340h43q247 0 368 123.5t121 347.5 q0 227 -135.5 329t-396.5 107v-907zM588 383v821q236 -9 344 -112q-104 40 -275 43v-750q-23 -2 -69 -2z" />
<glyph unicode="E" horiz-adv-x="1454" d="M94 0v1585h1274v-340h-827v-266h630v-342h-630v-297h839v-340h-1286zM207 -43h1216v270h70v-340h-1286v70zM584 383v211h630v272h70v-342h-631v-141h-69zM584 1022v180h827v271h70v-340h-828v-111h-69z" />
<glyph unicode="F" horiz-adv-x="1366" d="M94 0v1585h1233v-340h-786v-268h630v-354h-630v-623h-447zM207 -43h377v623h630v284h70v-354h-631v-623h-446v70zM584 1020v182h786v271h70v-340h-787v-113h-69z" />
<glyph unicode="G" horiz-adv-x="1794" d="M63 791q0 232 108 423.5t300.5 302.5t429.5 111q199 0 368 -81t281 -224l-354 -276q-51 70 -129 109.5t-166 39.5q-165 0 -276 -114t-111 -291q0 -162 113.5 -280t273.5 -118q80 0 144 16.5t98 40.5t56.5 48t28.5 40l7 17h-231v340h686v-895h-361v106 q-197 -131 -428 -131q-183 0 -339 59.5t-265.5 166t-171.5 259t-62 331.5zM504 10q186 -78 397 -78q204 0 385 99v-74h94q-174 -94 -366 -94q-296 0 -510 147zM557 791q0 158 99 260t245 102q106 0 207 -82q-46 12 -94 12q-165 0 -276 -114t-111 -291q0 -66 18 -125 q-88 101 -88 238zM1116 489v23h39q-14 -11 -39 -23zM1227 1016l358 280q45 -45 78 -86l-350 -272h-8q-29 39 -78 78zM1442 -43h291v825h69v-895h-360v70z" />
<glyph unicode="H" horiz-adv-x="1560" d="M94 0v1585h451v-581h465v581h448v-1585h-448v662h-465v-662h-451zM207 -43h381v661h379v-69h-310v-662h-450v70zM588 1047v426h69v-426h-69zM1122 -43h379v1516h70v-1586h-449v70z" />
<glyph unicode="I" horiz-adv-x="641" d="M90 0v1585h453v-1585h-453zM203 -43h383v1516h69v-1586h-452v70z" />
<glyph unicode="J" horiz-adv-x="1277" d="M18 264l269 252q4 -7 10.5 -17.5t30 -38.5t49.5 -49.5t66.5 -39t82.5 -17.5q197 0 197 262v971h451v-936q0 -324 -158 -500t-488 -176q-77 0 -146.5 16t-119 41.5t-92 56.5t-70 61.5t-46.5 56t-28 41.5zM270 -14q125 -54 258 -54q178 0 311 49.5t215.5 144t122.5 225.5 t40 300v824h69v-936q0 -324 -157.5 -500t-487.5 -176q-211 0 -371 123z" />
<glyph unicode="K" horiz-adv-x="1615" d="M90 0v1585h451v-555l426 555h514l-467 -551l526 -1034h-502l-338 680l-159 -195v-485h-451zM203 -43h381v512q29 35 108 135l56 -115l-95 -116v-486h-450v70zM584 1159v314h69v-224zM1065 1026l377 447h151l-467 -551l527 -1035h-502l-35 70h463l16 27z" />
<glyph unicode="L" horiz-adv-x="1277" d="M94 0v1585h447v-1235h682v-350h-1129zM207 -43h1059v281h69v-351h-1128v70zM584 393v1080h69v-1080h-69z" />
<glyph unicode="M" horiz-adv-x="1822" d="M94 0v1585h565l242 -639l268 639h545v-1585h-440v936l-252 -588h-250l-233 586v-934h-445zM207 -43h375v758l69 -176v-652h-444v70zM748 1473h24l143 -379l-12 -31zM856 305h193l182 426v-272l-96 -223h-250zM1386 -43h371v1516h70v-1586h-441v70z" />
<glyph unicode="N" d="M94 0v1585h471l479 -790v790h441v-1585h-389l-555 885v-885h-447zM207 -43h377v776l69 -110v-736h-446v70zM1163 -43h365v1516h69v-1586h-389z" />
<glyph unicode="O" horiz-adv-x="1802" d="M63 799q0 174 63.5 327t174 263.5t266.5 174.5t334 64q175 0 328 -62t262 -171t172 -263.5t63 -332.5q0 -182 -62 -336.5t-171.5 -261t-262 -166.5t-329.5 -60q-244 0 -435 104.5t-297 292t-106 427.5zM504 12q184 -80 397 -80q249 0 446.5 107.5t309.5 305.5t112 454 q0 201 -77 375q147 -208 147 -488q0 -243 -106.5 -431t-294 -290t-424.5 -102q-293 0 -510 149zM514 799q0 -163 113.5 -282.5t273.5 -119.5q153 0 264 119.5t111 282.5q0 178 -109 284.5t-266 106.5q-166 0 -276.5 -108t-110.5 -283zM557 799q0 156 98 252t246 96 q133 0 225 -86q-56 16 -112 16q-166 0 -276.5 -108t-110.5 -283q0 -70 20 -129q-90 104 -90 242z" />
<glyph unicode="P" horiz-adv-x="1413" d="M94 0v1585h594q73 0 137 -5t134.5 -20t128 -38.5t111 -63t90 -92t58 -127.5t21.5 -166q0 -111 -32.5 -200t-87 -147.5t-130 -97t-157.5 -55t-173 -16.5h-247v-557h-447zM207 -43h377v557h204q98 0 186 18t169 59.5t139.5 104.5t93.5 159.5t35 217.5q0 112 -33 209 q103 -124 103 -321q0 -111 -32.5 -200.5t-87 -147.5t-130 -97t-157.5 -55.5t-173 -16.5h-248v-557h-446v70zM541 891h127q43 0 76.5 3.5t67.5 14.5t56 29.5t36 50.5t14 76q0 184 -252 184h-125v-358zM584 934v272h82q151 0 192 -76q-44 7 -80 7h-125v-203h-69z" />
<glyph unicode="Q" horiz-adv-x="1853" d="M92 791q0 174 63.5 328.5t173.5 266.5t266 177t333 65q234 0 423.5 -108t296.5 -299.5t107 -429.5q0 -269 -147 -480l133 -133l-242 -241l-141 147q-203 -109 -430 -109q-183 0 -338.5 59.5t-265 166t-171 258.5t-61.5 332zM532 10q186 -78 396 -78q216 0 422 97l75 -80 q-183 -86 -385 -86q-294 0 -508 147zM535 791q0 -106 53 -198t144 -147t196 -55q46 0 82 8l-123 131l243 230l132 -139q47 85 47 170q0 179 -112.5 291t-268.5 112q-165 0 -279 -113.5t-114 -289.5zM578 791q0 157 101.5 258.5t248.5 101.5q128 0 223 -86q-59 16 -111 16 q-165 0 -279 -113.5t-114 -289.5q0 -66 21 -125q-90 99 -90 238zM1532 -92l240 239l81 -81l-241 -242zM1663 317q135 205 135 474q0 197 -78 380q148 -216 148 -493q0 -245 -123 -442z" />
<glyph unicode="R" horiz-adv-x="1488" d="M94 0v1585h824q149 0 262.5 -67t171 -175t57.5 -237q0 -77 -15 -144.5t-39.5 -114.5t-53.5 -86t-58 -62t-53.5 -39.5t-39.5 -22.5l-15 -6l354 -631h-502l-268 541h-178v-541h-447zM207 -43h377v541h106l35 -70h-72v-541h-446v70zM539 874h153q42 0 75 3.5t70.5 15.5 t61.5 33t40.5 58.5t16.5 88.5q0 86 -56 131t-144 45h-217v-375zM582 918v288h174q105 0 143 -71q-5 0 -15.5 1t-15.5 1h-217v-219h-69zM1065 -43h461l18 31l-151 272l209 -373h-502zM1194 610q10 7 27.5 20.5t62 61t78.5 101t62 138.5t28 175q0 99 -35 192 q105 -130 105 -305q0 -77 -15 -144.5t-39.5 -114.5t-54 -86t-58.5 -62t-53.5 -39.5t-39.5 -22.5l-15 -6l113 -201z" />
<glyph unicode="S" horiz-adv-x="1531" d="M82 174l207 336q88 -62 232.5 -105t256.5 -43q123 0 168 19t45 76q0 48 -61 83.5t-217 69.5q-127 28 -212.5 55t-161 67t-118 92t-66.5 125t-24 171q0 230 175.5 369t467.5 139q205 0 360.5 -44.5t288.5 -137.5l-209 -328q-215 148 -450 148q-96 0 -138 -34.5t-42 -84.5 q0 -47 55 -76.5t211 -66.5q162 -39 267.5 -80.5t181.5 -102.5t109.5 -143.5t33.5 -198.5q0 -128 -47.5 -225t-136.5 -158t-211.5 -91t-276.5 -30q-189 0 -371.5 55t-316.5 144zM195 61v2q289 -131 575 -131q164 0 294 32.5t225 98.5t145.5 171t50.5 245q0 100 -25 183 q94 -110 94 -295q0 -253 -178 -378.5t-493 -125.5q-190 0 -372.5 54.5t-315.5 143.5zM395 655q101 -42 310 -88q129 -29 182 -51t59 -49q-58 18 -121 31q-308 65 -430 157zM627 1147q0 32 32 54t105 22q200 0 410 -131q-140 61 -297 61q-131 0 -168 -68q-45 15 -63.5 29 t-18.5 33zM1231 1063l211 328q21 -11 94 -58l-209 -327q-86 52 -96 57z" />
<glyph unicode="T" horiz-adv-x="1490" d="M35 1235v350h1411v-350h-481v-1235h-449v1235h-481zM147 1122v70h326v-70h-326zM629 -43h379v1235h481v281h70v-351h-482v-1235h-448v70z" />
<glyph unicode="U" horiz-adv-x="1533" d="M63 680v905h449v-897q0 -35 1.5 -61t6.5 -60.5t14.5 -59.5t27 -51.5t41.5 -43t60 -27t82 -10.5q65 0 111 20.5t70 49.5t37.5 75.5t16.5 82t3 85.5v897h447v-905q0 -72 -7.5 -138.5t-28 -139t-53 -133t-85.5 -116t-122.5 -94t-168 -61.5t-217.5 -23q-124 0 -225.5 23 t-171.5 60.5t-122.5 94t-83.5 115.5t-50 133t-25.5 139t-6.5 140zM397 -10q147 -58 351 -58q127 0 231.5 24.5t178.5 65t130.5 100t91 123.5t56 141t29.5 147t8 147v793h69v-906q0 -72 -7.5 -138.5t-28 -138.5t-53 -132.5t-85.5 -116t-122.5 -94t-168 -61.5t-217.5 -23 q-297 0 -463 127zM555 688v785h70v-898q0 -72 8 -129q-48 34 -63 95t-15 147z" />
<glyph unicode="V" horiz-adv-x="1615" d="M14 1585h447l342 -969l338 969h446l-586 -1589h-405zM547 1473h26l242 -689l-12 -36zM682 -47h350l559 1520h109l-586 -1590h-405z" />
<glyph unicode="W" horiz-adv-x="2230" d="M16 1585h447l254 -964l258 964h278l269 -964l241 964h441l-471 -1589h-392l-219 823l-217 -823h-391zM537 1473h38l162 -617l-18 -70zM604 -47h334l184 698l49 -184l-153 -584h-391zM1329 1473h37l170 -615l-16 -67zM1436 -47h329l451 1520h100l-471 -1590h-391z" />
<glyph unicode="X" horiz-adv-x="1759" d="M59 0l543 807l-520 778h520l203 -330l72 -139l75 139l207 330h512l-522 -772l545 -813h-525l-204 334l-95 176l-94 -176l-207 -334h-510zM172 -113l47 70h375l219 354l57 107l56 -107l6 -10l-43 -80l-207 -334h-510zM1200 813l447 660h137l-516 -762zM1239 -43h490l14 27 l63 -97h-524z" />
<glyph unicode="Y" horiz-adv-x="1728" d="M16 1585h525l317 -588l332 588h520l-631 -971v-614h-450v610zM651 1473h2l107 -199zM741 -43h381v645l566 871h135l-631 -971v-615h-451v70z" />
<glyph unicode="Z" horiz-adv-x="1593" d="M94 0v350l811 899h-786v336h1372v-307l-827 -942h827v-336h-1397zM207 -43h1327v266h70v-336h-1397v70zM231 1137v69h576l-64 -69h-512zM758 379l776 883v211h70v-308l-693 -786h-153z" />
<glyph unicode="[" horiz-adv-x="845" d="M195 -238v1823h618v-235h-256v-1350h256v-238h-618zM307 -281h549v168h70v-237h-619v69zM600 43v1264h256v166h70v-236h-256v-1194h-70z" />
<glyph unicode="\" horiz-adv-x="716" d="M4 1686h209l496 -1827h-209zM287 1573h39l495 -1827h-209l-18 70h156l10 12z" />
<glyph unicode="]" horiz-adv-x="845" d="M88 0h256v1350h-256v235h621v-1823h-621v238zM201 -281h551v1754h69v-1823h-620v69zM201 1237v70h100v-70h-100z" />
<glyph unicode="^" horiz-adv-x="571" d="M-172 1087l330 498h293l327 -498h-303l-174 248l-174 -248h-299zM-59 975l47 69h162q60 84 151 218l70 -101l-131 -186h-299zM539 1044h276l14 23l62 -92h-303z" />
<glyph unicode="_" horiz-adv-x="1302" d="M0 -88h1303v-332h-1303v332zM113 -463h1233v262h69v-331h-1302v69z" />
<glyph unicode="`" horiz-adv-x="684" d="M-55 1552l366 41l154 -389h-260zM264 1161h242l14 23l-117 295l21 2l154 -389h-261z" />
<glyph unicode="a" horiz-adv-x="1300" d="M37 346q0 176 129 273.5t328 97.5q79 0 154 -21.5t110 -43.5l35 -21v57q0 67 -69.5 107.5t-178.5 40.5q-89 0 -173 -19t-124 -38l-39 -19l-105 256q8 4 24 10.5t67.5 23t107 29t140 23t169.5 10.5q108 0 194.5 -16t161.5 -54.5t125 -99t78.5 -153.5t28.5 -214v-575h-407 l-13 88q-5 -5 -14 -12.5t-40 -27t-65.5 -34.5t-90.5 -27t-115 -12q-182 0 -300 102t-118 269zM270 -37q85 -31 185 -31q174 0 290 78l5 -59v6h120q-124 -94 -303 -94q-176 0 -297 100zM283 741q131 52 262 52q75 0 128 -20.5t70 -57.5q-24 4 -36 4q-98 41 -213 41 q-109 0 -207 -31zM438 346q0 -61 52.5 -93t127.5 -32q72 0 123.5 33t51.5 92q0 65 -50 104t-125 39q-83 0 -131.5 -38.5t-48.5 -104.5zM481 346q0 46 37 73t100 27q45 0 79 -18.5t46 -50.5h-12q-69 0 -115.5 -28.5t-60.5 -76.5q-74 17 -74 74zM895 -43h348v618 q0 148 -37 252q107 -129 107 -364v-576h-408z" />
<glyph unicode="b" horiz-adv-x="1357" d="M88 0v1585h408v-573q58 52 126.5 76t170.5 24q140 0 253 -68t180.5 -198.5t67.5 -302.5q0 -246 -143.5 -407t-359.5 -161q-120 0 -191 32.5t-131 92.5l-14 -100h-367zM201 -43h293l8 57q48 -33 76 -45l-11 -82h-366v70zM481 543q0 -84 60.5 -140.5t144.5 -56.5 q83 0 143 56.5t60 140.5q0 81 -60.5 139.5t-142.5 58.5q-84 0 -144.5 -58.5t-60.5 -139.5zM524 543q0 64 48 109.5t114 45.5q39 0 75 -19.5t58 -51.5q-8 2 -20 2q-83 0 -144 -58.5t-61 -140.5v-14q-70 46 -70 127zM539 1098v375h69v-345q-38 -11 -69 -30zM616 -45 q74 -23 175 -23q234 0 390 173.5t156 437.5q0 144 -49 270q119 -154 119 -383q0 -246 -144 -406.5t-360 -160.5q-181 0 -287 92z" />
<glyph unicode="c" horiz-adv-x="1161" d="M57 537q0 158 72 289t206 208.5t304 77.5q153 0 273.5 -66t201.5 -188l-319 -242q-28 63 -65 97.5t-101 34.5q-81 0 -129.5 -56t-48.5 -145t48.5 -146t129.5 -57q109 0 162 117l323 -225q-76 -120 -199.5 -190.5t-285.5 -70.5q-128 0 -236.5 44.5t-181.5 120.5 t-113.5 178.5t-40.5 218.5zM383 -23q112 -45 246 -45q156 0 283.5 68t220.5 188l94 -65q-76 -120 -200 -190t-286 -70q-209 0 -358 114zM494 547q0 70 37 114t98 44q58 0 104 -70q-77 -3 -123.5 -58.5t-46.5 -142.5q0 -21 2 -31q-71 39 -71 144zM844 598l311 236 q40 -44 72 -89l-320 -241q-26 59 -63 94z" />
<glyph unicode="d" horiz-adv-x="1357" d="M57 543q0 125 42 232.5t112 180.5t163 114.5t195 41.5q149 0 287 -98v571h406v-1585h-357l-14 104q-77 -64 -147 -96.5t-173 -32.5q-217 0 -365.5 160t-148.5 408zM377 -33q93 -35 194 -35q164 0 289 93l12 -68h89q-62 -45 -126 -69.5t-151 -24.5q-171 0 -307 104z M461 543q0 -83 59.5 -141t143.5 -58t145 57.5t61 141.5q0 82 -61.5 141t-144.5 59q-82 0 -142.5 -59.5t-60.5 -140.5zM504 543q0 64 47.5 110.5t112.5 46.5q39 0 75.5 -19t59.5 -52q-6 2 -23 2q-82 0 -142.5 -59.5t-60.5 -141.5v-16q-32 20 -50.5 54.5t-18.5 74.5zM1008 -43 h297v1516h69v-1586h-356z" />
<glyph unicode="e" horiz-adv-x="1253" d="M53 543q0 249 160 409t418 160q257 0 410 -158t153 -426q0 -10 -2.5 -23t-5.5 -21l-2 -7h-740q0 -18 6.5 -40t23 -46.5t40.5 -44.5t61.5 -33.5t83.5 -13.5q41 0 77 11t58.5 26.5t39 31.5t23.5 27l7 11l291 -170q-3 -5 -8.5 -14.5t-26.5 -36.5t-46.5 -52t-70 -55 t-95 -51.5t-123 -36.5t-152.5 -15q-268 0 -424 158.5t-156 409.5zM367 -20q121 -48 266 -48q84 0 161 17.5t132 43t104.5 61.5t79 65.5t55.5 62.5l103 -59q-3 -5 -8.5 -14.5t-26.5 -36.5t-47 -51.5t-70.5 -54.5t-95 -51.5t-123 -36.5t-152.5 -15q-226 0 -378 117zM444 635 h359q0 69 -42 121.5t-128 52.5q-93 0 -141 -52.5t-48 -121.5zM494 678q11 39 46 63.5t93 24.5q86 0 115 -70h-3q-47 0 -92 -18h-159zM498 434h329q-31 -44 -79 -69h-187q-45 25 -63 69zM901 434h313q23 63 23 94q0 150 -47 271q117 -155 117 -383q0 -10 -2.5 -23t-5.5 -21 l-3 -7h-278z" />
<glyph unicode="f" horiz-adv-x="821" d="M57 762v325h107v187q0 91 23.5 152.5t72.5 96t114 48.5t158 14q59 0 120 -5t92 -10l32 -5v-273q-37 15 -82 15q-51 0 -87 -28.5t-36 -102.5v-97h201v-317h-201v-762h-407v762h-107zM276 -43h338v762h201v248h70v-318h-201v-762h-408v70zM614 1122v54q0 88 80 88 q16 0 41.5 -7t43.5 -13l18 -7l22 14v211l70 -10v-272q-37 14 -82 14q-90 0 -115 -72h-78z" />
<glyph unicode="g" horiz-adv-x="1398" d="M57 557q0 158 68 285.5t184.5 198.5t255.5 71q62 0 119.5 -11.5t94.5 -28t65 -33.5t40 -29l13 -11l12 88h391v-925q0 -99 -15.5 -184t-59 -170t-112.5 -144t-184 -96t-265 -37q-220 0 -496 123l127 276q6 -4 16 -10.5t42.5 -23t66 -29t81 -23t91.5 -10.5q160 0 232.5 50 t72.5 155v92q-38 -43 -125 -87t-201 -44q-231 0 -372.5 156.5t-141.5 400.5zM281 -459l8 21q201 -74 375 -74q116 0 212 20.5t165.5 55.5t122.5 86.5t86.5 108.5t54.5 126.5t29.5 136t8.5 140.5v813h70v-926q0 -99 -16 -184t-59 -170t-112.5 -144t-184 -96t-265.5 -37 q-219 0 -495 123zM367 -8q93 -35 204 -35q154 0 283 84v-2q0 -62 -34 -98.5t-107 -51.5q-10 -2 -29 -2q-183 0 -317 105zM459 553q0 -93 63.5 -153t153.5 -60q111 0 170 63.5t59 149.5q0 85 -61 144t-168 59q-91 0 -154 -58.5t-63 -144.5zM502 553q0 67 51 113.5t123 46.5 q107 0 160 -74q-28 4 -48 4q-91 0 -154 -58.5t-63 -144.5q0 -18 2 -26q-71 48 -71 139z" />
<glyph unicode="h" horiz-adv-x="1218" d="M88 0v1585h408v-639q128 166 354 166q303 0 303 -326v-786h-408v604q0 38 -4.5 66t-16.5 55.5t-37.5 42t-63.5 14.5q-127 0 -127 -178v-604h-408zM201 -43h338v647q0 135 84 135q61 0 75 -73q-90 -22 -90 -174v-605h-407v70zM539 1053v420h69v-375q-29 -13 -69 -45z M858 -43h338v829q0 67 -16 142q86 -83 86 -254v-787h-408v70z" />
<glyph unicode="i" horiz-adv-x="589" d="M88 0v1087h408v-1087h-408zM88 1233v352h408v-352h-408zM201 -43h338v1018h69v-1088h-407v70zM201 1130v60h338v283h69v-353h-69v10h-338z" />
<glyph unicode="j" horiz-adv-x="686" d="M39 -55h18q74 0 100.5 33.5t26.5 132.5v976h408v-954q0 -55 -1 -91t-5.5 -89t-13 -88.5t-25 -80t-39.5 -74t-58 -60t-79.5 -48t-105.5 -29t-134 -11.5h-92v383zM152 -479q98 2 174.5 22.5t126.5 50.5t85.5 82t54 97t28.5 115.5t12 119.5t2 125v842h70v-955q0 -55 -1 -91 t-5.5 -89t-13 -88.5t-25 -80t-39.5 -74t-58 -60t-79.5 -48t-105.5 -29t-134 -11.5h-92v72zM184 1233v352h408v-352h-408zM297 1130v60h338v283h70v-353h-70v10h-338z" />
<glyph unicode="k" horiz-adv-x="1329" d="M94 0v1585h408v-784l260 286h450l-436 -477l486 -610h-471l-289 410v-410h-408zM207 -43h338v317l69 -100v-287h-407v70zM545 911v562h69v-486zM831 608l334 367h160l-420 -459zM854 -43h440l9 20l71 -90h-471z" />
<glyph unicode="l" horiz-adv-x="589" d="M88 0v1585h408v-1585h-408zM201 -43h338v1516h69v-1586h-407v70z" />
<glyph unicode="m" horiz-adv-x="1800" d="M88 0v1087h375l12 -139q64 74 141.5 119t190.5 45q58 0 105 -13t81 -39t53.5 -46.5t43.5 -52.5q45 61 128.5 106t202.5 45q74 0 129.5 -20.5t86.5 -52t49.5 -77.5t24 -87t5.5 -91v-784h-407v575q0 29 -0.5 45.5t-3.5 43.5t-9.5 43.5t-17.5 33.5t-29 25t-43 8t-43.5 -7.5 t-29.5 -24t-18 -31.5t-9.5 -41t-3 -40.5t-0.5 -41.5v-588h-400v586q0 31 -0.5 47t-3 42t-9 40t-16.5 29t-27.5 21.5t-41.5 6.5q-108 0 -108 -141v-631h-408zM201 -43h338v674q0 98 65 98q49 0 53 -84q-49 -33 -49 -127v-631h-407v70zM815 -43h330v631q0 25 0.5 38.5 t3.5 36.5t9 35.5t18.5 22.5t29.5 10q51 0 58 -84q-24 -15 -35.5 -49t-13 -57t-1.5 -66v-588h-399v70zM1421 -43h338v827q0 83 -16 148q86 -79 86 -260v-785h-408v70z" />
<glyph unicode="n" horiz-adv-x="1243" d="M88 0v1087h395l13 -147q154 172 362 172q148 0 222.5 -83t74.5 -220v-809h-412v592q0 28 -1.5 48t-8 47.5t-19 44.5t-36 29.5t-57.5 12.5q-40 0 -67 -16t-38.5 -45t-15.5 -55.5t-4 -61.5v-596h-408zM201 -43h338v639q0 135 82 135q60 0 75 -74q-28 -7 -47 -25t-27 -45 t-11 -50t-3 -54v-596h-407v70zM856 -43h342v852q0 52 -14 117q84 -81 84 -230v-809h-412v70z" />
<glyph unicode="o" horiz-adv-x="1306" d="M57 543q0 118 42 222t117.5 181t187.5 121.5t245 44.5q132 0 244 -45.5t188.5 -122.5t119 -181t42.5 -220q0 -155 -70 -283t-207 -206.5t-317 -78.5q-134 0 -246 45t-187.5 122.5t-117 181t-41.5 219.5zM385 -18q126 -50 264 -50q145 0 266.5 49t201.5 132.5t124.5 194.5 t44.5 235t-43 231q113 -151 113 -344q0 -115 -41 -218t-116 -180.5t-188 -123t-249 -45.5q-223 0 -377 119zM451 543q0 -80 58.5 -139.5t139.5 -59.5q84 0 142.5 59t58.5 140t-58 140.5t-143 59.5q-83 0 -140.5 -59t-57.5 -141zM494 543q0 65 45.5 111t109.5 46 q86 0 131 -71q-6 2 -18 2q-83 0 -141 -59.5t-58 -141.5v-18q-69 49 -69 131z" />
<glyph unicode="p" horiz-adv-x="1370" d="M88 -438v1525h379l14 -98q49 49 130.5 86t189.5 37q216 0 360 -159t144 -402q0 -161 -65 -293.5t-180.5 -208.5t-256.5 -76q-100 0 -179.5 32.5t-127.5 72.5v-516h-408zM201 -481h338v479q57 -29 69 -33v-516h-407v70zM492 537q0 -84 62 -138.5t144 -54.5 q84 0 141.5 54.5t57.5 138.5q0 85 -58 145.5t-141 60.5t-144.5 -60t-61.5 -146zM535 537q0 68 48.5 115.5t114.5 47.5q82 0 127 -71q-2 0 -7 1t-7 1q-83 0 -145 -60.5t-62 -146.5v-10q-69 45 -69 123zM608 -35q93 -35 195 -35q153 0 278 82t196 224t71 315q0 138 -48 256 q117 -152 117 -369q0 -161 -65 -293t-180.5 -208t-256.5 -76q-100 0 -180 32.5t-127 71.5z" />
<glyph unicode="q" horiz-adv-x="1357" d="M57 545q0 157 63.5 286t182.5 205t270 76q194 0 312 -113l14 88h365v-1525h-408v522q-124 -111 -287 -111q-218 0 -365 163t-147 409zM381 -35q87 -35 188 -35q141 0 244 66v-117q-58 -18 -131 -18q-169 0 -301 104zM465 543q0 -83 60.5 -141t142.5 -58q84 0 143 58 t59 141t-59.5 142.5t-142.5 59.5q-82 0 -142.5 -59.5t-60.5 -142.5zM508 543q0 66 47.5 112.5t112.5 46.5q83 0 131 -71q-6 2 -19 2q-82 0 -142 -60t-60 -143v-16q-70 50 -70 129zM969 -481h338v1456h69v-1526h-407v70z" />
<glyph unicode="r" horiz-adv-x="948" d="M88 0v1087h381l12 -237q1 0 4 14.5t11.5 37.5t23.5 51t45 56t70 51t105 37.5t145 14.5v-352q-391 0 -391 -336v-424h-406zM201 -43h336v467q0 293 391 293v278q40 4 69 4v-352q-391 0 -391 -336v-424h-405v70z" />
<glyph unicode="s" horiz-adv-x="1103" d="M23 154l153 252q230 -150 367 -150q46 0 79 14.5t33 40.5q0 3 -0.5 8t-10 18.5t-26.5 25t-56 23t-93 17.5q-176 31 -284.5 122t-108.5 237q0 112 64 193.5t169 121t236 39.5q80 0 160 -14t137 -34t102.5 -39.5t68.5 -33.5l23 -14l-139 -260q-78 54 -174.5 82t-165.5 28 q-38 0 -57 -12t-19 -31q0 -32 46.5 -59t140.5 -41q391 -63 391 -346q0 -169 -129.5 -269t-351.5 -100q-172 0 -300.5 41t-254.5 140zM174 10q175 -80 404 -80q242 0 383 111.5t141 300.5q0 54 -12 98q81 -84 81 -211q0 -169 -129.5 -268.5t-351.5 -99.5q-160 0 -280 34 t-236 115zM307 403q79 -29 156 -43q68 -7 105 -18.5t40 -19.5l4 -7q0 -16 -69 -16h-2q-145 32 -234 104zM524 788h33q63 0 159 -30.5t183 -89.5l-55 18q-81 29 -170 45q-150 23 -150 57zM911 662l4 2l138 254q26 -12 50 -24.5t35 -19.5l11 -6l-139 -260q-54 35 -99 54z" />
<glyph unicode="t" horiz-adv-x="847" d="M57 762v325h97v340h409v-340h201v-325h-201v-328q0 -47 17.5 -70.5t66.5 -23.5h117v-340h-262q-71 0 -128.5 14.5t-93 37.5t-61.5 51t-38 56t-18.5 51t-7.5 38l-1 14v500h-97zM342 -23q75 -20 160 -20h305v270h70v-340h-263q-178 0 -272 90zM606 434v285h201v256h70v-326 h-201v-266h-29q-24 0 -32.5 12.5t-8.5 38.5zM606 1130v185h70v-185h-70z" />
<glyph unicode="u" horiz-adv-x="1239" d="M78 309v778h418v-585q0 -61 7.5 -99t32 -63t66.5 -25q70 0 104.5 57.5t34.5 129.5v585h404v-1087h-391l-13 131q-135 -156 -350 -156q-156 0 -234.5 89.5t-78.5 244.5zM274 -53q52 -15 117 -15q176 0 316 105l10 -80h71q-122 -94 -284 -94q-149 0 -230 84zM539 502v473 h69v-617h-6q-37 0 -50 36t-13 108zM860 -43h328v1018h69v-1088h-391z" />
<glyph unicode="v" horiz-adv-x="1312" d="M4 1087h395l254 -712l265 712h393l-445 -1091h-436zM485 975h27l156 -438l-13 -35zM514 -47h381l414 1022h114l-444 -1092h-436z" />
<glyph unicode="w" horiz-adv-x="1837" d="M14 1087h369l205 -688l192 688h285l180 -688l209 688h363l-332 -1091h-424l-143 520l-140 -520h-428zM440 -47h371l107 397l49 -180l-76 -287h-428zM463 975h33l106 -363l-14 -55zM1139 975h39l90 -348l-21 -70zM1153 -47h363l311 1022h102l-332 -1092h-423z" />
<glyph unicode="x" horiz-adv-x="1259" d="M27 0l366 545l-356 542h432l160 -272l164 272h432l-359 -536l365 -551h-438l-168 283l-172 -283h-426zM139 -113l47 70h291l146 242l65 -111l-123 -201h-426zM864 -43h404l12 25l63 -95h-438zM918 553l282 422h137l-352 -526z" />
<glyph unicode="y" horiz-adv-x="1304" d="M12 1087h387l254 -741l265 741h376l-467 -1148q-21 -51 -36 -85t-39 -80t-46 -76.5t-53.5 -63.5t-65 -52.5t-77.5 -32t-94 -12.5q-135 0 -230 41l-86 37l168 281l17 -7q54 -24 88 -24q48 0 88 59zM213 -498l10 19q87 -27 193 -27q54 0 102.5 13.5t85.5 34.5t71.5 56 t59 68t50.5 81.5t42.5 85t38.5 89.5l426 1053h115l-467 -1149q-24 -60 -42.5 -99.5t-46.5 -91t-58 -85t-69.5 -64.5t-88.5 -46t-107 -15q-137 0 -229 40zM483 975h29l156 -459l-13 -39z" />
<glyph unicode="z" horiz-adv-x="1181" d="M76 0v365l575 405h-569v317h1018v-366l-555 -410h555v-311h-1024zM188 -43h955v242h69v-312h-1024v70zM195 657v70h323l-100 -70h-223zM676 354l467 346v275h69v-367l-344 -254h-192z" />
<glyph unicode="{" horiz-adv-x="872" d="M78 494v342q4 0 11 0.5t27 5t38.5 12t41 24.5t38.5 40t27 60t11 83v203q0 93 33 163t80.5 108t113.5 61t118.5 29.5t109.5 6.5l98 -4v-282q-26 4 -57 4q-29 0 -55.5 -5t-53.5 -17t-43 -38t-16 -63v-269q0 -65 -19.5 -118t-47.5 -84t-56 -51.5t-47.5 -30t-19.5 -10.5 q8 -2 20.5 -6.5t45.5 -25.5t58 -50t45.5 -83.5t20.5 -121.5v-291q0 -37 16 -63t43 -38t53.5 -17t55.5 -5l57 4v-282q-43 -4 -98 -4q-57 0 -109.5 6.5t-118.5 29.5t-113.5 61.5t-80.5 108.5t-33 164v223q0 61 -20 106.5t-48.5 66t-57 32.5t-48.5 13zM190 381v4q0 -1 2 -2 t3 -2h-5zM492 -328q98 -34 235 -34l141 8v204h13l57 5v-283q-43 -4 -98 -4q-230 0 -348 104zM500 666q143 102 143 292v269q0 80 125 80l94 -11l6 7v217l70 -4v-283q-26 4 -57 4q-29 0 -55.5 -5t-53.5 -17t-43 -38t-16 -63v-268q0 -169 -129 -260q-34 47 -84 80zM629 485 q84 -80 84 -221v-254q-70 15 -70 76v291q0 54 -14 108z" />
<glyph unicode="|" horiz-adv-x="679" d="M195 -399v1984h290v-1984h-290zM307 -442h221v1915h70v-1985h-291v70z" />
<glyph unicode="}" horiz-adv-x="872" d="M47 -33q26 -4 57 -4q29 0 55.5 5t53.5 17t43 38t16 63v291q0 67 19.5 121.5t48 84t56.5 49t48 26.5l19 6q0 1 -19.5 10.5t-48 30t-56.5 51.5t-47.5 84t-19.5 118v269q0 37 -16 63t-43 38t-53.5 17t-55.5 5l-57 -4v282q43 4 98 4q57 0 109.5 -6.5t118.5 -29.5t113.5 -61 t80.5 -108t33 -163v-203q0 -46 11 -83t28 -60t38 -40t41.5 -24.5t37.5 -12t28 -5.5h11v-342q-8 0 -21 -1.5t-46.5 -13.5t-59.5 -32.5t-47 -66t-21 -106.5v-223q0 -94 -33 -164t-80.5 -108.5t-113.5 -61.5t-118.5 -29.5t-109.5 -6.5l-98 4v282zM160 -362q61 1 118.5 9 t126.5 35t119.5 70t84.5 120t34 179v223q0 49 20 85.5t48.5 53t57.5 26.5t49 11l20 1v286q16 -6 33.5 -9.5t26.5 -3.5l9 -1v-342q-4 0 -11 -0.5t-27 -5t-38.5 -12t-41 -23.5t-38.5 -38.5t-27 -58.5t-11 -81v-223q0 -68 -17 -123.5t-45 -93.5t-67.5 -66.5t-79 -45 t-86.5 -26.5t-84 -13t-76 -3l-98 4v66zM160 1233v67q62 -15 67 -63h-10zM625 1397q88 -91 88 -246v-236q-70 51 -70 146v203q0 74 -18 133z" />
<glyph unicode="~" horiz-adv-x="1435" d="M156 643q92 222 173 310.5t191 88.5q41 0 119.5 -38t151.5 -76.5t100 -38.5q34 0 61 29.5t78 134.5l250 -109q-92 -221 -172.5 -310t-189.5 -89q-42 0 -121 37.5t-152 75.5t-100 38q-34 0 -60.5 -30t-78.5 -134zM268 530l6 13l152 -66q57 112 79 144t40 32q15 0 131 -59 q171 -92 242 -92q113 0 198.5 83.5t177.5 286.5l99 -41q-92 -221 -173 -310t-190 -89q-42 0 -121 38t-152 76t-100 38q-34 0 -60.5 -30t-78.5 -134z" />
<glyph unicode="&#xa1;" horiz-adv-x="716" d="M106 -125l103 1018h301l102 -1018h-506zM119 1284q0 98 69 167t166 69t166.5 -69t69.5 -167q0 -96 -69 -165.5t-167 -69.5q-96 0 -165.5 69.5t-69.5 165.5zM219 -238l6 70h430l4 4l-96 944h60l102 -1018h-506zM295 1012q27 -6 59 -6q116 0 197.5 82.5t81.5 195.5 q0 22 -8 62q77 -70 77 -175q0 -94 -66 -163t-159 -72h-20q-96 3 -162 76z" />
<glyph unicode="&#xa2;" horiz-adv-x="1175" d="M47 887q0 197 123 352.5t322 202.5v143h290v-139q241 -46 363 -240l-320 -241q-26 57 -73 95t-109 38q-87 0 -145 -59t-58 -154q0 -81 58.5 -138t140.5 -57q61 0 110 31t72 84l324 -234q-124 -197 -363 -245v-156h-290v160q-205 44 -325 197t-120 360zM377 319 q35 -15 72 -24v-23q-17 9 -72 47zM483 885q0 75 46.5 122.5t113.5 47.5q54 0 113 -70q-87 0 -145 -59t-58 -154v-14q-70 44 -70 127zM604 57v70h221v164q203 53 338 233l94 -65q-124 -198 -362 -246v-156h-291zM854 1473h41v-15zM868 942l318 242q47 -51 71 -90l-319 -242 q-27 55 -70 90z" />
<glyph unicode="&#xa3;" horiz-adv-x="1284" d="M47 0v373q27 7 39 10.5t37.5 13t38.5 19t31.5 26.5t27.5 36.5t16 49t7 64.5l-11 90h-186v238h146q-2 14 -9 52.5t-10.5 59t-6.5 52t-3 57.5q0 199 133 321.5t360 122.5q112 0 200 -32.5t139.5 -81.5t85 -113.5t45.5 -122.5t12 -115h-373q-4 31 -6.5 46t-9 37t-16 32 t-25.5 17.5t-39 7.5q-46 0 -76.5 -28t-30.5 -91q0 -68 47 -221h262v-238h-233v-74q0 -52 -14.5 -100.5t-35.5 -80.5t-42.5 -56.5t-36.5 -35.5l-14 -11h221q63 0 82.5 20t34.5 80h372q0 -71 -7.5 -126.5t-32.5 -114t-67.5 -96.5t-116 -62.5t-173.5 -24.5h-762zM160 -43h649 q110 0 190.5 27t128.5 77.5t74 111t37 138.5h80q0 -71 -7.5 -126.5t-32.5 -114t-67.5 -96.5t-116 -62.5t-173.5 -24.5h-762v70zM160 569v70h35q1 -15 3 -25t3 -22q0 -17 -2 -23h-39zM598 367q9 15 23 40t37.5 89t23.5 112v31h233v168h70v-238h-233v-73q0 -63 -25 -129h-129z M606 1141q0 40 18 58t46 18q35 0 49 -87q-43 -31 -43 -102q0 -27 6 -65h-41q-35 126 -35 178zM866 1077h316q0 134 -52 260q64 -69 92.5 -157.5t28.5 -171.5h-372q-9 55 -13 69z" />
<glyph unicode="&#xa4;" horiz-adv-x="1228" d="M125 541q0 105 42.5 197t119.5 157l-129 192h157l80 -118q96 47 221 47q121 0 218 -43l79 114h158l-125 -182q77 -68 117.5 -160.5t40.5 -199.5q0 -110 -44 -208t-126 -163l119 -174h-156l-76 106q-101 -38 -205 -38q-105 0 -210 43l-74 -111h-156l119 174 q-81 64 -125.5 161.5t-44.5 205.5zM289 -113l47 70h18l68 102q104 -34 194 -34q94 0 189 30l59 -82q-62 -18 -135 -18q-106 0 -211 43l-74 -111h-155zM451 541q0 -66 47 -113t116 -47t117.5 47t48.5 113q0 68 -47 117t-117 49t-117.5 -49t-47.5 -117zM494 541q0 51 35 87 t87 36q37 0 66 -19.5t43 -50.5q-67 -1 -113.5 -48t-48.5 -112q-31 14 -50 43t-19 64zM961 -43h126l13 25l65 -95h-155zM989 166q75 72 116.5 172t41.5 207q0 103 -33 188q103 -131 103 -301q0 -107 -41.5 -202t-118.5 -160zM1004 911l43 64h137l-109 -158q-35 58 -71 94z " />
<glyph unicode="&#xa5;" horiz-adv-x="1536" d="M39 1552h426l315 -581l293 581h424l-309 -524h145v-168h-243l-101 -166h266v-170h-278v-524h-375v524h-311v170h284l-96 166h-266v168h160zM326 748v69h129l41 -69h-170zM403 412v69h156v-69h-156zM573 1440h5l202 -375l-2 -2zM715 -43h305v524h278v101h70v-170h-278 v-525h-375v70zM1065 737q14 24 27 44t22 36h262v98h70v-167h-244l-6 -11h-131zM1262 1071l217 369h131l-234 -398v29h-114z" />
<glyph unicode="&#xa6;" horiz-adv-x="679" d="M195 -397v891h290v-891h-290zM195 694v891h290v-891h-290zM307 -440h221v821h70v-891h-291v70zM307 582v69h221v822h70v-891h-291z" />
<glyph unicode="&#xa7;" horiz-adv-x="1038" d="M-8 137l153 252q95 -62 193 -95.5t178 -33.5q88 0 88 51q0 2 -1 6t-10.5 14.5t-25 20t-49.5 21.5t-80 20q-37 6 -61 11t-69 18t-76 28t-69.5 42.5t-61.5 61t-39.5 82.5t-16.5 107q0 159 111 256q-111 90 -111 248q0 173 133.5 273t335.5 100q122 0 261 -36.5t237 -98.5 l-146 -262q-84 49 -171.5 77.5t-149.5 28.5q-37 0 -55.5 -11.5t-18.5 -29.5q0 -28 42.5 -47.5t123.5 -40.5q67 -17 115.5 -33.5t104 -46t90.5 -65t58 -90.5t23 -123q0 -158 -117 -258q117 -92 117 -244q0 -117 -67 -203t-178 -128t-251 -42t-283 43.5t-257 126.5zM104 25v2 q217 -103 428 -103q153 0 273.5 47t193 142.5t72.5 226.5q0 54 -12 100q82 -89 82 -213q0 -117 -67 -203t-178 -127.5t-251 -41.5q-141 0 -284 43.5t-257 126.5zM293 860q0 -41 50 -82.5t161 -75.5q95 -28 166 -28q44 0 72 14.5t28 38.5q0 25 -24.5 50.5t-65 46t-70.5 32.5 t-61 23q-70 24 -164 24q-84 0 -92 -43zM336 852q3 8 49 8q91 0 150 -22q157 -58 184 -95q-13 6 -32.5 13.5t-24.5 9.5q-72 25 -164 25q-48 0 -72 -15q-84 40 -90 76zM514 1286h31q56 0 147.5 -33t188.5 -90l2 2l143 258q48 -22 98 -51l-145 -262q-80 44 -135 64 q-70 34 -197 67q-131 36 -133 45zM975 584q96 104 96 258q0 48 -14 102q84 -84 84 -215q0 -143 -99 -242q-25 55 -67 97z" />
<glyph unicode="&#xa8;" horiz-adv-x="731" d="M0 1204v279h279v-279h-279zM113 1092v69h209v209h69v-278h-278zM455 1204v279h276v-279h-276zM567 1092v69h207v209h70v-278h-277z" />
<glyph unicode="&#xa9;" horiz-adv-x="1347" d="M106 545q0 151 74.5 281t206.5 208t289 78q155 0 285 -77.5t204 -207.5t74 -282t-74 -283t-205 -209t-288 -78q-116 0 -221.5 46t-180.5 123t-119.5 182t-44.5 219zM233 543q0 -184 126.5 -313.5t312.5 -129.5t313 130.5t127 316.5q0 183 -126.5 313.5t-309.5 130.5 q-187 0 -315 -131.5t-128 -316.5zM276 543q0 167 115.5 286t284.5 119q140 0 250 -92q-71 23 -138 23h-12q-54 14 -96 14q-147 0 -243.5 -97.5t-96.5 -244.5q0 -45 8 -78q-2 -14 -2 -43q0 -76 25 -149q-95 116 -95 262zM383 551q0 128 84.5 213.5t212.5 85.5q76 0 140 -29 t102 -82l-125 -100q-35 57 -117 57q-58 0 -97.5 -40.5t-39.5 -104.5q0 -56 40.5 -97.5t96.5 -41.5q75 0 113 63l131 -98q-37 -58 -101 -90.5t-143 -32.5q-131 0 -214 84t-83 213zM446 -25q111 -43 226 -43q169 0 310 84t220.5 225t79.5 304q0 122 -47 231q117 -152 117 -344 q0 -152 -74 -282.5t-205.5 -208.5t-288.5 -78q-188 0 -338 112zM580 223q46 -12 100 -12q152 0 262 123l45 -33q-99 -133 -258 -154q-88 15 -149 76zM586 551q0 45 27.5 73.5t66.5 28.5q54 0 100 -69q-50 -5 -84.5 -39.5t-40.5 -87.5q-30 9 -49.5 35.5t-19.5 58.5zM795 584 l149 118q49 -24 90 -75l-125 -101q-35 54 -114 58z" />
<glyph unicode="&#xaa;" horiz-adv-x="847" d="M78 1118q0 56 26 100t68 68.5t89 36.5t95 12q43 0 81.5 -7.5t55.5 -15.5l17 -7q-23 88 -139 88q-44 0 -91 -11.5t-72 -22.5l-24 -11l-73 180q12 7 35.5 17t99.5 27t157 17q185 0 279 -88q78 -78 78 -233v-340h-252v78q-93 -97 -215 -97q-93 0 -154 53.5t-61 155.5z M80 612v174h680v-174h-680zM193 500v69h610v105h69v-174h-679zM231 870q18 -4 62 -4q96 0 172 47v-28h147q-40 -40 -73 -56h-260q-30 16 -48 41zM317 1135q0 -29 20 -48.5t58 -19.5q113 0 113 127q-47 23 -90 23t-72 -22t-29 -60zM360 1135q0 18 17 28.5t41 10.5q14 0 45 -9 q-8 -55 -68 -55q-35 0 -35 25zM621 829v56h182v383q0 68 -15 127l7 -6q77 -77 77 -234v-340h-69v14h-182z" />
<glyph unicode="&#xab;" horiz-adv-x="1310" d="M2 711l285 376h385l-291 -376l283 -381h-379zM346 287h352l11 20l67 -90h-379zM436 711l203 264h104l-200 -264l18 -25l-55 -72zM598 711l287 376h375l-283 -376l287 -381h-379zM944 287h354l11 20l67 -90h-379zM1032 709l199 266h141l-270 -361z" />
<glyph unicode="&#xac;" horiz-adv-x="1462" d="M156 625v344h1151v-746h-342v402h-809zM268 512v70h654v-70h-654zM1077 111v69h273v676h69v-745h-342z" />
<glyph unicode="&#xad;" horiz-adv-x="757" d="M78 371v344h612v-344h-612zM190 258v70h543v274h70v-344h-613z" />
<glyph unicode="&#xae;" horiz-adv-x="1316" d="M70 1061q0 151 74.5 281t206 208t288.5 78q155 0 285 -77.5t204 -207.5t74 -282t-74 -282.5t-205 -208.5t-288 -78q-155 0 -285.5 77.5t-205 208t-74.5 283.5zM197 1059q0 -185 126 -314t312 -129t313 130.5t127 316.5q0 183 -126.5 313.5t-309.5 130.5 q-187 0 -314.5 -131.5t-127.5 -316.5zM240 1059q0 175 125 297v-193q-56 -101 -56 -217q0 -72 27 -151q-96 110 -96 264zM408 770v580h301q82 0 131 -52t49 -124q0 -39 -10.5 -70t-25.5 -47t-29.5 -26.5t-25.5 -13.5l-10 -3l127 -244h-182l-102 219h-62v-219h-161zM410 492 q104 -43 225 -43q169 0 310 84t220.5 224.5t79.5 303.5q0 122 -47 231q117 -152 117 -344q0 -152 -74 -282.5t-205 -208.5t-288 -78q-190 0 -338 113zM410 1393q99 71 229 71q140 0 250 -92q-71 23 -137 23q-31 0 -47 -2h-295zM520 676v51h92v197l70 -150v-112 q-24 -3 -47 -3q-55 0 -115 17zM567 1090h54q20 0 34 2.5t29 9t23 22t8 39.5q0 31 -20.5 48.5t-51.5 17.5h-76v-139zM610 1133v53h33q12 0 20.5 -6.5t8.5 -16.5q0 -30 -51 -30h-11zM813 727h43q-1 -1 -33 -20zM848 993q9 9 23 25.5t37.5 64t23.5 91.5q0 5 -1 14t-1 14 q71 -52 71 -141q0 -39 -10.5 -70t-25 -47t-29 -26.5t-24.5 -13.5l-11 -3l45 -88l-2 -4z" />
<glyph unicode="&#xaf;" horiz-adv-x="712" d="M0 1204v211h713v-211h-713zM113 1092v69h643v142h69v-211h-712z" />
<glyph unicode="&#xb0;" horiz-adv-x="835" d="M47 1229q0 147 103.5 251.5t250.5 104.5q148 0 252.5 -104t104.5 -252t-103 -252.5t-249 -104.5q-147 0 -253 105t-106 252zM276 1231q0 -54 36 -90.5t87 -36.5q54 0 91.5 36.5t37.5 90.5q0 51 -37 88t-90 37q-51 0 -88 -37t-37 -88zM283 848q62 -19 123 -19 q164 0 279.5 117t115.5 283q0 59 -19 121q88 -105 88 -234q0 -148 -103 -252t-249 -104q-134 0 -235 88zM319 1231q0 34 24 58t58 24q32 0 56.5 -21.5t27.5 -52.5q-34 -9 -59.5 -34t-32.5 -58q-31 2 -52.5 26t-21.5 58z" />
<glyph unicode="&#xb1;" horiz-adv-x="1511" d="M156 84h1200v-344h-1200v344zM156 621v344h401v372h397v-372h402v-344h-402v-371h-397v371h-401zM268 -303h1131v274h69v-344h-1200v70zM268 508v70h246v-70h-246zM670 137v70h327v371h402v274h69v-344h-401v-371h-397zM997 1008v217h70v-217h-70z" />
<glyph unicode="&#xb2;" horiz-adv-x="735" d="M12 1720q4 8 11.5 21.5t36 47.5t63.5 59.5t95.5 47t129.5 21.5q84 0 157.5 -31.5t123 -97.5t49.5 -154q0 -69 -40.5 -130t-98.5 -103t-116 -78.5t-98.5 -72t-41.5 -68.5h413v-201h-667q-11 51 -11 104q0 72 23 133t59.5 103t80.5 76.5t88 61.5t80.5 51.5t59.5 53t23 58.5 q0 38 -30 64t-72 26q-26 0 -50 -11t-40.5 -27t-29 -32t-18.5 -27l-6 -11zM131 938h608v131h70v-201h-668q-10 42 -10 70zM209 1550q10 20 23 41.5t42 49.5t56 28q25 0 42 -13.5t17 -33.5q0 -24 -30 -49t-91 -62zM360 1225q21 17 93 63q38 25 54 36t51 37t52 43t42.5 46 t37.5 54.5t21.5 59.5t9.5 70q0 28 -8 74q78 -75 78 -186q0 -50 -19.5 -94t-57.5 -82t-71.5 -63.5t-83.5 -57.5h-199z" />
<glyph unicode="&#xb3;" horiz-adv-x="749" d="M33 1090l110 182q4 -3 10.5 -9t27.5 -21t43 -26t54.5 -20.5t63.5 -9.5q64 0 100.5 27.5t36.5 68.5q0 22 -9.5 36.5t-23 22.5t-40 11.5t-47 4.5t-58.5 1h-68l-51 115l217 227l-98 -6h-229v200h606v-145l-195 -207q111 -26 172.5 -88.5t61.5 -161.5q0 -63 -22.5 -120.5 t-65.5 -104t-112.5 -74.5t-156.5 -28q-61 0 -117 13t-92.5 31.5t-64.5 36.5t-40 31zM158 963q102 -41 202 -41q97 0 175 31.5t126 84t73.5 118t25.5 136.5q0 35 -6 62q75 -66 75 -174q0 -63 -22.5 -120.5t-65 -104.5t-112 -75t-156.5 -28q-81 0 -153.5 23t-105 44.5 t-56.5 43.5zM184 1581v70h109l-68 -70h-41zM315 1315q63 0 92 -6t29 -27q0 -25 -24 -37h-66zM561 1565l160 168v49h70v-146l-123 -131q-45 39 -107 60z" />
<glyph unicode="&#xb4;" horiz-adv-x="684" d="M125 1204l156 389l366 -41l-262 -348h-260zM238 1092l26 69h144l221 293l131 -14l-262 -348h-260z" />
<glyph unicode="&#xb5;" horiz-adv-x="1212" d="M68 -438v1525h417v-585q0 -92 22.5 -139.5t84.5 -47.5q70 0 104.5 57.5t34.5 129.5v585h404v-1087h-392l-12 131q-46 -57 -137 -110.5t-191 -53.5q-29 0 -43 4v-409h-292zM180 -481h223v405q152 0 293 115l11 -82h73q-132 -102 -264 -102q-29 0 -43 4v-410h-293v70z M528 502v473h70v-617h-6q-37 0 -50.5 36t-13.5 108zM850 -43h328v1018h69v-1088h-391z" />
<glyph unicode="&#xb6;" horiz-adv-x="1933" d="M182 995q0 161 79.5 297t215.5 214.5t297 78.5h940v-2025h-373v1650h-190v-1650h-375v843q-160 0 -297 79.5t-217 216t-80 296.5zM532 410q99 -42 201 -48v-51q-110 30 -201 99zM889 -483h305v1650h104v-69h-34v-1651h-375v70zM1454 -483h303v1956h70v-2026h-373v70z" />
<glyph unicode="&#xb7;" horiz-adv-x="1306" d="M412 541q0 102 71.5 173.5t173.5 71.5q101 0 171.5 -71.5t70.5 -173.5t-72 -174t-174 -72q-101 0 -171 72t-70 174zM590 258q30 -6 63 -6q120 0 204.5 84t84.5 205q0 27 -8 67q78 -75 78 -180q0 -102 -72 -174t-174 -72q-106 0 -176 76z" />
<glyph unicode="&#xb8;" horiz-adv-x="684" d="M39 -258q95 -49 188 -49q40 0 68.5 6.5t42.5 14.5t21.5 22t8.5 22t1 21q0 35 -46 50t-96 15h-20l-45 37l76 131h151l-74 -108q33 -1 58.5 -3.5t62 -8.5t63 -17.5t52 -29t38.5 -45t13 -62.5q0 -90 -80.5 -148.5t-216.5 -58.5q-133 0 -266 49v162zM152 -494q92 -18 153 -18 q156 0 248 70.5t92 179.5v8q70 -43 70 -121q0 -90 -80.5 -148.5t-216.5 -58.5q-130 0 -266 50v38zM274 -231l17 28q35 -4 35 -18q0 -25 -23 -33z" />
<glyph unicode="&#xb9;" horiz-adv-x="548" d="M6 1815l227 79h173v-714h96v-201h-428v201h92v483l-111 -41zM186 866v70h359v131h69v-201h-428zM449 1223v559h69v-559h-69z" />
<glyph unicode="&#xba;" horiz-adv-x="854" d="M88 1247q0 140 100 240t252 100q158 0 253 -98.5t95 -241.5q0 -139 -95.5 -238.5t-252.5 -99.5q-159 0 -255.5 96.5t-96.5 241.5zM96 612v174h680v-174h-680zM209 500v69h610v105h70v-174h-680zM305 885q65 -19 135 -19q118 0 208.5 53.5t136.5 139.5t46 188 q0 63 -18 121q88 -94 88 -233q0 -100 -50.5 -182.5t-139.5 -123.5h-320q-47 20 -86 56zM319 1247q0 -47 34.5 -80.5t82.5 -33.5q49 0 84 33.5t35 80.5t-32.5 82t-82.5 35q-51 0 -86 -34.5t-35 -82.5zM362 1247q0 31 23 52.5t55 21.5q31 0 51.5 -22t20.5 -52v-4 q-54 -15 -74 -67h-2q-31 0 -52.5 21t-21.5 50z" />
<glyph unicode="&#xbb;" horiz-adv-x="1310" d="M47 330l287 381l-283 376h375l287 -376l-287 -381h-379zM160 217l51 70h238l305 405l55 -74l-217 -290l12 -25l-65 -86h-379zM639 1087h385l285 -376l-283 -381h-379l283 381zM760 217l51 70h238l301 405l71 -94l-282 -381h-379z" />
<glyph unicode="&#xbc;" horiz-adv-x="1671" d="M47 1505l227 80h175v-715h94v-200h-428v200h92v482l-111 -41zM176 0l1075 1585h191l-1077 -1585h-189zM227 557v70h322l-47 -70h-275zM289 -113l47 70h51l1030 1516h137l-356 -525h-94l-324 -575v-39l-303 -447h-188zM492 913v560h69v-560h-69zM586 680v78h53zM823 203 v159l305 543h363v-514h104v-188h-104v-219h-231v219h-437zM936 90v70h281v-70h-281zM1061 391h176v318zM1133 434l61 113v-113h-61zM1372 -59h162v219h104v119h70v-189h-104v-219h-232v70zM1534 434v359h70v-359h-70z" />
<glyph unicode="&#xbd;" horiz-adv-x="1671" d="M47 1505l227 80h175v-715h94v-200h-428v200h92v482l-111 -41zM152 0l1075 1585h188l-1075 -1585h-188zM227 557v70h297l-47 -70h-250zM264 -113l47 70h51l512 754l95 -64l-516 -760h-189zM492 913v560h69v-560h-69zM586 717v41h26zM909 739q4 8 11.5 21.5t36 47.5 t63.5 59.5t95.5 47t129.5 21.5q84 0 157.5 -31.5t123 -97.5t49.5 -154q0 -69 -40.5 -130t-98.5 -103t-116 -78.5t-98.5 -72t-41.5 -68.5h413v-201h-667q-11 51 -11 104q0 72 23 133t59.5 103t80.5 76.5t88 61.5t80.5 51.5t59.5 53t23 58.5q0 38 -30 64t-72 26q-26 0 -50 -11 t-40.5 -27t-29 -32t-18.5 -27l-6 -11zM1001 899l390 574h137l-338 -498q-102 -10 -189 -76zM1028 -43h608v131h70v-201h-668q-10 42 -10 70zM1106 569q10 20 23 41.5t42 49.5t56 28q25 0 42 -13.5t17 -33.5q0 -24 -30 -49t-91 -62zM1257 244q21 17 93 63q38 25 54 36t51 37 t52 43t42.5 46t37.5 54.5t21.5 59.5t9.5 70q0 28 -8 74q78 -75 78 -186q0 -50 -19.5 -94t-57.5 -82t-71.5 -63.5t-83.5 -57.5h-199z" />
<glyph unicode="&#xbe;" horiz-adv-x="1740" d="M45 786l115 172q3 -3 9.5 -9t26.5 -21t42 -26t55.5 -20.5t66.5 -9.5q60 0 98 29t38 74q0 52 -52.5 83.5t-128.5 31.5h-67l-49 73l209 221h-322v203h608v-147l-194 -209q231 -52 231 -252q0 -62 -22 -118.5t-64.5 -103t-113 -74.5t-158.5 -28q-60 0 -115.5 13.5 t-92.5 32.5t-65.5 38.5t-41.5 32.5zM178 651q93 -39 195 -39q98 0 176.5 31.5t126.5 84.5t73 117.5t25 133.5q0 41 -8 68q55 -48 72 -119l-256 -377q-39 -8 -97 -8q-181 0 -307 108zM199 1272v69h110l-65 -69h-45zM260 0l1075 1585h189l-1075 -1585h-189zM313 1047h2 q57 0 97 -19.5t41 -52.5q-8 2 -25 2h-68zM373 -113l47 70h51l1028 1516h137l-356 -525h-109l-323 -575v-64l-287 -422h-188zM578 1253l159 168v54h70v-148l-127 -135q-42 37 -102 61zM891 203v159l305 543h363v-514h104v-188h-104v-219h-232v219h-436zM1004 90v70h280v-70 h-280zM1128 391h177v318zM1200 434l62 113v-113h-62zM1440 -59h162v219h104v119h70v-189h-105v-219h-231v70zM1602 434v359h69v-359h-69z" />
<glyph unicode="&#xbf;" horiz-adv-x="1183" d="M61 326q0 91 25.5 167t66 126t93.5 86t103.5 54.5t101.5 24.5l43 109h350v-361l-43 -36q-150 0 -238 -43.5t-88 -139.5q0 -66 42.5 -111.5t111.5 -45.5q41 0 72.5 18t49 46t26 55t9.5 51h392q0 -93 -34 -182.5t-99 -165t-174 -122t-246 -46.5q-160 0 -287 60.5t-202 179 t-75 276.5zM360 -186q118 -47 265 -47q121 0 222 36.5t170.5 100t115.5 141.5t67 168h90q0 -93 -34 -182.5t-99 -165t-174 -122t-246 -46.5q-226 0 -377 117zM430 1274q0 97 67.5 165t164.5 68t165 -68t68 -165t-68 -165.5t-165 -68.5t-164.5 68.5t-67.5 165.5zM518 313 q0 140 299 140l70 59v268h69v-360l-43 -37q-91 0 -157 -14h-11v-4q-154 -38 -157 -160q-33 12 -51.5 41t-18.5 67zM604 1001q18 -4 58 -4q115 0 195.5 80.5t80.5 196.5q0 29 -6 59q76 -70 76 -172q0 -81 -49 -142.5t-125 -82.5h-121q-62 14 -109 65z" />
<glyph unicode="&#xc0;" d="M16 0l529 1585h487l531 -1585h-467l-60 207h-518l-59 -207h-443zM129 -113l23 70h340q9 33 30 105t29 102h453l20 -70h-393l-60 -207h-442zM418 2050l366 41l154 -389h-260zM618 539h328l-168 567zM676 582q20 68 102 370l51 -174l-55 -196h-98zM739 1659h240l14 22 l-116 295l20 2l137 -350h-272zM1114 1473h31l530 -1586h-467l-20 70h416l12 18z" />
<glyph unicode="&#xc1;" d="M16 0l529 1585h487l531 -1585h-467l-60 207h-518l-59 -207h-443zM129 -113l23 70h340q9 33 30 105t29 102h453l20 -70h-393l-60 -207h-442zM618 539h328l-168 567zM643 1702l156 389l366 -41l-262 -348h-260zM676 582q20 68 102 370l51 -174l-55 -196h-98zM770 1628 l12 31h144l221 293l131 -15l-234 -309h-274zM1114 1473h31l530 -1586h-467l-20 70h416l12 18z" />
<glyph unicode="&#xc2;" d="M16 0l529 1585h487l531 -1585h-467l-60 207h-518l-59 -207h-443zM129 -113l23 70h340q9 33 30 105t29 102h453l20 -70h-393l-60 -207h-442zM406 1702l239 346h277l233 -346h-213l-158 164l-174 -164h-204zM545 1628l20 31h62l153 147l82 -86l-98 -92h-219zM618 539h328 l-168 567zM676 582q20 68 102 370l51 -174l-55 -196h-98zM987 1659h203l12 24l66 -94h-193l-12 39h-47zM1114 1473h31l530 -1586h-467l-20 70h416l12 18z" />
<glyph unicode="&#xc3;" d="M16 0l529 1585h487l531 -1585h-467l-60 207h-518l-59 -207h-443zM129 -113l23 70h340q9 33 30 105t29 102h453l20 -70h-393l-60 -207h-442zM360 1716v31q0 132 64.5 203t173.5 71q53 0 157.5 -46t145.5 -46q50 0 71.5 18t35.5 66l186 -22q2 -18 2 -41q0 -126 -64.5 -193 t-162.5 -67q-55 0 -114.5 23t-112 46t-89.5 23q-49 0 -69.5 -18t-34.5 -70zM473 1604v55l107 -12q14 54 28.5 73t44.5 19q10 0 20.5 -2t23.5 -6.5t21 -7.5t26 -10.5t24 -10.5h-2q120 -55 203 -55q102 0 174.5 61t89.5 178l74 -8q2 -18 2 -41q0 -126 -65 -193t-163 -67h-2 l-16 51h-166q-92 41 -131 41q-67 0 -88 -41h-164l-10 -29zM618 539h328l-168 567zM676 582q20 68 102 370l51 -174l-55 -196h-98zM1114 1473h31l530 -1586h-467l-20 70h416l12 18z" />
<glyph unicode="&#xc4;" d="M16 0l529 1585h487l531 -1585h-467l-60 207h-518l-59 -207h-443zM129 -113l23 70h340q9 33 30 105t29 102h453l20 -70h-393l-60 -207h-442zM416 1702v278h278v-278h-278zM528 1628v31h209v209h70v-240h-279zM618 539h328l-168 567zM676 582q20 68 102 370l51 -174 l-55 -196h-98zM870 1702v278h277v-278h-277zM983 1628v31h207v209h70v-279h-185l-12 39h-80zM1114 1473h31l530 -1586h-467l-20 70h416l12 18z" />
<glyph unicode="&#xc5;" d="M16 0l529 1585h14q-27 59 -27 115q0 105 75.5 181.5t180.5 76.5q106 0 181 -76t75 -182q0 -61 -28 -115h16l531 -1585h-467l-60 207h-518l-59 -207h-443zM129 -113l23 70h340q9 33 30 105t29 102h453l20 -70h-393l-60 -207h-442zM618 539h328l-168 567zM674 1698 q0 -47 33 -80t79 -33t80.5 33t34.5 80t-33.5 79.5t-81.5 32.5q-46 0 -79 -33t-33 -79zM676 582q20 68 102 370l51 -174l-55 -196h-98zM717 1698q0 29 20 49t49 20q30 0 51 -20t21 -49v-8q-49 -20 -63 -62h-9q-29 0 -49 20.5t-20 49.5zM1071 1604q16 46 16 96q0 41 -8 72 q78 -78 78 -185q0 -58 -29 -114h17l530 -1586h-467l-20 70h416l12 18z" />
<glyph unicode="&#xc6;" horiz-adv-x="1966" d="M18 0l529 1585h1302v-330h-704l90 -276h496v-361h-373l92 -278h420v-340h-770l-60 207h-520l-59 -207h-443zM131 -113l23 70h340q9 33 30 105t29 102h455l20 -70h-395l-60 -207h-442zM621 539h327l-166 567zM678 582q22 77 57 198t49 170l50 -172l-58 -196h-98zM1192 -43 h721v270h69v-340h-770zM1204 1212h688v261h70v-330h-705l39 -121h-28q-18 59 -64 190zM1417 575h357v291h69v-360h-373l41 -123h-30q-46 132 -64 192z" />
<glyph unicode="&#xc7;" horiz-adv-x="1644" d="M45 793q0 233 108 424t300.5 301t429.5 110q211 0 389.5 -82.5t290.5 -232.5l-353 -275q-49 76 -138.5 116t-188.5 40q-165 0 -277 -112.5t-112 -288.5q0 -162 114.5 -281t274.5 -119q94 0 177.5 48.5t135.5 129.5l373 -266q-102 -155 -269 -246t-368 -100l-37 -55 q33 -1 58.5 -3.5t62 -8.5t63 -17.5t52 -29t38.5 -45t13 -62.5q0 -90 -80.5 -148.5t-216.5 -58.5q-134 0 -267 49v162q95 -49 189 -49q50 0 81 8t43 24t14.5 26.5t2.5 27.5q0 35 -45.5 50t-95.5 15h-21l-45 37l47 82q-164 15 -302.5 83.5t-235 176.5t-151 255t-54.5 315z M508 -14q98 -40 211 -58l-23 -34q-97 33 -188 92zM537 793q0 157 99.5 257.5t246.5 100.5q128 0 237 -86q-66 16 -125 16q-165 0 -277 -112.5t-112 -288.5q0 -63 19 -125q-88 101 -88 238zM731 -494q92 -18 154 -18q156 0 248 70.5t92 179.5v8q69 -42 69 -121 q0 -90 -80.5 -148.5t-216.5 -58.5q-130 0 -266 50v38zM854 -231l16 28q35 -4 35 -18q0 -25 -22 -33zM1047 -70q160 29 300 114t240 214l94 -65q-85 -128 -214.5 -213t-288.5 -117q-44 49 -131 67zM1243 1008l356 278q39 -37 76 -86l-352 -274q-25 41 -80 82z" />
<glyph unicode="&#xc8;" horiz-adv-x="1454" d="M94 0v1585h1274v-340h-827v-266h630v-342h-630v-297h839v-340h-1286zM207 -43h1216v270h70v-340h-1286v70zM385 2050l367 41l153 -389h-260zM584 383v211h630v272h70v-342h-631v-141h-69zM584 1022v180h827v271h70v-340h-828v-111h-69zM707 1659h239l15 22l-117 295l20 2 l137 -350h-272z" />
<glyph unicode="&#xc9;" horiz-adv-x="1454" d="M94 0v1585h1274v-340h-827v-266h630v-342h-630v-297h839v-340h-1286zM207 -43h1216v270h70v-340h-1286v70zM502 1702l155 389l367 -41l-262 -348h-260zM584 383v211h630v272h70v-342h-631v-141h-69zM584 1022v180h827v271h70v-340h-828v-111h-69zM629 1628l12 31h143 l222 293l131 -15l-234 -309h-274z" />
<glyph unicode="&#xca;" horiz-adv-x="1454" d="M94 0v1585h1274v-340h-827v-266h630v-342h-630v-297h839v-340h-1286zM207 -43h1216v270h70v-340h-1286v70zM371 1702l239 346h277l233 -346h-213l-157 164l-175 -164h-204zM510 1628l20 31h62l153 147l82 -86l-98 -92h-219zM584 383v211h630v272h70v-342h-631v-141h-69z M584 1022v180h827v271h70v-340h-828v-111h-69zM952 1659h203l12 24l39 -55h-225z" />
<glyph unicode="&#xcb;" horiz-adv-x="1454" d="M94 0v1585h1274v-340h-827v-266h630v-342h-630v-297h839v-340h-1286zM207 -43h1216v270h70v-340h-1286v70zM379 1702v278h278v-278h-278zM492 1628v31h208v209h70v-240h-278zM584 383v211h630v272h70v-342h-631v-141h-69zM584 1022v180h827v271h70v-340h-828v-111h-69z M834 1702v278h276v-278h-276zM946 1628v31h207v209h70v-240h-277z" />
<glyph unicode="&#xcc;" horiz-adv-x="641" d="M16 2050l367 41l154 -389h-261zM90 0v1585h453v-1585h-453zM203 -43h383v1516h69v-1586h-452v70zM338 1659h240l14 22l-117 295l21 2l153 -389h-63v39h-226z" />
<glyph unicode="&#xcd;" horiz-adv-x="641" d="M90 0v1585h453v-1585h-453zM98 1702l156 389l367 -41l-263 -348h-260zM203 -43h383v1516h69v-1586h-452v70zM225 1628l13 31h143l221 293l131 -15l-233 -309h-275z" />
<glyph unicode="&#xce;" horiz-adv-x="641" d="M-59 1702l239 346h277l233 -346h-213l-158 164l-174 -164h-204zM80 1628l20 31h62l153 147l82 -86l-98 -92h-219zM90 0v1585h453v-1585h-453zM203 -43h383v1516h69v-1586h-452v70zM522 1659h203l12 24l66 -94h-213l-4 4v35h-35z" />
<glyph unicode="&#xcf;" horiz-adv-x="641" d="M-49 1702v278h278v-278h-278zM63 1628v31h209v209h70v-240h-279zM90 0v1585h453v-1585h-453zM203 -43h383v1516h69v-1586h-452v70zM406 1702v278h276v-278h-276zM518 1628v31h207v209h70v-279h-209v39h-68z" />
<glyph unicode="&#xd0;" horiz-adv-x="1554" d="M78 0v1585h514q915 0 915 -772q0 -114 -20.5 -212.5t-56 -173.5t-87.5 -137t-110.5 -105.5t-130.5 -76.5t-142 -53.5t-150 -33t-150 -17t-146 -4.5h-436zM190 -43h324q104 0 197.5 8.5t200.5 32.5t196 63t173 105.5t141.5 153.5t92.5 213t35 280q0 209 -63 363 q133 -182 133 -476q0 -114 -20.5 -212.5t-56 -173.5t-87.5 -137t-110.5 -105.5t-130.5 -76.5t-142 -53.5t-150 -33t-150 -17t-146 -4.5h-437v70zM524 340h47q246 0 367 123t121 340q0 235 -137 342t-398 112v-280h215v-348h-215v-289zM567 383v203h215v278h70v-348h-215 v-131q-20 -2 -66 -2h-4zM567 1020v194q229 -9 340 -112q-112 40 -270 43v-125h-70z" />
<glyph unicode="&#xd1;" d="M94 0v1585h471l479 -790v790h441v-1585h-389l-555 885v-885h-447zM207 -43h377v776l69 -110v-736h-446v70zM373 1708v31q0 132 64.5 203t172.5 71q53 0 157.5 -46t145.5 -46q50 0 71.5 18t35.5 66l186 -23q2 -17 2 -40q0 -126 -64.5 -193.5t-162.5 -67.5q-55 0 -114 23.5 t-111.5 46.5t-89.5 23q-49 0 -70 -18t-35 -70zM485 1628v23l107 -13q14 54 29 73.5t45 19.5q10 0 20.5 -2t23 -6.5t21 -7.5t25.5 -10.5t24 -10.5h-2q122 -56 203 -56q102 0 174.5 61.5t89.5 178.5l74 -8q2 -18 2 -41q0 -129 -72 -201h-248v-45q-30 9 -107 43.5t-116 34.5 q-49 0 -69.5 -18t-34.5 -70l-56 6l-28 49h-105zM1163 -43h365v1516h69v-1586h-389z" />
<glyph unicode="&#xd2;" horiz-adv-x="1802" d="M63 799q0 174 63.5 327t174 263.5t266.5 174.5t334 64q175 0 328 -62t262 -171t172 -263.5t63 -332.5q0 -182 -62 -336.5t-171.5 -261t-262 -166.5t-329.5 -60q-244 0 -435 104.5t-297 292t-106 427.5zM498 2050l366 41l154 -389h-260zM504 12q184 -80 397 -80 q249 0 446.5 107.5t309.5 305.5t112 454q0 205 -75 375q145 -210 145 -488q0 -243 -106.5 -431t-294 -290t-424.5 -102q-293 0 -510 149zM514 799q0 -163 113.5 -282.5t273.5 -119.5q153 0 264 119.5t111 282.5q0 178 -109 284.5t-266 106.5q-166 0 -276.5 -108t-110.5 -283 zM557 799q0 156 98 252t246 96q133 0 225 -86q-56 16 -112 16q-166 0 -276.5 -108t-110.5 -283q0 -70 20 -129q-90 104 -90 242zM956 1976l21 2l129 -329l-47 10l14 22z" />
<glyph unicode="&#xd3;" horiz-adv-x="1802" d="M63 799q0 174 63.5 327t174 263.5t266.5 174.5t334 64q175 0 328 -62t262 -171t172 -263.5t63 -332.5q0 -182 -62 -336.5t-171.5 -261t-262 -166.5t-329.5 -60q-244 0 -435 104.5t-297 292t-106 427.5zM504 12q184 -80 397 -80q249 0 446.5 107.5t309.5 305.5t112 454 q0 199 -77 377q147 -213 147 -490q0 -243 -106.5 -431t-294 -290t-424.5 -102q-293 0 -510 149zM514 799q0 -163 113.5 -282.5t273.5 -119.5q153 0 264 119.5t111 282.5q0 178 -109 284.5t-266 106.5q-166 0 -276.5 -108t-110.5 -283zM557 799q0 156 98 252t246 96 q133 0 225 -86q-56 16 -112 16q-166 0 -276.5 -108t-110.5 -283q0 -70 20 -129q-90 104 -90 242zM770 1702l156 389l366 -41l-262 -348h-260zM1053 1659l221 293l131 -15l-231 -307q-70 22 -121 29z" />
<glyph unicode="&#xd4;" horiz-adv-x="1802" d="M63 799q0 174 63.5 327t174 263.5t266.5 174.5t334 64q175 0 328 -62t262 -171t172 -263.5t63 -332.5q0 -182 -62 -336.5t-171.5 -261t-262 -166.5t-329.5 -60q-244 0 -435 104.5t-297 292t-106 427.5zM504 12q184 -80 397 -80q249 0 446.5 107.5t309.5 305.5t112 454 q0 205 -75 375q145 -210 145 -488q0 -243 -106.5 -431t-294 -290t-424.5 -102q-293 0 -510 149zM514 799q0 -163 113.5 -282.5t273.5 -119.5q153 0 264 119.5t111 282.5q0 178 -109 284.5t-266 106.5q-166 0 -276.5 -108t-110.5 -283zM518 1702l240 346h276l234 -346h-213 l-158 164l-174 -164h-205zM557 799q0 156 98 252t246 96q133 0 225 -86q-56 16 -112 16q-166 0 -276.5 -108t-110.5 -283q0 -70 20 -129q-90 104 -90 242zM668 1642l10 17h61l154 147l82 -86l-53 -49h-21q-114 0 -233 -29zM1100 1659h203l12 24l65 -94h-94q-87 40 -176 60z " />
<glyph unicode="&#xd5;" horiz-adv-x="1802" d="M63 799q0 174 63.5 327t174 263.5t266.5 174.5t334 64q175 0 328 -62t262 -171t172 -263.5t63 -332.5q0 -182 -62 -336.5t-171.5 -261t-262 -166.5t-329.5 -60q-244 0 -435 104.5t-297 292t-106 427.5zM475 1716v31q0 132 64.5 203t173.5 71q53 0 157.5 -46t145.5 -46 q50 0 71 17.5t35 66.5l187 -22q2 -18 2 -41q0 -126 -65 -193t-163 -67q-55 0 -114 23t-111.5 46t-89.5 23q-49 0 -69.5 -18t-34.5 -70zM504 12q184 -80 397 -80q249 0 446.5 107.5t309.5 305.5t112 454q0 199 -77 377q147 -211 147 -490q0 -243 -106.5 -431t-294 -290 t-424.5 -102q-293 0 -510 149zM514 799q0 -163 113.5 -282.5t273.5 -119.5q153 0 264 119.5t111 282.5q0 178 -109 284.5t-266 106.5q-166 0 -276.5 -108t-110.5 -283zM557 799q0 156 98 252t246 96q133 0 225 -86q-56 16 -112 16q-166 0 -276.5 -108t-110.5 -283 q0 -70 20 -129q-90 104 -90 242zM588 1618v41l98 -12q-28 -6 -98 -29zM694 1649q14 52 29 71t45 19q10 0 20.5 -2t23.5 -6.5t21 -7.5t26 -10.5t24 -10.5h-2q55 -27 77 -33q-9 0 -28.5 1t-28.5 1q-103 0 -207 -22zM1112 1649q92 8 156.5 68.5t81.5 168.5l71 -8q2 -18 2 -41 q0 -95 -39 -157.5t-104 -88.5q-77 36 -168 58z" />
<glyph unicode="&#xd6;" horiz-adv-x="1802" d="M63 799q0 174 63.5 327t174 263.5t266.5 174.5t334 64q175 0 328 -62t262 -171t172 -263.5t63 -332.5q0 -182 -62 -336.5t-171.5 -261t-262 -166.5t-329.5 -60q-244 0 -435 104.5t-297 292t-106 427.5zM504 12q184 -80 397 -80q249 0 446.5 107.5t309.5 305.5t112 454 q0 205 -75 375q145 -210 145 -488q0 -243 -106.5 -431t-294 -290t-424.5 -102q-293 0 -510 149zM514 799q0 -163 113.5 -282.5t273.5 -119.5q153 0 264 119.5t111 282.5q0 178 -109 284.5t-266 106.5q-166 0 -276.5 -108t-110.5 -283zM528 1702v278h279v-278h-279zM557 799 q0 156 98 252t246 96q133 0 225 -86q-56 16 -112 16q-166 0 -276.5 -108t-110.5 -283q0 -70 20 -129q-90 104 -90 242zM641 1634v25h100q-48 -8 -100 -25zM850 1669v199h70v-199q-3 0 -9.5 1t-9.5 1q-9 0 -26 -1t-25 -1zM983 1702v278h277v-278h-277zM1096 1651v8h207v209 h69v-279h-86q-91 42 -190 62z" />
<glyph unicode="&#xd7;" horiz-adv-x="1517" d="M156 1130l266 265l342 -348l340 348l258 -258l-348 -340l348 -340l-264 -264l-340 348l-340 -348l-258 258l348 340zM449 162l309 317l80 -84l-308 -315zM1075 797l318 309l82 -82l-318 -309zM1128 162l263 262l84 -80l-265 -264z" />
<glyph unicode="&#xd8;" horiz-adv-x="1853" d="M92 791q0 234 108 425.5t299.5 301.5t428.5 110q234 0 399 -84l115 158h282l-217 -297q35 -37 55 -60t62 -85t66 -121t44.5 -152.5t20.5 -195.5q0 -242 -107 -428.5t-295 -287t-425 -100.5q-144 0 -249 22.5t-161 47.5l-121 -162h-282l219 299q-242 242 -242 609z M227 -229l52 69h139l114 154q161 -62 396 -62q187 0 347.5 62t276 173t181 272t65.5 352q0 197 -65 362q135 -203 135 -475q0 -242 -107.5 -428.5t-295.5 -286.5t-425 -100q-144 0 -248.5 22t-160.5 47l-121 -161h-283zM545 791q0 -162 112.5 -278t272.5 -116 q154 0 264.5 116t110.5 278q0 179 -109.5 291t-265.5 112q-165 0 -275 -113t-110 -290zM588 791q0 158 98 259t244 101q127 0 219 -86q-56 16 -107 16q-165 0 -275 -113t-110 -290q0 -63 19 -125q-88 101 -88 238zM1563 1409l131 180h143l-199 -270q-17 23 -75 90z" />
<glyph unicode="&#xd9;" horiz-adv-x="1533" d="M63 680v905h449v-897q0 -35 1.5 -61t6.5 -60.5t14.5 -59.5t27 -51.5t41.5 -43t60 -27t82 -10.5q65 0 111 20.5t70 49.5t37.5 75.5t16.5 82t3 85.5v897h447v-905q0 -72 -7.5 -138.5t-28 -139t-53 -133t-85.5 -116t-122.5 -94t-168 -61.5t-217.5 -23q-124 0 -225.5 23 t-171.5 60.5t-122.5 94t-83.5 115.5t-50 133t-25.5 139t-6.5 140zM350 2050l367 41l153 -389h-260zM397 -10q147 -58 351 -58q127 0 231.5 24.5t178.5 65t130.5 100t91 123.5t56 141t29.5 147t8 147v793h69v-906q0 -72 -7.5 -138.5t-28 -138.5t-53 -132.5t-85.5 -116 t-122.5 -94t-168 -61.5t-217.5 -23q-297 0 -463 127zM555 688v785h70v-898q0 -72 8 -129q-48 34 -63 95t-15 147zM670 1659h241l15 22l-117 295l20 2l138 -350h-27v-39h-217z" />
<glyph unicode="&#xda;" horiz-adv-x="1533" d="M63 680v905h449v-897q0 -35 1.5 -61t6.5 -60.5t14.5 -59.5t27 -51.5t41.5 -43t60 -27t82 -10.5q65 0 111 20.5t70 49.5t37.5 75.5t16.5 82t3 85.5v897h447v-905q0 -72 -7.5 -138.5t-28 -139t-53 -133t-85.5 -116t-122.5 -94t-168 -61.5t-217.5 -23q-124 0 -225.5 23 t-171.5 60.5t-122.5 94t-83.5 115.5t-50 133t-25.5 139t-6.5 140zM397 -10q147 -58 351 -58q127 0 231.5 24.5t178.5 65t130.5 100t91 123.5t56 141t29.5 147t8 147v793h69v-906q0 -72 -7.5 -138.5t-28 -138.5t-53 -132.5t-85.5 -116t-122.5 -94t-168 -61.5t-217.5 -23 q-297 0 -463 127zM555 688v785h70v-898q0 -72 8 -129q-48 34 -63 95t-15 147zM621 1702l155 389l367 -41l-262 -348h-260zM733 1589l27 70h143l221 293l131 -15l-233 -309h-82v-39h-207z" />
<glyph unicode="&#xdb;" horiz-adv-x="1533" d="M63 680v905h449v-897q0 -35 1.5 -61t6.5 -60.5t14.5 -59.5t27 -51.5t41.5 -43t60 -27t82 -10.5q65 0 111 20.5t70 49.5t37.5 75.5t16.5 82t3 85.5v897h447v-905q0 -72 -7.5 -138.5t-28 -139t-53 -133t-85.5 -116t-122.5 -94t-168 -61.5t-217.5 -23q-124 0 -225.5 23 t-171.5 60.5t-122.5 94t-83.5 115.5t-50 133t-25.5 139t-6.5 140zM371 1702l239 346h277l233 -346h-213l-157 164l-175 -164h-204zM397 -10q147 -58 351 -58q127 0 231.5 24.5t178.5 65t130.5 100t91 123.5t56 141t29.5 147t8 147v793h69v-906q0 -72 -7.5 -138.5t-28 -138.5 t-53 -132.5t-85.5 -116t-122.5 -94t-168 -61.5t-217.5 -23q-297 0 -463 127zM510 1628l20 31h62l153 147l82 -86l-139 -131h-133v39h-45zM555 688v785h70v-898q0 -72 8 -129q-48 34 -63 95t-15 147zM952 1659h203l12 24l39 -55h-223z" />
<glyph unicode="&#xdc;" horiz-adv-x="1533" d="M63 680v905h449v-897q0 -35 1.5 -61t6.5 -60.5t14.5 -59.5t27 -51.5t41.5 -43t60 -27t82 -10.5q65 0 111 20.5t70 49.5t37.5 75.5t16.5 82t3 85.5v897h447v-905q0 -72 -7.5 -138.5t-28 -139t-53 -133t-85.5 -116t-122.5 -94t-168 -61.5t-217.5 -23q-124 0 -225.5 23 t-171.5 60.5t-122.5 94t-83.5 115.5t-50 133t-25.5 139t-6.5 140zM381 1702v278h278v-278h-278zM397 -10q147 -58 351 -58q127 0 231.5 24.5t178.5 65t130.5 100t91 123.5t56 141t29.5 147t8 147v793h69v-906q0 -72 -7.5 -138.5t-28 -138.5t-53 -132.5t-85.5 -116 t-122.5 -94t-168 -61.5t-217.5 -23q-297 0 -463 127zM494 1628v31h208v209h70v-279h-217v39h-61zM555 688v785h70v-898q0 -72 8 -129q-48 34 -63 95t-15 147zM836 1702v278h276v-278h-276zM948 1628v31h207v209h70v-240h-277z" />
<glyph unicode="&#xdd;" horiz-adv-x="1728" d="M16 1585h525l317 -588l332 588h520l-631 -971v-614h-450v610zM651 1473h2l107 -199zM733 1702l156 389l366 -41l-262 -348h-260zM741 -43h381v645l566 871h135l-631 -971v-615h-451v70zM846 1589l26 70h144l221 293l131 -15l-262 -348h-260z" />
<glyph unicode="&#xde;" horiz-adv-x="1484" d="M78 0v1585h446v-151h232q73 0 137 -7t134.5 -26t128 -49.5t111 -81.5t90 -118t58 -163t21.5 -213t-21.5 -211.5t-57.5 -160t-90 -114t-110.5 -76.5t-128.5 -45t-134.5 -22.5t-137.5 -5.5h-232v-141h-446zM190 -43h377v141h189q80 0 146.5 6t143 24t136.5 48t117.5 81.5 t95.5 121.5t61 171t23 226q0 186 -54 330q123 -159 123 -442q0 -117 -21.5 -211.5t-57.5 -160t-90 -114t-110.5 -76.5t-128.5 -45t-134.5 -22.5t-137.5 -5.5h-231v-142h-447v70zM524 573h260q113 0 173.5 46t60.5 163q0 46 -10.5 81t-25.5 58t-42.5 39t-48.5 24t-58.5 12 t-58 4.5t-59.5 0.5h-191v-428zM567 616v342h148q45 0 68.5 -1.5t61 -7.5t63 -22.5t42.5 -43.5q-41 6 -123 6h-190v-273h-70z" />
<glyph unicode="&#xdf;" horiz-adv-x="1310" d="M78 0v1073q0 62 4 112t18 109.5t38 105t66 90t99 73.5t141 47t189 18q225 0 364.5 -102t139.5 -283q0 -226 -197 -334q41 -14 79.5 -34t85 -60t80 -91t56.5 -131t23 -175q0 -197 -111 -329t-291 -132q-69 0 -147 18t-113 33l105 316q66 0 112.5 66.5t46.5 131.5 q0 57 -24.5 98t-63 60.5t-72.5 28t-65 8.5v330q19 3 37 10t38 20.5t32 39t12 59.5q0 60 -36 93.5t-97 33.5q-34 0 -59.5 -9.5t-40 -29.5t-24 -39t-13 -49.5t-4.5 -48.5t-1 -48v-1079h-407zM190 -43h338v1122q0 24 0.5 39t3 39.5t9 39.5t17 31t28 24t41.5 8q37 0 60 -19 t28 -53q-88 -10 -109 -105h-8v-950l-49 -147l49 -19v-80h-408v70zM715 -104l12 36q81 -18 135 -18q199 0 322 144t123 360q0 133 -39 231q108 -135 108 -344q0 -129 -48.5 -233.5t-141 -166t-211.5 -61.5q-69 0 -146.5 18.5t-113.5 33.5zM754 604v33q26 -16 41 -37 q-32 4 -41 4zM1030 920q150 121 150 323q0 61 -19 123q88 -98 88 -236q0 -174 -119 -280q-46 41 -100 70z" />
<glyph unicode="&#xe0;" horiz-adv-x="1300" d="M37 346q0 176 129 273.5t328 97.5q79 0 154 -21.5t110 -43.5l35 -21v57q0 67 -69.5 107.5t-178.5 40.5q-89 0 -173 -19t-124 -38l-39 -19l-105 256q8 4 24 10.5t67.5 23t107 29t140 23t169.5 10.5q108 0 194.5 -16t161.5 -54.5t125 -99t78.5 -153.5t28.5 -214v-575h-407 l-13 88q-5 -5 -14 -12.5t-40 -27t-65.5 -34.5t-90.5 -27t-115 -12q-182 0 -300 102t-118 269zM270 -37q85 -31 185 -31q174 0 290 78l5 -59v6h120q-124 -94 -303 -94q-176 0 -297 100zM274 1552l367 41l154 -389h-260zM283 741q131 52 262 52q75 0 128 -20.5t70 -57.5 q-24 4 -36 4q-98 41 -213 41q-109 0 -207 -31zM438 346q0 -61 52.5 -93t127.5 -32q72 0 123.5 33t51.5 92q0 65 -50 104t-125 39q-83 0 -131.5 -38.5t-48.5 -104.5zM481 346q0 46 37 73t100 27q45 0 79 -18.5t46 -50.5h-12q-69 0 -115.5 -28.5t-60.5 -76.5q-74 17 -74 74z M594 1161h242l14 23l-117 295l21 2l141 -363q-115 37 -283 37h-14zM895 -43h348v618q0 148 -37 252q107 -129 107 -364v-576h-408z" />
<glyph unicode="&#xe1;" horiz-adv-x="1300" d="M37 346q0 176 129 273.5t328 97.5q79 0 154 -21.5t110 -43.5l35 -21v57q0 67 -69.5 107.5t-178.5 40.5q-89 0 -173 -19t-124 -38l-39 -19l-105 256q8 4 24 10.5t67.5 23t107 29t140 23t169.5 10.5q108 0 194.5 -16t161.5 -54.5t125 -99t78.5 -153.5t28.5 -214v-575h-407 l-13 88q-5 -5 -14 -12.5t-40 -27t-65.5 -34.5t-90.5 -27t-115 -12q-182 0 -300 102t-118 269zM270 -37q85 -31 185 -31q174 0 290 78l5 -59v6h120q-124 -94 -303 -94q-176 0 -297 100zM283 741q131 52 262 52q75 0 128 -20.5t70 -57.5q-24 4 -36 4q-98 41 -213 41 q-109 0 -207 -31zM438 346q0 -61 52.5 -93t127.5 -32q72 0 123.5 33t51.5 92q0 65 -50 104t-125 39q-83 0 -131.5 -38.5t-48.5 -104.5zM461 1204l155 389l367 -41l-262 -348h-260zM481 346q0 46 37 73t100 27q45 0 79 -18.5t46 -50.5h-12q-69 0 -115.5 -28.5t-60.5 -76.5 q-74 17 -74 74zM598 1155l2 6h143l222 293l131 -14l-236 -312q-111 27 -248 27h-14zM895 -43h348v618q0 148 -37 252q107 -129 107 -364v-576h-408z" />
<glyph unicode="&#xe2;" horiz-adv-x="1300" d="M37 346q0 176 129 273.5t328 97.5q79 0 154 -21.5t110 -43.5l35 -21v57q0 67 -69.5 107.5t-178.5 40.5q-89 0 -173 -19t-124 -38l-39 -19l-105 256q8 4 24 10.5t67.5 23t107 29t140 23t169.5 10.5q108 0 194.5 -16t161.5 -54.5t125 -99t78.5 -153.5t28.5 -214v-575h-407 l-13 88q-5 -5 -14 -12.5t-40 -27t-65.5 -34.5t-90.5 -27t-115 -12q-182 0 -300 102t-118 269zM250 1206l239 346h277l233 -346h-213l-157 164l-174 -164h-205zM270 -37q85 -31 185 -31q174 0 290 78l5 -59v6h120q-124 -94 -303 -94q-176 0 -297 100zM283 741q131 52 262 52 q75 0 128 -20.5t70 -57.5q-24 4 -36 4q-98 41 -213 41q-109 0 -207 -31zM391 1137l19 26h61l154 148l82 -86l-74 -70h-21q-95 0 -221 -18zM438 346q0 -61 52.5 -93t127.5 -32q72 0 123.5 33t51.5 92q0 65 -50 104t-125 39q-83 0 -131.5 -38.5t-48.5 -104.5zM481 346 q0 46 37 73t100 27q45 0 79 -18.5t46 -50.5h-12q-69 0 -115.5 -28.5t-60.5 -76.5q-74 17 -74 74zM831 1163h203l13 25l65 -94h-149q-62 24 -97 32zM895 -43h348v618q0 148 -37 252q107 -129 107 -364v-576h-408z" />
<glyph unicode="&#xe3;" horiz-adv-x="1300" d="M37 346q0 176 129 273.5t328 97.5q79 0 154 -21.5t110 -43.5l35 -21v57q0 67 -69.5 107.5t-178.5 40.5q-89 0 -173 -19t-124 -38l-39 -19l-105 256q8 4 24 10.5t67.5 23t107 29t140 23t169.5 10.5q108 0 194.5 -16t161.5 -54.5t125 -99t78.5 -153.5t28.5 -214v-575h-407 l-13 88q-5 -5 -14 -12.5t-40 -27t-65.5 -34.5t-90.5 -27t-115 -12q-182 0 -300 102t-118 269zM213 1219v30q0 132 65 203.5t173 71.5q53 0 157.5 -46t145.5 -46q50 0 71 17.5t35 66.5l187 -23q2 -18 2 -41q0 -126 -65 -193t-163 -67q-55 0 -114 23t-111.5 46t-89.5 23 q-49 0 -70 -18t-35 -70zM270 -37q85 -31 185 -31q174 0 290 78l5 -59v6h120q-124 -94 -303 -94q-176 0 -297 100zM283 741q131 52 262 52q75 0 128 -20.5t70 -57.5q-24 4 -36 4q-98 41 -213 41q-109 0 -207 -31zM326 1124v37l106 -12q14 54 29 73t45 19q10 0 20.5 -2 t23.5 -6.5t21 -7.5t26 -10.5t24 -10.5h-3q120 -55 203 -55q102 0 174.5 61.5t89.5 178.5l74 -9q2 -18 2 -41q0 -110 -49 -175t-129 -81q-114 58 -283 68q-48 20 -82 20q-48 0 -69 -18q-107 -5 -223 -29zM438 346q0 -61 52.5 -93t127.5 -32q72 0 123.5 33t51.5 92 q0 65 -50 104t-125 39q-83 0 -131.5 -38.5t-48.5 -104.5zM481 346q0 46 37 73t100 27q45 0 79 -18.5t46 -50.5h-12q-69 0 -115.5 -28.5t-60.5 -76.5q-74 17 -74 74zM895 -43h348v618q0 148 -37 252q107 -129 107 -364v-576h-408z" />
<glyph unicode="&#xe4;" horiz-adv-x="1300" d="M37 346q0 176 129 273.5t328 97.5q79 0 154 -21.5t110 -43.5l35 -21v57q0 67 -69.5 107.5t-178.5 40.5q-89 0 -173 -19t-124 -38l-39 -19l-105 256q8 4 24 10.5t67.5 23t107 29t140 23t169.5 10.5q108 0 194.5 -16t161.5 -54.5t125 -99t78.5 -153.5t28.5 -214v-575h-407 l-13 88q-5 -5 -14 -12.5t-40 -27t-65.5 -34.5t-90.5 -27t-115 -12q-182 0 -300 102t-118 269zM268 1204v279h279v-279h-279zM270 -37q85 -31 185 -31q174 0 290 78l5 -59v6h120q-124 -94 -303 -94q-176 0 -297 100zM283 741q131 52 262 52q75 0 128 -20.5t70 -57.5 q-24 4 -36 4q-98 41 -213 41q-109 0 -207 -31zM381 1135v26h209v209h69v-217q-16 2 -47 2q-111 0 -231 -20zM438 346q0 -61 52.5 -93t127.5 -32q72 0 123.5 33t51.5 92q0 65 -50 104t-125 39q-83 0 -131.5 -38.5t-48.5 -104.5zM481 346q0 46 37 73t100 27q45 0 79 -18.5 t46 -50.5h-12q-69 0 -115.5 -28.5t-60.5 -76.5q-74 17 -74 74zM723 1204v279h276v-279h-276zM836 1135v26h206v209h70v-278h-145q-67 29 -131 43zM895 -43h348v618q0 148 -37 252q107 -129 107 -364v-576h-408z" />
<glyph unicode="&#xe5;" horiz-adv-x="1300" d="M57 311q0 177 125 291.5t312 114.5q79 0 154 -21.5t110 -43.5l35 -21v67q0 65 -67.5 97t-180.5 32q-89 0 -172 -18.5t-121 -37.5l-39 -19l-109 264q15 7 42.5 18.5t115.5 36.5t178 37q-63 73 -63 170q0 105 75.5 181.5t180.5 76.5q106 0 181 -76t75 -182q0 -103 -74 -180 q391 -78 391 -523v-575h-413l-13 88q-4 -5 -11 -13t-35.5 -29t-62 -37t-92 -29t-124.5 -13q-178 0 -288 91.5t-110 252.5zM272 -49q82 -27 183 -27q177 0 293 78l2 -51v6h124q-22 -22 -53.5 -42t-101 -40t-152.5 -20q-182 0 -295 96zM287 733q129 51 258 51q87 0 142.5 -19 t62.5 -56q-13 0 -19 2q-112 49 -237 49q-108 0 -203 -39zM438 352q0 -59 54 -95t131 -36q79 0 128.5 36.5t49.5 96.5q0 63 -55.5 99t-131.5 36q-78 0 -127 -39.5t-49 -97.5zM481 352q0 39 37 66.5t96 27.5q49 0 89.5 -19t50.5 -52q-8 2 -27 2q-66 0 -113 -30t-59 -75 q-74 24 -74 80zM518 1276q0 -47 33.5 -80t79.5 -33t80 33t34 80t-33.5 80t-80.5 33q-46 0 -79.5 -33.5t-33.5 -79.5zM561 1276q0 29 20.5 49.5t49.5 20.5t50 -20.5t21 -49.5v-8q-49 -20 -63 -62h-8q-29 0 -49.5 20.5t-20.5 49.5zM891 1124q41 74 41 154q0 41 -8 72 q77 -77 77 -185q0 -35 -14 -82q-59 30 -96 41zM895 -43h354v618q0 138 -41 256q111 -133 111 -368v-576h-414z" />
<glyph unicode="&#xe6;" horiz-adv-x="1986" d="M59 319q0 179 125 288.5t318 109.5q76 0 149.5 -21.5t109.5 -43.5l36 -21v67q0 67 -71 107.5t-181 40.5q-62 0 -133 -20.5t-106.5 -37.5t-92.5 -47l-107 265q8 4 22.5 11.5t65.5 25.5t109 32t151 25.5t193 11.5q240 0 377 -106q78 55 147 80.5t166 25.5 q123 0 230.5 -39.5t188 -113t127 -185t46.5 -248.5q0 -8 -1 -24.5t-1 -24.5h-710q0 -180 157 -180q26 0 46.5 5t38 19t25 20.5t23.5 27.5t17 22l366 -110q-23 -39 -42 -66.5t-68 -77t-103 -81t-142.5 -56.5t-191.5 -25q-89 0 -163.5 26t-116.5 63t-71 74t-40 63l-10 26 q-2 -5 -5.5 -14t-19 -35.5t-35.5 -50t-57 -53t-81.5 -50t-110 -35t-141.5 -14.5q-209 0 -321 96t-112 248zM279 -35q97 -33 213 -33q94 0 172.5 19t131.5 51.5t87 64.5t59 68q31 -37 82 -78q-20 -33 -49 -62.5t-78 -61.5t-124.5 -51t-168.5 -19q-208 0 -325 102zM285 727 q156 76 260 76q76 0 131 -21.5t72 -56.5q-25 4 -74 8q-94 27 -172 27q-115 0 -213 -39zM440 352q0 -59 54.5 -95t126.5 -36q83 0 132.5 36t49.5 95q0 64 -54.5 100.5t-127.5 36.5q-83 0 -132 -39t-49 -98zM483 352q0 40 37.5 67t100.5 27q47 0 85.5 -18.5t49.5 -52.5 q-8 2 -23 2q-70 0 -117 -29.5t-59 -75.5q-74 24 -74 80zM1141 -16q106 -52 202 -52q347 0 543 271l117 -35q-15 -26 -27.5 -44.5t-40 -53t-55.5 -59.5t-73 -54.5t-93.5 -48.5t-115.5 -32t-142 -13q-194 0 -315 121zM1210 635h316q0 45 -12 82.5t-48 66.5t-94 29 q-42 0 -72 -11.5t-46.5 -27t-26.5 -42t-13 -47t-4 -50.5zM1257 678q15 92 115 92q75 0 101 -70q-55 -3 -87 -22h-129zM1262 434h243l-28 -33q-23 -28 -33 -36h-115v-19q-55 17 -67 88zM1532 434h438v68q0 4 1 12t1 12q0 141 -47 256q117 -149 117 -368q0 -8 -1 -24.5 t-1 -24.5h-279z" />
<glyph unicode="&#xe7;" horiz-adv-x="1161" d="M57 537q0 158 72 289t206 208.5t304 77.5q153 0 273.5 -66t201.5 -188l-319 -242q-28 63 -65 97.5t-101 34.5q-81 0 -129.5 -56t-48.5 -145t48.5 -146t129.5 -57q109 0 162 117l323 -225q-76 -120 -199.5 -190.5t-285.5 -70.5h-8l-50 -71q33 -1 58.5 -3.5t62 -8.5 t63 -17.5t52 -29t38.5 -45t13 -62.5q0 -90 -80.5 -148.5t-216.5 -58.5q-133 0 -266 49v162q95 -49 188 -49q40 0 68.5 6.5t42.5 14.5t21.5 22t8.5 22t1 21q0 35 -46 50t-96 15h-20l-45 37l63 111q-195 44 -309.5 194t-114.5 351zM377 -20l41 -15l-6 -10zM408 -494 q92 -18 153 -18q156 0 248 70.5t92 179.5v8q70 -43 70 -121q0 -90 -80.5 -148.5t-216.5 -58.5q-130 0 -266 50v38zM494 547q0 70 37 114t98 44q58 0 104 -70q-77 -3 -123.5 -58.5t-46.5 -142.5q0 -21 2 -31q-71 39 -71 144zM530 -231l17 28q35 -4 35 -18q0 -25 -23 -33z M694 -63q134 15 245 80.5t191 170.5l97 -65q-136 -211 -381 -252q-50 47 -152 66zM844 598l311 236q40 -44 72 -89l-320 -241q-26 59 -63 94z" />
<glyph unicode="&#xe8;" horiz-adv-x="1253" d="M53 543q0 249 160 409t418 160q257 0 410 -158t153 -426q0 -10 -2.5 -23t-5.5 -21l-2 -7h-740q0 -18 6.5 -40t23 -46.5t40.5 -44.5t61.5 -33.5t83.5 -13.5q41 0 77 11t58.5 26.5t39 31.5t23.5 27l7 11l291 -170q-3 -5 -8.5 -14.5t-26.5 -36.5t-46.5 -52t-70 -55 t-95 -51.5t-123 -36.5t-152.5 -15q-268 0 -424 158.5t-156 409.5zM217 1552l367 41l153 -389h-260zM367 -20q121 -48 266 -48q84 0 161 17.5t132 43t104.5 61.5t79 65.5t55.5 62.5l103 -59q-3 -5 -8.5 -14.5t-26.5 -36.5t-47 -51.5t-70.5 -54.5t-95 -51.5t-123 -36.5 t-152.5 -15q-226 0 -378 117zM444 635h359q0 69 -42 121.5t-128 52.5q-93 0 -141 -52.5t-48 -121.5zM494 678q11 39 46 63.5t93 24.5q86 0 115 -70h-3q-47 0 -92 -18h-159zM498 434h329q-31 -44 -79 -69h-187q-45 25 -63 69zM537 1161h241l15 23l-117 295l20 2l140 -355 q-98 29 -205 29q-28 0 -86 -4zM901 434h313q23 63 23 94q0 150 -47 271q117 -155 117 -383q0 -10 -2.5 -23t-5.5 -21l-3 -7h-278z" />
<glyph unicode="&#xe9;" horiz-adv-x="1253" d="M53 543q0 249 160 409t418 160q257 0 410 -158t153 -426q0 -10 -2.5 -23t-5.5 -21l-2 -7h-740q0 -18 6.5 -40t23 -46.5t40.5 -44.5t61.5 -33.5t83.5 -13.5q41 0 77 11t58.5 26.5t39 31.5t23.5 27l7 11l291 -170q-3 -5 -8.5 -14.5t-26.5 -36.5t-46.5 -52t-70 -55 t-95 -51.5t-123 -36.5t-152.5 -15q-268 0 -424 158.5t-156 409.5zM367 -20q121 -48 266 -48q84 0 161 17.5t132 43t104.5 61.5t79 65.5t55.5 62.5l103 -59q-3 -5 -8.5 -14.5t-26.5 -36.5t-47 -51.5t-70.5 -54.5t-95 -51.5t-123 -36.5t-152.5 -15q-226 0 -378 117zM444 635 h359q0 69 -42 121.5t-128 52.5q-93 0 -141 -52.5t-48 -121.5zM494 678q11 39 46 63.5t93 24.5q86 0 115 -70h-3q-47 0 -92 -18h-159zM494 1204l155 389l367 -41l-262 -348h-260zM498 434h329q-31 -44 -79 -69h-187q-45 25 -63 69zM631 1155l2 6h143l221 293l131 -14 l-247 -330q-115 45 -250 45zM901 434h313q23 63 23 94q0 150 -47 271q117 -155 117 -383q0 -10 -2.5 -23t-5.5 -21l-3 -7h-278z" />
<glyph unicode="&#xea;" horiz-adv-x="1253" d="M53 543q0 249 160 409t418 160q257 0 410 -158t153 -426q0 -10 -2.5 -23t-5.5 -21l-2 -7h-740q0 -18 6.5 -40t23 -46.5t40.5 -44.5t61.5 -33.5t83.5 -13.5q41 0 77 11t58.5 26.5t39 31.5t23.5 27l7 11l291 -170q-3 -5 -8.5 -14.5t-26.5 -36.5t-46.5 -52t-70 -55 t-95 -51.5t-123 -36.5t-152.5 -15q-268 0 -424 158.5t-156 409.5zM262 1204l240 346h276l234 -346h-213l-158 164l-174 -164h-205zM367 -20q121 -48 266 -48q84 0 161 17.5t132 43t104.5 61.5t79 65.5t55.5 62.5l103 -59q-3 -5 -8.5 -14.5t-26.5 -36.5t-47 -51.5 t-70.5 -54.5t-95 -51.5t-123 -36.5t-152.5 -15q-226 0 -378 117zM389 1114l33 47h61l154 148l82 -86l-72 -68h-16q-133 0 -242 -41zM444 635h359q0 69 -42 121.5t-128 52.5q-93 0 -141 -52.5t-48 -121.5zM494 678q11 39 46 63.5t93 24.5q86 0 115 -70h-3q-47 0 -92 -18h-159 zM498 434h329q-31 -44 -79 -69h-187q-45 25 -63 69zM844 1161h203l12 25l65 -94h-198l-27 10zM901 434h313q23 63 23 94q0 150 -47 271q117 -155 117 -383q0 -10 -2.5 -23t-5.5 -21l-3 -7h-278z" />
<glyph unicode="&#xeb;" horiz-adv-x="1253" d="M53 543q0 249 160 409t418 160q257 0 410 -158t153 -426q0 -10 -2.5 -23t-5.5 -21l-2 -7h-740q0 -18 6.5 -40t23 -46.5t40.5 -44.5t61.5 -33.5t83.5 -13.5q41 0 77 11t58.5 26.5t39 31.5t23.5 27l7 11l291 -170q-3 -5 -8.5 -14.5t-26.5 -36.5t-46.5 -52t-70 -55 t-95 -51.5t-123 -36.5t-152.5 -15q-268 0 -424 158.5t-156 409.5zM268 1204v279h279v-279h-279zM367 -20q121 -48 266 -48q84 0 161 17.5t132 43t104.5 61.5t79 65.5t55.5 62.5l103 -59q-3 -5 -8.5 -14.5t-26.5 -36.5t-47 -51.5t-70.5 -54.5t-95 -51.5t-123 -36.5 t-152.5 -15q-226 0 -378 117zM381 1110v51h209v209h69v-215h-28q-135 0 -250 -45zM444 635h359q0 69 -42 121.5t-128 52.5q-93 0 -141 -52.5t-48 -121.5zM494 678q11 39 46 63.5t93 24.5q86 0 115 -70h-3q-47 0 -92 -18h-159zM498 434h329q-31 -44 -79 -69h-187 q-45 25 -63 69zM723 1204v279h276v-279h-276zM836 1126v35h206v209h70v-278h-186q-31 15 -90 34zM901 434h313q23 63 23 94q0 150 -47 271q117 -155 117 -383q0 -10 -2.5 -23t-5.5 -21l-3 -7h-278z" />
<glyph unicode="&#xec;" horiz-adv-x="589" d="M-27 1552l367 41l154 -389h-261zM88 0v1087h408v-1087h-408zM201 -43h338v1018h69v-1088h-407v70zM295 1161h240l14 23l-117 295l21 2l153 -389h-67v38h-222z" />
<glyph unicode="&#xed;" horiz-adv-x="589" d="M88 0v1087h408v-1087h-408zM90 1204l156 389l366 -41l-262 -348h-260zM201 -43h338v1018h69v-1088h-407v70zM217 1130l12 31h144l221 293l131 -14l-233 -310h-275z" />
<glyph unicode="&#xee;" horiz-adv-x="589" d="M-80 1204l240 346h276l234 -346h-213l-158 164l-174 -164h-205zM33 1092l12 16v-16h-12zM59 1130l21 31h61l154 148l82 -86l-98 -93h-220zM88 0v1087h408v-1087h-408zM201 -43h338v1018h69v-1088h-407v70zM502 1161h203l12 25l65 -94h-213l-30 30v8h-9z" />
<glyph unicode="&#xef;" horiz-adv-x="589" d="M-74 1204v279h279v-279h-279zM39 1092v69h209v209h69v-240h-272v-38h-6zM88 0v1087h408v-1087h-408zM201 -43h338v1018h69v-1088h-407v70zM381 1204v279h276v-279h-276zM494 1130v31h206v209h70v-278h-231v38h-45z" />
<glyph unicode="&#xf0;" horiz-adv-x="1296" d="M29 530q0 102 32 194t91 163.5t151.5 114t204.5 42.5q63 0 117 -14t82 -31t49 -31t26 -14q6 0 6 19q0 93 -129 225l-286 -80l-60 211l152 41q-70 54 -148.5 107t-121.5 79l-43 27h522l172 -102l258 69l59 -209l-123 -34q102 -128 155.5 -294t53.5 -345 q0 -152 -38.5 -273.5t-101.5 -200t-149 -131t-175 -74.5t-185 -22q-137 0 -248 47t-180.5 126.5t-106 179.5t-36.5 210zM348 -31q115 -45 252 -45q102 0 197.5 23.5t186.5 79t158.5 138.5t108.5 212.5t41 290.5q0 256 -110 487q88 -123 134 -278.5t46 -321.5 q0 -152 -38.5 -273.5t-101.5 -200t-149 -130.5t-175 -74t-185 -22q-219 0 -365 114zM428 547q0 -79 51.5 -148t141.5 -69q77 0 136.5 63.5t59.5 149.5q0 4 -0.5 11t-4 27t-10.5 38.5t-22.5 41t-37 38.5t-56.5 27t-78 11q-180 0 -180 -190zM459 1098q100 25 188 51 q46 -57 62 -82l-33 -8q-75 28 -168 28q-8 0 -23 -1t-22 -1zM471 547q0 147 137 147q106 0 144 -71q-10 2 -31 2q-180 0 -180 -191q0 -27 2 -39q-35 23 -53.5 66t-18.5 86zM1110 1282l104 31l-32 114l35 11l59 -209l-115 -33q-19 35 -51 86z" />
<glyph unicode="&#xf1;" horiz-adv-x="1243" d="M88 0v1087h395l13 -147q154 172 362 172q148 0 222.5 -83t74.5 -220v-809h-412v592q0 28 -1.5 48t-8 47.5t-19 44.5t-36 29.5t-57.5 12.5q-40 0 -67 -16t-38.5 -45t-15.5 -55.5t-4 -61.5v-596h-408zM201 -43h338v639q0 135 82 135q60 0 75 -74q-28 -7 -47 -25t-27 -45 t-11 -50t-3 -54v-596h-407v70zM201 1219v30q0 132 64.5 203.5t172.5 71.5q53 0 157.5 -46t145.5 -46q50 0 71.5 18t35.5 66l186 -23q2 -18 2 -41q0 -126 -64.5 -193t-162.5 -67q-55 0 -114 23t-111.5 46t-89.5 23q-49 0 -70 -18t-35 -70zM313 1130v31l107 -12q14 54 29 73 t45 19q10 0 20.5 -2t23 -6.5t21 -7.5t25.5 -10.5t24 -10.5h-2q98 -48 174 -55q-52 -11 -57 -12q-77 34 -117 34q-67 0 -88 -41h-205zM856 -43h342v852q0 52 -14 117q84 -81 84 -230v-809h-412v70zM866 1155q81 14 138 74t71 160l72 -9q2 -18 2 -41q0 -161 -107 -227 q-70 40 -176 43z" />
<glyph unicode="&#xf2;" horiz-adv-x="1308" d="M57 543q0 118 42 222t117.5 181t187.5 121.5t245 44.5q132 0 244 -45.5t188.5 -122.5t119 -181t42.5 -220q0 -155 -70 -283t-207 -206.5t-317 -78.5q-134 0 -246 45t-187.5 122.5t-117 181t-41.5 219.5zM254 1552l367 41l153 -389h-260zM385 -18q126 -50 264 -50 q145 0 266.5 49t201.5 132.5t124.5 194.5t44.5 235t-43 231q113 -151 113 -344q0 -115 -41 -218t-116 -180.5t-188 -123t-249 -45.5q-223 0 -377 119zM451 543q0 -80 58.5 -139.5t139.5 -59.5q84 0 142.5 59t58.5 140t-58 140.5t-143 59.5q-83 0 -140.5 -59t-57.5 -141z M494 543q0 65 45.5 111t109.5 46q86 0 131 -71q-6 2 -18 2q-83 0 -141 -59.5t-58 -141.5v-18q-69 49 -69 131zM573 1161h242l14 23l-116 295l20 2l141 -363q-109 37 -225 37q-21 0 -67 -4z" />
<glyph unicode="&#xf3;" horiz-adv-x="1308" d="M57 543q0 118 42 222t117.5 181t187.5 121.5t245 44.5q132 0 244 -45.5t188.5 -122.5t119 -181t42.5 -220q0 -155 -70 -283t-207 -206.5t-317 -78.5q-134 0 -246 45t-187.5 122.5t-117 181t-41.5 219.5zM385 -18q126 -50 264 -50q145 0 266.5 49t201.5 132.5t124.5 194.5 t44.5 235t-43 231q113 -151 113 -344q0 -115 -41 -218t-116 -180.5t-188 -123t-249 -45.5q-223 0 -377 119zM451 543q0 -80 58.5 -139.5t139.5 -59.5q84 0 142.5 59t58.5 140t-58 140.5t-143 59.5q-83 0 -140.5 -59t-57.5 -141zM494 543q0 65 45.5 111t109.5 46 q86 0 131 -71q-6 2 -18 2q-83 0 -141 -59.5t-58 -141.5v-18q-69 49 -69 131zM526 1204l156 389l367 -41l-263 -348h-260zM664 1153l2 8h143l221 293l131 -14l-252 -334q-105 44 -245 47z" />
<glyph unicode="&#xf4;" horiz-adv-x="1308" d="M57 543q0 118 42 222t117.5 181t187.5 121.5t245 44.5q132 0 244 -45.5t188.5 -122.5t119 -181t42.5 -220q0 -155 -70 -283t-207 -206.5t-317 -78.5q-134 0 -246 45t-187.5 122.5t-117 181t-41.5 219.5zM274 1204l240 346h277l233 -346h-213l-158 164l-174 -164h-205z M385 -18q126 -50 264 -50q145 0 266.5 49t201.5 132.5t124.5 194.5t44.5 235t-43 231q113 -151 113 -344q0 -115 -41 -218t-116 -180.5t-188 -123t-249 -45.5q-223 0 -377 119zM401 1112l33 49h62l153 148l82 -86l-72 -68h-10q-130 0 -248 -43zM451 543q0 -80 58.5 -139.5 t139.5 -59.5q84 0 142.5 59t58.5 140t-58 140.5t-143 59.5q-83 0 -140.5 -59t-57.5 -141zM494 543q0 65 45.5 111t109.5 46q86 0 131 -71q-6 2 -18 2q-83 0 -141 -59.5t-58 -141.5v-18q-69 49 -69 131zM856 1161h203l12 25l66 -94h-193q-10 5 -37 14z" />
<glyph unicode="&#xf5;" horiz-adv-x="1308" d="M57 543q0 118 42 222t117.5 181t187.5 121.5t245 44.5q132 0 244 -45.5t188.5 -122.5t119 -181t42.5 -220q0 -155 -70 -283t-207 -206.5t-317 -78.5q-134 0 -246 45t-187.5 122.5t-117 181t-41.5 219.5zM231 1219v30q0 132 65 203.5t173 71.5q53 0 157.5 -46t145.5 -46 q50 0 71.5 18t35.5 66l186 -23q2 -18 2 -41q0 -126 -64.5 -193t-162.5 -67q-55 0 -114.5 23t-112 46t-89.5 23q-49 0 -69.5 -18t-34.5 -70zM344 1106v55l107 -12q14 54 28.5 73t44.5 19q10 0 20.5 -2t23.5 -6.5t21 -7.5t26 -10.5t24 -10.5h-2q120 -55 203 -55 q102 0 174.5 61.5t89.5 178.5l74 -9q2 -18 2 -41q0 -120 -60 -187.5t-151 -72.5q-122 61 -248 72q-48 20 -84 20q-51 0 -74 -20q-107 -13 -190 -49zM385 -18q126 -50 264 -50q145 0 266.5 49t201.5 132.5t124.5 194.5t44.5 235t-43 231q113 -151 113 -344q0 -115 -41 -218 t-116 -180.5t-188 -123t-249 -45.5q-223 0 -377 119zM451 543q0 -80 58.5 -139.5t139.5 -59.5q84 0 142.5 59t58.5 140t-58 140.5t-143 59.5q-83 0 -140.5 -59t-57.5 -141zM494 543q0 65 45.5 111t109.5 46q86 0 131 -71q-6 2 -18 2q-83 0 -141 -59.5t-58 -141.5v-18 q-69 49 -69 131z" />
<glyph unicode="&#xf6;" horiz-adv-x="1308" d="M57 543q0 118 42 222t117.5 181t187.5 121.5t245 44.5q132 0 244 -45.5t188.5 -122.5t119 -181t42.5 -220q0 -155 -70 -283t-207 -206.5t-317 -78.5q-134 0 -246 45t-187.5 122.5t-117 181t-41.5 219.5zM285 1204v279h278v-279h-278zM385 -18q126 -50 264 -50 q145 0 266.5 49t201.5 132.5t124.5 194.5t44.5 235t-43 231q113 -151 113 -344q0 -115 -41 -218t-116 -180.5t-188 -123t-249 -45.5q-223 0 -377 119zM397 1110v51h209v209h70v-217q-5 0 -14 1t-13 1q-137 0 -252 -45zM451 543q0 -80 58.5 -139.5t139.5 -59.5q84 0 142.5 59 t58.5 140t-58 140.5t-143 59.5q-83 0 -140.5 -59t-57.5 -141zM494 543q0 65 45.5 111t109.5 46q86 0 131 -71q-6 2 -18 2q-83 0 -141 -59.5t-58 -141.5v-18q-69 49 -69 131zM739 1204v279h277v-279h-277zM852 1126v35h207v209h69v-278h-184q-34 16 -92 34z" />
<glyph unicode="&#xf7;" horiz-adv-x="1511" d="M156 631v344h585q-77 6 -129.5 63t-52.5 136q0 82 58.5 140t140.5 58q83 0 139.5 -58t56.5 -140q0 -79 -51.5 -136t-128.5 -63h582v-344h-582q76 -6 128 -64.5t52 -134.5q0 -84 -56.5 -141.5t-139.5 -57.5q-82 0 -140.5 58t-58.5 141q0 76 53 134.5t129 64.5h-585z M268 518v70h305q-27 -30 -43 -70h-262zM715 195q35 -5 43 -5q101 0 170 70t69 172q0 17 -4 41q34 -28 54 -69t20 -85q0 -83 -57 -140.5t-140 -57.5q-94 0 -155 74zM942 588h457v274h69v-344h-485q-18 44 -41 70zM942 1018q55 64 55 156q0 15 -4 43q74 -61 74 -156 q0 -19 -4 -43h-121z" />
<glyph unicode="&#xf8;" horiz-adv-x="1333" d="M61 -117l181 242q-25 20 -52 54t-55 85.5t-45.5 124.5t-17.5 154q0 115 44 219t121.5 181.5t189.5 123t241 45.5q181 0 272 -37l100 129h220l-177 -231q26 -24 44.5 -44t45 -59.5t43.5 -82t29 -106.5t12 -138q0 -90 -24.5 -173.5t-73.5 -155.5t-118.5 -126t-165.5 -84.5 t-207 -30.5q-191 0 -283 47l-104 -137h-220zM174 -229l51 69h78l94 125q90 -35 271 -35q120 0 223 33t177 91t127 135.5t79 167.5t26 186q0 147 -40 248q110 -140 110 -361q0 -113 -39.5 -214.5t-112 -181t-186.5 -126.5t-252 -47q-190 0 -282 47l-105 -137h-219zM465 543 q0 -80 58 -137.5t141 -57.5q84 0 142 58.5t58 138.5q0 78 -56 137t-138 59q-85 0 -145 -59.5t-60 -138.5zM508 543q0 62 47.5 108.5t114.5 46.5q80 0 125 -71q-2 0 -6.5 1t-6.5 1q-85 0 -144.5 -60t-59.5 -139v-14q-70 44 -70 127zM1141 977l88 115h143l-158 -207 q-27 46 -73 92z" />
<glyph unicode="&#xf9;" horiz-adv-x="1239" d="M78 309v778h418v-585q0 -61 7.5 -99t32 -63t66.5 -25q70 0 104.5 57.5t34.5 129.5v585h404v-1087h-391l-13 131q-135 -156 -350 -156q-156 0 -234.5 89.5t-78.5 244.5zM256 1552l367 41l153 -389h-260zM274 -53q52 -15 117 -15q176 0 316 105l10 -80h71 q-122 -94 -284 -94q-149 0 -230 84zM539 502v473h69v-617h-6q-37 0 -50 36t-13 108zM575 1161h242l14 23l-116 295l20 2l137 -351h-174v-38h-69zM860 -43h328v1018h69v-1088h-391z" />
<glyph unicode="&#xfa;" horiz-adv-x="1239" d="M78 309v778h418v-585q0 -61 7.5 -99t32 -63t66.5 -25q70 0 104.5 57.5t34.5 129.5v585h404v-1087h-391l-13 131q-135 -156 -350 -156q-156 0 -234.5 89.5t-78.5 244.5zM274 -53q52 -15 117 -15q176 0 316 105l10 -80h71q-122 -94 -284 -94q-149 0 -230 84zM461 1204 l155 389l367 -41l-262 -348h-260zM539 502v473h69v-617h-6q-37 0 -50 36t-13 108zM573 1092l27 69h143l222 293l131 -14l-234 -310h-164v-38h-125zM860 -43h328v1018h69v-1088h-391z" />
<glyph unicode="&#xfb;" horiz-adv-x="1239" d="M78 309v778h418v-585q0 -61 7.5 -99t32 -63t66.5 -25q70 0 104.5 57.5t34.5 129.5v585h404v-1087h-391l-13 131q-135 -156 -350 -156q-156 0 -234.5 89.5t-78.5 244.5zM242 1204l239 346h277l233 -346h-213l-157 164l-175 -164h-204zM274 -53q52 -15 117 -15 q176 0 316 105l10 -80h71q-122 -94 -284 -94q-149 0 -230 84zM381 1130l20 31h62l153 148l82 -86l-139 -131h-20v38h-158zM539 502v473h69v-617h-6q-37 0 -50 36t-13 108zM823 1161h203l12 25l39 -56h-225zM860 -43h328v1018h69v-1088h-391z" />
<glyph unicode="&#xfc;" horiz-adv-x="1239" d="M78 309v778h418v-585q0 -61 7.5 -99t32 -63t66.5 -25q70 0 104.5 57.5t34.5 129.5v585h404v-1087h-391l-13 131q-135 -156 -350 -156q-156 0 -234.5 89.5t-78.5 244.5zM250 1204v279h278v-279h-278zM274 -53q52 -15 117 -15q176 0 316 105l10 -80h71q-122 -94 -284 -94 q-149 0 -230 84zM362 1130v31h209v209h70v-278h-102v38h-177zM539 502v473h69v-617h-6q-37 0 -50 36t-13 108zM705 1204v279h276v-279h-276zM817 1130v31h207v209h70v-240h-277zM860 -43h328v1018h69v-1088h-391z" />
<glyph unicode="&#xfd;" horiz-adv-x="1304" d="M12 1087h387l254 -741l265 741h376l-467 -1148q-21 -51 -36 -85t-39 -80t-46 -76.5t-53.5 -63.5t-65 -52.5t-77.5 -32t-94 -12.5q-135 0 -230 41l-86 37l168 281l17 -7q54 -24 88 -24q48 0 88 59zM213 -498l10 19q87 -27 193 -27q54 0 102.5 13.5t85.5 34.5t71.5 56 t59 68t50.5 81.5t42.5 85t38.5 89.5l426 1053h115l-467 -1149q-24 -60 -42.5 -99.5t-46.5 -91t-58 -85t-69.5 -64.5t-88.5 -46t-107 -15q-137 0 -229 40zM483 975h29l156 -459l-13 -39zM492 1204l155 389l367 -41l-262 -348h-260zM604 1092l27 69h143l221 293l131 -14 l-233 -310h-6l-6 -18l-17 -20h-260z" />
<glyph unicode="&#xfe;" horiz-adv-x="1331" d="M78 -303v1890h407v-575q107 104 287 104q222 0 367 -159t145 -416q0 -253 -143 -413.5t-371 -160.5q-108 0 -178.5 35.5t-132.5 97.5v-403h-381zM190 -346h312v350q33 -23 69 -39v-381h-381v70zM471 551q0 -85 57 -143t140 -58q82 0 138 58t56 143q0 82 -56.5 141.5 t-137.5 59.5q-83 0 -140 -59.5t-57 -141.5zM514 551q0 65 45 111.5t109 46.5q37 0 70.5 -19t54.5 -51h-13q-82 0 -139 -59t-57 -142v-20q-70 44 -70 133zM528 1098v377h70v-345q-33 -10 -70 -32zM614 -51q77 -25 156 -25q163 0 290 79t197 219.5t70 318.5q0 144 -49 270 q119 -158 119 -383q0 -253 -143 -413t-371 -160q-160 0 -269 94z" />
<glyph unicode="&#xff;" horiz-adv-x="1304" d="M12 1087h387l254 -741l265 741h376l-467 -1148q-21 -51 -36 -85t-39 -80t-46 -76.5t-53.5 -63.5t-65 -52.5t-77.5 -32t-94 -12.5q-135 0 -230 41l-86 37l168 281l17 -7q54 -24 88 -24q48 0 88 59zM213 -498l10 19q87 -27 193 -27q54 0 102.5 13.5t85.5 34.5t71.5 56 t59 68t50.5 81.5t42.5 85t38.5 89.5l426 1053h115l-467 -1149q-24 -60 -42.5 -99.5t-46.5 -91t-58 -85t-69.5 -64.5t-88.5 -46t-107 -15q-137 0 -229 40zM289 1204v279h278v-279h-278zM401 1130v31h209v209h70v-278h-238l-12 38h-29zM483 975h29l156 -459l-13 -39zM743 1204 v279h277v-279h-277zM856 1092v69h207v209h70v-240h-246l-15 -38h-16z" />
<glyph unicode="&#x152;" horiz-adv-x="2676" d="M92 791q0 174 63.5 328.5t173.5 266.5t266 177t333 65q137 0 274 -43h1374v-330h-827v-276h592v-361h-592v-278h838v-340h-1377q-137 -43 -282 -43q-183 0 -339 62.5t-265 172.5t-170.5 264.5t-61.5 334.5zM541 -6q180 -80 387 -80q141 0 289 43h1413v270h69v-340h-1376 q-137 -43 -283 -43q-284 0 -499 150zM541 791q0 -162 113 -278t274 -116q154 0 264.5 116t110.5 278q0 179 -109.5 291t-265.5 112q-165 0 -276 -113.5t-111 -289.5zM584 791q0 158 98.5 259t245.5 101q127 0 219 -86q-56 16 -107 16q-165 0 -276 -113.5t-111 -289.5 q0 -61 19 -123q-88 101 -88 236zM1792 383v192h592v291h70v-360h-592v-123h-70zM1792 1022v190h827v261h70v-330h-827v-121h-70z" />
<glyph unicode="&#x153;" horiz-adv-x="2039" d="M39 539q0 118 44.5 223t122.5 182.5t191 122.5t244 45q222 0 377 -123q154 123 362 123q252 0 405.5 -155t153.5 -429v-51h-714q0 -25 9 -53t29 -60t61.5 -52.5t98.5 -20.5q41 0 75.5 11t54.5 26.5t34.5 31t19.5 26.5l5 11l289 -170q-2 -5 -6 -14t-21.5 -35.5t-39.5 -50 t-62.5 -53t-88 -50t-118.5 -35t-152 -14.5q-222 0 -395 127q-160 -127 -381 -127q-134 0 -247.5 44.5t-189.5 121t-118.5 179.5t-42.5 219zM367 -18q121 -50 270 -50q215 0 381 117q55 -39 110 -59q-160 -127 -378 -127q-222 0 -383 119zM432 541q0 -80 58.5 -137.5 t140.5 -57.5q84 0 142 57.5t58 137.5q0 81 -56.5 140.5t-141.5 59.5q-83 0 -142 -59t-59 -141zM475 541q0 64 46.5 110.5t111.5 46.5q84 0 129 -71q-2 0 -8 1t-9 1q-83 0 -141.5 -59.5t-58.5 -141.5v-14q-70 44 -70 127zM1137 -14q123 -54 276 -54q104 0 191.5 23.5t147 63 t97 76t64.5 77.5l100 -57q-2 -5 -6 -14t-21 -35.5t-39.5 -50t-62.5 -53t-87.5 -50t-118.5 -35t-152 -14.5q-222 0 -389 123zM1223 635h315q0 34 -6.5 62.5t-23 56t-50 43.5t-80.5 16q-155 0 -155 -178zM1268 678q5 44 29 68t81 24q81 0 107 -70q-54 -3 -86 -22h-131z M1274 434h303q-22 -40 -59 -69h-181v-11q-44 25 -63 80zM1634 434h348v94q0 152 -47 273q117 -152 117 -385v-51h-301z" />
<glyph unicode="&#x178;" horiz-adv-x="1728" d="M16 1585h525l317 -588l332 588h520l-631 -971v-614h-450v610zM492 1702v278h278v-278h-278zM604 1589v70h209v209h70v-279h-279zM651 1473h2l107 -199zM741 -43h381v645l566 871h135l-631 -971v-615h-451v70zM946 1702v278h277v-278h-277zM1059 1589v70h207v209h69v-240 h-170l-22 -39h-84z" />
<glyph unicode="&#x2c6;" horiz-adv-x="684" d="M-119 1204l240 346h276l234 -346h-213l-158 164l-174 -164h-205zM-6 1092l47 69h61l154 146l82 -84l-139 -131h-205zM463 1161h203l12 25l65 -94h-213z" />
<glyph unicode="&#x2dc;" horiz-adv-x="841" d="M4 1219v30q0 132 65 203.5t173 71.5q53 0 157.5 -46t145.5 -46q50 0 71 17.5t35 66.5l187 -23q2 -18 2 -41q0 -126 -65 -193t-163 -67q-55 0 -114 23t-111.5 46t-89.5 23q-49 0 -69.5 -18t-34.5 -70zM117 1106v55l106 -12q14 54 29 73t45 19q10 0 20.5 -2t23.5 -6.5 t21 -7.5t26 -10.5t24 -10.5h-2q120 -55 202 -55q102 0 175 61.5t90 178.5l73 -9q2 -18 2 -41q0 -126 -64.5 -193t-162.5 -67q-55 0 -114 23t-111.5 46t-89.5 23q-49 0 -70 -18t-35 -70z" />
<glyph unicode="&#x2000;" horiz-adv-x="1045" />
<glyph unicode="&#x2001;" horiz-adv-x="2091" />
<glyph unicode="&#x2002;" horiz-adv-x="1045" />
<glyph unicode="&#x2003;" horiz-adv-x="2091" />
<glyph unicode="&#x2004;" horiz-adv-x="697" />
<glyph unicode="&#x2005;" horiz-adv-x="522" />
<glyph unicode="&#x2006;" horiz-adv-x="348" />
<glyph unicode="&#x2007;" horiz-adv-x="348" />
<glyph unicode="&#x2008;" horiz-adv-x="261" />
<glyph unicode="&#x2009;" horiz-adv-x="418" />
<glyph unicode="&#x200a;" horiz-adv-x="116" />
<glyph unicode="&#x2010;" horiz-adv-x="757" d="M78 371v344h612v-344h-612zM190 258v70h543v274h70v-344h-613z" />
<glyph unicode="&#x2011;" horiz-adv-x="757" d="M78 371v344h612v-344h-612zM190 258v70h543v274h70v-344h-613z" />
<glyph unicode="&#x2012;" horiz-adv-x="757" d="M78 371v344h612v-344h-612zM190 258v70h543v274h70v-344h-613z" />
<glyph unicode="&#x2013;" horiz-adv-x="1400" d="M80 371v344h1225v-344h-1225zM193 258v70h1155v274h69v-344h-1224z" />
<glyph unicode="&#x2014;" horiz-adv-x="1579" d="M80 371v344h1399v-344h-1399zM193 258v70h1329v274h69v-344h-1398z" />
<glyph unicode="&#x2018;" horiz-adv-x="716" d="M94 1018l219 567h336l-180 -567h-375zM207 905l26 70h267l157 498h105l-180 -568h-375z" />
<glyph unicode="&#x2019;" horiz-adv-x="716" d="M88 1020l182 565h377l-223 -565h-336zM201 907l22 70h232l194 496h111l-223 -566h-336z" />
<glyph unicode="&#x201a;" horiz-adv-x="608" d="M47 -145l219 565h336l-180 -565h-375zM160 -258l26 70h267l157 495h105l-180 -565h-375z" />
<glyph unicode="&#x201c;" horiz-adv-x="1222" d="M94 1018l219 567h336l-180 -567h-375zM207 905l26 70h267l157 498h68l-182 -478l14 -20h47l-22 -70h-375zM598 1018l219 567h338l-180 -567h-377zM711 905l26 70h269l157 498h105l-181 -568h-376z" />
<glyph unicode="&#x201d;" horiz-adv-x="1222" d="M88 1020l182 565h377l-223 -565h-336zM201 907l22 70h232l194 496h45l-151 -480l12 -16h8l-26 -70h-336zM596 1020l180 565h375l-219 -565h-336zM709 907l22 70h232l190 496h111l-220 -566h-335z" />
<glyph unicode="&#x201e;" horiz-adv-x="1222" d="M94 -145l219 565h336l-180 -565h-375zM207 -258l26 70h267l157 495h64l-182 -475l14 -20h51l-22 -70h-375zM594 -145l219 565h336l-180 -565h-375zM707 -258l26 70h266l158 495h105l-181 -565h-374z" />
<glyph unicode="&#x2022;" horiz-adv-x="1310" d="M317 793q0 140 99.5 240t238.5 100t239.5 -100.5t100.5 -239.5q0 -140 -100 -239t-240 -99t-239 98.5t-99 239.5zM541 428q59 -16 114 -16q159 0 271 111t112 270q0 59 -18 112q88 -94 88 -225q0 -140 -100 -239t-240 -99q-128 0 -227 86z" />
<glyph unicode="&#x2026;" horiz-adv-x="2150" d="M131 209q0 97 68.5 165t165.5 68t164 -68t67 -165t-67.5 -165.5t-163.5 -68.5q-97 0 -165.5 68.5t-68.5 165.5zM305 -61q31 -7 60 -7q115 0 194.5 80.5t79.5 196.5q0 32 -6 59q76 -70 76 -172q0 -97 -67.5 -165t-164.5 -68q-102 0 -172 76zM848 209q0 97 68 165t165 68 t164.5 -68t67.5 -165t-67.5 -165.5t-164.5 -68.5t-165 68.5t-68 165.5zM1022 -61q32 -7 59 -7q115 0 195 80.5t80 196.5q0 32 -6 59q75 -69 75 -172q0 -97 -67 -165t-164 -68q-102 0 -172 76zM1565 209q0 97 68 165t165 68t164.5 -68t67.5 -165t-67.5 -165.5t-164.5 -68.5 t-165 68.5t-68 165.5zM1739 -61q31 -7 59 -7q115 0 195 80.5t80 196.5q0 27 -7 59q76 -70 76 -172q0 -97 -67 -165t-164 -68q-102 0 -172 76z" />
<glyph unicode="&#x202f;" horiz-adv-x="418" />
<glyph unicode="&#x2039;" horiz-adv-x="718" d="M2 711l285 376h385l-291 -376l283 -381h-379zM346 287h352l11 20l67 -90h-379zM436 711l203 264h145l-278 -361z" />
<glyph unicode="&#x203a;" horiz-adv-x="718" d="M47 1087h385l285 -376l-283 -381h-379l283 381zM168 217l51 70h238l301 405l71 -94l-282 -381h-379z" />
<glyph unicode="&#x205f;" horiz-adv-x="522" />
<glyph unicode="&#x20ac;" horiz-adv-x="1193" d="M0 504v219h86v113h-86v221h106q93 528 594 528q310 0 463 -199l-274 -256q-89 89 -189 89q-137 0 -186 -162h274l-38 -221h-267v-41q0 -47 2 -72h252l-39 -219h-182q26 -84 70.5 -124t113.5 -40q40 0 71 11.5t77 41.5l278 -258q-154 -160 -426 -160q-499 0 -589 529h-111 zM440 -27q112 -41 260 -41q264 0 453 168l86 -77q-154 -160 -426 -160q-228 0 -373 110zM525 781q1 5 1 12h260l25 151h90l-39 -221h-82l6 33l-6 10h-254q-2 10 -1 15zM578 1100q44 76 122 76q71 0 154 -74q-28 4 -41 4q-27 0 -51 -6h-184zM580 461h155l25 149h90l-33 -182 q-48 -30 -72 -37h-94q-42 14 -71 70zM905 1087l289 271q41 -33 82 -84l-275 -256q-49 49 -96 69z" />
<glyph unicode="&#x2122;" horiz-adv-x="1902" d="M39 1376v209h756v-209h-246v-727h-266v727h-244zM152 1264v69h88v-69h-88zM395 537v69h197v727h215v-69h-145v-727h-267zM850 649v936h375l108 -377l119 377h371v-936h-260v668l-158 -475h-148l-149 475v-668h-258zM963 537v69h188v432l70 -221v-280h-258zM1303 1473h34 l17 -56l-19 -57zM1348 799h88q32 99 84 254v-318l-2 -6h-148zM1675 537v69h191v867h69v-936h-260z" />
<glyph unicode="&#x25fc;" horiz-adv-x="1085" d="M0 0v1085h1085v-1085h-1085z" />
</font>
</defs>
</svg>
