<?xml version="1.0" encoding="UTF-8"?>
<!DOCTYPE svg  PUBLIC '-//W3C//DTD SVG 1.1//EN'  'http://www.w3.org/Graphics/SVG/1.1/DTD/svg11.dtd'>
<svg version="1.1" xmlns="http://www.w3.org/2000/svg">
<defs>
<font id="TempusSansITC" horiz-adv-x="1024">
<font-face font-family="Tempus Sans ITC" font-weight="400" ascent="1638" bbox="-111 -698 2214 1974" cap-height="1378" descent="-410" panose-1="4 2 4 4 3 13 7 2 2 2" underline-position="-205" underline-thickness="102" unicode-range="U+0020-02DC" units-per-em="2048" x-height="913"/>
<missing-glyph/>
<glyph glyph-name="space" horiz-adv-x="522" unicode=" "/>
<glyph d="M406 1464q-28 -239 -39 -578t-25 -480h-4q-10 0 -21 -16.5t-16 -16.5h-2q-2 0 -6 2t-6 2t-4.5 -2t-3.5 -2q-15 17 -15 43q0 18 6 37q27 89 27 229l-17 273q-9 146 -19.5 234.5t-10.5 119.5q0 37 1.5 59t7.5 39t19 30t46 27.5t49 14.5q13 0 33 -15zM367 70q0 -22 -41 -101 h-7q-10 0 -21.5 -11t-18.5 -13q-72 27 -72 65v17q0 84 72 100v2h2q25 0 86 -49v-10z" glyph-name="exclam" horiz-adv-x="631" unicode="!"/>
<glyph d="M471 1378q-28 -49 -52.5 -94.5t-45 -88.5t-36.5 -82.5t-28 -76.5q-6 -19 -18 -32q-17 -19 -17 -20q-4 -11 -11 -37.5t-17.5 -41t-38.5 -18.5q-2 9 -2 31q0 58 40 158.5t64.5 181t64.5 114t97 47.5v-41zM477 854q-8 16 -8 25t42 116t103 210q10 19 39 88t63.5 92.5 t76.5 23.5q14 0 14 -12q0 -22 -44 -102l-91 -166q-47 -84 -89 -167.5t-56.5 -97.5t-32.5 -14q-5 0 -17 4z" glyph-name="quotedbl" horiz-adv-x="774" unicode='"'/>
<glyph d="M1006 856h20q70 0 127.5 21.5t71.5 21.5q59 0 59 -41q0 -45 -49 -66.5t-105 -21.5q-11 0 -49.5 4t-66.5 4q-40 0 -70 -26t-82 -168q36 -39 80 -39q18 0 52 9.5t34 37.5q70 -5 92.5 -15t22.5 -38v-13q-12 -46 -49 -71h-9q-11 0 -20 6q-12 -8 -24 -24t-19 -17 q-2 43 -102 43q-39 0 -113 -23q-22 -83 -80.5 -214.5t-69.5 -182.5q-6 -29 -32 -34t-41 -15v-21q-16 10 -50 21.5t-34 42.5q0 22 46 67t54 63l98 265l-14 23q-89 4 -115 4q-53 0 -151 -10q-18 -66 -94.5 -206.5t-92.5 -226.5q-3 -7 -22 -16t-21 -27q-39 17 -47 17 q-14 0 -41 -17q-2 8 -2 25q0 50 31 102h-2q1 0 25 11q89 136 125 230.5t40 98.5q-50 11 -90 11q-37 0 -53.5 -7t-35.5 -25t-29 -18q-12 0 -37 15t-25 33q0 45 41 63q12 31 39 31l20 -2q13 0 29.5 7t22.5 7q15 0 24 -20h76q26 0 46.5 15t50.5 69t57 139q-27 8 -64 8 q-19 0 -64.5 -4t-72.5 -4q-59 0 -100 26q32 60 94 66l18 2q17 0 49.5 -6t48.5 -6l33 4l45 -4q38 0 56.5 27t52.5 106t75 202t67 151t59 28q21 0 57 -8v-27q-12 -4 -35 -61l-145 -343v-16q0 -25 16 -37t21 -12h22l70 -2q30 0 54 5q25 6 45 18q21 12 38 31t31 48q14 27 27 65 q9 25 45 116q26 62 40 116q7 31 13 69q3 19 5 25t23.5 12.5t52.5 6.5q7 8 13 14q2 -2 9.5 -10t18.5 -10l23 6q2 -6 2 -17q0 -24 -10 -47q-33 -30 -90.5 -178t-102.5 -239zM827 758q-29 16 -69 16l-66 -2l-63 2q-48 0 -53 -23q-4 -18 -15 -30q-20 -13 -35.5 -36t-33 -68.5 t-17.5 -47.5q0 -18 14 -28h54q55 0 94 4.5t65.5 15t47 35t28 36.5t21 57t28.5 69z" glyph-name="numbersign" horiz-adv-x="1331" unicode="#"/>
<glyph d="M713 1395q8 -36 8 -66q0 -57 -47 -57q-9 0 -29 4q-30 45 -88 45q-26 0 -44.5 -17.5t-31 -111.5t-12.5 -229q0 -143 4 -156.5t56 -49.5q182 -125 182 -292q0 -114 -83.5 -242.5t-133.5 -138.5q-62 -16 -77.5 -60t-15.5 -167q0 -261 -53 -291q-34 7 -47.5 18t-13.5 35 q0 30 24 162q31 83 31 178q0 36 -2 53q-136 -82 -209 -82q-31 0 -31 68q0 24 17 53q37 12 71 12q11 0 18 -2t15 -2t66.5 13.5t67 23t25.5 198t17 349.5v33q-180 137 -211.5 201t-31.5 133q0 197 224 344q32 21 42 32.5t7 38t-3 45.5q0 293 84 293q15 0 37 -12 q-1 -52 -20 -151.5t-19 -143.5q0 -30 6 -63q32 -4 45 -4q39 0 65 7t27 7zM406 848q14 296 14 430q0 12 -14 12q-91 -79 -125.5 -131t-34.5 -110q0 -108 137 -207zM434 113q78 33 126 121t48 188q0 62 -36 125t-101 102q-19 -299 -49 -530z" glyph-name="dollar" horiz-adv-x="836" unicode="$"/>
<glyph d="M473 1395q21 12 29 12l23 -4q43 -4 48 -8q19 -35 46 -50t84 -19l126 -7q78 0 99.5 5.5t43.5 33.5q37 45 107 45q33 0 53.5 -32t20.5 -64q0 -24 -10 -33.5t-34.5 -20.5t-37.5 -18v-21h-4q-10 0 -19.5 -10t-15.5 -10q-2 0 -10 4q-600 -977 -600 -1018q-9 -33 -54.5 -93.5 t-62.5 -86.5q10 -13 10 -23q0 -4 -29.5 -62.5t-29.5 -72.5q0 3 -6 12.5t-9 14t-27 15t-24 16.5l3 6q0 8 -9 8h-22q10 55 30.5 83t63.5 60q25 20 51 51q23 29 48 71q22 37 51 91l55 108q22 28 59 80l107 183q72 126 138 247q90 167 177 347l-14 14q-264 -8 -289 -8l-10 -117 q-5 -56 -8.5 -78.5t-20 -53t-32 -54.5t-67.5 -60t-91 -55.5t-71 -29t-56 -9.5q-75 0 -109.5 45.5t-34.5 147.5q0 43 7 82q6 34 19 71l20 60q7 21 30 53q21 32 44 57q24 26 50 45l43 32q14 12 28 16t38 4zM328 881q7 -2 26 -2q81 0 135 69t54 172q0 63 -25 115h-31 q-32 29 -71 43l-15 -14q-70 0 -96 -8.5t-55 -85t-29 -142.5q0 -45 17.5 -85t60.5 -40q13 0 29 -22zM819 498q45 57 60 57q10 4 47.5 21.5t74.5 17.5q80 0 130.5 -78t50.5 -207q0 -106 -48 -181.5t-111 -109.5q-37 -20 -54 -55q-15 0 -25 -4t-12 -4t-5.5 5t-6.5 9 q-37 -6 -56 -6q-17 0 -39 6q-13 8 -47.5 25t-58.5 37.5t-38.5 68t-14.5 93.5q0 144 133 305h20zM973 47q30 0 73.5 70t43.5 168q0 92 -40.5 156.5t-91.5 64.5q-62 0 -127 -69.5t-65 -176.5q0 -43 15.5 -83t33.5 -63t45.5 -36t58.5 -19z" glyph-name="percent" horiz-adv-x="1255" unicode="%"/>
<glyph d="M1452 799q-18 -47 -106 -39q-27 2 -41 2q-11 0 -11 -12q-2 -2 -6 -2q-3 0 -8 4t-8 4l-4 -2q-10 -5 -17 -41q-4 -20 -7 -32q-6 -22 -13 -42q-10 -24 -24 -49q-15 -28 -37 -57q-14 -19 -16 -37q-2 -14 -3 -25q0 -12 -29 -64q-15 -26 -46 -77q-17 -29 -36.5 -55t-19.5 -48 q0 -41 68.5 -101.5t185.5 -111.5q39 -27 39 -59q0 -13 -25.5 -61t-33.5 -57t-17 -9q-23 0 -72 37q-15 57 -135.5 138t-150.5 81q-14 0 -31 -10q-102 -57 -200 -88t-159 -31q-29 0 -80 11t-75 13t-67 31.5t-72 62.5t-50 72t-32 82t-11 86q0 28 2.5 53t8 48.5t15.5 46.5l19 45 v37q17 40 42 65t47 53t98 107h22q13 18 13 35q0 14 -4 22l14 9q-29 98 -29 161q0 47 9.5 87t28.5 73t47 60l56 52q27 26 55 37t58 11h6q74 37 119 37q10 0 65.5 -6t80 -48t24.5 -96q0 -208 -362 -377q-11 -12 -11 -32q0 -17 4 -25q51 -104 135 -217t155 -178.5t134 -96.5 q18 24 41.5 45t57.5 113t47.5 160.5t13.5 105.5v23q-11 47 -51 47l-102 2q-39 0 -86 -5l-35 -5q-97 0 -97 26q0 20 40 38t104 18q32 0 84.5 -6.5t72.5 -6.5q63 0 89.5 12.5t29.5 12.5h2q18 11 21 29h8q13 0 29 11t22 11q20 0 36 -32.5t27 -39t29 -3t27 3.5h4q6 -7 10 -7 q3 0 7.5 8.5t11.5 12.5q23 -10 28 -10q21 -7 27 -41zM535 874q42 0 151 87t109 188q0 46 -20 70t-39.5 41.5t-51.5 17.5q-44 0 -74 -8q-61 -41 -96 -53q-27 -15 -47.5 -73.5t-20.5 -103.5q0 -30 9 -80.5t20 -65.5t47 -17zM551 53q19 -1 30.5 -7.5t12.5 -6.5q37 0 128.5 35 t104.5 45.5t13 25.5q0 16 -14.5 38.5t-80 87.5t-100.5 102q-21 43 -84 116.5t-82 118.5q-32 61 -37 64.5t-23 21t-30 17.5q-52 0 -115 -116.5t-63 -227.5q0 -54 16.5 -105.5t48 -96.5t68.5 -62l83 -39q46 -21 77 -21q29 0 47 10z" glyph-name="ampersand" horiz-adv-x="1513" unicode="&amp;"/>
<glyph d="M213 854q-8 16 -8 23q0 14 48.5 124.5t76.5 165.5t52.5 113t54.5 93.5t91 35.5q17 0 17 -12q0 -2 -4 -23q-252 -464 -252 -477q-29 -47 -60 -47q-4 0 -16 4z" glyph-name="quotesingle" horiz-adv-x="512" unicode="'"/>
<glyph d="M369 1227q139 125 251 189.5t152 64.5q47 0 47 -27q0 -8 -2 -12q-72 -42 -145 -58q-112 -44 -215 -162.5t-155 -271.5t-52 -252q0 -473 299 -669h29q38 -30 38 -60q0 -41 -37.5 -60.5t-70.5 -19.5q-20 0 -39 9q-4 5 -11 20t-16 23q-39 10 -79.5 58t-96 127t-67 127 t-23.5 79q-31 92 -31 303q0 54 16 140l30 129q3 16 8.5 48.5t61.5 114.5t108 135v25z" glyph-name="parenleft" horiz-adv-x="881" unicode="("/>
<glyph d="M254 1493h2q11 0 22 12.5t19 12.5q24 0 154 -137.5t175.5 -320t45.5 -249.5q0 -102 -72.5 -370t-259.5 -492q-6 -12 -6 -31v-12q-62 -12 -80 -51q-8 -2 -23 -2q-47 0 -47 45q0 10 11.5 22t21.5 39.5t16 38.5q5 -12 15 -12q8 0 32 34t74 66q51 64 123 273.5t72 306.5v6 q8 68 8 102q0 85 -29 190t-77 199.5t-98.5 144t-95.5 57.5t-47.5 11.5t-2.5 28.5q0 4 4 25q43 43 43 57v6z" glyph-name="parenright" horiz-adv-x="881" unicode=")"/>
<glyph d="M545 1333q10 -17 10 -28q0 -31 -41 -68.5t-98 -48.5q-27 -9 -27 -23q0 -9 45.5 -22t102.5 -13h18q17 0 27 -28l2 -6q0 -17 -21.5 -33t-44.5 -16q-43 0 -149 88q-11 -10 -11 -23q0 -20 18.5 -57.5t18.5 -53.5l-4 -16l2 -33q0 -36 -26 -49h-21q-39 27 -39 70q0 20 5 56.5 t5 51.5q0 13 -4 29q-24 -17 -71.5 -86.5t-98.5 -69.5q-4 0 -14 8.5t-10 24.5q0 23 20.5 43t80 58.5t59.5 56.5q0 15 -88.5 67t-88.5 84q0 7 14.5 27t37.5 20q33 0 70.5 -64.5t62.5 -64.5q14 0 20 13.5t6 19.5l-2 64q0 94 62 94h12q37 0 37 -29q0 -13 -25.5 -57.5 t-25.5 -77.5q0 -15 2 -22q42 15 93.5 64.5t72.5 49.5h6z" glyph-name="asterisk" horiz-adv-x="686" unicode="*"/>
<glyph d="M874 756q23 -26 23 -49q0 -24 -19 -37.5t-20 -28.5q-11 0 -32 -14.5t-25 -14.5q-9 0 -57.5 12.5t-114.5 12.5h-43l-11 2q-13 0 -18.5 -16t-5.5 -78q0 -49 13.5 -107t13.5 -71q0 -3 -15.5 -25t-15.5 -35q-14 0 -27.5 -18.5t-36.5 -18.5q-22 0 -51 21l2 14l-2 49 q0 26 14 45q-6 48 -6 70q0 17 5 34l6 15l4 109l-217 -4q-64 -29 -78 -29q-8 0 -20.5 14t-12.5 25l2 6q12 11 37 41.5t39.5 39.5t45.5 6t46 -3h14l8 14q13 -10 46 -10l47 2l14 -2q21 0 29 14.5t8 61.5q0 32 -10 45v33q6 23 10 51q-14 34 -14 53q0 45 51 45q20 0 39 -6 q24 12 32 12q3 0 11 -4q2 -6 2 -14q0 -34 -11.5 -78t-11.5 -82l2 -72v-30q0 -17 8.5 -22t36 -6.5t35.5 -2.5l6 14q49 -14 70 -14q86 0 86 18l-2 7q5 0 21.5 5.5t27.5 8.5v-14l14 -9q8 6 8 15z" glyph-name="plus" unicode="+"/>
<glyph d="M111 -266q-9 12 -9 22v6q23 111 68.5 254t65 157.5t40.5 14.5q27 0 45.5 -16.5t18.5 -38.5q0 -8 -25.5 -68.5t-67 -122t-50.5 -108.5q-9 -21 -25 -45t-24 -39.5t-37 -15.5z" glyph-name="comma" horiz-adv-x="512" unicode=","/>
<glyph d="M850 522q22 -25 22 -49q0 -23 -19 -36.5t-19 -28.5q-13 0 -33.5 -14.5t-24.5 -14.5q-6 0 -20 4q-68 18 -174 18q-42 0 -115.5 -6t-106.5 -6l-94 2q-35 0 -53 -2q-66 -29 -78 -29q-8 0 -20.5 14t-12.5 25l2 7q12 11 37.5 41.5t39 39t44.5 5.5t47 -3h15l8 15q27 -12 51 -12 q8 0 23.5 2t23.5 2l51 -2l74 2q22 0 100 -4l7 14q49 -14 69 -14q86 0 86 18l-2 6h2q9 0 47 14v-14q0 -8 15 -8z" glyph-name="hyphen" horiz-adv-x="975" unicode="-"/>
<glyph d="M262 221q23 -3 31.5 -31.5t25.5 -53.5t17 -38q0 -39 -23 -71h-4q-6 0 -10 8q-36 -12 -57 -43q-20 15 -37 20q-8 29 -8 70q0 15 -11.5 31.5t-11.5 25.5v4q3 4 12 19t11 16z" glyph-name="period" horiz-adv-x="512" unicode="."/>
<glyph d="M942 1432q0 -24 -24.5 -64t-34.5 -51q-3 -3 -8 -22l-10 -52l-112 -201q-17 -33 -20 -38l-39 -91q-75 -142 -164 -301l-140 -247q-72 -129 -101 -192q-37 -80 -37 -120v-4h-6q-14 0 -30 -39q-25 -64 -48.5 -88t-56.5 -24q-70 0 -70 34q0 9 2 13q30 20 32.5 48.5t26 50.5 t38.5 43.5t56.5 111.5t55.5 112q11 7 20.5 19.5t18 29.5t15.5 39q6 18 19.5 39t35.5 56l49 79v29q63 109 125 197v24q25 25 33 46.5t29 58t21 53.5q0 11 -6 20q8 6 32.5 45.5t24.5 46t21 53.5q20 44 33.5 81.5t21.5 87.5q0 2 28 42t39.5 55.5t50.5 42.5q2 1 11 1 q11 0 68 -14v-10z" glyph-name="slash" horiz-adv-x="985" unicode="/"/>
<glyph d="M684 2q-119 -18 -168 -18q-16 0 -50.5 7t-68.5 11q-30 4 -40 10q-18 10 -35 26q-40 37 -43 39q-38 24 -69 59q-31 37 -55 84q-24 48 -41 107q-17 60 -25 129q-9 71 -9 150q0 81 12 156q12 73 35 142q20 58 34 89l74 152q20 43 73 91q16 14 81 62q35 26 85 37l70 19 q129 24 193 24q22 0 44 -3l18 -3l45 2q73 0 141.5 -31t125 -95t87.5 -142.5t46 -119t24.5 -90t9.5 -103.5q0 -39 -5.5 -85t-15.5 -100t-25 -120q-7 -31 -37 -87t-48 -81l-49 -57q-47 -60 -79.5 -95.5t-56.5 -50.5t-59.5 -41t-53 -30t-59 -23t-49.5 -19q-3 0 -12 21 q-28 -5 -41 -5zM602 1294q-20 -4 -56 -9q-47 -7 -66 -15q-17 -6 -66 -42q-39 -28 -59 -56q-25 -35 -43 -68q-21 -38 -31 -74q-14 -56 -29 -99q-22 -66 -34 -137q-11 -71 -11 -147q0 -292 124 -428.5t265 -136.5q30 0 75 19.5t64 19.5q2 0 23.5 -4t23.5 -4q47 0 144.5 69 t156 224t58.5 325q0 241 -121 402t-291 161h-127z" glyph-name="zero" horiz-adv-x="1360" unicode="0"/>
<glyph d="M602 1436q0 -17 -21.5 -31.5t-30.5 -26.5t-24 -79t-28 -188.5t-13 -279.5l4 -253l-2 -62l5 -92q0 -26 -5.5 -66t-5.5 -55q0 -67 39 -209q-8 -16 -16 -20q32 -22 28 -38t-4 -22v-6q-43 -8 -71 -8l-78 4q-12 0 -39 -4q-1 6 -6.5 17.5t-5.5 19.5q0 4 6 29q47 179 47 391 l-8 448q0 67 3 147l3 68q0 6 -9.5 33t-27.5 27q-5 0 -27.5 -11.5t-42.5 -38.5v-16q-11 0 -28 -10q-3 -15 -35 -43t-45 -82l-27 8q-11 0 -36 -13t-38 -13l-10 2q-6 -6 -8.5 -11.5t-3.5 -5.5q-2 0 -13.5 23t-11.5 37q0 10 4 16q49 24 68 59q2 10 6 24.5t4 18.5l-2 6 q32 13 43 13q5 0 25 -4q2 -2 4 -2q3 0 14 9t54.5 33.5t60.5 41.5q144 178 156 178q7 0 10 -13q43 55 133 68l6 -16v-2z" glyph-name="one" horiz-adv-x="770" unicode="1"/>
<glyph d="M1044 174q3 -10 3 -27q0 -23 -19.5 -69.5t-19.5 -59.5v-10q0 -4 -2 -4q-5 0 -21 9t-33 12q-10 8 -16 16q-6 -13 -24 -9t-35 11.5t-80.5 11.5t-132.5 4q-109 0 -230.5 -13t-206.5 -30.5t-106 -29.5q-8 -2 -23 -2q-32 0 -50.5 31.5t-18.5 41.5q0 14 11 28.5t53 42.5l57 38 q9 16 56 21t70 10q-4 50 -4 55q0 8 2 10h7q7 0 7.5 -15t8.5 -22q232 158 393.5 364.5t161.5 379.5v4l4 67q0 31 -9.5 62t-28 60t-44.5 55t-59.5 46.5t-59.5 30t-184 9.5q-17 0 -37.5 -11.5t-30.5 -11.5h-8q-103 -52 -104 -86q-15 -11 -19 -16q-5 4 -24 4q-18 0 -27 -29 q-4 -2 -10 -2q-20 0 -35.5 24t-15.5 60q0 46 30.5 62.5t105 29t152 39.5t175.5 27q35 0 50 -5.5t29 -5.5h23q91 0 171.5 -85.5t80.5 -221.5q0 -193 -154.5 -411t-472.5 -478q2 -4 2 -10q0 -5 -2 -13t-2 -11q0 -24 25 -18l428 18l49 -5q37 0 50.5 9.5t23.5 9.5l20 -2 q4 0 10 10q31 12 47 12t43 -12z" glyph-name="two" horiz-adv-x="1149" unicode="2"/>
<glyph d="M934 1325q0 -27 -109 -98q-12 -6 -20 -32t-24 -38q-35 -24 -64 -57q-133 -148 -292 -259q-34 -24 -34 -28q0 -5 13 -11.5t20 -10.5q32 4 49 4q54 0 172.5 -45.5t177 -132t58.5 -218.5q0 -116 -121.5 -255.5t-356.5 -139.5l-112 6q-24 0 -47 -14q-11 -2 -39 -2 q-55 0 -123 18q-23 25 -23 80q0 9 6.5 31t22.5 22q3 0 14 -4l-2 -2q0 -6 18 -3t29 3q6 0 18 -4t19 -4q33 0 45 -6q99 -49 211 -49q121 0 178 24t96.5 107t39.5 182q0 142 -94 217.5t-273 75.5q-49 0 -55 -2l-78 -25q-26 -25 -51 -37q0 21 -10 25l-7 -16q-34 22 -34 51 q0 25 22 59t53 39q17 40 84 55q180 108 284.5 216.5t104.5 162.5q0 64 -127 64q-144 0 -277.5 -33t-141.5 -33q-18 0 -31.5 22.5t-13.5 57.5q0 71 65 72q-1 -11 49.5 -12t95 -6t101.5 -5q140 0 274 15q9 34 33 34q10 0 18 -20q51 35 86 35q27 0 65 -16t38 -50v-10z" glyph-name="three" horiz-adv-x="993" unicode="3"/>
<glyph d="M1090 416q16 -19 16 -43q0 -15 -28.5 -61t-43.5 -46q-10 0 -18 8q-13 -18 -29 -18l-14 2l-10 -2q-11 0 -26.5 11.5t-23.5 11.5l-45 -3q-14 0 -41 6.5t-32 6.5l-7 -2h-8q-23 0 -32 -16.5t-9 -84.5q0 -121 39 -139v-8q0 -49 -78 -49h-14q-4 -2 -14 -2q-8 0 -23.5 3.5 t-23.5 4.5v4q0 7 12 81t16 177q-49 31 -102 31q-23 0 -67 -5t-66 -5h-10q-15 2 -41 2l-58 -7h-22q-60 0 -82 -16q-31 -6 -45 -6q-11 0 -40 3t-48 3h-23q-4 27 -4 53q0 24 20 63t58 81q194 269 306.5 443.5t270.5 485.5q4 8 17.5 5t27.5 -5q13 8 14 28.5t7 27.5l-2 -8 q0 -7 13.5 -16l19.5 -13q9 12 26 12q37 -33 37 -51q0 -4 -4 -12q-69 -57 -168 -196l-223 -313q-123 -174 -195.5 -295.5t-72.5 -154.5q0 -8 8 -15.5t19.5 -4t17.5 3.5q7 0 22 -12l21 24q11 -3 21 -13.5t13 -10.5l73 8q34 3 90.5 3.5t91.5 2.5t71 10q33 47 33 201 q0 61 -9.5 132t-9.5 89q0 58 8 74.5t33 40.5q-14 11 -14 28q53 -30 66 -30q6 0 8 2q21 15 43 18l10 -26q-45 -264 -45 -408q0 -56 10 -121q21 -4 64 -4l102 4q60 0 70 23q11 -1 31.5 -5t27.5 -4q8 0 17 13z" glyph-name="four" horiz-adv-x="1167" unicode="4"/>
<glyph d="M913 1358q-18 -55 -31 -96t-46 -41h-9q-2 10 -24 17t-34.5 14.5t-23.5 7.5q-8 0 -27.5 -5t-31.5 -6q-24 19 -68 19l-28 -6q-36 -7 -70 -7l-129 5q-38 0 -90 -9q-45 -90 -45 -198q0 -4 5 -43.5t5 -98.5v-2q0 -8 16.5 -18t34.5 -10l97 2q225 0 341.5 -97.5t116.5 -283.5 q0 -220 -132 -364t-404 -144q-71 0 -120.5 11t-53.5 11q-3 0 -15 -4q-51 39 -51 70q0 16 20.5 55t90.5 51q8 -12 23 -23.5t16 -17.5q8 -2 30.5 -16t28.5 -14l8 2q14 0 28.5 -12.5t23.5 -12.5h6q32 -8 88 -8q168 0 244.5 104.5t76.5 241.5q0 168 -94.5 262t-263.5 94 q-77 0 -170.5 -32.5t-128.5 -32.5q0 30 17.5 82.5t21.5 75.5q17 0 28 14q-12 -6 -16 -6q-8 0 -8 10q0 8 8 41q29 123 29 229l-6 52l2 30q0 16 -3 41.5t-3 34.5q0 28 18 53t37 25q8 0 18.5 -11.5t16.5 -15.5t80 -14t178 -10q59 0 170 8t116 20h13l41 2q27 0 32 -26z" glyph-name="five" horiz-adv-x="1026" unicode="5"/>
<glyph d="M625 854q7 -7 32 -29q117 -21 181.5 -111t64.5 -231q0 -47 -15 -97q-14 -50 -43 -99q-29 -50 -71 -95q-43 -48 -97 -87q-22 -17 -33 -21l-33 -14q-35 -25 -78 -43q-46 -19 -98 -28q-41 -7 -56 -7l-66 8l-6 -2q-35 0 -97.5 34.5t-110.5 123t-48 196.5q0 68 33 209.5 t90 231.5q-10 13 -10 26q124 214 296 443q72 97 72 114q0 7 -2 8q22 41 54 41h14q12 0 30 4.5t25 4.5l49 -25h3q0 -5 4 -19.5t4 -23.5q0 -11 -28.5 -33.5t-31.5 -58.5l-22 -8v-17l-17 2q-57 0 -115.5 -82.5t-58.5 -115.5q-2 -5 -14.5 -11.5t-19.5 -13.5q-21 -62 -66 -117 q9 -1 13.5 -15t11.5 -19q46 -8 135.5 -12.5t124.5 -10.5zM467 88q89 0 138.5 17.5t94.5 93.5t69 142.5t24 107.5t-17 89.5t-30 71.5q-27 47 -32 58q-14 29 -49 51.5t-96 43.5q-81 28 -112 28t-54 -15q-56 -19 -106 -29t-91.5 -110t-41.5 -221l5 -60q2 -27 11 -62.5t25 -60 t29 -40.5l35 -35q18 -18 51 -38t64 -26t83 -6z" glyph-name="six" horiz-adv-x="1014" unicode="6"/>
<glyph d="M66 1341q23 37 81 37q21 0 58 -4q23 -14 45 -14l45 2q13 0 44.5 -7t53.5 -7l123 4l100 -2q155 0 213.5 26.5t92.5 26.5q8 0 23.5 -2t23.5 -2l12 2q20 0 20 -25q0 -11 -14 -33t-14 -32q0 -7 2 -11q-8 -11 -33 -14q-33 -43 -83 -136l-302 -580q-33 -60 -108 -248l-64 -154 q-16 -37 -23 -55q-8 -22 -8 -33q0 -9 2 -10q-8 -27 -29.5 -62t-21.5 -49v-4q-19 -41 -37 -41q-7 0 -23 9t-49.5 32t-33.5 57q0 41 39 97q30 30 75 118t162 292.5t267 516.5q20 59 45.5 119.5t25.5 69.5q0 22 -14 22q-2 0 -10 -4q-102 39 -211 39q-52 0 -112.5 -10t-76.5 -10 l-41 2q-36 0 -96 -23l-57 -22h-13q-44 0 -63 20.5t-19 71.5z" glyph-name="seven" horiz-adv-x="1036" unicode="7"/>
<glyph d="M715 711q113 -27 130.5 -50t50.5 -47t57 -61.5t24 -120.5q0 -184 -133 -312t-332 -128q-3 0 -20 4t-19 4q-6 0 -12 -6t-10 -6q-164 0 -264.5 77.5t-100.5 196.5q0 129 47 199v20q98 143 213 187q-55 8 -102.5 34t-88.5 70q-60 63 -66 97q-7 45 -7 77q0 191 136 314.5 t327 123.5l41 -8q4 0 11 5.5t13 7.5l27 2q46 0 105.5 -19.5t62.5 -20.5q36 -10 81.5 -52t67 -86.5t21.5 -92.5q0 -29 -3.5 -56.5t-10 -53.5t-15.5 -49l-20 -46v-20q-104 -154 -211 -184zM674 774l8 -2q34 0 100 75.5t66 223.5q0 117 -43 158t-75 52t-42.5 19t-51 19.5 t-79.5 11.5q-113 0 -155 -30q-6 -5 -9 -5q-1 0 -3.5 2t-4.5 2q-85 -63 -124.5 -152t-39.5 -122q0 -157 40 -202.5t95.5 -78t135.5 -32.5q85 0 125.5 22.5t46.5 22.5h2q4 2 8 16zM674 76q77 43 127.5 138.5t50.5 182.5q0 67 -33.5 129t-88.5 93.5t-91 31.5l-37 -4l-47 4 q-46 0 -72 -12q-3 4 -8 4q-7 0 -31 -10.5t-41.5 -11.5t-17.5 -17q-57 0 -109.5 -91.5t-52.5 -182.5q0 -97 24 -149.5t84.5 -96t129.5 -43.5l26 2h15q47 0 87.5 7t47.5 7q14 21 29 21q6 0 8 -2z" glyph-name="eight" horiz-adv-x="1090" unicode="8"/>
<glyph d="M631 559q-21 4 -31 4q-28 0 -81 -16.5t-81 -16.5q-16 0 -95.5 16.5t-132.5 61t-87.5 121t-34.5 166.5q0 53 10 94l24 78q12 51 26 69q59 73 88 104q42 46 74 66l69 34q34 22 75 34q43 13 96 14l93 15q92 0 206 -89t114 -315q0 -50 -12 -112q-13 -77 -46 -156 q-39 -97 -81 -182q-41 -82 -84 -151q-42 -68 -84 -123q-42 -53 -84 -93l-53 -66q-14 -16 -41 -37q-33 -25 -36 -46q-86 -119 -116 -137h-9q-15 0 -40 16.5t-41 19.5q-52 18 -52 50q0 12 14.5 28t85.5 63q139 92 286 255t214.5 316.5t67.5 324.5q0 121 -38.5 200 t-118.5 116.5t-152 37.5q-36 0 -63 -5q-29 -5 -52 -16l-57 -24q-31 -13 -58 -37t-49 -56q-22 -33 -37 -73q-16 -41 -24 -88q-8 -49 -8 -102q0 -34 2 -52q16 -6 16 -18v-14q0 -26 18.5 -61t41 -63t48.5 -47.5t39 -19.5h48q8 0 9 -13t9 -13l37 6q15 0 46 -3t48 -3h12 q11 12 24 21t38 9l16 4q21 4 32 8.5t13 4.5q5 0 11 -7t6 -16q0 -22 -33 -43q0 1 -14 4q-28 -9 -31 -47z" glyph-name="nine" horiz-adv-x="1040" unicode="9"/>
<glyph d="M258 727q23 -2 31.5 -30t25.5 -53t17 -44q0 -30 -23 -65h-4q-6 0 -10 8q-40 -17 -57 -45q-25 16 -37 22q-8 33 -8 70q0 14 -11.5 30t-11.5 25v6q14 17 23 35zM309 182q2 -68 16.5 -96t14.5 -31l-23 -39l-65 -41q-23 2 -31.5 30.5t-25.5 52.5t-17 44q0 37 23 66 q12 0 14 -8q40 15 57 45q18 -15 37 -23z" glyph-name="colon" horiz-adv-x="512" unicode=":"/>
<glyph d="M254 727q22 -2 31 -30.5t26 -52.5t17 -42q0 -32 -23 -67h-4q-7 0 -10 8q-40 -17 -58 -45q-12 10 -36 22q-9 33 -9 70q0 14 -11 30t-11 25v6q14 17 22 35zM111 -266q-9 12 -9 22v6q23 111 68.5 254t65 157.5t40.5 14.5q27 0 45.5 -16.5t18.5 -38.5q0 -8 -25.5 -68.5 t-67 -122t-50.5 -108.5q-9 -21 -25 -45t-24 -39.5t-37 -15.5z" glyph-name="semicolon" horiz-adv-x="512" unicode=";"/>
<glyph d="M528 397q-3 -56 -36 -102l-15 10q-30 -10 -45 -22h-6q-12 0 -21 20t-14 29q-340 309 -340 368q0 9 6 15q122 88 235 208t153.5 150.5t68.5 30.5q8 0 14 -19q-11 -32 -37 -64t-120.5 -99.5t-139.5 -116t-45 -57.5v-3h2q8 -54 45.5 -98t99 -98t88.5 -81.5t40 -27.5 q5 0 14 4.5t12 4.5h5q17 -54 28 -54q4 0 8 2z" glyph-name="less" horiz-adv-x="614" unicode="&lt;"/>
<glyph d="M872 940q25 -24 25 -39l-2 -6q-12 -11 -43.5 -48t-45 -37.5t-37.5 1.5t-42 2h-14l-8 -14q-33 14 -63.5 11t-59.5 -3l-101 -2q-31 0 -102 4l-4 -12q-40 14 -72 14q-84 0 -84 -18q0 -5 2 -7q-5 0 -21.5 -5.5t-27.5 -8.5v14l-14 7q-11 -7 -11 -13v-2q-22 32 -22 53 q0 20 19 34t20 28q12 0 34 14.5t25 14.5q6 0 19 -3q93 -22 176 -22q32 0 106 6t117 6h94q35 0 51 2q70 31 78 31zM874 625q21 -27 21 -50q0 -22 -18 -36.5t-19 -28.5q-12 0 -31 -12.5t-28 -16.5q-136 25 -195 25q-37 0 -110.5 -7t-110.5 -7l-94 2q-35 0 -53 -2 q-66 -29 -78 -29q-7 0 -20 14.5t-13 24.5l2 6q60 71 71 78.5t31 7.5q12 0 33 -3t31 -3q24 0 24 18q28 -12 52 -12q8 0 23.5 2t23.5 2l51 -2l74 2q24 0 102 -4l4 12q43 -12 70 -12q86 0 86 18l-2 6h2q6 0 22 6t25 9v-15q0 -8 12 -8t12 15z" glyph-name="equal" unicode="="/>
<glyph d="M123 1094q5 -9 14 -9q8 0 24.5 10.5t24.5 10.5q14 0 22.5 -19.5t14.5 -29.5q35 -29 73 -64.5t79.5 -77.5t86 -90.5t70.5 -79t26.5 -36t0.5 -13.5q0 -14 -2 -22q-117 -83 -226.5 -198.5t-137.5 -139.5t-46.5 -36.5t-48.5 -12.5q-12 0 -12 18q0 13 19.5 41t39 46.5t40 33.5 t80.5 57t111.5 94.5t51.5 63.5v2h-2q-4 66 -105 158l-161 147h-8q-14 0 -29 -8l-12 38q-5 15 -15 15q-6 0 -10 -2q3 57 37 103z" glyph-name="greater" horiz-adv-x="614" unicode="&gt;"/>
<glyph d="M330 1399q57 57 80 57q12 0 40 -26l74 -70q47 -43 64.5 -95.5t17.5 -80.5q0 -81 -44.5 -164.5t-122.5 -183.5t-121.5 -176.5t-43.5 -124.5q0 -57 38.5 -102.5t47.5 -59.5v-4q0 -11 -11 -28.5t-13 -29.5q-33 -3 -39 -18q-4 -2 -8 -2q-5 0 -8 12q-15 -18 -31 -18 q-19 0 -30 15.5t-23.5 83.5t-12.5 89q0 63 35 140t131 206t120 192t24 117q0 26 -4 47.5t-35 71.5q-51 42 -125 119v33zM281 154q75 -53 75 -84q0 -26 -29 -55t-53 -29q-11 0 -50.5 28.5t-39.5 53.5v6q40 32 41 39q18 35 56 41z" glyph-name="question" horiz-adv-x="688" unicode="?"/>
<glyph d="M762 1321q9 9 16.5 15.5t27.5 11.5l103 27q52 14 88 17q59 4 82 7l76 12q27 0 61.5 -8t45.5 -8h12q41 0 98 -12q53 -10 94 -25l59 -23q30 -8 42 -15q16 -8 59 -69q34 -48 56 -98q23 -50 35 -102q12 -53 12 -107q0 -139 -76.5 -317.5t-225.5 -273.5t-274 -95 q-133 0 -162 72l-24 61v23l2 94l-15 12q-193 -254 -358 -254h-25q-59 22 -71.5 54t-12.5 61v10q0 133 68 258.5t172 200t179.5 104t92.5 29.5l31 -2q7 0 33 16l14 -4q7 11 23 11h8l18 18q-1 58 84 70q8 -14 27 -23v-8q0 -50 -27 -88q-20 -17 -20 -47v-6q-15 -31 -33.5 -99.5 t-34 -103t-31.5 -116t-16 -124.5q0 -34 2 -47q-2 -3 -2 -14q0 -24 21.5 -49t75.5 -32t59 -7q74 0 178 67q42 45 51 45h2q140 163 140 492q0 121 -78 235t-240 143t-242 29q-2 0 -20.5 -10.5t-34.5 -28.5q-18 -6 -39 -6h-37q-38 0 -56 -15t-21 -15q-3 4 -9 8q-9 0 -18 -6v-15 h-4q-4 0 -8.5 7t-14.5 8q-9 -5 -41 -14t-51 -18.5t-37 -21t-53 -16.5q-10 -8 -64 -59.5t-80 -71t-30 -47.5q-92 -74 -156.5 -228.5t-64.5 -306.5q0 -68 22 -125.5t54 -70.5l-5 -21q28 -40 63 -71t100 -52l113 -37q49 -15 120 -25.5t149 -10.5h58q65 13 114 22.5t62 15 t24 5.5q23 0 23 -13q0 -6 -13 -24q-239 -92 -358 -92q-71 0 -168 12t-127 12q-13 0 -24 23q-27 12 -71.5 25.5t-48 23.5t-7.5 15.5t-4 6.5q-73 13 -132 96t-59 224q0 307 221 577q9 11 19 34.5t35.5 38t29.5 24.5q115 117 254 177q57 24 64 42q15 6 24 6l13 -2zM1018 713 q11 8 13.5 20t8.5 30.5t15.5 56t9.5 44.5q0 32 -4 35.5t-14 3.5q-30 0 -50 15q-29 -15 -69 -22.5t-28 -19.5q2 -2 3 -4q-52 -2 -99.5 -33.5t-122.5 -169t-75 -198.5q0 -15 3 -36t3 -27l2 -23q21 -37 43 -37q26 0 68.5 24t56 28t93.5 85.5t90 100.5t53 127z" glyph-name="at" horiz-adv-x="1817" unicode="@"/>
<glyph d="M909 1386q80 -276 504 -1187q57 -85 57 -144q0 -14 -9.5 -25t-70 -29t-79.5 -26q-15 18 -15 35q0 15 4 34l5 15q0 33 -32.5 136t-111.5 262q-8 4 -16.5 22.5t-42.5 18.5q-19 0 -37 -19q-3 8 -42 15l-30 8h-30q-102 0 -141.5 -11.5t-41.5 -11.5q-14 0 -22 15 q-62 -17 -91.5 -13t-58.5 4q-66 0 -122.5 -15.5t-73 -16t-31.5 -25.5l-14 10q-102 -211 -152 -332q-6 -75 -31.5 -127.5t-46.5 -52.5h-2q-34 14 -139 33q-16 3 -16 18q0 33 35 61.5t40 43.5q33 62 60 86q36 43 90.5 141.5t89.5 132.5q1 44 95.5 189t163.5 272t77 137 q139 199 139 271v4q23 0 23 10v10q0 37 49 80l14 -6q26 33 41 33q18 0 18 -27q0 -16 -6 -29zM958 565q28 8 58 8q69 13 69 39q0 2 -116 296t-152 294q-25 0 -97.5 -139t-162.5 -285.5t-90 -179.5q0 -23 30 -31t35 -8l19 2q17 0 46 -5t40 -5q24 0 78.5 8t68.5 8t34 -4t26 -4 q14 0 20 14q25 -8 45 -8l31 2q11 0 18 -2z" glyph-name="A" horiz-adv-x="1542" unicode="A"/>
<glyph d="M659 823q178 -62 255 -146.5t77 -230.5q0 -207 -203 -354h-22q-18 -19 -36.5 -31t-22.5 -12q-5 0 -9 8q0 -5 -23.5 -17t-93 -23t-71.5 -11q-17 0 -23 2l-22 -22l-29 10q-13 -10 -28 -10t-21 4q-25 -3 -88 -3.5t-94 -4.5q6 12 6 38l-2 35l13 110q7 55 9.5 111t3.5 111 t1 125v70l10 397q0 187 -16.5 273t-16.5 106q0 59 78 59l20 21q26 -17 58 -27q183 -10 284.5 -34t153 -90.5t51.5 -172.5v-12q-31 -151 -199 -279zM514 850q8 2 23 2l28 -2q25 0 93.5 73.5t68.5 157.5q0 31 -6 59t-18 54.5t-29.5 51t-38 41.5t-35.5 21l-99 28q-47 14 -63 14 q-56 0 -72 -46.5t-16 -162.5l10 -215q0 -67 5.5 -90t29.5 -23l13 2l24 -4q23 0 33 18l22 -2l21 2zM516 57q10 -2 29 -2q60 0 147 52t137 142.5t50 188.5q0 118 -100 206.5t-273 98.5q-8 -5 -29 -22q-26 29 -59 29q-64 0 -64 -103l2 -80q0 -25 -6 -64.5t-6 -53.5q0 -17 4 -54 t4 -57q0 -26 -4 -74t-4 -71q0 -15 5 -41l5 -25l-4 -25q0 -47 62 -47q19 0 45.5 -9t38.5 -9z" glyph-name="B" horiz-adv-x="1094" unicode="B"/>
<glyph d="M1192 -61q0 -25 -35 -25l-104 15q-209 22 -280 35q-112 21 -182 42q-97 30 -179 77q-80 45 -140 101q-56 55 -99 125q-41 68 -62 143q-21 76 -21 162q0 101 60.5 253.5t81 190.5t103 122t223.5 152q50 24 50 36q26 11 72 11.5t83.5 15t121.5 14.5q38 0 68.5 -6.5t80 -13 t76 -11t45.5 -13t19 -19.5q0 -14 -21 -76t-55 -62q-18 0 -39 13q-44 49 -122.5 68.5t-105.5 19.5q-22 0 -63 -4l-59 -4q-12 -1 -21 -3q-23 -2 -33 -8q-18 -10 -33 -17t-28 -10t-25 -3h-10l-14 -15q-29 0 -51 -22h-21q-262 -269 -262 -561q0 -170 104 -314.5t282.5 -217.5 t365.5 -73q34 0 109 13t75 28q45 -1 45 -155v-4z" glyph-name="C" horiz-adv-x="1274" unicode="C"/>
<glyph d="M915 1350q161 -69 249.5 -209.5t88.5 -315.5q0 -66 -17 -133q-18 -67 -52 -133t-84 -129t-113 -119q-65 -58 -141 -107q-79 -51 -167 -91l-70 -46l-88 -28q-69 -23 -70 -23q-7 0 -19 4q-6 -10 -20 -19t-17 -9h-28q-9 -19 -33.5 -30t-36.5 -11q-9 0 -29.5 3t-31.5 3h-7 q-22 0 -22 47q0 6 6 35q35 178 35 379l-4 305l2 301q0 116 -6.5 165t-6.5 136q0 33 3 39q16 6 16 20h35l6 17q55 -31 117 -31q20 0 35 3l28 5q6 0 28.5 -4t30.5 -4l24 4q33 4 67 4q104 0 175.5 -10.5t71.5 -17.5q12 -4 17 -4q6 0 28 4zM381 195q-4 -24 -4 -35q0 -74 39 -74 q64 0 145.5 28t163.5 82q44 29 76.5 43t120.5 100q57 56 99 118.5t69 132.5q40 103 40 147q0 152 -34.5 259.5t-118 182.5t-189.5 100.5t-321 25.5l-8 -21h-8q-15 0 -27 6q-66 -65 -66 -571l9 -496l-2 -8q0 -14 16 -20z" glyph-name="D" horiz-adv-x="1346" unicode="D"/>
<glyph d="M408 1368q10 0 44.5 -4t63.5 -4l229 4l89 -4q21 0 75 7t88 7q54 0 54 -28q0 -2 -7.5 -41t-23 -48.5t-45.5 -9.5q-8 0 -60 4q-75 45 -327 45q-44 0 -107 -2.5t-73 -7t-21 -12.5q-12 -47 -25.5 -171t-13.5 -140q0 -46 14 -85.5t16.5 -66.5t47.5 -27h16q11 0 13 -2 q0 -1 14 -9.5t33 -8.5t59 4t60 4q5 0 18 -2t20 -2q29 0 46 14l54 -5q17 9 113 16q2 -6 2 -19q0 -9 -2 -26.5t-2 -26.5q0 -15 2 -21q-14 -45 -77 -45q-17 0 -57 14.5t-83 14.5l-59 -2q-22 0 -77 5t-89 5h-29q-27 -17 -37 -29.5t-21 -75t-11 -132.5q0 -50 8 -152.5 t11.5 -156.5t6.5 -56.5t13.5 -6.5t15.5 -9l59 -2q50 0 139 7l87 7l28 -3q13 -1 35 -1q85 0 252 35q30 16 41 16q12 0 12 -20l-10 -39l2 -35q0 -36 -17 -44.5t-69 -8.5q-38 0 -121 6q-88 16 -174 16l-250 -4h-34q-17 10 -21 10q-7 0 -11.5 -6t-13.5 -3t-14 3q-14 0 -26 -12 q-26 -3 -41 -19h-7q-17 0 -28 15q10 13 10 24l-2 17q0 13 6 22q-4 2 -4 8q0 5 3 29q20 168 20 346l-2 201l4 141v49l2 265q0 97 -6 168q-17 59 -17 73q0 10 10 16.5t86 26.5l4 13l17 -9l14 4q27 0 58 -18z" glyph-name="E" horiz-adv-x="1112" unicode="E"/>
<glyph d="M422 1356l332 8l90 -4q22 0 76 11t86 11q69 0 69 -63q0 -13 -5.5 -24t-16 -20t-20.5 -10l-31 -2q-21 -1 -37 -1q-4 0 -23 3q-156 31 -342 31q-41 0 -106.5 -2.5t-75 -7t-21.5 -12.5q-30 -128 -30 -201v-12q-13 -77 -13 -127q0 -36 6 -60l12 -44q4 -20 17 -34t33 -14l24 2 q15 0 20 -9t58 -9q34 0 65.5 3.5t48 1t24.5 -2.5q29 0 47 14l52 -5q18 9 113 16q17 -19 17 -45q0 -27 -20.5 -51.5t-135.5 -24.5q-48 0 -158 10t-174 10q-36 -21 -36 -37q0 -4 2 -6q-27 -94 -27 -213l8 -170q0 -38 -10 -43q12 -26 22.5 -80.5t10.5 -83.5q0 -31 -16 -47 t-27 -16q-9 0 -19 12q-9 -12 -35 -22q-5 2 -30 8q-41 9 -41 51q0 10 5 30l5 17l-2 33q0 6 7 23t8 30q10 102 10 234l-2 155l8 457q0 131 -8.5 181.5t-8.5 70.5q0 41 15 84q41 12 84 18l6 13l14 -9l14 4q21 0 62 -30z" glyph-name="F" horiz-adv-x="1075" unicode="F"/>
<glyph d="M1294 1341q33 -20 33 -92q0 -80 -49 -80q-11 0 -27 7q-15 18 -47.5 43t-60.5 35l-64 24h-18q-32 0 -99 13.5t-100 13.5q-49 0 -138.5 -15.5t-164.5 -42.5q-19 -19 -53 -40l-32 -18q-16 -10 -32 -28h-22q-78 -43 -151.5 -203.5t-73.5 -291.5q0 -160 95.5 -292t268.5 -206 q10 0 31 -18q49 -41 293 -78l22 20q21 -10 37 -10q7 0 21 10q20 0 28 -14q34 12 56 12q7 0 38 -4q3 9 15 20q12 65 12 115v15l2 139q0 66 -14 160q-17 29 -17 45q0 41 27 41l94 -3q19 0 27 9q24 0 24 -21q0 -2 -3 -16q-29 -122 -29 -287q0 -66 26 -217q-18 -20 -20 -23 q-7 -19 -18 -55.5t-40 -38.5q-13 12 -43 23q-8 -2 -18 -2q-7 0 -42 -3t-40 -6t-22 -20h-7q-8 0 -41 -3t-61 -3q-49 0 -76 6l-43 10q-2 0 -11 -5t-17 -5h-5q-15 14 -28 23q-124 0 -285 97t-250.5 220.5t-89.5 325.5q0 125 49.5 264t75.5 139h2v4q0 7 3 16t3 13v4q19 2 37 20 v23q143 161 327.5 222t323.5 61q10 0 113.5 -11.5t181.5 -26t84 -14.5h2z" glyph-name="G" horiz-adv-x="1430" unicode="G"/>
<glyph d="M1202 1276q-2 5 -2 20q0 32 58 60t65 28h8q17 0 29 -16.5t12 -40.5q0 -15 -6 -31q-23 -8 -23 -59l5 -186q0 -399 -12.5 -639.5t-12.5 -247.5q0 -46 33 -76q-5 -29 -8 -49.5t-9 -22.5q-31 -5 -69.5 -25t-50.5 -20q-8 0 -27 17l-12 71q43 84 43 220v34l2 318q0 8 -13 26 t-29.5 21.5t-39.5 3.5l-51 -6h-107q-172 0 -214.5 -3t-62 -10.5t-22.5 -7.5q-16 0 -24 15q-40 -15 -72 -15l-80 4q-156 0 -156 -53v-24l-2 -80l2 -88l-4 -154q0 -58 14.5 -129t14.5 -94l-2 -39l-35 -23q-35 17 -78 17q-23 0 -33 -2q-11 12 -18 12q-2 0 -4 -2q-4 16 -4 31 q0 3 2 26q24 194 29 446l10 498l6 170q0 98 -31 211l-14 15q12 0 12 12v14q0 17 12 19q33 39 68 39q33 0 96 -29q-45 -529 -45 -580q0 -6 2 -30.5t2 -26.5l-2 -10q0 -26 28 -48t58 -22h13q15 0 45.5 -5t44.5 -5q8 0 77 9t101 9q89 0 156 -4t69 -4q13 0 19 15q41 -11 77 -11 h97q10 11 20 11q37 5 52.5 28.5t15.5 36.5v57l2 197v47q0 154 -25 160z" glyph-name="H" horiz-adv-x="1577" unicode="H"/>
<glyph d="M301 -2q-96 9 -96 41q0 10 7 22t12 28.5t13 111.5t14.5 289t6.5 413l-14 328v2q0 8 -8.5 23t-8.5 22q0 3 17 39t60 48.5t48 12.5q10 0 13.5 -11.5t9.5 -14.5q20 -17 20 -58q0 -3 -3 -23q-25 -167 -25 -370l2 -76l-9 -413q0 -186 25 -270.5t25 -118.5q0 -15 -28.5 -27 t-47.5 -12h-6q-19 0 -27 14z" glyph-name="I" horiz-adv-x="614" unicode="I"/>
<glyph d="M598 1376q2 -8 2 -22q0 -10 -6 -47.5t-6 -67.5q0 -31 10 -144t10 -206q0 -205 -55 -396.5t-136 -292t-265 -247.5q-35 -19 -35 -33v-2q-32 -22 -47 -22q-12 0 -18.5 9t-14.5 70q-37 15 -37 62q0 17 25.5 29.5t121.5 31.5q80 40 81 40q40 18 92.5 84.5t83.5 141.5 t49.5 166.5t26 200t7.5 244.5q0 131 -24 285q-19 61 -19 73q0 9 2 10q0 27 27 35l65 19q38 12 46 12q3 -3 3.5 -15t10.5 -18z" glyph-name="J" horiz-adv-x="793" unicode="J"/>
<glyph d="M248 1288q-6 7 -6 10q0 16 25.5 38.5t66.5 36.5l37 13h6q15 0 26 -17t11 -44q0 -6 -4 -27q-23 -21 -23 -55v-41q0 -433 -11 -690t-11 -264q0 -23 5 -77.5t5 -88.5q0 -42 -14.5 -69t-34.5 -27q-5 0 -17 4t-20 4q-5 0 -15 -3t-22 -3q-47 0 -47 53q0 6 4 31q29 30 45 151.5 t16 554.5q0 315 -22 510zM1311 174q35 -13 35 -47q0 -58 -30.5 -95.5t-76.5 -37.5t-83 54.5t-183.5 159t-266 198t-217.5 131.5q-75 43 -75 77q0 18 16 41q53 40 82 80q24 9 47 13q17 14 45.5 36t31.5 27q20 34 105.5 146.5t141.5 190.5l139 200q41 10 68 10q23 0 32 -2 q8 -17 8 -37v-8q0 -20 -14 -43q-61 -41 -145 -129q2 -18 -67 -99l-84 -103l-66 -94l-44 -40q-18 -16 -28 -26t-12 -13q-10 -22 -27.5 -49t-17.5 -39q0 -41 30 -71.5t94.5 -76.5t110 -80t63.5 -46t50.5 -42t48.5 -43q35 -15 50 -29t29.5 -22t24.5 -22q9 -4 24 -9t19 -8v-2 q0 -17 56 -36t67 -19q7 0 19 4z" glyph-name="K" horiz-adv-x="1346" unicode="K"/>
<glyph d="M995 106q17 -21 17 -53q0 -40 -12.5 -59t-26.5 -19q-13 0 -47.5 6.5t-34.5 18.5l-8 -14h-6q-9 0 -18.5 12.5t-12.5 15.5q-71 -12 -158 -12h-190q-41 0 -117 -4q-28 -23 -33 -23h-2q-27 17 -76 17l-32 -2q-7 -4 -15 -15q-18 19 -18 41q0 18 8 45q16 28 16 99v26 q17 115 17 316l-2 368q0 25 4 68.5t4 62.5l4 115q0 53 -15 113t-18 76l-14 14v6q0 68 72 68q55 0 91 -26.5t36 -66.5q-39 -54 -39 -163l2 -93q0 -30 -7.5 -87t-7.5 -85q0 -17 4.5 -59.5t4.5 -67.5l-5 -133v-180l-10 -207q0 -72 23 -125q22 -2 51 -2q4 -9 100.5 -16.5 t139.5 -7.5q115 0 174 26q4 -4 6 -4q5 0 24.5 7.5t36.5 7.5l25 -5h65z" glyph-name="L" horiz-adv-x="1012" unicode="L"/>
<glyph d="M1507 1436q17 -22 17 -35v-39q0 -99 18.5 -296t46.5 -396t55.5 -363.5t31 -191t18.5 -47.5q16 -33 16 -43q0 -19 -35 -19h-8l-22 -29q-22 -6 -55 -10t-40 -10q-3 0 -7 12q-3 11 -6 35q-3 23 -5 58l-7 188q-2 113 -7 148q-18 115 -34 240l-22 195q-20 172 -32.5 239.5 t-36.5 80.5q-379 -739 -379 -774q0 -5 4 -25q-9 -13 -17 -30q9 -11 9 -23q-60 -59 -72 -108q-15 -15 -27 -15q-7 0 -42.5 30t-45.5 83q-7 4 -13 11t-11 17q-4 9 -8 22l-6 28q-3 15 -5 34l-50 107l-96 220q-107 254 -165 366q-8 -7 -15 -15.5t-15 -57.5q-23 -128 -59 -298 l-49 -240q-26 -132 -34 -254q-1 -13 -9.5 -40.5t-8.5 -43.5q0 -3 3 -21t3 -38q0 -74 -25 -96q-19 -1 -39.5 -16t-27.5 -15h-3q-16 0 -37 19.5t-30 25.5q74 83 166 664q13 84 54.5 252.5t41.5 246.5l-2 88q0 71 21 110.5t57 39.5q50 0 65 -96q26 -12 27 -33.5t10.5 -72.5 t69.5 -174l59 -116v-36q18 -54 90 -208.5t100 -195.5t48 -41q61 0 145 217q16 41 78 165.5t92.5 211t70.5 147.5q16 25 43 109.5t58 120t68 35.5q6 0 22 -4z" glyph-name="M" horiz-adv-x="1833" unicode="M"/>
<glyph d="M1491 1360l-18 -64q-24 -79 -33.5 -176.5t-11.5 -228t-9.5 -225t-7.5 -154.5l2 -109l-2 -75q0 -57 14.5 -132t14.5 -100q0 -58 -18.5 -95.5t-43.5 -37.5q-40 0 -125 111v20q-222 228 -369 411.5t-319 387t-176 203.5q-10 0 -20 -17.5t-23.5 -138.5t-13.5 -291 q0 -187 18 -424l15 -28v-23q0 -33 -9 -41v-2q0 -7 10.5 -36t10.5 -56v-12q-25 -37 -84 -37q-13 0 -17 16q-18 -2 -59 -18q-12 19 -12 61q0 39 14 133q10 0 13 9t5.5 50.5t6.5 71.5q-15 18 -15 29l2 6q19 12 19 43l4 119l-2 160q0 105 8 147.5t8 56.5q0 16 -3 50.5t-3 38.5 q0 70 6 113t6 104l-8 34q4 11 4 48q0 46 -2 73q7 10 18 20.5t16 15.5t7.5 5.5t26.5 7.5q20 -2 69 -77q86 -132 179 -222q-2 0 -2 -4q0 -11 108.5 -129.5t253.5 -297.5l90 -112q47 -57 94 -111.5t110.5 -122t74.5 -71.5t16 -4q8 0 8 13l-2 69l4 129l-2 174q0 102 4 271l5 147 q0 57 -13 72q-2 6 -2 14q0 10 3 25.5t3 21.5q0 9 -2 13q2 13 2 39q0 22 -6 38t-6 41q0 32 24 51t64 19l21 -2h30q13 0 27 -8z" glyph-name="N" horiz-adv-x="1675" unicode="N"/>
<glyph d="M1219 1325q70 5 174 -154.5t104 -349.5q0 -97 -18 -184t-54 -159q-77 -159 -109 -206q-71 -105 -160.5 -168t-183 -92.5t-210.5 -29.5q-278 0 -299 49q-20 8 -60 21.5t-43 17.5l-26 32q-35 9 -37 9q-105 66 -154 180t-49 323q0 161 109 375q7 14 12.5 35.5t24 35.5 t20.5 25q85 94 100.5 115.5t72.5 44.5t75 55q6 10 17.5 7.5t17.5 -2.5l8 2q7 9 14.5 16.5t11 6.5t76.5 24t84.5 22.5t86.5 8.5l65 12q23 0 55 -7.5t43 -9.5q183 -19 232 -55zM1249 330q121 220 121 403q0 125 -29 224t-84 168.5t-129 111.5t-188.5 56t-136.5 14 q-3 0 -18 -10.5t-27 -26.5q-13 -6 -33 -6l-33 2q-37 0 -55 -31q-2 -2 -6 -2q-5 0 -8 10l-15 -8v-14q-3 0 -7 7t-9 7h-4q-95 -33 -111 -55q-24 -9 -37 -11q-12 -12 -36.5 -44t-40 -50.5t-30 -31t-14.5 -44.5q-52 -47 -83 -159t-31 -232q0 -110 33 -199t81 -112v-21 q31 -36 66 -67t102 -54.5t113.5 -37t104 -22.5t114.5 -9q34 0 54 2l71 17q32 7 51 10q7 2 53 30l72 41q10 5 15 11q6 8 6 18v8q5 10 38.5 29t53.5 30t20 27q0 13 -4 21z" glyph-name="O" horiz-adv-x="1589" unicode="O"/>
<glyph d="M233 438q0 3 23 54q6 55 6 141l-2 119l4 215q0 162 -9 233t-9 74q0 9 3 22.5t3 18.5l-2 20q0 35 45.5 47.5t187.5 12.5q134 0 233.5 -19.5t171.5 -60.5t103 -88t44.5 -87.5t13.5 -138.5q0 -68 -20.5 -118t-73.5 -133.5t-121.5 -142t-147 -94t-179.5 -50.5 q-75 -11 -101.5 -33t-26.5 -100q0 -33 7 -73.5t7 -86.5l-2 -45q0 -20 4 -45l4 -25v-14q0 -16 -6 -20.5t-33.5 -9.5t-53.5 -15t-30 -10q-5 0 -22 7t-33 10.5t-16 10.5q0 6 18.5 26.5t18.5 43.5v6q5 40 14.5 79t9.5 105q0 39 -3.5 82.5t-7 50t-13 17t-9.5 12.5v2zM387 522 q81 13 152.5 34.5t129.5 48.5t85 53t60.5 63t51.5 61q9 24 28 67.5t23.5 81.5t4.5 89q0 111 -53 161.5t-122.5 96t-209.5 45.5h-70q-49 0 -68.5 -22.5t-19.5 -79.5l8 -156l-2 -172v-227q0 -90 2 -144z" glyph-name="P" horiz-adv-x="1130" unicode="P"/>
<glyph d="M1534 117q14 -25 14 -41q0 -45 -29 -76t-71 -31q-29 0 -62 17q-77 18 -157 18h-12q-51 0 -165 -11t-178 -11l-43 6l-71 -4q-279 0 -297 47q-20 8 -60 21.5t-43 17.5l-26 32q-79 10 -159.5 130.5t-80.5 381.5q0 161 109 375q7 14 12.5 35.5t24 35.5t20.5 25 q85 94 100.5 115.5t72.5 44.5t75 55q6 10 17.5 7.5t17.5 -2.5l8 2q7 9 14.5 16.5t11 6.5t76.5 24t84.5 22.5t86.5 8.5l65 12q23 0 55 -7.5t43 -9.5q183 -19 232 -55q70 5 174 -154.5t104 -349.5q0 -177 -62.5 -319.5t-106.5 -208.5t-90 -117t-46 -61q0 -25 53 -25 q40 0 55 12q10 -2 29 -2l47 2q5 0 26.5 -4t43.5 -4q55 0 88 23zM1249 330q121 220 121 403q0 125 -29 224t-84 168.5t-129 111.5t-188.5 56t-136.5 14q-3 0 -18 -10.5t-27 -26.5q-13 -6 -33 -6l-33 2q-37 0 -55 -31q-2 -2 -6 -2q-5 0 -8 10l-15 -8v-14q-3 0 -7 7t-9 7h-4 q-95 -33 -111 -55q-24 -9 -37 -11q-12 -12 -36.5 -44t-40 -50.5t-30 -31t-14.5 -44.5q-52 -47 -83 -159t-31 -232q0 -110 33 -199t81 -112v-21q31 -36 66 -67t102 -54.5t113.5 -37t104 -22.5t114.5 -9q34 0 54 2l71 17q32 7 51 10q7 2 53 30l72 41q10 5 15 11q6 8 6 18v8 q5 10 38.5 29t53.5 30t20 27q0 13 -4 21z" glyph-name="Q" horiz-adv-x="1589" unicode="Q"/>
<glyph d="M1239 147q10 -12 10 -32q0 -36 -32.5 -70.5t-57.5 -34.5q-18 0 -53 38l-57 56q-63 62 -217.5 153t-411.5 269l-12 54v8q0 15 16 19.5t47 15.5q190 62 266 146.5t76 227.5q0 171 -99.5 244.5t-228.5 73.5h-43q-31 0 -56.5 -18t-25.5 -91q0 -35 2.5 -57.5t2.5 -63.5 l-11 -249q0 -59 1 -93l3 -73l-4 -45q-4 -53 -4 -113q0 -55 17 -500q-6 -7 -15.5 -22t-15.5 -15q-5 0 -14 7q-64 -19 -68 -19q-16 0 -31.5 21t-15.5 63v10q47 74 47 297l-6 367l6 264l-2 158q0 35 -8 92.5t-8 81.5q0 22 7.5 33t25 14t65.5 8.5t102 5.5q101 0 184 -18.5 t159.5 -61.5t106.5 -91.5t45 -97.5t15 -95q0 -262 -342 -398q-24 -18 -24 -32q0 -24 40.5 -55.5t151.5 -102.5q29 -14 69 -45t54 -41q42 -16 75 -41.5t53.5 -30.5t25.5 -8q0 -9 14 -20q37 -19 90 -57t74 -38q8 0 12 2z" glyph-name="R" horiz-adv-x="1251" unicode="R"/>
<glyph d="M684 1225q-11 7 -41 35t-70 28q-160 0 -252 -72t-92 -190q0 -128 273 -270q18 0 41.5 -4t79 -57.5t84.5 -96t44 -86t15 -86.5q0 -190 -89 -294t-317 -187q-12 4 -22 4q-16 0 -50.5 -17.5t-140.5 -17.5q-38 0 -53.5 31.5t-15.5 93.5q0 17 14 35h8q26 0 54 -31 q61 -14 75 -14q11 0 94.5 10.5t158 47.5t101.5 71t53 81.5t26 108.5q0 91 -55.5 174.5t-121.5 95.5v3q0 17 -45 43q-176 80 -246.5 158.5t-70.5 185.5q0 43 11.5 84t33.5 78.5t54.5 69t87.5 63.5t77 32h31q3 2 22 23q26 2 59 16t42 17q10 -6 14 -17q28 6 57 6h21 q46 0 71 -12t25 -51q0 -32 -14.5 -60.5t-30.5 -31.5z" glyph-name="S" horiz-adv-x="850" unicode="S"/>
<glyph d="M1202 1346q-6 -50 -22 -80q-21 -4 -23 -4q-35 0 -83 4t-64 4q-13 0 -19 -2q-15 20 -135 20l-168 -8h-6q-9 0 -18 -6q-23 -84 -33 -232t-10 -235l6 -113l-14 -69q-6 -34 -7.5 -67.5t-1.5 -76.5l12 -215q0 -38 -10 -43q9 -1 18 -57t17 -84.5t8 -34.5q0 -14 -53 -33 q2 -3 2 -10q0 -8 -6 -8t-12 12q-20 -16 -35 -22q-6 18 -27 18q-10 0 -29 -2t-28 -2h-8q21 11 15 74q-3 33 -3 51q0 1 3 9q34 89 34 372l6 457q0 219 -19 274q3 6 3 14q0 11 -4 17.5t-22 8.5l-60 5q-41 4 -58 4q-80 0 -94 -26q-17 10 -33 10q-14 0 -33.5 -8.5t-54.5 -8.5 q-40 0 -67 23q-3 6 -3 16q0 13 9.5 39.5t9.5 42.5v4q14 8 35 8q13 0 79.5 -10t145.5 -10h150q54 0 100 12l6 13q12 -4 14 -9l17 4q11 0 27.5 -15t25.5 -21q10 0 45 5t66 5l163 4l29 -4h8q17 0 60.5 5t70.5 5q66 0 78 -24z" glyph-name="T" horiz-adv-x="1100" unicode="T"/>
<glyph d="M1393 1370h8q18 0 32 -19.5t21 -19.5h6q17 0 17 -18q0 -13 -17 -45q-6 -2 -10 -33q-5 -38 -60 -246q-45 -171 -80 -280q-43 -130 -85 -216l-60 -108q-4 -14 -6 -29q-5 -27 -83 -124q-63 -80 -138 -142q-134 -113 -166 -113q-15 0 -32.5 7t-22.5 8q-34 -21 -47 -21 q-7 0 -11 2q-49 -6 -71 -6q-79 0 -166 63.5t-120 199.5t-48 358t-24 322.5t-21.5 192.5t-17 96.5t-15.5 4.5q-12 66 -12 74q0 14 7 28t13 21t31 13t44.5 13.5t26.5 14t9 6.5q3 0 15.5 -13.5t30 -26t17.5 -46.5q0 -14 -6 -33.5t-6 -60.5l2 -68l-2 -71q0 -245 14 -399.5 t26.5 -220t37.5 -158.5t72.5 -136.5t57.5 -49t46 -5.5q5 -33 80 -33q66 0 142 39t116 90.5t73 114t65 112t77 145.5t83 249l7 26q11 26 14 72.5t21 59.5q47 190 47 247q0 33 -5 55t-5 48q0 42 30.5 45t47.5 14z" glyph-name="U" horiz-adv-x="1497" unicode="U"/>
<glyph d="M1407 1360q-234 -369 -483 -926l-150 -334v-14q0 -36 -24.5 -73.5t-55.5 -39.5q-19 -18 -86 -18q-29 0 -36 25l-45 158q-114 388 -182 596.5t-123 320t-62 123.5v22q-58 82 -58 86q0 9 24 20t36 19l39 25q23 3 37 14l28 -14q13 -79 48 -191l70 -205q35 -99 56 -166 q32 -97 56 -185q32 -117 58 -178l44 -108q20 -48 40 -78q24 -39 56 -65q28 16 52 45.5t49 87.5l291 647q74 164 105.5 244t31.5 107q0 8 -2 10q1 65 59 65h10q12 0 37 13.5t39 13.5q41 0 41 -47z" glyph-name="V" horiz-adv-x="1346" unicode="V"/>
<glyph d="M2028 1284l-35 -57h-2q-10 0 -27 -39t-40.5 -116t-53.5 -193l-83 -355q-54 -239 -54 -258l6 -71q0 -30 -34.5 -117.5t-66.5 -87.5q-12 0 -22 10q2 12 2 27q0 12 -51 88.5t-102 175t-116 205.5t-134 241.5t-152 339.5q-9 19 -23 19q-11 0 -22 -7t-21 -21q-12 -16 -21 -32 q-14 -22 -42 -81l-300 -649q-61 -135 -99 -183q-8 -73 -35.5 -112.5t-65.5 -39.5q-40 0 -48 26t-11 142q-71 547 -206 1050q-22 83 -22 93q0 39 34 61.5t59 22.5q57 0 57 -74v-39q0 -179 79 -522.5t78.5 -391.5t51.5 -85q43 31 43 49v2q0 16 74 169l189 387 q114 235 146.5 291.5t32.5 59.5l-3 26q16 31 16 40q12 6 12 16v21q53 45 61 45q7 0 21 -10q-4 -20 -4 -29q0 -2 4 -14q3 -2 8 -7l10 -11q10 -11 19 -38q30 -100 69 -200q39 -99 86 -197q48 -98 102 -193q55 -96 116 -187q63 -91 130 -177q50 3 154 600q1 49 20 148t30 180.5 t22 95.5q44 10 80 10q35 0 79 -10q-4 -6 -4 -16q0 -13 9 -21z" glyph-name="W" horiz-adv-x="2042" unicode="W"/>
<glyph d="M1108 1368q-51 -60 -93 -115q-39 -51 -69 -95q-27 -41 -45 -74l-26 -53q-39 -50 -64 -86q-29 -41 -47 -72q-20 -32 -29 -57q-10 -25 -10 -44q0 -34 110 -183l127 -178q36 -53 45 -60q16 -14 29 -28.5t23 -28.5t24 -36q49 -74 101.5 -110.5t52.5 -71.5q0 -16 -24 -33.5 t-35 -30.5v-20l-4 -2q-2 0 -6.5 4t-8.5 4h-2q-17 -14 -37 -14q-22 0 -57 22q2 2 2 6q0 44 -154 262q-42 45 -94 121t-68.5 91.5t-39 56.5t-42.5 66.5t-44 25.5q-16 0 -32.5 -12t-36.5 -36l-89 -121q-53 -70 -88.5 -120.5t-67.5 -113.5l-47 -97q-20 -41 -20 -57v-6 q-33 -72 -43 -72h-6q-18 0 -36 -7t-22 -7q-34 0 -90 53q9 13 23 27t14 18q0 3 -10 6q83 26 125 133q19 34 56.5 77t53.5 64l52 70q37 49 95 135l111 168l-155 208q-114 154 -182.5 221t-125.5 81q-12 13 -12 21q0 6 33 60t74 63l8 14q42 -13 57 -64q0 -32 77.5 -119 t183.5 -229.5t136 -142.5q9 0 20 14l73 107q63 92 101.5 181t43.5 161q17 11 34.5 35.5t28.5 32t39.5 14t63.5 6.5q11 0 24 -15.5t21 -17.5z" glyph-name="X" horiz-adv-x="1276" unicode="X"/>
<glyph d="M1145 1354q2 -10 2 -25q0 -33 -31 -41q-48 -54 -130 -194.5t-188.5 -296.5t-125.5 -193.5t-19 -60.5v-27l-2 -186q0 -112 11.5 -186t11.5 -81q0 -61 -80 -61q-32 0 -68 8q-4 12 -4 13q0 5 4 20.5t4 26.5q0 13 2.5 28t8.5 39t6 49l1 61l1 70q0 107 -10 171t-39.5 116 t-115 175.5t-154.5 228t-96.5 142.5t-43.5 46q-10 22 -41 35q-8 19 -8 33q0 37 29 47q26 38 54.5 45.5t39.5 11.5q17 -68 40 -91.5t64 -98t76 -99.5q6 -28 14 -28h7v-4q0 -23 37 -69t72 -110.5t84.5 -123t66.5 -58.5q2 0 2 2q10 0 123 149.5t202 428.5q20 60 42.5 81.5 t84.5 28.5l6 2q7 0 26 -10.5t34 -13.5z" glyph-name="Y" horiz-adv-x="1167" unicode="Y"/>
<glyph d="M1204 109q17 -17 17 -43q0 -15 -19 -95q-38 -8 -88 -8q-29 0 -41 2l-26 4h-9q-10 0 -28 13q-126 22 -361 22q-98 0 -360 -8q-120 -37 -146 -37q-36 0 -82 14q3 61 33.5 98.5t30.5 45.5q0 6 -2 8q31 16 37 22q0 8 6 29q67 56 83.5 68t16.5 35v6l2 -2q5 0 14 7t20 20.5 t24 34t27 47t26 58.5q4 9 26.5 30.5t28.5 27.5q145 240 364 538q42 55 48 70t8 29q10 20 33.5 51.5t23.5 48.5q0 9 -2 15q-162 -2 -241 -12.5t-82 -10.5q-15 0 -38 5t-30 5q-11 0 -24 -8q-51 14 -117 14l-43 -2q-5 -8 -19 -8q-17 0 -34 10q-9 21 -9 27q0 41 29 61t37 27 q206 -10 248 -10l133 10q70 6 84 8l14 -14h23q102 0 194 49l13 -12q21 32 53.5 26t54.5 -6h4q31 0 31 -30q0 -22 -80 -100q-68 -68 -135.5 -156.5t-190.5 -266.5l-221 -322q-97 -142 -157.5 -237t-91.5 -147t-31 -56q0 -16 79 -16l162 8l76 -6q60 0 253 11.5t286 11.5 q42 0 65 -4z" glyph-name="Z" horiz-adv-x="1284" unicode="Z"/>
<glyph d="M600 1470q14 -22 14 -34q0 -8 -8 -19q-16 -4 -20 -4q-11 0 -31 5t-31 5q-8 0 -32 -8v-14l-15 -8q-22 -694 -22 -1012l-2 -223q0 -173 32 -201q-1 -12 -10.5 -22t-9.5 -13q0 -20 45 -20l47 2h14q21 -9 21 -23q0 -9 -8 -20q-20 -8 -29 -8q-15 0 -36 3t-30 3q-10 0 -34 -4 q-6 -12 -6 -23q-2 0 -5 -2q-8 0 -18 20q-34 -22 -59 -22l-9 -2q-25 0 -41 41q41 296 41 891l-6 682q28 45 56 45q2 0 34 -4q17 -8 37 -8q14 0 39.5 2t38.5 2q30 0 43 -7z" glyph-name="bracketleft" horiz-adv-x="860" unicode="["/>
<glyph d="M653 -55q0 -30 -33.5 -39.5t-46.5 -9.5q-34 0 -54 31.5t-34 109.5q-9 12 -24 12q4 13 4 21q0 49 -21 127.5t-127.5 348t-138.5 369t-42.5 125t-10.5 37.5v4q-7 19 -37.5 76t-30.5 74l2 41q0 30 -6 45q-41 61 -41 108q0 9 4 17q61 14 72 14q5 0 7 -0.5t5.5 -4.5t10.5 -9 t19 -13q4 -2 29 -50l21 -43q11 -21 12 -25q3 -12 3 -33l-2 -45q0 -3 7 -23.5t14.5 -47t11.5 -57t18 -62t24 -42.5q-2 -24 -10 -47q29 -69 32.5 -89t24.5 -42l-6 -24q5 0 92 -197q-4 -24 -4 -29q0 -2 28 -67.5t36 -78t7.5 -25t9 -42.5t28.5 -49q14 -30 36 -105.5t38 -115.5 q39 -48 49.5 -93.5t23.5 -51.5z" glyph-name="backslash" horiz-adv-x="684" unicode="\"/>
<glyph d="M541 1477q-29 -970 -29 -1106q0 -230 8 -343l8 -112q0 -26 -13.5 -43.5t-61.5 -50.5q0 22 -23 22q-2 0 -29.5 6.5t-54.5 6.5t-83 -7.5t-85 -7.5q-45 0 -45 11q0 4 10 15.5t49 17t54 5.5l106 -4q12 0 27.5 10.5t11 91.5t7.5 424t12 441l-2 199q0 87 6 180t6 110 q0 76 -62 76q-19 0 -57 -8t-57 -8q-62 0 -62 22q0 52 111 52q44 0 88 -9l8 15q8 -8 19 -8q13 0 22.5 12.5t30 22.5t39.5 10q12 0 18 -2z" glyph-name="bracketright" horiz-adv-x="860" unicode="]"/>
<glyph d="M1624 901h-158l-442 438l-442 -438h-160l520 557h162z" glyph-name="asciicircum" horiz-adv-x="2048" unicode="^"/>
<glyph d="M1024 -375h-1024v103h1024v-103z" glyph-name="underscore" unicode="_"/>
<glyph d="M637 1243q119 -70 119 -106q0 -9 -15 -13q-26 20 -144 52t-210 59q-13 -4 -32 -12.5t-25 -8.5h-2l2 7q0 7 -21 14q-5 -8 -12 -8q-4 0 -13.5 4t-15.5 4h-6q4 9 -69 29l-5 32q0 32 27.5 59t48.5 27q11 0 37 -16q47 0 143 -59q131 -64 172 -64h21z" glyph-name="grave" unicode="`"/>
<glyph d="M750 541q0 -8 -13.5 -22t-18.5 -25t-8 -58.5t-3 -140.5l4 -135q0 -11 -9 -19q-2 -11 -2 -37q0 -37 12 -94l11 -53l-2 -49l2 -43q-72 -72 -107 -72q-5 0 -19 7t-26 7h-6q-8 28 -8 50q0 49 23 94q11 14 16.5 22t5.5 60q0 57 -12 57q-2 0 -12.5 -4t-22.5 -4h-8 q-12 -8 -15 -21q-12 1 -131 -45q-58 -20 -112 -20q-59 0 -106 15.5t-79 46t-41.5 45.5t-9.5 65l2 25v8q0 100 155.5 210t290.5 133q36 6 56 12.5t33.5 21.5t13.5 69q0 178 -188 242q-6 2 -16.5 8t-18.5 6q-97 0 -162 -8q-36 -41 -80 -41q-33 0 -33 23q0 1 14.5 42.5 t69.5 41.5q63 34 230 34q134 0 208 -104t74 -297v-14q8 -13 28 -19t20 -18v-2zM553 186q63 85 63 152q0 41 -20.5 89t-81.5 48q-118 0 -192 -59h-25q-154 -85 -154 -180q0 -67 63.5 -112.5t147.5 -45.5q22 0 84 19t115 71v18z" glyph-name="a" horiz-adv-x="893" unicode="a"/>
<glyph d="M354 911q7 14 52.5 22.5t74.5 8.5l154 -12q77 -6 142 -32.5t133 -77.5q48 -37 77 -112t29 -149q0 -232 -230 -381q-8 -3 -16 -17q-6 -11 -11 -14q-22 -14 -37 -22t-42 -17.5t-60.5 -17.5t-75.5 -16q-7 -2 -20.5 -10.5t-17.5 -8.5t-6 2q-12 0 -121 -45l-12 13 q-33 -7 -48 -33q0 -16 -21.5 -29.5t-51.5 -13.5q-21 0 -30 10t-34 10q-4 0 -24 -4v4q0 13 -7.5 29.5t-7.5 21.5q0 10 29 33.5t29 34.5v2q26 284 26 565q0 529 -30 756q-21 30 -21 39l2 23q0 8 -3 37t-3 53q0 35 25.5 39t42 9t18.5 5q6 0 18 -4.5t20 -5t52 -31.5 q10 -44 10 -59q0 -11 -2 -13q-1 -4 -6 -18q-41 -112 -41 -344q0 -134 8.5 -182t30.5 -48h6zM336 819q-19 -433 -19 -547q0 -97 29 -130t100 -33q67 0 163.5 29.5t174.5 104t104.5 143t26.5 138.5q0 122 -109 211.5t-231 89.5h-36l-72 4q-43 0 -78 -26q-15 24 -37 24 q-11 0 -16 -8z" glyph-name="b" horiz-adv-x="1087" unicode="b"/>
<glyph d="M782 152q47 -29 47 -78q0 -64 -34 -64h-9q-9 0 -64.5 -11t-121.5 -11h-25l-71 -4q-39 0 -72 8q-16 7 -76.5 26t-82.5 32.5t-55.5 44t-58.5 65.5t-42.5 75t-26 84t-8.5 91q0 140 50 238.5t163 176.5q17 9 48 30.5t49 29t106 23.5t178 16h37q18 4 41 4q47 0 47 -41 q0 -7 -3 -21.5t-3 -21.5l2 -76q-16 -4 -23 -4q-24 0 -59 16q-39 35 -64 35h-14q-12 0 -55 8t-78 8q-26 0 -66 -24q-12 6 -20 6h-4q-4 0 -13 -8q-34 -31 -92 -51q-44 -17 -74 -75t-59 -87q-8 -63 -8 -117q0 -122 27 -175.5t76 -97.5t67 -65h29q10 -28 47 -28q21 0 61.5 -9.5 t61.5 -9.5l30 2h23q51 0 77.5 9t64.5 16t50 35z" glyph-name="c" horiz-adv-x="870" unicode="c"/>
<glyph d="M926 -125l-90 -125h-27q-18 12 -33 12q-13 28 -26 80q12 31 12 60l2 112q0 65 -21 117q-6 -4 -19 -5t-19 -5q-99 -72 -168 -91.5t-140 -19.5q-110 0 -192.5 53t-107.5 136t-25 131q0 79 7 109.5t38 93t49.5 99t76 86.5t126.5 93q61 18 129.5 48.5t93.5 33.5l6 -14 q44 26 80 26h2q25 0 25 39q0 128 -12 270.5t-18 158t-30 26.5q-6 19 -6 45q0 76 51 76q48 32 70 32q16 0 38.5 -17t26.5 -17.5t4 -12.5q0 -5 -8.5 -34t-9.5 -56q-20 -14 -20 -51l2 -51q0 -156 11 -249t11 -99q0 -4 -2 -13t-2 -14q0 -19 16 -39l15 6q4 -14 29 -20 q48 -10 43 -40.5t-7 -49.5h-8q-11 0 -26.5 -6.5t-20.5 -6.5q-8 0 -16 4q0 2 -2 2q-11 0 -11 -196q0 -120 19 -270q16 -22 26 -39q-6 -37 -6 -68q0 -38 7.5 -101t7.5 -87l-3 -25q0 -8 9.5 -12t9.5 -8v-2l-4 -13zM678 801q-23 5 -45 7l-43 5q-18 0 -42 -6l-22 -6h-45 q-134 -42 -223.5 -164.5t-89.5 -245.5q0 -128 75.5 -209.5t198.5 -81.5q102 0 181.5 30.5t93.5 72.5t14 174q0 140 -20 397q-29 10 -33 12v15z" glyph-name="d" horiz-adv-x="1069" unicode="d"/>
<glyph d="M856 639q8 -8 8 -23q0 -29 -16 -43q2 -1 2 -6q0 -16 -43 -16h-14q-6 0 -12 -7t-9 -7q-1 0 -9.5 6t-25.5 8l-12 12q-22 -6 -43 -6q-16 0 -44.5 4t-41.5 4q-11 0 -46.5 -6t-62.5 -6l-98 4q-79 0 -143 -14q-9 -5 -26.5 -7.5t-19 -16t-20.5 -21.5q-10 -41 -10 -74 q0 -26 15 -99t40 -104q6 -7 86 -64q51 -38 110.5 -57.5t137.5 -19.5q31 0 77 5l42 5h65q10 0 37.5 18t55.5 21q12 -28 12 -49q0 -47 -28.5 -82t-65.5 -35l-21 4l-63 -2h-54q-38 0 -187 32t-220 84t-104 134.5t-33 159.5q0 104 40 211.5t91 167t155 123.5q10 5 30.5 20.5 t39.5 15.5l33 -2q21 14 75.5 23.5t88.5 9.5q61 0 133.5 -45t87.5 -188q3 -25 8.5 -40.5t5.5 -17.5q0 -6 -4 -14zM446 858q-6 -9 -57 -33q-25 -18 -48 -41t-45 -49.5t-38.5 -47.5t-25.5 -31.5t-9 -18.5q0 -11 14 -16l13 -5h74l348 13q67 0 67 59q0 62 -24.5 108.5 t-128.5 73.5q-12 0 -34 2t-32 2q-9 0 -74 -16z" glyph-name="e" horiz-adv-x="936" unicode="e"/>
<glyph d="M903 1812q23 -4 35 -26.5t12 -38.5q0 -27 -32 -37v-4q0 -32 -44 -39q-17 21 -51 21q-8 0 -14 -15q-24 4 -35 4q-46 0 -49 -22h-18q-66 0 -82 -25q-7 -5 -44 -26t-60 -41.5t-58.5 -74.5t-67.5 -135.5t-40.5 -136t-25 -125.5t-16.5 -83q0 -90 52 -90q10 0 16 2 q9 -13 22 -13q4 0 11.5 2.5t24 0t32.5 -2.5q24 0 80.5 12.5t91.5 12.5q6 0 26 -3.5t22 -12t7 -37.5h-2q-11 0 -37 -33q-4 6 -14 14q-6 -16 -27 -16q-14 0 -65.5 5t-89.5 5q-12 0 -32.5 -2t-29.5 -2q-7 0 -30 4q-9 -4 -15 -4q-5 0 -16 4q0 -8 -8 -8l-4 2q-17 0 -17 -223v-111 q0 -99 13.5 -230t17.5 -144.5t18 -28.5q-2 -6 -2 -19q0 -17 10.5 -44.5t10.5 -41.5v-6q-31 -20 -66 -45q-19 -29 -47 -29h-4q-8 9 -25.5 30t-31.5 21l-8 -2q-13 28 -13 39q0 6 17.5 25.5t17.5 62.5l-2 23l4 93q4 104 4 210q0 105 -8 221.5t-8 141.5l2 40q0 11 -25 11 q-3 0 -13 -2t-15 -2q-9 0 -13 2q-8 -3 -8 -13q-6 13 -14 13l-21 -2q-2 0 -10 8v2q0 14 22 28t31 23h19q14 11 14 27h8q16 0 26 13.5t20.5 85.5t13.5 120q30 160 87.5 270.5t103.5 165.5t117 103.5t97 48.5h11q32 29 77 32l27 19q127 13 137 28z" glyph-name="f" horiz-adv-x="639" unicode="f"/>
<glyph d="M877 981q-23 -108 -23 -354q0 -80 9 -251t9 -302q0 -250 -49 -399.5t-80 -149.5l-6 2q-26 -74 -130 -99.5t-152 -25.5q-21 0 -60 6t-57 6q-21 0 -29 -2q-14 -14 -30 -14q-12 0 -19 10q-9 -12 -31 -12l-18 2q-3 0 -13.5 -3t-13.5 -3q-10 0 -24.5 12.5t-14.5 42.5 q0 17 3.5 42t3.5 34v22q0 12 14 29h8q21 0 66 -27q107 -63 219 -63q87 0 137 35q62 3 66 41q17 7 59.5 101.5t42.5 289.5v29q-15 26 -53 26q-20 0 -49 -6t-54 -6q-43 0 -126.5 10.5t-131 23.5t-116 54t-97.5 83t-47 98t-18 116q0 115 62.5 215.5t180.5 173.5q10 3 18 16 q20 34 155 64l118 31h2q13 0 121 41l14 -17q7 16 7 68v45h18q92 0 109 -35zM684 143q3 -12 21 -12q57 0 57 131l-17 459l5 33q0 69 -95 69q-71 0 -169.5 -26t-177.5 -100.5t-106.5 -144.5t-27.5 -138q0 -90 59 -160t145 -110t249 -40q11 0 23 4t34 35z" glyph-name="g" horiz-adv-x="1040" unicode="g"/>
<glyph d="M205 1692q11 6 29.5 8.5t35.5 5.5l35 8q43 0 43 -63q0 -11 -4 -52q-12 -54 -12 -133l4 -149l-4 -225q0 -205 12.5 -244t42.5 -39q11 0 54.5 24t71 38t61.5 26.5t65 15.5l56 6q27 3 46 3h17q80 -18 122.5 -65t55 -118t12.5 -241q0 -126 -32.5 -264.5t-32.5 -147.5v-10 q0 -13 7.5 -35.5t8.5 -32.5q-27 -49 -68 -49h-18q-8 0 -19.5 -3t-15.5 -3q-5 0 -31 14.5t-26 30.5q0 5 11 27q43 86 77.5 236t34.5 284v69q0 103 -53 165.5t-138 62.5q-41 0 -119 -25t-83 -47q-15 0 -34 -10.5t-25.5 -13t-9.5 -15.5t-5 -18q-12 4 -17 4q-6 0 -16 -10 q0 -11 -4.5 -25.5t-10 -132.5t-5.5 -178q0 -61 6 -126l6 -50v-2q0 -10 9 -40t9 -38q0 -6 -5 -18t-5 -21v-2h2q16 0 16 -27q0 -2 -8 -10q-23 -3 -44 -17t-25 -16q-22 3 -33 21q-48 2 -68 11t-20 32q0 13 3 17.5t3 6.5t-3 9t-3 14q0 3 8 18q55 106 55 250l-6 197q0 46 2 67 q-39 16 -39 55q0 44 47 103q2 107 2 303q0 500 -53 498q-6 15 -6 30q0 56 31 56z" glyph-name="h" horiz-adv-x="1114" unicode="h"/>
<glyph d="M322 1280q16 -12 52 -29t36 -41q0 -22 -26 -46.5t-52 -24.5q-29 0 -61.5 33t-32.5 38q0 18 27.5 44t53.5 26h3zM367 6q0 -6 -43 -23.5t-54 -17.5h-6q-10 0 -25.5 -4t-21.5 -4q-19 0 -34 13.5t-15 21.5q0 21 8 65.5t25 65.5q8 63 8 235l-8 363l2 63q0 10 -16.5 37 t-16.5 66q0 23 12.5 32.5t57.5 28.5l57 25q4 2 12 2q25 0 25 -78q0 -44 -15.5 -228.5t-15.5 -299.5q0 -65 3.5 -122.5t7.5 -87.5t18 -55q28 -52 28 -94q4 -2 7 -4z" glyph-name="i" horiz-adv-x="526" unicode="i"/>
<glyph d="M326 1280q17 -14 52.5 -29.5t35.5 -40.5q0 -23 -26 -48t-54 -25t-61 34t-33 39q0 18 28 44t56 26h2zM350 -549q-7 -12 -26.5 -27.5t-22.5 -15.5q-6 0 -9 3t-7 3q-5 0 -15.5 -6t-19.5 -6q-16 0 -42 7t-26 11q0 3 5.5 15.5t5.5 23.5v15l10 125q30 384 30 657q0 94 -6 197 l-11 177q-5 74 -7 112t-8 74.5t-6 57.5q0 29 11 48.5t52 35.5l41 15l25 2q61 0 61 -35q0 -3 -6 -16t-6 -29h-4q-38 0 -54 -204t-16 -646q0 -271 20 -418l15 -102z" glyph-name="j" horiz-adv-x="526" unicode="j"/>
<glyph d="M354 1503q0 -10 -2 -20q-13 -6 -15 -15t-12 -48t-16 -159.5t-6 -175.5v-180l-2 -436q0 -97 2.5 -219t11 -144t15.5 -30q-3 -68 -35 -68l-21 2q-5 0 -20.5 -5t-30.5 -5q-20 0 -34.5 17.5t-14.5 45.5q0 8 6 17q23 0 23 373l-6 583l10 314l-7 51q-7 54 -7 90q0 21 6 43 q73 37 100 37q13 0 22 -10t27 -45q6 0 6 -5v-8zM860 801q-6 2 -18 2q-15 0 -23.5 -3.5t-77.5 -70.5l-136 -130q-67 -64 -98.5 -99t-31.5 -47q0 -15 99 -77l161 -107q78 -51 129 -75.5t98 -28.5q27 -3 59 -41q19 -21 19 -42q0 -23 -22 -37.5t-29 -21.5q-16 -39 -51 -39 q-9 0 -25 4v2q0 11 -34 42t-112.5 86t-236 153t-166.5 99l-28 3q0 73 59 127q39 9 60 45q2 -2 8 -2q8 0 21.5 16t59.5 62t76 78.5t54 65.5l39 55q15 22 30 59q16 0 43 26.5t50 26.5h6q6 -6 16 -6h8q23 -17 23 -49q0 -45 -29 -76z" glyph-name="k" horiz-adv-x="1040" unicode="k"/>
<glyph d="M362 57q-9 -31 -15.5 -39t-31.5 -10q-12 -12 -22 -12q-8 0 -17 12q-13 -13 -34 -22q-78 22 -78 57v2q16 0 16 29v18l-2 33q0 7 12 47q15 106 15 287v205l-2 77l2 66l-12 231l8 160l-8 207v39q-13 34 -13 67l4 43q0 7 -8 19q0 54 17.5 85.5t43 48.5t50.5 17q43 0 75 -84 q-23 -29 -37 -57.5t-14 -83.5l4 -115l-4 -286l2 -391l-4 -445l2 -18q0 -16 -8 -21q15 -13 19.5 -61.5t20 -72.5t19.5 -32z" glyph-name="l" horiz-adv-x="526" unicode="l"/>
<glyph d="M1184 887q31 2 81 13l44 11q155 0 227 -80.5t72 -252.5q0 -91 -16.5 -194t-60.5 -227t-44 -155q0 -4 2 -10q-11 -34 -21 -82l-59 -6l-23 2l-20 -2q-17 0 -43 14q2 77 27 96q-7 10 -7 15v6q13 12 27 12q133 256 133 451q0 92 -23.5 168t-41.5 105.5t-62 44.5t-100 15 q-44 0 -130 -40l-136 -64q-52 -23 -52 -59q0 -5 5 -17q-16 -3 -25 -12q-25 -216 -25 -358l5 -224q0 -28 -13 -43q-62 -12 -80 -39q-24 15 -32 15q-27 11 -27 76v14q27 71 43 152.5t16 218.5q0 49 -7 107l-7 46v17q0 27 -6 53.5t-21 52.5t-40 51t-47 37t-62 12q-24 0 -42 -4 q-20 -4 -36 -14q-20 -13 -63 -28q-47 -17 -76 -32q-33 -18 -55 -39q-22 -22 -35 -52t-19 -72q-6 -41 -6 -101l12 -282q0 -92 21 -131q-15 -46 -43.5 -64t-44.5 -18h-4q-13 0 -23 12l-12 -8q-9 12 -12 29q10 14 10 47q0 13 -3 45t-3 49v12q0 3 7 111.5t7 298.5q0 24 -39 45 q-6 15 -6 22t6 25l-12 6q11 16 28 33.5t21 23t4 21.5q0 18 -16.5 49.5t-13.5 42t3 14.5q0 6 14 28.5t25 43.5h19q6 6 16 19.5t21 13.5q23 0 44 -23t21 -53q0 -14 -2 -23q-16 -26 -16 -47q0 -45 18 -45q2 0 31 16t74.5 33.5t82 34.5t40.5 17l32 -4q8 0 13 2q24 18 88 18 q44 0 95 -26.5t72 -77.5q9 -22 25.5 -32.5t28.5 -10.5q4 0 4 4q0 2 -2 4q8 3 39 25t67 28q14 32 123 53z" glyph-name="m" horiz-adv-x="1772" unicode="m"/>
<glyph d="M616 868q65 11 109 11q272 0 272 -340q0 -189 -62 -437q-28 -107 -28 -143q0 -8 4 -16q-12 -62 -73 -62q-36 0 -65.5 20t-29.5 42q0 33 42 82t77 191t35 286q0 295 -242 295q-95 0 -178.5 -39t-95.5 -86q-9 -10 -27 -20q-16 -8 -18.5 -14.5t-10.5 -151.5t-8 -220v-47 q0 -37 12.5 -68t12.5 -36l-2 -35q0 -33 -11.5 -52.5t-29.5 -19.5h-4l-6 -14q-12 4 -17 4q-14 0 -36 -16h-5q-11 0 -34 26q-33 0 -33 25q0 22 14 37q13 0 30 131.5t17 333.5q0 262 -43 299l-2 18q0 38 44 51q18 5 32.5 27t30.5 22h2q20 3 34.5 10t16.5 7q14 0 14 -39 q0 -30 -12 -68.5t-12 -48.5q0 -15 10.5 -26t26.5 -11h6q28 27 30 27h3q96 0 145 39q9 1 22 3.5t17 2.5q24 15 26 20z" glyph-name="n" horiz-adv-x="1163" unicode="n"/>
<glyph d="M129 616q156 297 561 297q63 0 112.5 -7t91.5 -23t78 -43t69.5 -67t66.5 -96q18 -30 18 -130q0 -229 -155.5 -390t-384.5 -161h-8q-47 10 -52 10q-4 0 -6 -2q-9 -14 -61 -14q-71 0 -167.5 40.5t-158 124.5t-61.5 177q0 36 3.5 71.5t11 68t18.5 61.5l24 57v26zM1010 453 v26q0 166 -104.5 267.5t-276.5 101.5q-38 0 -71 -8.5t-38 -11t-17.5 -21t-18 -22t-15.5 -3.5l-51 6q-11 0 -15 -18q-76 -6 -143 -113t-67 -223q0 -25 10 -105.5t62 -133t126.5 -90t120.5 -37.5q12 0 24 3l9 3h41q134 0 182 41q5 4 6 4q6 0 19 -6q110 95 163.5 199.5 t53.5 140.5z" glyph-name="o" horiz-adv-x="1198" unicode="o"/>
<glyph d="M307 868q184 66 242 77t69 11q30 0 126.5 -36t107.5 -52q4 -7 39 -53q63 -63 63 -188q0 -104 -59 -216t-141 -161q-12 -15 -15 -27q-121 -100 -157 -117l-27 -12q-45 -45 -63 -45q-9 0 -13 2q-49 -33 -71.5 -47t-61.5 -20.5t-48.5 -12t-15.5 -38t-6 -97.5 q0 -122 8 -217.5t12.5 -109.5t12.5 -25.5t8 -15.5q0 -8 -9.5 -14.5t-20.5 -13.5t-15 -7q-2 0 -4 4q-47 -21 -80 -21q-12 0 -28.5 11t-16.5 28q0 23 13.5 59.5t13.5 53.5l-2 37l8 276q0 64 -5.5 91.5t-29.5 54.5l9 47l-3 8q0 10 14.5 27.5t14.5 52.5l-2 55v21q8 24 8 63v127 q0 19 3 57t3 58q0 101 -6 134.5t-24 33.5q-9 0 -31 -7.5t-35 -7.5l-8 2l-23 25q14 20 67.5 45.5t53.5 52.5q0 6 -3 22t-3 27l2 15q0 8 -16 28l-4 39q0 38 16 52t45.5 22t38.5 14h31q24 0 24 -20l-8 -32q-8 -35 -8 -50l2 -25l-4 -34q0 -8 12 -11zM313 125q50 -19 101 -19 q26 0 46.5 4t71 34.5t121.5 80.5q26 18 49.5 40t72.5 105q22 38 39 103.5t17 104.5q0 33 -19 101t-69.5 112.5t-68.5 44.5h-6q-26 0 -47 18h-39l-68 2q-120 0 -174.5 -39.5t-54.5 -144.5l2 -88l-6 -428q0 -14 15 -19t17 -12z" glyph-name="p" unicode="p"/>
<glyph d="M961 956v-8q0 -11 6 -26.5t6 -20.5q0 -8 -26 -28t-31.5 -27t-21.5 -147.5t-25 -364.5t-9 -512l-2 -154q0 -80 7 -132t7 -71q0 -28 -5 -53.5t-14 -41.5l-18 -30q-9 -15 -15.5 -24.5t-10 -11.5t-8.5 -2q-10 0 -45 22h-2q-8 0 -29 16.5t-25 25t-4 30.5q0 14 15 62 q45 153 45 292l-6 250q0 6 2 17t2 16q0 12 -11 12h-2q-14 0 -35.5 -18t-38 -25.5t-59.5 -7.5t-126.5 10.5t-131 23.5t-116 54t-97.5 83t-47 98t-18 116q0 115 62.5 215.5t180.5 173.5q10 3 18 16q20 34 155 64l118 31h2q13 0 121 41l14 -17q45 22 45 33q0 18 -6 40.5 t-6 29.5q0 18 33 45q19 2 49.5 15.5t42.5 16.5q1 -10 14 -19.5t13 -19.5q0 -2 -4 -15.5t-4 -31.5q-15 -9 -19 -32q12 -11 35 -11q17 0 25 2zM743 90q37 504 37 592q0 77 -28 109t-93 32q-79 0 -176.5 -27t-175.5 -100.5t-105.5 -143t-27.5 -138.5q0 -90 59 -160t145 -110 t249 -40q11 0 23 4t34 35q9 -39 47 -39h6z" glyph-name="q" horiz-adv-x="1075" unicode="q"/>
<glyph d="M702 774q0 -10 -14 -33.5t-19 -44t-26 -41.5h-25q-52 31 -77 31q-18 0 -59 -21t-79 -74.5t-49 -84.5q-5 -34 -32 -72v-33q-19 -49 -16 -71.5t3 -34.5q0 -13 -2 -21q-12 -12 -12 -24q0 -25 10.5 -88t34.5 -96v-9q0 -45 -37 -45l-20 -20q-25 -2 -54 -2q-37 0 -65 10v4 q0 27 16.5 79t16.5 79l6 235q0 274 -30 483q-3 22 -3 25q0 38 36.5 58t63.5 20q24 0 45 -12q2 -4 7.5 -14t5.5 -13v-12q0 -15 -17.5 -67t-17.5 -132l2 -123v-18q0 -15 27 -21q42 93 100.5 146.5t144.5 77.5t109 24q26 -18 26 -33v-12z" glyph-name="r" horiz-adv-x="702" unicode="r"/>
<glyph d="M543 512q78 -70 78 -168q0 -127 -78.5 -230.5t-202.5 -123.5q-27 0 -76 -4q-37 -15 -78 -15q-54 0 -85 22t-31 87q0 19 2 29h8q20 0 38 -10.5t23 -10.5l6 2q34 -33 115 -33q77 0 140 27.5t93.5 91.5t30.5 115q0 74 -56.5 123t-254.5 110q-30 5 -39 13l-46 40 q-37 31 -48 62l-10 31q0 158 91.5 224.5t315.5 66.5l56 -3q5 0 20 5q16 -16 16 -45q0 -33 -11 -62.5t-23 -34.5q-9 18 -21 27h-2q-3 0 -9 -3.5t-9 -4.5q-47 53 -117 53q-135 0 -178 -51.5t-43 -114.5q0 -91 145 -125q106 -26 173 -53.5t67 -36.5z" glyph-name="s" horiz-adv-x="700" unicode="s"/>
<glyph d="M586 881q1 -6 12 -10.5t12 -4.5h11q33 0 57 -15t24 -34q0 -20 -28 -39l-12 13q-14 -25 -48 -31l-6 12l-12 -4q-44 20 -90 20l-94 -4q-20 0 -60 4q-26 -194 -26 -305q0 -41 4.5 -95.5t17.5 -89t26 -63.5t44 -57.5t57.5 -40.5t46 -33.5t101.5 -21.5h20q19 -15 19 -25 q0 -11 -14.5 -34t-23 -39t-28.5 -35h-4q-5 0 -8 6q-35 0 -62 8q0 -2 -2 -2t-9.5 5.5t-14.5 8.5q-7 14 -29 25q-45 16 -83.5 47t-79.5 88t-51.5 105t-17 115.5t-6.5 144.5q0 130 19 286l-21 7l-6 -13h-14l-4 13q-232 9 -232 45q0 13 14.5 23.5t84.5 10.5h39l42 10q23 5 45 18 t38.5 32t30.5 133q9 70 9 149v41q0 19 14 54t34.5 55t29.5 20q20 0 42 -7.5t25 -10.5t7 -15.5t10 -19.5v-4q0 -4 -7.5 -6t-9.5 -4t-3.5 -4t-14.5 -54t-22 -104t-14 -102t-5 -99q0 -70 6 -79t17 -9q5 0 25.5 6.5t37.5 6.5q9 0 15 -2l12 -25q6 -2 16 -2q11 0 42.5 13.5 t54.5 17.5z" glyph-name="t" horiz-adv-x="719" unicode="t"/>
<glyph d="M848 915q17 13 49 20l61 13h7q20 0 20 -51l-33 -108q-16 -54 -23 -103t-7 -94q0 -46 7 -97.5t36 -88.5q2 -5 2 -13q0 -10 -16.5 -34.5t-16.5 -65.5q0 -22 8.5 -71.5t9 -61t15 -22t14.5 -15.5q0 -8 -16 -14q-4 -49 -4 -60q0 -37 10 -41q-69 -28 -103 -28q-41 0 -41 34 q0 10 7 29q-3 6 -3 16q0 19 5.5 30t5.5 22q0 20 -6 56t-37 36q-23 0 -86 -57q-95 -84 -168 -121q-31 -11 -41 -21q-142 -22 -148 -22q-25 0 -64.5 28.5t-64 56.5t-43 86.5t-18.5 131.5q0 32 25 221t39 270.5t14 85.5q0 8 -7 25l-8 16v4q0 7 10 10t38.5 17t44.5 14 q7 0 28.5 -7t36.5 -7h6q19 -15 25 -31l-21 -24q-57 -52 -73 -154l-33 -215q-19 -112 -19 -160q0 -140 54.5 -205t107.5 -65l17 2l30 -2q15 0 59 22.5t129.5 81t104 86t32.5 70t21 97.5t7 122q0 168 -7.5 226.5t-25.5 70.5q-13 10 -13 53q16 6 22.5 10.5t12.5 4.5q11 0 25 -9 z" glyph-name="u" horiz-adv-x="1149" unicode="u"/>
<glyph d="M946 924l2 -23q0 -21 -8 -34.5t-39 -28.5q-87 -125 -183.5 -330t-145.5 -382q-12 -45 -34 -81t-22 -47q0 -8 4 -12q-26 -12 -26 -33q-20 8 -25 8q-15 0 -47 -8q-1 12 -16 27t-16 25t-16.5 38.5t-23.5 46.5l12 6q-239 615 -286 658q-35 41 -35 63q0 28 29 67.5t55 39.5 q8 0 20 -9t32.5 -20.5t31.5 -20.5l2 3q8 0 14 -103q5 -65 62 -208t72.5 -158t17.5 -23q23 -95 64.5 -148t50.5 -53q19 0 22 39h2q10 0 24.5 29.5t42.5 99.5l50 129q54 136 71 158.5t18 29t5 19.5t4 19q20 31 33 106l18 18v3l6 45l-2 14q0 68 60 68q55 0 100 -37z" glyph-name="v" horiz-adv-x="934" unicode="v"/>
<glyph d="M1292 938l13 -12q24 -8 24 -37q0 -39 -15 -72.5t-63 -165t-85 -271.5t-48.5 -210t-29.5 -117.5t-64 -85.5h-23q-4 0 -10 -8l-6 -2q-25 0 -41 51q-1 52 -98 263.5t-144 318.5q-24 88 -61 88q-7 0 -18 -4q-59 -145 -123 -329l-99 -279q7 -3 7 -9q0 -2 -6.5 -7.5t-6.5 -12.5 q0 -9 6 -25q-5 2 -10.5 6.5t-7.5 4.5q-52 -48 -100 -48q-17 0 -23 20.5t-12 82.5q-33 305 -102 490q-5 12 -11.5 49t-12.5 61t-18 51.5t-29.5 54t-17.5 47.5q0 72 156 78q12 -34 12 -63q0 -12 -2 -37.5t-2 -40.5q0 -72 46 -245l87 -333q121 270 183.5 429.5t62.5 181.5 l-2 26q0 22 20 54t52 32q22 0 32.5 -14t28.5 -59q4 -11 5.5 -36t13.5 -56.5t37.5 -83t53 -122.5t49.5 -121t62 -122.5t56 -85t34 -23.5q74 199 111 349.5t37 224.5q0 47 -23 78q25 14 28.5 41.5t12.5 27.5h9q11 0 35 13t40 14z" glyph-name="w" horiz-adv-x="1358" unicode="w"/>
<glyph d="M856 860l-6 2q-9 0 -59.5 -35.5t-112 -114t-86.5 -108.5q-55 -46 -55 -74q0 -16 99 -139.5t244 -226.5q38 -26 38 -37q0 -5 -46.5 -52.5t-83.5 -47.5q-18 0 -32 7.5t-23.5 23.5t-16.5 41q-1 3 -58 73l-53 66q-151 188 -171 188t-94 -101.5t-137 -258.5q-47 -74 -113 -74 q-16 0 -46 12.5t-30 28.5q0 34 52 41q6 0 102 129.5t235 285.5q-188 314 -272 314h-6q-10 17 -10 28q0 25 38 66t72 41q28 0 54 -41q65 -150 213 -313q128 117 176 262q28 65 53 65l27 -4q28 0 50.5 10.5t28.5 10.5q31 0 31 -45q0 -15 -2 -23z" glyph-name="x" horiz-adv-x="930" unicode="x"/>
<glyph d="M881 899q12 10 28 10q15 0 55 -10t40 -29q0 -27 -35 -51q-13 0 -105 -167l-165 -299q-73 -131 -83 -227q-9 -76 -45 -101l-6 -25q-16 -3 -26 -20q-145 -334 -176.5 -413t-34 -122t-43.5 -43h-11q-34 12 -90 12l-6 -2q-16 0 -16 17q0 5 6 8q0 8 74 106q-9 3 -9 11 q0 13 47 83q117 177 193 343q-6 9 -6 20q-6 4 -18 4h-5q-21 0 -28.5 52t-12.5 61q-45 77 -92.5 189.5t-98.5 214t-72.5 154.5t-54 91.5t-32.5 64.5v11q-4 -2 -12 -2q-14 0 -14 6t32 46.5t72 63.5q30 -12 46 -20t37 -97l22 -79v-33q38 -73 99 -206l31 -67q16 -34 30 -62.5 t29.5 -54t31.5 -47.5q25 -34 27 -38q7 -15 16.5 -27.5t20.5 -23t24 -19.5l78 177q99 224 128.5 273.5t44.5 92.5t26.5 94.5t19 66.5t26.5 15z" glyph-name="y" horiz-adv-x="1030" unicode="y"/>
<glyph d="M850 68q16 -10 16 -37q0 -21 -14 -35q2 -8 2 -23q0 -34 -29 -34q-27 0 -82 28q-331 51 -497 51q-13 0 -13 -14q-10 0 -22 6l-4 -14q-34 18 -53 18l-28 -3q-16 -1 -28 -12t-20 -11q-6 0 -21.5 16.5t-15.5 46.5q0 26 12 39l60 66q233 257 487 626v6q0 13 5 28.5t5 21.5 q0 8 -22 8h-41l-199 10q-129 0 -164 -37q-2 -2 -4 -2q-3 0 -8.5 5t-9.5 5l-6 -2q-46 -26 -54 -26q-7 0 -12.5 24t-5.5 43q0 85 63 111q8 -15 37 -18t43 -9q49 -20 140 -20h71l156 -6q84 0 209 26q16 -19 16 -35l-2 -10q-18 2 -40 -33t-34 -53t-26 -33.5t-52 -70.5l-67 -96 q-92 -130 -88 -150q-18 0 -27 -14q-89 -157 -168 -217q-4 -21 -8 -31q-51 -21 -51 -60q0 -18 8 -34h15l6 -15l32 2q11 0 17 -5t8 -5q7 0 10 8q16 -5 27 -16h51q135 -23 277 -23l73 2h43q20 0 27 7z" glyph-name="z" horiz-adv-x="881" unicode="z"/>
<glyph d="M381 897l16 49l-16 119q2 27 2 72l-2 77q0 46 21 123t38.5 102t46 32.5t88.5 7.5q146 0 146 -21q0 -7 -13 -19t-36 -18l-6 -22l-70 8h-10q-36 0 -84 -21q12 -75 12 -86l-8 -174v-67q0 -147 4 -231t4 -89q0 -26 -23.5 -62.5t-64.5 -66.5l86 -86q-10 -179 -10 -205l4 -90 q0 -15 -12.5 -71.5t-12.5 -102.5v-8l2 -72q-6 -24 -6 -41q0 -36 25 -36q36 0 97.5 29.5t68.5 29.5q9 0 17.5 -16t8.5 -27q0 -26 -58.5 -55t-137.5 -29l-45 2l-25 -4q-23 32 -41 121t-18 110q0 17 5 72.5t5 99.5l-2 109q0 14 3 39.5t3 36.5q0 66 -40 115t-103 49l-41 -2 q-27 0 -27 24q0 18 57 40l160 58l12 111z" glyph-name="braceleft" horiz-adv-x="901" unicode="{"/>
<glyph d="M264 1683q12 -18 12 -36l-2 -15v-33q0 -17 -4 -38l-4 -15q0 -17 10 -52l11 -34q0 -42 -8.5 -97t-8.5 -73v-6q4 -20 4 -31l-4 -57l3 -19q3 -23 3 -42v-23q3 -16 3 -59q0 -51 -7.5 -138.5t-7.5 -126.5q0 -111 -12 -264t-12 -229q0 -121 24 -164q-16 -6 -16 -29q0 -9 2 -33 t2 -38q0 -71 -34.5 -92t-61.5 -21q-30 0 -33 27q8 16 8 37q0 18 -3 26t-3 23q0 7 11 38t11 68v187q0 24 3 43q6 11 9 31l5 40l-10 49l18 185l-12 22q6 114 24 234l-10 22q8 19 8 43v27l2 82q0 2 -6.5 15.5t-11.5 25.5q10 41 10 96l-7 54q-3 27 -3 63v39q-23 61 -23 88 q0 9 8 66.5t21 86.5t31 35.5t61 11.5z" glyph-name="bar" horiz-adv-x="410" unicode="|"/>
<glyph d="M434 1499q45 -11 72.5 -70.5t20.5 -124.5q-3 -22 -3 -34q0 -9 4 -34t4 -42l-14 -365q0 -29 -2 -38l-4 -13q0 -15 33 -35t65 -20q13 0 29.5 3t22.5 3q14 0 22 -17t8 -36q0 -11 -40 -27.5t-73.5 -37t-40 -35.5t-11.5 -46.5t-8 -77t-3 -102.5l2 -51q0 -36 -6 -90l-6 -49 l24 -103q15 -34 15 -80q0 -64 -52.5 -119t-76.5 -55q-8 0 -18 9q-29 26 -101 26q-7 0 -46.5 -11t-74.5 -11t-35 41q0 25 6 34t31 9l84 2l90 -4q80 0 80 133v10l-29 33l-6 78q0 8 5.5 28.5t5.5 32.5q0 14 -4.5 38t-4.5 36q0 18 7 61l-21 45v23q0 212 129 260q-51 2 -83 29.5 t-32 54.5q0 11 6.5 26.5t6.5 22.5l-2 53l4 178l-2 90l6 140q0 83 -51 135q-47 -1 -95 -12l-36 16q-2 -2 -9 -2q-9 0 -18.5 9.5t-9.5 17.5q0 14 24 14q8 0 15 -6l16 24h20l74 4h23q15 0 63 29z" glyph-name="braceright" horiz-adv-x="901" unicode="}"/>
<glyph d="M1530 627q-201 -144 -387 -144q-57 0 -112 13t-178 57t-183 56t-107 12q-160 0 -385 -160v133q211 145 387 145q76 0 147 -19t208.5 -69.5t224.5 -50.5q162 0 385 158v-131z" glyph-name="asciitilde" horiz-adv-x="1706" unicode="~"/>
<glyph glyph-name="nonbreakingspace" horiz-adv-x="522" unicode=" "/>
<glyph d="M420 1405q0 -91 -72 -107q0 -2 -2 -2q-28 0 -86 50v8q0 17 41 102l6 -2q9 0 21 11.5t20 15.5q72 -31 72 -66v-10zM352 1057q13 -18 13 -45q0 -6 -6 -29q-25 -119 -25 -244l16 -269q8 -139 18.5 -230.5t10.5 -120.5q0 -87 -18 -117t-103 -51l-33 14q27 237 37.5 577.5 t26.5 481.5h4q10 0 21 16.5t16 16.5h2q2 0 6 -2t6 -2q4 0 8 4z" glyph-name="exclamdown" horiz-adv-x="631" unicode="¡"/>
<glyph d="M920 930q-31 -13 -31 -29v-22q-30 -18 -35 -33.5t-23 -30.5q0 -4 -2 -4q-1 0 -12.5 14t-30.5 25q0 10 -12 22l-14 -8q-27 37 -68 37h-12l-14 14q-20 3 -52 3q-46 0 -59 -16t-29 -169t-20 -446q10 -19 31 -29q20 0 34 -14h52l6 14h22l8 -14h7q11 0 28 7l15 7l71 18h6 q21 0 21 -20l-9 -46q-3 -21 -39 -53t-50 -46h-9q-38 0 -174 30q-4 4 -12 4t-14 -4l-2 -18l2 -76v-35l16 -14q-16 -129 -28.5 -160.5t-51.5 -42.5v-14h-14q0 45 -37 45q16 19 16 31q0 13 -16 18q39 83 39 139l-2 33q0 11 14 16q2 14 2 41q0 45 -13.5 62t-50.5 29 q-79 24 -160 115t-81 149v2q-12 43 -12 86q0 108 70.5 195t97.5 122q8 -2 16 -6q13 17 31 37q17 3 46 19.5t54.5 22t39 24.5t13.5 65q0 22 -6 64t-6 61q0 16 6 29t17 45h20q38 28 55 28q16 0 21.5 -20.5t5.5 -30.5q0 -31 -20.5 -86t-20.5 -80q0 -47 27 -47q31 0 63 29 q0 -14 8 -14h144l6 14q51 -10 76.5 -30.5t25.5 -29.5v-4q0 -9 4.5 -15t4.5 -7v-2zM471 864l-22 8l-107 -78q-49 -35 -77.5 -94.5t-28.5 -121.5q0 -162 200 -283q23 87 35 569z" glyph-name="cent" horiz-adv-x="950" unicode="¢"/>
<glyph d="M1151 1303q-4 -24 -4 -31q0 -25 -32 -53.5t-56 -28.5q-27 0 -72 29t-87.5 44t-114 25t-91.5 10q-32 0 -69 -6t-45 -6h-21q-27 0 -80.5 -26t-96 -100t-42.5 -195q0 -152 25 -215.5t90 -63.5l77 2l72 -2q134 0 192.5 8.5t80 20.5t24.5 12q5 0 13.5 -4t13.5 -4q7 0 12 10 t8 10h2q6 -10 27.5 -26t21.5 -25v-10q0 -43 -34 -43q-7 0 -23 4q-5 -14 -22 -31q-13 7 -23 15l-18 -5q-19 19 -55.5 23t-112.5 4q-124 0 -312 -12q14 -48 31.5 -67t56.5 -19q16 0 46.5 3t46.5 3l22 2q25 0 71 -8l44 -8q30 0 88 16t84 16q63 0 63 -41q0 -18 -10.5 -31.5 t-26.5 -13.5l-22 2q-21 0 -23 -22q-160 37 -397 37v-10q0 -49 48 -114.5t48 -103.5l-1 -34q-1 -16 -19.5 -32.5t-18.5 -25.5v-6q-14 0 -20 8q-14 -10 -14 -18v-4q-6 2 -17 2l-37 -2q-8 0 -20 6q-14 33 -23 45q0 16 -6 34l-6 15v31q-13 90 -35 147.5t-31.5 60.5t-44.5 3 q-74 0 -94 -47v22q-10 20 -30 16.5t-27 -3.5l-12 2q-11 10 -11 22v6q20 23 48 23q8 9 12 28q0 -9 8 -14q20 8 31 8q13 0 34.5 -6t28.5 -6t19 4q10 21 10 29q0 14 -14 14l-54 2q-14 0 -26 -2q-1 10 -11 19t-12 12q-7 -10 -20 -10q-11 10 -11 20q0 5 3.5 16t3.5 19l-2 10h20 q14 7 36 12.5t30 12t8 24.5l-6 168q0 143 42 238.5t108 140.5t93 45h11q8 0 32 21.5t58 21.5l57 -4q12 12 23 21l6 -13l45 4q4 0 11 -5t15 -5q16 0 43 12q68 -13 208.5 -32t160.5 -47zM1130 82q0 -80 -24 -109q-286 50 -610 50q-165 0 -340 -13q2 -2 2 -8q0 -9 -8 -14 q-4 30 -35 30q-20 0 -39 -8q-8 6 -8 21v10q99 86 167 81l216 -18l26 2q16 0 39 -10q2 7 10 15q10 -13 43 -13q15 0 87.5 8.5t144.5 4.5l104 -7q12 6 15 15q92 8 100 8q19 0 24 -2q8 4 23 4q41 0 63 -25v-22z" glyph-name="sterling" horiz-adv-x="1171" unicode="£"/>
<glyph d="M1157 424l-72 -74l-204 207q-112 -88 -260 -88q-145 0 -256 88l-207 -207l-72 74l207 205q-88 116 -88 256q0 139 88 256l-207 205l72 73l207 -207q117 91 256 91q142 0 260 -91l204 207l72 -73l-205 -205q86 -114 86 -256t-86 -256zM623 571q129 0 221 93.5t92 222.5 t-92 221t-221 92q-130 0 -222 -92t-92 -221q0 -130 92 -223t222 -93z" glyph-name="currency" horiz-adv-x="1241" unicode="¤"/>
<glyph d="M1378 1350q4 -12 4 -19q0 -18 -31 -47t-36 -31q-1 -2 -9 -4q-10 -4 -26 -13q-15 -9 -64 -80q-38 -56 -62 -104q-14 -27 -62 -79l-124 -188q-47 -68 -108 -145q-49 -62 -57 -73q-19 -26 -19 -37q0 -9 18.5 -15.5t22.5 -6.5l51 5q96 6 150.5 34t75.5 28l12 -2q33 -2 42 -12 t9 -35q0 -24 -29.5 -46.5t-37.5 -22.5q-7 0 -16.5 5t-14.5 5h-4q-12 0 -66 7t-108 7q-110 0 -124 -9t-25.5 -32t-22.5 -32q15 -11 28 -11q22 0 66 11l4 -15q36 -4 47 -4q36 0 65.5 7t33.5 7t15 -2t17 -2q8 0 14 4t26 8.5t22 4.5h22q13 4 35 4q23 0 34 -10.5t11 -16.5v-20 q0 -49 -39 -49l-18 4q-6 2 -19 2q-27 0 -47 -21q-25 26 -86 27l-100 2q-55 2 -83 -7.5t-44 -50t-16 -94.5q0 -32 7 -94.5t7 -91.5q0 -64 -47 -76q-21 -6 -21 -28q-6 4 -16 4q-7 0 -17.5 -3t-15.5 -3l-8 2q-20 23 -23 81l-2 7q0 7 9 34q34 108 34 230q0 13 -4 74 q-57 14 -96 14q-25 0 -84.5 -7t-93.5 -7q-60 0 -134 -18.5t-96 -18.5q-15 0 -40 11t-25 28q0 13 41 34t131 21h233q50 0 142 14q-8 17 -8 31l4 20q0 8 -14 14.5t-17 6.5q-264 0 -367 -41l-10 4q-53 16 -53 23q0 14 45 35.5t136 23.5l226 8h2v2q0 25 -88 208t-243 446 q-46 33 -67 61t-21 39q0 15 21.5 34.5t41.5 39.5q53 0 53 14l-2 6q0 8 8 8q14 0 24.5 -17.5t57 -126.5t135.5 -264t150.5 -281t83.5 -126q7 0 10 6q47 13 109 98t196 301l63 102q67 107 69 112q17 47 49 109t38.5 69t14 9.5t18.5 2.5q43 0 127 -20z" glyph-name="yen" horiz-adv-x="1382" unicode="¥"/>
<glyph d="M575 674h-126v758h126v-758zM575 -350h-126v758h126v-758z" glyph-name="brokenbar" unicode="¦"/>
<glyph d="M602 1061q8 -8 8 -17q0 -10 -18.5 -28t-18.5 -37q0 -23 60.5 -87t202.5 -136q16 0 41.5 -4.5t119.5 -99.5q53 -54 71 -101q32 -83 32 -125q0 -132 -48 -231.5t-204 -182.5q-67 -35 -82 -59q-74 -110 -156.5 -158t-197.5 -90q-6 2 -23 2q-14 0 -22 -2q-43 -31 -168 -31 q-39 0 -55.5 31t-16.5 92q0 7 14 35q4 2 13 2q24 0 49 -31q52 -14 78 -14q75 0 154.5 21t131.5 53t85 79.5t47 83.5t14 87q0 90 -59.5 173t-164.5 136q-197 100 -257 174t-60 170q0 111 71.5 201t192.5 129l22 20q6 7 11 12q9 9 19 18l24 38q13 21 30 40q16 18 35 34 q19 17 42 30q22 14 48 26q46 21 54 21h31q3 2 22 23q56 10 100 33l15 -17q28 6 57 6h21q28 0 63 -7.5t35 -55.5q0 -36 -15.5 -64t-31.5 -28q-12 7 -41 35t-66 28q-139 0 -225 -53.5t-86 -112.5q0 -4 3 -17t3 -24v-6zM436 1006l-31 -8q-16 -4 -38.5 -28t-38 -47.5t-26 -48 t-16 -47.5t-5.5 -43q0 -70 75.5 -144t198.5 -112q6 0 23.5 -15.5t31.5 -25.5q114 -79 159.5 -150.5t45.5 -162.5v-16q-4 -16 -4 -19q0 -24 25 -24q46 0 103.5 75t57.5 156q0 91 -56 176.5t-122 95.5v3q0 20 -45 43q-191 92 -251 165t-64 160z" glyph-name="section" horiz-adv-x="1229" unicode="§"/>
<glyph d="M760 1303q7 -10 28 -34t21 -40q0 -24 -23.5 -49t-48.5 -25q-44 0 -85.5 45.5t-41.5 69.5q0 26 39 59v19h21l4 14q17 -3 28 -14q5 -15 13.5 -27t44.5 -18zM309 1329q0 -14 19 -26q73 -23 73 -89q0 -17 -22.5 -38.5t-22.5 -36.5h-8q-14 0 -20 -6q-113 82 -113 106 q0 9 10 38t38 44.5t36 15.5q5 0 10 -8z" glyph-name="dieresis" unicode="¨"/>
<glyph d="M293 1464q92 0 158.5 -66.5t66.5 -158.5q0 -93 -67 -159t-162 -66q-88 0 -154.5 67.5t-66.5 161.5q0 87 66.5 154t158.5 67zM293 1049q78 0 135 55.5t57 134.5t-56 135t-136 56q-79 0 -135 -57t-56 -134t56.5 -133.5t134.5 -56.5zM399 1200q0 -44 -29.5 -71t-78.5 -27 q-51 0 -82 37t-31 102q0 60 33 96.5t86 36.5q94 0 100 -86h-55q-4 45 -47 45q-57 0 -57 -92q0 -90 57 -90q45 0 49 49h55z" glyph-name="copyright" horiz-adv-x="555" unicode="©"/>
<glyph d="M143 1407q38 20 148 20q56 0 118.5 -37t71.5 -210q5 -8 18 -12.5t13 -12.5q0 -5 -10.5 -14t-14.5 -30t-4 -103l2 -84q0 -4 -4 -9v-20q0 -23 6 -58l7 -32l-2 -27l2 -28q-44 -41 -68 -41q-4 0 -13.5 4t-17.5 4h-4q-6 18 -6 28q0 41 27 72q4 24 4 35q0 35 -13.5 32t-25.5 -3 l-8 -13q-73 -21 -96.5 -30t-63.5 -9q-97 0 -117 39q-26 20 -29 39l-2 23l2 16q0 64 90 127.5t156 77t83.5 25.5t17.5 53q0 43 -21.5 75t-70.5 51l-48 19q-44 0 -108 -6q-26 -25 -56 -25q-20 0 -20 15q0 7 13 28t38 21h6zM362 950q35 47 35 80q0 74 -55 74q-67 0 -104 -31 h-15q-82 -45 -82 -94q0 -36 33 -62t74 -26q31 0 67 16t47 31v12z" glyph-name="ordfeminine" horiz-adv-x="614" unicode="ª"/>
<glyph d="M1010 150q-4 -57 -37 -103l-15 10q-11 -3 -26.5 -12.5t-22.5 -9.5q-15 0 -22.5 20.5t-11.5 25t-26 23.5q-158 139 -310 320l-2 20l2 23q116 81 223.5 195t138.5 141t49.5 40t44.5 13q11 0 15 -18q-22 -67 -134.5 -148t-160 -130t-47.5 -62h2q6 -53 41.5 -95t97 -96 t91 -84t42.5 -30q5 0 14 4t13 4h4q18 -54 28 -54q5 0 9 3zM475 838q14 -15 33 -15q37 0 37 -39q0 -15 -28.5 -48t-70.5 -58l-8 12h-10q-16 0 -88 -46.5t-168 -139.5l-2 -21l2 -22v-6q0 -24 13 -36.5t40.5 -27t55.5 -42.5q62 -61 93.5 -84.5t77.5 -45.5t52 -41l2 -16 q0 -28 -19.5 -49t-42.5 -21t-82 41t-183.5 145t-138 120.5t-13.5 37.5q0 23 20 48t23 26q189 69 405 328z" glyph-name="guillemotleft" horiz-adv-x="1229" unicode="«"/>
<glyph d="M1452 356h-115v385h-1083v117h1198v-502z" glyph-name="logicalnot" horiz-adv-x="1706" unicode="¬"/>
<glyph d="M850 522q22 -25 22 -49q0 -23 -19 -36.5t-19 -28.5q-13 0 -33.5 -14.5t-24.5 -14.5q-6 0 -20 4q-68 18 -174 18q-42 0 -115.5 -6t-106.5 -6l-94 2q-35 0 -53 -2q-66 -29 -78 -29q-8 0 -20.5 14t-12.5 25l2 7q12 11 37.5 41.5t39 39t44.5 5.5t47 -3h15l8 15q27 -12 51 -12 q8 0 23.5 2t23.5 2l51 -2l74 2q22 0 100 -4l7 14q49 -14 69 -14q86 0 86 18l-2 6h2q9 0 47 14v-14q0 -8 15 -8z" glyph-name="sfthyphen" horiz-adv-x="975" unicode="­"/>
<glyph d="M293 1464q92 0 158.5 -66.5t66.5 -158.5q0 -93 -67 -159t-162 -66q-88 0 -154.5 67.5t-66.5 161.5q0 87 66.5 154t158.5 67zM293 1049q78 0 135 55.5t57 134.5t-56 135t-136 56q-79 0 -135 -57t-56 -134t56.5 -133.5t134.5 -56.5zM395 1118h-57l-47 99h-35v-99h-53v242 h88q102 0 102 -70q0 -50 -51 -65zM256 1253h35q49 0 49 33q0 37 -51 37h-33v-70z" glyph-name="registered" horiz-adv-x="555" unicode="®"/>
<glyph d="M1024 1757h-1024v103h1024v-103z" glyph-name="overscore" unicode="¯"/>
<glyph d="M250 1292q47 4 69 4q138 0 138 -86q0 -67 -77.5 -150t-176.5 -83q-64 0 -103 41t-39 63v6q0 60 65 111q34 27 34 43q0 6 -4 14q15 3 39.5 26t46.5 24zM270 1061q38 0 62 29t24 75q0 74 -67 74q-17 0 -71 -27.5t-54 -64.5q0 -20 30 -53t76 -33z" glyph-name="degree" horiz-adv-x="520" unicode="°"/>
<glyph d="M1452 719h-539v-344h-118v344h-541v117h541v344h118v-344h539v-117zM1452 41h-1198v117h1198v-117z" glyph-name="plusminus" horiz-adv-x="1706" unicode="±"/>
<glyph d="M690 633q0 -13 -12 -41t-12 -37v-6q0 -2 -2 -2q-3 0 -13.5 5.5t-21.5 6.5q-3 3 -7 6t-4 4q-5 -6 -12 -6l-41 11q-22 6 -127 6q-120 0 -225 -16t-133 -27q-6 -2 -14 -2q-22 0 -35 19t-13 26q0 17 56 50l24 15q6 9 36.5 12t47.5 7q-2 14 -2 32v6h4q5 0 5.5 -9t7.5 -13 q154 96 260 220.5t106 225.5v2l2 41q0 56 -53.5 105t-109.5 51t-91 2q-11 0 -24.5 -7t-20.5 -7h-6q-67 -32 -67 -51q-11 -7 -13 -11q-3 2 -16 2t-17 -9t-8 -9q-14 0 -24.5 14.5t-10.5 36.5q0 21 15 34t70.5 21.5t104 23.5t118.5 15q16 0 29.5 -3t21.5 -3h16q60 0 113 -52 t53 -132q0 -225 -414 -533q2 -4 2 -6q0 -3 -2 -8t-2 -8q0 -10 13 -10l8 2l278 8l33 -2q26 0 35.5 6t13.5 6l13 -2q2 0 8 6q24 8 31 8q4 0 28 -8v-16z" glyph-name="twosuperior" horiz-adv-x="758" unicode="²"/>
<glyph d="M616 1339q0 -15 -71 -59q-8 -3 -12.5 -17t-10.5 -20q-23 -11 -49 -39q-88 -90 -151.5 -129.5t-63.5 -42.5t12 -8l11 -4l30 2q64 0 167.5 -52.5t103.5 -185.5q0 -69 -81 -153t-235 -84l-73 4q-18 0 -28.5 -5t-29.5 -5q-35 0 -82 12q-14 14 -14 47q0 2 4 17.5t14 15.5 q3 0 11 -4h-2q0 -2 8 -2l24 2q3 0 10.5 -3t12.5 -3q24 0 31 -2q64 -31 139 -31q81 0 118 15t63 65.5t26 107.5q0 85 -62.5 130.5t-179.5 45.5q-30 0 -88 -16q-11 -11 -35 -23q0 15 -6 15l-4 -8q-23 11 -23 30q0 16 14.5 36t35.5 22q10 25 55 34q119 64 188.5 129.5 t69.5 98.5q0 37 -84 37q-97 0 -184.5 -19.5t-92.5 -19.5q-30 0 -30 47q0 43 43 43q1 -5 57.5 -8.5t103.5 -3.5q99 0 183 8q4 20 16 20h4q7 0 13 -12q32 20 57 20t46 -9.5t21 -28.5v-7z" glyph-name="threesuperior" horiz-adv-x="655" unicode="³"/>
<glyph d="M723 1364q14 14 33 14q18 0 48 -23.5t30 -62.5q0 -19 -3 -30q-73 -20 -69 -29h-6q-6 0 -15.5 -4t-13.5 -4q-7 0 -12 8q-21 -3 -21 -14l2 -7q-6 0 -25 8.5t-34 12.5l-213 -61q-115 -31 -141 -50q-13 6 -13 15v6q26 45 117 98h21q38 0 172 64q100 59 143 59z" glyph-name="acute" unicode="´"/>
<glyph d="M1051 1069l-162 -754q-23 -99 -23 -135q0 -65 72 -65q16 0 35 2l-27 -125q-43 -10 -92 -10q-136 0 -145 147q-89 -147 -289 -147q-174 0 -262 137l-113 -545h-156l316 1495h157l-126 -596q-15 -63 -15 -137q0 -108 57 -167.5t160 -59.5q246 0 336 409l121 551h156z" glyph-name="mu1" horiz-adv-x="1128" unicode="µ"/>
<glyph d="M911 1415h90q76 0 76 -39q0 -21 -9.5 -36t-23.5 -15q-3 0 -17 10.5t-30 10.5q-10 0 -31 -5l-20 -4l-31 4v-73l-4 -162l2 -137q0 -26 -6 -81t-6 -85l2 -103q0 -41 -9 -102.5t-9 -85.5q0 -418 21 -488q16 -48 16 -118v-15q6 -15 6 -30q0 -54 -90 -54q-54 0 -54 46 q0 8 9.5 38.5t9.5 51.5q0 16 -12.5 210.5t-12.5 403.5q0 71 11.5 195.5t13.5 203.5l4 152l-21 16l-4 197q-17 20 -43 20q-37 0 -84 -34l11 -420l-17 -37l23 -82l-17 -57l15 -95q-15 -93 -15 -161l4 -129v-82q0 -79 11 -301q16 -36 16 -54q0 -27 -29 -57.5t-61 -30.5 q-23 0 -38 17.5t-15 44.5q0 8 4 26.5t4 55.5l-6 125q0 77 6 170l4 61l-41 29l4 20l29 21l-4 96q0 6 2 19.5t2 21.5q0 20 -12 59l-11 -2q-15 0 -36.5 13.5t-32.5 13.5h-9q-10 0 -104 42.5t-147.5 125t-53.5 192.5q0 83 24.5 156.5t73 133.5t129.5 109.5t136 49.5h45l20 -10 q9 -5 54 -9l32 29h74q27 0 55 -2q15 41 70 41q42 0 57 -35z" glyph-name="paragraph" horiz-adv-x="1190" unicode="¶"/>
<glyph d="M541 78q14 -7 15 -25l1 -38q16 -88 16 -228q0 -112 -17.5 -135t-51.5 -23q-24 0 -39.5 14.5t-15.5 34.5q0 7 4 27t4 35l-2 33q0 28 17 88.5t17 93.5l-2 41q0 11 2.5 28t2.5 25v8z" glyph-name="cedilla" unicode="¸"/>
<glyph d="M397 1407q4 -8 -15 -19.5t-27 -33t-22 -106t-14 -204.5l5 -153l-2 -37l2 -55q0 -16 -3.5 -40t-3.5 -32q0 -39 27 -125q-7 -11 -12 -12q23 -16 19.5 -24.5t-3.5 -12.5v-4q-27 -4 -47 -4l-51 2q-17 0 -25 -2q0 3 -4 10.5t-4 11.5q0 3 4 18q31 107 31 234l-6 268l4 130 q0 2 -6.5 19t-18.5 17q-3 0 -19.5 -9.5t-25.5 -20.5v-11q-9 0 -18 -6q-2 -8 -23.5 -24.5t-29.5 -48.5l-19 4q-8 0 -24.5 -8.5t-24.5 -8.5l-6 2q-4 -2 -8 -10q0 2 -2 2q-15 29 -15 35t18.5 15t28 28.5t9.5 26.5q0 2 -3 4q20 8 29 8l17 -2q0 -2 2 -2q1 0 8.5 5.5t38 21 t39.5 24.5q94 106 102 106q6 0 6 -8q29 35 88 41z" glyph-name="onesuperior" horiz-adv-x="508" unicode="¹"/>
<glyph d="M98 1204q45 86 132 132t204 46q38 0 68 -4t55 -13.5t46 -25.5t40.5 -39.5t36 -50.5t16.5 -88q0 -139 -93 -234.5t-232 -95.5h-4q-11 5 -35 5l-13 -7l-20 -2q-83 0 -159.5 60.5t-76.5 144.5q0 29 4.5 56.5t12.5 51.5l18 48v16zM602 1106v12q0 104 -76 159.5t-131 55.5 q-22 0 -53 -10q-20 -27 -33 -27q-12 0 -28 2q-15 -19 -56 -32q-27 -18 -46 -74t-19 -105q0 -83 45 -129t72 -53t34 -16q6 -2 19 -2q120 0 131 18q5 8 10 8q4 0 12 -4q65 41 92 100t27 97z" glyph-name="ordmasculine" horiz-adv-x="758" unicode="º"/>
<glyph d="M662 879q45 49 71 49q5 0 10 -2q8 -4 32 -33q35 -41 69 -95q20 -32 53 -93q29 -53 43 -75q23 -39 44 -63q42 -48 43 -51q11 -23 11 -33t-6 -16q-89 -65 -274 -293l-8 -53q-48 -58 -69 -76t-38 -18q-16 0 -31 14l-14 -14q-14 28 -14 41q0 4 7.5 8t49.5 51v23h21 q30 41 31 44.5t51 48.5t51 74l14 7v20q15 7 34.5 33t35.5 31q12 21 12 45t-57 132.5t-172 264.5v29zM621 498q4 -13 4 -23q0 -40 -102 -108q-71 -47 -115 -86t-107 -119t-85.5 -94.5t-43.5 -14.5q-19 0 -31 10t-12 23q0 35 43 72l8 28q4 2 13 2q12 0 22 -10q250 183 250 248 q0 20 -18 46.5t-117 116.5t-119.5 115t-54 44.5t-33.5 54.5q0 36 20.5 57t53.5 21q9 0 68 -62t123.5 -124t122 -112t81.5 -73q11 0 29 -12z" glyph-name="guillemotright" horiz-adv-x="1229" unicode="»"/>
<glyph d="M379 1405q3 -8 -14.5 -19t-26 -31.5t-21 -99t-12.5 -190.5l4 -141l-2 -35l2 -51q0 -15 -3 -37.5t-3 -30.5q0 -43 25 -117q-5 -9 -11 -12q19 -9 19 -18l-2 -15v-4q-28 -4 -47 -4l-47 2q-17 0 -25 -2q-1 3 -4.5 9.5t-3.5 11.5q0 2 4 17q29 100 29 218l-4 252q0 42 1 66 l3 53q0 1 -6.5 18t-18.5 17q-2 0 -17.5 -8.5t-25.5 -20.5v-8q-9 0 -18 -6q-2 -9 -22.5 -25t-29.5 -45l-16 4q-7 0 -22.5 -7t-22.5 -7h-8q-6 -4 -6 -9q-2 0 -4.5 3.5t-7.5 14t-5 15.5q0 6 2 8q30 15 37 27.5t9.5 20.5t2.5 10v4q15 6 27 6l14 -2h4l44 24q28 15 36 23 q89 98 99 98q6 0 6 -6q26 29 84 39zM1182 1384q40 19 78 19q33 0 53 -32t20 -64q0 -23 -10 -33t-34.5 -21t-37.5 -18v-21h-6q-9 0 -18 -10t-15 -10q-2 0 -10 4q-597 -979 -600 -1018q-11 -37 -56 -97t-61 -83q11 -14 11 -23q0 -3 -30 -62.5t-30 -72.5l-18 31l-39 18 q-8 3 -8 9l2 6q0 8 -8 8h-23q8 54 29 81.5t60 58t70.5 74t66.5 110.5l71 137l63 86q68 114 127 225t76 121q49 79 236 479q23 13 29.5 49.5t11.5 48.5zM1876 233q10 -10 10 -24q0 -10 -17.5 -34.5t-27.5 -24.5q-8 0 -12 4q-7 -11 -17 -11l-10 2l-6 -2q-6 0 -16 6.5t-15 6.5 h-41q-8 1 -19 3.5t-15 2.5l-2 -2h-7q-15 0 -20.5 -10.5t-5.5 -45.5q0 -67 24 -77v-4q0 -29 -49 -29h-16q-7 0 -31 4v2q0 4 8 46t11 99q-33 17 -66 17q-13 0 -41 -3t-41 -3h-8q-8 2 -25 2l-37 -4h-14q-37 0 -53 -7.5t-43 -4.5t-39 3h-14q-2 15 -2 29q0 15 6 21q3 14 16 30 l51 60l99 128q52 66 77 101.5t62.5 94t69 113.5t33 55.5t3.5 0.5l23 -2q7 0 8.5 13.5t5.5 17.5l-2 -6q0 -3 8 -7.5t13 -7.5q5 7 16 7q25 -19 25 -29q0 -2 -4 -6q-53 -41 -234.5 -271.5t-181.5 -265.5q0 -12 14 -12l14 2q6 0 15 -6l14 12q7 -1 12.5 -6.5t8.5 -5.5l49 4 q23 2 58 2q69 0 97 6q23 30 23 113q0 34 -6 74t-6 51v32q5 15 24 31q-8 6 -8 17q33 -17 41 -17h6q14 10 27 10l-33 -10q-6 -31 -6 -66q0 -36 8 -91.5t8 -75.5q0 -24 6 -68q14 -2 41 -2l64 2q40 0 45 14q28 -6 37 -6q5 0 10 8z" glyph-name="onequarter" horiz-adv-x="1925" unicode="¼"/>
<glyph d="M379 1405q3 -8 -14.5 -19t-26 -31.5t-21 -99t-12.5 -190.5l4 -141l-2 -35l2 -51q0 -15 -3 -37.5t-3 -30.5q0 -43 25 -117q-5 -9 -11 -12q19 -9 19 -18l-2 -15v-4q-28 -4 -47 -4l-47 2q-17 0 -25 -2q-1 3 -4.5 9.5t-3.5 11.5q0 2 4 17q29 100 29 218l-4 252q0 42 1 66 l3 53q0 1 -6.5 18t-18.5 17q-2 0 -17.5 -8.5t-25.5 -20.5v-8q-9 0 -18 -6q-2 -9 -22.5 -25t-29.5 -45l-16 4q-7 0 -22.5 -7t-22.5 -7h-8q-6 -4 -6 -9q-2 0 -4.5 3.5t-7.5 14t-5 15.5q0 6 2 8q30 15 37 27.5t9.5 20.5t2.5 10v4q15 6 27 6l14 -2h4l44 24q28 15 36 23 q89 98 99 98q6 0 6 -6q26 29 84 39zM1182 1384q40 19 78 19q33 0 53 -32t20 -64q0 -23 -10 -33t-34.5 -21t-37.5 -18v-21h-6q-9 0 -18 -10t-15 -10q-2 0 -10 4q-597 -979 -600 -1018q-11 -37 -56 -97t-61 -83q11 -14 11 -23q0 -3 -30 -62.5t-30 -72.5l-18 31l-39 18 q-8 3 -8 9l2 6q0 8 -8 8h-23q8 54 29 81.5t60 58t70.5 74t66.5 110.5l71 137l63 86q68 114 127 225t76 121q49 79 236 479q23 13 29.5 49.5t11.5 48.5zM1847 98q2 -5 2 -16q0 -12 -12 -38t-12 -34v-6q0 -2 -2 -2t-11 5t-16.5 6.5t-11 5.5t-4.5 4q-4 -7 -11 -7q-1 0 -6 2 q-38 15 -155 15q-54 0 -113 -4.5t-128 -14.5t-80 -14l-21 -8h-15q-21 0 -32 17.5t-11 23.5q0 15 33.5 34.5t42.5 24.5q5 10 35.5 13t44.5 6q-2 14 -2 30v6h4q5 0 5 -7q0 -9 5 -13q105 55 227.5 182t122.5 234v2q3 20 3 37q0 52 -52 99t-110 48h-80q-12 0 -25 -6t-18 -6h-4 q-66 -28 -68 -49q-8 -4 -10 -9q-4 3 -16 3t-17 -17h-6q-13 0 -23 13.5t-10 33.5q0 19 13 30.5t66.5 19t100 23t113.5 15.5q14 0 27.5 -3t21.5 -3h15q57 0 108 -48.5t51 -123.5q0 -210 -395 -498v-6l-2 -14q0 -16 15 -10q8 4 167 7l103 3l30 -2q27 0 33 5t15 5h12q3 0 8 6 q18 6 29 6t26 -6z" glyph-name="onehalf" horiz-adv-x="1913" unicode="½"/>
<glyph d="M1323 1384q40 19 78 19q33 0 53.5 -32t20.5 -64q0 -23 -10 -33t-35 -21t-37 -18v-21h-7q-8 0 -17.5 -10t-14.5 -10q-2 0 -11 4q-597 -979 -600 -1018q-10 -37 -55.5 -97t-60.5 -83q10 -14 10 -23q0 -3 -30 -62.5t-29 -72.5l-19 31l-39 18q-8 3 -8 9l2 6q0 8 -8 8h-23 q8 54 29 81.5t60 58t70.5 74t67.5 110.5l70 137l64 86q67 114 126.5 225t76.5 121q48 79 235 479q23 13 29.5 49.5t11.5 48.5zM588 1341q0 -15 -68 -55q-8 -2 -13 -16.5t-22 -25t-34 -27.5q-83 -84 -144 -122t-61 -40t7.5 -5.5t12.5 -7.5q9 2 33 2q67 0 161.5 -50t94.5 -171 q0 -63 -76 -142t-225 -79l-72 4q-15 0 -25 -5t-28 -5q-30 0 -78 10q-14 15 -14 45q0 3 4.5 17t13.5 14l8 -2v-2q3 -2 7 -2l22 2q4 0 11.5 -2t13.5 -2q16 0 28 -4q60 -27 131 -27q81 0 116.5 15t59 61t23.5 98q0 164 -231 164h-35l-32 -9q-17 -5 -28 -13.5t-22 -12.5 q0 12 -6 15l-4 -11q-21 15 -21 29q0 15 14 34t33 21q13 25 54 31q113 61 178 121.5t65 91.5q0 35 -80 35q-88 0 -173 -18.5t-91 -18.5q-11 0 -19.5 13t-8.5 32q0 39 43 41q1 -5 53.5 -8.5t99.5 -3.5q93 0 174 8q5 18 15 18h6q4 0 10 -10q31 18 55 18q14 0 39 -8t25 -28v-7z M2017 233q11 -10 11 -24q0 -10 -18 -34.5t-28 -24.5q-8 0 -12 4q-7 -11 -16 -11l-10 2l-7 -2q-6 0 -15.5 6.5t-14.5 6.5h-41q-8 1 -19.5 3.5t-15.5 2.5l-2 -2h-6q-16 0 -21.5 -10.5t-5.5 -45.5q0 -67 25 -77v-4q0 -29 -49 -29h-17q-6 0 -31 4v2q0 4 8 46t11 99 q-33 17 -66 17q-13 0 -40.5 -3t-41.5 -3h-8q-8 2 -24 2l-37 -4h-15q-37 0 -53 -7.5t-42.5 -4.5t-39.5 3h-14q-2 15 -2 29q0 15 6 21q4 14 16 30l52 60l99 128q51 66 76 101.5t62.5 94t69.5 113.5t33 55.5t4 0.5l22 -2q8 0 9 13.5t6 17.5l-3 -6q0 -3 8.5 -7.5t12.5 -7.5 q6 7 16 7q25 -19 25 -29q0 -2 -4 -6q-53 -41 -234.5 -271.5t-181.5 -265.5q0 -12 14 -12l15 2q5 0 14 -6l14 12q7 -1 12.5 -6.5t8.5 -5.5l50 4q22 2 57 2q69 0 98 6q22 30 22 113q0 34 -6 74t-6 51v32q5 15 25 31q-9 6 -9 17q33 -17 41 -17h6q14 10 27 10l6 -14 q-28 -146 -28 -229q0 -24 6 -68q13 -2 41 -2l63 2q40 0 45 14q28 -6 37 -6q5 0 10 8z" glyph-name="threequarters" horiz-adv-x="2066" unicode="¾"/>
<glyph d="M502 1370q-4 -7 -20 -18t-19 -21q-25 -41 -49 -41h-6q-78 53 -78 86q0 26 29 54t53 28q6 0 48 -26.5t42 -55.5v-6zM463 1151q41 -96 41 -176q0 -63 -35 -141t-132 -208t-120.5 -193t-23.5 -118q0 -60 24.5 -95.5t140.5 -141.5v-33q-59 -59 -82 -59q-10 0 -38 26l-75 68 q-48 43 -64.5 96t-16.5 82q0 55 17 111.5t144 230t148 221t21 82.5q0 42 -13 67.5t-37.5 55t-33.5 43.5v8q0 10 10 27t12 29q33 2 38 11t9 9q8 0 11 -12q11 20 28 20q10 0 27 -10z" glyph-name="questiondown" horiz-adv-x="688" unicode="¿"/>
<glyph d="M909 1386q80 -276 504 -1187q57 -85 57 -144q0 -14 -9.5 -25t-70 -29t-79.5 -26q-15 18 -15 35q0 15 4 34l5 15q0 33 -32.5 136t-111.5 262q-8 4 -16.5 22.5t-42.5 18.5q-19 0 -37 -19q-3 8 -42 15l-30 8h-30q-102 0 -141.5 -11.5t-41.5 -11.5q-14 0 -22 15 q-62 -17 -91.5 -13t-58.5 4q-66 0 -122.5 -15.5t-73 -16t-31.5 -25.5l-14 10q-102 -211 -152 -332q-6 -75 -31.5 -127.5t-46.5 -52.5h-2q-34 14 -139 33q-16 3 -16 18q0 33 35 61.5t40 43.5q33 62 60 86q36 43 90.5 141.5t89.5 132.5q1 44 95.5 189t163.5 272t77 137 q139 199 139 271v4q23 0 23 10v10q0 37 49 80l14 -6q26 33 41 33q18 0 18 -27q0 -16 -6 -29zM958 565q28 8 58 8q69 13 69 39q0 2 -116 296t-152 294q-25 0 -97.5 -139t-162.5 -285.5t-90 -179.5q0 -23 30 -31t35 -8l19 2q17 0 46 -5t40 -5q24 0 78.5 8t68.5 8t34 -4t26 -4 q14 0 20 14q25 -8 45 -8l31 2q11 0 18 -2zM967 1727q119 -70 119 -106q0 -9 -15 -13q-26 20 -144 52t-210 59q-13 -4 -32 -12.5t-25 -8.5h-2l2 7q0 7 -21 14q-5 -8 -12 -8q-4 0 -13.5 4t-15.5 4h-6q4 9 -69 29l-5 32q0 32 27.5 59t48.5 27q11 0 37 -16q47 0 143 -59 q131 -64 172 -64h21z" glyph-name="Agrave" horiz-adv-x="1542" unicode="À"/>
<glyph d="M909 1386q80 -276 504 -1187q57 -85 57 -144q0 -14 -9.5 -25t-70 -29t-79.5 -26q-15 18 -15 35q0 15 4 34l5 15q0 33 -32.5 136t-111.5 262q-8 4 -16.5 22.5t-42.5 18.5q-19 0 -37 -19q-3 8 -42 15l-30 8h-30q-102 0 -141.5 -11.5t-41.5 -11.5q-14 0 -22 15 q-62 -17 -91.5 -13t-58.5 4q-66 0 -122.5 -15.5t-73 -16t-31.5 -25.5l-14 10q-102 -211 -152 -332q-6 -75 -31.5 -127.5t-46.5 -52.5h-2q-34 14 -139 33q-16 3 -16 18q0 33 35 61.5t40 43.5q33 62 60 86q36 43 90.5 141.5t89.5 132.5q1 44 95.5 189t163.5 272t77 137 q139 199 139 271v4q23 0 23 10v10q0 37 49 80l14 -6q26 33 41 33q18 0 18 -27q0 -16 -6 -29zM958 565q28 8 58 8q69 13 69 39q0 2 -116 296t-152 294q-25 0 -97.5 -139t-162.5 -285.5t-90 -179.5q0 -23 30 -31t35 -8l19 2q17 0 46 -5t40 -5q24 0 78.5 8t68.5 8t34 -4t26 -4 q14 0 20 14q25 -8 45 -8l31 2q11 0 18 -2zM1053 1848q14 14 33 14q18 0 48 -23.5t30 -62.5q0 -19 -3 -30q-73 -20 -69 -29h-6q-6 0 -15.5 -4t-13.5 -4q-7 0 -12 8q-21 -3 -21 -14l2 -7q-6 0 -25 8.5t-34 12.5l-213 -61q-115 -31 -141 -50q-13 6 -13 15v6q26 45 117 98h21 q38 0 172 64q100 59 143 59z" glyph-name="Aacute" horiz-adv-x="1542" unicode="Á"/>
<glyph d="M909 1386q80 -276 504 -1187q57 -85 57 -144q0 -14 -9.5 -25t-70 -29t-79.5 -26q-15 18 -15 35q0 15 4 34l5 15q0 33 -32.5 136t-111.5 262q-8 4 -16.5 22.5t-42.5 18.5q-19 0 -37 -19q-3 8 -42 15l-30 8h-30q-102 0 -141.5 -11.5t-41.5 -11.5q-14 0 -22 15 q-62 -17 -91.5 -13t-58.5 4q-66 0 -122.5 -15.5t-73 -16t-31.5 -25.5l-14 10q-102 -211 -152 -332q-6 -75 -31.5 -127.5t-46.5 -52.5h-2q-34 14 -139 33q-16 3 -16 18q0 33 35 61.5t40 43.5q33 62 60 86q36 43 90.5 141.5t89.5 132.5q1 44 95.5 189t163.5 272t77 137 q139 199 139 271v4q23 0 23 10v10q0 37 49 80l14 -6q26 33 41 33q18 0 18 -27q0 -16 -6 -29zM958 565q28 8 58 8q69 13 69 39q0 2 -116 296t-152 294q-25 0 -97.5 -139t-162.5 -285.5t-90 -179.5q0 -23 30 -31t35 -8l19 2q17 0 46 -5t40 -5q24 0 78.5 8t68.5 8t34 -4t26 -4 q14 0 20 14q25 -8 45 -8l31 2q11 0 18 -2zM623 1788q9 -25 24 -25q12 0 34 17l54 39q32 24 43.5 35.5t20.5 41.5t17 39.5t35 24t38 14.5q17 0 39 -33q71 -110 209 -156q39 -13 39 -47q0 -21 -68 -114v-33q-37 55 -86 98v19q-26 11 -74.5 52t-74.5 54l-21 -20q-15 18 -33 18 q-20 0 -57.5 -25.5t-65 -41.5t-36 -40.5t-35.5 -53.5t-31 -29q-3 0 -6.5 4t-5.5 4q-10 0 -19 -27q-3 -2 -14 -2q-41 0 -41 74q0 11 4 27q0 -13 13 -13h6q27 40 51 51l-2 7q0 12 22 41h21z" glyph-name="Acircumflex" horiz-adv-x="1542" unicode="Â"/>
<glyph d="M909 1386q80 -276 504 -1187q57 -85 57 -144q0 -14 -9.5 -25t-70 -29t-79.5 -26q-15 18 -15 35q0 15 4 34l5 15q0 33 -32.5 136t-111.5 262q-8 4 -16.5 22.5t-42.5 18.5q-19 0 -37 -19q-3 8 -42 15l-30 8h-30q-102 0 -141.5 -11.5t-41.5 -11.5q-14 0 -22 15 q-62 -17 -91.5 -13t-58.5 4q-66 0 -122.5 -15.5t-73 -16t-31.5 -25.5l-14 10q-102 -211 -152 -332q-6 -75 -31.5 -127.5t-46.5 -52.5h-2q-34 14 -139 33q-16 3 -16 18q0 33 35 61.5t40 43.5q33 62 60 86q36 43 90.5 141.5t89.5 132.5q1 44 95.5 189t163.5 272t77 137 q139 199 139 271v4q23 0 23 10v10q0 37 49 80l14 -6q26 33 41 33q18 0 18 -27q0 -16 -6 -29zM958 565q28 8 58 8q69 13 69 39q0 2 -116 296t-152 294q-25 0 -97.5 -139t-162.5 -285.5t-90 -179.5q0 -23 30 -31t35 -8l19 2q17 0 46 -5t40 -5q24 0 78.5 8t68.5 8t34 -4t26 -4 q14 0 20 14q25 -8 45 -8l31 2q11 0 18 -2zM1149 1853q27 -7 27 -47l-2 -53v-19q-25 -10 -25 -39l-6 2q-7 0 -14 -10t-13 -12q-1 2 -6 2l-20 -2q-40 -55 -103 -55q-25 0 -52 10.5t-68.5 48t-57.5 49.5h-28q-51 35 -84 35l-15 -2q-41 -6 -45 -14t-20.5 -19t-20.5 -20l4 -25 q0 -1 -1.5 -3.5t-2.5 -4.5q-11 -35 -22 -43t-15 -14v-21q-53 15 -53 57q0 17 6 35h19q22 25 46 68t57 67.5t91 24.5q89 0 240 -106q31 -25 49 -25q70 0 76 123q31 0 59 12z" glyph-name="Atilde" horiz-adv-x="1542" unicode="Ã"/>
<glyph d="M909 1386q80 -276 504 -1187q57 -85 57 -144q0 -14 -9.5 -25t-70 -29t-79.5 -26q-15 18 -15 35q0 15 4 34l5 15q0 33 -32.5 136t-111.5 262q-8 4 -16.5 22.5t-42.5 18.5q-19 0 -37 -19q-3 8 -42 15l-30 8h-30q-102 0 -141.5 -11.5t-41.5 -11.5q-14 0 -22 15 q-62 -17 -91.5 -13t-58.5 4q-66 0 -122.5 -15.5t-73 -16t-31.5 -25.5l-14 10q-102 -211 -152 -332q-6 -75 -31.5 -127.5t-46.5 -52.5h-2q-34 14 -139 33q-16 3 -16 18q0 33 35 61.5t40 43.5q33 62 60 86q36 43 90.5 141.5t89.5 132.5q1 44 95.5 189t163.5 272t77 137 q139 199 139 271v4q23 0 23 10v10q0 37 49 80l14 -6q26 33 41 33q18 0 18 -27q0 -16 -6 -29zM958 565q28 8 58 8q69 13 69 39q0 2 -116 296t-152 294q-25 0 -97.5 -139t-162.5 -285.5t-90 -179.5q0 -23 30 -31t35 -8l19 2q17 0 46 -5t40 -5q24 0 78.5 8t68.5 8t34 -4t26 -4 q14 0 20 14q25 -8 45 -8l31 2q11 0 18 -2zM1090 1786q7 -10 28 -34t21 -40q0 -24 -23.5 -49t-48.5 -25q-44 0 -85.5 45.5t-41.5 69.5q0 26 39 59v19h21l4 14q17 -3 28 -14q5 -15 13.5 -27t44.5 -18zM639 1812q0 -14 19 -26q73 -23 73 -89q0 -17 -22.5 -38.5t-22.5 -36.5h-8 q-14 0 -20 -6q-113 82 -113 106q0 9 10 38t38 44.5t36 15.5q5 0 10 -8z" glyph-name="Adieresis" horiz-adv-x="1542" unicode="Ä"/>
<glyph d="M909 1386q80 -276 504 -1187q57 -85 57 -144q0 -14 -9.5 -25t-70 -29t-79.5 -26q-15 18 -15 35q0 15 4 34l5 15q0 33 -32.5 136t-111.5 262q-8 4 -16.5 22.5t-42.5 18.5q-19 0 -37 -19q-3 8 -42 15l-30 8h-30q-102 0 -141.5 -11.5t-41.5 -11.5q-14 0 -22 15 q-62 -17 -91.5 -13t-58.5 4q-66 0 -122.5 -15.5t-73 -16t-31.5 -25.5l-14 10q-102 -211 -152 -332q-6 -75 -31.5 -127.5t-46.5 -52.5h-2q-34 14 -139 33q-16 3 -16 18q0 33 35 61.5t40 43.5q33 62 60 86q36 43 90.5 141.5t89.5 132.5q1 44 95.5 189t163.5 272t77 137 q139 199 139 271v4q23 0 23 10v10q0 37 49 80l14 -6q26 33 41 33q18 0 18 -27q0 -16 -6 -29zM958 565q28 8 58 8q69 13 69 39q0 2 -116 296t-152 294q-25 0 -97.5 -139t-162.5 -285.5t-90 -179.5q0 -23 30 -31t35 -8l19 2q17 0 46 -5t40 -5q24 0 78.5 8t68.5 8t34 -4t26 -4 q14 0 20 14q25 -8 45 -8l31 2q11 0 18 -2zM832 1916q40 6 73 6q136 0 136 -92q0 -63 -78.5 -145.5t-181.5 -82.5q-70 0 -104 45t-34 58v2q0 62 66 118q33 28 33 43q0 5 -4 13q16 3 40.5 26t47.5 23zM852 1684q38 0 62 29t24 76q0 44 -19 58.5t-46 14.5q-17 0 -71 -26 t-54 -66q0 -19 29 -52.5t75 -33.5z" glyph-name="Aring" horiz-adv-x="1542" unicode="Å"/>
<glyph d="M1571 1368q8 0 41.5 -4t66.5 -4l230 4l88 -4q22 0 76 7t88 7q53 0 53 -28q0 -12 -8 -43t-21 -43.5t-47 -12.5q-8 0 -59 4q-68 45 -295 45q-52 0 -128.5 -2.5t-85.5 -5.5t-20 -14q-30 -132 -30 -207v-20q-9 -65 -9 -95q0 -32 11 -69t19 -69t42 -32l21 2q8 0 14 -2 q19 -18 47 -18q21 0 60.5 4t58.5 4q6 0 18.5 -2t20.5 -2q28 0 45 14l54 -5q17 9 114 16q2 -6 2 -17q0 -8 -3 -26t-3 -27q0 -7 4 -23q-18 -45 -78 -45q-19 0 -58.5 14.5t-70.5 14.5l-72 -2q-20 0 -74.5 5t-89.5 5h-28q-24 -11 -36 -27t-23 -73.5t-11 -136.5q0 -53 9.5 -165 t11.5 -155.5t5.5 -46t13.5 -6t15 -8.5l58 -2q51 0 143 7l84 7l28 -3q13 -1 35 -1q85 0 252 35q30 16 41 16t11 -18q0 -15 -11 -41q4 -10 4 -29q0 -35 -10 -47t-53 -12h-25q-77 0 -153 11t-135 11l-256 -4h-35q-9 -17 -76 -43q-22 0 -70 -33q-26 0 -34 15v12q0 33 12 51 q-56 271 -158 451l-6 -15q-4 31 -13.5 43.5t-39.5 12.5q-17 0 -35 -19q-2 13 -12 23q-36 4 -56 4q-134 0 -197 -13.5t-65 -13.5q-14 0 -22 15q-62 -17 -92 -13t-60 4q-59 0 -108 -12q-34 -14 -68 -17t-49 -28h-2q-6 0 -12 10q-18 -43 -90.5 -180.5t-80.5 -162.5t-8 -77v-24 q-14 -31 -30 -31q-65 0 -110.5 16t-45.5 29q0 32 113 160q38 43 92 142t88 132q14 71 52.5 123.5t120.5 193.5l235 398q48 81 73 134t25 75v2l20 8q3 57 49 90l15 -4q21 31 41 31q11 0 18 -10v-13q0 -15 -6 -30q24 -84 60.5 -184.5t84.5 -218.5t111 -258l118 -262 q56 -120 60.5 -124t7.5 -4q23 0 23 178q0 15 -3 51t-3 58q0 13 4 48t4 58v37l2 250q0 143 -11.5 206.5t-11.5 65.5q0 13 95 37l6 13l16 -9l12 4q32 0 60 -18zM1036 565q11 8 23 8q69 13 69 39q0 11 -126 313t-154 302q-2 0 -11 -9t-18 -16l-8 21l-244 -424 q-100 -172 -100 -201q0 -22 26.5 -30.5t36.5 -8.5l19 2q16 0 44 -5t40 -5q23 0 79 8t70 8t35 -4t29 -4q10 0 18 14q17 -10 29 -10l45 2h98z" glyph-name="AE" horiz-adv-x="2275" unicode="Æ"/>
<glyph d="M1192 -61q0 -25 -35 -25q-14 0 -39.5 5t-132 16.5t-170 21t-90.5 18.5q-12 -166 -12 -184q0 -43 7 -100l7 -47q0 -22 -14.5 -50t-38.5 -28q-76 0 -76 55q0 8 17.5 76.5t17.5 161.5q0 133 -47 149q-180 68 -276.5 142.5t-158 199t-61.5 264.5q0 68 28 159q22 75 73 193 q41 98 73 137q44 55 108 112q63 56 123 92l97 50q19 13 61 19q85 11 101 16q59 17 131 17q38 0 68.5 -6.5t80 -13t76 -11t45.5 -13t19 -19.5q0 -14 -21 -76t-55 -62q-18 0 -39 13q-44 49 -122.5 68.5t-105.5 19.5q-22 0 -63 -4l-59 -4q-12 -1 -21 -3q-23 -2 -33 -8 q-18 -10 -33 -17t-28 -10t-25 -3h-10l-14 -15q-29 0 -51 -22h-21q-262 -269 -262 -561q0 -91 28.5 -173t87.5 -157.5t106 -107.5l92 -63q44 -30 110 -44q4 15 59 24q17 -8 17 -20v-4q4 -8 19 -18.5t20 -18.5q92 -21 221 -21h33q143 22 143 39q45 -1 45 -155v-4z" glyph-name="Ccedilla" horiz-adv-x="1274" unicode="Ç"/>
<glyph d="M408 1368q10 0 44.5 -4t63.5 -4l229 4l89 -4q21 0 75 7t88 7q54 0 54 -28q0 -2 -7.5 -41t-23 -48.5t-45.5 -9.5q-8 0 -60 4q-75 45 -327 45q-44 0 -107 -2.5t-73 -7t-21 -12.5q-12 -47 -25.5 -171t-13.5 -140q0 -46 14 -85.5t16.5 -66.5t47.5 -27h16q11 0 13 -2 q0 -1 14 -9.5t33 -8.5t59 4t60 4q5 0 18 -2t20 -2q29 0 46 14l54 -5q17 9 113 16q2 -6 2 -19q0 -9 -2 -26.5t-2 -26.5q0 -15 2 -21q-14 -45 -77 -45q-17 0 -57 14.5t-83 14.5l-59 -2q-22 0 -77 5t-89 5h-29q-27 -17 -37 -29.5t-21 -75t-11 -132.5q0 -50 8 -152.5 t11.5 -156.5t6.5 -56.5t13.5 -6.5t15.5 -9l59 -2q50 0 139 7l87 7l28 -3q13 -1 35 -1q85 0 252 35q30 16 41 16q12 0 12 -20l-10 -39l2 -35q0 -36 -17 -44.5t-69 -8.5q-38 0 -121 6q-88 16 -174 16l-250 -4h-34q-17 10 -21 10q-7 0 -11.5 -6t-13.5 -3t-14 3q-14 0 -26 -12 q-26 -3 -41 -19h-7q-17 0 -28 15q10 13 10 24l-2 17q0 13 6 22q-4 2 -4 8q0 5 3 29q20 168 20 346l-2 201l4 141v49l2 265q0 97 -6 168q-17 59 -17 73q0 10 10 16.5t86 26.5l4 13l17 -9l14 4q27 0 58 -18zM756 1727q119 -70 119 -106q0 -9 -15 -13q-26 20 -144 52t-210 59 q-13 -4 -32 -12.5t-25 -8.5h-2l2 7q0 7 -21 14q-5 -8 -12 -8q-4 0 -13.5 4t-15.5 4h-6q4 9 -69 29l-5 32q0 32 27.5 59t48.5 27q11 0 37 -16q47 0 143 -59q131 -64 172 -64h21z" glyph-name="Egrave" horiz-adv-x="1112" unicode="È"/>
<glyph d="M408 1368q10 0 44.5 -4t63.5 -4l229 4l89 -4q21 0 75 7t88 7q54 0 54 -28q0 -2 -7.5 -41t-23 -48.5t-45.5 -9.5q-8 0 -60 4q-75 45 -327 45q-44 0 -107 -2.5t-73 -7t-21 -12.5q-12 -47 -25.5 -171t-13.5 -140q0 -46 14 -85.5t16.5 -66.5t47.5 -27h16q11 0 13 -2 q0 -1 14 -9.5t33 -8.5t59 4t60 4q5 0 18 -2t20 -2q29 0 46 14l54 -5q17 9 113 16q2 -6 2 -19q0 -9 -2 -26.5t-2 -26.5q0 -15 2 -21q-14 -45 -77 -45q-17 0 -57 14.5t-83 14.5l-59 -2q-22 0 -77 5t-89 5h-29q-27 -17 -37 -29.5t-21 -75t-11 -132.5q0 -50 8 -152.5 t11.5 -156.5t6.5 -56.5t13.5 -6.5t15.5 -9l59 -2q50 0 139 7l87 7l28 -3q13 -1 35 -1q85 0 252 35q30 16 41 16q12 0 12 -20l-10 -39l2 -35q0 -36 -17 -44.5t-69 -8.5q-38 0 -121 6q-88 16 -174 16l-250 -4h-34q-17 10 -21 10q-7 0 -11.5 -6t-13.5 -3t-14 3q-14 0 -26 -12 q-26 -3 -41 -19h-7q-17 0 -28 15q10 13 10 24l-2 17q0 13 6 22q-4 2 -4 8q0 5 3 29q20 168 20 346l-2 201l4 141v49l2 265q0 97 -6 168q-17 59 -17 73q0 10 10 16.5t86 26.5l4 13l17 -9l14 4q27 0 58 -18zM842 1848q14 14 33 14q18 0 48 -23.5t30 -62.5q0 -19 -3 -30 q-73 -20 -69 -29h-6q-6 0 -15.5 -4t-13.5 -4q-7 0 -12 8q-21 -3 -21 -14l2 -7q-6 0 -25 8.5t-34 12.5l-213 -61q-115 -31 -141 -50q-13 6 -13 15v6q26 45 117 98h21q38 0 172 64q100 59 143 59z" glyph-name="Eacute" horiz-adv-x="1112" unicode="É"/>
<glyph d="M408 1368q10 0 44.5 -4t63.5 -4l229 4l89 -4q21 0 75 7t88 7q54 0 54 -28q0 -2 -7.5 -41t-23 -48.5t-45.5 -9.5q-8 0 -60 4q-75 45 -327 45q-44 0 -107 -2.5t-73 -7t-21 -12.5q-12 -47 -25.5 -171t-13.5 -140q0 -46 14 -85.5t16.5 -66.5t47.5 -27h16q11 0 13 -2 q0 -1 14 -9.5t33 -8.5t59 4t60 4q5 0 18 -2t20 -2q29 0 46 14l54 -5q17 9 113 16q2 -6 2 -19q0 -9 -2 -26.5t-2 -26.5q0 -15 2 -21q-14 -45 -77 -45q-17 0 -57 14.5t-83 14.5l-59 -2q-22 0 -77 5t-89 5h-29q-27 -17 -37 -29.5t-21 -75t-11 -132.5q0 -50 8 -152.5 t11.5 -156.5t6.5 -56.5t13.5 -6.5t15.5 -9l59 -2q50 0 139 7l87 7l28 -3q13 -1 35 -1q85 0 252 35q30 16 41 16q12 0 12 -20l-10 -39l2 -35q0 -36 -17 -44.5t-69 -8.5q-38 0 -121 6q-88 16 -174 16l-250 -4h-34q-17 10 -21 10q-7 0 -11.5 -6t-13.5 -3t-14 3q-14 0 -26 -12 q-26 -3 -41 -19h-7q-17 0 -28 15q10 13 10 24l-2 17q0 13 6 22q-4 2 -4 8q0 5 3 29q20 168 20 346l-2 201l4 141v49l2 265q0 97 -6 168q-17 59 -17 73q0 10 10 16.5t86 26.5l4 13l17 -9l14 4q27 0 58 -18zM412 1788q9 -25 24 -25q12 0 34 17l54 39q32 24 43.5 35.5 t20.5 41.5t17 39.5t35 24t38 14.5q17 0 39 -33q71 -110 209 -156q39 -13 39 -47q0 -21 -68 -114v-33q-37 55 -86 98v19q-26 11 -74.5 52t-74.5 54l-21 -20q-15 18 -33 18q-20 0 -57.5 -25.5t-65 -41.5t-36 -40.5t-35.5 -53.5t-31 -29q-3 0 -6.5 4t-5.5 4q-10 0 -19 -27 q-3 -2 -14 -2q-41 0 -41 74q0 11 4 27q0 -13 13 -13h6q27 40 51 51l-2 7q0 12 22 41h21z" glyph-name="Ecircumflex" horiz-adv-x="1112" unicode="Ê"/>
<glyph d="M408 1368q10 0 44.5 -4t63.5 -4l229 4l89 -4q21 0 75 7t88 7q54 0 54 -28q0 -2 -7.5 -41t-23 -48.5t-45.5 -9.5q-8 0 -60 4q-75 45 -327 45q-44 0 -107 -2.5t-73 -7t-21 -12.5q-12 -47 -25.5 -171t-13.5 -140q0 -46 14 -85.5t16.5 -66.5t47.5 -27h16q11 0 13 -2 q0 -1 14 -9.5t33 -8.5t59 4t60 4q5 0 18 -2t20 -2q29 0 46 14l54 -5q17 9 113 16q2 -6 2 -19q0 -9 -2 -26.5t-2 -26.5q0 -15 2 -21q-14 -45 -77 -45q-17 0 -57 14.5t-83 14.5l-59 -2q-22 0 -77 5t-89 5h-29q-27 -17 -37 -29.5t-21 -75t-11 -132.5q0 -50 8 -152.5 t11.5 -156.5t6.5 -56.5t13.5 -6.5t15.5 -9l59 -2q50 0 139 7l87 7l28 -3q13 -1 35 -1q85 0 252 35q30 16 41 16q12 0 12 -20l-10 -39l2 -35q0 -36 -17 -44.5t-69 -8.5q-38 0 -121 6q-88 16 -174 16l-250 -4h-34q-17 10 -21 10q-7 0 -11.5 -6t-13.5 -3t-14 3q-14 0 -26 -12 q-26 -3 -41 -19h-7q-17 0 -28 15q10 13 10 24l-2 17q0 13 6 22q-4 2 -4 8q0 5 3 29q20 168 20 346l-2 201l4 141v49l2 265q0 97 -6 168q-17 59 -17 73q0 10 10 16.5t86 26.5l4 13l17 -9l14 4q27 0 58 -18zM879 1786q7 -10 28 -34t21 -40q0 -24 -23.5 -49t-48.5 -25 q-44 0 -85.5 45.5t-41.5 69.5q0 26 39 59v19h21l4 14q17 -3 28 -14q5 -15 13.5 -27t44.5 -18zM428 1812q0 -14 19 -26q73 -23 73 -89q0 -17 -22.5 -38.5t-22.5 -36.5h-8q-14 0 -20 -6q-113 82 -113 106q0 9 10 38t38 44.5t36 15.5q5 0 10 -8z" glyph-name="Edieresis" horiz-adv-x="1112" unicode="Ë"/>
<glyph d="M301 -2q-96 9 -96 41q0 10 7 22t12 28.5t13 111.5t14.5 289t6.5 413l-14 328v2q0 8 -8.5 23t-8.5 22q0 3 17 39t60 48.5t48 12.5q10 0 13.5 -11.5t9.5 -14.5q20 -17 20 -58q0 -3 -3 -23q-25 -167 -25 -370l2 -76l-9 -413q0 -186 25 -270.5t25 -118.5q0 -15 -28.5 -27 t-47.5 -12h-6q-19 0 -27 14zM433 1727q119 -70 119 -106q0 -9 -15 -13q-26 20 -144 52t-210 59q-13 -4 -32 -12.5t-25 -8.5h-2l2 7q0 7 -21 14q-5 -8 -12 -8q-4 0 -13.5 4t-15.5 4h-6q4 9 -69 29l-5 32q0 32 27.5 59t48.5 27q11 0 37 -16q47 0 143 -59q131 -64 172 -64h21z " glyph-name="Igrave" horiz-adv-x="614" unicode="Ì"/>
<glyph d="M301 -2q-96 9 -96 41q0 10 7 22t12 28.5t13 111.5t14.5 289t6.5 413l-14 328v2q0 8 -8.5 23t-8.5 22q0 3 17 39t60 48.5t48 12.5q10 0 13.5 -11.5t9.5 -14.5q20 -17 20 -58q0 -3 -3 -23q-25 -167 -25 -370l2 -76l-9 -413q0 -186 25 -270.5t25 -118.5q0 -15 -28.5 -27 t-47.5 -12h-6q-19 0 -27 14zM519 1848q14 14 33 14q18 0 48 -23.5t30 -62.5q0 -19 -3 -30q-73 -20 -69 -29h-6q-6 0 -15.5 -4t-13.5 -4q-7 0 -12 8q-21 -3 -21 -14l2 -7q-6 0 -25 8.5t-34 12.5l-213 -61q-115 -31 -141 -50q-13 6 -13 15v6q26 45 117 98h21q38 0 172 64 q100 59 143 59z" glyph-name="Iacute" horiz-adv-x="614" unicode="Í"/>
<glyph d="M301 -2q-96 9 -96 41q0 10 7 22t12 28.5t13 111.5t14.5 289t6.5 413l-14 328v2q0 8 -8.5 23t-8.5 22q0 3 17 39t60 48.5t48 12.5q10 0 13.5 -11.5t9.5 -14.5q20 -17 20 -58q0 -3 -3 -23q-25 -167 -25 -370l2 -76l-9 -413q0 -186 25 -270.5t25 -118.5q0 -15 -28.5 -27 t-47.5 -12h-6q-19 0 -27 14zM88 1788q9 -25 24 -25q12 0 34 17l54 39q32 24 43.5 35.5t20.5 41.5t17 39.5t35 24t38 14.5q17 0 39 -33q71 -110 209 -156q39 -13 39 -47q0 -21 -68 -114v-33q-37 55 -86 98v19q-26 11 -74.5 52t-74.5 54l-21 -20q-15 18 -33 18 q-20 0 -57.5 -25.5t-65 -41.5t-36 -40.5t-35.5 -53.5t-31 -29q-3 0 -6.5 4t-5.5 4q-10 0 -19 -27q-3 -2 -14 -2q-41 0 -41 74q0 11 4 27q0 -13 13 -13h6q27 40 51 51l-2 7q0 12 22 41h21z" glyph-name="Icircumflex" horiz-adv-x="614" unicode="Î"/>
<glyph d="M300 -2q-96 9 -96 41q0 10 7 22t12 28.5t13 111.5t14.5 289t6.5 413l-14 328v2q0 8 -8.5 23t-8.5 22q0 3 17 39t60 48.5t48 12.5q10 0 13.5 -11.5t9.5 -14.5q20 -17 20 -58q0 -3 -3 -23q-25 -167 -25 -370l2 -76l-9 -413q0 -186 25 -270.5t25 -118.5q0 -15 -28.5 -27 t-47.5 -12h-6q-19 0 -27 14zM555 1786q7 -10 28 -34t21 -40q0 -24 -23.5 -49t-48.5 -25q-44 0 -85.5 45.5t-41.5 69.5q0 26 39 59v19h21l4 14q17 -3 28 -14q5 -15 13.5 -27t44.5 -18zM104 1812q0 -14 19 -26q73 -23 73 -89q0 -17 -22.5 -38.5t-22.5 -36.5h-8q-14 0 -20 -6 q-113 82 -113 106q0 9 10 38t38 44.5t36 15.5q5 0 10 -8z" glyph-name="Idieresis" horiz-adv-x="614" unicode="Ï"/>
<glyph d="M915 1350q161 -69 249.5 -209.5t88.5 -315.5q0 -66 -17 -133q-18 -67 -52 -133t-84 -129t-113 -119q-65 -58 -141 -107q-79 -51 -167 -91l-70 -46l-88 -28q-69 -23 -70 -23q-7 0 -19 4q-6 -10 -20 -19t-17 -9h-28q-9 -19 -33.5 -30t-36.5 -11q-9 0 -29.5 3t-31.5 3h-7 q-22 0 -22 47q0 10 8 50q33 164 33 319l-4 360q-10 -4 -27 -4l-94 4q-30 0 -70 -5l-37 -5h-4q-20 0 -20 45q0 6 16 23.5t60 17.5q14 0 45 -5t47 -5l84 10v12l2 203q0 116 -6.5 165t-6.5 136q0 33 3 39q16 6 16 20h35l6 17q55 -31 117 -31q20 0 35 3l28 5q6 0 28.5 -4 t30.5 -4l24 4q33 4 67 4q104 0 175.5 -10.5t71.5 -17.5q12 -4 17 -4q6 0 28 4zM381 195q-4 -24 -4 -35q0 -74 39 -74q64 0 145.5 28t163.5 82q44 29 76.5 43t120.5 100q57 56 99 118.5t69 132.5q40 103 40 147q0 152 -34.5 259.5t-118 182.5t-189.5 100.5t-321 25.5l-8 -21 h-8q-15 0 -27 6q-59 -77 -59 -403v-70l192 -8q15 0 21 14q15 -8 45 -8h28l21 -2h80q10 10 20 10q74 0 74 -32q0 -31 -37 -41q-24 6 -51 6q-20 0 -41.5 -4t-165.5 -4q-120 0 -189 -5q-6 -113 -6 -217q0 -68 5 -187l6 -116l-2 -8q0 -14 16 -20z" glyph-name="Eth" horiz-adv-x="1346" unicode="Ð"/>
<glyph d="M1491 1360l-18 -64q-24 -79 -33.5 -176.5t-11.5 -228t-9.5 -225t-7.5 -154.5l2 -109l-2 -75q0 -57 14.5 -132t14.5 -100q0 -58 -18.5 -95.5t-43.5 -37.5q-40 0 -125 111v20q-222 228 -369 411.5t-319 387t-176 203.5q-10 0 -20 -17.5t-23.5 -138.5t-13.5 -291 q0 -187 18 -424l15 -28v-23q0 -33 -9 -41v-2q0 -7 10.5 -36t10.5 -56v-12q-25 -37 -84 -37q-13 0 -17 16q-18 -2 -59 -18q-12 19 -12 61q0 39 14 133q10 0 13 9t5.5 50.5t6.5 71.5q-15 18 -15 29l2 6q19 12 19 43l4 119l-2 160q0 105 8 147.5t8 56.5q0 16 -3 50.5t-3 38.5 q0 70 6 113t6 104l-8 34q4 11 4 48q0 46 -2 73q7 10 18 20.5t16 15.5t7.5 5.5t26.5 7.5q20 -2 69 -77q86 -132 179 -222q-2 0 -2 -4q0 -11 108.5 -129.5t253.5 -297.5l90 -112q47 -57 94 -111.5t110.5 -122t74.5 -71.5t16 -4q8 0 8 13l-2 69l4 129l-2 174q0 102 4 271l5 147 q0 57 -13 72q-2 6 -2 14q0 10 3 25.5t3 21.5q0 9 -2 13q2 13 2 39q0 22 -6 38t-6 41q0 32 24 51t64 19l21 -2h30q13 0 27 -8zM1163 1853q27 -7 27 -47l-2 -53v-19q-25 -10 -25 -39l-6 2q-7 0 -14 -10t-13 -12q-1 2 -6 2l-20 -2q-40 -55 -103 -55q-25 0 -52 10.5t-68.5 48 t-57.5 49.5h-28q-51 35 -84 35l-15 -2q-41 -6 -45 -14t-20.5 -19t-20.5 -20l4 -25q0 -1 -1.5 -3.5t-2.5 -4.5q-11 -35 -22 -43t-15 -14v-21q-53 15 -53 57q0 17 6 35h19q22 25 46 68t57 67.5t91 24.5q89 0 240 -106q31 -25 49 -25q70 0 76 123q31 0 59 12z" glyph-name="Ntilde" horiz-adv-x="1675" unicode="Ñ"/>
<glyph d="M1219 1325q70 5 174 -154.5t104 -349.5q0 -97 -18 -184t-54 -159q-77 -159 -109 -206q-71 -105 -160.5 -168t-183 -92.5t-210.5 -29.5q-278 0 -299 49q-20 8 -60 21.5t-43 17.5l-26 32q-35 9 -37 9q-105 66 -154 180t-49 323q0 161 109 375q7 14 12.5 35.5t24 35.5 t20.5 25q85 94 100.5 115.5t72.5 44.5t75 55q6 10 17.5 7.5t17.5 -2.5l8 2q7 9 14.5 16.5t11 6.5t76.5 24t84.5 22.5t86.5 8.5l65 12q23 0 55 -7.5t43 -9.5q183 -19 232 -55zM1249 330q121 220 121 403q0 125 -29 224t-84 168.5t-129 111.5t-188.5 56t-136.5 14 q-3 0 -18 -10.5t-27 -26.5q-13 -6 -33 -6l-33 2q-37 0 -55 -31q-2 -2 -6 -2q-5 0 -8 10l-15 -8v-14q-3 0 -7 7t-9 7h-4q-95 -33 -111 -55q-24 -9 -37 -11q-12 -12 -36.5 -44t-40 -50.5t-30 -31t-14.5 -44.5q-52 -47 -83 -159t-31 -232q0 -110 33 -199t81 -112v-21 q31 -36 66 -67t102 -54.5t113.5 -37t104 -22.5t114.5 -9q34 0 54 2l71 17q32 7 51 10q7 2 53 30l72 41q10 5 15 11q6 8 6 18v8q5 10 38.5 29t53.5 30t20 27q0 13 -4 21zM984 1727q119 -70 119 -106q0 -9 -15 -13q-26 20 -144 52t-210 59q-13 -4 -32 -12.5t-25 -8.5h-2l2 7 q0 7 -21 14q-5 -8 -12 -8q-4 0 -13.5 4t-15.5 4h-6q4 9 -69 29l-5 32q0 32 27.5 59t48.5 27q11 0 37 -16q47 0 143 -59q131 -64 172 -64h21z" glyph-name="Ograve" horiz-adv-x="1589" unicode="Ò"/>
<glyph d="M1219 1325q70 5 174 -154.5t104 -349.5q0 -97 -18 -184t-54 -159q-77 -159 -109 -206q-71 -105 -160.5 -168t-183 -92.5t-210.5 -29.5q-278 0 -299 49q-20 8 -60 21.5t-43 17.5l-26 32q-35 9 -37 9q-105 66 -154 180t-49 323q0 161 109 375q7 14 12.5 35.5t24 35.5 t20.5 25q85 94 100.5 115.5t72.5 44.5t75 55q6 10 17.5 7.5t17.5 -2.5l8 2q7 9 14.5 16.5t11 6.5t76.5 24t84.5 22.5t86.5 8.5l65 12q23 0 55 -7.5t43 -9.5q183 -19 232 -55zM1249 330q121 220 121 403q0 125 -29 224t-84 168.5t-129 111.5t-188.5 56t-136.5 14 q-3 0 -18 -10.5t-27 -26.5q-13 -6 -33 -6l-33 2q-37 0 -55 -31q-2 -2 -6 -2q-5 0 -8 10l-15 -8v-14q-3 0 -7 7t-9 7h-4q-95 -33 -111 -55q-24 -9 -37 -11q-12 -12 -36.5 -44t-40 -50.5t-30 -31t-14.5 -44.5q-52 -47 -83 -159t-31 -232q0 -110 33 -199t81 -112v-21 q31 -36 66 -67t102 -54.5t113.5 -37t104 -22.5t114.5 -9q34 0 54 2l71 17q32 7 51 10q7 2 53 30l72 41q10 5 15 11q6 8 6 18v8q5 10 38.5 29t53.5 30t20 27q0 13 -4 21zM1069 1848q14 14 33 14q18 0 48 -23.5t30 -62.5q0 -19 -3 -30q-73 -20 -69 -29h-6q-6 0 -15.5 -4 t-13.5 -4q-7 0 -12 8q-21 -3 -21 -14l2 -7q-6 0 -25 8.5t-34 12.5l-213 -61q-115 -31 -141 -50q-13 6 -13 15v6q26 45 117 98h21q38 0 172 64q100 59 143 59z" glyph-name="Oacute" horiz-adv-x="1589" unicode="Ó"/>
<glyph d="M1219 1325q70 5 174 -154.5t104 -349.5q0 -97 -18 -184t-54 -159q-77 -159 -109 -206q-71 -105 -160.5 -168t-183 -92.5t-210.5 -29.5q-278 0 -299 49q-20 8 -60 21.5t-43 17.5l-26 32q-35 9 -37 9q-105 66 -154 180t-49 323q0 161 109 375q7 14 12.5 35.5t24 35.5 t20.5 25q85 94 100.5 115.5t72.5 44.5t75 55q6 10 17.5 7.5t17.5 -2.5l8 2q7 9 14.5 16.5t11 6.5t76.5 24t84.5 22.5t86.5 8.5l65 12q23 0 55 -7.5t43 -9.5q183 -19 232 -55zM1249 330q121 220 121 403q0 125 -29 224t-84 168.5t-129 111.5t-188.5 56t-136.5 14 q-3 0 -18 -10.5t-27 -26.5q-13 -6 -33 -6l-33 2q-37 0 -55 -31q-2 -2 -6 -2q-5 0 -8 10l-15 -8v-14q-3 0 -7 7t-9 7h-4q-95 -33 -111 -55q-24 -9 -37 -11q-12 -12 -36.5 -44t-40 -50.5t-30 -31t-14.5 -44.5q-52 -47 -83 -159t-31 -232q0 -110 33 -199t81 -112v-21 q31 -36 66 -67t102 -54.5t113.5 -37t104 -22.5t114.5 -9q34 0 54 2l71 17q32 7 51 10q7 2 53 30l72 41q10 5 15 11q6 8 6 18v8q5 10 38.5 29t53.5 30t20 27q0 13 -4 21zM639 1788q9 -25 24 -25q12 0 34 17l54 39q32 24 43.5 35.5t20.5 41.5t17 39.5t35 24t38 14.5 q17 0 39 -33q71 -110 209 -156q39 -13 39 -47q0 -21 -68 -114v-33q-37 55 -86 98v19q-26 11 -74.5 52t-74.5 54l-21 -20q-15 18 -33 18q-20 0 -57.5 -25.5t-65 -41.5t-36 -40.5t-35.5 -53.5t-31 -29q-3 0 -6.5 4t-5.5 4q-10 0 -19 -27q-3 -2 -14 -2q-41 0 -41 74q0 11 4 27 q0 -13 13 -13h6q27 40 51 51l-2 7q0 12 22 41h21z" glyph-name="Ocircumflex" horiz-adv-x="1589" unicode="Ô"/>
<glyph d="M1219 1325q70 5 174 -154.5t104 -349.5q0 -97 -18 -184t-54 -159q-77 -159 -109 -206q-71 -105 -160.5 -168t-183 -92.5t-210.5 -29.5q-278 0 -299 49q-20 8 -60 21.5t-43 17.5l-26 32q-35 9 -37 9q-105 66 -154 180t-49 323q0 161 109 375q7 14 12.5 35.5t24 35.5 t20.5 25q85 94 100.5 115.5t72.5 44.5t75 55q6 10 17.5 7.5t17.5 -2.5l8 2q7 9 14.5 16.5t11 6.5t76.5 24t84.5 22.5t86.5 8.5l65 12q23 0 55 -7.5t43 -9.5q183 -19 232 -55zM1249 330q121 220 121 403q0 125 -29 224t-84 168.5t-129 111.5t-188.5 56t-136.5 14 q-3 0 -18 -10.5t-27 -26.5q-13 -6 -33 -6l-33 2q-37 0 -55 -31q-2 -2 -6 -2q-5 0 -8 10l-15 -8v-14q-3 0 -7 7t-9 7h-4q-95 -33 -111 -55q-24 -9 -37 -11q-12 -12 -36.5 -44t-40 -50.5t-30 -31t-14.5 -44.5q-52 -47 -83 -159t-31 -232q0 -110 33 -199t81 -112v-21 q31 -36 66 -67t102 -54.5t113.5 -37t104 -22.5t114.5 -9q34 0 54 2l71 17q32 7 51 10q7 2 53 30l72 41q10 5 15 11q6 8 6 18v8q5 10 38.5 29t53.5 30t20 27q0 13 -4 21zM1165 1853q27 -7 27 -47l-2 -53v-19q-25 -10 -25 -39l-6 2q-7 0 -14 -10t-13 -12q-1 2 -6 2l-20 -2 q-40 -55 -103 -55q-25 0 -52 10.5t-68.5 48t-57.5 49.5h-28q-51 35 -84 35l-15 -2q-41 -6 -45 -14t-20.5 -19t-20.5 -20l4 -25q0 -1 -1.5 -3.5t-2.5 -4.5q-11 -35 -22 -43t-15 -14v-21q-53 15 -53 57q0 17 6 35h19q22 25 46 68t57 67.5t91 24.5q89 0 240 -106q31 -25 49 -25 q70 0 76 123q31 0 59 12z" glyph-name="Otilde" horiz-adv-x="1589" unicode="Õ"/>
<glyph d="M1219 1325q70 5 174 -154.5t104 -349.5q0 -97 -18 -184t-54 -159q-77 -159 -109 -206q-71 -105 -160.5 -168t-183 -92.5t-210.5 -29.5q-278 0 -299 49q-20 8 -60 21.5t-43 17.5l-26 32q-35 9 -37 9q-105 66 -154 180t-49 323q0 161 109 375q7 14 12.5 35.5t24 35.5 t20.5 25q85 94 100.5 115.5t72.5 44.5t75 55q6 10 17.5 7.5t17.5 -2.5l8 2q7 9 14.5 16.5t11 6.5t76.5 24t84.5 22.5t86.5 8.5l65 12q23 0 55 -7.5t43 -9.5q183 -19 232 -55zM1249 330q121 220 121 403q0 125 -29 224t-84 168.5t-129 111.5t-188.5 56t-136.5 14 q-3 0 -18 -10.5t-27 -26.5q-13 -6 -33 -6l-33 2q-37 0 -55 -31q-2 -2 -6 -2q-5 0 -8 10l-15 -8v-14q-3 0 -7 7t-9 7h-4q-95 -33 -111 -55q-24 -9 -37 -11q-12 -12 -36.5 -44t-40 -50.5t-30 -31t-14.5 -44.5q-52 -47 -83 -159t-31 -232q0 -110 33 -199t81 -112v-21 q31 -36 66 -67t102 -54.5t113.5 -37t104 -22.5t114.5 -9q34 0 54 2l71 17q32 7 51 10q7 2 53 30l72 41q10 5 15 11q6 8 6 18v8q5 10 38.5 29t53.5 30t20 27q0 13 -4 21zM1106 1786q7 -10 28 -34t21 -40q0 -24 -23.5 -49t-48.5 -25q-44 0 -85.5 45.5t-41.5 69.5q0 26 39 59 v19h21l4 14q17 -3 28 -14q5 -15 13.5 -27t44.5 -18zM655 1812q0 -14 19 -26q73 -23 73 -89q0 -17 -22.5 -38.5t-22.5 -36.5h-8q-14 0 -20 -6q-113 82 -113 106q0 9 10 38t38 44.5t36 15.5q5 0 10 -8z" glyph-name="Odieresis" horiz-adv-x="1589" unicode="Ö"/>
<glyph d="M1415 135l-82 -82l-475 475l-477 -475l-80 82l475 475l-475 477l80 82l477 -477l475 477l82 -82l-475 -477z" glyph-name="multiply" horiz-adv-x="1706" unicode="×"/>
<glyph d="M1219 1333q71 1 175.5 -163t104.5 -345q0 -57 -12 -134l-12 -68v-17q0 -96 -62 -239q-7 -14 -12 -36t-25 -36.5t-22 -22.5q-94 -114 -145.5 -154.5t-80.5 -53t-51 -23t-35 -14.5q-87 -7 -176 -37q-24 -4 -65 -4q-321 0 -338 53q-25 12 -29 12q-26 0 -64.5 -65.5 t-58.5 -88t-51 -22.5h-12q-8 19 -8 37q0 10 2 14q28 23 32.5 55.5t36 62.5t39.5 46q-12 12 -16 19q-17 6 -36 9.5t-63 46.5t-69 87.5t-41 98.5t-23.5 118t-7.5 141q0 211 76 394q4 10 10.5 33t20.5 34.5t78.5 87.5t93.5 88q71 32 90 54t22 22l25 -2h8l7 10q4 4 8 7q6 5 18 6 q24 2 52 7q28 6 60 14q62 18 74 19q51 3 87 7l65 12h8q24 0 90 -17q15 15 35.5 47.5t36.5 32.5v21q20 8 37 46q32 73 80 73q14 0 22 -11t8 -22q0 -38 -67 -123q-23 -42 -23 -64q0 -12 17 -22q71 -17 86 -31zM883 1102q73 91 73 149q0 26 -29 44t-81 18q-32 0 -43 2 q-22 -14 -52 -21.5t-40 -7.5h-33q-39 0 -55 -29h-5q-6 0 -12 9q-12 0 -12 -9v-14h-2q-3 0 -6 7t-8 7h-5q-109 -41 -110 -55q-12 -4 -19 -4q-8 0 -24 4q-38 -34 -64 -80q0 -26 -37 -69q-118 -196 -118 -375q0 -143 33.5 -246.5t84.5 -126.5v-20q8 -9 22.5 -26.5t18.5 -19 t15 -1.5q26 0 49 26l60 73q39 46 53 71q9 37 14 51q20 27 63 98.5t43 75.5v29q68 111 140 217v26q34 34 37 51q13 31 31 62.5t18 36.5v47zM1237 240q28 58 37 69q33 52 51 109l40 135q24 78 24 180q0 129 -29.5 212t-98.5 180.5t-165 136.5q0 -14 -11 -37q-8 0 -14 6l-16 -6 v-23l-15 6q-18 0 -58 -89l-26 -58q-19 -40 -29 -66t-34 -69l-113 -191q-36 -65 -67 -128q-11 -22 -92 -157l-93 -163q7 -15 7 -27q0 -18 -13.5 -47t-13.5 -41q0 -4 4 -16q156 -62 319 -62h43q52 15 84 15q9 0 17 -3q9 7 24 7h11q18 4 34.5 12t31.5 18.5t27.5 24t24.5 17 t22.5 7t37 22t49.5 26.5z" glyph-name="Oslash" horiz-adv-x="1589" unicode="Ø"/>
<glyph d="M1393 1370h8q18 0 32 -19.5t21 -19.5h6q17 0 17 -18q0 -13 -17 -45q-6 -2 -10 -33q-5 -38 -60 -246q-45 -171 -80 -280q-43 -130 -85 -216l-60 -108q-4 -14 -6 -29q-5 -27 -83 -124q-63 -80 -138 -142q-134 -113 -166 -113q-15 0 -32.5 7t-22.5 8q-34 -21 -47 -21 q-7 0 -11 2q-49 -6 -71 -6q-79 0 -166 63.5t-120 199.5t-48 358t-24 322.5t-21.5 192.5t-17 96.5t-15.5 4.5q-12 66 -12 74q0 14 7 28t13 21t31 13t44.5 13.5t26.5 14t9 6.5q3 0 15.5 -13.5t30 -26t17.5 -46.5q0 -14 -6 -33.5t-6 -60.5l2 -68l-2 -71q0 -245 14 -399.5 t26.5 -220t37.5 -158.5t72.5 -136.5t57.5 -49t46 -5.5q5 -33 80 -33q66 0 142 39t116 90.5t73 114t65 112t77 145.5t83 249l7 26q11 26 14 72.5t21 59.5q47 190 47 247q0 33 -5 55t-5 48q0 42 30.5 45t47.5 14zM959 1727q119 -70 119 -106q0 -9 -15 -13q-26 20 -144 52 t-210 59q-13 -4 -32 -12.5t-25 -8.5h-2l2 7q0 7 -21 14q-5 -8 -12 -8q-4 0 -13.5 4t-15.5 4h-6q4 9 -69 29l-5 32q0 32 27.5 59t48.5 27q11 0 37 -16q47 0 143 -59q131 -64 172 -64h21z" glyph-name="Ugrave" horiz-adv-x="1497" unicode="Ù"/>
<glyph d="M1393 1370h8q18 0 32 -19.5t21 -19.5h6q17 0 17 -18q0 -13 -17 -45q-6 -2 -10 -33q-5 -38 -60 -246q-45 -171 -80 -280q-43 -130 -85 -216l-60 -108q-4 -14 -6 -29q-5 -27 -83 -124q-63 -80 -138 -142q-134 -113 -166 -113q-15 0 -32.5 7t-22.5 8q-34 -21 -47 -21 q-7 0 -11 2q-49 -6 -71 -6q-79 0 -166 63.5t-120 199.5t-48 358t-24 322.5t-21.5 192.5t-17 96.5t-15.5 4.5q-12 66 -12 74q0 14 7 28t13 21t31 13t44.5 13.5t26.5 14t9 6.5q3 0 15.5 -13.5t30 -26t17.5 -46.5q0 -14 -6 -33.5t-6 -60.5l2 -68l-2 -71q0 -245 14 -399.5 t26.5 -220t37.5 -158.5t72.5 -136.5t57.5 -49t46 -5.5q5 -33 80 -33q66 0 142 39t116 90.5t73 114t65 112t77 145.5t83 249l7 26q11 26 14 72.5t21 59.5q47 190 47 247q0 33 -5 55t-5 48q0 42 30.5 45t47.5 14zM1045 1848q14 14 33 14q18 0 48 -23.5t30 -62.5q0 -19 -3 -30 q-73 -20 -69 -29h-6q-6 0 -15.5 -4t-13.5 -4q-7 0 -12 8q-21 -3 -21 -14l2 -7q-6 0 -25 8.5t-34 12.5l-213 -61q-115 -31 -141 -50q-13 6 -13 15v6q26 45 117 98h21q38 0 172 64q100 59 143 59z" glyph-name="Uacute" horiz-adv-x="1497" unicode="Ú"/>
<glyph d="M1393 1370h8q18 0 32 -19.5t21 -19.5h6q17 0 17 -18q0 -13 -17 -45q-6 -2 -10 -33q-5 -38 -60 -246q-45 -171 -80 -280q-43 -130 -85 -216l-60 -108q-4 -14 -6 -29q-5 -27 -83 -124q-63 -80 -138 -142q-134 -113 -166 -113q-15 0 -32.5 7t-22.5 8q-34 -21 -47 -21 q-7 0 -11 2q-49 -6 -71 -6q-79 0 -166 63.5t-120 199.5t-48 358t-24 322.5t-21.5 192.5t-17 96.5t-15.5 4.5q-12 66 -12 74q0 14 7 28t13 21t31 13t44.5 13.5t26.5 14t9 6.5q3 0 15.5 -13.5t30 -26t17.5 -46.5q0 -14 -6 -33.5t-6 -60.5l2 -68l-2 -71q0 -245 14 -399.5 t26.5 -220t37.5 -158.5t72.5 -136.5t57.5 -49t46 -5.5q5 -33 80 -33q66 0 142 39t116 90.5t73 114t65 112t77 145.5t83 249l7 26q11 26 14 72.5t21 59.5q47 190 47 247q0 33 -5 55t-5 48q0 42 30.5 45t47.5 14zM615 1788q9 -25 24 -25q12 0 34 17l54 39q32 24 43.5 35.5 t20.5 41.5t17 39.5t35 24t38 14.5q17 0 39 -33q71 -110 209 -156q39 -13 39 -47q0 -21 -68 -114v-33q-37 55 -86 98v19q-26 11 -74.5 52t-74.5 54l-21 -20q-15 18 -33 18q-20 0 -57.5 -25.5t-65 -41.5t-36 -40.5t-35.5 -53.5t-31 -29q-3 0 -6.5 4t-5.5 4q-10 0 -19 -27 q-3 -2 -14 -2q-41 0 -41 74q0 11 4 27q0 -13 13 -13h6q27 40 51 51l-2 7q0 12 22 41h21z" glyph-name="Ucircumflex" horiz-adv-x="1497" unicode="Û"/>
<glyph d="M1393 1370h8q18 0 32 -19.5t21 -19.5h6q17 0 17 -18q0 -13 -17 -45q-6 -2 -10 -33q-5 -38 -60 -246q-45 -171 -80 -280q-43 -130 -85 -216l-60 -108q-4 -14 -6 -29q-5 -27 -83 -124q-63 -80 -138 -142q-134 -113 -166 -113q-15 0 -32.5 7t-22.5 8q-34 -21 -47 -21 q-7 0 -11 2q-49 -6 -71 -6q-79 0 -166 63.5t-120 199.5t-48 358t-24 322.5t-21.5 192.5t-17 96.5t-15.5 4.5q-12 66 -12 74q0 14 7 28t13 21t31 13t44.5 13.5t26.5 14t9 6.5q3 0 15.5 -13.5t30 -26t17.5 -46.5q0 -14 -6 -33.5t-6 -60.5l2 -68l-2 -71q0 -245 14 -399.5 t26.5 -220t37.5 -158.5t72.5 -136.5t57.5 -49t46 -5.5q5 -33 80 -33q66 0 142 39t116 90.5t73 114t65 112t77 145.5t83 249l7 26q11 26 14 72.5t21 59.5q47 190 47 247q0 33 -5 55t-5 48q0 42 30.5 45t47.5 14zM1082 1786q7 -10 28 -34t21 -40q0 -24 -23.5 -49t-48.5 -25 q-44 0 -85.5 45.5t-41.5 69.5q0 26 39 59v19h21l4 14q17 -3 28 -14q5 -15 13.5 -27t44.5 -18zM631 1812q0 -14 19 -26q73 -23 73 -89q0 -17 -22.5 -38.5t-22.5 -36.5h-8q-14 0 -20 -6q-113 82 -113 106q0 9 10 38t38 44.5t36 15.5q5 0 10 -8z" glyph-name="Udieresis" horiz-adv-x="1497" unicode="Ü"/>
<glyph d="M1145 1354q2 -10 2 -25q0 -33 -31 -41q-48 -54 -130 -194.5t-188.5 -296.5t-125.5 -193.5t-19 -60.5v-27l-2 -186q0 -112 11.5 -186t11.5 -81q0 -61 -80 -61q-32 0 -68 8q-4 12 -4 13q0 5 4 20.5t4 26.5q0 13 2.5 28t8.5 39t6 49l1 61l1 70q0 107 -10 171t-39.5 116 t-115 175.5t-154.5 228t-96.5 142.5t-43.5 46q-10 22 -41 35q-8 19 -8 33q0 37 29 47q26 38 54.5 45.5t39.5 11.5q17 -68 40 -91.5t64 -98t76 -99.5q6 -28 14 -28h7v-4q0 -23 37 -69t72 -110.5t84.5 -123t66.5 -58.5q2 0 2 2q10 0 123 149.5t202 428.5q20 60 42.5 81.5 t84.5 28.5l6 2q7 0 26 -10.5t34 -13.5zM795 1848q14 14 33 14q18 0 48 -23.5t30 -62.5q0 -19 -3 -30q-73 -20 -69 -29h-6q-6 0 -15.5 -4t-13.5 -4q-7 0 -12 8q-21 -3 -21 -14l2 -7q-6 0 -25 8.5t-34 12.5l-213 -61q-115 -31 -141 -50q-13 6 -13 15v6q26 45 117 98h21 q38 0 172 64q100 59 143 59z" glyph-name="Yacute" horiz-adv-x="1167" unicode="Ý"/>
<glyph d="M383 1141l213 4q230 0 341.5 -86t111.5 -264q0 -169 -170 -302.5t-476 -168.5q-4 -11 -12 -28.5t-8 -23.5q0 -5 4 -28.5t4 -44.5l-2 -62q0 -30 4 -60l4 -22v-14q0 -16 -6 -20.5t-33.5 -9.5t-53.5 -15t-30 -10t-21 7t-32.5 10.5t-15.5 10.5q0 6 17.5 26.5t17.5 43.5v6 l13 63q15 70 15 103q0 73 -15 91t-15 20v2q0 3 22 53q6 55 6 121l-6 198l2 172q0 201 -13 302l-14 99q0 15 27.5 37.5t67.5 34.5l35 13h6q15 0 26 -17.5t11 -44.5q0 -6 -5 -26q-22 -22 -22 -56v-63q0 -29 2 -51zM391 408q40 -5 58 -5q160 0 316.5 104.5t156.5 266.5 q0 170 -123 229.5t-267 59.5q-103 0 -147 -23q2 -15 2 -49l-4 -170z" glyph-name="Thorn" horiz-adv-x="1130" unicode="Þ"/>
<glyph d="M205 397q23 13 25 58.5t7 99.5t5 104l-11 252q0 324 69 471.5t210.5 219t253.5 71.5q39 0 62.5 -2.5t71 -22t56.5 -28.5l58 -57q57 -57 89 -148t32 -196q0 -56 -9.5 -110t-27 -101.5t-52.5 -93.5t-36 -52q-4 -2 -13 -2q-11 0 -51.5 16.5t-83.5 16.5q-121 0 -171 -41.5 t-50 -118.5q0 -90 143 -131q242 -68 242 -90q76 -75 76 -168q0 -92 -41.5 -168.5t-111.5 -121.5t-135.5 -57t-130.5 -26t-83 -14t-30.5 15.5t-12.5 39.5l6 37l-2 17q0 38 49 38l62 -14q67 -14 114 -14q78 0 130.5 24t75 74t22.5 94q0 85 -50.5 137.5t-267.5 118.5 q-50 10 -96.5 66t-46.5 80q0 106 47 180.5t135 98t173.5 30t92 9.5t19 20t22 57.5t12.5 44.5t3 61q0 107 -50 205t-133 153.5t-178 55.5h-18q-83 -19 -107 -28q-19 -7 -52 -35q-25 -22 -48 -50l-41 -50q-19 -21 -34 -61q-15 -41 -26 -100q-10 -61 -16 -139q-6 -80 -6 -176 l10 -784v-119l2 -229q0 -179 -36.5 -286t-118.5 -170l-19 -15q-5 1 -12 12q-3 -2 -16 -2q-21 0 -31 21t-21 22q38 20 62 20l16 -2q72 0 72 432v107l-2 270v45q-33 23 -64 23q-15 0 -52 -7.5t-60 -7.5q-19 0 -29 5q-6 24 -6 47q27 12 88 24.5t76 44.5z" glyph-name="germandbls" horiz-adv-x="1194" unicode="ß"/>
<glyph d="M750 541q0 -8 -13.5 -22t-18.5 -25t-8 -58.5t-3 -140.5l4 -135q0 -11 -9 -19q-2 -11 -2 -37q0 -37 12 -94l11 -53l-2 -49l2 -43q-72 -72 -107 -72q-5 0 -19 7t-26 7h-6q-8 28 -8 50q0 49 23 94q11 14 16.5 22t5.5 60q0 57 -12 57q-2 0 -12.5 -4t-22.5 -4h-8 q-12 -8 -15 -21q-12 1 -131 -45q-58 -20 -112 -20q-59 0 -106 15.5t-79 46t-41.5 45.5t-9.5 65l2 25v8q0 100 155.5 210t290.5 133q36 6 56 12.5t33.5 21.5t13.5 69q0 178 -188 242q-6 2 -16.5 8t-18.5 6q-97 0 -162 -8q-36 -41 -80 -41q-33 0 -33 23q0 1 14.5 42.5 t69.5 41.5q63 34 230 34q134 0 208 -104t74 -297v-14q8 -13 28 -19t20 -18v-2zM553 186q63 85 63 152q0 41 -20.5 89t-81.5 48q-118 0 -192 -59h-25q-154 -85 -154 -180q0 -67 63.5 -112.5t147.5 -45.5q22 0 84 19t115 71v18zM510 1243q119 -70 119 -106q0 -9 -15 -13 q-26 20 -144 52t-210 59q-13 -4 -32 -12.5t-25 -8.5h-2l2 7q0 7 -21 14q-5 -8 -12 -8q-4 0 -13.5 4t-15.5 4h-6q4 9 -69 29l-5 32q0 32 27.5 59t48.5 27q11 0 37 -16q47 0 143 -59q131 -64 172 -64h21z" glyph-name="agrave" horiz-adv-x="893" unicode="à"/>
<glyph d="M750 541q0 -8 -13.5 -22t-18.5 -25t-8 -58.5t-3 -140.5l4 -135q0 -11 -9 -19q-2 -11 -2 -37q0 -37 12 -94l11 -53l-2 -49l2 -43q-72 -72 -107 -72q-5 0 -19 7t-26 7h-6q-8 28 -8 50q0 49 23 94q11 14 16.5 22t5.5 60q0 57 -12 57q-2 0 -12.5 -4t-22.5 -4h-8 q-12 -8 -15 -21q-12 1 -131 -45q-58 -20 -112 -20q-59 0 -106 15.5t-79 46t-41.5 45.5t-9.5 65l2 25v8q0 100 155.5 210t290.5 133q36 6 56 12.5t33.5 21.5t13.5 69q0 178 -188 242q-6 2 -16.5 8t-18.5 6q-97 0 -162 -8q-36 -41 -80 -41q-33 0 -33 23q0 1 14.5 42.5 t69.5 41.5q63 34 230 34q134 0 208 -104t74 -297v-14q8 -13 28 -19t20 -18v-2zM553 186q63 85 63 152q0 41 -20.5 89t-81.5 48q-118 0 -192 -59h-25q-154 -85 -154 -180q0 -67 63.5 -112.5t147.5 -45.5q22 0 84 19t115 71v18zM596 1364q14 14 33 14q18 0 48 -23.5t30 -62.5 q0 -19 -3 -30q-73 -20 -69 -29h-6q-6 0 -15.5 -4t-13.5 -4q-7 0 -12 8q-21 -3 -21 -14l2 -7q-6 0 -25 8.5t-34 12.5l-213 -61q-115 -31 -141 -50q-13 6 -13 15v6q26 45 117 98h21q38 0 172 64q100 59 143 59z" glyph-name="aacute" horiz-adv-x="893" unicode="á"/>
<glyph d="M750 541q0 -8 -13.5 -22t-18.5 -25t-8 -58.5t-3 -140.5l4 -135q0 -11 -9 -19q-2 -11 -2 -37q0 -37 12 -94l11 -53l-2 -49l2 -43q-72 -72 -107 -72q-5 0 -19 7t-26 7h-6q-8 28 -8 50q0 49 23 94q11 14 16.5 22t5.5 60q0 57 -12 57q-2 0 -12.5 -4t-22.5 -4h-8 q-12 -8 -15 -21q-12 1 -131 -45q-58 -20 -112 -20q-59 0 -106 15.5t-79 46t-41.5 45.5t-9.5 65l2 25v8q0 100 155.5 210t290.5 133q36 6 56 12.5t33.5 21.5t13.5 69q0 178 -188 242q-6 2 -16.5 8t-18.5 6q-97 0 -162 -8q-36 -41 -80 -41q-33 0 -33 23q0 1 14.5 42.5 t69.5 41.5q63 34 230 34q134 0 208 -104t74 -297v-14q8 -13 28 -19t20 -18v-2zM553 186q63 85 63 152q0 41 -20.5 89t-81.5 48q-118 0 -192 -59h-25q-154 -85 -154 -180q0 -67 63.5 -112.5t147.5 -45.5q22 0 84 19t115 71v18zM166 1305q9 -25 24 -25q12 0 34 17l54 39 q32 24 43.5 35.5t20.5 41.5t17 39.5t35 24t38 14.5q17 0 39 -33q71 -110 209 -156q39 -13 39 -47q0 -21 -68 -114v-33q-37 55 -86 98v19q-26 11 -74.5 52t-74.5 54l-21 -20q-15 18 -33 18q-20 0 -57.5 -25.5t-65 -41.5t-36 -40.5t-35.5 -53.5t-31 -29q-3 0 -6.5 4t-5.5 4 q-10 0 -19 -27q-3 -2 -14 -2q-41 0 -41 74q0 11 4 27q0 -13 13 -13h6q27 40 51 51l-2 7q0 12 22 41h21z" glyph-name="acircumflex" horiz-adv-x="893" unicode="â"/>
<glyph d="M750 541q0 -8 -13.5 -22t-18.5 -25t-8 -58.5t-3 -140.5l4 -135q0 -11 -9 -19q-2 -11 -2 -37q0 -37 12 -94l11 -53l-2 -49l2 -43q-72 -72 -107 -72q-5 0 -19 7t-26 7h-6q-8 28 -8 50q0 49 23 94q11 14 16.5 22t5.5 60q0 57 -12 57q-2 0 -12.5 -4t-22.5 -4h-8 q-12 -8 -15 -21q-12 1 -131 -45q-58 -20 -112 -20q-59 0 -106 15.5t-79 46t-41.5 45.5t-9.5 65l2 25v8q0 100 155.5 210t290.5 133q36 6 56 12.5t33.5 21.5t13.5 69q0 178 -188 242q-6 2 -16.5 8t-18.5 6q-97 0 -162 -8q-36 -41 -80 -41q-33 0 -33 23q0 1 14.5 42.5 t69.5 41.5q63 34 230 34q134 0 208 -104t74 -297v-14q8 -13 28 -19t20 -18v-2zM553 186q63 85 63 152q0 41 -20.5 89t-81.5 48q-118 0 -192 -59h-25q-154 -85 -154 -180q0 -67 63.5 -112.5t147.5 -45.5q22 0 84 19t115 71v18zM692 1370q27 -7 27 -47l-2 -53v-19 q-25 -10 -25 -39l-6 2q-7 0 -14 -10t-13 -12q-1 2 -6 2l-20 -2q-40 -55 -103 -55q-25 0 -52 10.5t-68.5 48t-57.5 49.5h-28q-51 35 -84 35l-15 -2q-41 -6 -45 -14t-20.5 -19t-20.5 -20l4 -25q0 -1 -1.5 -3.5t-2.5 -4.5q-11 -35 -22 -43t-15 -14v-21q-53 15 -53 57q0 17 6 35 h19q22 25 46 68t57 67.5t91 24.5q89 0 240 -106q31 -25 49 -25q70 0 76 123q31 0 59 12z" glyph-name="atilde" horiz-adv-x="893" unicode="ã"/>
<glyph d="M750 541q0 -8 -13.5 -22t-18.5 -25t-8 -58.5t-3 -140.5l4 -135q0 -11 -9 -19q-2 -11 -2 -37q0 -37 12 -94l11 -53l-2 -49l2 -43q-72 -72 -107 -72q-5 0 -19 7t-26 7h-6q-8 28 -8 50q0 49 23 94q11 14 16.5 22t5.5 60q0 57 -12 57q-2 0 -12.5 -4t-22.5 -4h-8 q-12 -8 -15 -21q-12 1 -131 -45q-58 -20 -112 -20q-59 0 -106 15.5t-79 46t-41.5 45.5t-9.5 65l2 25v8q0 100 155.5 210t290.5 133q36 6 56 12.5t33.5 21.5t13.5 69q0 178 -188 242q-6 2 -16.5 8t-18.5 6q-97 0 -162 -8q-36 -41 -80 -41q-33 0 -33 23q0 1 14.5 42.5 t69.5 41.5q63 34 230 34q134 0 208 -104t74 -297v-14q8 -13 28 -19t20 -18v-2zM553 186q63 85 63 152q0 41 -20.5 89t-81.5 48q-118 0 -192 -59h-25q-154 -85 -154 -180q0 -67 63.5 -112.5t147.5 -45.5q22 0 84 19t115 71v18zM633 1303q7 -10 28 -34t21 -40q0 -24 -23.5 -49 t-48.5 -25q-44 0 -85.5 45.5t-41.5 69.5q0 26 39 59v19h21l4 14q17 -3 28 -14q5 -15 13.5 -27t44.5 -18zM182 1329q0 -14 19 -26q73 -23 73 -89q0 -17 -22.5 -38.5t-22.5 -36.5h-8q-14 0 -20 -6q-113 82 -113 106q0 9 10 38t38 44.5t36 15.5q5 0 10 -8z" glyph-name="adieresis" horiz-adv-x="893" unicode="ä"/>
<glyph d="M750 541q0 -8 -13.5 -22t-18.5 -25t-8 -58.5t-3 -140.5l4 -135q0 -11 -9 -19q-2 -11 -2 -37q0 -37 12 -94l11 -53l-2 -49l2 -43q-72 -72 -107 -72q-5 0 -19 7t-26 7h-6q-8 28 -8 50q0 49 23 94q11 14 16.5 22t5.5 60q0 57 -12 57q-2 0 -12.5 -4t-22.5 -4h-8 q-12 -8 -15 -21q-12 1 -131 -45q-58 -20 -112 -20q-59 0 -106 15.5t-79 46t-41.5 45.5t-9.5 65l2 25v8q0 100 155.5 210t290.5 133q36 6 56 12.5t33.5 21.5t13.5 69q0 178 -188 242q-6 2 -16.5 8t-18.5 6q-97 0 -162 -8q-36 -41 -80 -41q-33 0 -33 23q0 1 14.5 42.5 t69.5 41.5q63 34 230 34q134 0 208 -104t74 -297v-14q8 -13 28 -19t20 -18v-2zM553 186q63 85 63 152q0 41 -20.5 89t-81.5 48q-118 0 -192 -59h-25q-154 -85 -154 -180q0 -67 63.5 -112.5t147.5 -45.5q22 0 84 19t115 71v18zM375 1432q40 6 73 6q136 0 136 -92 q0 -63 -78.5 -145.5t-181.5 -82.5q-70 0 -104 45t-34 58v2q0 62 66 118q33 28 33 43q0 5 -4 13q16 3 40.5 26t47.5 23zM395 1200q38 0 62 29t24 76q0 44 -19 58.5t-46 14.5q-17 0 -71 -26t-54 -66q0 -19 29 -52.5t75 -33.5z" glyph-name="aring" horiz-adv-x="893" unicode="å"/>
<glyph d="M1032 930q21 14 75.5 23.5t88.5 9.5q54 0 108.5 -31.5t73 -67.5t32.5 -102.5t26 -89.5t12 -37q0 -30 -16 -41q0 -25 -72 -25q-11 -14 -19 -14q-1 0 -9 6.5t-25 7.5l-13 13q-21 -7 -43 -7q-16 0 -44 4.5t-40 4.5q-11 0 -46 -6.5t-62 -6.5l-98 4q-86 0 -146 -14 q-8 -5 -24.5 -6.5t-20 -16.5t-20.5 -22q-9 -21 -9 -65q0 -75 22 -140t56 -90l74 -55q39 -30 96.5 -46t132.5 -16q79 0 140 11l6 -13q17 4 60 19.5t69 15.5h6q6 -9 6 -18q0 -12 -10 -43t-17 -57t-27.5 -39t-31.5 -13h-4q-15 0 -41.5 8.5t-38.5 8.5l-53 -2q-10 0 -78 11.5 t-93.5 20t-92 24t-116 47.5t-83.5 71l-18 -15q-9 -109 -9 -178q0 -83 13.5 -121t13.5 -53q0 -36 -45 -47q-8 -8 -21 -25.5t-22 -17.5q-6 0 -17 12.5t-20 16.5q-23 16 -23 45l3 14q2 10 11 29.5t9 48.5v45q0 37 6 103.5t6 97.5q0 25 -4 57q-8 -14 -8 -27h-12q0 15 -8 15h-13 l-6 12q-228 -109 -340 -109q-168 0 -168 123q0 110 110 187.5t398 167.5q47 3 47 36q0 60 -12 109.5t-34.5 86t-53.5 58t-80 21.5q-143 0 -201 -45q-8 -2 -18 -2l-21 2q-8 0 -8 -8v-7q0 -4 -6 -4h-41q-14 14 -14 27l2 12q12 20 31.5 35.5t45 26.5t58.5 18.5t47 18t25 10.5 q20 0 36 -2l7 12q20 -14 45 -14q7 0 32 4t46 4q96 0 141 -65t72 -218q155 194 221 230q10 8 29.5 28.5t41.5 20.5zM1307 705v14q0 72 -29 108.5t-121 61.5q-11 0 -33.5 2t-33.5 2q-10 0 -72 -16q-8 -10 -47 -27t-90 -82.5t-69.5 -83.5t-18.5 -29q0 -6 9 -13t19 -7h72l348 12 q34 0 50 11.5t16 46.5zM598 279q16 21 16 81q0 22 -4 78l-24 17q-6 -2 -15 -2q-17 0 -30 10q-13 -12 -41 -12l-13 -13q-13 2 -41 2q-100 0 -197 -62.5t-97 -127.5q0 -32 24.5 -70.5t81.5 -38.5t139 18.5t142.5 66.5t60.5 53h-2z" glyph-name="ae" horiz-adv-x="1520" unicode="æ"/>
<glyph d="M772 152q47 -29 47 -78q0 -36 -26 -66q-6 2 -15 2q-14 0 -67.5 -12t-100.5 -12l-45 2l-24 -6q-29 -6 -47 -7q6 -95 6 -127l-2 -111q-1 -52 -17 -73.5t-51 -21.5q-24 0 -39.5 14t-15.5 35q0 7 4 26.5t4 32.5v37q0 25 12.5 86t12.5 98q0 16 -8 25.5t-68.5 25t-118.5 68 t-90.5 113t-41.5 111t-9 96.5q0 139 51 238.5t162 176.5q19 10 51.5 32t48.5 28t72.5 17t111 16t99.5 6l75 4q48 0 48 -41q0 -7 -3.5 -21.5t-3.5 -21.5l2 -76q-7 -4 -22 -4q-24 0 -59 16q-36 32 -86 38l-117 13q-38 0 -74 -24l-20 6h-2q-2 0 -10 -5q-45 -30 -109 -58 q-33 -14 -64 -72t-57 -86q-8 -66 -8 -117q0 -112 25 -172.5t81 -104t64 -61.5h28q12 -28 62 -28q3 0 49 18q35 -19 37 -37q25 2 78 2.5t77.5 8.5t64 17t48.5 34z" glyph-name="ccedilla" horiz-adv-x="887" unicode="ç"/>
<glyph d="M856 639q8 -8 8 -23q0 -29 -16 -43q2 -1 2 -6q0 -16 -43 -16h-14q-6 0 -12 -7t-9 -7q-1 0 -9.5 6t-25.5 8l-12 12q-22 -6 -43 -6q-16 0 -44.5 4t-41.5 4q-11 0 -46.5 -6t-62.5 -6l-98 4q-79 0 -143 -14q-9 -5 -26.5 -7.5t-19 -16t-20.5 -21.5q-10 -41 -10 -74 q0 -26 15 -99t40 -104q6 -7 86 -64q51 -38 110.5 -57.5t137.5 -19.5q31 0 77 5l42 5h65q10 0 37.5 18t55.5 21q12 -28 12 -49q0 -47 -28.5 -82t-65.5 -35l-21 4l-63 -2h-54q-38 0 -187 32t-220 84t-104 134.5t-33 159.5q0 104 40 211.5t91 167t155 123.5q10 5 30.5 20.5 t39.5 15.5l33 -2q21 14 75.5 23.5t88.5 9.5q61 0 133.5 -45t87.5 -188q3 -25 8.5 -40.5t5.5 -17.5q0 -6 -4 -14zM446 858q-6 -9 -57 -33q-25 -18 -48 -41t-45 -49.5t-38.5 -47.5t-25.5 -31.5t-9 -18.5q0 -11 14 -16l13 -5h74l348 13q67 0 67 59q0 62 -24.5 108.5 t-128.5 73.5q-12 0 -34 2t-32 2q-9 0 -74 -16zM652 1243q119 -70 119 -106q0 -9 -15 -13q-26 20 -144 52t-210 59q-13 -4 -32 -12.5t-25 -8.5h-2l2 7q0 7 -21 14q-5 -8 -12 -8q-4 0 -13.5 4t-15.5 4h-6q4 9 -69 29l-5 32q0 32 27.5 59t48.5 27q11 0 37 -16q47 0 143 -59 q131 -64 172 -64h21z" glyph-name="egrave" horiz-adv-x="936" unicode="è"/>
<glyph d="M856 639q8 -8 8 -23q0 -29 -16 -43q2 -1 2 -6q0 -16 -43 -16h-14q-6 0 -12 -7t-9 -7q-1 0 -9.5 6t-25.5 8l-12 12q-22 -6 -43 -6q-16 0 -44.5 4t-41.5 4q-11 0 -46.5 -6t-62.5 -6l-98 4q-79 0 -143 -14q-9 -5 -26.5 -7.5t-19 -16t-20.5 -21.5q-10 -41 -10 -74 q0 -26 15 -99t40 -104q6 -7 86 -64q51 -38 110.5 -57.5t137.5 -19.5q31 0 77 5l42 5h65q10 0 37.5 18t55.5 21q12 -28 12 -49q0 -47 -28.5 -82t-65.5 -35l-21 4l-63 -2h-54q-38 0 -187 32t-220 84t-104 134.5t-33 159.5q0 104 40 211.5t91 167t155 123.5q10 5 30.5 20.5 t39.5 15.5l33 -2q21 14 75.5 23.5t88.5 9.5q61 0 133.5 -45t87.5 -188q3 -25 8.5 -40.5t5.5 -17.5q0 -6 -4 -14zM446 858q-6 -9 -57 -33q-25 -18 -48 -41t-45 -49.5t-38.5 -47.5t-25.5 -31.5t-9 -18.5q0 -11 14 -16l13 -5h74l348 13q67 0 67 59q0 62 -24.5 108.5 t-128.5 73.5q-12 0 -34 2t-32 2q-9 0 -74 -16zM738 1364q14 14 33 14q18 0 48 -23.5t30 -62.5q0 -19 -3 -30q-73 -20 -69 -29h-6q-6 0 -15.5 -4t-13.5 -4q-7 0 -12 8q-21 -3 -21 -14l2 -7q-6 0 -25 8.5t-34 12.5l-213 -61q-115 -31 -141 -50q-13 6 -13 15v6q26 45 117 98h21 q38 0 172 64q100 59 143 59z" glyph-name="eacute" horiz-adv-x="936" unicode="é"/>
<glyph d="M856 639q8 -8 8 -23q0 -29 -16 -43q2 -1 2 -6q0 -16 -43 -16h-14q-6 0 -12 -7t-9 -7q-1 0 -9.5 6t-25.5 8l-12 12q-22 -6 -43 -6q-16 0 -44.5 4t-41.5 4q-11 0 -46.5 -6t-62.5 -6l-98 4q-79 0 -143 -14q-9 -5 -26.5 -7.5t-19 -16t-20.5 -21.5q-10 -41 -10 -74 q0 -26 15 -99t40 -104q6 -7 86 -64q51 -38 110.5 -57.5t137.5 -19.5q31 0 77 5l42 5h65q10 0 37.5 18t55.5 21q12 -28 12 -49q0 -47 -28.5 -82t-65.5 -35l-21 4l-63 -2h-54q-38 0 -187 32t-220 84t-104 134.5t-33 159.5q0 104 40 211.5t91 167t155 123.5q10 5 30.5 20.5 t39.5 15.5l33 -2q21 14 75.5 23.5t88.5 9.5q61 0 133.5 -45t87.5 -188q3 -25 8.5 -40.5t5.5 -17.5q0 -6 -4 -14zM446 858q-6 -9 -57 -33q-25 -18 -48 -41t-45 -49.5t-38.5 -47.5t-25.5 -31.5t-9 -18.5q0 -11 14 -16l13 -5h74l348 13q67 0 67 59q0 62 -24.5 108.5 t-128.5 73.5q-12 0 -34 2t-32 2q-9 0 -74 -16zM308 1305q9 -25 24 -25q12 0 34 17l54 39q32 24 43.5 35.5t20.5 41.5t17 39.5t35 24t38 14.5q17 0 39 -33q71 -110 209 -156q39 -13 39 -47q0 -21 -68 -114v-33q-37 55 -86 98v19q-26 11 -74.5 52t-74.5 54l-21 -20 q-15 18 -33 18q-20 0 -57.5 -25.5t-65 -41.5t-36 -40.5t-35.5 -53.5t-31 -29q-3 0 -6.5 4t-5.5 4q-10 0 -19 -27q-3 -2 -14 -2q-41 0 -41 74q0 11 4 27q0 -13 13 -13h6q27 40 51 51l-2 7q0 12 22 41h21z" glyph-name="ecircumflex" horiz-adv-x="936" unicode="ê"/>
<glyph d="M856 639q8 -8 8 -23q0 -29 -16 -43q2 -1 2 -6q0 -16 -43 -16h-14q-6 0 -12 -7t-9 -7q-1 0 -9.5 6t-25.5 8l-12 12q-22 -6 -43 -6q-16 0 -44.5 4t-41.5 4q-11 0 -46.5 -6t-62.5 -6l-98 4q-79 0 -143 -14q-9 -5 -26.5 -7.5t-19 -16t-20.5 -21.5q-10 -41 -10 -74 q0 -26 15 -99t40 -104q6 -7 86 -64q51 -38 110.5 -57.5t137.5 -19.5q31 0 77 5l42 5h65q10 0 37.5 18t55.5 21q12 -28 12 -49q0 -47 -28.5 -82t-65.5 -35l-21 4l-63 -2h-54q-38 0 -187 32t-220 84t-104 134.5t-33 159.5q0 104 40 211.5t91 167t155 123.5q10 5 30.5 20.5 t39.5 15.5l33 -2q21 14 75.5 23.5t88.5 9.5q61 0 133.5 -45t87.5 -188q3 -25 8.5 -40.5t5.5 -17.5q0 -6 -4 -14zM446 858q-6 -9 -57 -33q-25 -18 -48 -41t-45 -49.5t-38.5 -47.5t-25.5 -31.5t-9 -18.5q0 -11 14 -16l13 -5h74l348 13q67 0 67 59q0 62 -24.5 108.5 t-128.5 73.5q-12 0 -34 2t-32 2q-9 0 -74 -16zM775 1303q7 -10 28 -34t21 -40q0 -24 -23.5 -49t-48.5 -25q-44 0 -85.5 45.5t-41.5 69.5q0 26 39 59v19h21l4 14q17 -3 28 -14q5 -15 13.5 -27t44.5 -18zM324 1329q0 -14 19 -26q73 -23 73 -89q0 -17 -22.5 -38.5t-22.5 -36.5 h-8q-14 0 -20 -6q-113 82 -113 106q0 9 10 38t38 44.5t36 15.5q5 0 10 -8z" glyph-name="edieresis" horiz-adv-x="936" unicode="ë"/>
<glyph d="M367 6q0 -6 -43 -23.5t-54 -17.5h-6q-10 0 -25.5 -4t-21.5 -4q-19 0 -34 13.5t-15 21.5q0 21 8 65.5t25 65.5q8 63 8 235l-8 363l2 63q0 10 -16.5 37t-16.5 66q0 23 12.5 32.5t57.5 28.5l57 25q4 2 12 2q25 0 25 -78q0 -44 -15.5 -228.5t-15.5 -299.5q0 -65 3.5 -122.5 t7.5 -87.5t18 -55q28 -52 28 -94q4 -2 7 -4zM375 1243q119 -70 119 -106q0 -9 -15 -13q-26 20 -144 52t-210 59q-13 -4 -32 -12.5t-25 -8.5h-2l2 7q0 7 -21 14q-5 -8 -12 -8q-4 0 -13.5 4t-15.5 4h-6q4 9 -69 29l-5 32q0 32 27.5 59t48.5 27q11 0 37 -16q47 0 143 -59 q131 -64 172 -64h21z" glyph-name="igrave" horiz-adv-x="526" unicode="ì"/>
<glyph d="M367 6q0 -6 -43 -23.5t-54 -17.5h-6q-10 0 -25.5 -4t-21.5 -4q-19 0 -34 13.5t-15 21.5q0 21 8 65.5t25 65.5q8 63 8 235l-8 363l2 63q0 10 -16.5 37t-16.5 66q0 23 12.5 32.5t57.5 28.5l57 25q4 2 12 2q25 0 25 -78q0 -44 -15.5 -228.5t-15.5 -299.5q0 -65 3.5 -122.5 t7.5 -87.5t18 -55q28 -52 28 -94q4 -2 7 -4zM461 1364q14 14 33 14q18 0 48 -23.5t30 -62.5q0 -19 -3 -30q-73 -20 -69 -29h-6q-6 0 -15.5 -4t-13.5 -4q-7 0 -12 8q-21 -3 -21 -14l2 -7q-6 0 -25 8.5t-34 12.5l-213 -61q-115 -31 -141 -50q-13 6 -13 15v6q26 45 117 98h21 q38 0 172 64q100 59 143 59z" glyph-name="iacute" horiz-adv-x="526" unicode="í"/>
<glyph d="M367 6q0 -6 -43 -23.5t-54 -17.5h-6q-10 0 -25.5 -4t-21.5 -4q-19 0 -34 13.5t-15 21.5q0 21 8 65.5t25 65.5q8 63 8 235l-8 363l2 63q0 10 -16.5 37t-16.5 66q0 23 12.5 32.5t57.5 28.5l57 25q4 2 12 2q25 0 25 -78q0 -44 -15.5 -228.5t-15.5 -299.5q0 -65 3.5 -122.5 t7.5 -87.5t18 -55q28 -52 28 -94q4 -2 7 -4zM31 1305q9 -25 24 -25q12 0 34 17l54 39q32 24 43.5 35.5t20.5 41.5t17 39.5t35 24t38 14.5q17 0 39 -33q71 -110 209 -156q39 -13 39 -47q0 -21 -68 -114v-33q-37 55 -86 98v19q-26 11 -74.5 52t-74.5 54l-21 -20q-15 18 -33 18 q-20 0 -57.5 -25.5t-65 -41.5t-36 -40.5t-35.5 -53.5t-31 -29q-3 0 -6.5 4t-5.5 4q-10 0 -19 -27q-3 -2 -14 -2q-41 0 -41 74q0 11 4 27q0 -13 13 -13h6q27 40 51 51l-2 7q0 12 22 41h21z" glyph-name="icircumflex" horiz-adv-x="526" unicode="î"/>
<glyph d="M367 6q0 -6 -43 -23.5t-54 -17.5h-6q-10 0 -25.5 -4t-21.5 -4q-19 0 -34 13.5t-15 21.5q0 21 8 65.5t25 65.5q8 63 8 235l-8 363l2 63q0 10 -16.5 37t-16.5 66q0 23 12.5 32.5t57.5 28.5l57 25q4 2 12 2q25 0 25 -78q0 -44 -15.5 -228.5t-15.5 -299.5q0 -65 3.5 -122.5 t7.5 -87.5t18 -55q28 -52 28 -94q4 -2 7 -4zM498 1303q7 -10 28 -34t21 -40q0 -24 -23.5 -49t-48.5 -25q-44 0 -85.5 45.5t-41.5 69.5q0 26 39 59v19h21l4 14q17 -3 28 -14q5 -15 13.5 -27t44.5 -18zM47 1329q0 -14 19 -26q73 -23 73 -89q0 -17 -22.5 -38.5t-22.5 -36.5h-8 q-14 0 -20 -6q-113 82 -113 106q0 9 10 38t38 44.5t36 15.5q5 0 10 -8z" glyph-name="idieresis" horiz-adv-x="526" unicode="ï"/>
<glyph d="M662 1292q35 -18 76.5 -54.5t87.5 -90t94 -123.5t95.5 -156.5t92.5 -185.5q18 -42 18 -135q0 -229 -155.5 -390t-384.5 -161h-8q-47 10 -52 10q-4 0 -6 -2q-9 -14 -59 -14t-116.5 22t-103 44t-83.5 72.5t-66.5 101t-19.5 102.5q0 36 3.5 71.5t11 68t18.5 61.5l24 57v26 q76 144 219 220.5t334 76.5q72 0 201 -49q-144 273 -308 377q-101 -81 -170.5 -122.5t-91.5 -41.5q-61 0 -61 31q0 15 17 27t96 51.5t157 93.5q-108 78 -169 103.5t-126 34t-77.5 19t-12.5 27.5q0 29 105 29q39 0 102 -26l129 -52q52 -36 94 -52t49 -20q91 71 165.5 107.5 t107.5 36.5q20 0 20 -23q0 -15 -62 -50q-106 -60 -185 -122zM1010 453v26q0 166 -104.5 267.5t-276.5 101.5q-38 0 -71 -8.5t-38 -11t-17.5 -21t-18 -22t-15.5 -3.5l-51 6q-11 0 -15 -18q-76 -6 -143 -113t-67 -223q0 -25 10 -105.5t62 -133t126.5 -90t120.5 -37.5 q12 0 24 3l9 3h41q134 0 182 41q5 4 6 4q6 0 19 -6q110 95 163.5 199.5t53.5 140.5z" glyph-name="eth" horiz-adv-x="1198" unicode="ð"/>
<glyph d="M616 868q65 11 109 11q272 0 272 -340q0 -189 -62 -437q-28 -107 -28 -143q0 -8 4 -16q-12 -62 -73 -62q-36 0 -65.5 20t-29.5 42q0 33 42 82t77 191t35 286q0 295 -242 295q-95 0 -178.5 -39t-95.5 -86q-9 -10 -27 -20q-16 -8 -18.5 -14.5t-10.5 -151.5t-8 -220v-47 q0 -37 12.5 -68t12.5 -36l-2 -35q0 -33 -11.5 -52.5t-29.5 -19.5h-4l-6 -14q-12 4 -17 4q-14 0 -36 -16h-5q-11 0 -34 26q-33 0 -33 25q0 22 14 37q13 0 30 131.5t17 333.5q0 262 -43 299l-2 18q0 38 44 51q18 5 32.5 27t30.5 22h2q20 3 34.5 10t16.5 7q14 0 14 -39 q0 -30 -12 -68.5t-12 -48.5q0 -15 10.5 -26t26.5 -11h6q28 27 30 27h3q96 0 145 39q9 1 22 3.5t17 2.5q24 15 26 20zM907 1370q27 -7 27 -47l-2 -53v-19q-25 -10 -25 -39l-6 2q-7 0 -14 -10t-13 -12q-1 2 -6 2l-20 -2q-40 -55 -103 -55q-25 0 -52 10.5t-68.5 48t-57.5 49.5 h-28q-51 35 -84 35l-15 -2q-41 -6 -45 -14t-20.5 -19t-20.5 -20l4 -25q0 -1 -1.5 -3.5t-2.5 -4.5q-11 -35 -22 -43t-15 -14v-21q-53 15 -53 57q0 17 6 35h19q22 25 46 68t57 67.5t91 24.5q89 0 240 -106q31 -25 49 -25q70 0 76 123q31 0 59 12z" glyph-name="ntilde" horiz-adv-x="1163" unicode="ñ"/>
<glyph d="M129 616q156 297 561 297q63 0 112.5 -7t91.5 -23t78 -43t69.5 -67t66.5 -96q18 -30 18 -130q0 -229 -155.5 -390t-384.5 -161h-8q-47 10 -52 10q-4 0 -6 -2q-9 -14 -61 -14q-71 0 -167.5 40.5t-158 124.5t-61.5 177q0 36 3.5 71.5t11 68t18.5 61.5l24 57v26zM1010 453 v26q0 166 -104.5 267.5t-276.5 101.5q-38 0 -71 -8.5t-38 -11t-17.5 -21t-18 -22t-15.5 -3.5l-51 6q-11 0 -15 -18q-76 -6 -143 -113t-67 -223q0 -25 10 -105.5t62 -133t126.5 -90t120.5 -37.5q12 0 24 3l9 3h41q134 0 182 41q5 4 6 4q6 0 19 -6q110 95 163.5 199.5 t53.5 140.5zM725 1243q119 -70 119 -106q0 -9 -15 -13q-26 20 -144 52t-210 59q-13 -4 -32 -12.5t-25 -8.5h-2l2 7q0 7 -21 14q-5 -8 -12 -8q-4 0 -13.5 4t-15.5 4h-6q4 9 -69 29l-5 32q0 32 27.5 59t48.5 27q11 0 37 -16q47 0 143 -59q131 -64 172 -64h21z" glyph-name="ograve" horiz-adv-x="1198" unicode="ò"/>
<glyph d="M129 616q156 297 561 297q63 0 112.5 -7t91.5 -23t78 -43t69.5 -67t66.5 -96q18 -30 18 -130q0 -229 -155.5 -390t-384.5 -161h-8q-47 10 -52 10q-4 0 -6 -2q-9 -14 -61 -14q-71 0 -167.5 40.5t-158 124.5t-61.5 177q0 36 3.5 71.5t11 68t18.5 61.5l24 57v26zM1010 453 v26q0 166 -104.5 267.5t-276.5 101.5q-38 0 -71 -8.5t-38 -11t-17.5 -21t-18 -22t-15.5 -3.5l-51 6q-11 0 -15 -18q-76 -6 -143 -113t-67 -223q0 -25 10 -105.5t62 -133t126.5 -90t120.5 -37.5q12 0 24 3l9 3h41q134 0 182 41q5 4 6 4q6 0 19 -6q110 95 163.5 199.5 t53.5 140.5zM811 1364q14 14 33 14q18 0 48 -23.5t30 -62.5q0 -19 -3 -30q-73 -20 -69 -29h-6q-6 0 -15.5 -4t-13.5 -4q-7 0 -12 8q-21 -3 -21 -14l2 -7q-6 0 -25 8.5t-34 12.5l-213 -61q-115 -31 -141 -50q-13 6 -13 15v6q26 45 117 98h21q38 0 172 64q100 59 143 59z" glyph-name="oacute" horiz-adv-x="1198" unicode="ó"/>
<glyph d="M129 616q156 297 561 297q63 0 112.5 -7t91.5 -23t78 -43t69.5 -67t66.5 -96q18 -30 18 -130q0 -229 -155.5 -390t-384.5 -161h-8q-47 10 -52 10q-4 0 -6 -2q-9 -14 -61 -14q-71 0 -167.5 40.5t-158 124.5t-61.5 177q0 36 3.5 71.5t11 68t18.5 61.5l24 57v26zM1010 453 v26q0 166 -104.5 267.5t-276.5 101.5q-38 0 -71 -8.5t-38 -11t-17.5 -21t-18 -22t-15.5 -3.5l-51 6q-11 0 -15 -18q-76 -6 -143 -113t-67 -223q0 -25 10 -105.5t62 -133t126.5 -90t120.5 -37.5q12 0 24 3l9 3h41q134 0 182 41q5 4 6 4q6 0 19 -6q110 95 163.5 199.5 t53.5 140.5zM381 1305q9 -25 24 -25q12 0 34 17l54 39q32 24 43.5 35.5t20.5 41.5t17 39.5t35 24t38 14.5q17 0 39 -33q71 -110 209 -156q39 -13 39 -47q0 -21 -68 -114v-33q-37 55 -86 98v19q-26 11 -74.5 52t-74.5 54l-21 -20q-15 18 -33 18q-20 0 -57.5 -25.5t-65 -41.5 t-36 -40.5t-35.5 -53.5t-31 -29q-3 0 -6.5 4t-5.5 4q-10 0 -19 -27q-3 -2 -14 -2q-41 0 -41 74q0 11 4 27q0 -13 13 -13h6q27 40 51 51l-2 7q0 12 22 41h21z" glyph-name="ocircumflex" horiz-adv-x="1198" unicode="ô"/>
<glyph d="M129 616q156 297 561 297q63 0 112.5 -7t91.5 -23t78 -43t69.5 -67t66.5 -96q18 -30 18 -130q0 -229 -155.5 -390t-384.5 -161h-8q-47 10 -52 10q-4 0 -6 -2q-9 -14 -61 -14q-71 0 -167.5 40.5t-158 124.5t-61.5 177q0 36 3.5 71.5t11 68t18.5 61.5l24 57v26zM1010 453 v26q0 166 -104.5 267.5t-276.5 101.5q-38 0 -71 -8.5t-38 -11t-17.5 -21t-18 -22t-15.5 -3.5l-51 6q-11 0 -15 -18q-76 -6 -143 -113t-67 -223q0 -25 10 -105.5t62 -133t126.5 -90t120.5 -37.5q12 0 24 3l9 3h41q134 0 182 41q5 4 6 4q6 0 19 -6q110 95 163.5 199.5 t53.5 140.5zM907 1370q27 -7 27 -47l-2 -53v-19q-25 -10 -25 -39l-6 2q-7 0 -14 -10t-13 -12q-1 2 -6 2l-20 -2q-40 -55 -103 -55q-25 0 -52 10.5t-68.5 48t-57.5 49.5h-28q-51 35 -84 35l-15 -2q-41 -6 -45 -14t-20.5 -19t-20.5 -20l4 -25q0 -1 -1.5 -3.5t-2.5 -4.5 q-11 -35 -22 -43t-15 -14v-21q-53 15 -53 57q0 17 6 35h19q22 25 46 68t57 67.5t91 24.5q89 0 240 -106q31 -25 49 -25q70 0 76 123q31 0 59 12z" glyph-name="otilde" horiz-adv-x="1198" unicode="õ"/>
<glyph d="M129 616q156 297 561 297q63 0 112.5 -7t91.5 -23t78 -43t69.5 -67t66.5 -96q18 -30 18 -130q0 -229 -155.5 -390t-384.5 -161h-8q-47 10 -52 10q-4 0 -6 -2q-9 -14 -61 -14q-71 0 -167.5 40.5t-158 124.5t-61.5 177q0 36 3.5 71.5t11 68t18.5 61.5l24 57v26zM1010 453 v26q0 166 -104.5 267.5t-276.5 101.5q-38 0 -71 -8.5t-38 -11t-17.5 -21t-18 -22t-15.5 -3.5l-51 6q-11 0 -15 -18q-76 -6 -143 -113t-67 -223q0 -25 10 -105.5t62 -133t126.5 -90t120.5 -37.5q12 0 24 3l9 3h41q134 0 182 41q5 4 6 4q6 0 19 -6q110 95 163.5 199.5 t53.5 140.5zM848 1303q7 -10 28 -34t21 -40q0 -24 -23.5 -49t-48.5 -25q-44 0 -85.5 45.5t-41.5 69.5q0 26 39 59v19h21l4 14q17 -3 28 -14q5 -15 13.5 -27t44.5 -18zM397 1329q0 -14 19 -26q73 -23 73 -89q0 -17 -22.5 -38.5t-22.5 -36.5h-8q-14 0 -20 -6q-113 82 -113 106 q0 9 10 38t38 44.5t36 15.5q5 0 10 -8z" glyph-name="odieresis" horiz-adv-x="1198" unicode="ö"/>
<glyph d="M854 1085q47 0 81 -33.5t34 -80.5t-33.5 -81t-81.5 -34t-81.5 33.5t-33.5 81.5q0 47 34.5 80.5t80.5 33.5zM1452 553h-1198v117h1198v-117zM854 365q46 0 80.5 -34t34.5 -81t-33.5 -81t-81.5 -34q-47 0 -81 33.5t-34 81.5t34 81.5t81 33.5z" glyph-name="divide" horiz-adv-x="1706" unicode="÷"/>
<glyph d="M932 1081q2 -5 2 -16q0 -21 -8 -37q-39 -39 -62.5 -79t-23.5 -46q0 -17 31.5 -30t43 -18.5t22 -15.5t31 -34t45.5 -58q55 -73 59 -93.5t6.5 -49.5t2.5 -57q0 -229 -155.5 -390t-384.5 -161h-9q-46 10 -49 10q-4 0 -8 -2q-8 -12 -20 -12q-15 0 -57.5 5t-57.5 5 q-13 0 -16 -6l-21 -31q-64 -55 -94 -151q-18 -39 -45 -72q-24 0 -39 -6q-4 8 -16.5 23.5t-12.5 27.5q0 22 12.5 50t44.5 58t43.5 41.5t21 38t9.5 37.5q0 19 -14 33q-101 62 -144.5 138.5t-43.5 199.5q0 95 25 156t58 118.5t120 132.5t214.5 97.5t164.5 28.5t71 6l59 -4 q23 0 40 29l42 69q30 54 45.5 65t32.5 11q14 0 35 -11zM702 829v2q-5 10 -40 13l-76 6q-25 0 -87.5 -14.5t-80.5 -31t-39 -16.5h-6q-12 -2 -15 -18q-77 -6 -145 -113.5t-68 -220.5q0 -47 14.5 -121.5t57 -118.5t76.5 -44q27 0 46.5 19.5t45.5 71t78 139.5l116 201 q64 112 93.5 171t29.5 75zM387 109q5 -37 80 -37l33 2q84 0 145 9t90.5 23.5t82 73.5t83.5 111t48.5 105.5t17.5 90.5q0 121 -64.5 208t-107.5 87q-15 0 -33.5 -11t-57 -73.5t-129.5 -232.5z" glyph-name="oslash" horiz-adv-x="1104" unicode="ø"/>
<glyph d="M848 915q17 13 49 20l61 13h7q20 0 20 -51l-33 -108q-16 -54 -23 -103t-7 -94q0 -46 7 -97.5t36 -88.5q2 -5 2 -13q0 -10 -16.5 -34.5t-16.5 -65.5q0 -22 8.5 -71.5t9 -61t15 -22t14.5 -15.5q0 -8 -16 -14q-4 -49 -4 -60q0 -37 10 -41q-69 -28 -103 -28q-41 0 -41 34 q0 10 7 29q-3 6 -3 16q0 19 5.5 30t5.5 22q0 20 -6 56t-37 36q-23 0 -86 -57q-95 -84 -168 -121q-31 -11 -41 -21q-142 -22 -148 -22q-25 0 -64.5 28.5t-64 56.5t-43 86.5t-18.5 131.5q0 32 25 221t39 270.5t14 85.5q0 8 -7 25l-8 16v4q0 7 10 10t38.5 17t44.5 14 q7 0 28.5 -7t36.5 -7h6q19 -15 25 -31l-21 -24q-57 -52 -73 -154l-33 -215q-19 -112 -19 -160q0 -140 54.5 -205t107.5 -65l17 2l30 -2q15 0 59 22.5t129.5 81t104 86t32.5 70t21 97.5t7 122q0 168 -7.5 226.5t-25.5 70.5q-13 10 -13 53q16 6 22.5 10.5t12.5 4.5q11 0 25 -9 zM734 1243q119 -70 119 -106q0 -9 -15 -13q-26 20 -144 52t-210 59q-13 -4 -32 -12.5t-25 -8.5h-2l2 7q0 7 -21 14q-5 -8 -12 -8q-4 0 -13.5 4t-15.5 4h-6q4 9 -69 29l-5 32q0 32 27.5 59t48.5 27q11 0 37 -16q47 0 143 -59q131 -64 172 -64h21z" glyph-name="ugrave" horiz-adv-x="1149" unicode="ù"/>
<glyph d="M848 915q17 13 49 20l61 13h7q20 0 20 -51l-33 -108q-16 -54 -23 -103t-7 -94q0 -46 7 -97.5t36 -88.5q2 -5 2 -13q0 -10 -16.5 -34.5t-16.5 -65.5q0 -22 8.5 -71.5t9 -61t15 -22t14.5 -15.5q0 -8 -16 -14q-4 -49 -4 -60q0 -37 10 -41q-69 -28 -103 -28q-41 0 -41 34 q0 10 7 29q-3 6 -3 16q0 19 5.5 30t5.5 22q0 20 -6 56t-37 36q-23 0 -86 -57q-95 -84 -168 -121q-31 -11 -41 -21q-142 -22 -148 -22q-25 0 -64.5 28.5t-64 56.5t-43 86.5t-18.5 131.5q0 32 25 221t39 270.5t14 85.5q0 8 -7 25l-8 16v4q0 7 10 10t38.5 17t44.5 14 q7 0 28.5 -7t36.5 -7h6q19 -15 25 -31l-21 -24q-57 -52 -73 -154l-33 -215q-19 -112 -19 -160q0 -140 54.5 -205t107.5 -65l17 2l30 -2q15 0 59 22.5t129.5 81t104 86t32.5 70t21 97.5t7 122q0 168 -7.5 226.5t-25.5 70.5q-13 10 -13 53q16 6 22.5 10.5t12.5 4.5q11 0 25 -9 zM820 1364q14 14 33 14q18 0 48 -23.5t30 -62.5q0 -19 -3 -30q-73 -20 -69 -29h-6q-6 0 -15.5 -4t-13.5 -4q-7 0 -12 8q-21 -3 -21 -14l2 -7q-6 0 -25 8.5t-34 12.5l-213 -61q-115 -31 -141 -50q-13 6 -13 15v6q26 45 117 98h21q38 0 172 64q100 59 143 59z" glyph-name="uacute" horiz-adv-x="1149" unicode="ú"/>
<glyph d="M848 915q17 13 49 20l61 13h7q20 0 20 -51l-33 -108q-16 -54 -23 -103t-7 -94q0 -46 7 -97.5t36 -88.5q2 -5 2 -13q0 -10 -16.5 -34.5t-16.5 -65.5q0 -22 8.5 -71.5t9 -61t15 -22t14.5 -15.5q0 -8 -16 -14q-4 -49 -4 -60q0 -37 10 -41q-69 -28 -103 -28q-41 0 -41 34 q0 10 7 29q-3 6 -3 16q0 19 5.5 30t5.5 22q0 20 -6 56t-37 36q-23 0 -86 -57q-95 -84 -168 -121q-31 -11 -41 -21q-142 -22 -148 -22q-25 0 -64.5 28.5t-64 56.5t-43 86.5t-18.5 131.5q0 32 25 221t39 270.5t14 85.5q0 8 -7 25l-8 16v4q0 7 10 10t38.5 17t44.5 14 q7 0 28.5 -7t36.5 -7h6q19 -15 25 -31l-21 -24q-57 -52 -73 -154l-33 -215q-19 -112 -19 -160q0 -140 54.5 -205t107.5 -65l17 2l30 -2q15 0 59 22.5t129.5 81t104 86t32.5 70t21 97.5t7 122q0 168 -7.5 226.5t-25.5 70.5q-13 10 -13 53q16 6 22.5 10.5t12.5 4.5q11 0 25 -9 zM389 1305q9 -25 24 -25q12 0 34 17l54 39q32 24 43.5 35.5t20.5 41.5t17 39.5t35 24t38 14.5q17 0 39 -33q71 -110 209 -156q39 -13 39 -47q0 -21 -68 -114v-33q-37 55 -86 98v19q-26 11 -74.5 52t-74.5 54l-21 -20q-15 18 -33 18q-20 0 -57.5 -25.5t-65 -41.5t-36 -40.5 t-35.5 -53.5t-31 -29q-3 0 -6.5 4t-5.5 4q-10 0 -19 -27q-3 -2 -14 -2q-41 0 -41 74q0 11 4 27q0 -13 13 -13h6q27 40 51 51l-2 7q0 12 22 41h21z" glyph-name="ucircumflex" horiz-adv-x="1149" unicode="û"/>
<glyph d="M848 915q17 13 49 20l61 13h7q20 0 20 -51l-33 -108q-16 -54 -23 -103t-7 -94q0 -46 7 -97.5t36 -88.5q2 -5 2 -13q0 -10 -16.5 -34.5t-16.5 -65.5q0 -22 8.5 -71.5t9 -61t15 -22t14.5 -15.5q0 -8 -16 -14q-4 -49 -4 -60q0 -37 10 -41q-69 -28 -103 -28q-41 0 -41 34 q0 10 7 29q-3 6 -3 16q0 19 5.5 30t5.5 22q0 20 -6 56t-37 36q-23 0 -86 -57q-95 -84 -168 -121q-31 -11 -41 -21q-142 -22 -148 -22q-25 0 -64.5 28.5t-64 56.5t-43 86.5t-18.5 131.5q0 32 25 221t39 270.5t14 85.5q0 8 -7 25l-8 16v4q0 7 10 10t38.5 17t44.5 14 q7 0 28.5 -7t36.5 -7h6q19 -15 25 -31l-21 -24q-57 -52 -73 -154l-33 -215q-19 -112 -19 -160q0 -140 54.5 -205t107.5 -65l17 2l30 -2q15 0 59 22.5t129.5 81t104 86t32.5 70t21 97.5t7 122q0 168 -7.5 226.5t-25.5 70.5q-13 10 -13 53q16 6 22.5 10.5t12.5 4.5q11 0 25 -9 zM857 1303q7 -10 28 -34t21 -40q0 -24 -23.5 -49t-48.5 -25q-44 0 -85.5 45.5t-41.5 69.5q0 26 39 59v19h21l4 14q17 -3 28 -14q5 -15 13.5 -27t44.5 -18zM406 1329q0 -14 19 -26q73 -23 73 -89q0 -17 -22.5 -38.5t-22.5 -36.5h-8q-14 0 -20 -6q-113 82 -113 106q0 9 10 38 t38 44.5t36 15.5q5 0 10 -8z" glyph-name="udieresis" horiz-adv-x="1149" unicode="ü"/>
<glyph d="M881 899q12 10 28 10q15 0 55 -10t40 -29q0 -27 -35 -51q-13 0 -105 -167l-165 -299q-73 -131 -83 -227q-9 -76 -45 -101l-6 -25q-16 -3 -26 -20q-145 -334 -176.5 -413t-34 -122t-43.5 -43h-11q-34 12 -90 12l-6 -2q-16 0 -16 17q0 5 6 8q0 8 74 106q-9 3 -9 11 q0 13 47 83q117 177 193 343q-6 9 -6 20q-6 4 -18 4h-5q-21 0 -28.5 52t-12.5 61q-45 77 -92.5 189.5t-98.5 214t-72.5 154.5t-54 91.5t-32.5 64.5v11q-4 -2 -12 -2q-14 0 -14 6t32 46.5t72 63.5q30 -12 46 -20t37 -97l22 -79v-33q38 -73 99 -206l31 -67q16 -34 30 -62.5 t29.5 -54t31.5 -47.5q25 -34 27 -38q7 -15 16.5 -27.5t20.5 -23t24 -19.5l78 177q99 224 128.5 273.5t44.5 92.5t26.5 94.5t19 66.5t26.5 15zM727 1364q14 14 33 14q18 0 48 -23.5t30 -62.5q0 -19 -3 -30q-73 -20 -69 -29h-6q-6 0 -15.5 -4t-13.5 -4q-7 0 -12 8 q-21 -3 -21 -14l2 -7q-6 0 -25 8.5t-34 12.5l-213 -61q-115 -31 -141 -50q-13 6 -13 15v6q26 45 117 98h21q38 0 172 64q100 59 143 59z" glyph-name="yacute" horiz-adv-x="1030" unicode="ý"/>
<glyph d="M299 868q49 14 129 42t132 37t58 9q30 0 126.5 -36t107.5 -52q4 -7 39 -53q63 -63 63 -188q0 -104 -59 -216t-141 -161q-12 -15 -15 -27q-121 -100 -157 -117l-27 -12q-45 -45 -63 -45q-9 0 -13 2q-49 -33 -71.5 -47t-61.5 -20.5t-48.5 -12t-15.5 -38t-6 -97.5 q0 -122 8 -217.5t12.5 -109.5t12.5 -25.5t8 -15.5q0 -8 -9.5 -14.5t-20.5 -13.5t-15 -7q-2 0 -4 4q-47 -21 -80 -21q-12 0 -28.5 11t-16.5 28q0 23 13.5 59.5t13.5 53.5l-2 37l8 276q0 64 -5.5 91.5t-29.5 54.5l9 47l-3 8q0 10 14.5 27.5t14.5 52.5l-2 55v21q8 24 8 63v127 q0 19 3 57t3 58q0 101 -6 134.5t-24 33.5q-9 0 -31 -7.5t-35 -7.5l-8 2l-23 25q14 20 67.5 45.5t53.5 52.5q0 6 -3 22t-3 27l2 15l-10 84l3 41q3 52 3 98l-4 178l2 64l-6 23q-6 27 -6 44l4 43q0 10 -8 19q0 81 41 116t69 35q35 0 68 -84q-37 -51 -44 -77.5t-7 -63.5l4 -115 l-2 -67l6 -162l-6 -152q0 -38 14 -41zM313 125q50 -19 101 -19q26 0 46.5 4t71 34.5t121.5 80.5q26 18 49.5 40t72.5 105q22 38 39 103.5t17 104.5q0 33 -19 101t-69.5 112.5t-68.5 44.5h-6q-26 0 -47 18h-39l-68 2q-120 0 -174.5 -39.5t-54.5 -144.5l2 -88l-6 -428 q0 -14 15 -19t17 -12z" glyph-name="thorn" unicode="þ"/>
<glyph d="M367 6q0 -6 -43 -23.5t-54 -17.5h-6q-10 0 -25.5 -4t-21.5 -4q-19 0 -34 13.5t-15 21.5q0 21 8 65.5t25 65.5q8 63 8 235l-8 363l2 63q0 10 -16.5 37t-16.5 66q0 23 12.5 32.5t57.5 28.5l57 25q4 2 12 2q25 0 25 -78q0 -44 -15.5 -228.5t-15.5 -299.5q0 -65 3.5 -122.5 t7.5 -87.5t18 -55q28 -52 28 -94q4 -2 7 -4z" glyph-name="dotlessi" horiz-adv-x="526" unicode="ı"/>
<glyph d="M293 1305q9 -25 24 -25q12 0 34 17l54 39q32 24 43.5 35.5t20.5 41.5t17 39.5t35 24t38 14.5q17 0 39 -33q71 -110 209 -156q39 -13 39 -47q0 -21 -68 -114v-33q-37 55 -86 98v19q-26 11 -74.5 52t-74.5 54l-21 -20q-15 18 -33 18q-20 0 -57.5 -25.5t-65 -41.5t-36 -40.5 t-35.5 -53.5t-31 -29q-3 0 -6.5 4t-5.5 4q-10 0 -19 -27q-3 -2 -14 -2q-41 0 -41 74q0 11 4 27q0 -13 13 -13h6q27 40 51 51l-2 7q0 12 22 41h21z" glyph-name="circumflex" unicode="ˆ"/>
<glyph d="M502 1432q40 6 73 6q136 0 136 -92q0 -63 -78.5 -145.5t-181.5 -82.5q-70 0 -104 45t-34 58v2q0 62 66 118q33 28 33 43q0 5 -4 13q16 3 40.5 26t47.5 23zM522 1200q38 0 62 29t24 76q0 44 -19 58.5t-46 14.5q-17 0 -71 -26t-54 -66q0 -19 29 -52.5t75 -33.5z" glyph-name="ring" unicode="˚"/>
<glyph d="M819 1370q27 -7 27 -47l-2 -53v-19q-25 -10 -25 -39l-6 2q-7 0 -14 -10t-13 -12q-1 2 -6 2l-20 -2q-40 -55 -103 -55q-25 0 -52 10.5t-68.5 48t-57.5 49.5h-28q-51 35 -84 35l-15 -2q-41 -6 -45 -14t-20.5 -19t-20.5 -20l4 -25q0 -1 -1.5 -3.5t-2.5 -4.5q-11 -35 -22 -43 t-15 -14v-21q-53 15 -53 57q0 17 6 35h19q22 25 46 68t57 67.5t91 24.5q89 0 240 -106q31 -25 49 -25q70 0 76 123q31 0 59 12z" glyph-name="tilde" unicode="˜"/>
</font>
</defs>
</svg>
