<?xml version="1.0" encoding="UTF-8"?>
<!DOCTYPE svg  PUBLIC '-//W3C//DTD SVG 1.1//EN'  'http://www.w3.org/Graphics/SVG/1.1/DTD/svg11.dtd'>
<svg version="1.1" xmlns="http://www.w3.org/2000/svg">
<defs>
<font id="TrajanPro-Bold" horiz-adv-x="600">
<font-face font-family="Trajan Pro" font-weight="700" ascent="750" bbox="-93 -261 1528 984" cap-height="753" descent="-250" panose-1="2 2 8 2 5 5 6 2 3 1" underline-position="-100" underline-thickness="50" unicode-range="U+0020-00FE" units-per-em="1000" x-height="640"/>
<missing-glyph/>
<glyph glyph-name="space" horiz-adv-x="300" unicode=" "/>
<glyph d="M160 -17q-42 0 -53 39q-2 9 -2 17q0 36 29 51q13 6 27 6q41 0 53 -34q3 -9 3 -19q0 -40 -34 -55q-11 -5 -23 -5zM158 164q-12 0 -14 30q-1 4 -1 6q-18 222 -25 272q-9 128 -21 180q-1 5 -5 14q-3 9 -3 12q1 8 5 16q31 39 90 63q22 10 38 10q8 -2 9 -13q0 -3 -3 -25 q-9 -58 -13 -104q-1 -7 -15 -151q-25 -262 -27 -278q-5 -31 -15 -32z" glyph-name="exclam" horiz-adv-x="320" unicode="!"/>
<glyph d="M109 755q45 0 50 -10q1 -3 1 -5q0 -4 -6 -24q-23 -79 -31 -166q-6 -49 -14 -50q-8 0 -14 48v2q-8 82 -34 176q-3 10 -3 14q0 14 36 15h15zM251 755q45 0 50 -10q1 -3 1 -5q0 -4 -6 -24q-23 -79 -31 -166q-6 -49 -14 -50q-8 0 -14 48v2q-8 82 -34 176q-3 10 -3 14 q0 14 36 15h15z" glyph-name="quotedbl" horiz-adv-x="360" unicode='"'/>
<glyph d="M571 460h-118l-22 -150h112v-81h-123l-33 -229h-59l31 229h-152l-34 -229h-60l35 229h-119v81h130l23 150h-123v82h134l32 212h61l-33 -212h151l31 212h60l-31 -212h107v-82zM393 460h-150l-24 -150h153z" glyph-name="numbersign" unicode="#"/>
<glyph d="M303 0l-9 -81q-3 -6 -10 -8l-31 -6q-7 -1 -7 6v4l10 85q-62 0 -116 18q-6 1 -10 3q-27 12 -32 23q-2 8 -2 20q0 56 15 120v1q7 23 15 24q8 0 7 -23v-4q-3 -55 29 -91q43 -42 98 -45l32 295q-108 82 -140 141q-23 45 -23 97q0 99 94 150q56 30 118 30l10 80q2 7 11 9l30 7 q8 0 8 -5l-12 -91q61 0 110 -19q16 -14 17 -25q0 -47 -12 -108v-2q-4 -13 -11 -14q-10 2 -10 19q-2 46 -25 72l-5 5q-30 25 -68 30l-31 -271q106 -71 140 -134q26 -48 26 -106q0 -123 -108 -179q-53 -27 -108 -27zM309 475l27 242q-62 0 -95 -42q-21 -28 -21 -70 q0 -53 64 -109q10 -9 25 -21zM337 311l-27 -265q67 4 99 62q16 30 16 66q-1 77 -88 137z" glyph-name="dollar" unicode="$"/>
<glyph d="M645 0q-110 0 -156 89q-21 41 -21 87q0 101 66 154q47 37 118 37q110 0 157 -88q22 -42 22 -88q0 -97 -64 -150q-48 -41 -122 -41zM649 34q63 0 86 74q10 31 10 69q0 78 -40 126q-26 29 -58 30q-62 0 -84 -77q-9 -30 -9 -66q0 -78 39 -126q25 -29 56 -30zM310 -4l-63 -8 q-12 -2 -12 3q0 4 2 10q63 141 242 553q72 167 76 175q-140 -11 -220 -16v-2q42 -25 58 -90q6 -24 6 -48q0 -93 -61 -147q-49 -44 -124 -44q-110 0 -156 89q-21 41 -21 87q0 94 62 149q51 43 127 43q107 0 354 21q21 2 28 2q9 -1 10 -4q-1 -3 -11 -29l-287 -732 q-5 -11 -10 -12zM218 416q63 0 86 74q10 31 10 69q0 78 -40 126q-26 29 -58 30q-62 0 -84 -77q-9 -30 -9 -66q0 -78 39 -126q25 -29 56 -30z" glyph-name="percent" horiz-adv-x="868" unicode="%"/>
<glyph d="M58 204q0 104 96 190q34 31 67 47q-48 65 -51 137v5q-1 72 60 126q69 58 183 58q69 0 121 -21q17 -10 17 -26q0 -62 -11 -125v-3q-3 -17 -12 -17q-7 2 -7 19q-1 50 -29 84q-39 45 -111 45q-52 0 -84 -40q-23 -31 -23 -74q0 -74 84 -172q16 -19 52 -58l30 -33 q38 -43 176 -167q35 49 45 121q3 17 3 33q-1 30 -19 46q-17 15 -49 15q-11 1 -12 8q1 10 16 10q55 0 120 -7q33 -4 34 -20q0 -98 -71 -201q-13 -19 -27 -36q69 -56 139 -98q44 -26 97 -34q6 -1 10 -1q13 -2 14 -9q-2 -9 -30 -9h-77q-101 0 -151 22q-34 16 -85 55 q-69 -63 -148 -81q-43 -10 -89 -10q-178 0 -247 114q-31 51 -31 107zM370 46q82 0 150 49q9 6 14 11q-88 76 -174 166l-6 6q-81 88 -107 125q-68 -52 -69 -152q0 -109 77 -167q51 -38 115 -38z" glyph-name="ampersand" horiz-adv-x="830" unicode="&amp;"/>
<glyph d="M109 755q45 0 50 -10q1 -3 1 -5q0 -4 -6 -24q-23 -79 -31 -166q-6 -49 -14 -50q-8 0 -14 48v2q-8 82 -34 176q-3 10 -3 14q0 14 36 15h15z" glyph-name="quotesingle" horiz-adv-x="218" unicode="'"/>
<glyph d="M154 321q1 -245 138 -421q8 -11 8 -15q-1 -6 -8 -7q-4 1 -10 5q-89 63 -152 168q-73 123 -73 257q0 175 127 337q52 65 97 95q8 6 12 6q6 -1 7 -8q-1 -5 -6 -11q-57 -67 -99 -184q-41 -114 -41 -222z" glyph-name="parenleft" horiz-adv-x="360" unicode="("/>
<glyph d="M206 303q-1 245 -138 421q-8 11 -8 15q1 6 8 7q4 -1 10 -5q89 -63 152 -168q73 -123 73 -257q0 -175 -127 -337q-52 -65 -97 -95q-8 -6 -12 -6q-6 1 -7 8q1 5 6 11q57 67 99 184q41 114 41 222z" glyph-name="parenright" horiz-adv-x="360" unicode=")"/>
<glyph d="M185 634q-3 -2 -4 -3q-11 -18 -29 -77q-1 -4 -2 -6q-5 -18 -5 -23q-2 -7 -12 -8q-37 0 -62 19q-4 4 -5 7q1 7 10 17q13 19 80 71q9 7 13 9q3 3 3 6q-1 2 -4 3q-34 6 -90 1q-15 -2 -17 -2q-9 8 -12 71q4 12 13 13q31 0 99 -56q9 -8 13 -12q3 -2 7 -1q1 3 1 7q-3 31 -30 93 v1q-6 13 -6 16q0 13 53 25q14 3 21 3q9 -2 10 -11q0 -30 -33 -128q-1 -3 0 -6q3 -1 5 0q9 3 18 7t17.5 9.5t15.5 10t14.5 10.5t11.5 9.5t9 8.5l5 4q7 9 14 10q10 0 21 -53q3 -15 3 -24q-2 -6 -10 -8l-102 1q-8 1 -13 1q-3 -1 -5 -2q-1 -3 1 -7q17 -24 69 -58q11 -7 15 -9 q13 -4 14 -10q0 -14 -39 -41q-15 -10 -21 -11q-7 2 -16 14q-22 48 -35 103z" glyph-name="asterisk" horiz-adv-x="380" unicode="*"/>
<glyph d="M509 223h-203v-204h-64v204h-202v61h202v204h64v-204h203v-61z" glyph-name="plus" horiz-adv-x="549" unicode="+"/>
<glyph d="M64 71q0 32 38 57q20 12 37 12q9 0 19 -17q3 -3 6 -8q22 -32 22 -52q0 -19 -13 -48q-37 -84 -79 -133q-15 -12 -17 -12q-5 0 -7 7q-1 2 -1 3q0 3 5 11l3 6q29 50 29 87q0 38 -32 72q-9 11 -10 15z" glyph-name="comma" horiz-adv-x="250" unicode=","/>
<glyph d="M75 315h284q31 -1 32 -14q0 -10 -10 -13.5t-35 -8.5q-149 -22 -247 -45q-7 -2 -11 -3q-10 -3 -27 -10q-13 -6 -17 -6q-11 2 -8 18l15 69q12 12 24 13z" glyph-name="hyphen" horiz-adv-x="425" unicode="-"/>
<glyph d="M124 0q-45 0 -57 41q-3 11 -3 20q0 35 29 53q15 8 32 8q42 0 56 -35q5 -11 5 -23q0 -42 -35 -58q-13 -6 -27 -6z" glyph-name="period" horiz-adv-x="250" unicode="."/>
<glyph d="M53 -19l-35 23q-6 6 0 17l456 740q7 9 14 5l36 -22q5 -5 1 -12l-459 -745q-7 -9 -13 -6z" glyph-name="slash" horiz-adv-x="542" unicode="/"/>
<glyph d="M559 398q0 -238 -105 -347q-66 -68 -162 -68q-150 0 -215 167q-36 92 -36 203q0 242 105 349q66 65 162 65q162 0 222 -178q29 -85 29 -191zM442 359q0 188 -57 291q-40 71 -98 72q-77 0 -110 -133q-19 -80 -19 -198q0 -196 58 -297q39 -65 95 -66q67 0 103 112 q28 89 28 219z" glyph-name="zero" unicode="0"/>
<glyph d="M258 301l-1 159v131q0 32 -9 35q-3 1 -6 1q-12 0 -104 -43q-8 -3 -12 -5q-10 -4 -14 -4q-7 2 -8 11q1 8 10 14l219 145l12 9q20 13 26 13q11 -1 12 -21q0 -1 -1 -14q-5 -122 -5 -246v-185q0 -181 4 -225q3 -37 20 -47q9 -4 20 -7q29 -6 66 -6q8 -2 9 -10q-2 -9 -16 -9 q-48 0 -123 2q-34 1 -44 1q-9 0 -47 -1q-84 -2 -124 -2q-16 1 -17 9q1 9 8 10q48 0 80 7q30 7 36 30q3 9 4 23q7 73 5 225z" glyph-name="one" unicode="1"/>
<glyph d="M445 0h-392q-12 2 -14 14q1 9 20 26q128 112 162 146q169 171 177 329v15q0 145 -91 181q-23 9 -46 9q-68 -1 -106 -36q-30 -29 -40 -79q-2 -10 -2 -17q-2 -18 -13 -19q-7 2 -9 19q-6 53 -6 121q2 13 12 20q75 38 181 38q171 0 228 -112q23 -45 23 -101q0 -171 -233 -375 q-38 -33 -111 -91q-5 -6 2 -7h68q127 0 172 6q94 12 114 89q5 15 12 16q8 -2 8 -19q0 -29 -25 -128q-2 -9 -4 -15q-7 -23 -31 -27q-17 -3 -56 -3z" glyph-name="two" unicode="2"/>
<glyph d="M226 -17q-108 0 -151 24q-17 10 -17 28q0 86 7 125q4 18 11 19q8 -2 9 -14q0 -66 54 -105q40 -28 96 -28q113 0 158 77q23 40 23 94q0 114 -107 169q-32 15 -62 21q-31 7 -32 17q2 10 18 14q66 13 111 61q44 47 44 111q0 52 -39 89q-37 34 -94 34q-78 0 -118 -50 q-21 -26 -21 -56q-1 -14 -9 -15q-6 0 -8 12v2q-7 56 -7 100q2 13 14 19q82 36 177 36q168 0 214 -95q13 -27 13 -53q0 -84 -91 -150q-31 -21 -55 -30v-2q92 -21 142 -87q36 -49 36 -110q0 -113 -91 -186q-89 -71 -225 -71z" glyph-name="three" unicode="3"/>
<glyph d="M347 197h-307q-24 1 -25 15q0 3 1 6t1.5 5t2.5 4.5t3 4l3 4.5l2 2q4 5 249 328q135 178 139 183q17 17 26 18q11 -2 12 -17v-30q-1 -76 -1 -120v-325h77q16 0 31 5l15 5q8 -2 9 -12q0 -21 -14 -57l-3 -6q-9 -13 -27 -13h-88q0 -88 3 -121q4 -39 24 -50q8 -4 18 -6 q19 -4 45 -4q8 -2 9 -10q-2 -9 -16 -9q-35 0 -101 2q-32 1 -40 1q-12 0 -47 -1q-58 -2 -90 -2q-15 1 -16 9q1 9 8 10q23 0 47 3q39 4 45 40q1 8 2 17q3 34 3 121zM347 275v309h-3l-223 -309h226z" glyph-name="four" unicode="4"/>
<glyph d="M192 -17q-57 0 -94 18q-18 17 -19 39q0 100 4 126q4 17 11 18q9 -2 9 -17q2 -133 136 -134q85 0 131 64q34 48 34 119q0 125 -133 196q-60 32 -120 41q-18 5 -18 20l23 264q3 13 19 13h245q34 0 56 4q6 1 15 2q4 1 5 1q9 -4 10 -19q0 -47 -13 -128q-3 -11 -11 -12 q-8 2 -8 14q0 35 -30 46q-21 8 -58 8h-182l-14 -122q169 -27 260 -115q71 -71 71 -165q0 -115 -81 -194q-91 -87 -248 -87z" glyph-name="five" unicode="5"/>
<glyph d="M305 -17q-137 0 -209 99q-55 76 -55 188q0 155 114 298q104 131 257 193q14 6 22 6q11 -1 12 -9q-1 -9 -25 -22q-109 -62 -180 -182q-75 -130 -75 -285q0 -118 54 -189q41 -52 98 -53q78 0 110 76q16 39 16 92q0 128 -75 179q-31 21 -66 21q-28 0 -52 -7l-9 -3 q-10 -3 -13 -3q-7 2 -8 10q1 8 11 15q52 36 130 36q116 0 172 -93q32 -52 32 -110q0 -129 -93 -202q-71 -55 -168 -55z" glyph-name="six" unicode="6"/>
<glyph d="M230 750h320q23 -1 24 -8q-1 -9 -7 -18q-68 -97 -165 -350q-79 -205 -89 -293q-1 -3 -1 -20l1 -17q0 -17 -52 -41q-44 -20 -74 -20q-13 2 -14 12q0 19 7 41q34 117 152 359q72 147 142 263h-259q-67 -1 -94 -18q-23 -15 -32 -54q-1 -4 -1 -6q-3 -12 -10 -13q-8 2 -8 15 q0 8 14 155q1 7 1 9q1 13 10 14q1 0 6 -1q45 -9 129 -9z" glyph-name="seven" unicode="7"/>
<glyph d="M293 -17q-145 0 -212 81q-39 49 -39 115q0 123 131 198q25 15 53 26q-137 71 -145 171v12q0 73 61 126q66 55 176 55q130 0 181 -74q24 -34 24 -79q0 -101 -103 -163q-22 -14 -44 -22q103 -55 143 -109q39 -52 39 -115q0 -101 -81 -165q-73 -57 -184 -57zM155 185 q0 -81 60 -127q39 -29 86 -29q76 0 116 61q25 39 25 90q0 83 -84 145q-26 20 -85 54q-104 -60 -117 -168q-1 -13 -1 -26zM417 605q0 75 -57 106q-25 13 -53 13q-84 0 -112 -69q-10 -23 -10 -49q0 -63 71 -115q26 -18 63 -39q94 50 98 153z" glyph-name="eight" unicode="8"/>
<glyph d="M298 767q141 0 209 -108q43 -69 43 -164q0 -222 -193 -395q-84 -76 -176 -119q-8 -4 -18 -4q-7 1 -9 10q1 8 12 17q101 61 173 173q87 135 87 290q0 168 -81 230q-33 25 -71 25q-68 0 -102 -66q-18 -37 -18 -83q0 -127 83 -174q27 -15 50 -15q42 0 68 12q21 11 20 11 q7 -2 8 -9q-1 -5 -5 -11q-44 -46 -132 -46q-121 0 -176 93q-28 47 -28 100q0 116 88 182q69 51 168 51z" glyph-name="nine" unicode="9"/>
<glyph d="M124 30q-45 0 -57 41q-3 11 -3 20q0 35 29 53q15 8 32 8q42 0 56 -35q5 -11 5 -23q0 -42 -35 -58q-13 -6 -27 -6zM124 368q-43 0 -57 40q-3 11 -3 21q0 37 31 54q14 7 30 7q43 0 57 -36q4 -10 4 -22q0 -42 -35 -58q-13 -6 -27 -6z" glyph-name="colon" horiz-adv-x="250" unicode=":"/>
<glyph d="M64 81q0 32 38 57q20 12 37 12q9 0 19 -17q3 -3 6 -8q22 -32 22 -52q0 -19 -13 -48q-37 -84 -79 -133q-15 -12 -17 -12q-5 0 -7 7q-1 2 -1 3q0 3 5 11l3 6q29 50 29 87q0 38 -32 72q-9 11 -10 15zM124 368q-44 0 -57 41q-3 10 -3 19q0 38 31 55q14 7 30 7q43 0 57 -36 q4 -10 4 -22q0 -42 -35 -58q-13 -6 -27 -6z" glyph-name="semicolon" horiz-adv-x="250" unicode=";"/>
<glyph d="M509 19l-469 200v70l469 200v-67l-393 -168l393 -168v-67z" glyph-name="less" horiz-adv-x="549" unicode="&lt;"/>
<glyph d="M509 317h-469v61h469v-61zM509 128h-469v61h469v-61z" glyph-name="equal" horiz-adv-x="549" unicode="="/>
<glyph d="M509 219l-469 -200v67l393 168l-393 168v67l469 -200v-70z" glyph-name="greater" horiz-adv-x="549" unicode="&gt;"/>
<glyph d="M250 767q149 0 197 -89q15 -30 15 -61q0 -90 -74 -179q-15 -18 -49 -55q-32 -34 -47 -51q-50 -60 -51 -88q1 -29 16 -51q8 -12 8 -18q-2 -7 -9 -8q-13 1 -51 31q-45 37 -45 63q1 25 20 51l30 36q25 30 36 44q73 99 84 163q4 21 4 43q0 82 -58 112q-26 13 -61 13 q-64 -1 -95 -39q-31 -42 -35 -83q-3 -19 -9 -20q-7 0 -10 12v1q-4 19 -4 117q2 10 11 16q68 40 177 40zM232 -17q-42 0 -53 39q-2 9 -2 17q0 36 29 51q13 6 27 6q41 0 53 -34q3 -9 3 -19q0 -40 -34 -55q-11 -5 -23 -5z" glyph-name="question" horiz-adv-x="532" unicode="?"/>
<glyph d="M705 161q-69 -47 -137 -47q-65 0 -76 81q-1 6 -1 12q-2 31 3 61q-84 -113 -139 -140q-22 -10 -42 -10q-48 0 -61 56q-3 14 -3 28q1 145 117 243q54 45 118 65q23 7 39 7q28 0 54 -8q23 24 49 33q10 3 11 -9q1 -3 0 -6q-36 -83 -48 -210q-2 -27 -2 -48q1 -90 54 -91 q45 0 88 49q59 69 59 179q0 132 -93 203q-74 55 -186 55q-163 0 -268 -119q-103 -119 -103 -298q0 -163 108 -242q72 -53 173 -53q129 0 214 57q21 13 45 33q25 19 32 6q3 -10 -17 -30q-67 -67 -184 -96q-56 -13 -112 -13q-163 0 -254 102q-77 87 -77 228q0 159 115 291 q103 119 243 155q47 12 92 12q208 0 286 -133q38 -65 38 -153q0 -131 -100 -222q-17 -15 -35 -28zM498 476q-82 -2 -122 -94q-27 -63 -27 -140q1 -52 19 -53q41 1 134 130q22 90 42 143q-19 14 -46 14z" glyph-name="at" horiz-adv-x="902" unicode="@"/>
<glyph d="M427 258h-223q-7 -2 -9 -8l-54 -143q-15 -37 -15 -61q2 -30 40 -31h15q14 -1 15 -8q-2 -10 -17 -10q-16 0 -54 2q-37 1 -52 1q-3 0 -22 -1q-61 -2 -96 -2q-18 1 -19 10q2 8 12 8q15 0 31 2q45 6 72 59q6 13 13 31l251 628q18 38 28 40q11 0 24 -30q1 -1 1 -2 q11 -24 90 -225q122 -304 158 -390q40 -96 84 -108q3 -1 4 -1q20 -4 42 -4q12 -2 13 -8q0 -9 -35 -10h-11q-109 0 -189 2q-29 2 -30 8q0 7 12 9h2q13 4 10 18q0 3 -1 5l-80 212q-4 6 -10 7zM224 308h184q5 1 5 6l-90 247q-3 8 -5 9q-4 -1 -6 -9l-92 -246q0 -6 4 -7z" glyph-name="A" horiz-adv-x="700" unicode="A"/>
<glyph d="M164 287v176q0 180 -2 212q-2 40 -25 51q-8 4 -18 6q-13 3 -39 3q-16 1 -17 9q2 9 22 9q33 0 97 -2q31 -1 39 -1q27 0 72 2q35 1 50 1q165 0 204 -101q9 -24 9 -49q0 -85 -78 -155q-11 -10 -24 -20q103 -35 152 -112q30 -48 30 -104q0 -98 -76 -159q-73 -59 -191 -59 q-6 0 -31 1q-26 2 -39 2q-45 3 -75 3q-33 0 -57 -1q-12 0 -37 -1q-23 -1 -32 -1q-19 1 -20 10q2 8 16 8q18 0 36 4q21 4 28 49q1 3 1 6q5 43 5 213zM284 693v-247q1 -9 7 -11q15 -3 47 -3q51 1 72 19q41 34 41 106q0 73 -44 120q-34 35 -81 35q-23 0 -33 -2q-9 -4 -9 -17z M513 167q0 116 -78 184q-9 8 -19 15q-31 21 -83 24q-19 1 -43 1q-5 -2 -6 -7v-237q0 -66 13 -81q8 -9 22 -15q30 -12 73 -12q66 0 99 48q22 32 22 80z" glyph-name="B" horiz-adv-x="707" unicode="B"/>
<glyph d="M522 -17q-218 1 -343 109q-124 110 -124 295q0 129 75 228q19 25 42 46q117 106 316 106q69 0 145 -10q18 -2 51 -9q34 -6 49 -8q14 -2 15 -12q0 -3 -1 -13q-3 -22 -4 -42q-1 -16 -1 -57q-1 -41 -2 -51q-3 -22 -12 -23q-10 2 -10 22q-3 53 -39 92q-44 47 -150 59 q-27 3 -53 3q-120 -1 -188 -62q-92 -85 -92 -259q0 -175 120 -279q92 -74 195 -77q111 0 157 32q14 11 26 24q25 29 34 66q6 19 13 20q9 -2 9 -15q0 -32 -17 -111q-3 -14 -5 -22q-6 -19 -20 -26q-3 -2 -6 -3q-58 -23 -180 -23z" glyph-name="C" horiz-adv-x="800" unicode="C"/>
<glyph d="M164 287v176q0 180 -2 212q-2 40 -25 51q-8 4 -18 6q-13 3 -39 3q-16 1 -17 9q2 9 22 9q31 0 93 -2q39 -1 51 -1q13 0 53 1q66 2 101 2q162 0 245 -24q96 -27 156 -90q97 -102 97 -254q0 -155 -96 -265q-7 -8 -13 -14q-92 -94 -256 -113q-39 -5 -79 -5t-115 6 q-76 6 -98 6q-33 0 -57 -1q-12 0 -37 -1q-23 -1 -32 -1q-19 1 -20 10q2 8 16 8q18 0 36 4q21 4 28 49q1 3 1 6q5 43 5 213zM289 479v-126q0 -163 2 -202q3 -64 11 -76q32 -39 131 -40q135 0 213 59q9 6 17 13q84 73 84 249q0 149 -87 241l-9 9q-105 100 -284 100 q-50 0 -65 -7q-12 -7 -12 -20q-1 -35 -1 -200z" glyph-name="D" horiz-adv-x="936" unicode="D"/>
<glyph d="M164 287v176q0 180 -2 212q-2 40 -25 51q-8 4 -18 6q-13 3 -39 3q-16 1 -17 9q2 9 22 9q14 0 42 -1h39q52 -2 63 -2q230 0 250 1q33 4 43 6q2 0 6 2q7 2 10 2q6 -2 6 -9q0 -2 -1 -9q-5 -26 -7 -56q0 -4 -1 -21q-3 -37 -4 -45q-4 -10 -10 -11q-9 2 -9 14q0 22 -6 36 q-9 23 -36 30q-13 4 -31 6q-33 4 -142 4q-6 -2 -7 -10v-253q2 -10 7 -11q136 0 160 2q37 4 48 15q12 12 16 13q6 -2 7 -8q0 -2 -1 -10q-4 -30 -7 -63q0 -9 -2 -34q-2 -29 -2 -33q-1 -18 -9 -19q-8 2 -9 9q-4 34 -4 36q-10 33 -56 39q-28 3 -142 3q-6 -2 -6 -10v-79v-155 q2 -54 24 -69q24 -15 96 -15q68 0 94 12q34 16 44 68q1 3 1 6q4 14 11 15q8 -2 8 -18q0 -49 -12 -107q-1 -2 -1 -4q-6 -21 -21 -24q-9 -2 -33 -2q-46 0 -173 3q-65 3 -104 3q-33 0 -57 -1q-12 0 -37 -1q-23 -1 -32 -1q-19 1 -20 10q2 8 16 8q18 0 36 4q21 4 28 49q1 3 1 6 q5 43 5 213z" glyph-name="E" horiz-adv-x="632" unicode="E"/>
<glyph d="M290 368v-81q0 -171 5 -213q5 -44 29 -53l10 -2q28 -4 50 -4q16 -1 17 -8q-2 -10 -22 -10q-38 0 -107 2q-35 1 -45 1q-12 0 -52 -1q-54 -2 -75 -2q-20 1 -21 10q2 7 15 8q18 0 36 4q21 4 28 49q1 3 1 6q5 43 5 213v176q0 180 -2 212q-2 40 -25 51q-8 4 -18 6q-13 3 -39 3 q-16 1 -17 8q2 10 23 10q13 0 40 -1h41q52 -2 63 -2q240 0 264 1q34 2 41 4q2 1 7 3q6 3 9 3q6 -2 7 -9q0 -3 -2 -12q-4 -19 -6 -33q0 -4 -1 -27q-3 -46 -4 -54q-3 -13 -10 -14q-8 2 -10 16q0 24 -6 38q-16 28 -66 30l-154 3q-8 -2 -9 -14v-250q2 -8 7 -9l128 1q31 0 45 1 q30 2 43 18q9 10 13 10q6 0 6 -9q0 -3 -2 -17q-4 -28 -6 -45q-4 -38 -4 -73q-1 -18 -10 -19q-7 1 -8 14q0 14 -6 31q-13 30 -51 36q-25 3 -148 3q-6 -2 -7 -9z" glyph-name="F" horiz-adv-x="622" unicode="F"/>
<glyph d="M771 174v-110q0 -27 -7 -32l-6 -4q-87 -45 -241 -45q-222 0 -347 112q-115 104 -115 280q0 169 112 279q29 28 62 48q103 62 247 65h22q95 0 177 -16q51 -10 79 -11q14 -3 14 -12q0 -3 -1 -11q-6 -58 -6 -153q-1 -20 -11 -21q-8 2 -10 13q-8 54 -34 83q-44 47 -133 68 q-44 10 -90 10q-109 0 -178 -47q-11 -7 -20 -15q-92 -78 -92 -245q0 -172 104 -278q96 -98 244 -98q61 0 85 11q19 10 19 37v94q0 88 -1 118q-1 41 -26 52q-8 3 -17 5q-13 3 -39 3q-14 1 -15 8q2 10 21 10q30 0 91 -2q41 -1 54 -1q15 0 57 1q43 2 60 2q19 -1 20 -10 q-2 -7 -13 -8q-10 0 -27 -3q-34 -6 -38 -48v-9q-1 -31 -1 -120z" glyph-name="G" horiz-adv-x="886" unicode="G"/>
<glyph d="M295 435h382q5 2 6 7v21q0 180 -2 212q-2 40 -25 51q-8 4 -18 6q-13 3 -39 3q-16 1 -17 9q2 9 21 9q32 0 95 -2q38 -1 49 -1t49 1q55 2 77 2q20 -1 21 -9q-2 -9 -18 -9q-12 0 -29 -3q-30 -6 -35 -40q-1 -8 -2 -17q-2 -34 -2 -212v-176q0 -171 5 -214t28 -52q6 -1 11 -2 q28 -4 51 -4q15 -1 16 -8q-2 -10 -20 -10q-39 0 -108 2q-37 1 -48 1q-10 0 -47 -1q-56 -2 -78 -2q-20 1 -21 10q2 8 16 8q18 0 36 4q21 4 28 49q1 3 1 6q5 43 5 213v88q-1 5 -6 6h-382q-5 -2 -6 -6v-88q0 -171 5 -214t28 -52q6 -1 11 -2q28 -4 51 -4q15 -1 16 -8 q-2 -10 -20 -10q-39 0 -108 2q-37 1 -48 1q-10 0 -47 -1q-56 -2 -79 -2q-19 1 -20 10q2 8 16 8q18 0 36 4q21 4 28 49q1 3 1 6q5 43 5 213v176q0 180 -2 212q-2 40 -25 51q-8 4 -18 6q-13 3 -39 3q-16 1 -17 9q2 9 21 9q32 0 95 -2q38 -1 49 -1t49 1q55 2 77 2q20 -1 21 -9 q-2 -9 -18 -9q-12 0 -29 -3q-30 -6 -35 -40q-1 -8 -2 -17q-2 -34 -2 -212v-21q1 -6 6 -7z" glyph-name="H" horiz-adv-x="972" unicode="H"/>
<glyph d="M164 287v176q0 180 -2 212q-4 48 -34 56q-15 4 -36 4q-15 1 -16 10q2 8 24 8q20 0 73 -2q43 -1 57 -1q11 0 49 1q52 2 73 2q20 -1 21 -8q-2 -10 -16 -10q-13 0 -30 -3q-30 -6 -35 -40q-1 -8 -2 -17q-2 -34 -2 -212v-176q0 -176 4 -219q4 -39 30 -47l10 -2q28 -4 51 -4 q15 -1 16 -8q-2 -9 -19 -10q-40 0 -110 2q-35 1 -46 1q-10 0 -47 -1q-56 -2 -79 -2q-19 1 -20 10q2 8 16 8q18 0 36 4q23 5 28 45q1 3 1 5q5 43 5 218z" glyph-name="I" horiz-adv-x="452" unicode="I"/>
<glyph d="M164 176v287q0 180 -2 212q-2 40 -25 51q-8 4 -18 6q-13 3 -39 3q-16 1 -17 9q2 9 22 9q31 0 94 -2q37 -1 48 -1t49 1q55 2 77 2q20 -1 21 -9q-2 -9 -18 -9q-12 0 -29 -3q-30 -6 -35 -40q-1 -8 -2 -17q-2 -34 -2 -212v-185q0 -21 1 -65q2 -50 2 -76q0 -110 -24 -177 q-38 -107 -170 -189q-17 -10 -50 -26q-11 -6 -20 -6q-7 2 -8 8q0 6 20 17q1 1 2 1q22 13 48 38q57 58 69 165q6 55 6 208z" glyph-name="J" horiz-adv-x="416" unicode="J"/>
<glyph d="M286 463v-44h5q14 15 79 83q112 116 130 137q47 59 50 75q-1 17 -14 20q-12 4 -13 10q2 9 16 9q10 0 46 -1q43 -2 57 -2q16 0 59 1.5t58 1.5q16 -1 17 -9q-2 -9 -15 -9q-28 0 -58 -11q-52 -21 -108 -75q-131 -127 -214 -214l-2 -2q46 -60 222 -245q35 -37 49 -50 q74 -70 110 -92q17 -10 33 -16q38 -15 62 -15q12 -1 13 -8q-2 -10 -24 -10h-87q-48 0 -69 2q-52 5 -100 44q-9 8 -24 21q-49 44 -221 248q-33 40 -41 51l-11 15h-5v-91q0 -171 3 -214q5 -48 36 -54q28 -4 49 -4q12 -1 13 -8q-2 -9 -19 -10q-34 0 -99 2q-35 1 -45 1t-47 -1 q-56 -2 -79 -2q-19 1 -20 10q2 8 16 8q18 0 36 4q21 4 28 49q1 3 1 6q5 43 5 213v176q0 180 -2 212q-2 40 -25 51q-8 4 -18 6q-13 3 -39 3q-16 1 -17 9q2 9 22 9q32 0 95 -2q35 -1 45 -1q11 0 51 1q52 2 70 2q20 -1 21 -9q-2 -9 -14 -9q-11 0 -28 -3q-30 -6 -35 -40 q-1 -8 -2 -17q-2 -34 -2 -212z" glyph-name="K" horiz-adv-x="768" unicode="K"/>
<glyph d="M289 463v-176q0 -165 10 -196q5 -13 11 -19q24 -21 108 -22h13q76 0 102 16q9 6 15 12q20 22 26 57v3q3 14 11 15q8 -2 8 -17q0 -42 -12 -103q-2 -7 -3 -12q-5 -20 -19 -24q-13 -3 -44 -3q-36 0 -169 3q-68 3 -122 3q-33 0 -57 -1q-12 0 -37 -1q-23 -1 -32 -1 q-19 1 -20 10q2 8 16 8q18 0 36 4q21 4 28 49q1 3 1 6q5 43 5 213v176q0 180 -2 212q-2 40 -25 51q-8 4 -18 6q-13 3 -33 3q-16 1 -17 9q2 9 22 9q27 0 86 -2q39 -1 51 -1q11 0 53 1q61 2 83 2q20 -1 21 -9q-2 -9 -18 -9q-21 0 -39 -3q-30 -6 -35 -40q-1 -8 -2 -17 q-2 -34 -2 -212z" glyph-name="L" horiz-adv-x="605" unicode="L"/>
<glyph d="M102 97l99 652q5 25 17 26q11 0 23 -24q2 -4 4 -7l273 -564l272 571q13 23 22 24q13 -2 18 -31l91 -618q11 -77 34 -94q7 -4 15 -7q33 -10 62 -10q15 -1 16 -7q-2 -11 -26 -11q-122 0 -203 6q-28 3 -29 11q2 7 11 11q10 5 5 43l-60 440h-4l-218 -454q-26 -52 -33 -55 q-3 -1 -4 -1q-8 0 -31 43q-3 6 -4 7q-98 189 -115 227q-5 13 -56 120q-34 73 -48 102h-4l-52 -398q-3 -28 -3 -47q2 -25 30 -32q23 -5 42 -5q14 -1 15 -7q-2 -11 -24 -11q-25 0 -73 2q-25 1 -32 1q-8 0 -38 -1q-43 -2 -61 -2q-17 1 -18 11q2 7 16 7q16 0 30 3q30 8 41 79z " glyph-name="M" horiz-adv-x="1043" unicode="M"/>
<glyph d="M209 553l11 -420q3 -99 35 -111q21 -7 52 -7q16 -1 17 -8q-2 -10 -23 -10q-42 0 -96 2q-21 1 -28 1q-3 0 -17 -1q-55 -2 -91 -2q-21 1 -22 10q2 8 16 8q28 0 45 5q23 7 28 52q2 23 3 72l9 592q1 33 13 34q9 0 29 -23l8 -8q146 -158 310 -321q39 -39 148 -153 q64 -68 72 -75h5l-10 449q-1 68 -23 84q-5 4 -11 6q-16 6 -53 6q-15 1 -16 9q2 9 26 9q32 0 86 -2q27 -1 35 -1q4 0 18 1q47 2 80 2q22 -1 23 -9q0 -9 -18 -9q-19 0 -30 -3q-29 -8 -34 -47q-3 -15 -3 -38l-11 -631q-1 -30 -13 -31q-13 1 -34 22q-6 6 -258 257q-20 21 -37 37 q-68 67 -233 247q-4 3 -5 5h-3z" glyph-name="N" horiz-adv-x="947" unicode="N"/>
<glyph d="M458 -17q-215 0 -325 150q-78 106 -78 242q0 139 82 246q115 145 331 146q212 0 321 -128q83 -98 83 -246q0 -175 -111 -290q-116 -120 -303 -120zM500 33q108 0 171 85q61 84 61 238q0 184 -104 286q-79 77 -189 77q-144 0 -207 -119q-39 -76 -39 -194q0 -174 94 -280 q84 -93 213 -93z" glyph-name="O" horiz-adv-x="927" unicode="O"/>
<glyph d="M164 287v176q0 180 -2 212q-2 40 -25 51q-8 4 -18 6q-13 3 -39 3q-16 1 -17 9q2 9 22 9q31 0 93 -2q39 -1 51 -1q20 0 68 1q54 2 77 2q125 0 186 -57q42 -40 49 -101q1 -9 1 -18q0 -120 -87 -189q-66 -53 -159 -53q-16 0 -21 1q-11 4 -12 9q2 11 28 11q49 0 91 48 q43 49 43 117q-1 97 -59 150q-43 39 -100 39q-27 0 -39 -4q-8 -5 -8 -19v-400q0 -171 5 -214t28 -52q6 -1 11 -2q28 -4 51 -4q15 -1 16 -8q-2 -9 -19 -10q-41 0 -110 2q-35 1 -45 1t-47 -1q-56 -2 -79 -2q-19 1 -20 10q2 8 16 8q18 0 36 4q21 4 28 49q1 3 1 6q5 43 5 213z " glyph-name="P" horiz-adv-x="655" unicode="P"/>
<glyph d="M776 -83l-157 92q-70 -26 -157 -26q-221 0 -332 155q-75 105 -75 242q0 127 77 232q110 149 317 155h16q196 0 308 -117q97 -103 97 -262q0 -166 -120 -285q-27 -26 -54 -44l201 -103q233 -119 412 -119q106 0 195 35l15 5q8 -2 9 -9q-2 -7 -12 -12q-156 -75 -317 -75 q-148 0 -287 64q-60 27 -136 72zM499 33q145 0 201 139q30 76 30 189q0 191 -114 291q-77 67 -174 67q-141 0 -205 -116q-43 -78 -43 -200q0 -191 112 -294q82 -76 193 -76z" glyph-name="Q" horiz-adv-x="930" unicode="Q"/>
<glyph d="M164 287v176q0 180 -2 212q-2 40 -25 51q-8 4 -18 6q-13 3 -39 3q-16 1 -17 9q2 9 22 9q33 0 97 -2q32 -1 40 -1q17 0 74 2q52 1 67 1q121 -1 184 -43q42 -28 60 -85q8 -26 8 -52q0 -100 -92 -189q-19 -17 -40 -35q162 -204 209 -254q4 -5 8 -9q55 -57 111 -68h1 q17 -3 28 -3q11 -1 12 -8q-2 -10 -19 -10h-95q-72 0 -107 19q-45 24 -113 114q-11 15 -24 33q-17 23 -51 72q-40 57 -48 66q-7 7 -18 7l-87 2q-7 -2 -8 -8v-14q0 -172 5 -214q5 -44 29 -53l10 -2q30 -4 49 -4q11 -1 12 -8q-2 -10 -20 -10q-38 0 -115 2q-27 1 -32 1 q-8 0 -41 -1q-57 -2 -81 -2q-19 1 -20 10q2 8 16 8q18 0 36 4q21 4 28 49q1 3 1 6q5 43 5 213zM282 688v-304q1 -14 9 -18q31 -10 76 -10q46 0 68 15q2 1 3 2q59 45 59 150q0 125 -89 168q-32 15 -64 15q-40 0 -53 -4q-9 -4 -9 -14z" glyph-name="R" horiz-adv-x="755" unicode="R"/>
<glyph d="M255 -17q-87 0 -146 26q-17 7 -18 21q-1 6 -1 13q0 52 5 131q3 25 12 26q10 -1 10 -17q0 -21 9 -51q28 -93 129 -101h14q84 0 120 62q14 25 14 52q0 66 -54 121q-19 19 -44 39l-46 36q-125 98 -144 193q-4 22 -4 44q0 98 84 151q61 38 147 38q70 0 133 -17q13 -4 14 -12 q0 -4 -1 -16q-3 -50 -3 -104q-1 -29 -11 -30q-10 2 -10 18q-1 34 -26 66q-40 48 -109 49q-80 0 -108 -56q-11 -22 -11 -47q0 -49 50 -97q22 -21 56 -47l28 -21q122 -92 151 -174q13 -37 13 -81q-1 -113 -94 -174q-65 -41 -159 -41z" glyph-name="S" horiz-adv-x="582" unicode="S"/>
<glyph d="M297 287v410l-149 -4q-70 -2 -89 -20q-5 -5 -8 -9q-13 -20 -17 -35q-4 -11 -11 -12q-9 2 -9 16q0 26 21 115q5 18 12 19q3 0 11 -3q17 -8 32 -9q49 -5 100 -5h396q32 0 68 5h1q25 5 27 5q8 -2 8 -21q0 -10 -1 -52q-2 -50 -2 -64q-3 -15 -9 -16q-9 0 -11 18v2l-1 11 q-4 49 -101 55q-9 1 -17 1l-126 3v-410q0 -171 5 -214t28 -52q6 -1 11 -2q28 -4 51 -4q15 -1 16 -8q-2 -9 -19 -10q-40 0 -109 2q-37 1 -48 1q-10 0 -47 -1q-56 -2 -79 -2q-19 1 -20 10q2 8 16 8q18 0 36 4q24 6 29 55q5 43 5 213z" glyph-name="T" horiz-adv-x="710" unicode="T"/>
<glyph d="M121 317v146q0 180 -2 212q-2 40 -25 51q-8 4 -18 6q-13 3 -39 3q-16 1 -17 9q2 9 22 9q30 0 93 -2q40 -1 53 -1q11 0 50 1q53 2 73 2q21 -1 22 -9q-2 -9 -16 -9q-12 0 -29 -3q-30 -6 -35 -40q-1 -8 -2 -17q-2 -34 -2 -212v-140q0 -162 57 -226q10 -11 21 -20 q51 -41 125 -41q84 1 138 54q51 51 57 178q1 27 1 70v125q0 180 -2 212q-2 40 -25 51q-8 4 -18 6q-12 3 -36 3q-16 1 -17 9q2 9 21 9q14 0 31 -0.5t31.5 -0.5t26.5 -0.5t19 -1.5h7q4 0 29 1q60 2 85 2q20 -1 21 -9q-2 -9 -18 -9q-12 0 -29 -3q-30 -6 -35 -40q-1 -8 -2 -17 q-2 -34 -2 -212v-107q0 -171 -53 -253q-18 -28 -42 -48q-85 -72 -208 -72q-146 1 -222 69q-89 82 -89 265z" glyph-name="U" horiz-adv-x="852" unicode="U"/>
<glyph d="M324 44l-252 611q-22 52 -50 67q-11 5 -26 9q-16 4 -39 4q-11 1 -12 9q2 9 26 9q29 0 87 -2q42 -1 58 -1q10 0 41 1q53 2 82 2q22 -1 23 -9q-2 -9 -15 -9q-29 0 -39 -7q-10 -8 -10 -21q1 -19 23 -77l172 -454h4q17 42 77 194q105 263 120 304q9 23 9 37q-1 14 -13 19 q-16 5 -40 5q-16 1 -17 8q2 10 28 10q33 0 83 -2q18 -1 22 -1q7 0 35 1q42 2 59 2q20 -1 21 -9q-2 -9 -16 -9q-31 -1 -49 -12q-24 -16 -54 -88q-1 -1 -1 -2q-3 -7 -106 -239l-14 -32q-38 -86 -94 -214l-39 -91q-29 -65 -37 -71q-5 -3 -9 -3q-12 0 -23 26q-5 11 -15 35z" glyph-name="V" horiz-adv-x="724" unicode="V"/>
<glyph d="M287 20l-212 635q-19 58 -37 71q-14 9 -40 9q-15 1 -16 9q2 9 22 9q37 0 97 -2q16 -1 19 -1t16 1q54 2 95 2q21 0 21 -9q-2 -9 -18 -9q-18 0 -25 -4q-11 -6 -11 -22q0 -11 22 -92q30 -116 126 -419q1 -4 2 -6h3l194 521q13 35 25 36q10 0 21 -27q1 -2 8 -20l208 -503h3 q9 35 133 448q10 33 10 58q-2 29 -48 30q-16 1 -17 9q2 9 23 9q38 0 88 -2q13 -1 16 -1q2 0 16 1q45 2 67 2q17 -1 18 -8q-2 -9 -14 -10q-21 0 -35 -5q-20 -7 -41 -63q-2 -7 -7 -20q-5 -15 -8 -23q-57 -156 -200 -594q-13 -43 -24 -46q-3 -1 -5 -1q-10 0 -24 31q-3 8 -7 18 l-208 501h-2q-146 -392 -195 -497q-22 -48 -30 -52q-3 -1 -6 -1q-10 0 -19 26q-2 4 -4 11z" glyph-name="W" horiz-adv-x="1085" unicode="W"/>
<glyph d="M576 651l-164 -236q12 -19 79 -128q124 -204 140 -224q25 -32 58 -42q21 -6 38 -6q12 -1 13 -8q-2 -9 -19 -10h-30q-103 0 -180 2q-33 2 -34 10q2 8 14 11q9 2 5 17q-2 3 -3 6q-95 169 -158 272l-148 -239q-15 -25 -14 -42q3 -13 19 -17q12 -2 23 -2q11 -1 12 -9 q-2 -9 -20 -9h-18q-2 0 -21 1q-56 2 -73 2q-10 0 -45 -2q-31 -1 -39 -1h-17q-15 0 -15 9q2 8 14 9q19 0 37 5q32 9 67 54q7 10 15 21l191 273l-172 285q-37 60 -83 75q-23 7 -42 7q-9 2 -10 10q2 8 20 8q10 0 53 -1q72 -2 99 -2q5 0 31 1q53 2 76 2q19 -1 20 -9 q-2 -9 -15 -9q-16 0 -27 -4q-11 -5 -12 -16q1 -11 10 -29q10 -18 121 -210q3 -6 6 -11q122 185 136 211q11 19 11 38q-2 12 -17 18q-11 3 -32 3q-11 2 -12 9q0 9 21 9q23 0 67 -2q25 -1 33 -1t35 1q42 2 63 2q17 -1 18 -9q-2 -8 -16 -9q-15 0 -36 -6q-23 -6 -61 -60 q-5 -8 -12 -18z" glyph-name="X" horiz-adv-x="712" unicode="X"/>
<glyph d="M276 174v82q0 54 -23 105q-13 30 -145 240q-21 33 -31 48q-37 54 -69 73q-24 13 -42 13q-14 1 -15 9q2 9 19 9q8 0 46 -1q61 -2 80 -2q9 0 34 1q47 2 73 2q15 0 15 -9q0 -5 -18 -10q-3 -1 -4 -1q-13 -4 -14 -18q1 -11 12 -34q5 -10 170 -299q5 12 74 136q69 123 76 139 q14 31 14 52q-2 20 -21 25q-17 5 -18 10q2 9 17 9q17 0 50 -2q30 -1 44 -1q11 0 57 2q41 1 50 1q17 -1 18 -8q-2 -9 -19 -10q-22 -1 -44 -12q-23 -11 -52 -46q-1 -2 -2 -3q-38 -47 -147 -236q-36 -63 -44 -82q-15 -37 -15 -100v-82q0 -58 3 -100q5 -49 41 -55q28 -4 50 -4 q15 -1 16 -8q-2 -10 -21 -10q-38 0 -106 2q-36 1 -47 1t-51 -1q-54 -2 -74 -2q-21 1 -22 10q2 7 16 8q17 0 35 4q27 7 31 55q3 42 3 100z" glyph-name="Y" horiz-adv-x="670" unicode="Y"/>
<glyph d="M222 55h246q127 1 157 55q12 23 18 48q4 15 10 16q10 -4 10 -31q0 -50 -20 -122q-10 -25 -30 -26q-80 0 -243 2q-189 3 -294 3q-16 1 -17 10q1 9 15 30q59 93 180 279q166 256 243 378h-196q-106 0 -144 -21q-40 -22 -52 -69q-1 -5 -2 -9q-3 -17 -12 -18q-8 2 -8 17 q0 25 20 144q4 18 12 19q4 0 11 -2q15 -4 29 -5q73 -3 184 -3h305q16 -1 17 -8q-1 -6 -8 -19q-111 -180 -431 -668z" glyph-name="Z" horiz-adv-x="710" unicode="Z"/>
<glyph d="M188 617v-606q0 -64 7 -93q28 -13 107 -21q16 -3 17 -10q-2 -9 -12 -9h-190q-14 0 -15 6q-1 4 -1 10v839q8 12 16 13h191q11 -2 12 -9q0 -8 -15 -10h-2q-79 -8 -108 -21q-7 -30 -7 -89z" glyph-name="bracketleft" horiz-adv-x="360" unicode="["/>
<glyph d="M525 4l-35 -23q-8 -2 -13 6l-459 745q-4 8 1 12l36 22q8 3 14 -5l456 -740q6 -13 0 -17z" glyph-name="backslash" horiz-adv-x="542" unicode="\"/>
<glyph d="M172 7v606q0 64 -7 93q-28 13 -107 21q-16 3 -17 10q2 9 12 9h190q14 0 15 -6q1 -4 1 -10v-839q-8 -12 -16 -13h-191q-11 2 -12 9q0 8 15 10h2q80 8 108 21q7 30 7 89z" glyph-name="bracketright" horiz-adv-x="360" unicode="]"/>
<glyph d="M501 300h-68l-159 372l-159 -372h-68l192 448h70z" glyph-name="asciicircum" horiz-adv-x="549" unicode="^"/>
<glyph d="M0 -75h500v-50h-500v50z" glyph-name="underscore" horiz-adv-x="500" unicode="_"/>
<glyph d="M537 837q-1 -6 -11 -7q-19 0 -197 80l-6 3q-32 14 -33 25q2 6 13 9q40 13 67 25q16 7 19 7t10 -13q4 -5 6 -9q20 -27 78 -76q18 -15 33 -26q3 -3 10 -7q10 -7 11 -11z" glyph-name="grave" horiz-adv-x="927" unicode="`"/>
<glyph d="M389 211h-207q-6 -2 -8 -6l-47 -114q-13 -30 -13 -52q2 -23 35 -24h13q12 -1 13 -9q-2 -9 -14 -9q-15 0 -50 2q-34 1 -48 1q-3 0 -18 -1q-52 -2 -84 -2q-15 1 -16 9q2 8 10 9q4 0 13 1h13q39 6 61 48q5 11 12 27l230 535q15 33 26 34q13 0 21 -18q2 -4 5 -9 q10 -23 95 -223q100 -235 129 -301q37 -84 75 -91q20 -3 33 -3q12 0 12 -9q0 -8 -22 -9h-16q-96 0 -169 2q-25 2 -26 7q0 7 9 9h2q11 2 9 14q0 3 -1 5l-68 171q-4 6 -9 6zM200 258h170q4 2 4 5l-83 216q-3 7 -4 8q-3 0 -5 -7v-1l-85 -215q-1 -5 3 -6z" glyph-name="a" horiz-adv-x="632" unicode="a"/>
<glyph d="M144 244v150q0 153 -1 180q-2 31 -22 40q-7 3 -16 6q-11 3 -35 3q-14 1 -15 9q2 8 20 8q29 0 86 -1q26 -1 33 -1q24 0 78 1q40 1 54 1q149 0 181 -90q6 -18 6 -37q-1 -86 -99 -149q93 -30 136 -97q26 -41 26 -87q0 -87 -72 -139q-63 -46 -162 -46q-26 0 -70 3 q-60 2 -75 2h-16q-22 -1 -34 -1q-42 -2 -61 -2q-16 1 -17 9q2 8 14 9q19 0 31 3q21 6 26 45q4 37 4 181zM258 585v-205q1 -7 6 -9q13 -3 41 -3q50 1 69 15q39 32 40 90q0 65 -42 103q-29 25 -68 25q-29 0 -38 -2q-8 -3 -8 -14zM258 323v-193q0 -59 13 -73q7 -7 18 -11 q26 -10 63 -10q68 0 95 56q13 27 13 64q0 74 -55 128q-13 13 -28 23q-31 22 -76 22h-38q-4 -2 -5 -6z" glyph-name="b" horiz-adv-x="640" unicode="b"/>
<glyph d="M460 -14q-192 1 -302 92q-110 93 -110 251q0 113 70 199q16 19 33 34q104 90 279 90q57 0 128 -9q13 -2 38 -6q35 -6 50 -8q12 -2 13 -10q0 -3 -1 -13q-2 -18 -3 -34q-1 -17 -2 -60q-1 -25 -1 -32q-3 -20 -12 -21q-9 2 -9 18q-3 47 -34 79q-53 50 -170 50 q-110 -1 -166 -48q-81 -71 -81 -221q0 -154 111 -240q75 -58 163 -58q94 0 130 23q14 9 26 22q24 28 30 57q4 16 11 17q9 -1 10 -15q0 -31 -15 -97q-2 -10 -4 -16q-4 -17 -18 -23q-3 -1 -5 -2q-48 -19 -159 -19z" glyph-name="c" horiz-adv-x="705" unicode="c"/>
<glyph d="M144 244v150q0 153 -1 180q-2 31 -22 40q-7 3 -16 6q-11 3 -35 3q-14 1 -15 9q2 8 20 8q26 0 82 -1q34 -1 45 -1t49 1q63 1 94 1q152 0 229 -24q76 -24 125 -73q83 -84 83 -216q0 -138 -90 -231l-6 -6q-77 -77 -218 -95q-38 -5 -77 -5q-19 0 -105 5q-58 5 -89 5h-16 q-22 -1 -34 -1q-42 -2 -61 -2q-16 1 -17 9q2 8 14 9q19 0 31 3q21 6 26 45q4 37 4 181zM262 407v-107q0 -137 2 -172q3 -50 10 -60q28 -33 115 -34q118 0 186 53q4 3 6 5q75 63 75 211q0 130 -73 203l-9 9q-92 81 -246 81q-43 0 -54 -6t-11 -17q-1 -30 -1 -166z" glyph-name="d" horiz-adv-x="831" unicode="d"/>
<glyph d="M144 244v150q0 153 -1 180q-2 31 -22 40q-7 3 -16 6q-11 3 -35 3q-14 1 -15 9q2 8 20 8q26 0 82 -1q34 -1 45 -1h240q7 0 37 5q2 0 6 2q6 2 8 2q6 -1 6 -8q0 -2 -1 -7q-5 -22 -6 -48q0 -3 -1 -17q-3 -32 -4 -39q-5 -13 -10 -14q-7 2 -7 11q0 19 -6 31q-9 20 -31 26 q-11 4 -27 5q-29 4 -138 4q-5 -2 -6 -8v-210q2 -8 6 -9q133 0 154 2q33 4 42 13q13 11 14 11q6 -2 7 -9q0 -2 -7 -60v-2q-4 -32 -4 -57q-1 -18 -9 -19q-7 1 -8 7q0 3 -1 10q-1 14 -2 21q-10 29 -49 33q-31 4 -138 4q-5 -2 -5 -9v-68v-126q2 -49 36 -62q26 -9 83 -9 q58 0 83 11q29 15 38 63q4 12 10 13q8 -1 8 -20q0 -44 -11 -90q-1 -3 -1 -4q-5 -18 -19 -21q-8 -1 -28 -1q-98 0 -162 3q-86 2 -102 2h-16q-22 -1 -34 -1q-42 -2 -61 -2q-16 1 -17 9q2 8 14 9q19 0 31 3q21 6 26 45q4 37 4 181z" glyph-name="e" horiz-adv-x="576" unicode="e"/>
<glyph d="M262 311v-70q0 -133 5 -178q4 -35 26 -43q4 -1 9 -2q18 -3 43 -3q14 -1 15 -9q-2 -9 -19 -9q-34 0 -99 2q-33 1 -42 1q-10 0 -47 -1q-47 -2 -65 -2q-17 1 -18 9q2 8 13 9q19 0 31 3q21 6 26 45q4 37 4 181v150q0 153 -1 180q-2 32 -22 41q-7 3 -16 5q-11 3 -35 3 q-14 1 -15 9q2 8 21 8q26 0 80 -1q35 -1 46 -1h250q25 2 36 4q2 0 6 2q6 3 8 3q5 -1 6 -8q0 -3 -2 -11q-3 -16 -5 -27q-1 -5 -2 -35q-2 -29 -2 -34q-3 -16 -9 -17q-10 2 -11 14q-1 22 -5 32q-14 24 -56 26l-146 3q-7 -2 -8 -12v-206q2 -7 6 -8l123 1q27 0 40 1q27 3 37 15 q10 9 12 9q4 -2 5 -8q0 -2 -2 -18q-3 -23 -5 -37q-3 -24 -3 -62q-1 -18 -10 -19q-7 1 -8 12q0 12 -6 26q-11 28 -42 31q-32 3 -141 3q-5 -2 -6 -7z" glyph-name="f" horiz-adv-x="567" unicode="f"/>
<glyph d="M681 148v-94q0 -23 -6 -27q-2 -1 -5 -3q-78 -38 -215 -38q-206 0 -316 105q-91 87 -91 228q0 148 104 242q24 21 50 36q92 54 227 55h10q89 0 156 -14q48 -8 70 -9q11 -3 12 -10q0 -2 -1 -10q-5 -49 -5 -130q-1 -18 -12 -19q-7 2 -9 11q-5 44 -30 70q-44 46 -132 60 q-29 5 -59 5q-87 0 -139 -29q-16 -9 -31 -21q-81 -67 -81 -207q0 -155 99 -243q83 -73 207 -73q41 0 62 9q17 9 17 30v78q0 74 -1 100q-1 31 -22 40q-7 3 -16 6q-11 3 -34 3q-13 1 -14 9q2 8 19 8q26 0 85 -1q39 -1 50 -1q14 0 51 1t52 1q17 -1 18 -8q-2 -8 -11 -9 q-10 0 -24 -3q-28 -5 -33 -32q-1 -7 -1 -14q-1 -27 -1 -102z" glyph-name="g" horiz-adv-x="783" unicode="g"/>
<glyph d="M268 363h332q4 2 5 6v18q0 133 -2 187q-2 31 -22 40q-7 3 -16 6q-11 3 -34 3q-15 0 -15 9q2 8 19 8q28 0 88 -1q34 -1 44 -1q9 0 44 1q50 1 69 1q18 -1 19 -8q-2 -8 -16 -9q-10 0 -26 -3q-25 -4 -30 -29q-1 -8 -2 -17q-2 -29 -2 -180v-150q0 -145 4 -182q4 -34 24 -41 q5 -2 11 -3q18 -3 45 -3q13 -1 14 -9q-2 -8 -18 -9q-35 0 -97 2q-33 1 -42 1t-44 -1q-53 -2 -72 -2q-18 1 -19 9q2 8 14 9q20 0 32 3q21 6 26 45q4 37 4 179v65q-1 4 -5 5h-332q-5 -2 -6 -5v-65q0 -134 5 -180q4 -35 24 -42l10 -2q18 -3 45 -3q13 -1 14 -9q-2 -8 -18 -9 q-34 0 -99 2q-34 1 -44 1q-9 0 -42 -1q-51 -2 -71 -2q-16 1 -17 9q2 8 14 9q19 0 31 3q21 6 26 45q4 37 4 181v150q0 153 -1 180q-2 31 -22 40q-7 3 -16 6q-11 3 -35 3q-14 1 -15 9q2 8 19 8q27 0 85 -1q34 -1 44 -1q9 0 45 1q52 1 72 1q17 -1 18 -8q-2 -8 -16 -9 q-11 0 -25 -3q-26 -4 -31 -29q-1 -8 -2 -17q-2 -29 -2 -187v-18q1 -5 6 -6z" glyph-name="h" horiz-adv-x="867" unicode="h"/>
<glyph d="M144 244v150q0 153 -1 180q-2 34 -25 43q-3 1 -5 2q-14 4 -32 4q-13 2 -14 10q2 7 21 7q18 0 67 -1q39 -1 51 -1q10 0 45 1q49 1 68 1q17 -1 18 -7q-2 -10 -14 -10t-26 -3q-26 -4 -31 -29q-1 -8 -2 -17q-2 -29 -2 -180v-150q0 -150 4 -186q4 -31 25 -38l10 -2 q18 -3 45 -3q13 -1 14 -9q-2 -8 -17 -9q-35 0 -100 2q-33 1 -42 1t-43 -1q-52 -2 -72 -2q-16 1 -17 9q2 8 14 9q19 0 31 3q20 4 25 32q0 5 1 9q4 36 4 185z" glyph-name="i" horiz-adv-x="407" unicode="i"/>
<glyph d="M144 150v244q0 153 -1 180q-2 31 -22 40q-7 3 -16 6q-11 3 -35 3q-14 1 -15 9q2 8 20 8q27 0 88 -1q35 -1 45 -1q9 0 43 1q49 1 69 1q17 -1 18 -8q-2 -8 -16 -9q-11 0 -25 -3q-26 -4 -31 -29q-1 -8 -2 -17q-2 -29 -2 -180v-158q0 -17 1 -55q2 -43 2 -65q0 -94 -21 -150 q-30 -81 -141 -152q-9 -5 -17 -10q-17 -9 -44 -22q-8 -4 -18 -4q-6 1 -7 8q0 6 17 14q1 1 2 1q19 10 42 33q51 50 61 144q5 46 5 172z" glyph-name="j" horiz-adv-x="373" unicode="j"/>
<glyph d="M259 394v-38h4q13 14 81 82q88 89 103 105q41 46 43 59q1 2 1 4q-1 14 -12 17q-11 4 -12 9q2 8 14 8q9 0 41 -1q37 -1 50 -1q14 0 52 1t51 1q14 -1 15 -8q-2 -8 -13 -9q-25 0 -51 -10q-43 -16 -93 -63q-147 -137 -186 -181q40 -52 205 -220q23 -23 33 -32q63 -56 70 -62 q26 -19 50 -29q27 -11 54 -11q11 -1 12 -9q-2 -9 -21 -9h-77q-42 0 -61 2q-54 5 -105 47q-5 4 -9 8q-44 38 -193 215q-26 31 -33 40l-9 12h-4v-77q0 -145 2 -182q5 -38 32 -44q18 -3 43 -3q10 -1 12 -9q-2 -8 -17 -9q-29 0 -91 2q-34 1 -43 1t-41 -1q-50 -2 -70 -2 q-16 1 -17 9q2 8 14 9q19 0 31 3q21 6 26 45q4 37 4 181v150q0 153 -1 180q-2 31 -22 40q-7 3 -16 6q-11 3 -35 3q-14 1 -15 9q2 8 20 8q27 0 83 -1q31 -1 40 -1q10 0 48 1q49 1 65 1q18 -1 19 -8q-2 -8 -12 -9q-10 0 -25 -3q-26 -4 -31 -29q-1 -8 -2 -17q-1 -29 -1 -180z " glyph-name="k" horiz-adv-x="685" unicode="k"/>
<glyph d="M262 394v-150q0 -139 10 -165q4 -9 9 -14q22 -18 117 -18q70 0 93 16q6 4 10 8q17 18 22 51q3 12 10 13q8 -2 8 -19q0 -39 -11 -90q-1 -5 -2 -8q-5 -17 -18 -20q-11 -3 -38 -3q-92 0 -158 3q-88 2 -117 2h-16q-22 -1 -34 -1q-42 -2 -61 -2q-16 1 -17 9q2 8 14 9 q19 0 31 3q21 6 26 45q4 37 4 181v150q0 153 -1 180q-2 31 -22 40q-7 3 -16 6q-11 3 -29 3q-15 0 -15 9q2 8 19 8q23 0 76 -1q35 -1 45 -1q9 0 50 1q58 1 77 1q18 -1 19 -8q-2 -8 -16 -9q-19 0 -34 -3q-26 -4 -31 -29q-1 -8 -2 -17q-2 -29 -2 -180z" glyph-name="l" horiz-adv-x="552" unicode="l"/>
<glyph d="M90 82l87 555q4 21 17 22q13 0 26 -25q1 -1 1 -2l236 -474l236 480q11 20 23 21q12 0 18 -20q1 -4 2 -7l80 -525q10 -63 29 -77q7 -5 14 -7q29 -8 50 -8q13 -1 14 -8q-2 -10 -23 -10q-76 0 -182 6q-25 2 -26 10q2 6 10 9q8 5 4 36l-49 368h-3l-189 -380q-22 -45 -31 -47 q-2 -1 -4 -1q-13 2 -35 43q-90 168 -101 193q-12 28 -88 182h-3l-42 -332q-3 -23 -3 -40q2 -19 27 -25q20 -4 31 -4q12 -1 14 -8q-2 -10 -21 -10q-22 0 -64 2q-23 1 -29 1q-7 0 -33 -1q-38 -2 -54 -2q-15 1 -16 10q2 7 14 8q14 0 27 2q27 5 36 65z" glyph-name="m" horiz-adv-x="923" unicode="m"/>
<glyph d="M189 460l10 -347q3 -82 30 -92q19 -6 46 -6q14 -1 15 -9q-2 -9 -20 -9q-37 0 -89 2q-19 1 -25 1q-2 0 -15 -1q-49 -2 -80 -2q-19 1 -20 9q2 8 14 9q24 0 40 4q20 5 24 41q2 20 3 62l8 504q1 28 15 29q11 -1 38 -28l271 -271l125 -125q59 -60 65 -66h4l-9 378 q-1 58 -21 70q-4 3 -9 5q-14 5 -46 5q-13 1 -14 9q2 8 22 8q28 0 79 -1q26 -1 33 -1h17q41 2 69 2q19 -1 20 -8q-2 -8 -15 -9q-17 0 -27 -3q-24 -7 -29 -36q-3 -14 -3 -34l-10 -536q-1 -26 -14 -27q-18 1 -36 18q-91 84 -257 245q-42 41 -187 191q-14 15 -19 19h-3z" glyph-name="n" horiz-adv-x="841" unicode="n"/>
<glyph d="M408 -14q-198 0 -297 135q-63 88 -63 198q0 121 77 213q103 120 292 120q196 0 293 -116q67 -82 67 -202q0 -154 -104 -252q-103 -96 -265 -96zM444 32q102 0 157 82q45 70 45 189q0 158 -95 244q-68 60 -160 60q-132 0 -184 -109q-29 -62 -29 -153q0 -152 87 -240 q72 -73 179 -73z" glyph-name="o" horiz-adv-x="827" unicode="o"/>
<glyph d="M144 244v150q0 153 -1 180q-2 31 -22 40q-7 3 -16 6q-11 3 -35 3q-14 1 -15 9q2 8 20 8q26 0 82 -1q34 -1 45 -1q18 0 69 1q57 1 77 1q108 0 163 -47l1 -1q41 -45 44 -102q0 -102 -80 -162q-60 -44 -141 -44q-21 0 -26 1q-10 2 -11 9q2 11 29 11q47 0 84 44q34 40 34 94 q-1 82 -52 126q-37 32 -88 32q-27 0 -38 -4q-7 -4 -7 -16v-337q0 -145 4 -182q4 -35 24 -42l10 -2q20 -3 45 -3q13 -1 14 -9q-2 -8 -16 -9q-36 0 -103 2q-32 1 -41 1t-41 -1q-50 -2 -70 -2q-16 1 -17 9q2 8 14 9q19 0 31 3q21 6 26 45q4 37 4 181z" glyph-name="p" horiz-adv-x="596" unicode="p"/>
<glyph d="M683 -74l-137 81q-56 -21 -139 -21q-201 0 -298 139q-61 88 -61 198q0 111 73 202q104 126 292 127q178 0 278 -104q83 -87 83 -218q0 -147 -115 -250q-18 -17 -36 -29l173 -84q208 -101 360 -101q101 0 172 27q10 4 13 4q6 -1 8 -8q-2 -6 -11 -11q-143 -67 -282 -67 t-259 54q-51 24 -114 61zM443 32q147 0 186 156q13 52 13 119q0 167 -105 250q-64 50 -144 50q-135 0 -187 -115q-27 -61 -27 -149q0 -171 105 -256q68 -55 159 -55z" glyph-name="q" horiz-adv-x="826" unicode="q"/>
<glyph d="M144 244v150q0 153 -1 180q-2 31 -22 40q-7 3 -16 6q-11 3 -35 3q-14 1 -15 9q2 8 20 8q28 0 85 -1q28 -1 35 -1q15 0 72 1q52 1 65 1q112 -1 167 -36q42 -29 57 -81q5 -18 5 -36q0 -81 -95 -165q-13 -12 -27 -23q143 -176 193 -226q46 -46 94 -56q10 -2 21 -2 q10 -1 11 -9q-2 -9 -17 -9h-84q-64 0 -96 17q-41 20 -102 101q-8 11 -18 24q-19 26 -55 77q-23 33 -28 39q-7 6 -16 6l-79 2q-6 -2 -7 -7v-12q0 -136 5 -181q4 -34 20 -41q7 -3 14 -4q20 -3 43 -3q10 -1 11 -9q-2 -8 -18 -9q-34 0 -107 2q-25 1 -30 1q-7 0 -37 -1 q-50 -2 -71 -2q-16 1 -17 9q2 8 14 9q19 0 31 3q21 6 26 45q4 37 4 181zM256 581v-253q1 -11 8 -15q26 -8 67 -8q43 1 62 14q56 41 57 126q0 110 -85 142q-24 9 -49 9q-38 0 -52 -3q-8 -4 -8 -12z" glyph-name="r" horiz-adv-x="686" unicode="r"/>
<glyph d="M239 -14q-94 0 -143 22q-15 6 -17 19v10q0 44 5 111v1v1q1 21 11 22q9 -1 9 -14q0 -20 8 -44q21 -69 110 -82q15 -2 30 -2q78 0 109 57q13 23 13 51q0 52 -42 88q-19 16 -45 32l-51 30q-112 66 -132 144q-6 23 -6 49q0 89 85 137q59 34 137 34q71 0 125 -14q11 -4 12 -11 q0 -3 -1 -13q-2 -42 -2 -89q-1 -26 -11 -27q-9 0 -9 15q-1 30 -23 56q-34 39 -98 40q-72 0 -104 -44q-16 -21 -16 -47q0 -45 41 -78q21 -17 52 -34l36 -20q130 -72 148 -167q4 -19 4 -39q-1 -97 -88 -159q-50 -35 -147 -35z" glyph-name="s" horiz-adv-x="540" unicode="s"/>
<glyph d="M261 244v344l-131 -3q-64 -1 -82 -22q-2 -2 -3 -4q-10 -13 -15 -29q-4 -10 -10 -11q-8 2 -8 14q0 26 19 103q4 15 10 16q3 0 11 -3q15 -5 27 -7q35 -4 88 -4h357q34 0 60 4q7 1 17 3q6 1 7 1q7 -2 7 -18q0 -9 -1 -47q-1 -44 -1 -56q-2 -13 -8 -14q-8 0 -10 15v2l-1 9 q-4 42 -83 48q-10 1 -21 1l-111 2v-344q0 -136 5 -182q4 -35 24 -42l10 -2q18 -3 45 -3q13 -1 14 -9q-2 -8 -17 -9q-35 0 -98 2q-34 1 -44 1q-9 0 -43 -1q-52 -2 -72 -2q-16 1 -17 9q2 8 14 9q20 0 31 3q21 6 26 45q4 37 4 181z" glyph-name="t" horiz-adv-x="633" unicode="t"/>
<glyph d="M106 269v125q0 167 -1 180q-2 31 -21 40q-7 3 -17 6q-11 3 -34 3q-15 0 -15 9q2 8 19 8q27 0 84 -1q37 -1 48 -1q10 0 47 1q49 1 66 1q18 -1 19 -8q-2 -8 -14 -9q-11 0 -26 -3q-25 -4 -30 -29q-1 -8 -2 -17q-2 -29 -2 -180v-119q0 -134 46 -187q10 -10 21 -19 q43 -34 111 -34q72 1 118 45q46 43 50 150q1 22 1 57v107q0 127 -2 180q-2 31 -20 40q-7 3 -17 6q-11 3 -32 3q-15 0 -15 9q2 8 18 8h28t28 -0.5t24 -1t18 -0.5h7q4 0 26 1q55 1 77 1q17 -1 18 -8q0 -9 -15 -9q-11 0 -26 -3q-25 -4 -30 -27q-1 -8 -2 -19q-2 -56 -2 -180v-91 q0 -153 -53 -223q-14 -19 -31 -33q-73 -61 -186 -61q-135 1 -201 58q-80 71 -80 225z" glyph-name="u" horiz-adv-x="760" unicode="u"/>
<glyph d="M283 37l-222 520q-19 45 -42 56q-9 4 -23 7t-34 3q-9 1 -10 9q2 8 22 8q26 0 77 -1q37 -1 51 -1q9 0 38 1q49 1 74 1q20 -1 21 -8q-2 -8 -14 -9q-25 0 -34 -6q-9 -7 -9 -17q1 -15 20 -64l148 -381h3q101 233 169 410q2 5 3 8q8 22 8 31q-2 11 -12 15q-14 4 -35 4 q-14 1 -15 9q2 8 25 8q29 0 75 -1q15 -1 19 -1q6 0 30 1q38 1 53 1q17 -1 18 -8q-2 -8 -14 -9q-30 -1 -43 -10q-20 -15 -45 -73q-1 -1 -1 -2q-4 -9 -106 -230q-25 -56 -66 -147q-40 -89 -51 -113q-26 -57 -38 -61q-2 -1 -4 -1q-12 0 -25 26q-5 10 -11 25z" glyph-name="v" horiz-adv-x="637" unicode="v"/>
<glyph d="M249 17l-186 540q-19 51 -31 59q-11 7 -34 7q-13 1 -14 9q2 8 20 8q32 0 85 -2h17h15q51 2 87 2q18 -1 19 -8q-2 -8 -16 -9q-13 0 -22 -4q-9 -5 -9 -17t19 -78q30 -113 106 -346q1 -4 2 -6h3l168 434q12 30 26 31q13 -2 29 -40l176 -419h3q10 30 68 219q35 115 47 153 q9 30 9 49q-2 23 -43 24q-14 1 -15 9q2 8 21 8q32 0 79 -2h15h14q39 2 59 2q15 -1 16 -7q-2 -9 -12 -10q-18 0 -31 -4q-19 -7 -38 -60q-2 -5 -7 -17q-3 -8 -4 -12q-29 -76 -174 -504q-12 -36 -23 -39q-3 -1 -5 -1q-12 0 -23 24q-4 7 -8 17l-179 419h-2q-4 -10 -31 -77 q-111 -280 -138 -338q-19 -41 -28 -44q-3 -1 -6 -1q-12 0 -21 23q-2 4 -3 8z" glyph-name="w" horiz-adv-x="955" unicode="w"/>
<glyph d="M516 553l-146 -199q9 -14 56 -86q125 -195 140 -214q21 -25 48 -34q15 -5 34 -5q10 -1 11 -9q-2 -8 -17 -9h-26q-91 0 -163 2q-30 2 -31 9q2 8 12 11t5 15q-1 2 -2 3q-26 43 -76 124q-44 73 -63 104l-129 -200q-14 -23 -13 -36q3 -12 17 -13h8q8 -1 11 -1q9 -1 11 -10 q-2 -8 -18 -8h-16q-2 0 -18 1q-52 2 -67 2q-9 0 -40 -2q-27 -1 -34 -1h-15q-12 1 -13 8q2 9 12 10q15 0 32 4q28 7 55 42q7 9 15 20l172 232l-155 242q-30 47 -65 60l-6 2q-21 6 -37 6q-8 2 -9 10q2 7 18 7q9 0 46 -1q63 -1 88 -1q5 0 28 1q50 1 71 1q17 -1 18 -8 q-2 -8 -14 -9q-11 0 -21 -3q-11 -4 -12 -12q1 -9 9 -25q32 -56 110 -185q96 140 119 177q10 17 10 31q-2 10 -15 14q-10 3 -28 3q-10 2 -11 9q2 8 19 8q20 0 61 -1q24 -1 31 -1t30 1q37 1 56 1q15 -1 16 -8q-2 -8 -14 -9q-13 0 -32 -5t-50 -47q-3 -5 -13 -18z" glyph-name="x" horiz-adv-x="635" unicode="x"/>
<glyph d="M239 148v70q-1 49 -20 89q-12 26 -139 219q-12 17 -18 26q-34 47 -57 60q-20 11 -37 11q-12 1 -13 9q2 8 17 8q6 0 39 -1q54 -1 71 -1q8 0 33 1q44 1 67 1q12 -1 13 -8q0 -6 -13 -9q-5 -1 -7 -2q-11 -5 -12 -13q1 -11 11 -29q8 -12 69 -118q69 -118 77 -131q4 7 39 68 q83 142 92 160q13 28 13 45q0 14 -17 18q-1 1 -2 1q-15 5 -16 10q2 8 15 8q15 0 45 -1q29 -1 41 -1q10 0 49 1q37 1 45 1q15 -1 16 -7q-2 -9 -17 -10q-17 0 -38 -10q-22 -11 -46 -40q-36 -42 -136 -209q-28 -48 -35 -63q-11 -30 -11 -85v-68q0 -49 2 -85q5 -39 36 -45 q20 -3 44 -3q14 -1 15 -9q-2 -9 -19 -9q-33 0 -95 2q-33 1 -43 1t-46 -1q-50 -2 -68 -2q-18 1 -19 9q2 8 14 9q19 0 31 3q24 7 27 45q3 36 3 85z" glyph-name="y" horiz-adv-x="590" unicode="y"/>
<glyph d="M201 51h211q108 0 134 41q1 2 2 3q12 22 16 39q4 13 10 14q9 -2 9 -26q0 -44 -17 -104q-9 -21 -27 -22q-70 0 -214 2q-167 2 -260 2q-15 0 -15 9q1 10 11 25q211 318 370 554h-166q-97 0 -125 -15q-37 -20 -46 -58q-1 -4 -1 -7q-3 -14 -11 -15q-8 2 -9 14q0 30 18 123 q2 15 10 16q3 0 9 -2q14 -3 26 -4q58 -2 162 -2h271q14 -1 15 -7q-1 -7 -5 -16q-151 -236 -378 -564z" glyph-name="z" horiz-adv-x="625" unicode="z"/>
<glyph d="M136 351v-1q42 -16 63 -59q4 -10 7 -19q10 -37 10 -127v-23q0 -206 75 -224q24 -7 24 -13q0 -7 -25 -7h-11q-42 0 -85 42q-12 12 -22 25q-42 59 -49 167q-2 29 -2 61q0 17 4 61q4 35 4 46q0 20 -7 30q-13 18 -60 25q-14 4 -14 10q0 9 10 10q2 1 4 1q36 2 47 8q6 4 10 7 q12 11 12 49q0 7 -9 89q-1 13 -1 20q0 106 47 159q8 9 17 17q46 41 109 41q19 -1 20 -7q-2 -6 -18 -9q-33 -5 -57 -42q-23 -34 -23 -81q0 -134 -3 -156q-2 -13 -5 -24q-10 -39 -51 -66q-11 -7 -21 -10z" glyph-name="braceleft" horiz-adv-x="360" unicode="{"/>
<glyph d="M281 -250h-61v1000h61v-1000z" glyph-name="bar" horiz-adv-x="500" unicode="|"/>
<glyph d="M224 350q-35 12 -59 49q-9 15 -13 28q-9 33 -8 145v35q0 79 -56 113q-13 8 -24 10q-17 4 -18 9q2 7 20 7q64 -1 109 -41q49 -45 59 -111q5 -29 5 -65q0 -11 -4 -44q-6 -45 -6 -65q1 -39 12 -49q15 -13 54 -15h3q13 -3 14 -11q0 -7 -10 -9q-2 -1 -4 -1q-48 -8 -60 -25 q-7 -11 -7 -30q0 -11 4 -46q4 -44 4 -61q0 -152 -45 -220l-6 -8q-42 -57 -97 -66q-6 -1 -10 -1q-35 1 -36 7q0 7 22 12q1 1 2 1q75 19 75 224q0 104 6 132q2 10 4 18q14 49 59 73q6 3 11 5z" glyph-name="braceright" horiz-adv-x="360" unicode="}"/>
<glyph d="M512 342q6 -129 -88 -144q-12 -2 -24 -2q-51 1 -136 43q-84 41 -116 41q-50 0 -54 -81v-2h-57q-3 113 75 139q19 6 41 6q43 0 114 -34q9 -4 20 -9q86 -40 118 -40q48 2 50 83h57z" glyph-name="asciitilde" horiz-adv-x="549" unicode="~"/>
<glyph glyph-name="uni00A0" horiz-adv-x="300" unicode=" "/>
<glyph d="M162 586q12 0 14 -30q1 -4 1 -6q18 -222 25 -272q9 -128 21 -180q1 -5 5 -14q3 -9 3 -12q-1 -8 -5 -16q-31 -39 -90 -63q-22 -10 -38 -10q-8 2 -9 13q0 3 3 25q9 58 13 104q1 7 15 151q25 262 27 278q5 31 15 32zM169 767q42 0 53 -39q2 -9 2 -17q0 -36 -29 -51 q-13 -6 -27 -6q-41 0 -53 34q-3 9 -3 19q0 40 34 55q11 5 23 5z" glyph-name="exclamdown" horiz-adv-x="320" unicode="¡"/>
<glyph d="M388 585l-45 -414q23 -4 42 -4q76 0 105 40q13 19 20 46q5 15 13 16q8 -2 8 -12q0 -41 -13 -109q-4 -13 -14 -17q-58 -17 -123 -17q-31 0 -45 1l-14 -134q-3 -9 -8 -11l-37 -5q-11 -1 -9 6l18 150q-134 24 -192 126q-33 58 -33 133q0 103 64 171q8 8 14 13q81 68 206 68 l11 100q1 8 8 10h2l32 4q11 0 11 -6l-14 -108q65 0 132 -26q7 -9 7 -21q0 -26 -6 -103q-3 -10 -10 -11q-7 2 -9 11q-3 39 -24 66q-37 34 -97 37zM293 182l45 403q-78 5 -129 -61q-39 -51 -39 -117q0 -120 75 -193q25 -23 48 -32z" glyph-name="cent" unicode="¢"/>
<glyph d="M404 359h-146l-5 -45q-11 -103 -65 -180q-21 -30 -45 -50l2 -7l253 3q95 1 123 34q14 18 20 51q4 11 11 12q9 -2 9 -16q0 -53 -15 -127q-2 -11 -4 -19q-3 -14 -15 -17t-48 -3q-50 0 -108 3q-77 2 -149 2h-202q-29 2 -30 12q2 13 30 20q70 16 96 122q10 39 17 98l13 108 h-71q-8 0 -16 -1q-4 -1 -6 -1q-5 2 -3 12l10 29q4 7 15 7h77l8 53q24 159 90 228q9 10 19 18q68 58 154 62h19q54 0 90 -12q23 -5 27 -5q10 -3 10 -21q0 -75 -8 -118q-3 -13 -10 -14q-9 2 -10 16q-3 45 -22 72l-2 2q-30 37 -92 37q-93 0 -129 -122q-8 -28 -13 -60l-19 -135 h126q7 0 44 4q9 -1 7 -10l-12 -34q-5 -8 -25 -8z" glyph-name="sterling" unicode="£"/>
<glyph d="M535 524l-80 -72q34 -52 34 -117q0 -75 -35 -123l77 -74l-49 -49l-69 79q-46 -41 -117 -42q-69 0 -112 37l-2 2l-68 -76l-47 49l74 71q-37 51 -37 120q0 70 38 123l-77 72l48 50l70 -77q47 40 115 40h1q70 -1 115 -39l72 76zM410 334q0 74 -49 112q-28 21 -64 21h-1 q-67 0 -97 -63q-16 -33 -16 -73q0 -88 64 -122q24 -13 49 -13q63 0 94 54q20 35 20 84z" glyph-name="currency" unicode="¤"/>
<glyph d="M348 286v-121q0 -72 1 -94q1 -42 39 -51q4 0 7 -1q21 -3 50 -3q13 -1 14 -10q-2 -9 -14 -9q-43 0 -114 2q-28 1 -35 1t-34 -1q-70 -2 -112 -2q-14 1 -15 9q2 9 13 10q30 0 51 3q43 6 47 45v7q1 23 1 94v121h-162q-6 2 -6 8l9 34q3 5 11 6h142q-11 22 -178 312q-2 3 -3 5 q-30 52 -63 71q-23 12 -46 12q-12 2 -13 9q2 10 17 10q9 0 55 -1q45 -2 55 -2q11 0 38 1q43 2 69 2q13 -2 14 -10q-2 -8 -19 -11q-16 -4 -17 -18q1 -11 11 -34q6 -13 68 -126q82 -152 91 -170q64 115 136 262l6 12q13 31 13 54q0 13 -23 19q-1 1 -2 1q-15 6 -16 11 q2 10 14 10q21 0 56 -2q24 -1 33 -1q6 0 41 1q49 2 60 2q15 -1 16 -9q-2 -9 -15 -10q-29 0 -46 -9q-20 -8 -45 -41q-1 -2 -3 -4q-3 -4 -4 -5q-39 -52 -157 -278q-21 -40 -32 -63h161q9 -2 8 -10l-7 -30q-3 -7 -13 -8h-153z" glyph-name="yen" unicode="¥"/>
<glyph d="M281 325h-61v350h61v-350zM281 -175h-61v350h61v-350z" glyph-name="brokenbar" horiz-adv-x="500" unicode="¦"/>
<glyph d="M177 476q-56 58 -56 120q0 86 85 135q61 35 140 35q70 0 124 -14q11 -4 12 -11q0 -3 -1 -13q-2 -42 -2 -89q-1 -26 -11 -27q-9 0 -9 15q-1 30 -23 56q-34 39 -97 40q-74 0 -108 -46q-17 -24 -17 -54q0 -36 34 -65q20 -17 61 -44l36 -23q124 -79 159 -145q21 -39 21 -83 q0 -66 -54 -128q-22 -25 -47 -41q50 -64 50 -119q-1 -95 -89 -155q-53 -35 -150 -35q-93 0 -142 22q-15 6 -17 19v10q0 44 5 111v1v1q1 21 11 22q9 -1 9 -14q0 -20 8 -44q21 -69 110 -82q15 -2 30 -2q75 0 110 51q17 25 17 53q0 51 -32 84q-20 19 -60 47l-51 35 q-98 67 -128 108q-33 44 -33 98q0 79 69 144q19 18 36 27zM216 443q-58 -38 -59 -98q0 -46 42 -81q16 -13 83 -58l36 -24q55 -36 71 -51q46 40 47 97q0 50 -48 89q-2 2 -77 56l-51 37q-26 19 -44 33z" glyph-name="section" horiz-adv-x="596" unicode="§"/>
<glyph d="M568 830q-35 0 -44 35q-1 6 -1 12q0 30 25 42q10 5 21 5q37 0 45 -31q2 -7 2 -13q0 -36 -30 -47q-9 -3 -18 -3zM357 830q-35 0 -44 35q-1 6 -1 12q0 29 25 41q10 5 21 5q35 0 45 -29q2 -7 2 -14q0 -36 -30 -47q-9 -3 -18 -3z" glyph-name="dieresis" horiz-adv-x="927" unicode="¨"/>
<glyph d="M452 -17q-170 0 -282 110q-112 116 -115 281q0 156 106 269q105 111 260 123q16 1 31 1q167 0 280 -109q111 -119 115 -284q0 -155 -106 -268q-104 -110 -257 -122q-17 -1 -32 -1zM119 375q0 -140 95 -241q93 -99 227 -104h11q144 0 240 103q91 99 91 242q0 138 -92 238 q-93 102 -227 107h-12q-147 0 -242 -103q-91 -98 -91 -242zM478 153q-139 0 -209 88q-46 60 -46 143q0 88 56 152q5 6 10 10q64 57 176 57q36 0 82 -8q4 0 9.5 -1.5t12 -2.5t13.5 -2.5t12 -2.5t9 -2l4 -1q2 0 6 1h5q1 -2 1 -19q0 -60 -5 -87q-3 -9 -8 -10q-7 2 -9 15 q-2 27 -19 47q-26 28 -87 35q-13 1 -25 1q-88 0 -125 -72q-19 -38 -19 -87q0 -115 76 -177q44 -35 92 -35q62 0 88 26q13 14 22 49q5 11 10 12q7 -1 7 -11q0 -27 -11 -78q-4 -22 -12 -25q-4 -2 -9 -3q-44 -12 -107 -12z" glyph-name="copyright" horiz-adv-x="902" unicode="©"/>
<glyph d="M254 515h-118q-4 -2 -7 -6l-19 -51q-4 -12 -4 -23q2 -12 17 -13h7q7 -2 8 -7q-2 -6 -9 -7q-8 0 -26 1q-20 1 -30 1q-6 0 -25 -1q-30 -1 -44 -1q-8 1 -9 7q2 6 7 7h7q6 1 8 1q25 3 39 31q2 3 3 6l139 296q9 18 17 19q9 -2 15 -15q3 -6 16 -36q85 -197 113 -254 q22 -44 40 -46q14 -2 21 -2q5 -2 6 -7q-2 -7 -23 -7q-55 0 -104 2q-14 1 -15 5q2 7 7 8t3 9l-33 77q-4 5 -7 6zM149 549h93q2 2 2 3l-40 99q-5 12 -8 13q-5 -1 -8 -10l-42 -102q-2 -3 3 -3z" glyph-name="ordfeminine" horiz-adv-x="425" unicode="ª"/>
<glyph d="M478 127l-38 -43q-7 -6 -10 -7q-4 0 -30 31l-2 2q-94 106 -141 153q-18 18 -18 24q2 7 19 22q9 8 82 74q103 94 111 100q14 11 19 11q10 -1 12 -8q-1 -7 -6 -13q-73 -82 -135 -163q-9 -12 -13 -18q27 -37 136 -139l4 -4q14 -13 14 -15q-1 -3 -4 -7zM281 127l-38 -43 q-7 -6 -10 -7q-4 0 -30 31l-2 2q-94 106 -141 153q-18 18 -18 24q2 7 19 22q9 8 82 74q103 94 111 100q14 11 19 11q10 -1 12 -8q-1 -7 -6 -13q-73 -82 -135 -163q-9 -12 -13 -18q27 -37 136 -139l4 -4q14 -13 14 -15q-1 -3 -4 -7z" glyph-name="guillemotleft" horiz-adv-x="550" unicode="«"/>
<glyph d="M509 128h-64v189h-405v61h469v-250z" glyph-name="logicalnot" horiz-adv-x="549" unicode="¬"/>
<glyph d="M75 315h284q31 -1 32 -14q0 -10 -10 -13.5t-35 -8.5q-149 -22 -247 -45q-7 -2 -11 -3q-10 -3 -27 -10q-13 -6 -17 -6q-11 2 -8 18l15 69q12 12 24 13z" glyph-name="uni00AD" horiz-adv-x="425" unicode="­"/>
<glyph d="M103 591q-56 0 -81 45q-11 20 -11 42q0 54 47 78q21 10 45 10q56 0 81 -45q11 -20 11 -43q0 -52 -45 -76q-22 -11 -47 -11zM104 608q49 0 66 41q6 14 6 30q0 51 -45 66q-14 4 -28 4q-52 0 -68 -43q-5 -13 -5 -27q0 -49 43 -66q15 -5 31 -5zM65 671v22v25q-2 7 -12 7 q-1 2 -2 3q2 3 5 4h4h4q9 -1 13 -1h11q8 1 12 1q43 -2 44 -27q-2 -16 -21 -30l18 -21q13 -15 17 -15q3 0 3 -3q-2 -4 -9 -4q-22 0 -35 13q-2 4 -4 6l-14 19h-12v-9v-10.5t0.5 -6.5t0.5 -3l1 -1q3 -1 10 -1q3 -2 3 -3q-1 -3 -4 -4h-4h-5q-8 1 -11 1q-2 0 -9 -1h-6h-5 q-6 1 -7 4q0 3 3 3q10 1 11 6v26zM87 719v-36q5 -3 14 -3q6 1 9 2q8 6 9 17q-5 19 -23 22q-7 -1 -9 -2z" glyph-name="registered" horiz-adv-x="206" unicode="®"/>
<glyph d="M578 857h-240q-7 0 -8 4v3l8 36q4 9 11 9h240q9 -2 8 -10l-8 -36q-3 -6 -11 -6z" glyph-name="macron" horiz-adv-x="927" unicode="¯"/>
<glyph d="M311 579q0 -70 -59 -108q-33 -22 -72 -22q-72 0 -108 57q-20 32 -20 68q0 69 55 107q34 23 75 23h1q75 0 111 -60q17 -30 17 -65zM255 577q0 48 -36 69q-17 10 -38 10h-1q-47 0 -65 -47q-7 -17 -7 -34q0 -48 39 -69q16 -8 34 -8q47 0 67 43q7 17 7 36z" glyph-name="degree" horiz-adv-x="363" unicode="°"/>
<glyph d="M509 317h-203v-203h-64v203h-202v61h202v204h64v-204h203v-61zM509 0h-469v61h469v-61z" glyph-name="plusminus" horiz-adv-x="549" unicode="±"/>
<glyph d="M309 305h-258q-10 1 -11 8q1 5 12 16q144 119 188 192q33 56 33 111q0 72 -58 95q-17 6 -33 6q-41 -1 -69 -28q-19 -20 -21 -51q-1 -10 -9 -11q-5 2 -7 16l-4 68v1q1 11 7 14q53 25 120 25q113 0 152 -68q13 -23 13 -50q0 -84 -84 -169q-38 -39 -134 -117q-2 -3 1 -5h29 q67 0 115 4q53 5 68 37q4 7 6 14q5 9 10 10q6 -2 6 -9q0 -26 -23 -92q-11 -17 -49 -17z" glyph-name="twosuperior" horiz-adv-x="444" unicode="²"/>
<glyph d="M151 301q-65 0 -88 13q-10 6 -11 18v14q0 44 3 64q2 10 6 11q6 0 8 -8v-2q11 -73 102 -74q64 0 91 47q12 21 13 48q3 70 -70 101q-20 8 -40 11q-21 3 -22 10q0 9 18 12h2q25 3 55 29q33 31 34 68q0 36 -31 58q-21 14 -50 14q-52 0 -76 -35q-9 -14 -9 -29q-1 -12 -6 -13 q-6 0 -8 9v2q-6 36 -6 64q0 10 12 15q1 1 2 1q55 18 113 18q114 0 139 -62q4 -12 4 -23q0 -57 -71 -97q-13 -8 -25 -12v-2q55 -8 93 -46q29 -31 29 -69q0 -72 -70 -118q-59 -37 -141 -37z" glyph-name="threesuperior" horiz-adv-x="423" unicode="³"/>
<glyph d="M600 972q11 -19 29 -60q6 -14 -5 -15h-34q-72 -9 -162 -54q-5 -3 -9 -5q-16 -8 -17 -8q-5 2 -6 6q1 5 9 13q52 49 151 119q7 5 10 7q13 9 20 9q8 -2 14 -12z" glyph-name="acute" horiz-adv-x="927" unicode="´"/>
<glyph d="M70 150v300h95v-200q0 -160 85 -185q19 -5 40 -5q76 0 94 75q6 28 6 65v250h95v-349q1 -55 32 -56q20 1 34 23l15 -7q-9 -55 -54 -71q-14 -5 -27 -5q-73 0 -80 113v2q-18 -83 -87 -107q-23 -8 -48 -8q-75 0 -107 34q-15 16 -28 41q8 -161 45 -255l-110 -55l-15 5 q15 218 15 395z" glyph-name="mu" horiz-adv-x="576" unicode="µ"/>
<glyph d="M384 675q0 35 -13 39q-4 1 -7 1q-47 0 -80 -44q-3 -5 -6 -9q-35 -55 -35 -145q0 -123 50 -177q8 -8 16 -13q6 -4 14 -8q10 -6 10 -12q-1 -7 -12 -10q-10 -2 -21 -2q-125 0 -196 79q-54 59 -54 143q0 90 62 155q4 3 7 6q80 75 231 75q9 0 65 -1q62 -2 74 -2q3 0 31 1 q88 2 119 2q15 -1 16 -9q-1 -6 -8 -8q-16 0 -28 -3q-28 -7 -33 -33q-2 -9 -3 -21q-2 -34 -2 -216v-393q0 -168 2 -196q-1 -7 -7 -14q-19 -18 -52 -24q-4 -1 -7 -1q-5 1 -6 5q0 2 1 8q3 17 4 30q5 56 5 192v606q-2 38 -35 39q-37 -2 -41 -37q-1 -22 -1 -215v-389 q0 -206 3 -238q0 -7 -6 -13q-20 -18 -53 -24q-5 -1 -8 -1q-7 2 -8 6q0 1 1 3q3 16 5 35q6 62 6 232v601z" glyph-name="paragraph" horiz-adv-x="712" unicode="¶"/>
<glyph d="M124 207q-45 0 -57 41q-3 11 -3 20q0 35 29 53q15 8 32 8q42 0 56 -35q5 -11 5 -23q0 -42 -35 -58q-13 -6 -27 -6z" glyph-name="periodcentered" horiz-adv-x="250" unicode="·"/>
<glyph d="M480 0h57l-93 -69q104 -10 117 -67q1 -7 1 -13q0 -46 -50 -77q-51 -30 -134 -30q-16 1 -17 10q2 12 26 13q39 0 67 28q17 18 17 39q0 60 -76 73h-3q-21 3 -22 8q0 3 13 12l3 3z" glyph-name="cedilla" horiz-adv-x="927" unicode="¸"/>
<glyph d="M136 485v110q0 52 -1 64q-3 17 -12 18q-11 0 -83 -32q-7 -3 -11 -3q-5 2 -6 9q1 5 5 8q2 2 79 48q71 43 78 48q21 12 27 12q8 -2 8 -13q0 -3 -1 -18q-2 -70 -2 -141v-110q0 -101 3 -127q3 -24 21 -30l8 -2q19 -5 46 -5q14 -1 15 -8q-2 -10 -18 -10q-32 0 -81 1 q-29 1 -40 1q-9 0 -39 -1q-53 -1 -82 -1q-17 1 -18 9q2 8 14 9q33 0 57 5q25 5 29 25q1 3 1 7q3 27 3 127z" glyph-name="onesuperior" horiz-adv-x="340" unicode="¹"/>
<glyph d="M233 405q-127 0 -179 90q-24 43 -24 91q0 81 61 133q56 48 147 48q130 0 181 -83q23 -39 23 -90q0 -97 -76 -150q-55 -39 -133 -39zM352 579q0 92 -60 135q-31 22 -69 22q-68 0 -92 -68q-11 -30 -11 -71q0 -77 51 -127q35 -34 78 -34q67 0 92 67q11 32 11 76z" glyph-name="ordmasculine" horiz-adv-x="472" unicode="º"/>
<glyph d="M72 444l38 43q7 6 10 7q4 0 30 -31l2 -2q94 -106 141 -153q18 -18 18 -24q-2 -7 -19 -22q-9 -8 -82 -74q-103 -94 -111 -100q-14 -11 -19 -11q-10 1 -12 8q1 7 6 13q73 82 135 163q9 12 13 18q-27 37 -136 139l-4 4q-14 13 -14 15q1 3 4 7zM269 444l38 43q7 6 10 7 q4 0 30 -31l2 -2q94 -106 141 -153q18 -18 18 -24q-2 -7 -19 -22q-9 -8 -82 -74q-103 -94 -111 -100q-14 -11 -19 -11q-10 1 -12 8q1 7 6 13q73 82 135 163q9 12 13 18q-27 37 -136 139l-4 4q-14 13 -14 15q1 3 4 7z" glyph-name="guillemotright" horiz-adv-x="550" unicode="»"/>
<glyph d="M802 170q0 -1 -11 -40q-4 -8 -13 -8h-69q0 -63 1 -76q3 -23 20 -27q4 -1 8 -1q27 -3 29 -3q5 -1 6 -8q-2 -8 -10 -9q-26 0 -91 2h-16h-9q-43 -2 -70 -2q-7 1 -8 9q1 7 8 8q1 0 29 3q25 2 28 21q1 4 1 7q1 27 1 76h-227q-12 1 -14 11q1 8 10 17q24 28 276 301q10 10 18 11 q9 -2 10 -10v-282h54q10 0 33 7q5 -1 6 -7zM636 170v177h-4l-162 -177h166zM714 744q3 -4 -1 -12l-539 -742q-8 -7 -12 -5l-29 21q-5 6 2 17l536 737q7 7 13 4zM310 313q-2 -10 -18 -10q-32 0 -81 1q-29 1 -40 1q-9 0 -39 -1q-53 -1 -82 -1q-17 1 -18 9q2 8 14 9q33 0 57 5 q25 5 29 25q1 3 1 7q3 27 3 127v110q0 52 -1 64q-3 17 -12 18q-11 0 -83 -32q-7 -3 -11 -3q-5 2 -6 9q1 5 5 8q2 2 79 48q71 43 78 48q21 12 27 12q8 -2 8 -13q0 -3 -1 -18q-2 -70 -2 -141v-110q0 -101 3 -127q3 -24 21 -30l8 -2q19 -5 46 -5q14 -1 15 -8z" glyph-name="onequarter" horiz-adv-x="841" unicode="¼"/>
<glyph d="M861 109q0 -26 -23 -92q-11 -17 -49 -17h-258q-10 1 -11 8q0 2 1.5 4.5t3 4l4.5 4.5l3 3q144 119 188 192q33 56 33 111q0 72 -58 95q-17 6 -33 6q-41 -1 -69 -28q-19 -20 -21 -51q-1 -10 -9 -11q-5 2 -7 16l-4 68v1q1 11 7 14q53 25 120 25q113 0 152 -68q13 -23 13 -50 q0 -84 -84 -169q-38 -39 -134 -117q-2 -3 1 -5h29q67 0 115 4q53 5 68 37q4 7 6 14q5 9 10 10q6 -2 6 -9zM714 744q3 -4 -1 -12l-539 -742q-8 -7 -12 -5l-29 21q-5 6 2 17l536 737q7 7 13 4zM310 313q-2 -10 -18 -10q-32 0 -81 1q-29 1 -40 1q-9 0 -39 -1q-53 -1 -82 -1 q-17 1 -18 9q2 8 14 9q33 0 57 5q25 5 29 25q1 3 1 7q3 27 3 127v110q0 52 -1 64q-3 17 -12 18q-11 0 -83 -32q-7 -3 -11 -3q-5 2 -6 9q1 5 5 8q2 2 79 48q71 43 78 48q21 12 27 12q8 -2 8 -13q0 -3 -1 -18q-2 -70 -2 -141v-110q0 -101 3 -127q3 -24 21 -30l8 -2 q19 -5 46 -5q14 -1 15 -8z" glyph-name="onehalf" horiz-adv-x="924" unicode="½"/>
<glyph d="M842 170q0 -1 -11 -40q-4 -8 -13 -8h-69q0 -63 1 -76q3 -23 20 -27q4 -1 8 -1q27 -3 29 -3q5 -1 6 -8q-2 -8 -10 -9q-26 0 -91 2h-16h-9q-43 -2 -70 -2q-7 1 -8 9q1 7 8 8q1 0 29 3q25 2 28 21q1 4 1 7q1 27 1 76h-227q-12 1 -14 11q1 8 10 17q24 28 276 301q10 10 18 11 q9 -2 10 -10v-282h54q10 0 33 7q5 -1 6 -7zM676 170v177h-4l-162 -177h166zM754 744q3 -4 -1 -12l-539 -742q-8 -7 -12 -5l-29 21q-5 6 2 17l536 737q7 7 13 4zM362 456q0 -72 -70 -118q-59 -37 -141 -37q-65 0 -88 13q-10 6 -11 18v14q0 44 3 64q2 10 6 11q6 0 8 -8v-2 q11 -73 102 -74q64 0 91 47q12 21 13 48q3 70 -70 101q-20 8 -40 11q-21 3 -22 10q0 9 18 12h2q25 3 55 29q33 31 34 68q0 36 -31 58q-21 14 -50 14q-52 0 -76 -35q-9 -14 -9 -29q-1 -12 -6 -13q-6 0 -8 9v2q-6 36 -6 64q0 10 12 15q1 1 2 1q55 18 113 18q114 0 139 -62 q4 -12 4 -23q0 -57 -71 -97q-13 -8 -25 -12v-2q55 -8 93 -46q29 -31 29 -69z" glyph-name="threequarters" horiz-adv-x="882" unicode="¾"/>
<glyph d="M282 -17q-149 0 -197 89q-15 30 -15 61q0 90 74 179q15 18 49 55q32 34 47 51q50 60 51 88q-1 29 -16 51q-8 12 -8 18q2 7 9 8q13 -1 51 -31q45 -37 45 -63q-1 -25 -20 -51l-30 -36q-25 -30 -36 -44q-73 -99 -84 -161q-4 -21 -4 -44q0 -81 57 -112q27 -14 62 -14 q64 1 95 39q31 42 35 83q3 19 9 20q7 0 10 -12v-1q4 -19 4 -117q-2 -10 -11 -16q-68 -40 -177 -40zM296 767q42 0 53 -39q2 -9 2 -17q0 -36 -29 -51q-13 -6 -27 -6q-41 0 -53 34q-3 9 -3 19q0 40 34 55q11 5 23 5z" glyph-name="questiondown" horiz-adv-x="532" unicode="¿"/>
<glyph d="M427 258h-223q-7 -2 -9 -8l-54 -143q-15 -37 -15 -61q2 -30 40 -31h15q14 -1 15 -8q-2 -10 -17 -10q-16 0 -54 2q-37 1 -52 1q-3 0 -22 -1q-61 -2 -96 -2q-18 1 -19 10q2 8 12 8q15 0 31 2q45 6 72 59q6 13 13 31l251 628q18 38 28 40q11 0 24 -30q1 -1 1 -2 q11 -24 90 -225q122 -304 158 -390q40 -96 84 -108q3 -1 4 -1q20 -4 42 -4q12 -2 13 -8q0 -9 -35 -10h-11q-109 0 -189 2q-29 2 -30 8q0 7 12 9h2q13 4 10 18q0 3 -1 5l-80 212q-4 6 -10 7zM224 308h184q5 1 5 6l-90 247q-3 8 -5 9q-4 -1 -6 -9l-92 -246q0 -6 4 -7zM424 837 q-1 -6 -11 -7q-19 0 -197 80l-6 3q-32 14 -33 25q2 6 13 9q40 13 67 25q16 7 19 7t10 -13q4 -5 6 -9q20 -27 78 -76q18 -15 33 -26q3 -3 10 -7q10 -7 11 -11z" glyph-name="Agrave" horiz-adv-x="700" unicode="À"/>
<glyph d="M427 258h-223q-7 -2 -9 -8l-54 -143q-15 -37 -15 -61q2 -30 40 -31h15q14 -1 15 -8q-2 -10 -17 -10q-16 0 -54 2q-37 1 -52 1q-3 0 -22 -1q-61 -2 -96 -2q-18 1 -19 10q2 8 12 8q15 0 31 2q45 6 72 59q6 13 13 31l251 628q18 38 28 40q11 0 24 -30q1 -1 1 -2 q11 -24 90 -225q122 -304 158 -390q40 -96 84 -108q3 -1 4 -1q20 -4 42 -4q12 -2 13 -8q0 -9 -35 -10h-11q-109 0 -189 2q-29 2 -30 8q0 7 12 9h2q13 4 10 18q0 3 -1 5l-80 212q-4 6 -10 7zM224 308h184q5 1 5 6l-90 247q-3 8 -5 9q-4 -1 -6 -9l-92 -246q0 -6 4 -7zM487 972 q11 -19 29 -60q6 -14 -5 -15h-34q-72 -9 -162 -54q-5 -3 -9 -5q-16 -8 -17 -8q-5 2 -6 6q1 5 9 13q52 49 151 119q7 5 10 7q13 9 20 9q8 -2 14 -12z" glyph-name="Aacute" horiz-adv-x="700" unicode="Á"/>
<glyph d="M427 258h-223q-7 -2 -9 -8l-54 -143q-15 -37 -15 -61q2 -30 40 -31h15q14 -1 15 -8q-2 -10 -17 -10q-16 0 -54 2q-37 1 -52 1q-3 0 -22 -1q-61 -2 -96 -2q-18 1 -19 10q2 8 12 8q15 0 31 2q45 6 72 59q6 13 13 31l251 628q18 38 28 40q11 0 24 -30q1 -1 1 -2 q11 -24 90 -225q122 -304 158 -390q40 -96 84 -108q3 -1 4 -1q20 -4 42 -4q12 -2 13 -8q0 -9 -35 -10h-11q-109 0 -189 2q-29 2 -30 8q0 7 12 9h2q13 4 10 18q0 3 -1 5l-80 212q-4 6 -10 7zM224 308h184q5 1 5 6l-90 247q-3 8 -5 9q-4 -1 -6 -9l-92 -246q0 -6 4 -7zM356 981 q3 0 17 -10l1 -1q19 -16 119 -90q13 -10 14 -14q-1 -5 -5 -10l-29 -29q-8 -6 -13 -7q-6 2 -15 11q-28 29 -86 72q-1 2 -2 2q-8 6 -13 6q-6 -1 -15 -5q-60 -35 -106 -74q-14 -12 -20 -12q-8 2 -9 10q1 5 9 15l129 121l3 3q14 12 21 12z" glyph-name="Acircumflex" horiz-adv-x="700" unicode="Â"/>
<glyph d="M427 258h-223q-7 -2 -9 -8l-54 -143q-15 -37 -15 -61q2 -30 40 -31h15q14 -1 15 -8q-2 -10 -17 -10q-16 0 -54 2q-37 1 -52 1q-3 0 -22 -1q-61 -2 -96 -2q-18 1 -19 10q2 8 12 8q15 0 31 2q45 6 72 59q6 13 13 31l251 628q18 38 28 40q11 0 24 -30q1 -1 1 -2 q11 -24 90 -225q122 -304 158 -390q40 -96 84 -108q3 -1 4 -1q20 -4 42 -4q12 -2 13 -8q0 -9 -35 -10h-11q-109 0 -189 2q-29 2 -30 8q0 7 12 9h2q13 4 10 18q0 3 -1 5l-80 212q-4 6 -10 7zM224 308h184q5 1 5 6l-90 247q-3 8 -5 9q-4 -1 -6 -9l-92 -246q0 -6 4 -7zM421 830 q-37 0 -87 26q-2 2 -3 2q-40 22 -64 22q-37 0 -68 -36q-11 -10 -16 -10q-6 2 -7 7q0 8 8 19q37 59 82 74q12 3 22 3q31 0 75 -25q3 -2 5 -3q40 -22 72 -22q37 0 61 30q10 12 16 13q7 -2 8 -8q-1 -6 -6 -17q-19 -35 -53 -59q-24 -16 -45 -16z" glyph-name="Atilde" horiz-adv-x="700" unicode="Ã"/>
<glyph d="M427 258h-223q-7 -2 -9 -8l-54 -143q-15 -37 -15 -61q2 -30 40 -31h15q14 -1 15 -8q-2 -10 -17 -10q-16 0 -54 2q-37 1 -52 1q-3 0 -22 -1q-61 -2 -96 -2q-18 1 -19 10q2 8 12 8q15 0 31 2q45 6 72 59q6 13 13 31l251 628q18 38 28 40q11 0 24 -30q1 -1 1 -2 q11 -24 90 -225q122 -304 158 -390q40 -96 84 -108q3 -1 4 -1q20 -4 42 -4q12 -2 13 -8q0 -9 -35 -10h-11q-109 0 -189 2q-29 2 -30 8q0 7 12 9h2q13 4 10 18q0 3 -1 5l-80 212q-4 6 -10 7zM224 308h184q5 1 5 6l-90 247q-3 8 -5 9q-4 -1 -6 -9l-92 -246q0 -6 4 -7zM455 830 q-35 0 -44 35q-1 6 -1 12q0 30 25 42q10 5 21 5q37 0 45 -31q2 -7 2 -13q0 -36 -30 -47q-9 -3 -18 -3zM244 830q-35 0 -44 35q-1 6 -1 12q0 29 25 41q10 5 21 5q35 0 45 -29q2 -7 2 -14q0 -36 -30 -47q-9 -3 -18 -3z" glyph-name="Adieresis" horiz-adv-x="700" unicode="Ä"/>
<glyph d="M427 258h-223q-7 -2 -9 -8l-54 -143q-15 -37 -15 -61q2 -30 40 -31h15q14 -1 15 -8q-2 -10 -17 -10q-16 0 -54 2q-37 1 -52 1q-3 0 -22 -1q-61 -2 -96 -2q-18 1 -19 10q2 8 12 8q15 0 31 2q45 6 72 59q6 13 13 31l251 628q18 38 28 40q11 0 24 -30q1 -1 1 -2 q11 -24 90 -225q122 -304 158 -390q40 -96 84 -108q3 -1 4 -1q20 -4 42 -4q12 -2 13 -8q0 -9 -35 -10h-11q-109 0 -189 2q-29 2 -30 8q0 7 12 9h2q13 4 10 18q0 3 -1 5l-80 212q-4 6 -10 7zM224 308h184q5 1 5 6l-90 247q-3 8 -5 9q-4 -1 -6 -9l-92 -246q0 -6 4 -7zM324 820 q-65 0 -84 38q-5 11 -5 22q0 43 54 70q37 18 83 18q71 0 90 -38q5 -10 5 -20q1 -48 -65 -75q-38 -15 -78 -15zM296 894q0 -33 31 -45q10 -4 19 -4q37 0 54 30q6 11 6 22q0 35 -35 44q-9 2 -18 2q-34 0 -50 -25q-7 -11 -7 -24z" glyph-name="Aring" horiz-adv-x="700" unicode="Å"/>
<glyph d="M466 287v48q-2 7 -9 8h-161q-12 -1 -17 -7q-6 -9 -63 -108q-38 -66 -45 -78q-44 -74 -44 -98q1 -20 17 -28q20 -9 51 -9q14 -1 15 -8q-2 -9 -19 -10q-41 0 -108 2q-28 1 -35 1t-34 -1q-61 -2 -93 -2q-13 1 -14 10q2 8 14 8q24 0 43 9q46 20 89 81q13 18 17 23 q33 43 367 567q17 28 22 44q5 13 13 14h6q7 -1 11 -1q19 -2 36 -2q230 0 250 1q33 4 43 6q2 0 6 2q7 2 10 2q6 -2 6 -9q0 -2 -1 -9q-5 -26 -7 -56q0 -4 -1 -21q-3 -37 -4 -45q-4 -10 -10 -11q-9 2 -9 14q0 22 -6 36q-9 23 -36 30q-13 4 -31 6q-33 4 -142 4q-6 -2 -7 -10 v-285q2 -10 7 -11q136 0 160 2q37 4 48 15q12 12 16 13q6 -2 7 -9q0 -2 -1 -10q-4 -30 -7 -63q0 -9 -2 -34q-2 -29 -2 -33q-1 -18 -9 -19q-8 2 -9 9q-4 34 -4 36q-10 33 -56 39q-37 4 -142 4q-6 -2 -6 -10v-47q0 -25 -1 -129v-26q2 -54 24 -69q24 -15 96 -15q68 0 94 12 q34 16 44 68q1 3 1 6q4 14 11 15q8 -2 8 -18q0 -49 -12 -107q-1 -2 -1 -4q-6 -21 -21 -24q-9 -2 -33 -2q-46 0 -173 3q-65 3 -104 3h-19q-22 -1 -34 -1q-44 -2 -63 -2q-18 1 -19 9q2 8 13 9q17 0 35 4q21 4 28 49q1 3 1 6q5 43 5 213zM466 398v242h-5q-8 -14 -54 -90 q-83 -138 -89 -150q-3 -9 5 -10h134q8 2 9 8z" glyph-name="AE" horiz-adv-x="927" unicode="Æ"/>
<glyph d="M469 -15l-72 -54q104 -10 117 -67q1 -7 1 -13q0 -46 -50 -77q-51 -30 -134 -30q-16 1 -17 10q2 12 26 13q39 0 67 28q17 18 17 39q0 60 -76 73h-3q-21 3 -22 8q0 3 13 12l3 3l80 60q-184 25 -282 145q-82 101 -82 252q0 129 75 228q19 25 42 46q117 106 316 106 q69 0 145 -10q18 -2 51 -9q34 -6 49 -8q14 -2 15 -12q0 -3 -1 -13q-3 -22 -4 -42q-1 -16 -1 -57q-1 -41 -2 -51q-3 -22 -12 -23q-10 2 -10 22q-3 53 -39 92q-44 47 -150 59q-27 3 -53 3q-120 -1 -188 -62q-92 -85 -92 -259q0 -175 120 -279q92 -74 195 -77q111 0 157 32 q14 11 26 24q25 29 34 66q6 19 13 20q9 -2 9 -15q0 -32 -17 -111q-3 -14 -5 -22q-6 -19 -20 -26q-3 -2 -6 -3q-58 -23 -180 -23q-22 0 -53 2z" glyph-name="Ccedilla" horiz-adv-x="800" unicode="Ç"/>
<glyph d="M164 287v176q0 180 -2 212q-2 40 -25 51q-8 4 -18 6q-13 3 -39 3q-16 1 -17 9q2 9 22 9q14 0 42 -1h39q52 -2 63 -2q230 0 250 1q33 4 43 6q2 0 6 2q7 2 10 2q6 -2 6 -9q0 -2 -1 -9q-5 -26 -7 -56q0 -4 -1 -21q-3 -37 -4 -45q-4 -10 -10 -11q-9 2 -9 14q0 22 -6 36 q-9 23 -36 30q-13 4 -31 6q-33 4 -142 4q-6 -2 -7 -10v-253q2 -10 7 -11q136 0 160 2q37 4 48 15q12 12 16 13q6 -2 7 -8q0 -2 -1 -10q-4 -30 -7 -63q0 -9 -2 -34q-2 -29 -2 -33q-1 -18 -9 -19q-8 2 -9 9q-4 34 -4 36q-10 33 -56 39q-28 3 -142 3q-6 -2 -6 -10v-79v-155 q2 -54 24 -69q24 -15 96 -15q68 0 94 12q34 16 44 68q1 3 1 6q4 14 11 15q8 -2 8 -18q0 -49 -12 -107q-1 -2 -1 -4q-6 -21 -21 -24q-9 -2 -33 -2q-46 0 -173 3q-65 3 -104 3q-33 0 -57 -1q-12 0 -37 -1q-23 -1 -32 -1q-19 1 -20 10q2 8 16 8q18 0 36 4q21 4 28 49q1 3 1 6 q5 43 5 213zM409 837q-1 -6 -11 -7q-19 0 -197 80l-6 3q-32 14 -33 25q2 6 13 9q40 13 67 25q16 7 19 7t10 -13q4 -5 6 -9q20 -27 78 -76q18 -15 33 -26q3 -3 10 -7q10 -7 11 -11z" glyph-name="Egrave" horiz-adv-x="632" unicode="È"/>
<glyph d="M164 287v176q0 180 -2 212q-2 40 -25 51q-8 4 -18 6q-13 3 -39 3q-16 1 -17 9q2 9 22 9q14 0 42 -1h39q52 -2 63 -2q230 0 250 1q33 4 43 6q2 0 6 2q7 2 10 2q6 -2 6 -9q0 -2 -1 -9q-5 -26 -7 -56q0 -4 -1 -21q-3 -37 -4 -45q-4 -10 -10 -11q-9 2 -9 14q0 22 -6 36 q-9 23 -36 30q-13 4 -31 6q-33 4 -142 4q-6 -2 -7 -10v-253q2 -10 7 -11q136 0 160 2q37 4 48 15q12 12 16 13q6 -2 7 -8q0 -2 -1 -10q-4 -30 -7 -63q0 -9 -2 -34q-2 -29 -2 -33q-1 -18 -9 -19q-8 2 -9 9q-4 34 -4 36q-10 33 -56 39q-28 3 -142 3q-6 -2 -6 -10v-79v-155 q2 -54 24 -69q24 -15 96 -15q68 0 94 12q34 16 44 68q1 3 1 6q4 14 11 15q8 -2 8 -18q0 -49 -12 -107q-1 -2 -1 -4q-6 -21 -21 -24q-9 -2 -33 -2q-46 0 -173 3q-65 3 -104 3q-33 0 -57 -1q-12 0 -37 -1q-23 -1 -32 -1q-19 1 -20 10q2 8 16 8q18 0 36 4q21 4 28 49q1 3 1 6 q5 43 5 213zM462 972q11 -19 29 -60q6 -14 -5 -15h-34q-72 -9 -162 -54q-5 -3 -9 -5q-16 -8 -17 -8q-5 2 -6 6q1 5 9 13q52 49 151 119q7 5 10 7q13 9 20 9q8 -2 14 -12z" glyph-name="Eacute" horiz-adv-x="632" unicode="É"/>
<glyph d="M164 287v176q0 180 -2 212q-2 40 -25 51q-8 4 -18 6q-13 3 -39 3q-16 1 -17 9q2 9 22 9q14 0 42 -1h39q52 -2 63 -2q230 0 250 1q33 4 43 6q2 0 6 2q7 2 10 2q6 -2 6 -9q0 -2 -1 -9q-5 -26 -7 -56q0 -4 -1 -21q-3 -37 -4 -45q-4 -10 -10 -11q-9 2 -9 14q0 22 -6 36 q-9 23 -36 30q-13 4 -31 6q-33 4 -142 4q-6 -2 -7 -10v-253q2 -10 7 -11q136 0 160 2q37 4 48 15q12 12 16 13q6 -2 7 -8q0 -2 -1 -10q-4 -30 -7 -63q0 -9 -2 -34q-2 -29 -2 -33q-1 -18 -9 -19q-8 2 -9 9q-4 34 -4 36q-10 33 -56 39q-28 3 -142 3q-6 -2 -6 -10v-79v-155 q2 -54 24 -69q24 -15 96 -15q68 0 94 12q34 16 44 68q1 3 1 6q4 14 11 15q8 -2 8 -18q0 -49 -12 -107q-1 -2 -1 -4q-6 -21 -21 -24q-9 -2 -33 -2q-46 0 -173 3q-65 3 -104 3q-33 0 -57 -1q-12 0 -37 -1q-23 -1 -32 -1q-19 1 -20 10q2 8 16 8q18 0 36 4q21 4 28 49q1 3 1 6 q5 43 5 213zM341 981q3 0 17 -10l1 -1q19 -16 119 -90q13 -10 14 -14q-1 -5 -5 -10l-29 -29q-8 -6 -13 -7q-6 2 -15 11q-28 29 -86 72q-1 2 -2 2q-8 6 -13 6q-6 -1 -15 -5q-60 -35 -106 -74q-14 -12 -20 -12q-8 2 -9 10q1 5 9 15l129 121l3 3q14 12 21 12z" glyph-name="Ecircumflex" horiz-adv-x="632" unicode="Ê"/>
<glyph d="M164 287v176q0 180 -2 212q-2 40 -25 51q-8 4 -18 6q-13 3 -39 3q-16 1 -17 9q2 9 22 9q14 0 42 -1h39q52 -2 63 -2q230 0 250 1q33 4 43 6q2 0 6 2q7 2 10 2q6 -2 6 -9q0 -2 -1 -9q-5 -26 -7 -56q0 -4 -1 -21q-3 -37 -4 -45q-4 -10 -10 -11q-9 2 -9 14q0 22 -6 36 q-9 23 -36 30q-13 4 -31 6q-33 4 -142 4q-6 -2 -7 -10v-253q2 -10 7 -11q136 0 160 2q37 4 48 15q12 12 16 13q6 -2 7 -8q0 -2 -1 -10q-4 -30 -7 -63q0 -9 -2 -34q-2 -29 -2 -33q-1 -18 -9 -19q-8 2 -9 9q-4 34 -4 36q-10 33 -56 39q-28 3 -142 3q-6 -2 -6 -10v-79v-155 q2 -54 24 -69q24 -15 96 -15q68 0 94 12q34 16 44 68q1 3 1 6q4 14 11 15q8 -2 8 -18q0 -49 -12 -107q-1 -2 -1 -4q-6 -21 -21 -24q-9 -2 -33 -2q-46 0 -173 3q-65 3 -104 3q-33 0 -57 -1q-12 0 -37 -1q-23 -1 -32 -1q-19 1 -20 10q2 8 16 8q18 0 36 4q21 4 28 49q1 3 1 6 q5 43 5 213zM440 830q-35 0 -44 35q-1 6 -1 12q0 30 25 42q10 5 21 5q37 0 45 -31q2 -7 2 -13q0 -36 -30 -47q-9 -3 -18 -3zM229 830q-35 0 -44 35q-1 6 -1 12q0 29 25 41q10 5 21 5q35 0 45 -29q2 -7 2 -14q0 -36 -30 -47q-9 -3 -18 -3z" glyph-name="Edieresis" horiz-adv-x="632" unicode="Ë"/>
<glyph d="M164 287v176q0 180 -2 212q-4 48 -34 56q-15 4 -36 4q-15 1 -16 10q2 8 24 8q20 0 73 -2q43 -1 57 -1q11 0 49 1q52 2 73 2q20 -1 21 -8q-2 -10 -16 -10q-13 0 -30 -3q-30 -6 -35 -40q-1 -8 -2 -17q-2 -34 -2 -212v-176q0 -176 4 -219q4 -39 30 -47l10 -2q28 -4 51 -4 q15 -1 16 -8q-2 -9 -19 -10q-40 0 -110 2q-35 1 -46 1q-10 0 -47 -1q-56 -2 -79 -2q-19 1 -20 10q2 8 16 8q18 0 36 4q23 5 28 45q1 3 1 5q5 43 5 218zM300 837q-1 -6 -11 -7q-19 0 -197 80l-6 3q-32 14 -33 25q2 6 13 9q40 13 67 25q16 7 19 7t10 -13q4 -5 6 -9 q20 -27 78 -76q18 -15 33 -26q3 -3 10 -7q10 -7 11 -11z" glyph-name="Igrave" horiz-adv-x="452" unicode="Ì"/>
<glyph d="M164 287v176q0 180 -2 212q-4 48 -34 56q-15 4 -36 4q-15 1 -16 10q2 8 24 8q20 0 73 -2q43 -1 57 -1q11 0 49 1q52 2 73 2q20 -1 21 -8q-2 -10 -16 -10q-13 0 -30 -3q-30 -6 -35 -40q-1 -8 -2 -17q-2 -34 -2 -212v-176q0 -176 4 -219q4 -39 30 -47l10 -2q28 -4 51 -4 q15 -1 16 -8q-2 -9 -19 -10q-40 0 -110 2q-35 1 -46 1q-10 0 -47 -1q-56 -2 -79 -2q-19 1 -20 10q2 8 16 8q18 0 36 4q23 5 28 45q1 3 1 5q5 43 5 218zM363 972q11 -19 29 -60q6 -14 -5 -15h-34q-72 -9 -162 -54q-5 -3 -9 -5q-16 -8 -17 -8q-5 2 -6 6q1 5 9 13 q52 49 151 119q7 5 10 7q13 9 20 9q8 -2 14 -12z" glyph-name="Iacute" horiz-adv-x="452" unicode="Í"/>
<glyph d="M164 287v176q0 180 -2 212q-4 48 -34 56q-15 4 -36 4q-15 1 -16 10q2 8 24 8q20 0 73 -2q43 -1 57 -1q11 0 49 1q52 2 73 2q20 -1 21 -8q-2 -10 -16 -10q-13 0 -30 -3q-30 -6 -35 -40q-1 -8 -2 -17q-2 -34 -2 -212v-176q0 -176 4 -219q4 -39 30 -47l10 -2q28 -4 51 -4 q15 -1 16 -8q-2 -9 -19 -10q-40 0 -110 2q-35 1 -46 1q-10 0 -47 -1q-56 -2 -79 -2q-19 1 -20 10q2 8 16 8q18 0 36 4q23 5 28 45q1 3 1 5q5 43 5 218zM232 981q3 0 17 -10l1 -1q19 -16 119 -90q13 -10 14 -14q-1 -5 -5 -10l-29 -29q-8 -6 -13 -7q-6 2 -15 11q-28 29 -86 72 q-1 2 -2 2q-8 6 -13 6q-6 -1 -15 -5q-60 -35 -106 -74q-14 -12 -20 -12q-8 2 -9 10q1 5 9 15l129 121l3 3q14 12 21 12z" glyph-name="Icircumflex" horiz-adv-x="452" unicode="Î"/>
<glyph d="M164 287v176q0 180 -2 212q-4 48 -34 56q-15 4 -36 4q-15 1 -16 10q2 8 24 8q20 0 73 -2q43 -1 57 -1q11 0 49 1q52 2 73 2q20 -1 21 -8q-2 -10 -16 -10q-13 0 -30 -3q-30 -6 -35 -40q-1 -8 -2 -17q-2 -34 -2 -212v-176q0 -176 4 -219q4 -39 30 -47l10 -2q28 -4 51 -4 q15 -1 16 -8q-2 -9 -19 -10q-40 0 -110 2q-35 1 -46 1q-10 0 -47 -1q-56 -2 -79 -2q-19 1 -20 10q2 8 16 8q18 0 36 4q23 5 28 45q1 3 1 5q5 43 5 218zM331 830q-35 0 -44 35q-1 6 -1 12q0 30 25 42q10 5 21 5q37 0 45 -31q2 -7 2 -13q0 -36 -30 -47q-9 -3 -18 -3zM120 830 q-35 0 -44 35q-1 6 -1 12q0 29 25 41q10 5 21 5q35 0 45 -29q2 -7 2 -14q0 -36 -30 -47q-9 -3 -18 -3z" glyph-name="Idieresis" horiz-adv-x="452" unicode="Ï"/>
<glyph d="M164 353h-101q-6 2 -5 12l5 30q3 9 13 10h88v58q0 180 -2 212q-2 40 -25 51q-8 4 -18 6q-13 3 -39 3q-16 1 -17 9q2 9 22 9q31 0 93 -2q39 -1 51 -1q13 0 53 1q66 2 101 2q162 0 245 -24q96 -27 156 -90q97 -102 97 -254q0 -156 -94 -266q-8 -8 -14 -15q-57 -58 -164 -92 q-77 -24 -156 -24q-39 0 -128 6q-88 6 -101 6q-33 0 -57 -1q-12 0 -37 -1q-23 -1 -32 -1q-19 1 -20 10q2 8 16 8q18 0 36 4q21 4 28 49q1 3 1 6q5 43 5 213v66zM289 406h200q8 -2 7 -12l-6 -33q-2 -9 -12 -9h-189v-46q0 -115 2 -154q3 -64 11 -76q26 -38 120 -41h11 q151 1 234 75q80 73 80 246q0 149 -87 241l-9 9q-105 100 -284 100q-50 0 -65 -7q-12 -7 -12 -20q-1 -35 -1 -200v-73z" glyph-name="Eth" horiz-adv-x="936" unicode="Ð"/>
<glyph d="M209 553l11 -420q3 -99 35 -111q21 -7 52 -7q16 -1 17 -8q-2 -10 -23 -10q-42 0 -96 2q-21 1 -28 1q-3 0 -17 -1q-55 -2 -91 -2q-21 1 -22 10q2 8 16 8q28 0 45 5q23 7 28 52q2 23 3 72l9 592q1 33 13 34q9 0 29 -23l8 -8q146 -158 310 -321q39 -39 148 -153 q64 -68 72 -75h5l-10 449q-1 68 -23 84q-5 4 -11 6q-16 6 -53 6q-15 1 -16 9q2 9 26 9q32 0 86 -2q27 -1 35 -1q4 0 18 1q47 2 80 2q22 -1 23 -9q0 -9 -18 -9q-19 0 -30 -3q-29 -8 -34 -47q-3 -15 -3 -38l-11 -631q-1 -30 -13 -31q-13 1 -34 22q-6 6 -258 257q-20 21 -37 37 q-68 67 -233 247q-4 3 -5 5h-3zM554 830q-37 0 -87 26q-2 2 -3 2q-40 22 -64 22q-37 0 -68 -36q-11 -10 -16 -10q-6 2 -7 7q0 8 8 19q37 59 82 74q12 3 22 3q31 0 75 -25q3 -2 5 -3q40 -22 72 -22q37 0 61 30q10 12 16 13q7 -2 8 -8q-1 -6 -6 -17q-19 -35 -53 -59 q-24 -16 -45 -16z" glyph-name="Ntilde" horiz-adv-x="947" unicode="Ñ"/>
<glyph d="M458 -17q-215 0 -325 150q-78 106 -78 242q0 139 82 246q115 145 331 146q212 0 321 -128q83 -98 83 -246q0 -175 -111 -290q-116 -120 -303 -120zM500 33q108 0 171 85q61 84 61 238q0 184 -104 286q-79 77 -189 77q-144 0 -207 -119q-39 -76 -39 -194q0 -174 94 -280 q84 -93 213 -93zM537 837q-1 -6 -11 -7q-19 0 -197 80l-6 3q-32 14 -33 25q2 6 13 9q40 13 67 25q16 7 19 7t10 -13q4 -5 6 -9q20 -27 78 -76q18 -15 33 -26q3 -3 10 -7q10 -7 11 -11z" glyph-name="Ograve" horiz-adv-x="927" unicode="Ò"/>
<glyph d="M458 -17q-215 0 -325 150q-78 106 -78 242q0 139 82 246q115 145 331 146q212 0 321 -128q83 -98 83 -246q0 -175 -111 -290q-116 -120 -303 -120zM500 33q108 0 171 85q61 84 61 238q0 184 -104 286q-79 77 -189 77q-144 0 -207 -119q-39 -76 -39 -194q0 -174 94 -280 q84 -93 213 -93zM600 972q11 -19 29 -60q6 -14 -5 -15h-34q-72 -9 -162 -54q-5 -3 -9 -5q-16 -8 -17 -8q-5 2 -6 6q1 5 9 13q52 49 151 119q7 5 10 7q13 9 20 9q8 -2 14 -12z" glyph-name="Oacute" horiz-adv-x="927" unicode="Ó"/>
<glyph d="M458 -17q-215 0 -325 150q-78 106 -78 242q0 139 82 246q115 145 331 146q212 0 321 -128q83 -98 83 -246q0 -175 -111 -290q-116 -120 -303 -120zM500 33q108 0 171 85q61 84 61 238q0 184 -104 286q-79 77 -189 77q-144 0 -207 -119q-39 -76 -39 -194q0 -174 94 -280 q84 -93 213 -93zM469 981q3 0 17 -10l1 -1q19 -16 119 -90q13 -10 14 -14q-1 -5 -5 -10l-29 -29q-8 -6 -13 -7q-6 2 -15 11q-28 29 -86 72q-1 2 -2 2q-8 6 -13 6q-6 -1 -15 -5q-60 -35 -106 -74q-14 -12 -20 -12q-8 2 -9 10q1 5 9 15l129 121l3 3q14 12 21 12z" glyph-name="Ocircumflex" horiz-adv-x="927" unicode="Ô"/>
<glyph d="M458 -17q-215 0 -325 150q-78 106 -78 242q0 139 82 246q115 145 331 146q212 0 321 -128q83 -98 83 -246q0 -175 -111 -290q-116 -120 -303 -120zM500 33q108 0 171 85q61 84 61 238q0 184 -104 286q-79 77 -189 77q-144 0 -207 -119q-39 -76 -39 -194q0 -174 94 -280 q84 -93 213 -93zM534 830q-37 0 -87 26q-2 2 -3 2q-40 22 -64 22q-37 0 -68 -36q-11 -10 -16 -10q-6 2 -7 7q0 8 8 19q37 59 82 74q12 3 22 3q31 0 75 -25q3 -2 5 -3q40 -22 72 -22q37 0 61 30q10 12 16 13q7 -2 8 -8q-1 -6 -6 -17q-19 -35 -53 -59q-24 -16 -45 -16z" glyph-name="Otilde" horiz-adv-x="927" unicode="Õ"/>
<glyph d="M458 -17q-215 0 -325 150q-78 106 -78 242q0 139 82 246q115 145 331 146q212 0 321 -128q83 -98 83 -246q0 -175 -111 -290q-116 -120 -303 -120zM500 33q108 0 171 85q61 84 61 238q0 184 -104 286q-79 77 -189 77q-144 0 -207 -119q-39 -76 -39 -194q0 -174 94 -280 q84 -93 213 -93zM568 830q-35 0 -44 35q-1 6 -1 12q0 30 25 42q10 5 21 5q37 0 45 -31q2 -7 2 -13q0 -36 -30 -47q-9 -3 -18 -3zM357 830q-35 0 -44 35q-1 6 -1 12q0 29 25 41q10 5 21 5q35 0 45 -29q2 -7 2 -14q0 -36 -30 -47q-9 -3 -18 -3z" glyph-name="Odieresis" horiz-adv-x="927" unicode="Ö"/>
<glyph d="M496 67l-41 -41l-180 184l-180 -184l-41 41l180 185l-180 185l41 41l180 -185l180 185l41 -41l-180 -185z" glyph-name="multiply" horiz-adv-x="549" unicode="×"/>
<glyph d="M204 61l-84 -88q-6 -3 -10 0l-28 25q-5 6 -2 10l84 89q-97 98 -108 247q-1 16 -1 31q0 139 82 246q115 145 331 146q158 -1 260 -73l75 79q6 4 14 -2l28 -24q4 -6 0 -11l-74 -78q101 -100 101 -265q0 -175 -111 -290q-116 -120 -303 -120q-152 1 -254 78zM684 566 l-407 -428q87 -105 224 -106q108 0 171 85q61 84 61 238q0 118 -49 211zM246 184l407 430q-88 100 -213 104q-144 0 -207 -119q-39 -76 -39 -194q0 -128 52 -221z" glyph-name="Oslash" horiz-adv-x="927" unicode="Ø"/>
<glyph d="M121 317v146q0 180 -2 212q-2 40 -25 51q-8 4 -18 6q-13 3 -39 3q-16 1 -17 9q2 9 22 9q30 0 93 -2q40 -1 53 -1q11 0 50 1q53 2 73 2q21 -1 22 -9q-2 -9 -16 -9q-12 0 -29 -3q-30 -6 -35 -40q-1 -8 -2 -17q-2 -34 -2 -212v-140q0 -162 57 -226q10 -11 21 -20 q51 -41 125 -41q84 1 138 54q51 51 57 178q1 27 1 70v125q0 180 -2 212q-2 40 -25 51q-8 4 -18 6q-12 3 -36 3q-16 1 -17 9q2 9 21 9q14 0 31 -0.5t31.5 -0.5t26.5 -0.5t19 -1.5h7q4 0 29 1q60 2 85 2q20 -1 21 -9q-2 -9 -18 -9q-12 0 -29 -3q-30 -6 -35 -40q-1 -8 -2 -17 q-2 -34 -2 -212v-107q0 -171 -53 -253q-18 -28 -42 -48q-85 -72 -208 -72q-146 1 -222 69q-89 82 -89 265zM504 837q-1 -6 -11 -7q-19 0 -197 80l-6 3q-32 14 -33 25q2 6 13 9q40 13 67 25q16 7 19 7t10 -13q4 -5 6 -9q20 -27 78 -76q18 -15 33 -26q3 -3 10 -7q10 -7 11 -11 z" glyph-name="Ugrave" horiz-adv-x="852" unicode="Ù"/>
<glyph d="M121 317v146q0 180 -2 212q-2 40 -25 51q-8 4 -18 6q-13 3 -39 3q-16 1 -17 9q2 9 22 9q30 0 93 -2q40 -1 53 -1q11 0 50 1q53 2 73 2q21 -1 22 -9q-2 -9 -16 -9q-12 0 -29 -3q-30 -6 -35 -40q-1 -8 -2 -17q-2 -34 -2 -212v-140q0 -162 57 -226q10 -11 21 -20 q51 -41 125 -41q84 1 138 54q51 51 57 178q1 27 1 70v125q0 180 -2 212q-2 40 -25 51q-8 4 -18 6q-12 3 -36 3q-16 1 -17 9q2 9 21 9q14 0 31 -0.5t31.5 -0.5t26.5 -0.5t19 -1.5h7q4 0 29 1q60 2 85 2q20 -1 21 -9q-2 -9 -18 -9q-12 0 -29 -3q-30 -6 -35 -40q-1 -8 -2 -17 q-2 -34 -2 -212v-107q0 -171 -53 -253q-18 -28 -42 -48q-85 -72 -208 -72q-146 1 -222 69q-89 82 -89 265zM582 972q11 -19 29 -60q6 -14 -5 -15h-34q-72 -9 -162 -54q-5 -3 -9 -5q-16 -8 -17 -8q-5 2 -6 6q1 5 9 13q52 49 151 119q7 5 10 7q13 9 20 9q8 -2 14 -12z" glyph-name="Uacute" horiz-adv-x="852" unicode="Ú"/>
<glyph d="M121 317v146q0 180 -2 212q-2 40 -25 51q-8 4 -18 6q-13 3 -39 3q-16 1 -17 9q2 9 22 9q30 0 93 -2q40 -1 53 -1q11 0 50 1q53 2 73 2q21 -1 22 -9q-2 -9 -16 -9q-12 0 -29 -3q-30 -6 -35 -40q-1 -8 -2 -17q-2 -34 -2 -212v-140q0 -162 57 -226q10 -11 21 -20 q51 -41 125 -41q84 1 138 54q51 51 57 178q1 27 1 70v125q0 180 -2 212q-2 40 -25 51q-8 4 -18 6q-12 3 -36 3q-16 1 -17 9q2 9 21 9q14 0 31 -0.5t31.5 -0.5t26.5 -0.5t19 -1.5h7q4 0 29 1q60 2 85 2q20 -1 21 -9q-2 -9 -18 -9q-12 0 -29 -3q-30 -6 -35 -40q-1 -8 -2 -17 q-2 -34 -2 -212v-107q0 -171 -53 -253q-18 -28 -42 -48q-85 -72 -208 -72q-146 1 -222 69q-89 82 -89 265zM446 981q3 0 17 -10l1 -1q19 -16 119 -90q13 -10 14 -14q-1 -5 -5 -10l-29 -29q-8 -6 -13 -7q-6 2 -15 11q-28 29 -86 72q-1 2 -2 2q-8 6 -13 6q-6 -1 -15 -5 q-60 -35 -106 -74q-14 -12 -20 -12q-8 2 -9 10q1 5 9 15l129 121l3 3q14 12 21 12z" glyph-name="Ucircumflex" horiz-adv-x="852" unicode="Û"/>
<glyph d="M121 317v146q0 180 -2 212q-2 40 -25 51q-8 4 -18 6q-13 3 -39 3q-16 1 -17 9q2 9 22 9q30 0 93 -2q40 -1 53 -1q11 0 50 1q53 2 73 2q21 -1 22 -9q-2 -9 -16 -9q-12 0 -29 -3q-30 -6 -35 -40q-1 -8 -2 -17q-2 -34 -2 -212v-140q0 -162 57 -226q10 -11 21 -20 q51 -41 125 -41q84 1 138 54q51 51 57 178q1 27 1 70v125q0 180 -2 212q-2 40 -25 51q-8 4 -18 6q-12 3 -36 3q-16 1 -17 9q2 9 21 9q14 0 31 -0.5t31.5 -0.5t26.5 -0.5t19 -1.5h7q4 0 29 1q60 2 85 2q20 -1 21 -9q-2 -9 -18 -9q-12 0 -29 -3q-30 -6 -35 -40q-1 -8 -2 -17 q-2 -34 -2 -212v-107q0 -171 -53 -253q-18 -28 -42 -48q-85 -72 -208 -72q-146 1 -222 69q-89 82 -89 265zM550 830q-35 0 -44 35q-1 6 -1 12q0 30 25 42q10 5 21 5q37 0 45 -31q2 -7 2 -13q0 -36 -30 -47q-9 -3 -18 -3zM339 830q-35 0 -44 35q-1 6 -1 12q0 29 25 41 q10 5 21 5q35 0 45 -29q2 -7 2 -14q0 -36 -30 -47q-9 -3 -18 -3z" glyph-name="Udieresis" horiz-adv-x="852" unicode="Ü"/>
<glyph d="M276 174v82q0 54 -23 105q-13 30 -145 240q-21 33 -31 48q-37 54 -69 73q-24 13 -42 13q-14 1 -15 9q2 9 19 9q8 0 46 -1q61 -2 80 -2q9 0 34 1q47 2 73 2q15 0 15 -9q0 -5 -18 -10q-3 -1 -4 -1q-13 -4 -14 -18q1 -11 12 -34q5 -10 170 -299q5 12 74 136q69 123 76 139 q14 31 14 52q-2 20 -21 25q-17 5 -18 10q2 9 17 9q17 0 50 -2q30 -1 44 -1q11 0 57 2q41 1 50 1q17 -1 18 -8q-2 -9 -19 -10q-22 -1 -44 -12q-23 -11 -52 -46q-1 -2 -2 -3q-38 -47 -147 -236q-36 -63 -44 -82q-15 -37 -15 -100v-82q0 -58 3 -100q5 -49 41 -55q28 -4 50 -4 q15 -1 16 -8q-2 -10 -21 -10q-38 0 -106 2q-36 1 -47 1t-51 -1q-54 -2 -74 -2q-21 1 -22 10q2 7 16 8q17 0 35 4q27 7 31 55q3 42 3 100zM501 972q11 -19 29 -60q6 -14 -5 -15h-34q-72 -9 -162 -54q-5 -3 -9 -5q-16 -8 -17 -8q-5 2 -6 6q1 5 9 13q52 49 151 119q7 5 10 7 q13 9 20 9q8 -2 14 -12z" glyph-name="Yacute" horiz-adv-x="670" unicode="Ý"/>
<glyph d="M164 287v176q0 180 -2 212q-2 40 -25 51q-8 4 -18 6q-13 3 -39 3q-16 1 -17 9q2 9 22 9q31 0 94 -2q38 -1 49 -1q10 0 46 1q64 2 94 2q18 -1 19 -9q-2 -8 -15 -9q-11 0 -38 -4q-43 -10 -45 -53q-2 -76 -2 -90q61 4 88 4q122 0 185 -56l1 -1q37 -32 47 -91q2 -14 2 -27 q0 -121 -89 -189q-66 -49 -157 -49q-16 0 -21 1q-11 2 -12 9q2 11 28 11q50 0 91 50q40 49 40 111q-1 98 -56 154q-36 35 -96 35q-29 0 -43 -6q-8 -4 -8 -19v-238q0 -171 5 -214t28 -52q6 -1 11 -2q28 -4 49 -4q12 -1 13 -8q-2 -10 -20 -10q-36 0 -103 2q-36 1 -46 1t-47 -1 q-56 -2 -79 -2q-19 1 -20 10q2 8 16 8q18 0 36 4q21 4 28 49q1 3 1 6q5 43 5 213z" glyph-name="Thorn" horiz-adv-x="655" unicode="Þ"/>
<glyph d="M239 -14q-94 0 -143 22q-15 6 -17 19v10q0 44 5 111v1v1q1 21 11 22q9 -1 9 -14q0 -20 8 -44q21 -69 110 -82q15 -2 30 -2q78 0 109 57q13 23 13 51q0 52 -42 88q-19 16 -45 32l-51 30q-112 66 -132 144q-6 23 -6 49q0 89 85 137q59 34 137 34q71 0 125 -14q11 -4 12 -11 q0 -3 -1 -13q-2 -42 -2 -89q-1 -26 -11 -27q-9 0 -9 15q-1 30 -23 56q-34 39 -98 40q-72 0 -104 -44q-16 -21 -16 -47q0 -45 41 -78q21 -17 52 -34l36 -20q130 -72 148 -167q4 -19 4 -39q-1 -97 -88 -159q-50 -35 -147 -35zM779 -14q-94 0 -143 22q-15 6 -17 19v10 q0 44 5 111v1v1q1 21 11 22q9 -1 9 -14q0 -20 8 -44q21 -69 110 -82q15 -2 30 -2q78 0 109 57q13 23 13 51q0 52 -42 88q-19 16 -45 32l-51 30q-112 66 -132 144q-6 23 -6 49q0 89 85 137q59 34 137 34q71 0 125 -14q11 -4 12 -11q0 -3 -1 -13q-2 -42 -2 -89q-1 -26 -11 -27 q-9 0 -9 15q-1 30 -23 56q-34 39 -98 40q-72 0 -104 -44q-16 -21 -16 -47q0 -45 41 -78q21 -17 52 -34l36 -20q130 -72 148 -167q4 -19 4 -39q-1 -97 -88 -159q-50 -35 -147 -35z" glyph-name="germandbls" horiz-adv-x="1080" unicode="ß"/>
<glyph d="M389 211h-207q-6 -2 -8 -6l-47 -114q-13 -30 -13 -52q2 -23 35 -24h13q12 -1 13 -9q-2 -9 -14 -9q-15 0 -50 2q-34 1 -48 1q-3 0 -18 -1q-52 -2 -84 -2q-15 1 -16 9q2 8 10 9q4 0 13 1h13q39 6 61 48q5 11 12 27l230 535q15 33 26 34q13 0 21 -18q2 -4 5 -9 q10 -23 95 -223q100 -235 129 -301q37 -84 75 -91q20 -3 33 -3q12 0 12 -9q0 -8 -22 -9h-16q-96 0 -169 2q-25 2 -26 7q0 7 9 9h2q11 2 9 14q0 3 -1 5l-68 171q-4 6 -9 6zM200 258h170q4 2 4 5l-83 216q-3 7 -4 8q-3 0 -5 -7v-1l-85 -215q-1 -5 3 -6zM390 725q-1 -6 -11 -7 q-19 0 -197 80l-6 3q-32 14 -33 25q2 6 13 9q40 13 67 25q16 7 19 7t10 -13q4 -5 6 -9q20 -27 78 -76q18 -15 33 -26q3 -3 10 -7q10 -7 11 -11z" glyph-name="agrave" horiz-adv-x="632" unicode="à"/>
<glyph d="M389 211h-207q-6 -2 -8 -6l-47 -114q-13 -30 -13 -52q2 -23 35 -24h13q12 -1 13 -9q-2 -9 -14 -9q-15 0 -50 2q-34 1 -48 1q-3 0 -18 -1q-52 -2 -84 -2q-15 1 -16 9q2 8 10 9q4 0 13 1h13q39 6 61 48q5 11 12 27l230 535q15 33 26 34q13 0 21 -18q2 -4 5 -9 q10 -23 95 -223q100 -235 129 -301q37 -84 75 -91q20 -3 33 -3q12 0 12 -9q0 -8 -22 -9h-16q-96 0 -169 2q-25 2 -26 7q0 7 9 9h2q11 2 9 14q0 3 -1 5l-68 171q-4 6 -9 6zM200 258h170q4 2 4 5l-83 216q-3 7 -4 8q-3 0 -5 -7v-1l-85 -215q-1 -5 3 -6zM453 860q11 -19 29 -60 q6 -14 -5 -15h-34q-72 -9 -162 -54q-5 -3 -9 -5q-16 -8 -17 -8q-5 2 -6 6q1 5 9 13q52 49 151 119q7 5 10 7q13 9 20 9q8 -2 14 -12z" glyph-name="aacute" horiz-adv-x="632" unicode="á"/>
<glyph d="M389 211h-207q-6 -2 -8 -6l-47 -114q-13 -30 -13 -52q2 -23 35 -24h13q12 -1 13 -9q-2 -9 -14 -9q-15 0 -50 2q-34 1 -48 1q-3 0 -18 -1q-52 -2 -84 -2q-15 1 -16 9q2 8 10 9q4 0 13 1h13q39 6 61 48q5 11 12 27l230 535q15 33 26 34q13 0 21 -18q2 -4 5 -9 q10 -23 95 -223q100 -235 129 -301q37 -84 75 -91q20 -3 33 -3q12 0 12 -9q0 -8 -22 -9h-16q-96 0 -169 2q-25 2 -26 7q0 7 9 9h2q11 2 9 14q0 3 -1 5l-68 171q-4 6 -9 6zM200 258h170q4 2 4 5l-83 216q-3 7 -4 8q-3 0 -5 -7v-1l-85 -215q-1 -5 3 -6zM322 869q3 0 17 -10 l1 -1q19 -16 119 -90q13 -10 14 -14q-1 -5 -5 -10l-29 -29q-8 -6 -13 -7q-6 2 -15 11q-28 29 -86 72q-1 2 -2 2q-8 6 -13 6q-6 -1 -15 -5q-60 -35 -106 -74q-14 -12 -20 -12q-8 2 -9 10q1 5 9 15l129 121l3 3q14 12 21 12z" glyph-name="acircumflex" horiz-adv-x="632" unicode="â"/>
<glyph d="M389 211h-207q-6 -2 -8 -6l-47 -114q-13 -30 -13 -52q2 -23 35 -24h13q12 -1 13 -9q-2 -9 -14 -9q-15 0 -50 2q-34 1 -48 1q-3 0 -18 -1q-52 -2 -84 -2q-15 1 -16 9q2 8 10 9q4 0 13 1h13q39 6 61 48q5 11 12 27l230 535q15 33 26 34q13 0 21 -18q2 -4 5 -9 q10 -23 95 -223q100 -235 129 -301q37 -84 75 -91q20 -3 33 -3q12 0 12 -9q0 -8 -22 -9h-16q-96 0 -169 2q-25 2 -26 7q0 7 9 9h2q11 2 9 14q0 3 -1 5l-68 171q-4 6 -9 6zM200 258h170q4 2 4 5l-83 216q-3 7 -4 8q-3 0 -5 -7v-1l-85 -215q-1 -5 3 -6zM387 718q-37 0 -87 26 q-2 2 -3 2q-40 22 -64 22q-37 0 -68 -36q-11 -10 -16 -10q-6 2 -7 7q0 8 8 19q37 59 82 74q12 3 22 3q31 0 75 -25q3 -2 5 -3q40 -22 72 -22q37 0 61 30q10 12 16 13q7 -2 8 -8q-1 -6 -6 -17q-19 -35 -53 -59q-24 -16 -45 -16z" glyph-name="atilde" horiz-adv-x="632" unicode="ã"/>
<glyph d="M389 211h-207q-6 -2 -8 -6l-47 -114q-13 -30 -13 -52q2 -23 35 -24h13q12 -1 13 -9q-2 -9 -14 -9q-15 0 -50 2q-34 1 -48 1q-3 0 -18 -1q-52 -2 -84 -2q-15 1 -16 9q2 8 10 9q4 0 13 1h13q39 6 61 48q5 11 12 27l230 535q15 33 26 34q13 0 21 -18q2 -4 5 -9 q10 -23 95 -223q100 -235 129 -301q37 -84 75 -91q20 -3 33 -3q12 0 12 -9q0 -8 -22 -9h-16q-96 0 -169 2q-25 2 -26 7q0 7 9 9h2q11 2 9 14q0 3 -1 5l-68 171q-4 6 -9 6zM200 258h170q4 2 4 5l-83 216q-3 7 -4 8q-3 0 -5 -7v-1l-85 -215q-1 -5 3 -6zM421 718q-35 0 -44 35 q-1 6 -1 12q0 30 25 42q10 5 21 5q37 0 45 -31q2 -7 2 -13q0 -36 -30 -47q-9 -3 -18 -3zM210 718q-35 0 -44 35q-1 6 -1 12q0 29 25 41q10 5 21 5q35 0 45 -29q2 -7 2 -14q0 -36 -30 -47q-9 -3 -18 -3z" glyph-name="adieresis" horiz-adv-x="632" unicode="ä"/>
<glyph d="M389 211h-207q-6 -2 -8 -6l-47 -114q-13 -30 -13 -52q2 -23 35 -24h13q12 -1 13 -9q-2 -9 -14 -9q-15 0 -50 2q-34 1 -48 1q-3 0 -18 -1q-52 -2 -84 -2q-15 1 -16 9q2 8 10 9q4 0 13 1h13q39 6 61 48q5 11 12 27l230 535q15 33 26 34q13 0 21 -18q2 -4 5 -9 q10 -23 95 -223q100 -235 129 -301q37 -84 75 -91q20 -3 33 -3q12 0 12 -9q0 -8 -22 -9h-16q-96 0 -169 2q-25 2 -26 7q0 7 9 9h2q11 2 9 14q0 3 -1 5l-68 171q-4 6 -9 6zM200 258h170q4 2 4 5l-83 216q-3 7 -4 8q-3 0 -5 -7v-1l-85 -215q-1 -5 3 -6zM290 708q-65 0 -84 38 q-5 11 -5 22q0 43 54 70q37 18 83 18q71 0 90 -38q5 -10 5 -20q1 -48 -65 -75q-38 -15 -78 -15zM262 782q0 -33 31 -45q10 -4 19 -4q37 0 54 30q6 11 6 22q0 35 -35 44q-9 2 -18 2q-34 0 -50 -25q-7 -11 -7 -24z" glyph-name="aring" horiz-adv-x="632" unicode="å"/>
<glyph d="M414 240v41q-2 6 -8 7h-146q-10 -1 -14 -6q-7 -9 -64 -106q-23 -40 -28 -48q-38 -62 -38 -84q1 -15 15 -22q16 -7 45 -7q12 -1 13 -9q-2 -8 -17 -9q-36 0 -97 2q-26 1 -33 1q-6 0 -30 -1l-82 -2q-11 1 -12 9q2 8 12 9q24 0 39 7q43 18 82 73q9 11 11 14q12 15 318 475 q4 5 5 7q14 21 19 37q5 11 11 12q2 0 9 -1q20 -1 38 -1h240q7 0 38 5q1 0 5 2q7 2 9 2q5 -1 5 -8q0 -2 -1 -8q-4 -22 -6 -47q0 -3 -1 -19q-2 -30 -3 -37q-4 -11 -11 -13q-7 2 -8 11q0 18 -5 31q-8 20 -29 26q-12 3 -28 5q-22 3 -139 3q-6 -2 -6 -8v-238q2 -8 6 -9 q111 0 155 2q31 2 42 12q10 10 14 11q5 -2 6 -7q0 -3 -7 -61v-2q-3 -24 -3 -57q-1 -17 -10 -18q-8 1 -8 7q-3 28 -4 31q-7 29 -45 33h-2q-25 3 -139 3q-5 -2 -5 -8v-40v-130q0 -47 34 -59q24 -8 84 -8q58 0 81 10q31 15 40 63q3 12 9 13q9 -1 9 -20q0 -44 -11 -94 q-5 -18 -19 -21q-8 -1 -29 -1q-37 0 -161 3q-44 2 -102 2h-17q-18 -1 -28 -1q-36 -2 -53 -2q-16 1 -17 8q2 9 11 10q19 0 31 3q21 6 26 45q4 37 4 177zM414 337v213h-4l-127 -211q-2 -8 4 -8h119q7 1 8 6z" glyph-name="ae" horiz-adv-x="836" unicode="æ"/>
<glyph d="M661 143q0 -31 -15 -97q-2 -10 -4 -16q-4 -17 -18 -23q-3 -1 -5 -2q-48 -19 -159 -19h-21l-75 -55q104 -10 117 -67q1 -7 1 -13q0 -46 -50 -77q-51 -30 -134 -30q-16 1 -17 10q2 12 26 13q39 0 67 28q17 18 17 39q0 60 -76 73h-3q-21 3 -22 8q0 3 13 12l3 3l80 60 q-141 15 -228 88q-110 93 -110 251q0 113 70 199q16 19 33 34q104 90 279 90q57 0 128 -9q13 -2 38 -6q35 -6 50 -8q12 -2 13 -10q0 -3 -1 -13q-2 -18 -3 -34q-1 -17 -2 -60q-1 -25 -1 -32q-3 -20 -12 -21q-9 2 -9 18q-3 47 -34 79q-53 50 -170 50q-110 -1 -166 -48 q-81 -71 -81 -221q0 -154 111 -240q75 -58 163 -58q94 0 130 23q14 9 26 22q24 28 30 57q4 16 11 17q9 -1 10 -15z" glyph-name="ccedilla" horiz-adv-x="705" unicode="ç"/>
<glyph d="M144 244v150q0 153 -1 180q-2 31 -22 40q-7 3 -16 6q-11 3 -35 3q-14 1 -15 9q2 8 20 8q26 0 82 -1q34 -1 45 -1h240q7 0 37 5q2 0 6 2q6 2 8 2q6 -1 6 -8q0 -2 -1 -7q-5 -22 -6 -48q0 -3 -1 -17q-3 -32 -4 -39q-5 -13 -10 -14q-7 2 -7 11q0 19 -6 31q-9 20 -31 26 q-11 4 -27 5q-29 4 -138 4q-5 -2 -6 -8v-210q2 -8 6 -9q133 0 154 2q33 4 42 13q13 11 14 11q6 -2 7 -9q0 -2 -7 -60v-2q-4 -32 -4 -57q-1 -18 -9 -19q-7 1 -8 7q0 3 -1 10q-1 14 -2 21q-10 29 -49 33q-31 4 -138 4q-5 -2 -5 -9v-68v-126q2 -49 36 -62q26 -9 83 -9 q58 0 83 11q29 15 38 63q4 12 10 13q8 -1 8 -20q0 -44 -11 -90q-1 -3 -1 -4q-5 -18 -19 -21q-8 -1 -28 -1q-98 0 -162 3q-86 2 -102 2h-16q-22 -1 -34 -1q-42 -2 -61 -2q-16 1 -17 9q2 8 14 9q19 0 31 3q21 6 26 45q4 37 4 181zM381 725q-1 -6 -11 -7q-19 0 -197 80l-6 3 q-32 14 -33 25q2 6 13 9q40 13 67 25q16 7 19 7t10 -13q4 -5 6 -9q20 -27 78 -76q18 -15 33 -26q3 -3 10 -7q10 -7 11 -11z" glyph-name="egrave" horiz-adv-x="576" unicode="è"/>
<glyph d="M144 244v150q0 153 -1 180q-2 31 -22 40q-7 3 -16 6q-11 3 -35 3q-14 1 -15 9q2 8 20 8q26 0 82 -1q34 -1 45 -1h240q7 0 37 5q2 0 6 2q6 2 8 2q6 -1 6 -8q0 -2 -1 -7q-5 -22 -6 -48q0 -3 -1 -17q-3 -32 -4 -39q-5 -13 -10 -14q-7 2 -7 11q0 19 -6 31q-9 20 -31 26 q-11 4 -27 5q-29 4 -138 4q-5 -2 -6 -8v-210q2 -8 6 -9q133 0 154 2q33 4 42 13q13 11 14 11q6 -2 7 -9q0 -2 -7 -60v-2q-4 -32 -4 -57q-1 -18 -9 -19q-7 1 -8 7q0 3 -1 10q-1 14 -2 21q-10 29 -49 33q-31 4 -138 4q-5 -2 -5 -9v-68v-126q2 -49 36 -62q26 -9 83 -9 q58 0 83 11q29 15 38 63q4 12 10 13q8 -1 8 -20q0 -44 -11 -90q-1 -3 -1 -4q-5 -18 -19 -21q-8 -1 -28 -1q-98 0 -162 3q-86 2 -102 2h-16q-22 -1 -34 -1q-42 -2 -61 -2q-16 1 -17 9q2 8 14 9q19 0 31 3q21 6 26 45q4 37 4 181zM425 860q11 -19 29 -60q6 -14 -5 -15h-34 q-72 -9 -162 -54q-5 -3 -9 -5q-16 -8 -17 -8q-5 2 -6 6q1 5 9 13q52 49 151 119q7 5 10 7q13 9 20 9q8 -2 14 -12z" glyph-name="eacute" horiz-adv-x="576" unicode="é"/>
<glyph d="M144 244v150q0 153 -1 180q-2 31 -22 40q-7 3 -16 6q-11 3 -35 3q-14 1 -15 9q2 8 20 8q26 0 82 -1q34 -1 45 -1h240q7 0 37 5q2 0 6 2q6 2 8 2q6 -1 6 -8q0 -2 -1 -7q-5 -22 -6 -48q0 -3 -1 -17q-3 -32 -4 -39q-5 -13 -10 -14q-7 2 -7 11q0 19 -6 31q-9 20 -31 26 q-11 4 -27 5q-29 4 -138 4q-5 -2 -6 -8v-210q2 -8 6 -9q133 0 154 2q33 4 42 13q13 11 14 11q6 -2 7 -9q0 -2 -7 -60v-2q-4 -32 -4 -57q-1 -18 -9 -19q-7 1 -8 7q0 3 -1 10q-1 14 -2 21q-10 29 -49 33q-31 4 -138 4q-5 -2 -5 -9v-68v-126q2 -49 36 -62q26 -9 83 -9 q58 0 83 11q29 15 38 63q4 12 10 13q8 -1 8 -20q0 -44 -11 -90q-1 -3 -1 -4q-5 -18 -19 -21q-8 -1 -28 -1q-98 0 -162 3q-86 2 -102 2h-16q-22 -1 -34 -1q-42 -2 -61 -2q-16 1 -17 9q2 8 14 9q19 0 31 3q21 6 26 45q4 37 4 181zM294 869q3 0 17 -10l1 -1q19 -16 119 -90 q13 -10 14 -14q-1 -5 -5 -10l-29 -29q-8 -6 -13 -7q-6 2 -15 11q-28 29 -86 72q-1 2 -2 2q-8 6 -13 6q-6 -1 -15 -5q-60 -35 -106 -74q-14 -12 -20 -12q-8 2 -9 10q1 5 9 15l129 121l3 3q14 12 21 12z" glyph-name="ecircumflex" horiz-adv-x="576" unicode="ê"/>
<glyph d="M144 244v150q0 153 -1 180q-2 31 -22 40q-7 3 -16 6q-11 3 -35 3q-14 1 -15 9q2 8 20 8q26 0 82 -1q34 -1 45 -1h240q7 0 37 5q2 0 6 2q6 2 8 2q6 -1 6 -8q0 -2 -1 -7q-5 -22 -6 -48q0 -3 -1 -17q-3 -32 -4 -39q-5 -13 -10 -14q-7 2 -7 11q0 19 -6 31q-9 20 -31 26 q-11 4 -27 5q-29 4 -138 4q-5 -2 -6 -8v-210q2 -8 6 -9q133 0 154 2q33 4 42 13q13 11 14 11q6 -2 7 -9q0 -2 -7 -60v-2q-4 -32 -4 -57q-1 -18 -9 -19q-7 1 -8 7q0 3 -1 10q-1 14 -2 21q-10 29 -49 33q-31 4 -138 4q-5 -2 -5 -9v-68v-126q2 -49 36 -62q26 -9 83 -9 q58 0 83 11q29 15 38 63q4 12 10 13q8 -1 8 -20q0 -44 -11 -90q-1 -3 -1 -4q-5 -18 -19 -21q-8 -1 -28 -1q-98 0 -162 3q-86 2 -102 2h-16q-22 -1 -34 -1q-42 -2 -61 -2q-16 1 -17 9q2 8 14 9q19 0 31 3q21 6 26 45q4 37 4 181zM402 718q-35 0 -44 35q-1 6 -1 12q0 30 25 42 q10 5 21 5q37 0 45 -31q2 -7 2 -13q0 -36 -30 -47q-9 -3 -18 -3zM191 718q-35 0 -44 35q-1 6 -1 12q0 29 25 41q10 5 21 5q35 0 45 -29q2 -7 2 -14q0 -36 -30 -47q-9 -3 -18 -3z" glyph-name="edieresis" horiz-adv-x="576" unicode="ë"/>
<glyph d="M144 244v150q0 153 -1 180q-2 34 -25 43q-3 1 -5 2q-14 4 -32 4q-13 2 -14 10q2 7 21 7q18 0 67 -1q39 -1 51 -1q10 0 45 1q49 1 68 1q17 -1 18 -7q-2 -10 -14 -10t-26 -3q-26 -4 -31 -29q-1 -8 -2 -17q-2 -29 -2 -180v-150q0 -150 4 -186q4 -31 25 -38l10 -2 q18 -3 45 -3q13 -1 14 -9q-2 -8 -17 -9q-35 0 -100 2q-33 1 -42 1t-43 -1q-52 -2 -72 -2q-16 1 -17 9q2 8 14 9q19 0 31 3q20 4 25 32q0 5 1 9q4 36 4 185zM277 725q-1 -6 -11 -7q-19 0 -197 80l-6 3q-32 14 -33 25q2 6 13 9q40 13 67 25q16 7 19 7t10 -13q4 -5 6 -9 q20 -27 78 -76q18 -15 33 -26q3 -3 10 -7q10 -7 11 -11z" glyph-name="igrave" horiz-adv-x="407" unicode="ì"/>
<glyph d="M144 244v150q0 153 -1 180q-2 34 -25 43q-3 1 -5 2q-14 4 -32 4q-13 2 -14 10q2 7 21 7q18 0 67 -1q39 -1 51 -1q10 0 45 1q49 1 68 1q17 -1 18 -7q-2 -10 -14 -10t-26 -3q-26 -4 -31 -29q-1 -8 -2 -17q-2 -29 -2 -180v-150q0 -150 4 -186q4 -31 25 -38l10 -2 q18 -3 45 -3q13 -1 14 -9q-2 -8 -17 -9q-35 0 -100 2q-33 1 -42 1t-43 -1q-52 -2 -72 -2q-16 1 -17 9q2 8 14 9q19 0 31 3q20 4 25 32q0 5 1 9q4 36 4 185zM340 860q11 -19 29 -60q6 -14 -5 -15h-34q-72 -9 -162 -54q-5 -3 -9 -5q-16 -8 -17 -8q-5 2 -6 6q1 5 9 13 q52 49 151 119q7 5 10 7q13 9 20 9q8 -2 14 -12z" glyph-name="iacute" horiz-adv-x="407" unicode="í"/>
<glyph d="M144 244v150q0 153 -1 180q-2 34 -25 43q-3 1 -5 2q-14 4 -32 4q-13 2 -14 10q2 7 21 7q18 0 67 -1q39 -1 51 -1q10 0 45 1q49 1 68 1q17 -1 18 -7q-2 -10 -14 -10t-26 -3q-26 -4 -31 -29q-1 -8 -2 -17q-2 -29 -2 -180v-150q0 -150 4 -186q4 -31 25 -38l10 -2 q18 -3 45 -3q13 -1 14 -9q-2 -8 -17 -9q-35 0 -100 2q-33 1 -42 1t-43 -1q-52 -2 -72 -2q-16 1 -17 9q2 8 14 9q19 0 31 3q20 4 25 32q0 5 1 9q4 36 4 185zM209 869q3 0 17 -10l1 -1q19 -16 119 -90q13 -10 14 -14q-1 -5 -5 -10l-29 -29q-8 -6 -13 -7q-6 2 -15 11 q-28 29 -86 72q-1 2 -2 2q-8 6 -13 6q-6 -1 -15 -5q-60 -35 -106 -74q-14 -12 -20 -12q-8 2 -9 10q1 5 9 15l129 121l3 3q14 12 21 12z" glyph-name="icircumflex" horiz-adv-x="407" unicode="î"/>
<glyph d="M144 244v150q0 153 -1 180q-2 34 -25 43q-3 1 -5 2q-14 4 -32 4q-13 2 -14 10q2 7 21 7q18 0 67 -1q39 -1 51 -1q10 0 45 1q49 1 68 1q17 -1 18 -7q-2 -10 -14 -10t-26 -3q-26 -4 -31 -29q-1 -8 -2 -17q-2 -29 -2 -180v-150q0 -150 4 -186q4 -31 25 -38l10 -2 q18 -3 45 -3q13 -1 14 -9q-2 -8 -17 -9q-35 0 -100 2q-33 1 -42 1t-43 -1q-52 -2 -72 -2q-16 1 -17 9q2 8 14 9q19 0 31 3q20 4 25 32q0 5 1 9q4 36 4 185zM308 718q-35 0 -44 35q-1 6 -1 12q0 30 25 42q10 5 21 5q37 0 45 -31q2 -7 2 -13q0 -36 -30 -47q-9 -3 -18 -3z M97 718q-35 0 -44 35q-1 6 -1 12q0 29 25 41q10 5 21 5q35 0 45 -29q2 -7 2 -14q0 -36 -30 -47q-9 -3 -18 -3z" glyph-name="idieresis" horiz-adv-x="407" unicode="ï"/>
<glyph d="M144 298h-89q-5 2 -4 10l4 30q3 8 12 8h77v48q0 153 -1 180q-2 31 -22 40q-7 3 -16 6q-11 3 -35 3q-14 1 -15 9q2 8 20 8q26 0 82 -1q34 -1 45 -1t49 1q63 1 94 1q152 0 229 -24q76 -24 125 -73q85 -86 85 -216q0 -139 -89 -233l-6 -6q-54 -52 -155 -81q-63 -17 -127 -17 q-48 0 -117 5q-18 1 -49 3q-35 2 -44 2h-16q-22 -1 -34 -1q-42 -2 -61 -2q-16 1 -17 9q2 8 14 9q19 0 31 3q21 6 26 45q4 37 4 181v54zM262 347h176q7 -2 6 -10l-5 -32q-3 -7 -10 -8h-167v-39q0 -92 2 -125q3 -52 10 -64q26 -35 114 -35q118 0 181 45q10 7 19 15 q70 61 70 209q0 131 -81 209l-3 3q-94 80 -239 81q-44 0 -61 -6q-11 -6 -11 -17q-1 -30 -1 -166v-60z" glyph-name="eth" horiz-adv-x="833" unicode="ð"/>
<glyph d="M189 460l10 -347q3 -82 30 -92q19 -6 46 -6q14 -1 15 -9q-2 -9 -20 -9q-37 0 -89 2q-19 1 -25 1q-2 0 -15 -1q-49 -2 -80 -2q-19 1 -20 9q2 8 14 9q24 0 40 4q20 5 24 41q2 20 3 62l8 504q1 28 15 29q11 -1 38 -28l271 -271l125 -125q59 -60 65 -66h4l-9 378 q-1 58 -21 70q-4 3 -9 5q-14 5 -46 5q-13 1 -14 9q2 8 22 8q28 0 79 -1q26 -1 33 -1h17q41 2 69 2q19 -1 20 -8q-2 -8 -15 -9q-17 0 -27 -3q-24 -7 -29 -36q-3 -14 -3 -34l-10 -536q-1 -26 -14 -27q-18 1 -36 18q-91 84 -257 245q-42 41 -187 191q-14 15 -19 19h-3zM491 718 q-37 0 -87 26q-2 2 -3 2q-40 22 -64 22q-37 0 -68 -36q-11 -10 -16 -10q-6 2 -7 7q0 8 8 19q37 59 82 74q12 3 22 3q31 0 75 -25q3 -2 5 -3q40 -22 72 -22q37 0 61 30q10 12 16 13q7 -2 8 -8q-1 -6 -6 -17q-19 -35 -53 -59q-24 -16 -45 -16z" glyph-name="ntilde" horiz-adv-x="841" unicode="ñ"/>
<glyph d="M408 -14q-198 0 -297 135q-63 88 -63 198q0 121 77 213q103 120 292 120q196 0 293 -116q67 -82 67 -202q0 -154 -104 -252q-103 -96 -265 -96zM444 32q102 0 157 82q45 70 45 189q0 158 -95 244q-68 60 -160 60q-132 0 -184 -109q-29 -62 -29 -153q0 -152 87 -240 q72 -73 179 -73zM487 725q-1 -6 -11 -7q-19 0 -197 80l-6 3q-32 14 -33 25q2 6 13 9q40 13 67 25q16 7 19 7t10 -13q4 -5 6 -9q20 -27 78 -76q18 -15 33 -26q3 -3 10 -7q10 -7 11 -11z" glyph-name="ograve" horiz-adv-x="827" unicode="ò"/>
<glyph d="M408 -14q-198 0 -297 135q-63 88 -63 198q0 121 77 213q103 120 292 120q196 0 293 -116q67 -82 67 -202q0 -154 -104 -252q-103 -96 -265 -96zM444 32q102 0 157 82q45 70 45 189q0 158 -95 244q-68 60 -160 60q-132 0 -184 -109q-29 -62 -29 -153q0 -152 87 -240 q72 -73 179 -73zM550 860q11 -19 29 -60q6 -14 -5 -15h-34q-72 -9 -162 -54q-5 -3 -9 -5q-16 -8 -17 -8q-5 2 -6 6q1 5 9 13q52 49 151 119q7 5 10 7q13 9 20 9q8 -2 14 -12z" glyph-name="oacute" horiz-adv-x="827" unicode="ó"/>
<glyph d="M408 -14q-198 0 -297 135q-63 88 -63 198q0 121 77 213q103 120 292 120q196 0 293 -116q67 -82 67 -202q0 -154 -104 -252q-103 -96 -265 -96zM444 32q102 0 157 82q45 70 45 189q0 158 -95 244q-68 60 -160 60q-132 0 -184 -109q-29 -62 -29 -153q0 -152 87 -240 q72 -73 179 -73zM419 869q3 0 17 -10l1 -1q19 -16 119 -90q13 -10 14 -14q-1 -5 -5 -10l-29 -29q-8 -6 -13 -7q-6 2 -15 11q-28 29 -86 72q-1 2 -2 2q-8 6 -13 6q-6 -1 -15 -5q-60 -35 -106 -74q-14 -12 -20 -12q-8 2 -9 10q1 5 9 15l129 121l3 3q14 12 21 12z" glyph-name="ocircumflex" horiz-adv-x="827" unicode="ô"/>
<glyph d="M408 -14q-198 0 -297 135q-63 88 -63 198q0 121 77 213q103 120 292 120q196 0 293 -116q67 -82 67 -202q0 -154 -104 -252q-103 -96 -265 -96zM444 32q102 0 157 82q45 70 45 189q0 158 -95 244q-68 60 -160 60q-132 0 -184 -109q-29 -62 -29 -153q0 -152 87 -240 q72 -73 179 -73zM484 718q-37 0 -87 26q-2 2 -3 2q-40 22 -64 22q-37 0 -68 -36q-11 -10 -16 -10q-6 2 -7 7q0 8 8 19q37 59 82 74q12 3 22 3q31 0 75 -25q3 -2 5 -3q40 -22 72 -22q37 0 61 30q10 12 16 13q7 -2 8 -8q-1 -6 -6 -17q-19 -35 -53 -59q-24 -16 -45 -16z" glyph-name="otilde" horiz-adv-x="827" unicode="õ"/>
<glyph d="M408 -14q-198 0 -297 135q-63 88 -63 198q0 121 77 213q103 120 292 120q196 0 293 -116q67 -82 67 -202q0 -154 -104 -252q-103 -96 -265 -96zM444 32q102 0 157 82q45 70 45 189q0 158 -95 244q-68 60 -160 60q-132 0 -184 -109q-29 -62 -29 -153q0 -152 87 -240 q72 -73 179 -73zM518 718q-35 0 -44 35q-1 6 -1 12q0 30 25 42q10 5 21 5q37 0 45 -31q2 -7 2 -13q0 -36 -30 -47q-9 -3 -18 -3zM307 718q-35 0 -44 35q-1 6 -1 12q0 29 25 41q10 5 21 5q35 0 45 -29q2 -7 2 -14q0 -36 -30 -47q-9 -3 -18 -3z" glyph-name="odieresis" horiz-adv-x="827" unicode="ö"/>
<glyph d="M326 420q0 -41 -35 -53q-9 -3 -19 -3h-1q-35 0 -48 34q-4 11 -4 22q0 41 35 53q9 3 19 3q39 0 50 -36q3 -10 3 -20zM509 223h-469v61h469v-61zM326 87q0 -41 -35 -53q-9 -3 -19 -3h-1q-35 0 -48 34q-4 11 -4 22q0 41 35 53q9 3 19 3q39 0 50 -36q3 -10 3 -20z" glyph-name="divide" horiz-adv-x="549" unicode="÷"/>
<glyph d="M181 51l-74 -75q-5 -4 -9 0l-27 25q-5 5 -2 9l75 72q-89 87 -96 219v18q0 123 77 214q101 119 287 119q141 -1 231 -62l66 70q6 3 12 -2l25 -26q3 -5 0 -9l-65 -65q90 -83 90 -224q0 -154 -103 -252q-102 -96 -261 -96q-149 1 -226 65zM600 476l-351 -356q69 -89 194 -89 q98 0 151 79q47 70 47 192q0 99 -41 174zM222 160l352 358q-65 88 -185 88q-136 0 -186 -119q-24 -59 -24 -143q0 -107 43 -184z" glyph-name="oslash" horiz-adv-x="822" unicode="ø"/>
<glyph d="M106 269v125q0 167 -1 180q-2 31 -21 40q-7 3 -17 6q-11 3 -34 3q-15 0 -15 9q2 8 19 8q27 0 84 -1q37 -1 48 -1q10 0 47 1q49 1 66 1q18 -1 19 -8q-2 -8 -14 -9q-11 0 -26 -3q-25 -4 -30 -29q-1 -8 -2 -17q-2 -29 -2 -180v-119q0 -134 46 -187q10 -10 21 -19 q43 -34 111 -34q72 1 118 45q46 43 50 150q1 22 1 57v107q0 127 -2 180q-2 31 -20 40q-7 3 -17 6q-11 3 -32 3q-15 0 -15 9q2 8 18 8h28t28 -0.5t24 -1t18 -0.5h7q4 0 26 1q55 1 77 1q17 -1 18 -8q0 -9 -15 -9q-11 0 -26 -3q-25 -4 -30 -27q-1 -8 -2 -19q-2 -56 -2 -180v-91 q0 -153 -53 -223q-14 -19 -31 -33q-73 -61 -186 -61q-135 1 -201 58q-80 71 -80 225zM454 725q-1 -6 -11 -7q-19 0 -197 80l-6 3q-32 14 -33 25q2 6 13 9q40 13 67 25q16 7 19 7t10 -13q4 -5 6 -9q20 -27 78 -76q18 -15 33 -26q3 -3 10 -7q10 -7 11 -11z" glyph-name="ugrave" horiz-adv-x="760" unicode="ù"/>
<glyph d="M106 269v125q0 167 -1 180q-2 31 -21 40q-7 3 -17 6q-11 3 -34 3q-15 0 -15 9q2 8 19 8q27 0 84 -1q37 -1 48 -1q10 0 47 1q49 1 66 1q18 -1 19 -8q-2 -8 -14 -9q-11 0 -26 -3q-25 -4 -30 -29q-1 -8 -2 -17q-2 -29 -2 -180v-119q0 -134 46 -187q10 -10 21 -19 q43 -34 111 -34q72 1 118 45q46 43 50 150q1 22 1 57v107q0 127 -2 180q-2 31 -20 40q-7 3 -17 6q-11 3 -32 3q-15 0 -15 9q2 8 18 8h28t28 -0.5t24 -1t18 -0.5h7q4 0 26 1q55 1 77 1q17 -1 18 -8q0 -9 -15 -9q-11 0 -26 -3q-25 -4 -30 -27q-1 -8 -2 -19q-2 -56 -2 -180v-91 q0 -153 -53 -223q-14 -19 -31 -33q-73 -61 -186 -61q-135 1 -201 58q-80 71 -80 225zM517 860q11 -19 29 -60q6 -14 -5 -15h-34q-72 -9 -162 -54q-5 -3 -9 -5q-16 -8 -17 -8q-5 2 -6 6q1 5 9 13q52 49 151 119q7 5 10 7q13 9 20 9q8 -2 14 -12z" glyph-name="uacute" horiz-adv-x="760" unicode="ú"/>
<glyph d="M106 269v125q0 167 -1 180q-2 31 -21 40q-7 3 -17 6q-11 3 -34 3q-15 0 -15 9q2 8 19 8q27 0 84 -1q37 -1 48 -1q10 0 47 1q49 1 66 1q18 -1 19 -8q-2 -8 -14 -9q-11 0 -26 -3q-25 -4 -30 -29q-1 -8 -2 -17q-2 -29 -2 -180v-119q0 -134 46 -187q10 -10 21 -19 q43 -34 111 -34q72 1 118 45q46 43 50 150q1 22 1 57v107q0 127 -2 180q-2 31 -20 40q-7 3 -17 6q-11 3 -32 3q-15 0 -15 9q2 8 18 8h28t28 -0.5t24 -1t18 -0.5h7q4 0 26 1q55 1 77 1q17 -1 18 -8q0 -9 -15 -9q-11 0 -26 -3q-25 -4 -30 -27q-1 -8 -2 -19q-2 -56 -2 -180v-91 q0 -153 -53 -223q-14 -19 -31 -33q-73 -61 -186 -61q-135 1 -201 58q-80 71 -80 225zM386 869q3 0 17 -10l1 -1q19 -16 119 -90q13 -10 14 -14q-1 -5 -5 -10l-29 -29q-8 -6 -13 -7q-6 2 -15 11q-28 29 -86 72q-1 2 -2 2q-8 6 -13 6q-6 -1 -15 -5q-60 -35 -106 -74 q-14 -12 -20 -12q-8 2 -9 10q1 5 9 15l129 121l3 3q14 12 21 12z" glyph-name="ucircumflex" horiz-adv-x="760" unicode="û"/>
<glyph d="M106 269v125q0 167 -1 180q-2 31 -21 40q-7 3 -17 6q-11 3 -34 3q-15 0 -15 9q2 8 19 8q27 0 84 -1q37 -1 48 -1q10 0 47 1q49 1 66 1q18 -1 19 -8q-2 -8 -14 -9q-11 0 -26 -3q-25 -4 -30 -29q-1 -8 -2 -17q-2 -29 -2 -180v-119q0 -134 46 -187q10 -10 21 -19 q43 -34 111 -34q72 1 118 45q46 43 50 150q1 22 1 57v107q0 127 -2 180q-2 31 -20 40q-7 3 -17 6q-11 3 -32 3q-15 0 -15 9q2 8 18 8h28t28 -0.5t24 -1t18 -0.5h7q4 0 26 1q55 1 77 1q17 -1 18 -8q0 -9 -15 -9q-11 0 -26 -3q-25 -4 -30 -27q-1 -8 -2 -19q-2 -56 -2 -180v-91 q0 -153 -53 -223q-14 -19 -31 -33q-73 -61 -186 -61q-135 1 -201 58q-80 71 -80 225zM494 718q-35 0 -44 35q-1 6 -1 12q0 30 25 42q10 5 21 5q37 0 45 -31q2 -7 2 -13q0 -36 -30 -47q-9 -3 -18 -3zM283 718q-35 0 -44 35q-1 6 -1 12q0 29 25 41q10 5 21 5q35 0 45 -29 q2 -7 2 -14q0 -36 -30 -47q-9 -3 -18 -3z" glyph-name="udieresis" horiz-adv-x="760" unicode="ü"/>
<glyph d="M239 148v70q-1 49 -20 89q-12 26 -139 219q-12 17 -18 26q-34 47 -57 60q-20 11 -37 11q-12 1 -13 9q2 8 17 8q6 0 39 -1q54 -1 71 -1q8 0 33 1q44 1 67 1q12 -1 13 -8q0 -6 -13 -9q-5 -1 -7 -2q-11 -5 -12 -13q1 -11 11 -29q8 -12 69 -118q69 -118 77 -131q4 7 39 68 q83 142 92 160q13 28 13 45q0 14 -17 18q-1 1 -2 1q-15 5 -16 10q2 8 15 8q15 0 45 -1q29 -1 41 -1q10 0 49 1q37 1 45 1q15 -1 16 -7q-2 -9 -17 -10q-17 0 -38 -10q-22 -11 -46 -40q-36 -42 -136 -209q-28 -48 -35 -63q-11 -30 -11 -85v-68q0 -49 2 -85q5 -39 36 -45 q20 -3 44 -3q14 -1 15 -9q-2 -9 -19 -9q-33 0 -95 2q-33 1 -43 1t-46 -1q-50 -2 -68 -2q-18 1 -19 9q2 8 14 9q19 0 31 3q24 7 27 45q3 36 3 85zM432 860q11 -19 29 -60q6 -14 -5 -15h-34q-72 -9 -162 -54q-5 -3 -9 -5q-16 -8 -17 -8q-5 2 -6 6q1 5 9 13q52 49 151 119 q7 5 10 7q13 9 20 9q8 -2 14 -12z" glyph-name="yacute" horiz-adv-x="590" unicode="ý"/>
<glyph d="M144 244v150q0 153 -1 180q-2 32 -22 41q-7 3 -16 5q-11 3 -35 3q-14 1 -15 9q2 8 20 8q27 0 82 -1q34 -1 44 -1q9 0 44 1q60 1 87 1q16 -1 17 -8q-1 -8 -14 -9q-10 0 -33 -4q-38 -7 -40 -43q-1 -33 -1 -76q40 3 77 3q121 0 176 -48q34 -29 42 -83q1 -9 1 -18 q0 -107 -84 -163q-58 -39 -137 -39q-21 0 -26 1q-10 2 -11 8q2 11 25 11q52 0 90 48q29 39 29 87q-1 81 -49 128q-32 29 -89 29q-25 0 -37 -6q-7 -3 -7 -16v-198q0 -145 4 -182q4 -35 24 -42l10 -2q20 -3 43 -3q10 -1 12 -9q-2 -8 -18 -9q-32 0 -96 2q-34 1 -43 1t-41 -1 q-50 -2 -70 -2q-16 1 -17 9q2 8 14 9q19 0 31 3q21 6 26 45q4 37 4 181z" glyph-name="thorn" horiz-adv-x="598" unicode="þ"/>
</font>
</defs>
</svg>
