<?xml version="1.0" standalone="no"?>
<!DOCTYPE svg PUBLIC "-//W3C//DTD SVG 1.1//EN" "http://www.w3.org/Graphics/SVG/1.1/DTD/svg11.dtd" >
<svg xmlns="http://www.w3.org/2000/svg" xmlns:xlink="http://www.w3.org/1999/xlink" version="1.1">
<metadata></metadata>
<defs>
<font id="american_scriberegular" horiz-adv-x="909" >
<font-face units-per-em="2048" ascent="1638" descent="-410" />
<missing-glyph horiz-adv-x="477" />
<glyph horiz-adv-x="0" />
<glyph unicode="&#xd;" horiz-adv-x="477" />
<glyph unicode=" "  horiz-adv-x="477" />
<glyph unicode="&#x09;" horiz-adv-x="477" />
<glyph unicode="&#xa0;" horiz-adv-x="477" />
<glyph unicode="!" horiz-adv-x="645" d="M166 -31q0 35 33 45q12 2 59 2h21q12 2 18 2q29 1 29 -30q0 -10 -9 -21q-14 -18 -29.5 -36.5t-39.5 -18.5h-6q-76 0 -76 57zM328 201q0 14 26 49q20 25 41 51q33 45 293 461q47 72 135 213q23 43 111 150.5t119 125.5q23 12 34 13q52 0 52 -25q0 -10 -33 -67.5t-43 -71.5 q-18 -41 -68 -111q-35 -35 -92 -108q-16 -29 -147 -191q-78 -92 -224 -282q-76 -109 -83 -162q-12 -72 -87 -72q-35 0 -34 27z" />
<glyph unicode="&#x22;" horiz-adv-x="761" d="M471 541q0 49 125 241q104 160 166 236q80 96 96 96q10 0 22.5 -10.5t12.5 -18.5q0 -4 -76 -81q-25 -27 -49 -60q-63 -80 -125 -199q-4 -10 -25 -73q-16 -45 -36 -66q-2 -2 -39 -57q-25 -37 -49 -37q-23 0 -23 29zM694 584q0 23 56 139q47 94 73 141q76 129 109 129 q24 0 24 -20q0 -27 -41 -86q-31 -39 -59 -80q-35 -47 -68 -141q-4 -20 -11 -68.5t-52 -48.5q-31 0 -31 35z" />
<glyph unicode="#" horiz-adv-x="1425" d="M-2 117q0 6 4 9t107 5q115 0 243 12q29 25 221 330q0 6 -32 6q-45 0 -121 -2q-96 -2 -121 -3t-81 -4t-85 -3q-27 0 -27 16t17.5 22.5t226.5 6.5q23 0 56 4q45 4 55 6q43 0 86 2q59 4 76 23q18 33 65 88q12 10 66 88q31 37 84 111q23 43 64.5 95t68.5 52q20 0 20 -27 q0 -18 -42 -68t-66 -87q-31 -55 -105 -170q-51 -66 -51 -90q0 -12 82 -13l106 -2q86 0 103 8q6 2 45 51.5t45 57.5q23 45 74 109q66 82 82 104q59 88 77 88q23 0 23 -18t-44 -97t-60 -98q-35 -37 -74 -106q-12 -25 -41 -72q-4 -8 -4 -12q0 -10 30 -11q76 0 191 4 q66 0 199 11q8 2 67 16q47 10 64 10q12 0 12 -8q0 -43 -227 -63q-172 -18 -166 -19q-25 0 -77 2t-77 2q-53 0 -90 -53q-180 -256 -180 -270q0 -6 10 -10q55 -10 131 -11q68 0 208 5.5t210 5.5q27 0 27 -15q0 -23 -64 -29h-80q-35 -2 -145 -2q-37 0 -113 -4t-113 -4 q-14 0 -42.5 2t-43.5 2q-18 0 -22 -2q-16 -6 -68 -84q-35 -51 -98 -155q-72 -129 -102 -154q-14 -20 -54 -55q-25 -14 -69 -15q-63 0 -64 48q0 25 23 41q76 59 139 139q18 25 86 121q72 104 72 110t-43 6q-31 0 -88 2h-88q-14 0 -41 -4q-16 -2 -37 -30q-59 -86 -107 -172 q-23 -43 -67 -129q-14 -25 -101 -25q-57 0 -55 41v6q0 16 31 47q20 20 43 41q150 186 151 215l-4 4h-30q-43 0 -134 -2h-131q-16 0 -16 23zM473 150q0 -8 39 -9q16 0 51 3t51 3q14 0 45 -2t46 -2q49 0 61 17q23 31 116 171t93 144q0 8 -64 8q-66 0 -51 0l-31 2h-79 q-57 -4 -72 -18q-41 -45 -57 -72q-41 -70 -140 -227q-8 -14 -8 -18z" />
<glyph unicode="$" d="M-240 -784q0 8 7 20q25 29 65 78q256 346 256 375q0 -6 -39 47t-39 106q0 119 80 211q55 61 123 123q98 86 141 86q12 0 36 -4t34 -4q14 0 27 18q123 172 122 205q0 12 -6 43t-6 47q0 53 19 119q6 25 26 68q66 131 219 157q14 2 23 17q55 88 82 145q35 74 86 74 q41 0 41 -27q0 -20 -139 -211q61 -14 88 -71v2q63 63 84 63q40 0 40 -39q0 -8 -31.5 -37.5t-62.5 -56.5q-35 -35 -43 -61l-2 -11q-4 -16 -26 -34q-31 -31 -121 -160q-102 -147 -103 -170q0 18 25 -127q14 -88 14 -144q0 -188 -110 -331q-68 -86 -117 -119q-66 -45 -160 -45 q-27 0 -53 2q-4 0 -16.5 3t-18.5 3q-8 0 -15 -12.5t-22 -40.5l-57 -113q-27 -55 -35 -104q-2 -23 -10 -68q-14 -41 -43 -41q-20 0 -47 17.5t-27 37.5q0 12 41 86q51 90 53 97q31 68 54 106q35 61 34 60q-2 2 -6 4q-35 18 -73 39q-4 0 -13 -13q-14 -20 -182 -313 q-31 -59 -82 -141q-10 -12 -22 -13q-8 0 -31 13q-20 4 -41 9t-21 30zM76 -121q0 -76 43 -127q2 -2 6 -2q6 0 10 6q14 18 133 216t119 202q0 8 -8 8q-82 0 -113 -26q-100 -92 -125 -121q-66 -78 -65 -156zM188 -293q0 -12 31 -30.5t43 -18.5q2 0 8 8q94 156 95 158q-2 2 -5 2 q-61 20 -61 41q0 18 25 18q8 0 24.5 -3t24.5 -3q25 0 35 19q23 35 43 67q30 50 30 70q0 12 -15 56t-22 44q-2 0 -6 -8q-20 -31 -61 -94q-188 -307 -189 -326zM334 -356q0 -4 39 -4q106 0 194 96q33 35 69 110.5t40 120.5q2 29 2 66q0 63 -14 160v8q-25 -27 -107 -170 q-4 -6 -6 -23q-10 -68 -55 -119q-16 -16 -50 -57q-10 -12 -61 -98t-51 -90zM487 211q0 -4 5 -8q10 -14 43 -82l4 -6q-2 4 48 85t50 101q0 10 -33 94q0 2 -2 4l-2 -2q-57 -92 -113 -186zM664 621q14 25 61 102q72 123 72 115q0 4 -4 4q-8 0 -33 -20.5t-37 -33.5 q-20 -20 -29 -40q-31 -80 -30 -123v-4zM682 526q0 -92 33 -102q-2 0 57 84q51 76 170 262q0 57 -49 74q-8 0 -47 -64q-45 -63 -90 -129q-74 -111 -74 -125z" />
<glyph unicode="%" horiz-adv-x="1103" d="M260 -102q0 12 19 34q41 43 116 134q53 68 189 215q123 135 184 217q84 92 172 202l-2 5q-6 4 -16 4q-6 0 -19.5 -2t-21.5 -2q-4 0 -13 2h-10q-25 0 -134.5 -112t-184.5 -112q-117 0 -117 99q0 63 33 98q25 23 75 68q39 37 78 73q53 47 86 58q68 23 101 22q96 0 96 -98 q0 -4 -2 -12v-13q0 -25 35 -24q25 0 75 26.5t68 46.5q45 47 82 47q20 0 20 -12q0 -4 -2 -8q-10 -27 -127 -162q-59 -57 -168 -180q-43 -43 -122 -133q-55 -78 -129 -162q-14 -16 -15 -27q0 -14 23.5 -28.5t40.5 -14.5q23 0 59 3q45 6 59 6q23 2 95.5 50t124.5 48 q94 0 94 -66q0 -111 -129 -227.5t-244 -116.5q-94 0 -94 78q0 39 46 104.5t46 69.5l-2 4q-12 8 -41 9h-16q-12 -2 -17 -3q-18 0 -50 10l-32 9q-18 0 -110 -127t-140 -127q-59 0 -59 27zM541 580q0 -31 26 -31q51 0 140 96q55 60 55 113q0 59 -33 59q-29 0 -92 -72 q-96 -109 -96 -165zM750 -61q0 -37 43 -37q53 0 129.5 71.5t76.5 130.5q0 63 -38 64h-17q-27 -2 -88 -74q-106 -125 -106 -155z" />
<glyph unicode="&#x26;" horiz-adv-x="1116" d="M295 -63q0 68 96 224t96 171q0 -2 -28.5 33.5t-26.5 132.5v8q0 125 43 182q14 14 39 47q51 72 59 82q39 49 74 68q55 33 86 33q39 0 39 -33q0 -10 -5 -25.5t-6 -56.5t-18 -74q-29 -57 -92 -164q-14 -33 -45 -96q-27 -51 -26 -68q0 -27 27.5 -55.5t54.5 -28.5q29 0 67 60 q27 43 53 84q61 86 138 100q16 2 28 2q45 0 45 -45q0 -37 -114.5 -104.5t-114.5 -102.5q0 -41 135 -41q94 0 174 43l57 35q47 29 54 29q16 0 16 -12q0 -16 -31 -37q-111 -78 -202 -88q-180 -18 -242 -19q-4 0 -16 2h-17q-8 0 -65 -86q-68 -104 -121 -160q-84 -86 -162 -86 q-49 0 -49 46zM403 27q0 -43 29 -43q37 0 80 65q20 31 63 88q56 63 56 94q0 8 -40 31t-54 23q-37 0 -64 -90q-16 -23 -41 -70q-29 -86 -29 -98zM524 557q0 -84 27 -84q16 0 61 80q39 74 45 102q2 8 2 43q0 8 6.5 21.5t6.5 23.5q0 63 -23 64q-51 0 -100 -111 q-25 -59 -25 -139z" />
<glyph unicode="'" horiz-adv-x="483" d="M508 696q0 25 24 74q29 43 74 121q14 39 64 96q27 41 82 117q18 27 45 26q18 0 35.5 -12t17.5 -28q0 -10 -25 -43q-33 -43 -32 -46q-29 -33 -84 -102q-35 -43 -95 -133q-20 -43 -61 -90q-12 -4 -23 -4q-23 0 -22 24z" />
<glyph unicode="(" horiz-adv-x="854" d="M199 -164q0 154 82 350q143 346 419 674q158 188 482 381q174 104 268 105q25 0 55 -11q39 -12 39 -32q0 -23 -30.5 -42.5t-57.5 -19.5q-80 -4 -213 -82q-279 -164 -452 -334q-195 -193 -347 -467q-174 -313 -174 -546q0 -63 21 -107q14 -18 37 -53q45 -82 164 -135 q57 -27 114 -31q27 0 74 -16l4 -7q-6 -23 -43 -22q-70 0 -113 16q-12 8 -43 17q-16 4 -63 26q-33 18 -66 37q-39 23 -57 47q-16 18 -45 56q-55 92 -55 196z" />
<glyph unicode=")" horiz-adv-x="854" d="M-354 -514q0 12 18 12q10 0 30.5 -5t31.5 -5q190 0 395 127q141 88 330 264q156 150 301 472.5t145 533.5q0 104 -57 190q-59 94 -156 121q-131 37 -131 64q0 49 84 49h31q70 -6 104 -21q18 -10 88 -59q160 -116 160 -311q0 -170 -113 -445q-102 -248 -221 -410 q-47 -66 -149 -192q-55 -55 -109 -113q-63 -63 -119 -98q-51 -41 -155 -113q-76 -39 -181 -77q-72 -27 -166 -27q-162 0 -161 43z" />
<glyph unicode="*" horiz-adv-x="651" d="M430 973q0 25 49 24q-6 0 72 -4q-18 0 100 0h31q20 -2 31 -2q8 0 8 15q0 23 -18.5 97.5t-18.5 96.5q0 31 21 31h2q14 0 32 -94q4 -14 21 -80q4 -18 8 -19q180 215 221 215q20 0 21 -16q0 -12 -37 -39q-27 -18 -70 -68q-106 -121 -106 -133q0 -4 10 -4q27 0 82 3t84 3 q16 0 46 5.5t42 5.5q43 0 43 -23q0 -25 -125 -24q-23 0 -66 2h-65q-57 0 -57 -9q0 -4 13 -39.5t15 -48t33 -49.5t31 -57q0 -10 -10.5 -24.5t-20.5 -14.5q-14 0 -35 29q-51 72 -67 143q-4 23 -11 23q-2 0 -11 -11.5t-23 -21.5q-23 -16 -53.5 -59.5t-45.5 -57.5 q-66 -59 -90 -59q-12 0 -23.5 13t-11.5 23q0 14 17 29q25 12 69 41q10 8 31 27q109 109 109 119q0 2 -25 2q-8 0 -27 2h-26q-14 0 -40 -3.5t-40 -3.5q-8 0 -25.5 3.5t-27.5 3.5q-6 0 -21 -2h-18q-27 0 -27 10z" />
<glyph unicode="+" horiz-adv-x="978" d="M86 256q0 16 31 23q121 18 184 18q10 0 29.5 -2t29.5 -2q2 0 80 16q39 10 60.5 38t42.5 56q41 53 60.5 91t58.5 69q12 8 55 8q14 0 14 -6q0 -49 -66.5 -136t-66.5 -105q0 -10 27 -11h75q53 -2 78 -2q31 0 90.5 5.5t89.5 5.5q50 -1 50 -19q0 -20 -30 -33.5t-56 -13.5 q-23 0 -71 5t-71 5q-20 0 -59 -3t-57 -3q-12 0 -37 4t-37 4q-53 0 -117 -112q-18 -23 -47 -70q-23 -25 -61 -80q-10 -16 -68 -98q-23 -45 -64 -96h-4q-23 -2 -44 22.5t-21 48.5q0 25 53 90q37 43 73 88t70 95q53 74 54 90q0 10 -64 10q-23 0 -63.5 -4t-63.5 -4q-6 0 -18 2 h-19q-10 0 -33.5 -4t-33.5 -4q-33 0 -33 14z" />
<glyph unicode="," horiz-adv-x="468" d="M-12 -283q0 25 24 35q29 37 72 90q18 23 53 117q29 84 53 94q6 2 19.5 15.5t26.5 13.5q20 0 35.5 -19.5t15.5 -39.5q0 -14 -27 -56q-29 -47 -33 -59q-18 -47 -73 -90l-74 -66q-55 -47 -80 -47q-12 0 -12 12z" />
<glyph unicode="-" horiz-adv-x="638" d="M190 193q0 25 72 24q23 0 66 -2t65 -2q27 0 77 9t77 9q16 0 46 -10t30 -22q0 -18 -43 -33q-35 -12 -58 -12q-33 0 -97.5 5t-96.5 5q-14 0 -41 -2t-39 -2q-57 0 -58 33z" />
<glyph unicode="." horiz-adv-x="458" d="M131 -45q0 29 53.5 89t81.5 60q6 0 17 -2q39 -16 39 -49q0 -8 -3.5 -25.5t-3.5 -25.5q0 -29 -51 -64.5t-82 -35.5q-51 0 -51 53z" />
<glyph unicode="/" horiz-adv-x="737" d="M-315 -473q0 27 32 57q27 23 54 45q152 160 366 410q141 170 438 496q147 150 254 272q170 197 400 479q29 37 96 103q94 66 102 65q19 0 19 -35q0 -16 -33 -53q-43 -49 -45 -55q-47 -53 -129 -150q-133 -137 -387 -424q-176 -211 -281 -325q-150 -180 -452 -539 q-86 -117 -271 -340q-39 -39 -104 -39q-59 0 -59 33z" />
<glyph unicode="0" d="M225 59q0 106 72 203q37 45 111 137q47 68 153 191q127 115 293 203q6 4 18.5 16t20.5 12q6 0 18 -2q53 -10 65.5 -24.5t18.5 -75.5q2 -17 2 -31q0 -39 -12 -80q-25 -88 -119 -268q-76 -145 -157 -242q-170 -197 -361 -196q-123 0 -123 157zM410 70q0 -88 36 -88 q31 0 91 32q53 29 79 56q113 109 197 286q64 133 64 283q0 86 -37 86q-31 0 -148 -84q-47 -35 -90 -94q-37 -51 -74 -105q-27 -37 -61 -147q-57 -174 -57 -225z" />
<glyph unicode="1" d="M225 180q0 16 21 17q4 0 14 -2h16q66 0 314 249q219 225 284 324q25 39 80 115q4 4 13 4q53 0 65 -21q4 -6 4 -16q0 -12 -24 -35q-12 -10 -35 -35q-29 -45 -92 -131q-55 -72 -160 -215q-27 -45 -61 -125q-41 -94 -58 -127l-82 -164q-61 -123 -84 -141q-70 -57 -106 -57 q-43 0 -43 49q0 37 57 94q55 51 135 199q53 102 95 166q29 45 28 51q0 12 -12 12q-4 0 -47 -43q-35 -37 -141 -117q-123 -92 -150 -92q-10 0 -20.5 14.5t-10.5 26.5z" />
<glyph unicode="2" d="M29 33q0 61 37 88q74 51 174 51t186 -70q35 -29 61 -28q59 0 181 104q100 88 151 160q59 76 119 151q59 90 59 181q0 137 -131 137q-102 0 -280 -72q-63 -25 -152 -129q-45 -53 -45 -100q0 -72 92 -72q61 0 132 30t108 75q80 100 80 151q0 14 -19 15q-37 0 -93 -31 t-85 -64q-76 -78 -82 -78q-12 0 -12 13q0 16 25 43q39 47 100 92q70 51 121 61q16 4 32 4q92 0 93 -86q0 -20 -9 -45q-18 -63 -90 -131q-115 -106 -239 -121q-37 -4 -72 -4q-70 0 -121 25q-68 33 -67 94q0 76 83 163t189 136q213 96 363 96q74 0 116.5 -44.5t42.5 -120.5 q0 -53 -14 -121t-68 -144q-76 -109 -86 -131q-8 -14 -84 -96q-25 -37 -88 -100q-43 -37 -135 -101q-29 -14 -29 -26q0 -23 54 -23q51 0 78 10q14 4 83.5 50.5t71.5 46.5q10 0 10 -11q0 -18 -77 -73q-63 -43 -101 -62q-68 -31 -160 -30q-29 0 -61.5 17t-42.5 17 q-27 0 -87 -22.5t-93 -22.5q-82 0 -144 33q-76 41 -75 115zM104 45q0 -31 23 -43q86 -41 106 -41q97 0 97 43q0 27 -17.5 27t-55.5 31.5t-73 31.5q-80 0 -80 -49z" />
<glyph unicode="3" d="M-59 -258q0 61 43 100l43 39q18 12 57 13q57 0 75.5 -23t18.5 -78q0 -18 -53 -54t-53 -58q0 -45 51 -46q59 0 147 48q78 41 127 90q43 43 88 96q66 68 191 207q55 66 55 157v27q-6 53 -102 53q-125 0 -291 -63q-72 -27 -92 -27q-39 0 -39 39q0 25 96 64q78 33 219 53 q37 4 142 43q96 35 137 55q129 66 129 158q0 63 -74 98q-57 27 -131 27q-18 0 -31 -2q10 -61 11 -47q0 -55 -44.5 -115.5t-90.5 -80t-126 -19.5q-119 0 -118 88q0 78 63 137q57 55 137 74q-12 2 -26 2t-45 -6.5t-45 -6.5q-23 0 -23 15q0 37 143 37q25 0 65 -8.5t56 -8.5 q25 0 72 6t72 6q74 0 145 -28q86 -35 102 -92q11 -35 11 -60q0 -35 -53.5 -97t-182.5 -120q-37 -16 -37 -26q0 -6 21 -13q53 -16 53 -100q0 -109 -27 -141q-16 -29 -51 -84q-45 -66 -114 -144q-49 -55 -99 -112q-61 -70 -117 -88q-29 -10 -81 -66q-23 -23 -84 -45 q-2 0 -80 -35q-41 -20 -90 -20h-15q-10 -2 -16 -2q-20 0 -59 14t-50 31q-31 53 -30 139zM385 610q0 -59 82 -59q16 0 68 24q88 39 88 158q0 25 -41 25q-57 0 -88 -15q-109 -55 -109 -133z" />
<glyph unicode="4" d="M20 45q0 35 68 125q23 27 64 59q61 49 69 56q150 137 297 346q98 143 133 143q14 0 29.5 -13t17.5 -26q-29 -35 -80 -106q-27 -31 -75 -101q-96 -154 -168 -229q-27 -25 -76 -76q-16 -16 -45 -61t-29 -62q0 -35 127 -34q16 0 50 3t51 3q51 0 71 18q31 29 97 137 q41 72 151 232q100 145 148 231q35 66 67 131q55 92 94 92q31 1 31 -24q0 -12 -27 -53q-84 -143 -256 -433q-35 -39 -88 -124q-6 -16 -14 -42t-45 -71q-39 -53 -49 -70q-2 -6 -2 -10q0 -16 74 -16q131 0 141 -4l4 -9q-47 -41 -152 -41q-10 0 -31.5 2t-31.5 2q-45 0 -78 -51 q-29 -43 -47 -78q-14 -41 -31 -79q-20 -49 -57 -50q-31 0 -66 9q-49 10 -49 28q0 27 45 60q27 31 80 90l-2 -4q29 31 29 57q0 18 -68 18q-29 0 -85 -3t-85 -3q-20 0 -60 -9t-61 -9q-25 0 -49 14q-31 14 -31 35z" />
<glyph unicode="5" d="M-125 -256q0 182 84 221q70 33 80 33q27 0 63.5 -18.5t36.5 -42.5q0 -29 -70.5 -98.5t-70.5 -94.5q0 -41 100 -41q94 0 191 35q106 39 162 102q221 250 221 434q0 43 -23 82q-25 47 -65 47q-29 0 -75 -17t-65 -17q-12 0 -28.5 11t-16.5 21q0 16 58 43q51 25 77.5 28 t56.5 5t57.5 26.5t58.5 100.5q37 90 49 109q43 68 43 98q0 2 -2 8v10q0 90 84 91q20 0 44.5 -12.5t43.5 -12.5q182 0 288 16q102 8 308 27q16 2 114 16q70 12 115 13q18 0 55 -2h54q68 0 112 4q133 16 137 16q41 0 41 -31q0 -29 -49 -28q-37 0 -182 -13q-119 -12 -227 -14 q-82 -10 -244 -25q-86 -10 -258 -26q-43 -4 -189 -6q-27 0 -77 -2q-16 -2 -23 -17q-70 -152 -156 -239q-57 -59 -57 -117q0 -12 34 -67.5t34 -114.5q0 -76 -31 -142q-12 -25 -78 -127q-147 -225 -321 -309q-49 -25 -150 -43q-92 -18 -156 -18q-86 0 -120 12q-68 20 -68 86z " />
<glyph unicode="6" d="M166 -6q0 12 2 39v39q0 18 20.5 64t34.5 65q27 35 82 106q55 63 164 197q72 76 209 229q70 80 223 180q55 39 166 117q23 14 47 14q18 0 45 -16.5t27 -32.5q0 -49 -39 -49q-12 0 -32.5 11.5t-33.5 11.5q-23 0 -116 -66q-197 -139 -404 -424q-39 -47 -104 -145 q-18 -35 -43 -101q-2 -2 -23 -40q-59 -111 -59 -164q0 -35 33 -35q18 0 94 80q68 68 209 194q80 59 82 60q51 33 94 32q66 0 65 -53q0 -39 -51 -125q-12 -41 -65 -127q-72 -80 -197 -133q-141 -63 -199 -63q-16 0 -45.5 -2t-44.5 -2q-47 0 -94 46t-47 93zM418 -43 q0 -8 26 -8q164 0 291 131q76 75 76 192q0 23 -16 23q-6 0 -23 -6q-29 -12 -191.5 -163t-162.5 -169z" />
<glyph unicode="7" d="M-14 -711q0 14 32 68q23 35 43 70q115 207 211 321q8 8 103 158q51 86 153 254q27 45 93 139q49 74 157 209q125 135 125 149q0 12 -12 13q-16 0 -51 -6.5t-54 -6.5q-115 0 -151 52q-6 8 -21 8q-41 0 -106 -64q-20 -18 -66 -47q-51 -29 -71 -28q-4 0 -9 2q0 8 52 47 q18 14 100 100q23 29 74 80q59 43 112 92q18 16 41 16q25 0 25 -16t-25.5 -51t-25.5 -51q0 -8 4 -23l8 -24q10 -35 111 -35q111 0 147 41q102 115 158 114q31 1 31 -22q0 -49 -52 -82q-127 -82 -207 -176q-106 -123 -204 -275q-27 -51 -93 -149q-18 -25 -96 -172 q-29 -63 -98 -176q-18 -23 -45 -84q-35 -80 -41 -90q-49 -111 -154 -293q-23 -31 -43 -64q-35 -47 -51 -49q-6 -2 -16 -2q-88 0 -88 53z" />
<glyph unicode="8" d="M92 -31q0 27 12.5 47.5t38.5 57.5q47 51 125 98q154 94 166 102q131 86 135 115q-2 -8 -2 103q0 72 6 112q2 12 15 33q55 94 119 137q37 25 71 51q45 31 82 35q20 0 62 6q35 8 36 8q8 0 23 -4q41 -12 47 -16q23 -12 23 -43q0 -8 -19 -53q-8 -20 -26 -62 q-45 -78 -121 -157q-82 -90 -152 -127q-35 -18 -35 -41q0 -29 5.5 -82t5.5 -80q0 -131 -172 -264q-162 -127 -293 -127q-82 0 -111 37q-41 55 -41 114zM250 -23q0 -29 21.5 -53t47.5 -24q66 0 168 104q93 93 93 232q0 53 -19 53q-27 0 -131 -78q-86 -61 -133 -104.5 t-47 -129.5zM670 555q0 -82 18 -96q2 -2 8 -2q33 0 88 57q142 143 142 231q0 23 -14.5 44.5t-37.5 21.5q-31 0 -63 -23q-80 -59 -104 -108q-37 -78 -37 -125z" />
<glyph unicode="9" d="M-12 -477q0 72 61 71q27 0 27 -34q0 -12 12 -13q31 0 109 45q123 70 276 297q20 37 70 105q10 18 32 61q6 10 17 21q35 45 65 108q-25 -20 -75 -57q-59 -33 -117 -68q-80 -43 -123 -43q-35 0 -74 74q-35 68 -35 111q0 25 18.5 55.5t34 57t42.5 77.5q16 29 47 64 q45 53 49 57q117 152 293 260q47 33 92 66q53 35 104 45q70 12 64 12q10 0 25.5 -14.5t18.5 -34t5 -37.5q2 -10 2 -16q0 -98 -84 -281q-70 -152 -145 -260q-37 -51 -191 -330q-92 -166 -286 -315q-182 -137 -281 -137q-53 0 -53 53zM418 240q0 -82 65 -82q113 0 224 123 q57 63 174 280q69 134 69 240q0 25 -20 24q-23 0 -80 -27.5t-66 -45.5q-57 -39 -88 -84q-18 -27 -90 -103q-59 -63 -82 -110q-33 -53 -65 -107q-41 -72 -41 -108z" />
<glyph unicode=":" horiz-adv-x="587" d="M205 25q0 51 61 51q37 0 64.5 -31t27.5 -70q0 -29 -18 -63.5t-45 -34.5q-20 0 -45 18.5t-29 38.5q-16 84 -16 91zM350 317q0 31 12 45q35 37 78 37q18 0 51 -25.5t33 -43.5q0 -111 -55 -111q-45 0 -82 27.5t-37 70.5z" />
<glyph unicode=";" horiz-adv-x="587" d="M-117 -354q0 39 54 45q18 0 53 24.5t53 26.5q35 8 96 86q47 61 56 100q6 47 24 68q8 20 31 63q25 37 84 37q76 0 76 -41t-45 -71q-31 -20 -69 -88t-60.5 -90.5t-71.5 -55.5q-14 -4 -36 -25.5t-36 -27.5q-27 -6 -78 -23q-18 -12 -61 -24q-8 -2 -28.5 -9.5t-30.5 -7.5 t-11 13zM344 276q0 37 40 73t79 36q69 0 69 -72q0 -55 -30 -71q-43 -25 -88 -25q-70 0 -70 59z" />
<glyph unicode="&#x3c;" horiz-adv-x="780" d="M-55 12q0 16 16 35q37 39 111 123q33 33 94 102q20 29 59 45q31 20 90 50q33 8 95 8q33 0 46 -49.5t56 -49.5q80 0 102 25q35 37 68 102q12 25 53 76t51.5 80t81.5 113q27 45 95 125q49 47 75 92q23 35 84 92q70 68 97 68q18 0 35.5 -20t17.5 -40t-22.5 -72.5t-39 -71 t-40 -69.5t-41 -67.5t-42 -63.5t-40.5 -65q-53 -59 -134 -129q-41 -37 -116 -89q-16 -20 -56 -53q-8 -4 -39 -51q-16 -27 -16 -57q0 -14 8 -26.5t17.5 -26t29.5 -13.5q47 0 125 60.5t90 60.5q8 0 9 -10q0 -10 -44 -51t-57.5 -48.5t-31 -30t-41.5 -28.5q-6 -2 -37 -14 q-23 -8 -41 -8q-14 0 -37 7t-29 7q-8 0 -29 -6q-33 -12 -54 -49t-40 -72q-35 -72 -114 -199q-25 -45 -74 -133q-51 -104 -103 -209q-84 -160 -137 -168q-8 -2 -18 -2q-63 0 -64 49q0 10 4 27q4 8 95 166q37 63 120 199q29 49 89 124q61 51 89.5 123t61.5 105q47 49 47 96 q0 10 7.5 30.5t7.5 28.5q0 14 -17 15q-59 0 -98 -64q-2 -2 -76 -84q-33 -37 -80 -55q-4 -2 -121 -55q-33 -16 -86 -17q-41 0 -63 17q-49 33 -49 65zM131 45q0 -16 47 -16q27 0 37 8q27 16 78 63q23 31 57 142q4 10 4 16q0 29 -28 29q-53 0 -117 -107q-78 -129 -78 -135z M834 500q0 -12 12 -13q18 0 96 74q68 63 90 92q18 39 64 111q24 32 24 55q0 8 -6 8q-23 0 -68 -32.5t-100 -128.5q-59 -102 -94 -136q-18 -16 -18 -30z" />
<glyph unicode="=" horiz-adv-x="1177" d="M82 184q0 41 18 41q8 0 31 -6q207 -53 301 -53q59 0 177 6t177 6q39 0 115 9.5t111 9.5q88 0 88 -35q0 -6 -6 -17q-12 -20 -99 -26h-145q-31 0 -90 -2h-92q-238 0 -373 16q-59 6 -174 25q-39 10 -39 26zM227 315q0 33 62 33q6 0 21.5 -2t23.5 -2h12q8 2 12 2t14.5 -2 t16.5 -2q317 0 371 10q82 16 133 17q23 0 65.5 -9.5t65.5 -9.5q12 0 36.5 2t37.5 2q65 1 65 -24q0 -49 -243 -49q-70 0 -208.5 6t-207.5 6q-37 0 -106.5 -8.5t-106.5 -8.5q-63 0 -64 39z" />
<glyph unicode="&#x3e;" horiz-adv-x="1241" d="M-336 -725q0 29 25 78q37 68 47 127q8 43 121 172q23 45 71 115q16 12 33 43q23 41 29 47q27 39 71 116q25 33 60 101q2 10 24 57q18 41 19 49q0 14 -6 15q-6 0 -81 -50.5t-89 -50.5q-25 0 -25 21q0 8 19 18q41 23 85 49.5t66 57.5q23 14 66 51t114 112q33 55 103 164 q27 41 84 144q12 27 41 73q51 74 71 115q63 121 154 174q35 20 72 49q29 25 51 25q45 0 45 -70q0 -39 -25.5 -79t-48 -77.5t-72.5 -111.5q-33 -51 -106 -150q-43 -39 -113 -110q-18 -23 -90 -84q-63 -55 -80 -86q-16 -18 -45 -64q-14 -31 -28 -61q0 -12 55 -12q86 0 123 18 q31 10 88 39q25 20 90 57q76 43 94 43q43 0 72 -48t41 -48t38.5 13.5t32 14.5t58.5 34q2 0 26 47q20 37 58 37q41 0 41 -54q0 -18 -10 -37q0 -20 -11 -61q-10 -27 -20 -53.5t-35 -46.5q-25 -29 -74 -74q-18 -14 -24 -57q0 -6 -5.5 -21.5t-5.5 -24.5q0 -27 35 -26q-6 0 45 12 q78 18 348 238q14 12 25 12q12 0 12 -10q0 -14 -71 -74q-43 -37 -88 -76q-23 -16 -68 -51q-18 -16 -106 -70q-61 -39 -127 -38q-47 0 -91 20q-53 27 -53 68q0 31 35 76.5t66 56.5q25 8 38 24q23 29 29 33q33 27 33 61q0 18 -14 19q-2 0 -46.5 -14.5t-105.5 -42.5 q-16 -14 -61 -72q-147 -188 -211 -225q-51 -29 -66 -29q-35 0 -72.5 35t-37.5 69q0 20 19 68.5t36 62.5q25 23 24 50q-2 2 -6 2q-12 0 -36.5 -8.5t-39.5 -8.5q-23 0 -48 14.5t-42 14.5q-14 0 -26 -10q-18 -16 -92 -157.5t-80 -166.5q-16 -76 -97 -205q-35 -51 -90 -155 q-45 -117 -92 -176q-29 -37 -59 -74q-43 -49 -72 -49q-41 0 -41 57zM498 565q4 -2 6 -2q14 0 41 29q23 18 63 59q18 23 60 76q33 37 94 111q27 33 57 94q37 69 37 100q0 14 -12 15q-8 0 -42 -33t-44 -47q-4 -4 -35 -37q-39 -39 -68 -88q-35 -53 -96 -164q-14 -14 -37 -51 q-12 -25 -24 -58v-4zM535 20q0 -35 18 -34l53 24q18 8 62 60q39 45 55 71q6 27 27 82q8 17 8 31q0 47 -29 47q-20 0 -64 -34t-51 -50q-27 -49 -51 -96q-29 -55 -28 -101z" />
<glyph unicode="?" horiz-adv-x="1044" d="M358 -25q0 20 34 45t54 25q48 0 48 -74q0 -72 -50 -71q-6 0 -47 8q-23 4 -27.5 20.5t-9.5 32.5q-2 8 -2 14zM512 215q0 31 51 119q14 29 45 82q61 96 213 184q90 53 273 156q123 68 159 96q88 70 88 152q0 96 -22 133q-29 47 -115 57q-68 8 -112 8q-104 0 -129 -28 q39 -16 38 -93q0 -45 -20 -86q-39 -80 -118 -135t-163 -55q-96 0 -96 94q0 61 29 117q43 80 182 147q16 8 35 21q90 57 182 78q82 18 98 18q125 0 209 -39q43 -18 70 -57q57 -80 57 -129q0 -70 -30 -119q-18 -31 -82 -90q-20 -20 -70 -60q-51 -31 -158 -84 q-188 -74 -249 -129q-82 -72 -213 -309q-16 -33 -50 -80q-14 -12 -39 -12q-63 0 -63 43zM664 938q0 -78 61 -78q39 0 94 31t80 63q49 66 49 129q0 43 -30 43q-18 0 -58.5 -13t-64.5 -42q-14 -33 -45 -65l-5 2q-4 6 -4 20t7.5 30.5t7.5 22.5q-18 0 -56 -45l-14 -28 q-23 -43 -22 -70z" />
<glyph unicode="@" horiz-adv-x="2033" d="M242 188q0 180 200 381q162 162 363 262q428 215 713 216q158 0 244.5 -88.5t86.5 -247.5q0 -203 -137 -344q-41 -47 -125 -136q-113 -104 -258 -180q-133 -72 -192 -71q-29 0 -56.5 22.5t-27.5 50.5q0 6 3 15.5t3 13.5t-4 4q-2 0 -6 -4q-37 -29 -120 -57.5t-130 -28.5 q-133 0 -133 180q0 39 20.5 65.5t42.5 51.5q25 35 72 102q121 160 338 246q156 61 192 61q25 0 39 -6q47 -18 55 -75q2 -6 5 -7q14 0 52 51.5t58 51.5q18 0 37.5 -16.5t19.5 -32.5q0 -14 -14 -31q-49 -57 -141 -174q-49 -76 -154 -219q-109 -129 -108 -168q0 -23 22 -23 q43 0 199 109q27 18 80 57q96 76 178 213q92 147 92 256q0 121 -73.5 201t-194.5 80q-119 0 -330 -76q-274 -96 -401 -170q-205 -115 -320 -289q-102 -156 -102 -284q0 -221 307 -334q113 -41 262 -41q217 0 463 88q272 96 393 248q98 121 166 309q63 182 72 344v170 q0 78 35 78q12 0 20 -11q18 -22 18 -188q0 -352 -122 -586q-104 -199 -310 -333q-190 -127 -424 -173q-150 -31 -307 -30q-281 0 -452 106q-209 129 -209 391zM803 109q0 -55 49 -56q47 0 121 37q104 49 244 242q29 39 55 76q35 51 43 80.5t24 82.5q13 42 13 56q0 23 -31 22 q-35 0 -123 -41q-125 -57 -237 -215q-23 -29 -62 -90l-61 -88q-35 -49 -35 -106z" />
<glyph unicode="A" horiz-adv-x="2082" d="M131 274q0 20 2 37q4 37 25 62q8 6 51 43q51 41 74 41q18 0 39 -19q38 -34 38 -93q0 -21 -2 -58t-2 -56q0 -270 295 -270q152 0 350 82q209 90 334 166q141 88 295 235q137 129 611 654q117 131 219 184q16 10 28 10h1q46 0 46 -69q0 -14 -2 -29q-10 -72 -163 -317 q-102 -160 -205 -318q-57 -78 -133 -201q-12 -35 -52 -102q-25 -29 -69 -121q-45 -98 -45 -125q0 -18 12 -18q25 0 346 252q14 12 25 12q10 0 10 -10q0 -8 -16.5 -25.5t-124.5 -109.5q-127 -109 -211 -152q-68 -37 -119 -37q-61 0 -62 66q0 63 56.5 173.5t56.5 114.5 q-2 6 -4 7q-2 0 -55.5 -41t-106.5 -41q-33 0 -33 20q0 39 43 39q16 0 43 22.5t34 39t7 38.5q0 84 -53 84q-6 0 -10 -4q-49 -39 -123 -100q-168 -135 -295 -205q-428 -233 -801 -233q-203 0 -284 129q-12 18 -15.5 46.5t-17.5 49.5q-37 51 -37 147zM1804 541q0 -10 31 -39 q18 -18 22.5 -55t12.5 -37t20.5 5t18.5 5q14 0 45 41q55 70 178 250q154 227 238 335.5t84 159.5q-2 4 -5 6q-33 0 -94 -53q-35 -29 -121 -125q-63 -70 -188 -213q-113 -121 -238 -270q-4 -4 -4 -10z" />
<glyph unicode="B" horiz-adv-x="1345" d="M88 96q0 35 27 97q88 205 243 393q125 150 426 352q190 129 387 174q33 6 66 14.5t55 30.5q37 37 131 109q106 84 129 84q16 0 17 -15q0 -23 -68.5 -85t-68.5 -68t32 -31q41 -29 62 -57q33 -45 33 -105q0 -90 -76 -205q-72 -106 -153 -159.5t-81 -59.5q0 -4 19.5 -16 t21.5 -14q12 -12 25.5 -29t25.5 -17q14 0 150 66l164 78q233 100 325 100q64 0 64 -14q0 -16 -94 -29q-47 -4 -264 -94q-205 -86 -263 -119q-27 -16 -61 -51q0 -18 -4 -53q-4 -86 -21 -137q-39 -131 -147 -242q-121 -121 -254 -121q-123 0 -123 49q0 78 160 262 q145 172 229 217q12 8 12 15q0 2 -30 35q-49 49 -92 49q-113 0 -134 -17q-2 -2 -59 -69q-43 -51 -108 -119q-53 -57 -105 -115q-66 -72 -113 -100q-197 -119 -280 -119q-57 0 -131 51q-10 8 -35 25q-39 18 -39 59zM160 131q0 -37 29.5 -61.5t66.5 -24.5q59 0 197 90 q168 111 235 201q37 55 113 164q88 131 274 381q139 174 139 178t-8 4q-4 0 -106 -29q-260 -74 -615 -385q-141 -125 -284 -395q-41 -78 -41 -123zM905 -23q0 -23 35 -22q51 0 139 86q70 70 109 133q35 57 35 123q0 39 -13 39q-41 0 -155 -121q-123 -131 -148 -233z M1024 600q0 -12 57 -12q43 0 76 5t117 85q78 74 100 115q64 114 64 196q0 90 -90 90q-16 0 -27 -8q-23 -12 -94 -139q-86 -150 -99 -164q-104 -145 -104 -168z" />
<glyph unicode="C" horiz-adv-x="958" d="M29 252q0 33 131 63q150 39 180 68q92 84 252 265t246 263q74 72 180 162q39 35 119 94q31 20 59 41q39 27 64 27q27 0 59 -14q41 -18 41 -43l-2 -7q-14 -147 -139 -309q-154 -197 -357 -317q-158 -94 -334 -162q-20 -8 -71 -113q-94 -199 -95 -223q0 -86 109 -86 q100 0 178 37q18 12 58 33q113 41 174 137q69 111 69 164q0 45 -37 45q-86 0 -184 -68q-90 -59 -213 -159q-47 -59 -55 -60q-12 0 -12 19q0 47 98 137q78 72 139 108q49 35 100 68q66 43 105 49q25 2 51 2q90 0 90 -49q0 -90 -78 -217q-57 -94 -96 -133q-47 -49 -137 -92 q-74 -37 -176 -72q-119 -39 -179 -39h-6h-6q-53 2 -105 55.5t-61 108.5q-2 18 -2 41q0 94 54 166q25 35 24 45q0 6 -8 6q-25 0 -103.5 -27.5t-111.5 -27.5q-12 0 -12 14zM604 489q0 -12 19 -12q18 0 157 64q49 23 135 87t127 107q121 129 191 254q39 74 39 86q0 8 -15 8 q-90 0 -151 -39q-37 -23 -113 -100q-98 -100 -112 -115q-51 -45 -115 -133q-80 -111 -109 -141q-53 -61 -53 -66z" />
<glyph unicode="D" horiz-adv-x="2203" d="M342 682q0 227 272 416q172 119 312 174q154 61 348 82q150 14 282 14q287 0 506 -87t279 -194q29 -51 37 -51q6 0 45 20.5t51 20.5q51 1 51 -24q0 -8 -70.5 -33t-70.5 -43q2 -2 2 -8q24 -67 24 -166v-8q0 -201 -108 -412q-109 -217 -274 -324q-225 -149 -404 -149h-2 q-47 0 -98 11t-56 11q-16 0 -59 -20q-49 -25 -66 -29q-57 -12 -129 -12q-20 0 -60 2t-60 2q-16 0 -49 -2t-50 -2q-153 0 -153 42q0 73 131 120q45 16 119 16q68 0 143 -14q117 -20 123 -21q16 0 33 6q25 8 59 46q25 31 49 59q59 61 139 194q88 143 138 201q152 176 194 221 q115 121 221 195q18 10 54 35q18 14 18 28t-14 37q-106 158 -301 211q-213 57 -482 58q-147 0 -278 -17q-274 -39 -479 -205q-231 -188 -232 -450q0 -51 15 -78q55 -102 196 -137q86 -20 250 -21q385 0 629 201q74 59 112 119q86 127 86 227q0 143 -143 143 q-160 0 -340 -100q-152 -84 -295 -260q-25 -33 -75 -92.5t-56 -59.5q-10 0 -10 19q0 35 133 194q127 152 299 252q195 113 369 113q198 0 198 -190q0 -78 -33 -148q-35 -78 -108 -162q-283 -315 -793 -315q-223 0 -368 63q-201 88 -201 281zM977 -49q0 -6 37 -6q16 0 51 -4 t53 -4q14 0 44 3t44 3q35 0 35 12q0 16 -53 16q-20 0 -63.5 4.5t-63.5 4.5q-16 0 -47 -9q-37 -10 -37 -20zM1528 -4q0 -18 108 -19q188 0 385 142q135 96 220.5 254.5t85.5 320.5q0 35 -7 94q-2 29 -14 82q-14 66 -25 66q-31 0 -114 -76q-125 -113 -234 -303 q-14 -33 -45 -96q-20 -39 -80 -129q-123 -184 -249 -301q-31 -29 -31 -35z" />
<glyph unicode="E" horiz-adv-x="665" d="M109 55q0 47 69 144q51 70 156 209q31 43 100 118q33 29 33 39l-15 28q-14 28 -14 52q0 35 17 82q25 72 68.5 127t88.5 109q145 174 297 233q188 76 228 76q59 0 98 -37t39 -94q0 -63 -39 -162q-35 -90 -78 -150q-76 -102 -123 -102q-23 0 -51 18q-102 63 -102 162 q0 63 26 64q12 0 23.5 -13.5t11.5 -25.5q0 -4 -4 -15.5t-4 -19.5q0 -27 32.5 -69t61.5 -42q31 0 78 60q37 51 51 90q49 135 49 209q0 53 -61 53q-121 0 -301 -125q-141 -100 -234 -248q-47 -74 -47 -131q0 -23 15 -22l28 13q27 13 51 13q12 0 37 2h39q82 0 82 -61 q0 -53 -62.5 -92t-119.5 -39h-25q-16 2 -24 2q-37 0 -52 -18q-66 -82 -147 -216q-102 -166 -102 -223q0 -59 96 -59q115 0 278 135q20 14 60 39q33 27 96 76q14 12 25 12q10 0 10 -10q0 -14 -84 -86q-51 -43 -105 -86q-143 -129 -251 -158q-45 -10 -99 -10q-18 0 -53 3 t-53 3q-35 0 -62 41q-23 33 -30 74q-2 14 -2 28zM614 594q0 -16 52 -16q43 0 43 20q0 27 -33 27q-16 0 -39 -8.5t-23 -22.5z" />
<glyph unicode="F" horiz-adv-x="1134" d="M121 -31q0 45 47 76q6 4 74.5 58.5t134.5 86.5q182 96 295 127q29 6 57 15q37 10 49 28q68 92 170 209q84 100 166 201q100 123 174 188q135 127 174 127q13 0 13 -12q0 -18 -31 -45q-129 -117 -248 -276q-106 -147 -143 -238q-18 -47 -19 -49q0 -8 6 -8q20 0 143.5 60.5 t127.5 60.5q14 0 33.5 -14.5t19.5 -28.5q0 -8 -10 -21q-4 -4 -54 -59q-41 -43 -120 -136q-39 -47 -181 -169q-49 -47 -96 -95q-70 -66 -106.5 -75t-55.5 -9q-16 0 -16 6q0 8 88 68q102 70 180 164q53 74 150 184q33 29 33 41q0 6 -9 6q-8 0 -65 -22q-127 -51 -158 -80 q-10 -10 -131 -180t-285 -232q-181 -67 -303 -67h-4q-39 0 -69.5 35.5t-30.5 74.5zM227 -23q0 -36 49 -36h3q39 0 112 20q104 29 252 191q80 87 82 118l-2 6h-8q-37 0 -185 -63q-133 -57 -256 -156q-47 -39 -47 -80zM297 647q0 139 129 256q119 109 186 146q82 43 82 51 q0 2 -4 2q-12 0 -35.5 -8.5t-36.5 -8.5q-16 0 -16 13q0 37 143 63q111 20 179 21q10 0 30.5 -2t30.5 -2t43 6q119 26 181 26h5q307 0 607 -125q203 -86 241 -86q16 0 70 29q211 111 412 154q262 55 422 55q152 0 256 -35q152 -53 157 -170v-6q4 -88 -186 -154 q-141 -49 -266 -57q-39 -2 -99 -2q-266 0 -458 35q-74 14 -205 49q-92 23 -99 23q-12 0 -32 -13q-139 -82 -230 -166q-57 -49 -155 -157q-8 -10 -17 -11q-12 0 -12 15q0 23 74 106q57 66 96 101q53 47 123 98q25 14 67 45q2 2 2 6q0 6 -24 17q-303 125 -342 137 q-156 49 -369 49q-43 0 -123 -4t-80 -19q0 4 17.5 -33.5t17.5 -72.5q0 -29 -10 -66q-45 -150 -188 -260q-233 -178 -432 -178q-152 0 -152 133zM406 668q0 -70 88 -70q53 0 104 18q119 43 152 60q63 35 131 104q106 109 106 242q0 88 -92 88q-94 0 -227 -88 q-78 -49 -176 -160q-33 -35 -74 -137q-12 -33 -12 -57zM2163 977q0 -8 28 -16q317 -86 578 -87q102 0 209 7q100 6 200 41q140 49 140 125q0 80 -148 116q-98 27 -219 27q-178 0 -399 -53q-238 -57 -375 -144q-14 -10 -14 -16z" />
<glyph unicode="G" horiz-adv-x="1093" d="M-104 -1055q0 18 20 47q129 201 211 295q63 76 203.5 218.5t206.5 218.5q35 49 90 108q41 23 73 82q47 86 48 90q0 8 -7 8q-6 0 -43 -26q-78 -57 -170 -60h-22h-5q-111 0 -143 86q-18 53 -18 86q0 23 14 52q6 27 43 77q41 39 68 74q4 6 49 84q156 272 492 567 q252 221 370 222q29 0 58.5 -33t29.5 -64q0 -41 -37 -119q-68 -143 -129 -217q-72 -86 -237 -192q-68 -45 -195 -121q-43 -29 -131 -78q-86 -41 -114.5 -83t-57.5 -109q-33 -78 -33 -117q0 -20 21 -21q51 0 178 84q156 104 240 238q16 33 51 76q20 8 59 8q59 0 60 -29 q0 -16 -17 -37q-47 -51 -137 -161q-133 -184 -133 -217q0 -2 2 -2q12 0 37 18q72 45 211 139q47 35 137 107q14 12 25 12q12 0 12 -10q0 -31 -211 -189q-39 -27 -113 -77q-80 -53 -190 -144q-29 -37 -57 -100q-55 -131 -146 -258q-74 -104 -145 -207q-96 -131 -160 -191 q-55 -51 -141 -106q-109 -70 -158 -70q-59 0 -59 41zM2 -975q0 -8 8 -8q25 0 129 78q96 72 127 125q45 68 129 207q92 161 92 159q0 8 -6 8q-4 0 -11 -5t-95 -99q-66 -72 -201 -211q-68 -66 -102 -123q-10 -25 -37 -71q-33 -49 -33 -60zM688 389q0 -4 8 -4q10 0 41 12 q78 33 213 127q150 102 185 160q12 20 57 57q39 33 51 62q16 37 53 96q43 68 58 94q26 51 26 74t-28 23q-29 0 -65 -15.5t-66 -30.5q-70 -27 -125 -104q-23 -33 -70 -78q-39 -37 -77 -75.5t-134 -186.5q-127 -197 -127 -211z" />
<glyph unicode="H" horiz-adv-x="1505" d="M92 193q0 8 10 16q76 74 236 201q92 74 272 221q305 246 447 405q104 117 112 140q4 16 9 32q6 10 30.5 19.5t42.5 9.5q27 0 27 -29q0 -16 -49 -71q-59 -68 -64 -74q-18 -31 -18 -51q0 -18 43 -19q43 0 70 33q35 57 120 160q35 29 107 90q41 35 82 35q59 0 59 -54 q0 -29 -43 -63q-82 -53 -235 -176q-98 -96 -205 -326q-47 -104 -72 -149q-43 -82 -88 -141.5t-45 -67.5q0 -12 55 -12q125 0 140 2q27 0 38 13t23 30q23 25 64 73q45 57 135 191q82 125 135 188q115 137 231 242q203 176 299 176q56 0 56 -51q0 -16 -11 -35 q-29 -68 -45 -102q-76 -154 -229 -357q-145 -190 -277 -315q-66 -63 -178 -88t-121 -33q-20 -18 -36.5 -51t-32.5 -64q-49 -88 -49 -106q0 -23 51 -23t158 43q100 39 150 76t151 113q14 12 24 12t10 -10q0 -12 -51 -58q-166 -145 -235 -168q-35 -16 -103 -45 q-127 -47 -198 -47q-51 0 -72 25q-16 18 -32.5 60t-16.5 65q0 25 26 53q20 29 70 82q33 27 33 47q0 10 -70 10q-18 0 -53 3t-53 3q-27 0 -56 -36q-59 -76 -172 -162q-121 -92 -202 -115q-119 -35 -211 -35q-88 0 -127 23q-51 31 -52 115q0 25 9 47q12 37 36.5 50t53.5 27 q8 4 33 27q80 72 137 84q106 27 362 27q43 0 58 16q27 45 82 131q100 160 180 264q125 168 125 174q0 10 -35 15q-20 2 -41 4q-8 2 -22.5 13t-20.5 11q-8 0 -17.5 -7t-130.5 -115q-201 -176 -653 -537q-35 -27 -104 -82q-41 -37 -49 -37q-16 0 -17 15zM207 41q0 -59 117 -59 q104 0 188 49q43 25 129 110q94 92 94 127q0 14 -49 15q-229 0 -301 -39t-115 -103q-20 -23 -41.5 -46t-21.5 -54zM1298 342q0 -10 23 -10q20 0 96 18q59 14 154 109q63 63 155 186q51 57 144 178q49 78 100 156q72 117 72 154q0 23 -21 22q-12 0 -65 -20 q-141 -55 -367 -332q-35 -43 -92 -133q-10 -27 -65 -97q-25 -33 -63 -108.5t-62 -106.5q-8 -12 -9 -16z" />
<glyph unicode="I" horiz-adv-x="827" d="M29 61q0 35 20 58q31 43 62 84q41 55 71 63q8 2 28.5 20.5t45.5 18.5t41 -39q22 -57 22 -63q0 -29 -32.5 -71t-59.5 -58q-10 -4 -34 -19q-33 -27 -33 -43q0 -29 31.5 -47t62.5 -18q23 0 51 6q98 18 256 203q49 57 150 188q127 162 127 180t-26 51t-26 58q0 23 17 49 q27 49 88 141q47 66 153 193q72 72 144 143q115 109 155 109q23 0 23 -23q0 -27 -66 -143q-57 -100 -90 -144q-18 -35 -57 -102l-39 -55q0 -4 22.5 -12.5t22.5 -30.5q0 -39 -50 -117t-87 -104q-37 -8 -88 -45q-8 -18 -23 -54q-37 -80 -75 -133q-10 -16 -58 -96 q-35 -59 -69 -90q-127 -113 -246 -162q-51 -25 -101.5 -48.5t-113.5 -23.5q-90 0 -135 23q-59 29 -78 110q-6 25 -6 43zM860 633q0 -31 31 -31q6 0 92 123q53 94 176 274q8 9 8 17q0 23 -12 22q-16 0 -57 -39q-80 -74 -224 -303q-14 -23 -14 -63zM989 594q0 -6 8 -6 q4 0 13 2q20 4 62 67t42 86q0 25 -12 25q-10 0 -61.5 -84t-51.5 -90z" />
<glyph unicode="J" horiz-adv-x="688" d="M-346 -813q0 27 35 72q27 43 82 127q121 182 389 397q106 82 227 188q27 51 84 158q82 143 119 207q70 115 131 199q35 49 92 129q23 33 72 94q29 29 28 39q0 4 -4 4h-9q-40 0 -112 16q-23 12 -46 55t-33 43q-6 0 -19 -12q-47 -45 -135 -137q-18 -33 -59 -90 q-39 -41 -72 -84q-14 -25 -29 -49q-23 -37 -35 -37q-25 0 -24 26q0 14 61 95q135 174 201 274q45 55 121 164q23 41 37 61q29 39 49 50q45 24 70 24h2q47 0 47 -65q0 -70 -59.5 -127.5t-59.5 -53.5q0 -43 20.5 -63.5t98.5 -20.5q39 0 112 86q82 96 135 113q8 2 29 15.5 t33 13.5q14 0 26.5 -12.5t12.5 -26.5q0 -27 -35 -60q-12 -20 -68 -75q-6 -6 -110 -70q-78 -49 -96 -76q-2 -6 -60 -84q-100 -135 -184 -301q-47 -82 -94 -166q-72 -129 -72 -161q0 -6 4 -7q16 0 270 183q14 10 25 10q10 0 10 -8q0 -10 -18 -29q-29 -23 -83 -68t-104 -86 q-61 -49 -106 -71q-25 -10 -37 -39q-20 -37 -57 -109q-29 -63 -113 -209q-180 -272 -438 -419q-133 -76 -182 -76q-70 0 -70 49zM-193 -690q0 -12 19 -12q-2 0 70 18q63 16 90 47q8 8 28.5 24.5t61.5 64.5t141 194q117 167 117 200q0 2 -2 2q-8 0 -107 -79 q-68 -53 -166 -152q-125 -125 -161 -158q-27 -25 -56 -69q-35 -51 -35 -80z" />
<glyph unicode="K" horiz-adv-x="1454" d="M55.5 165q20.5 30 41 44t30.5 24q35 39 43 50q25 23 51 34q8 4 39 27q23 18 41 18q27 0 46.5 -19t19.5 -46q0 6 -17 -82q-6 -27 -37.5 -57.5t-57.5 -37.5t-54.5 -34t-28.5 -49q0 -27 20.5 -44.5t47.5 -17.5q63 0 196 70q115 61 177.5 114.5t138.5 180.5q57 100 116 201 q63 92 127 184q100 150 101 182q0 8 -13 8q-12 0 -36.5 -4t-36.5 -4q-31 0 -56 11q-55 23 -80 63q-8 12 -22 12q-45 0 -119 -131q-63 -113 -182 -225q-133 -125 -158 -125q-18 0 -18 14q0 6 8 17l57 54q56 54 107 112q20 20 201 270q33 45 176 188q33 33 69 33q41 0 41 -20 q0 -12 -20 -33q-25 -27 -27 -31q-33 -53 -33 -49q0 -16 41 -55q20 -20 62 -21q90 0 121 37q25 27 106 94q68 53 96 101q39 61 107 61q53 0 53 -55q0 -18 -10 -31q-18 -20 -33 -68q-14 -39 -53 -67q-123 -86 -176 -102q-61 -16 -129 -160q-47 -100 -92 -201q-8 -14 -9 -20 q0 -14 33 -15q33 0 160 76q121 66 350 211q45 41 125 100q16 8 53 58q29 41 66 41q35 0 55 -56q16 -41 16 -84q0 -55 -32 -114q-35 -70 -86 -70q-16 0 -37 10.5t-21 24.5q0 10 6.5 32.5t6.5 34.5q0 45 -15 45q-10 0 -213 -124q-225 -137 -237 -144q-123 -68 -123 -86 q0 2 22.5 -41t22.5 -82q0 -160 -55 -221q-88 -100 -88 -129q0 -6 -2.5 -21.5t-2.5 -23.5q0 -41 48 -41q76 0 225 86q115 66 209 141q23 18 69 56q14 12 25 12q10 0 10 -10q0 -12 -51 -58q-225 -199 -344 -243q-143 -55 -180 -56q-53 0 -101 33q-53 37 -53 88t47 127 q72 115 74 119q63 137 63 174q0 23 -19.5 42.5t-41.5 19.5q-39 0 -88 -68q-63 -88 -172 -209q-72 -82 -160 -137q-190 -117 -334 -141q-43 -8 -67 -9q-57 0 -101 56q-65 85 -65 121q0 30 20.5 60z" />
<glyph unicode="L" horiz-adv-x="1028" d="M-94 41q0 25 28 61q78 92 351 93q90 0 135 -19q104 -39 98 -39q45 0 133 86q47 47 97 115q71 101 71 111q0 4 -6 4q-4 0 -12 -4q-68 -35 -209 -93q-63 -20 -127 -41q-87 -30 -119 -30h-2q-23 0 -22 12q0 43 57 49q84 10 250 82q147 63 241 123q12 6 62 82 q133 201 227 295q63 63 211 178q180 139 227 139q37 0 37 -80q0 -43 -32 -92q-27 -41 -56 -82q-37 -61 -192 -178q-82 -70 -250 -207q-31 -23 -74 -63q-45 -74 -143 -213q-113 -133 -187 -189q-82 -61 -82 -63q0 -27 58 -45q45 -16 78 -17q45 0 86 11q78 20 157 84 q35 25 103 77q23 18 69 56q14 12 25 12q10 0 10 -10q0 -8 -16 -27q-41 -41 -256 -213q-59 -49 -121 -72q-77 -28 -116 -28h-3q-59 0 -147 45t-94 45q-12 0 -39 -12q-121 -59 -291 -60q-113 0 -164 43t-51 74zM-16 43l2 -6q43 -43 172 -43q84 0 153 29q33 16 33 20 q0 12 -70 37q-59 20 -84.5 24.5t-50.5 4.5q-51 0 -119 -35q-37 -18 -36 -31zM1075 670q0 -6 10 -6q27 0 127 100q57 45 172 139q33 29 70 78q47 61 47 92q0 10 -12 10q-72 0 -252 -170q-59 -55 -96 -125q-10 -20 -31 -57q-35 -53 -35 -61z" />
<glyph unicode="M" horiz-adv-x="1656" d="M-35 82q0 90 107 125q8 2 41 18q25 12 41 13q90 0 90 -76q0 -55 -40 -100l-40 -44q0 -32 63 -32h4q14 0 27 2q123 12 606 524q45 49 115 129q35 43 115 123q33 27 114 129q51 59 150 178q49 72 121 154q18 6 34 6q29 0 29 -21q0 -18 -11 -43.5t-11 -31.5q0 -27 -129 -224 q-125 -188 -164 -231q-18 -20 -47 -74q-23 -39 -64 -114q-20 -59 -67 -175q-10 -23 -11 -30q0 -4 4 -4t19 10q102 76 205 153q117 90 190 170q53 55 186 250q27 41 119 150q29 39 56 78q37 41 84 41q49 -1 49 -52q0 -68 -88 -145q-45 -37 -90 -76q-55 -53 -72 -88 q-43 -102 -129 -305q-25 -53 -101 -201q-23 -41 -57 -121q-6 -23 -6 -34q0 -16 12 -17q12 0 48 11.5t51 11.5q35 0 102 12q61 18 121 64q82 61 86 61q12 0 12 -10q0 -12 -51 -58q-20 -16 -57 -49q-43 -33 -111 -51q-45 -16 -137 -47q-35 -27 -101 -59q-8 -2 -33.5 -10.5 t-41.5 -8.5q-33 0 -58.5 19.5t-25.5 50.5q0 23 16 43q33 47 66 127q47 115 102 198q74 109 74 144q0 8 -6 8t-25 -16q-51 -51 -160 -146q-66 -45 -131 -90q-84 -57 -121 -97t-108 -118q-14 -12 -33.5 -57t-73.5 -119q-43 -59 -73 -60q-63 0 -64 48q0 25 43 100q31 59 98 174 q59 90 91 166q16 55 65 154q31 43 31 69q0 12 -6 12q-10 0 -56 -53q-205 -238 -473 -454q-41 -37 -129 -101q-72 -43 -160 -43q-27 0 -62.5 4t-71.5 10.5t-58 43.5q-33 51 -33 102z" />
<glyph unicode="N" horiz-adv-x="1341" d="M20 29q0 25 15.5 73t30.5 68l40 61q31 43 54.5 55.5t75.5 12.5q67 0 67 -76q0 -63 -24 -94q-12 -16 -48 -35q-25 -14 -24 -31q0 -28 57 -28h4q86 0 209 80q203 131 343.5 269t273.5 341q29 41 57 80q18 31 29 98q20 145 96 246q70 92 121 92q53 0 53 -35q0 -10 -20 -57 q-37 -82 -85.5 -137.5t-48.5 -110.5q0 -10 3.5 -32.5t3.5 -34.5q0 -6 -4.5 -20.5t-4.5 -22.5q0 -23 13.5 -66t13.5 -66q0 -20 -4 -59t-4 -57q0 -43 24 -43q12 0 37 18q362 258 975 500q94 37 621 203q541 168 1001 168h27q285 0 422 -37q233 -63 309 -254q31 -81 31 -97 q0 -23 -33 -22q-12 0 -23 33q-6 23 -12 45q-94 262 -741 262q-371 0 -760 -88q-94 -23 -453 -141q-125 -41 -373 -129q-438 -172 -813 -404q-197 -121 -239 -197q-23 -51 -70 -149q-18 -29 -45 -92q-14 -57 -16 -64q-10 -33 -29 -59q-43 -55 -94 -55q-47 0 -47 26 q0 2 86 170q20 41 51 147.5t31 145.5q0 10 -3 30.5t-3 28.5q0 18 3 52t3 53q0 94 -23 94q-16 0 -65 -76q-84 -129 -158 -196q-78 -80 -246 -223l-184 -132q-127 -86 -189 -108q-35 -12 -51 -12q-4 0 -10 2h-10q-14 0 -43 -10.5t-45 -10.5q-51 0 -90 27q-45 31 -46 80z" />
<glyph unicode="O" horiz-adv-x="856" d="M82 57q0 80 33 136q127 211 233 331q102 113 240 244q59 53 172 162q84 92 125 125q83 67 155 67h2q6 0 17.5 -3t17.5 -3q18 0 58.5 13.5t60.5 13.5q27 0 49 -17q64 -51 64 -94q0 -12 -6 -31q-16 -51 -80 -180q-119 -240 -252 -411q-135 -178 -170 -217 q-104 -117 -211 -170q-213 -106 -344 -107q-164 0 -164 141zM260 29q0 -39 47 -39q117 0 293 96q135 72 274 285q102 174 205 350q123 209 123 264q0 29 -20 29q-25 0 -199 -144q-109 -88 -207 -243q-55 -63 -149 -201q-31 -55 -97 -168q-78 -131 -96 -145q-6 -4 -10 -4 q-16 0 -16 28q0 8 21.5 41t27.5 43q33 47 88 152q43 109 110 205q23 33 142 186q53 68 180 192q67 65 67 80q0 27 -24 27q-18 0 -77.5 -47t-76.5 -72q-53 -59 -153 -180q-74 -94 -256 -344q-123 -164 -170 -297q-27 -74 -27 -94z" />
<glyph unicode="P" horiz-adv-x="1316" d="M139 106q0 84 47 207q41 109 97 189q47 70 129 166q59 74 118 147q80 94 138 123q201 98 413 156q72 20 144 41q87 24 141 24h4q100 0 131 29q59 57 113 57q43 0 43 -20q0 -10 -29 -29.5t-29 -32.5l3 -6q2 -4 14 -10q61 -23 96 -53q98 -92 98 -201q0 -90 -43 -150 q-18 -29 -86 -92q-150 -137 -290 -153q-39 -6 -154 -6q-18 0 -25.5 -10.5t-15.5 -24.5q-12 -25 -33 -49q-12 -16 -98 -127q-127 -166 -281 -275q-190 -137 -360 -137q-285 0 -285 237zM207 127q0 -84 55 -150q34 -38 111 -38h4q162 0 235 34q49 25 128 91.5t110 111.5 q244 360 244 406q0 4 -2 12t-2 12q0 31 30 31q10 0 71.5 95t182.5 278q31 41 31 49q0 20 -39 20q-92 0 -328 -69q-121 -35 -172 -54q-96 -33 -162.5 -66.5t-207.5 -199.5q-289 -346 -289 -563zM1268 604q0 -39 59 -39q43 0 125 25q55 18 107.5 73.5t75 111.5t22.5 140 q0 61 -13.5 83t-52.5 47.5t-61 25.5q-20 0 -39 -24q-25 -35 -123 -226q-100 -197 -100 -217z" />
<glyph unicode="Q" horiz-adv-x="995" d="M47 90q0 57 35 107q45 66 90 129q63 86 98 115.5t78 82.5q33 43 68 86q66 78 157 178q45 45 119 142q16 27 121 123q29 27 92.5 48t106.5 21q108 0 108 -79q0 -9 -2 -27.5t-2 -26.5q0 -43 14 -43q6 0 21 17q37 45 115 135l73 73q59 55 78 60h19q47 0 47 -37 q0 -29 -86 -121q-160 -166 -275 -336q-84 -127 -262 -375q-90 -119 -203 -321q-53 -82 -151 -250q0 -2 -74 -119q-53 -86 -53 -114q0 -12 6 -13q6 2 10 5.5t54 52.5q82 80 247 245q88 94 187 181q43 39 129 112q18 14 59 47q86 68 94 68q10 0 11 -10q0 -8 -17 -27 q-2 0 -63 -55q-133 -115 -443 -438q-96 -111 -291 -304q-49 -37 -135 -114q-92 -100 -116 -101q-43 0 -43 50q0 72 94 192q61 80 123 213q39 88 123 168q23 23 49 70q39 72 41 73q25 39 100 152q16 23 47 68q4 10 4 14q0 8 -10 8q-12 0 -77.5 -54.5t-80.5 -72.5 q-43 -55 -143 -108.5t-168 -53.5q-55 0 -92 56q-31 47 -31 108zM209 96q0 -33 37 -33t125 50q45 27 141 80q90 43 141 108q20 27 76 74q18 16 76.5 99t171.5 251q43 70 43 119q0 16 13.5 48t13.5 50q0 8 3 25.5t3 25.5q0 53 -58 54q-39 0 -98 -23q-113 -43 -258 -246 q-45 -61 -133 -188q-172 -238 -279 -424q-18 -31 -18 -70z" />
<glyph unicode="R" horiz-adv-x="1523" d="M162 76q0 137 53 284q39 115 102 197q53 66 158 154q281 236 694 354q102 29 293 29q33 0 76 41q57 57 70 65q61 39 67 39q16 0 17 -16q0 -29 -45 -72t-45 -57q0 -6 8 -7q53 0 98 -57q35 -47 72 -94q37 -56 37 -109q0 -92 -166 -241q-68 -61 -197 -97q-49 -6 -141 -28 q-10 -4 -10 -8q0 -2 12 -26t12 -46q0 -33 -33.5 -119t-56.5 -117q-35 -47 -39 -57q-14 -27 -14 -68q0 -51 39 -51q78 0 233 109q12 8 215 166q14 12 25 12q12 0 12 -10q0 -12 -129 -123q-57 -49 -113 -98q-66 -53 -127 -84q-106 -55 -143 -56q-23 0 -43 11q-45 18 -54 28 t-22 56q-8 33 -8 63q0 57 59.5 175t59.5 157q0 37 -31 59q-6 0 -53 -55q-57 -68 -148 -154l-90 -94q-66 -63 -98 -78q-45 -25 -139 -67q-14 -8 -43 -25q-20 -10 -99 -27q-86 -22 -150 -22h-5q-170 0 -170 164zM231 84q0 -66 26 -92.5t91 -26.5q150 0 318 117q129 92 270 297 q76 123 242 354q72 78 215 236q45 51 45 57t-11 6q-14 0 -106 -10q-178 -18 -406 -113q-252 -104 -497 -323q-47 -39 -107 -142q-35 -59 -59 -174q-20 -106 -21 -186zM1206 543q0 -18 33 -31q25 -8 47 -8q41 0 135.5 42t147.5 134q29 47 59 94q35 64 35 103q0 57 -27 100 q-33 51 -88 51q-8 0 -14 -4q-12 -6 -166 -236q-49 -61 -137 -190q-25 -43 -25 -55z" />
<glyph unicode="S" horiz-adv-x="946" d="M18 -14q0 8 2 26v27q0 74 9 100q16 47 69 72q43 22 79 22h3q33 0 64.5 -21.5t31.5 -51.5q0 -10 -12 -49q-6 -16 -12 -56q-4 -23 -47 -28h-35q-20 -2 -27 -15q-10 -23 -10 -41q0 -14 10 -30q53 -72 168 -72q31 0 60 4q78 14 180 121q82 86 133 178q35 63 78 164 q14 37 49 106q31 43 31 60q0 10 -13 10q-14 0 -112 -39q-113 -41 -125 -45q-231 -68 -268 -68q-14 0 -15 13q0 25 72 43q256 66 407 151q33 14 69 31.5t52 44.5q39 66 115 197q94 170 260 321q205 186 272 187q72 0 72 -86q0 -57 -59 -166q-53 -94 -105 -148 q-217 -236 -340 -291q-43 -18 -59 -28q-33 -20 -41 -47q-51 -190 -109 -283q-117 -184 -260 -309q-76 -66 -110 -90q-78 -57 -125 -66q-113 -14 -123 -14q-59 0 -113 20q-35 14 -96 64q-70 55 -70 82zM1057 707q0 -6 10 -7q31 0 115 62q74 51 106 86q18 20 80 108l98 136 q68 96 68 141q0 31 -21 31q-29 0 -155 -99q-86 -68 -221 -284q-20 -29 -66 -140q-14 -33 -14 -34z" />
<glyph unicode="T" horiz-adv-x="1130" d="M184 80q0 2 31 74.5t60.5 92t107.5 19.5q51 0 51 -22q0 -12 -3 -35t-3 -35v-10q2 -8 2 -12q0 -39 -65.5 -80t-65.5 -70q0 -61 199 -61q84 0 149 39q154 96 242 251q389 698 569 840q197 154 289 154q49 0 49 -25q0 -10 -135 -67q-104 -45 -231 -177q-61 -63 -115 -174 l-86 -192q-92 -203 -176 -352q-43 -80 -58 -101q-31 -47 -77 -84q-160 -133 -259 -157q-59 -14 -127 -15q-63 0 -151 15q-111 18 -156 86q-41 59 -41 98zM406 727q0 150 131 246q172 127 419 201q76 16 168 49q4 2 4 10l-4 16q-12 43 -100 51h-53q-197 0 -367 -145 q-49 -41 -59 -51q-27 -29 -45 -68q-23 -53 -27 -53q-25 0 -24 25q0 25 38 79q84 119 230.5 196t290.5 77q109 0 159 -35q10 -8 34 -43t32 -35q-4 0 53 13q214 40 368 40h7q412 0 696 -57q129 -31 387 -92q360 -82 807 -82q227 0 332 18q98 18 111 23q55 18 88 70 q37 59 37 112q0 66 -60 127q-39 41 -168 41q-109 0 -209 -22q-25 -6 -327 -103q-29 -10 -50 -10q-29 0 -28 12q0 2 2 4q6 16 190 78q254 84 404 84h20h10q162 0 213 -65q18 -25 39 -78q13 -31 13 -64q0 -115 -99 -198q-86 -72 -469 -72q-373 0 -704 51q-100 16 -410 80 q-367 74 -536 82q-92 6 -195 6q-170 0 -289 -10q-172 -14 -219 -45q-8 -6 -18 -49l-12 -58q-39 -131 -130 -256q-98 -131 -208 -194q-127 -70 -269 -70q-86 0 -141 37q-63 43 -63 127zM502 780q0 -68 43 -106.5t110 -38.5q215 0 359 213q23 39 67 117q16 27 34 85t18 87 q0 23 -23 22q-12 0 -84 -18q-135 -31 -262 -92q-119 -57 -205 -140q-57 -55 -57 -129z" />
<glyph unicode="U" horiz-adv-x="1583" d="M106 207q0 8 48 49q29 27 57 51q39 39 158 150q43 47 133 135q49 43 133 145.5t133 145.5q63 63 190 172q37 27 114 60.5t114 33.5q47 0 78.5 -39t31.5 -86q0 -57 -43 -133q-37 -61 -70.5 -118.5t-47.5 -82.5q-29 -41 -60 -70.5t-157 -209.5q-35 -59 -113 -170 q-25 -29 -47 -56q-33 -39 -35 -61q-10 -63 -12 -63v3q0 -35 39 -34q88 0 233 102q100 72 293 219q57 51 135 156q43 63 137 184q29 29 76 103.5t72 103.5q39 59 131 160q2 0 31 33q20 23 32 22q16 0 31.5 -23.5t15.5 -41.5q0 -63 -170 -285q-113 -139 -225 -281 q-43 -53 -151 -180q-27 -29 -74 -88q-14 -27 -49 -76q-31 -37 -31 -71q0 -63 57 -64q74 0 217 84q37 20 213 158q14 12 25 12q12 0 12 -10q0 -12 -51 -58q-84 -72 -121 -102q-72 -55 -133 -86q-45 -25 -89 -48.5t-97 -35.5q-35 -8 -45 -8q-43 0 -86 28.5t-43 71.5 q0 23 20.5 69t20.5 48q0 18 -21 18q-14 0 -196 -114q-29 -16 -138.5 -55.5t-136.5 -39.5q-43 0 -78 49.5t-35 94.5q0 47 99 180q143 178 284 356q213 268 240 342q20 57 21 80q0 31 -50 31q-55 0 -107 -25.5t-282 -259.5q-143 -150 -289.5 -297t-293.5 -272q-20 -16 -29 -16 q-18 0 -19 10z" />
<glyph unicode="V" horiz-adv-x="845" d="M0 125q0 6 8 12q33 27 98 78q102 84 308 236q61 41 219 186q20 18 55 53q16 37 53 109q14 27 43 82q23 37 62 112q16 23 45 68q51 86 53 88q37 59 60 78q47 33 57 33q69 0 69 -30q0 -21 -102 -165q-45 -61 -94 -158q-57 -111 -68 -168q-14 -33 -32 -98q-2 -20 -29 -84 q-2 -18 -12 -53q-23 -55 -23 -94q0 -25 16 -25q33 0 138 109q174 182 368 319q104 76 318 188q68 39 209 107q258 100 489 100q104 0 221 -24q47 -8 90 -18.5t88 -35.5q37 -23 72 -43t68 -59q71 -82 71 -205q0 -59 -4 -75q-4 -25 -41 -50q-43 -31 -94 -41q-6 -2 -27.5 -10 t-33.5 -8q-23 0 -23 20q0 14 37 35q20 14 62 44t42 61q0 10 -8 53q-20 98 -86 152q-57 47 -143 90q-98 51 -158 55q-174 10 -166 10q-31 0 -211 -33q-143 -27 -378 -143q-49 -31 -154 -80q-106 -41 -324 -215q-195 -156 -297 -266q-55 -61 -170 -168q-78 -57 -131 -174 q-16 -33 -41 -62q-12 -14 -34 -71q-18 -45 -76 -45q-53 0 -53 41q0 20 26 47q51 53 86 162q16 57 33 116q20 70 45 111q16 29 29 80q14 63 22 84q16 37 17 49q0 6 -7 6q-4 0 -24 -18q-70 -63 -116 -95t-382 -290q-104 -80 -117 -80q-18 0 -18 10z" />
<glyph unicode="W" horiz-adv-x="1402" d="M-41 94q0 6 8 12q35 27 105 82q104 86 319 248q59 39 139 109q66 59 134 119q55 59 167 163q55 45 91 99q96 143 170 217q59 61 65 67q51 47 72 52q4 2 16 2q49 0 49 -31q0 -14 -37 -45q-94 -78 -178 -217q-33 -68 -112 -189q-18 -20 -79 -140t-63 -140l4 -2q12 2 37 24 q51 45 226 170q82 51 208 150q23 27 74 80q72 66 111 123q110 159 159 159h1q18 0 18 -14q0 -23 -31 -55q-43 -47 -100 -150q-61 -109 -70 -162q-6 -43 -41 -128t-41 -134q0 -4 -3 -21.5t-3 -27.5t15 -10q18 0 53 41q23 20 67 65q47 55 88 111q35 33 82 98q47 111 121 174 q45 37 47 37q23 14 56 14q63 0 63 -30q0 -18 -68.5 -74.5t-68.5 -91.5q0 -68 184 -68q74 0 494 138q238 78 528 212q444 209 445 293q0 23 -40 33t-40 33q0 12 11 28.5t23 16.5q27 0 64 -47t37 -76q0 -16 -8 -33q-20 -35 -150 -116q-100 -66 -172 -103q-297 -156 -467 -215 q-70 -25 -160 -63q-63 -31 -196 -74q-41 -6 -244 -64q-147 -41 -248 -41q-135 0 -161 31q-2 2 -13 23l-4 2q-10 0 -88 -94q-72 -82 -94 -113q-31 -41 -84 -92q-47 -43 -94 -88q-23 -23 -47 -72q-31 -59 -43 -76q-2 -4 -134 -170q-33 -43 -67 -86q-49 -57 -76 -64t-51 -7 q-49 0 -49 32q0 16 43 64q29 29 57 59q94 117 125 195q39 78 102 239q18 68 37 133q25 76 54 127q12 16 26 50l-2 4l-2 2q6 0 -113 -80q-385 -260 -438 -346q-23 -49 -78 -142q-45 -55 -129 -174q-35 -59 -53 -84q-37 -51 -70 -67q-45 -27 -90 -27q-57 0 -57 35q0 27 43 66 q51 47 53 49q23 23 43 61q2 4 56 82q27 37 55 96q82 178 145 279q86 141 86 139q0 6 -4 6l-123 -100q-49 -45 -153 -127q-100 -68 -396 -299q-109 -86 -125 -86q-18 0 -18 12z" />
<glyph unicode="X" horiz-adv-x="1366" d="M49 59q0 55 23 91q0 2 34 43q25 31 74 90q29 33 47 32q27 0 56.5 -28.5t29.5 -55.5q0 -74 -116 -178q-12 -12 -13 -22q0 -35 103 -35q178 0 389 147q43 31 98 95q27 31 62 88q41 70 57 92q324 453 324 624q0 63 -80 64q-35 0 -109 -23q-84 -23 -84 -45q0 -6 3 -16t3 -16 q0 -102 -28 -168q-18 -45 -95 -148q-123 -172 -317 -172q-129 0 -180 82q-18 33 -19 39q0 47 58 133q106 156 387 256q37 14 37 21q0 14 -37 14q-66 0 -193 -47q-63 -25 -74 -25q-18 0 -18 15q0 12 27 20q59 23 180 64q73 22 149 22h7q41 0 56 -9t21 -9q2 0 94.5 38.5 t151.5 38.5q145 0 160 -135q6 -61 26 -61q14 0 43 26q49 41 152 86q96 43 168 58q100 20 188 20q233 0 353 -159q57 -78 57 -86q0 -29 -31 -29q-10 0 -28 27q-10 20 -21 38q-94 129 -326 129q-287 0 -495 -165q-109 -86 -201 -226q-35 -49 -153 -260q-174 -303 -175 -383 q0 -25 18.5 -55.5t43.5 -30.5q10 0 22 27q57 129 138 194q127 104 186 105q86 0 86 -90q0 -53 -39 -115q-53 -88 -186 -156q-55 -29 -94 -30q-29 -4 -74 -6q-18 -2 -29.5 -38t-11.5 -40q0 -25 -31 -25q-14 0 -14 8q0 4 14.5 41t14.5 54q0 8 -7 10q-51 20 -84 59 q-41 43 -51 127q-2 20 -31 21q-25 0 -63 -27q-82 -55 -215 -104q-143 -51 -229 -52q-74 0 -125 29q-63 35 -64 102zM383 645q0 -41 47 -65q39 -16 84 -17q37 0 102 23q94 35 174 146.5t80 211.5q0 70 -28 70q-6 0 -17 -4q-129 -45 -264 -138q-178 -121 -178 -227zM983 -35 q0 -23 43 -22q98 0 195 67q104 76 104 170q0 49 -35 49t-100 -32q-76 -35 -143 -125q-10 -16 -33 -52q-31 -39 -31 -55z" />
<glyph unicode="Y" horiz-adv-x="1075" d="M-133 -942q0 82 70 158q33 43 100 129q35 41 113.5 119.5t248.5 230.5q49 37 117 110q23 39 74 111q20 23 61 104q20 43 21 48q0 8 -10 8t-82 -33q-45 -20 -88 -41q-102 -43 -197 -43q-70 0 -94 16q-37 23 -37 91q0 51 37 137q2 4 41 61q14 23 37 66q33 66 118 166 q68 78 138 157q125 154 192 289q45 90 45 113q0 12 -12 12q-29 0 -103 -61q-80 -68 -184 -142q-20 -14 -54 -57t-57 -57q-14 -6 -38 -37q-18 -23 -35 -23q-25 0 -25 23q0 25 45 65q63 59 66 62q27 33 74 67q41 29 81 58q53 45 164 129q80 53 115 53q20 0 47 -15.5t27 -33.5 q0 -45 -49 -146q-41 -86 -80 -139q-45 -61 -129 -188q-16 -29 -93 -156q-86 -145 -143 -233q-43 -72 -43 -107q0 -61 60 -61q143 0 299 108q66 47 129 146q53 82 106 163q115 141 326 441q76 121 116 121q29 0 62 -9q45 -12 45 -32q0 -16 -27 -43q-41 -39 -62.5 -77 t-41.5 -77q-4 -4 -66 -82q-43 -51 -127 -152q-66 -84 -194 -251q-74 -94 -166 -234q-98 -154 -98 -164q0 -4 4 -4q-4 0 88 55q51 25 149 76q111 66 194 131.5t91 65.5q12 0 12 -8q0 -29 -192 -172q-10 -8 -183 -113q-219 -133 -254.5 -179t-85.5 -134q-63 -113 -79 -140 q-27 -39 -74 -114.5t-88 -112.5q-49 -57 -158 -158q-47 -39 -94 -75q-59 -41 -113 -41q-57 0 -57 55zM-41 -864q0 -16 23 -17q61 0 239 217q154 190 203 287q4 8 4 12t-2 5q-45 0 -313 -275q-23 -29 -66 -86q-88 -119 -88 -143z" />
<glyph unicode="Z" horiz-adv-x="1052" d="M-244 -795q0 16 15.5 39t23.5 39q37 43 92 113q18 14 54 47q23 27 118 88q70 43 136.5 84t197.5 129q113 72 336 219q39 27 45 57q2 18 2 74q0 20 -2 62.5t-2 62.5q0 66 -72 66q-51 0 -107 -33t-81 -33q-53 0 -53 31q0 35 80 86q35 23 79 29q31 8 95 22q10 0 69 2 q35 0 68 14q102 49 158.5 97.5t126.5 140.5q108 149 108 222q0 5 9.5 19.5t10.5 26t12 46t11 57.5q0 39 -24 88q-23 43 -68 59q-66 20 -129 21q-6 0 -19.5 -7.5t-33.5 -7.5q-43 0 -170 -39q-35 -10 -103 -34q-18 -8 -110 -70q-139 -92 -140 -188q0 -51 46.5 -101.5 t95.5 -50.5q96 0 180 88t84 186q0 55 -35 56q-37 0 -211 -205q-10 -10 -22 -10q-23 0 -23 22q0 41 137 164q88 78 150 78q57 0 91 -38t34 -95q0 -102 -74 -164l-90 -74q-51 -39 -104 -53q-102 -27 -119 -27q-18 0 -43 6q-170 43 -170 181q0 123 90 202q80 72 270 162 q16 6 58 19q78 25 155 49q82 22 152 22h6q96 0 174 -53q14 -6 45 -23.5t55 -99.5q21 -72 21 -121q0 -199 -264 -415q-63 -51 -226 -136q-27 -12 -53 -24q-43 -18 -43 -29q0 -2 10 -20q39 -57 49 -121q6 -29 11 -103q2 -33 12 -32q29 0 223 141q31 25 94 76q14 10 25 10 q10 0 10 -8q0 -23 -145 -139q-131 -102 -182 -134q-31 -18 -39 -36q-6 -10 -17 -54q-8 -33 -43 -90q-35 -45 -100 -135q-74 -100 -201 -215q-137 -123 -231 -160q-47 -29 -142.5 -76t-160.5 -57q-23 -4 -60 -21.5t-57 -19.5q-74 -10 -94 -10q-61 0 -62 59zM-88 -752 q6 4 16 11q27 12 86 22q113 18 303 150q113 78 175.5 137t140.5 168q29 39 57 78q45 59 45 75q-2 4 -4 5q-14 0 -137 -87q-39 -23 -113 -73q-59 -45 -182 -125q-57 -33 -113 -68q-66 -43 -100 -84q-14 -16 -53 -40.5t-56 -43.5q-73 -87 -73 -111q0 -13 8 -14z" />
<glyph unicode="[" horiz-adv-x="1191" d="M229 27q0 55 56.5 162.5t101.5 127.5q76 37 92 37q20 0 39 -22.5t19 -42.5q0 -14 -50 -80q-39 -57 -59 -80q-74 -86 -74 -115q0 -35 39 -55q33 -16 70 -16q104 0 211 75q31 25 71 68q61 70 64 74q72 72 164 205q125 180 153 217q74 90 209 282q33 55 33 68q0 8 -59 8 q-23 0 -71 2t-71 2q-8 0 -24.5 2t-24.5 2q-14 0 -20 -10q-61 -106 -113 -170q-100 -119 -219 -201q-150 -104 -270 -104q-68 0 -117 33q-55 37 -55 100q0 76 59 147q27 33 119 113q131 117 346 158q74 10 147 20q6 4 6 13q0 27 -45 61q-55 45 -170 45q-68 0 -178 -23 q-14 -2 -104 -28q-78 -23 -92 -23q-16 0 -17 15q0 16 41 34q203 90 400 91q74 0 141 -25q82 -31 104 -88q8 -37 33 -80q55 -23 244 -22q43 0 63.5 21.5t53 80.5t57.5 86q66 72 117 98q123 66 209 66q106 0 106 -92q0 -31 -14 -68q-41 -113 -183 -182q-113 -55 -258 -72 q-18 -2 -39 -4q-10 -4 -28 -31q-33 -49 -76 -153q-47 -115 -70 -154q-45 -88 -151 -258q-88 -121 -254 -270q-82 -72 -207 -127q-133 -57 -235 -58q-80 0 -136 33q-84 55 -84 107zM375 600q0 -31 31.5 -51.5t64.5 -20.5q72 0 101.5 26t84.5 38q80 16 205 141 q137 140 137 203q0 31 -57 31q-217 0 -372.5 -115t-184.5 -203q-10 -29 -10 -49zM1507 1028q0 -16 31 -16q86 0 209 69q135 76 135 154q0 53 -55 53q-147 0 -254 -129q-8 -10 -62 -115q-4 -10 -4 -16z" />
<glyph unicode="\" horiz-adv-x="385" d="M-457 -754q0 16 23 58q16 47 72 147q68 102 94 135q53 72 110 121q35 39 111 103q20 10 49 47t41 47q35 57 84 141q104 170 104 184q0 12 -10 13q-6 0 -20.5 -7.5t-44.5 -25.5q-61 -47 -76 -47q-10 0 -10 10q0 8 20 27q14 14 113 94q43 31 121 96q37 35 141 229 q100 188 197 312q33 53 102 135q29 29 84 68q10 2 43 24q23 14 53 14q43 1 43 -38q0 -16 -8 -41q-37 -131 -92 -205q-27 -49 -90 -135q-31 -39 -92.5 -113t-122.5 -121q-37 -43 -125 -121q-20 -25 -70 -71q-14 -12 -31 -54q-20 -51 -26 -63q-72 -119 -72 -139q0 -8 12 -9 q27 0 56 29q25 14 69 47q39 29 113 88q10 10 33 27q8 6 12 6q10 0 10 -16q0 -10 -65.5 -67.5t-81.5 -65.5q-16 -18 -58 -50q-29 -29 -90 -71q-25 -12 -67 -60q-14 -16 -35 -75.5t-37 -79.5q-33 -35 -70 -131q-29 -61 -82 -185q-14 -31 -51 -78t-58.5 -57t-50 -37.5 t-46.5 -36.5q-35 -20 -70 -38.5t-84 -18.5q-74 0 -74 55zM-379 -698q0 -12 17 -13q29 0 67 23q23 23 70 63q45 35 80 109q29 61 57 125q51 92 51 121q0 8 -8 8q-14 0 -41 -27.5t-78 -81.5q-33 -33 -96 -104q-25 -39 -72 -114t-47 -109zM492 518q0 -14 8 -14q16 0 37 28 q27 20 75 64q25 23 68 72q23 29 65 90q18 31 70 110q16 35 55 97q29 34 29 69q0 23 -18 23q-14 0 -25 -15q-25 -23 -68 -71q-35 -33 -86 -103q-8 -20 -37.5 -56t-39.5 -56q-23 -37 -66 -109q-8 -20 -31 -57q-37 -47 -36 -72z" />
<glyph unicode="]" horiz-adv-x="1652" d="M121 217q0 10 117 105q131 109 399 319q106 80 274 154q178 76 299 90q31 4 64 4q203 0 307 -131q94 -119 94 -328q0 -94 -24 -203q-31 -129 -82 -186q0 -2 -74 -92q-51 -63 -63 -64q-4 0 -5 11q0 12 19 36q147 190 147 496q0 139 -55 219q-121 178 -297 178 q-158 0 -371 -102q-180 -86 -331 -207q-229 -186 -379 -297q-23 -18 -31 -18t-8 16z" />
<glyph unicode="^" horiz-adv-x="868" d="M397 553q0 8 62 57q35 27 135 146q33 37 70 92q51 74 129 151q35 33 98 101q35 49 72 96q55 72 81 74l7 2q39 0 39 -27t-48.5 -79t-50.5 -87q-10 -131 -10 -166q0 -39 6 -86q2 -61 8 -182q-2 -43 9 -123q8 -33 8 -59q0 -80 -41 -80q-49 0 -62 197q-10 57 -24 172 q-12 139 -13 186q0 55 -14 55q-20 0 -65 -53q-33 -45 -101 -133q-43 -45 -119 -143q-23 -37 -65 -78q-51 -49 -82 -49q-29 0 -29 16z" />
<glyph unicode="_" horiz-adv-x="1136" d="M-29 -141q0 39 64 39q25 0 75 -3.5t74 -3.5q47 0 140.5 5.5t138.5 5.5t135 -5.5t133 -5.5q74 0 218.5 3.5t215.5 3.5q21 -1 21 -17q0 -45 -56 -45l-172 2q-12 0 -39.5 -2t-41.5 -2q-41 0 -125 2h-125q-23 0 -71 2t-73 2q-41 0 -121.5 -2t-119.5 -2q-20 0 -62 2h-61h-25 q-18 -2 -26 -2q-96 0 -97 23z" />
<glyph unicode="`" horiz-adv-x="411" d="M477 1085q0 12 16.5 23.5t30.5 11.5q16 0 31 -20q6 -12 23 -47q70 -143 192 -203q258 -123 258 -178q0 -8 -14 -8q-49 0 -230 102q-45 14 -122 61q-33 31 -105 123q-80 106 -80 135z" />
<glyph unicode="a" horiz-adv-x="563" d="M4 8q0 82 29 117q14 20 47 57q43 43 139 121q145 94 191 94q43 0 56 -30.5t23 -30.5q14 0 32 19.5t42 19.5q33 0 33 -23q0 -16 -97.5 -131t-97.5 -147q0 -29 19 -29q41 0 171 105.5t142 105.5q10 0 10 -10t-18 -27q-45 -45 -154 -133q-125 -100 -163.5 -112.5 t-61.5 -12.5q-37 0 -54.5 32t-23.5 32q-12 0 -73 -39q-41 -29 -97 -29q-94 0 -94 51zM150 82q0 -35 32 -35q29 0 82 37t76 63q86 109 86 166q0 27 -25 27q-63 0 -157 -95t-94 -163z" />
<glyph unicode="b" horiz-adv-x="665" d="M74 20q0 121 73 226q29 27 82 84q133 162 213 295q37 63 115 163q82 109 115 160q20 35 40.5 67t55.5 64q49 47 143 140q57 57 82 57q20 0 34.5 -17.5t14.5 -37.5q0 -18 -42 -122t-105 -192q-51 -76 -164 -221q-55 -63 -145 -141q-76 -63 -152 -129q-41 -35 -49 -45 q-16 -18 -39 -60q0 -2 -94 -139q-61 -92 -62 -145q0 -41 25 -41q49 0 139 88t99 139q2 10 2 63q0 82 39 117q53 49 98 49q43 0 43 -55q0 -27 -46 -99.5t-46 -111.5q0 -47 57 -47t140 63.5t89 63.5q12 0 13 -10q0 -8 -51 -58q-118 -110 -209 -110h-2q-27 0 -50.5 11t-42.5 34 q-2 2 -6 4q-2 0 -6 -4q-39 -33 -110 -100q-102 -100 -172 -101q-119 0 -119 98zM451 502q20 0 110 80q80 74 105 104q57 70 98 135q18 31 61 90q16 18 49 84t33 86q0 8 -6 9q-27 0 -86 -56q-47 -41 -72 -71q-43 -66 -129 -191q-31 -39 -86 -123q-2 -4 -45 -74 q-34 -55 -34 -68q0 -5 2 -5z" />
<glyph unicode="c" horiz-adv-x="471" d="M4 16q0 139 197 285q160 119 200 119q104 0 105 -80q0 -23 -32 -59.5t-54 -36.5q-14 0 -26.5 14t-12.5 31q0 6 5 22.5t5 24.5q0 16 -10 16q-23 0 -78 -30.5t-61 -49.5q-2 -10 -21.5 -41.5t-19.5 -49t-22.5 -59.5t-22.5 -67q0 -49 47 -49q25 0 65 21q25 10 76 34 q14 6 82 48q20 12 63 38q20 14 121 97q12 12 25 12q10 0 10 -10q0 -12 -51 -58q-160 -141 -315 -206q-92 -39 -121 -39q-68 0 -92 10q-61 20 -62 63z" />
<glyph unicode="d" horiz-adv-x="690" d="M12 33q0 61 99 180q49 61 157 131q119 76 185 76q25 0 55.5 -29t38.5 -29q14 0 28 19q0 2 52 84q106 156 307 471q25 43 51.5 88t58.5 76q92 86 105 86q35 -1 35 -56q0 -14 -29 -57q-33 -49 -39 -63q-43 -68 -104 -164q-41 -80 -123 -201q-74 -76 -89.5 -117t-119.5 -153 q-45 -49 -111 -139q-82 -111 -82 -144q0 -53 45 -53q41 0 179.5 108.5t148.5 108.5t10 -10q0 -20 -141 -133q-133 -109 -172 -125q-61 -29 -106 -29q-31 0 -55.5 18.5t-24.5 47.5q0 6 -4 6t-83 -43t-139 -43q-133 0 -133 88zM180 59q0 -16 12.5 -31.5t28.5 -15.5 q27 0 150 99q43 33 64.5 70.5t41.5 78.5q17 27 17 45q0 16 -16.5 33.5t-33.5 17.5q-18 0 -63 -20q-37 -16 -98 -88q-18 -29 -52 -86q-51 -86 -51 -103z" />
<glyph unicode="e" horiz-adv-x="411" d="M-31 57q0 33 47 89.5t98.5 114.5t116.5 95q94 53 123 54q35 0 35 -41q0 -86 -95 -157t-159 -91q-14 -6 -15 -7t-5 -16q-16 -41 -17 -49q0 -33 58 -33q63 0 153 47q53 29 244 181q14 12 25 12q12 0 12 -10q0 -12 -51 -58q-129 -113 -213 -161q-127 -74 -252 -74 q-104 0 -105 104zM158 195q0 -6 8 -7q16 0 62 31t59 47q18 31 18 47q0 4 -2 6h-8q-27 0 -82 -50t-55 -74z" />
<glyph unicode="f" horiz-adv-x="456" d="M-410 -698q0 41 60 110q41 47 74 92q27 41 88 113q37 33 208 315q20 35 60 103q6 16 20 45q35 66 35 86q0 12 -10 12q-12 0 -38 -20.5t-40 -20.5q-23 0 -22 10q0 4 22 21q43 37 127 108q59 49 148 189q61 98 182 293q76 121 108 166q70 96 129 151q109 100 119 101 q45 0 45 -41q0 -8 -6 -19q-6 -25 -22 -74q-12 -41 -46 -98q-18 -51 -59 -151q-33 -78 -133 -193q-84 -96 -154 -162q-37 -31 -98 -94q-20 -27 -78 -92q-23 -23 -47 -66q-26 -47 -26 -71q0 -22 20 -40t39 -18q72 0 200 99.5t134 99.5q10 0 10 -10t-166 -154 q-25 -23 -51.5 -45t-56.5 -33q-53 -20 -76 -20t-57.5 8t-43.5 8q-14 0 -32 -35q-35 -49 -99 -157q-6 -20 -20 -64q-10 -25 -57 -100q-37 -61 -60.5 -109.5t-85.5 -140.5q-49 -49 -104 -125q-8 -35 -68 -35q-27 0 -49.5 16.5t-22.5 41.5zM389 436q0 -8 4 -8q6 0 21 12 q49 41 139 129q53 61 104 140q68 104 68 155q0 18 -10 19q-16 0 -74 -58q-47 -47 -66 -71q-25 -41 -77 -119q-109 -160 -109 -199z" />
<glyph unicode="g" horiz-adv-x="593" d="M-424 -887q0 115 70 221q49 72 159 172q37 39 119 107q37 25 88 74q63 59 86 77q92 72 131 156q43 92 49 92q1 0 1 -2q0 2 -3 2q4 0 -63.5 -32.5t-116.5 -32.5q-39 0 -66.5 40t-27.5 81q0 61 41 102q74 76 164 135q117 78 192 78q39 0 50 -29q4 -16 14 -16t33.5 28.5 t62.5 28.5q51 0 51 -37q0 -16 -31.5 -67t-48.5 -68q-63 -70 -88 -110q-29 -49 -67 -127l-2 -2q2 -2 4 -2q16 0 356 262q14 12 25 12q10 0 10 -10q0 -23 -154 -144q-129 -102 -188 -141q-100 -66 -143 -115q-49 -80 -140 -219q-115 -178 -147 -225q-88 -125 -172 -205 q-137 -131 -213 -131q-35 0 -35 47zM-365 -831q0 -14 9 -15q16 0 98 74q47 41 197 231q157 201 157 232q-2 6 -6 6h1q0 -4 -52 -39q-121 -82 -262 -238q-98 -111 -127 -194q-14 -41 -15 -57zM131 45q0 -31 33 -31q47 0 135 66q33 27 90 133q19 34 19 59q0 41 -33 41 q-8 0 -24.5 -9t-20.5 -11q-51 -16 -125 -105.5t-74 -142.5z" />
<glyph unicode="h" horiz-adv-x="704" d="M-18 -31q0 27 55 87.5t55 82.5q0 6 -4 6t-27.5 -13t-33.5 -13l-4 2q-4 8 -5 14q0 12 27 29q113 74 166 153q43 57 121 177q59 111 194 323q72 92 224 264q139 137 151 138h8q6 2 9 2q16 0 34.5 -19t18.5 -33q0 -55 -37 -118q-23 -51 -105 -177q-123 -150 -204 -229 q-39 -45 -123 -131q-31 -25 -88.5 -76t-57.5 -67q0 -8 4 -9q8 0 66.5 37t89.5 37h16.5h16.5q35 0 55.5 -18.5t38.5 -34.5q20 -23 21 -43q0 -31 -46 -88q-33 -43 -65 -84q-2 -2 -53 -68q-41 -55 -41 -61q0 -23 37 -23q57 0 192 103q84 61 164 125q14 12 25 12q10 0 10 -10 q0 -8 -17 -27q-4 -4 -90 -78q-57 -53 -180 -145q-70 -45 -151 -45q-51 0 -66.5 10t-38.5 55q-10 23 -10 41q0 27 38 70t109 141q49 82 49 97q0 20 -18 20q-8 0 -62.5 -29.5t-146.5 -93.5q-41 -35 -59.5 -76t-55.5 -118q-8 -25 -16 -49.5t-37 -43.5q-70 -45 -123 -45 q-31 0 -30 39zM432 537q0 -6 4 -7q18 0 170 168q57 61 115 123q68 74 103.5 129.5t35.5 102.5q0 23 -14 22q-53 0 -277 -293q-14 -18 -53 -84q-84 -143 -84 -161z" />
<glyph unicode="i" horiz-adv-x="337" d="M-4 8q0 20 16 47q2 4 60 92q14 31 55 84q10 8 76 99q52 73 81 73h1q45 0 45 -41q0 -23 -21 -45q-41 -47 -92 -124q-63 -96 -63 -132q0 -18 32 -18q37 0 293 201q12 12 25 12q10 0 10 -10q0 -20 -201 -183q-100 -80 -157.5 -102t-87.5 -22q-25 0 -48.5 21.5t-23.5 47.5z M608 918q0 12 27 65q16 33 24 39q14 14 46 14h4q59 0 59 -32q0 -41 -39 -85.5t-82 -44.5q-39 0 -39 44z" />
<glyph unicode="j" horiz-adv-x="387" d="M-764 -969q0 45 70 150q190 279 477 512q70 55 106.5 118.5t108.5 193.5t72 124q0 10 -7 10q-4 0 -24.5 -16.5t-32.5 -16.5q-18 0 -18 13q0 6 88 76q63 53 92 96q57 88 70 106q55 66 102 66q53 0 53 -37q0 -18 -39 -53q-76 -68 -104 -117q-33 -59 -103 -176q0 -4 -49 -77 t-49 -77q0 -12 8 -12t59.5 35t159.5 106q14 8 250 189q14 12 25 12q10 0 10 -10q0 -25 -172 -158q-53 -43 -168 -117q-45 -33 -141 -96q-51 -29 -92 -84q-4 -6 -64 -113q-45 -80 -102 -167q-201 -305 -303 -392q-92 -76 -99 -80q-68 -49 -110 -49q-20 0 -47 12.5t-27 28.5z M-641 -866q0 -12 16 -13q27 0 62 31q76 72 176 184q25 29 84 119q108 160 108 170q0 6 -4 6q-25 0 -188 -161q-18 -31 -98 -107q-29 -20 -90 -108q-66 -94 -66 -121zM662 1030q0 6 2 16.5t2 16.5q0 4 -2 10v10q0 57 79 58q23 0 44.5 -13.5t21.5 -33.5q0 -6 -10 -17 q-4 -20 -45 -73q-29 -25 -47 -25q-45 0 -45 51z" />
<glyph unicode="k" horiz-adv-x="718" d="M23 -2q0 23 66.5 107.5t66.5 99.5q0 2 -4 4q-6 0 -51.5 -39t-61.5 -39q-14 0 -14 14q0 8 33.5 35t99.5 82q31 25 90 76q86 92 145 178q88 121 260 361q45 51 125 157q78 119 140 183q16 16 32.5 35.5t36.5 19.5l31 2q39 0 39 -23q0 -18 -11.5 -33.5t-25.5 -76.5 q-18 -82 -74 -164q-106 -162 -229 -283q-80 -70 -228 -223q-18 -29 -55 -84q-35 -47 -69 -94q0 -16 38 -17q35 0 72 25q47 31 62.5 36t72.5 46q43 31 99 31q59 0 59 -60q0 -25 -22.5 -44t-47.5 -19q-36 0 -36 46q0 11 -7 11q-6 0 -67 -35q-70 -41 -78 -45q-41 -12 -86 -41 q-2 -6 -2 -10t17.5 -30.5t23.5 -80.5q2 -23 6 -45t27 -28q8 -2 18 -2q74 0 219.5 112.5t151.5 112.5q10 0 10 -10t-18 -27q-72 -72 -181 -156q-94 -70 -147 -86t-148 -16q-33 0 -66.5 21.5t-33.5 54.5q0 18 14.5 55t14.5 58q0 39 -31 38q-18 0 -29 -14q-33 -43 -90 -129 q-23 -43 -24 -47q-18 -27 -38 -29t-40 -2q-55 0 -55 31zM553 616q0 -6 4 -6q2 0 119 105q172 156 237 309q9 23 9 33q0 12 -13 12q-10 0 -90 -78q-96 -96 -166 -205q-100 -156 -100 -170z" />
<glyph unicode="l" horiz-adv-x="456" d="M23 147q0 4 22 21q43 37 127 108q37 33 104 105q106 152 199 301q43 70 205 274q47 53 141 160q55 68 99 68q20 0 49.5 -25.5t31.5 -48.5q3 -6 3 -18q0 -59 -43 -117q-43 -76 -138 -221q-86 -115 -233 -246q-57 -51 -141 -109q-25 -16 -70 -54t-148 -220q-23 -39 -22 -53 q0 -33 41 -33q12 0 51 10q74 20 133.5 64.5t167.5 130.5q14 12 25 12q12 0 12 -10q0 -12 -49 -55.5t-90 -77.5q-63 -51 -162 -107q-115 -65 -170 -65h-2q-29 0 -62.5 28.5t-33.5 55.5q0 16 31.5 73.5t31.5 75.5q0 8 -6 8q-10 0 -39 -22.5t-43 -22.5q-23 0 -22 10zM418 455 q0 -6 4 -4q27 10 98 67q25 18 55 43q66 55 109 107q229 278 229 354q0 18 -12 18q-100 0 -315 -323q-35 -43 -97 -131q-72 -131 -71 -131z" />
<glyph unicode="m" horiz-adv-x="1081" d="M55 168q0 8 23 27q68 55 201 163q35 27 75 27q18 0 43 -8q33 -12 33 -27q0 -8 -16.5 -38.5t-16.5 -37.5h4t105.5 61.5t138.5 61.5q18 0 47 -19.5t29 -37.5q0 -12 -11.5 -40t-11.5 -36q0 -2 2 -4q-6 0 86.5 57.5t186.5 57.5q69 0 69 -68q0 -80 -161 -215q-16 -14 -17 -24 q0 -27 43 -27q59 0 196.5 107.5t145.5 107.5q11 0 11 -10q0 -27 -205 -187q-43 -33 -56 -41q-29 -16 -65 -26q-106 -33 -123 -33q-20 0 -49 26.5t-29 47.5q0 20 23.5 59t45 55.5t68.5 71.5q55 61 56 78q0 16 -21 16q-33 0 -94 -37.5t-84 -66.5q-33 -41 -117 -129 q-92 -96 -114.5 -110.5t-36.5 -14.5q-20 0 -43 17.5t-23 35.5q0 10 10 19q37 35 109 108q18 25 57 84q45 70 45 84q0 6 -14 6q-23 0 -47 -10q-80 -35 -164 -98q-14 -12 -129 -131q-102 -106 -117.5 -108.5t-31.5 -2.5q-53 0 -54 21q0 33 116 155.5t116 157.5q0 8 -10 8 q-23 0 -113 -74.5t-100 -74.5t-11 16z" />
<glyph unicode="n" horiz-adv-x="737" d="M45 -10q0 16 18 39q43 51 121 159q4 6 37 52q29 39 29 45q0 4 -4 6q-2 0 -86 -69.5t-94 -69.5t-11 16q0 8 23.5 27.5t130.5 115.5q20 27 70 68q20 12 36 12q18 0 35 -20.5t17 -38.5q0 -12 -15.5 -34t-15.5 -28t6 -6q10 0 101.5 57.5t160.5 57.5q29 0 52.5 -28.5 t23.5 -57.5q0 -47 -100.5 -151.5t-100.5 -118.5l2 -5q8 -8 25 -8q66 0 137 53q111 82 234 181q14 12 24 12t10 -10q0 -25 -213 -193q-70 -53 -118 -71q-111 -39 -140 -39q-35 0 -75 57q-10 10 -11 25q0 41 107.5 149.5t107.5 124.5t-37 16q-33 0 -81 -32q-37 -25 -76 -52 q-61 -37 -113 -108q-39 -47 -104 -148q-12 -23 -39 -22q-74 0 -74 37z" />
<glyph unicode="o" horiz-adv-x="546" d="M4 45q0 47 123 184q78 86 170 129q29 16 60.5 34t56.5 18q27 0 41 -19q47 -66 47 -78q0 -4 -2 -15t-2 -17t2 -18.5t2 -18.5q0 -27 -17.5 -47.5t-17.5 -28.5q0 -33 43 -33q39 0 113.5 60.5t85.5 60.5q12 0 12 -10q0 -20 -90 -90q-82 -63 -113 -74q-14 -4 -31 -4 q-37 0 -64.5 18.5t-23.5 18.5q-12 0 -34 -33q-29 -47 -103 -96t-127 -49q-131 0 -131 108zM172 74q0 -45 41 -45q37 0 92 55q47 47 68 88q8 18 8 41q0 6 -2 17.5t-2 17.5q0 25 11 45t11 22q0 16 -26 17q-10 0 -29 -6q-33 -12 -102.5 -110.5t-69.5 -141.5z" />
<glyph unicode="p" horiz-adv-x="677" d="M-393 -590q0 45 43 96q6 8 76 78q150 152 243 299q98 158 162 250q27 37 27 55q0 8 -4 9q-6 0 -37 -23.5t-43 -23.5q-23 0 -23 10q0 6 25 24q51 47 160 138l57 57q37 31 115 170q74 127 106 143q16 8 40 38t40 38q49 27 63 27q37 0 37 -19q0 -8 -16 -39q-41 -76 -90 -131 q-139 -160 -139 -176q0 -8 6 -8q4 0 49 18.5t47 18.5q16 6 37 6h12q6 -2 10 -2q61 0 62 -98q0 -80 -41 -134q-31 -41 -109 -94q-4 -2 -73 -28q-57 -23 -58 -37v-19q8 -49 64 -49q59 0 344 223q12 12 24 13q11 -1 11 -11q0 -14 -93 -92q-78 -66 -114 -90q-150 -104 -215 -104 q-20 0 -45 10q-90 33 -91 98q0 27 66 74q102 76 123 96q65 62 65 123q0 35 -28 35q-49 0 -133 -76q-43 -37 -93 -100q-39 -55 -79 -111q-125 -160 -232 -373q-35 -53 -102 -165q0 -2 -17.5 -46.5t-76.5 -91.5q-25 -18 -43 -18q-10 0 -37 -10.5t-43 -10.5q-39 0 -39 33z" />
<glyph unicode="q" horiz-adv-x="665" d="M-55 -631q0 6 25.5 45t30.5 51.5t22 59.5q29 84 163 309q76 125 76 135q0 12 -8 13q-8 0 -23 -9q-43 -28 -115 -28h-5q-33 0 -48 6q-59 27 -59 65q0 16 49 99q72 119 142 174q47 39 194 110q59 29 62 29q10 0 39.5 -11t34.5 -17.5t5 -34.5q0 -4 2 -5q2 0 18.5 14.5 t35.5 14.5q43 0 43 -18t-41 -70q-27 -33 -56 -68q-8 -29 -34 -79q-23 -20 -58 -74q-10 -27 -49 -84q-49 -72 -59 -88q-20 -29 -53 -86q-8 -18 -29 -58q-10 -16 -10 -22q0 -4 4 -4q10 0 35 22q18 16 36.5 33t67.5 70q70 78 199 205q53 39 157 120q86 68 95 68q12 0 12 -10 q0 -16 -103 -101l-122 -98q-49 -43 -177 -182q-31 -31 -90 -92q-23 -33 -78 -90q-39 -31 -83 -117q-25 -45 -58 -101q-45 -74 -87 -96t-71 -22q-33 0 -32 22zM180 63q0 -27 21 -26q86 0 159 84q68 78 103 149q22 50 22 62q0 16 -26 16q-74 0 -84 -22q-25 -20 -58 -52 q-33 -37 -67 -71q-37 -43 -53 -80q-2 -12 -9.5 -30.5t-7.5 -29.5z" />
<glyph unicode="r" horiz-adv-x="489" d="M8 135q0 -2 105 88q90 76 120 127q12 33 27 66q18 41 51 41q14 0 35 -17.5t21 -31.5q0 -18 -22.5 -45t-22.5 -41q0 -23 34.5 -36.5t34.5 -39.5q0 -10 -12 -19q-23 -16 -66 -68.5t-48 -74t-5 -33.5q0 -33 29 -33q72 0 346 226q14 12 24 12q13 0 13 -10q0 -27 -219 -191 q-53 -39 -164 -102q-49 -20 -74 -21q-37 0 -73 37t-36 74q0 49 68 108.5t68 61.5q0 33 -29 33q-18 0 -91 -60.5t-97 -60.5q-16 0 -17 10z" />
<glyph unicode="s" horiz-adv-x="479" d="M-43 43q0 43 14 63q8 12 33 41q23 18 36 20.5t34 20.5q45 35 135 109q33 23 70 57q4 8 26 31q49 43 137 43q58 0 58 -33q0 -31 -43 -43q-53 -14 -70 -39q-6 -10 -6 -41q0 -6 9 -19t11 -17q14 -31 15 -74q0 -53 -39 -103q-68 -86 -141 -114q-80 -31 -111 -31 q-72 0 -120 37t-48 92zM100 23q0 -41 41 -41q61 0 98 39t37 98q0 20 -10 59t-10 60q0 -4 6 53q0 2 -2 2q-10 -2 -83 -62.5t-73 -66.5q0 -4 5 -6q31 -18 30 -37q0 -29 -19.5 -54.5t-19.5 -43.5z" />
<glyph unicode="t" horiz-adv-x="448" d="M6 614q0 16 19.5 20.5t148.5 3.5q23 0 66 4.5t65 4.5h53q37 -2 56 -2q49 0 65 14q61 51 101 129q37 72 122 168l46 58q33 37 57 41q18 2 31 2q33 0 32 -21q0 -16 -30.5 -65t-49.5 -64q-39 -31 -83 -100q-23 -33 -87 -107q-10 -12 -10 -20q0 -27 54 -31q16 -2 137 -6 q147 -4 143 -5h16q68 4 205 11h19q27 0 78 -5t75 -6q14 0 42 2.5t40 2.5q29 0 29 -16q0 -29 -45 -31h-44q-73 0 -190 -4q-51 -2 -69 -2q8 0 -49 6q-31 4 -82 4h-54q-43 0 -123.5 -6t-121.5 -6q-10 0 -33 2h-33q-80 0 -213 -217q-33 -41 -88 -131q-8 -23 -27 -64 q-6 -14 -38 -59q-27 -35 -27 -62q0 -37 33 -37q61 0 215.5 118t160.5 118q10 0 11 -10q0 -12 -51 -58q-70 -61 -216 -170q-29 -14 -83 -43q-10 -8 -53.5 -19t-57.5 -11q-33 0 -64.5 24.5t-31.5 57.5q0 25 43 96q20 35 43 70q-2 2 -8 2q-10 0 -50.5 -32t-56.5 -32 q-20 0 -20 8q0 6 22 23q51 49 162 141q86 66 203 242q14 23 14 30q0 10 -11.5 11.5t-34 5.5t-36.5 4q-12 0 -39 -4t-39 -4h-31q-18 2 -30 2h-62q-106 0 -120.5 6t-14.5 18z" />
<glyph unicode="u" horiz-adv-x="661" d="M-27 37q0 96 123 174q23 14 68 51q27 31 50.5 57.5t64.5 49.5q20 12 36 12q35 0 35 -43q0 -31 -65 -86q-182 -154 -183 -225q0 -23 25 -23q66 0 221 121q18 16 78 92q33 25 100 96q27 37 35 47q25 25 49 25h13q45 2 45 -25q0 -37 -58 -88q-72 -63 -80 -77 q-77 -131 -77 -163q0 -13 16 -14q45 0 200.5 121t164.5 121q10 0 10 -8q0 -25 -152 -143q-141 -109 -183 -131.5t-142 -22.5q-47 0 -48 33q0 6 2.5 16t2.5 16q0 20 -11 21q-33 0 -108 -53q-55 -39 -139 -39q-92 0 -93 88z" />
<glyph unicode="v" horiz-adv-x="698" d="M57 166q0 6 11 18q2 2 46 42t103 91q10 4 36 33t59.5 36t52.5 7q51 0 51 -39q0 -16 -70 -145q-4 -6 -59 -80q-43 -55 -43 -82q0 -23 22 -22q25 0 78 38q43 31 68.5 55.5t72.5 71.5q4 6 9.5 47.5t23.5 69.5q59 84 113 84q49 0 49 -43q0 -25 -41 -65.5t-41 -83.5 q0 -25 16.5 -46.5t40.5 -21.5q41 0 123 62.5t90 62.5q11 0 11 -10q0 -16 -68 -72q-53 -43 -88 -65q-47 -29 -94 -29q-43 0 -82 28l-39 27q-4 0 -102.5 -82t-126 -93t-64.5 -11q-23 0 -41 6q-41 12 -45 14q-18 10 -18 39q0 31 24 86q25 49 49 76q18 20 49 66q20 25 41 57 q-2 4 -6 6q-6 0 -92 -70.5t-108 -70.5q-10 0 -11 8z" />
<glyph unicode="w" horiz-adv-x="1015" d="M27 145q0 6 8 13q20 16 61 49q20 20 66 57q35 27 76 58q20 25 67 57q35 14 53 14q39 0 39 -45q0 -12 -8 -22q-27 -31 -78 -97q-14 -41 -55 -123q-41 -63 -41 -69q0 -23 37 -23q66 0 115 86q31 29 86 95q37 59 86 104q86 82 108 82q45 0 45 -47q0 -14 -61 -86 q-68 -78 -78 -102.5t-27 -67.5q2 -18 -12 -53q-4 -4 -4 -9q0 -27 49 -26q37 0 123 69q51 43 100 138q20 41 21 39q0 4 -9.5 25.5t-9.5 35.5q0 25 37 54.5t64 29.5q20 0 40.5 -12.5t20.5 -32.5q0 -10 -15.5 -43t-15.5 -49q0 -72 21.5 -92.5t32.5 -20.5q41 0 123 62.5t90 62.5 q10 0 10 -10t-51 -58q-122 -112 -204 -112h-1q-37 0 -66.5 31.5t-35.5 31.5t-50 -45q-27 -31 -96 -84q-76 -59 -103.5 -69.5t-54.5 -10.5q-10 0 -32.5 2t-32.5 2q-31 0 -54.5 44.5t-35.5 44.5q-33 0 -82 -48q-14 -12 -66.5 -25t-74.5 -13q-29 0 -58 14q-37 18 -37 43 t49.5 103.5t49.5 86.5q-2 4 -4 6h-9q-12 0 -48 -27.5t-46 -27.5q-23 0 -22 10z" />
<glyph unicode="x" horiz-adv-x="692" d="M-39 82q0 41 43 80q18 14 49 31q29 2 60 28q41 41 133 109q43 23 86 43t94 20q41 0 49 -35.5t14 -35.5q-2 0 61.5 49t119.5 49q57 0 57 -64q0 -16 -16.5 -40.5t-32.5 -24.5q-14 0 -33.5 19.5t-34.5 19.5q-49 0 -92 -68q-16 -27 -32.5 -51.5t-26.5 -63.5q-12 -57 -13 -73 q0 -37 39 -37q88 0 138 41q51 35 147 110l70 56q14 12 24 12q13 0 13 -10t-19 -27q-37 -37 -174 -149q-25 -23 -84 -64q-98 -49 -194 -49q-27 0 -55.5 38t-41.5 38q2 0 -59.5 -39t-108.5 -39q-68 0 -114 37q-66 47 -66 90zM119 49q0 -35 53 -35q43 0 107 68q25 29 38 90 q4 18 17 42l37 73q0 29 -39 28q-33 0 -117 -55t-84 -80q0 -4 11.5 -16t11.5 -25q0 -18 -17.5 -50t-17.5 -40z" />
<glyph unicode="y" horiz-adv-x="827" d="M-283 -733q51 61 144 192q39 63 127 121q29 18 81 70.5t83 73.5q164 100 227 233q18 31 37 70l-2 2q-23 0 -78 -28t-90 -28q-41 0 -72 25t-31 63q0 72 98.5 163t98.5 110q0 12 -8 12q-12 0 -43 -27q-23 -12 -60 -47q-10 -14 -41 -36q-37 -23 -47 -35q-53 -55 -71 -56 q-14 0 -15 19q0 12 15 24q27 18 75 64q137 147 213 176q43 14 56 14q20 0 43.5 -31.5t23.5 -54.5q0 -57 -103.5 -145t-103.5 -135q0 -27 25 -27q23 0 70 27q111 63 172 133q31 35 90 106q43 66 78 88q23 16 88 17q14 0 14 -29q0 -47 -96 -135q-31 -29 -103 -102 q-29 -33 -82 -105q-65 -89 -65 -109v-1q0 -4 4 -5l109 50q108 49 186 102q31 20 166 125q55 45 63 45q13 0 13 -10q0 -12 -52 -58q-215 -188 -403 -276q-72 -33 -158 -82q-12 -14 -55 -92q-31 -55 -96 -166q-53 -82 -105 -166q-74 -111 -117 -147q-164 -141 -266 -142 q-69 0 -69 62q0 39 32 88zM-213 -768q0 -12 12 -12q23 0 97 55q59 45 92 76q49 49 205 278q47 74 47 84q0 4 -2 4q-14 0 -78 -51q-51 -43 -74 -65q-53 -55 -117 -99q-41 -27 -111.5 -145.5t-70.5 -124.5z" />
<glyph unicode="z" horiz-adv-x="495" d="M-262 -696q0 66 94 190q68 88 141 162q86 82 185 194q39 45 61.5 67t22.5 32q0 45 -49 45q-14 0 -52.5 -18.5t-54.5 -18.5q-18 0 -18 14t51 62q33 29 65 57q147 154 148 158q0 6 -28 17t-38 11q-27 0 -118 -76.5t-115 -76.5q-18 0 -19 16q0 6 9 13q35 20 59 40.5t74 67.5 q37 27 92 90l28 58q20 37 46 36q45 0 45 -32q0 -8 -5.5 -21.5t-5.5 -17.5q0 -27 45 -27q14 0 46 21.5t53 21.5q55 0 53 -41v-4q-2 -33 -77 -70.5t-126 -80.5q-27 -29 -80 -80q-14 -12 -14 -23q0 -14 29.5 -26.5t36 -26.5t14.5 -14q29 0 301 221q14 12 25 12q12 0 12 -10 t-19 -27q-35 -31 -106 -92q-35 -33 -111 -90q-98 -63 -98 -103q0 -23 -80 -204q-121 -270 -274 -367q-137 -86 -222 -86q-27 0 -26 27zM-201 -657q0 -6 4 -7q33 0 72 29q35 23 102 78q37 35 93 102q61 78 73 113q4 8 43 92q33 68 33 82q0 4 -2 6h-2q-6 2 -86 -82 q-47 -51 -94 -100q-63 -63 -178 -199q-57 -82 -58 -114z" />
<glyph unicode="{" horiz-adv-x="1103" d="M-4 125q0 12 57 49q29 27 88 68q51 23 82 84q10 20 37 41q33 29 41 36q43 53 72 54q35 0 35 -31q0 -12 -44.5 -76.5t-60.5 -81.5q-12 -25 -45 -71q-8 -25 -37 -72q-16 -18 -16 -39q0 -14 10 -14q14 0 98 65q98 76 107 80q74 63 160 133q27 25 79 58q20 8 50 8 q47 0 47 -37q0 -12 -7.5 -28.5t-7.5 -24.5q0 -33 23 -33q12 0 76.5 49t81 52t34.5 3q88 0 88 -82q0 -25 -20 -49q-16 -31 -57 -90q-27 -37 -78 -88q-23 -12 -23 -37q0 -23 37 -22q76 0 340 215q14 12 25 12q12 0 12 -10q0 -16 -123 -117q-94 -78 -149 -119 q-41 -29 -56.5 -36t-66.5 -13q-18 -2 -37 -2q-125 0 -125 61q0 41 33 62q20 12 39 45q25 41 36 54.5t38.5 55.5t27.5 54q0 10 -12 10q-25 0 -69 -32.5t-130 -98.5q-59 -70 -154 -176q-29 -31 -28 -33q-14 -10 -43 -16q-63 -12 -76 -13q-29 0 -29 19q0 37 50 76q18 18 55 53 q55 45 65 84q4 16 33 49t29 55q0 18 -8 19q-10 0 -99 -68q-51 -41 -102 -79t-100 -89q-84 -90 -129 -90q-27 0 -60 17.5t-33 41.5q0 18 23.5 61.5t23.5 49.5q0 10 -12 10q-16 0 -42.5 -15t-37.5 -15q-16 0 -16 14zM541 831q0 8 20 41q4 20 12.5 43t61.5 23q41 0 41 -29 q0 -35 -36 -70.5t-71 -35.5q-29 0 -28 28z" />
<glyph unicode="|" horiz-adv-x="2293" d="M27 70q0 66 54 103.5t75 78.5q14 29 67 85t74 56q49 0 49 -26q0 -23 -55 -84q-14 -41 -51 -107q-14 -29 -47 -84q-33 -45 -33 -53q0 -20 26 -21q33 0 111 52q68 47 98 82q47 51 94 100q61 68 84 110q12 25 39 25q45 0 45 -65q0 -25 -16 -38.5t-39 -45.5 q-27 -39 -40 -53.5t-50 -69t-37 -66.5q0 -16 29 -16q66 0 119 47q92 82 96 86q49 55 49 115q0 49 31 81q51 55 71 56q10 0 20.5 -16.5t10.5 -28.5q0 -14 -17.5 -42t-17.5 -42q0 -35 49 -35q39 0 99.5 53t97.5 53q35 0 35 -36q0 -20 -41 -56q-33 -23 -86 -80q-6 -27 -35 -79 q-47 -53 -47 -84q0 -14 29 -15q23 0 49 17q53 31 166 118q121 94 143 129q90 133 90 144q0 6 -31 6q-12 0 -34 -2h-37q-14 0 -43 6t-43 6q-8 0 -21 -2h-18q-53 0 -53 21q0 25 65 24q25 0 72 2t71 2q10 0 31 -2t31 -2q51 0 70 31q29 51 96 141q31 49 80 131q20 33 57 101 q8 18 46 50t58 32q27 0 27 -43q0 -45 -31 -84q-18 -31 -61 -82q-12 -31 -43 -84q-14 -16 -35.5 -64.5t-38.5 -64.5q-37 -37 -37 -45q0 -14 82 -15h37h37q43 0 76 56q33 47 96 139q37 49 104 151q70 115 132 187q41 49 67 49q43 0 43 -41q0 -18 -12 -41q-18 -51 -66 -145 q-18 -57 -75 -160q-18 -31 -64 -82q-4 -6 -31.5 -43t-27.5 -41q0 -14 28 -14q23 0 23 -23q0 -27 -68 -27q-47 0 -78 -24q-31 -31 -94 -82q-47 -25 -47 -74q0 -8 10 -8q16 0 89 51t98 58q113 23 108 22q35 0 66 -33.5t31 -70.5q0 -59 -35 -107q-35 -59 -84 -131 q-23 -16 -23 -31q0 -18 37 -18q35 0 68 10q47 16 110 70q82 68 105 80q49 43 116 92q6 2 11 2q10 0 10 -8q0 -4 -4 -12.5t-92 -86t-97 -82.5q-37 -31 -110 -77q-145 -55 -160 -56q-117 0 -117 88q0 49 79 148.5t79 128.5q0 39 -39 39q-27 0 -94 -37q-59 -31 -86 -55 q-41 -27 -117 -92q-27 -29 -72 -97q-16 -39 -47 -73q-39 -43 -73 -43q-14 0 -31.5 11t-17.5 25q0 8 43 60q20 37 71 104q61 61 62 82q0 10 -9 10q-14 0 -50 -29.5t-101 -90.5q-37 -20 -96 -68q-74 -70 -133 -70q-57 0 -71.5 43t-37.5 43q-12 0 -25 -10q-41 -37 -112 -76 q-82 -45 -127 -45q-31 0 -52.5 29t-21.5 63q0 41 39 104.5t39 65.5q0 8 -33 9q-6 0 -20 -2h-19q-29 0 -69 -56q-27 -35 -87.5 -85t-97.5 -60q-4 -2 -63 -27q-47 -18 -64 -18q-72 0 -71 51q0 6 2 14v17q0 18 -11 18q-6 0 -96 -54t-147 -54q-27 0 -51.5 17t-26.5 42 q0 8 -5 32.5t-5 37.5zM1311 813q0 51 88 51q43 0 43 -39q0 -55 -82 -55q-49 0 -49 43zM1346 119q0 -27 12 -27q27 0 162 92q39 35 118 99q25 16 67 64.5t42 66.5q0 10 -14 10q-6 0 -19.5 -2t-19.5 -2q-10 0 -29.5 2t-30.5 2q-57 0 -88 -6q-45 -8 -172 -213q-29 -49 -28 -86z M1880 514q0 -14 18 -14q23 0 42.5 20.5t35.5 38.5q37 31 97 117q63 94 63 129q0 14 -10 14q-25 0 -135.5 -138t-110.5 -167z" />
<glyph unicode="}" horiz-adv-x="1251" d="M4 10q0 25 68 111q23 37 71 108q92 131 181.5 167t126.5 36q57 0 57 -43q0 -14 -20.5 -52t-20.5 -63t27 -24q47 0 141 57q86 51 121 94q6 8 12 9q16 0 37.5 -24t21.5 -40q0 -6 -3 -14t-3 -10q0 -6 6 -7q16 0 49 23.5t140 23.5q55 0 71 -40q18 -47 19 -60 q0 -33 -70.5 -136t-70.5 -128q0 -14 18 -14q35 0 172 79q63 37 246 181q14 12 24 12q11 0 11 -10q0 -29 -203 -183q-195 -147 -279 -147q-37 0 -75.5 24.5t-38.5 57.5q0 35 71.5 160t71.5 129q0 27 -35 26q-53 0 -88 -32q-84 -82 -149 -185q-37 -43 -90 -131 q-16 -41 -56 -47q-6 -2 -24.5 -8t-28.5 -6q-33 0 -33 30q0 18 39 72q70 94 94 150q4 4 31 47t27 47q0 8 -13 8q-8 0 -71 -29q-70 -33 -88 -36l-70 -7q-47 -4 -59 -20q-43 -72 -121 -148q-94 -94 -152 -94q-25 0 -58.5 30t-33.5 56zM135 16q0 -14 12 -14q27 0 84 55 q53 49 70 80q4 6 70 101q49 71 49 98q0 16 -19 16q-49 0 -157.5 -143t-108.5 -193z" />
<glyph unicode="~" horiz-adv-x="1034" d="M98 291q0 68 54 67q18 0 31.5 -52t62.5 -52q25 0 90 16q25 6 244 64q72 20 198 47q18 2 59.5 12t63.5 10q18 0 68 -43q80 -70 80 -129q0 -80 -93 -178q-12 -14 -34 -30q-2 2 -2 8q0 10 16 48t16 60q0 53 -48 101.5t-101 48.5q-10 0 -31.5 -6.5t-32.5 -6.5q-8 0 -24 3h-25 q-84 0 -247.5 -41t-247.5 -41q-49 0 -62 12q-35 31 -35 82z" />
<glyph unicode="&#xa1;" horiz-adv-x="890" d="M276 -63q0 10 32 67t44 72q18 41 68 110q35 35 90 109q16 29 149 190q76 92 222 283q76 109 86 164q12 70 86 69q34 1 34 -26q0 -14 -28 -49q-20 -25 -39 -52q-33 -45 -293 -460q-47 -72 -135 -213q-23 -43 -109 -148q-92 -111 -117.5 -126t-37.5 -15q-51 0 -52 25z M1090 1188q0 10 8 20q14 18 28.5 37t40.5 19h7q73 -1 73 -58q0 -35 -30 -45q-12 -2 -62 -2h-18q-12 -2 -19 -2q-29 0 -28 31z" />
<glyph unicode="&#xa2;" horiz-adv-x="923" d="M33 -473q0 16 80 104q47 51 118 172q119 205 119 226q0 6 -24 22q-18 10 -35 21q-47 33 -47 116q0 55 61 195q29 68 78 131q35 39 100 119q143 176 252 207q45 8 105 26q14 14 53 84q33 57 100 170q61 86 74 86q29 1 29 -30q0 6 -21 -64q-4 -16 -46 -64.5t-54 -76.5 q-31 -51 -64 -113q0 -2 4 -6q25 -12 60 -31q78 -61 78 -127q0 -98 -88 -172q-98 -84 -164 -94q-23 -2 -56 -2q-12 0 -39.5 3t-41.5 3q-8 0 -19 -18q-20 -31 -72 -103q-35 -49 -86 -151q-2 -4 -2 -8q0 -16 31 -17q76 0 129 37q90 57 148 117q18 20 36 41q29 31 37 30 q14 0 15 -16q0 -43 -72 -113q-82 -80 -158 -116q-51 -33 -164 -88q-6 -2 -43 -4q-29 -2 -36 -15q-35 -51 -70 -121q-27 -45 -74 -139q-18 -55 -67 -156q-12 -25 -25.5 -50t-40.5 -34.5t-47 -9.5q-51 0 -51 29zM408 213q0 -37 20 -37l4 2q37 45 74 119q29 51 86 154 q6 10 6 41q0 14 23 22q12 2 61 86q57 96 66 105q43 52 43 77q0 4 -7 4q-29 0 -69 -20q-23 -10 -70 -43q-92 -86 -209 -340q-16 -37 -22 -127q-2 -6 -4 -20.5t-2 -22.5zM696 502q0 -14 26 -25.5t40 -11.5q51 0 112.5 54t69.5 106q4 28 4 57q0 63 -28.5 80.5t-45.5 17.5 q-10 0 -18 -8q-20 -37 -57 -96q-102 -154 -103 -174z" />
<glyph unicode="&#xa3;" horiz-adv-x="1470" d="M-164 -197q0 57 86 99q72 33 135 32q61 0 139 -36.5t126 -83.5q31 -29 49 -29q45 0 176 164t131 201q0 25 -74 28q55 -2 -96 -2q-100 0 -100 21q0 35 55 34q20 0 59 -2t60 -2q68 0 86 4q51 10 67 48q18 49 64 143q88 143 207 268q31 35 110 103q150 104 227 104 q106 0 197 -23q25 -6 54.5 -39.5t80.5 -105.5q8 -15 8 -27q0 -33 -34.5 -63.5t-65.5 -30.5q-6 0 -6 4q0 6 12.5 29t12.5 35q0 27 -46 67q-35 31 -67 50q-45 25 -123 24q-78 0 -86 -2q-78 -14 -123 -51q-166 -137 -250 -318q-12 -27 -37 -77q-33 -92 -32 -107q0 -16 30 -16 q215 0 273 14q16 4 102 4q6 0 21.5 2t23.5 2q23 0 23 -10q0 -2 -2 -6q-18 -31 -70 -33q-63 -2 -190 -12q-39 -6 -119 -14q-29 0 -94 -15q-8 -2 -17 -8q-6 -20 -20 -59q-20 -57 -62 -115q-63 -90 -209 -186q-90 -59 -90 -78q0 -10 25 -25q80 -53 199 -53q53 0 163 18 q121 20 158 41q61 29 168 97q47 41 68 40q14 0 14 -10q0 -27 -39 -61q-31 -27 -100 -72q-76 -51 -105 -59q-41 -16 -125 -45q-104 -35 -268 -35q-63 0 -147 20q-92 23 -138 54q-29 18 -55 18q-10 0 -66 -8q-10 -2 -36.5 -11.5t-44.5 -9.5q-10 0 -33 -2h-33q-88 0 -139 54 q-68 70 -68 120zM-80 -225q0 -31 47 -56q41 -23 76 -22q33 0 88 8q72 9 72 23v4q-4 35 -90 78q-51 27 -99 26q-33 0 -59 -14q-35 -18 -35 -47z" />
<glyph unicode="&#xa4;" d="M35 -213q0 47 12 78t103 168q86 131 86 133q0 4 -11 4q-20 0 -60 -2t-61 -2q-57 0 -57 14q0 27 47 29q-45 -2 70 -2q102 0 113.5 13t35.5 44q16 20 17 25q0 8 -17 8q-20 0 -64 -3t-65 -3q-27 0 -26 10q0 29 47 31q8 2 151 2q14 0 25 10q227 262 377 373q254 186 383 186 q41 0 70.5 -42t29.5 -85q0 -8 3 -24.5t3 -26.5q0 -31 -20 -57q-98 -125 -156 -125q-57 0 -57 28q0 23 51 120t51 120q0 20 -37 20q-127 0 -321 -186q-143 -135 -256 -295q-4 -4 -4 -8q0 -6 10 -6q37 0 110.5 5t108.5 5q43 0 43 -20q0 -25 -125 -29q29 0 -141 0 q-41 0 -53 -14q-39 -55 -39 -74q0 -2 4 -2q37 0 112.5 5t112.5 5q6 0 21 2h20q33 0 33 -12q0 -35 -154 -35h-78q-51 -2 -74.5 -2t-33.5 -20q-49 -96 -99 -195q-80 -158 -79 -184q0 -27 14 -68t31.5 -50t54.5 -9q76 0 135 28q152 78 186 113q29 33 58 68q43 51 57 51 q16 0 17 -25q0 -72 -105 -137q-266 -164 -354 -164q-109 0 -203 76q-53 45 -53 133z" />
<glyph unicode="&#xa5;" horiz-adv-x="2213" d="M-332 -905q0 63 101 182q76 80 151 160q47 53 234 194q106 80 182 172q53 66 102 154q31 57 31 74q0 6 -4 6q-23 0 -70 -6t-69 -6q-39 0 -71 40.5t-32 79.5t73 109t73 96q0 8 -7 8q-10 0 -111 -74.5t-110 -74.5q-8 0 -8 10q0 12 14 27q231 207 273 207q25 0 55.5 -37 t30.5 -66q0 -23 -66.5 -92.5t-66.5 -118.5q0 -47 43 -47q25 0 57 21q131 80 260 299q16 29 61.5 48t65.5 38q8 8 19 8q37 0 36 -29q0 -25 -55 -100q-47 -68 -76 -94q-23 -33 -75 -84q-16 -8 -62 -72q-31 -41 -61 -82q-135 -170 -135 -197q0 -2 2 -2q16 0 183 128t183 153 q39 63 90 104q80 70 158 140q113 94 176 94q31 0 66 -16q43 -16 43 -46q0 -10 -9.5 -32.5t-9.5 -34.5q0 -33 60 -33q74 0 128 61.5t66 61.5q47 0 47 -39q0 -18 -74.5 -144t-74.5 -151t33 -24q33 0 79 41q33 33 68 65q94 80 133 141q57 86 111 86q31 0 30 -24 q0 -14 -24.5 -32.5t-28.5 -25.5q-10 -53 -47 -147q-16 -29 -20 -61q-4 -23 -4 -31q0 -55 63 -55q14 0 31 4q236 66 377 161q55 39 53 39q6 0 6 -12q0 -29 -55 -65q-94 -61 -183 -95q-90 -41 -235 -92q-94 -12 -84 -12q-39 0 -82 27q-49 31 -49 67q0 12 6 27.5t6 19.5t-4 4 q-20 0 -43 -37q-41 -63 -111 -96q-25 -10 -55 -10q-111 0 -110 92q0 51 54 125t54 78q0 8 -10 8q-14 0 -44 -9t-46 -9t-37 9t-23 9q-8 0 -20 -16q-39 -47 -111 -144q-49 -72 -153 -116q-39 -18 -72 -19q-49 0 -83 41l-34 41q-49 0 -182 -115q-106 -94 -190 -133 q-27 -12 -78 -84q-41 -68 -129 -198q-133 -186 -285 -324q-90 -82 -104 -92q-74 -57 -125 -57q-59 0 -60 53zM-250 -850q0 -12 14 -12q20 0 56 31q45 39 53 43q33 16 61 57q8 12 66 61q45 37 78 80q47 57 92 117q72 88 72 106q0 4 -4 5q-12 0 -78 -56q-53 -47 -74 -67 q-10 -10 -78 -68q-92 -80 -143 -133q-115 -119 -115 -164zM971 117q0 -51 57 -51q37 0 70 32q27 27 86 99q67 84 67 100q0 12 -14 30.5t-14 24.5q0 39 -27 39q-25 0 -102 -65q-18 -23 -56 -68q-16 -16 -41.5 -69.5t-25.5 -71.5z" />
<glyph unicode="&#xa6;" horiz-adv-x="1380" d="M-338 -610q0 25 33 59.5t205 278.5l188 266q160 227 160 258l-2 4q-4 2 -10 2q-12 0 -60.5 -35t-54.5 -35q-16 0 -17 15q0 14 125 108q47 27 117 82q39 47 111 152q29 47 41 63q25 35 53 54l49 49q31 31 62 30q57 0 57 -24q0 -63 -154.5 -217t-154.5 -164q0 -4 4 -4 q2 0 54 25.5t83 25.5q86 0 86 -68q0 -74 -81 -175t-81 -128t35 -26q41 0 117 41q68 37 104 71q55 39 156 127q23 25 84 109q66 94 186 287q23 43 74 118q47 55 84 56q41 0 41 -23q0 -27 -138.5 -222.5t-138.5 -201.5q0 -8 11 -8q12 0 60 25.5t89 25.5q86 0 86 -63 q0 -41 -59.5 -122t-102.5 -108q-25 -16 -24 -32q0 -43 53 -43q18 0 72 14q14 4 79 55q41 31 125 96q23 18 70 56q14 12 25 12q10 0 10 -10q0 -14 -103 -103q-82 -70 -119.5 -96.5t-115.5 -64.5q-115 -33 -150 -33q-72 0 -71 65q0 33 18 70q47 90 90 119q102 63 103 119 q0 12 -15 12q-18 0 -80 -25q-106 -45 -202 -200q-72 -109 -201 -334q-68 -135 -195 -289q-25 -29 -40 -27h-13q-2 0 -25.5 -16t-43.5 -16q-51 0 -52 36q0 35 58 91q133 129 186 221q61 109 170 233q100 115 100 125t-12 10q-8 0 -151.5 -102t-192.5 -113q-18 -4 -41 -4 q-131 0 -131 111q0 47 32 73.5t64 51.5q94 84 95 135q0 25 -33 24q-37 0 -103 -49q-117 -86 -188 -219q-53 -104 -168 -305q-25 -59 -86 -160q-27 -39 -84 -114q-41 -49 -41 -95q0 -59 -45 -59q-20 0 -47 14q-37 20 -47 23q-31 10 -31 35z" />
<glyph unicode="&#xa7;" horiz-adv-x="5988" d="M266 225q0 135 152 326q96 121 366 199q227 63 424 63q12 0 211 -10q121 -8 248 -8h70q522 0 1087 -156q152 -43 457 -184q180 -84 336 -148q743 -311 1468 -311q883 0 883 502q0 117 -98 186q-86 61 -207 61q-66 0 -316 -45q-256 -45 -305 -67q-152 -72 -205 -72 q-37 0 -36 23q0 25 117.5 80t361.5 96q221 39 377 39q370 0 370 -307q0 -252 -215 -406q-227 -160 -717 -160q-319 0 -841 101q-109 20 -322 71q-250 70 -760 271q-201 80 -274 106q-156 57 -279 90q-565 152 -1179 172q-92 2 -174 2q-356 0 -508 -74.5t-174 -89.5 q-88 -55 -135 -141q-76 -143 -76 -211q0 -84 76 -141q70 -55 153 -55q104 0 238 77q119 68 196 158q104 123 105 211q0 59 -62 59q-88 0 -186 -67q-59 -41 -141 -123q-66 -68 -78 -68q-23 0 -23 25q0 41 84 119q207 190 369 190q88 0 141 -65q47 -59 47 -152 q0 -219 -370 -379q-113 -49 -256 -49q-145 0 -258 57q-141 74 -142 205z" />
<glyph unicode="&#xa8;" horiz-adv-x="661" d="M547 864q0 57 41 99q51 47 76 47q18 0 34.5 -25t16.5 -43q0 -37 -45 -86t-82 -49q-41 0 -41 57zM920 834q0 45 31.5 72.5t74.5 27.5q57 0 57 -35q0 -29 -24 -49q-8 -6 -41 -57q-27 -43 -43 -43q-23 0 -39 32q-16 27 -16 52z" />
<glyph unicode="&#xa9;" horiz-adv-x="1654" d="M12 133q0 10 19.5 23.5t60.5 42.5q51 47 146 118q10 4 90 78q18 29 63 80q37 43 96 100q72 43 148 170q25 41 65 97q20 35 66 100q27 23 70 70q20 35 49 35q35 0 35 -29q0 -23 -23 -49.5t-72 -77.5q-18 -25 -53 -70q-10 -29 -43 -80q-33 -37 -59 -98q-18 -23 -52 -72 q-16 -33 -53 -92q-49 -51 -49 -96q0 -18 27 -18q10 0 151 36q18 12 64 31q18 4 35.5 20.5t29.5 20.5q35 14 51 64q8 20 29 49q29 35 33 45q18 33 65 94q49 45 91 125q12 25 49 61.5t49 55.5q43 66 78 84q20 18 63 53q39 29 81 59.5t91 30.5q63 0 64 -45q0 -12 -18.5 -56 t-29 -54.5t-67.5 -88.5q-20 -37 -68 -100q-23 -25 -67 -70q-23 -31 -72 -88q-51 -47 -106 -82q-35 -35 -111 -88q-39 -16 -74 -45q-25 -20 -55 -65q-33 -51 -33 -78q0 -14 11 -15q14 0 51 27q23 16 61 35q10 6 60 43q39 29 61 29q31 0 58.5 -41t27.5 -74q0 -29 -29.5 -54.5 t-40.5 -52.5q-12 -33 -24 -45q-57 -68 -58 -106q0 -63 50 -64q47 0 96 25q57 27 61 70q2 27 15 45q20 29 24 34q6 18 31 48q37 23 104.5 119t96.5 108q2 0 53 29q27 14 57 14q68 0 68 -55q0 -31 -60 -103q-53 -63 -90 -90q-18 -23 -59 -59q-25 -14 -57 -47q-41 -39 -41 -60 q0 -53 75 -53q61 0 111 31q41 33 125 96q4 0 59 49q49 39 58 39q12 0 12 -10q0 -18 -61 -68q-59 -55 -170 -145q-98 -63 -222 -64q-27 0 -67.5 17.5t-50.5 36.5q-2 4 -7 4q-6 0 -47 -25q-31 -18 -94 -29q-12 -2 -47 -13t-45 -11q-23 0 -54.5 19.5t-41.5 39.5q-18 43 -19 51 q0 14 13 39q16 37 67 103q78 106 78 141q0 20 -16 20t-56 -24q-27 -18 -53 -37q-49 -29 -141 -100q-94 -94 -135 -191q-31 -70 -97 -69q-100 0 -100 32q0 14 50 76t69 76q12 8 88 102q88 115 88 144q0 12 -8 12q-6 0 -17 -6q-43 -27 -121 -43q-92 -18 -133 -19 q-18 0 -39 -34l-28 -50q-20 -37 -72 -104q-6 -6 -82 -127q-51 -80 -117 -80q-23 0 -51 12q-35 16 -35 39t39 59t95 99q74 92 88 107q12 23 41 65q10 12 10 16q0 6 -8 7q-12 0 -33 -23q-27 -27 -35 -31q-84 -47 -162 -114q-43 -39 -61 -39q-20 0 -21 16zM1001 575 q0 -10 9 -10q14 0 49 33q29 20 82 64q23 20 67 65q57 76 178 219q25 43 80 123q9 8 9 14q0 14 -21 15q-14 0 -43 -18.5t-37 -32.5q-4 -4 -78 -82q-39 -37 -102 -117q-4 -8 -61 -80q-20 -29 -62 -82q-70 -78 -70 -111zM1444 246q0 -6 6 -6q27 0 53 36q6 6 58 56q45 43 45 53 t-15 10q-20 0 -35 -14q-29 -29 -55 -41q-12 -8 -34.5 -44t-22.5 -50z" />
<glyph unicode="&#xaa;" horiz-adv-x="964" d="M-12 109q0 14 67 61q25 20 78 55q20 8 37 31q25 35 29 39q23 20 61 61q47 66 78 88q16 12 30.5 24.5t39.5 12.5q39 0 38 -41q0 -20 -12 -51t-33 -55q-29 -33 -36 -45q-84 -102 -183 -256q-4 -10 -4 -17q0 -33 41 -32q57 0 158 86q33 18 93 67t165 162q39 51 92 104 q37 39 37 52q0 18 -37 18q-23 0 -35 -13.5t-47 -21.5q-49 -10 -55 -12q-12 -4 -31 -4q-47 0 -47 14q0 37 74 43q27 4 88 27.5t92 23.5q70 0 113 76q27 51 88 135q16 14 37.5 55.5t37.5 57.5q29 43 97 117q2 0 37 39q23 23 45 22q41 0 41 -35q0 -18 -13.5 -51t-44.5 -94 q-16 -29 -102 -115q-45 -45 -96 -114q-39 -53 -39 -64q0 -16 39 -16q66 0 193.5 18.5t191.5 18.5q106 -1 106 -21q0 -18 -154 -27q-59 -10 -180 -28q-68 -8 -174 -15q-45 -2 -53 -4q-29 -6 -43 -28q-6 -12 -62 -78q-41 -47 -51 -84q-8 -29 -73 -125q-57 -86 -58 -121 q0 -47 37 -47q8 0 21 6q53 16 153 55q59 29 197 142q61 51 71 51q8 0 9 -10q0 -12 -50.5 -59.5t-73 -60.5t-72.5 -59.5t-83 -60.5q-51 -25 -104.5 -48.5t-110.5 -23.5q-59 0 -104 48q-23 25 -23 51q0 12 13.5 39.5t13.5 46.5q0 12 -6 12q-86 -61 -138 -96 q-143 -100 -180 -107q-23 -4 -61 -4q-117 0 -117 74q0 29 30.5 68.5t30.5 62.5q0 16 -6 16q-4 0 -44 -23.5t-54 -23.5q-10 0 -10 11zM592 813q0 33 20.5 60.5t53.5 27.5q20 0 39.5 -19.5t19.5 -39.5q0 -74 -63 -74q-70 0 -70 45z" />
<glyph unicode="&#xab;" horiz-adv-x="1101" d="M-59 27q0 49 20 61q39 39 113 102q47 39 145 97q53 23 160 61q94 33 102 33q10 0 28.5 -5t27.5 -5q10 0 23 16t38 16q59 0 59 -18q0 -14 -92 -111q-27 -29 -49 -61q-57 -80 -110 -170q-6 -12 -7 -20q0 -20 25 -21q57 0 190 90q147 98 287 307q23 33 45 78l-2 4h-6 q-16 0 -51 -5t-49 -5q-113 -6 -314 -6h-112q-76 -2 -113 -2q-92 0 -92 20q0 8 20.5 15.5t30.5 7.5q8 0 24.5 -4t22.5 -4q72 0 214.5 8t213.5 8q139 0 230 14q27 4 45 33q27 49 90 144q35 35 92 110q10 23 23.5 49.5t29.5 30.5q6 2 33 15.5t37 13.5q18 0 18 -29 q0 -12 -7 -27.5t-16.5 -47.5t-37.5 -77q-31 -53 -82 -131q-8 -12 -17 -24q0 -8 17 -8q47 0 145.5 29.5t151.5 29.5q18 0 18 -12q0 -18 -69 -35q-29 -6 -232 -64q-35 -4 -80 -24q-35 -43 -102 -129q-20 -27 -109 -109q-70 -63 -96 -119q-41 -92 -41 -100q0 -25 35 -24 q27 0 63 12q51 18 64 20q29 6 115 56q74 43 110 71q27 20 78 62q14 12 25 12q12 0 12 -10q0 -12 -51 -58q-68 -59 -201 -139q-145 -90 -207 -100q-80 -14 -88 -15q-41 0 -53 11.5t-29 27.5q-10 10 -12 36t-19 26q-16 0 -108 -48t-148 -48q-53 0 -71.5 27.5t-34.5 27.5 q-2 0 -62.5 -28.5t-99.5 -31.5q-29 -2 -45 -2q-25 0 -41 9.5t-40.5 40t-24.5 45.5zM90 49q0 -55 35 -55q14 0 39.5 12t34.5 14q33 10 140 109.5t107 130.5q0 27 -32 27q-47 0 -156 -51q-45 -20 -104 -80q-63 -66 -64 -107z" />
<glyph unicode="&#xac;" horiz-adv-x="819" d="M41 76q0 59 29 92q41 41 80.5 83t70.5 95q33 61 117 166q33 66 96 154q20 14 127 190q53 88 123 162q23 37 86 98q66 37 76 37q39 0 39 -43q0 -14 -28 -80.5t-40 -83.5q-76 -104 -223 -313q-33 -35 -92 -111q-43 -66 -62 -90q-37 -47 -73 -78q-49 -41 -105 -114 q-63 -88 -63 -136q0 -45 53 -45q57 0 149 60q84 55 121 106q70 111 213 328q29 35 70 109q6 23 45 81q10 27 55 88q35 39 56 72q127 217 169 238q20 12 42 25.5t36 13.5q39 0 39 -37q0 -8 -4 -23q-23 -92 -57 -155l-135 -236q-49 -70 -142 -207q-35 -59 -116 -168 q-78 -66 -177 -166q-43 -76 -43 -122q0 -35 56 -35q31 0 61 8q43 14 279 205q12 12 24 12q10 0 11 -10q0 -18 -138 -131q-117 -94 -172 -131t-190 -37q-49 0 -58.5 27.5t-17.5 52.5q-12 35 -31 34q-6 0 -16 -4l-45 -18q-10 -4 -80 -45q-47 -27 -86 -27q-29 0 -69 19.5 t-56 44.5q-4 6 -4 45zM694 365q0 -8 8 -9q8 0 41 15.5t105 122.5q237 358 237 395q0 10 -10 10q-25 0 -53 -31q-39 -41 -167 -225t-146 -231q-14 -37 -15 -47z" />
<glyph unicode="&#xad;" horiz-adv-x="638" d="M190 193q0 25 72 24q23 0 66 -2t65 -2q27 0 77 9t77 9q16 0 46 -10t30 -22q0 -18 -43 -33q-35 -12 -58 -12q-33 0 -97.5 5t-96.5 5q-14 0 -41 -2t-39 -2q-57 0 -58 33z" />
<glyph unicode="&#xae;" horiz-adv-x="831" d="M-6 121q0 -4 47 41q43 37 113 121q61 106 102 106q18 0 31.5 -21.5t13.5 -41.5q0 -6 -15.5 -21.5t-15.5 -30.5q0 -6 23.5 -22t23.5 -41q0 -37 -57 -88t-57 -62q0 -33 39 -32q20 0 47 14q29 29 94 82q41 29 61 45q33 27 52 53q31 47 61 92q39 53 74 84q10 18 43 43 q14 4 31 4q51 0 51 -45q0 -10 -30 -44.5t-30 -61.5q0 -16 13.5 -33.5t13.5 -28.5q0 -10 -59.5 -68.5t-59.5 -113.5q0 -29 21 -28q6 0 14 4q111 37 264 161q84 68 94 68q11 0 11 -10t-17 -27q-39 -39 -262 -219q-68 -55 -135 -55q-82 0 -113 35q-20 25 -20 49q0 23 15.5 36 t43.5 48q33 53 80 82q25 16 25 32q0 37 -27 37q-10 0 -23 -6q-4 -4 -98 -102q-29 -31 -90 -84q-25 -23 -72 -64q-102 -84 -155 -84q-35 0 -66 17q-37 18 -37 51q0 53 66 125q8 8 36.5 18t41.5 25q23 27 22 43q0 25 -35 24q-20 0 -84.5 -59t-89.5 -59q-20 0 -20 12z" />
<glyph unicode="&#xaf;" horiz-adv-x="563" d="M428 868q0 8 19.5 18.5t31.5 10.5h10q6 -2 11 -2q16 0 51 6t53 6q6 0 17 -2h20h31q20 2 30 2t29 -3t29 -3q16 0 49 4t49 4q10 0 41 -4t49 -4h21q14 2 22 2q14 0 42 -5t42 -5h23q14 2 22 2q45 0 45 -18q-8 -25 -67 -25q-16 0 -52 -5t-55 -5q18 0 -110 0h-144 q-12 0 -36.5 3t-36.5 3q-14 0 -41 -3t-41 -3q-10 0 -31 4t-31 4t-29.5 -3t-29.5 -3q-33 0 -33 24z" />
<glyph unicode="&#xb0;" horiz-adv-x="681" d="M420 463q0 37 46 120t77 122q12 10 35.5 35.5t88 77.5t93.5 61q14 4 24 4q35 0 70 -39t35 -74q0 -63 -129 -209q-76 -84 -101 -104q-63 -51 -131 -51q-109 0 -108 57zM559 500q0 -20 19 -21q27 0 102 64q29 25 75 106.5t46 114.5q0 41 -25 41q-49 0 -117 -92 q-53 -74 -75 -135q-25 -70 -25 -78z" />
<glyph unicode="&#xb1;" horiz-adv-x="784" d="M-41 -524q0 12 8 24q16 18 45 54q90 100 256 311q27 49 86 141l27 37q0 6 -12 6t-97.5 -49t-162.5 -49q-41 0 -54 16q-35 43 -35 78q0 43 62 131q16 25 59 70q16 12 97 104q68 78 84 78q35 0 34 -39q0 -8 -57 -94q-27 -47 -72 -109q-27 -20 -51 -62t-24 -73q0 -29 30 -28 q43 0 97 30q43 25 86 51q25 12 34 21q18 14 19 33v7v7q0 72 47 123q20 25 115 70q18 8 73 100q35 57 70 117q53 76 151 192q133 152 160 187q90 113 129 112q76 0 76 -53q0 -14 -31 -53q-2 -4 -39 -82q-20 -41 -55 -92q-47 -74 -97 -144.5t-118 -140.5q-117 -119 -203 -176 q-18 -23 -61 -66q-27 -20 -78 -67q-33 -35 -33 -60q0 -10 11 -12q18 -4 83 -4q90 0 177 41q27 12 133 84q12 8 18 8q10 0 10 -12t-31.5 -37t-64.5 -49.5t-76 -42.5q-141 -57 -288 -58q-12 0 -36 -34.5t-54 -104.5q-16 -82 -68 -143q-23 -27 -47 -78q-35 -72 -41 -84 q-23 -27 -51 -80q-12 -51 -45 -92q-37 -49 -82 -49q-39 0 -76 24.5t-37 59.5zM678 397q0 -8 8 -8t88 68q119 98 223 239q84 113 84 142q0 10 11.5 30.5t11.5 30.5q0 20 -14 21q-14 0 -48 -31t-47 -47q-78 -111 -164 -201q-27 -29 -59 -80q-43 -72 -53 -84q-41 -57 -41 -80z " />
<glyph unicode="&#xb2;" horiz-adv-x="927" d="M569 674q0 53 35 76q68 45 166 45q53 0 119.5 -39t75.5 -39q51 0 155 90q90 76 131 135q33 37 93.5 119t60.5 160q0 113 -107 112q-90 0 -241 -61q-51 -20 -127 -109q-37 -45 -37 -82q0 -55 74 -55q86 0 147 47q35 27 76 86q31 47 47 47q8 0 8 -37q0 -61 -26 -86 q-59 -61 -91 -84q-55 -43 -108 -49q-31 -4 -64 -4q-61 0 -108 25q-59 29 -60 84q0 49 48 112q39 55 88 93q68 53 199.5 98t217.5 45q68 0 107 -41t39 -109q0 -45 -12 -106q-16 -78 -95 -182q-66 -80 -131 -162q-14 -23 -59 -64q-55 -41 -129 -77q-18 -10 -19 -17 q0 -23 64 -22q47 0 114.5 46t71.5 46q12 0 13 -10q0 -27 -64 -72q-49 -35 -90 -55q-59 -29 -141 -29q-25 0 -62 20.5t-45 20.5q-23 0 -75 -19.5t-80 -19.5q-178 0 -179 123zM664 678q0 -23 14 -29q45 -20 92 -20q47 -1 47 28q0 6 -10 13q-16 12 -30.5 23.5t-45.5 11.5h-6 q-61 0 -61 -27z" />
<glyph unicode="&#xb3;" horiz-adv-x="811" d="M594 612q0 49 32.5 80t35.5 31q14 10 45 10q78 0 77 -82q0 -18 -38.5 -44.5t-38.5 -39.5q0 -27 28 -26q39 0 105 37q57 33 90 63q68 68 205 223q39 45 39 111q0 47 -62 47q-100 0 -215 -43q-55 -23 -72 -23q-37 0 -37 39q0 61 240 95q82 12 201 71q90 47 90 109 q0 43 -53 65q-43 18 -88 19l-13 -2q6 -12 6 -25q0 -45 -34 -92q-53 -76 -164 -76q-98 0 -99 74q0 84 101 141q-23 -2 -29 -2q-27 0 -26 17q0 39 114 38q16 0 46 -7t44 -7q16 0 53 5t56 5q55 0 108 -24q66 -27 78 -72q8 -27 8 -45q0 -25 -18 -49q-39 -51 -86 -78t-94 -51 q53 -14 53 -84q0 -82 -22 -111q-10 -16 -33 -51q-25 -41 -146 -178q-37 -43 -47 -51q-29 -27 -59 -37q-18 -6 -55 -45q-18 -18 -66 -35q-23 -12 -68 -33q-35 -12 -81 -12q-18 0 -49 12.5t-40 26.5q-23 41 -22 106zM936 1253q0 -35 53 -34q8 0 45 14q60 26 60 110q0 8 -25 9 q-45 0 -86 -27q-47 -29 -47 -72z" />
<glyph unicode="&#xb4;" horiz-adv-x="411" d="M330 649q0 29 180 125q49 27 233 141q104 66 170 117q78 61 95 62q10 -1 10 -13q0 -61 -82 -120q-59 -49 -148 -109q-29 -4 -92 -31q-23 -14 -67 -43q-35 -16 -99 -51q-43 -29 -84 -57q-49 -27 -98 -27q-18 0 -18 6z" />
<glyph unicode="&#xb5;" horiz-adv-x="2732" d="M-2 45q0 43 51 100q127 141 193 142q43 0 43 -41q0 -6 -3 -17.5t-3 -17.5q0 -14 14 -14q66 0 174 139q41 51 55 67q33 37 66 60q6 4 39 37q27 25 39 24q23 0 22 -24q0 -18 -16 -33q-47 -39 -74 -98.5t-49 -116.5q-16 -37 -17 -45q0 -25 19 -25q10 0 29 11q27 14 28 16 q70 31 166 88q117 70 146 111q66 104 200 305q55 86 154 215q12 12 74 88q43 45 125 137q35 43 38 47q25 25 50 33q10 4 43 31q27 23 41 22q20 0 37.5 -19.5t17.5 -39.5q0 -55 -70 -164q-29 -53 -92 -137q-14 -25 -51 -68t-109 -131q-102 -139 -252 -244q-25 -14 -65 -47 q-10 -12 -39 -35q-18 -10 -68 -73q-12 -18 -12 -29q0 -10 12 -10t99.5 52t144.5 52q16 0 44 -5t42 -6t33.5 -3t30.5 -14q12 -18 12 -46q0 -63 -49 -124q-25 -29 -90 -84q-49 -39 -50 -58q0 -18 31 -18q37 0 92 31q45 25 90 47q53 31 84 59q221 205 365 205q31 0 53.5 -20.5 t32.5 -20.5q4 0 41 44t51 44t28.5 -28.5t14.5 -45.5q0 -20 -44 -76.5t-66 -72.5q-14 -25 -48 -72q-45 -41 -45 -61q0 -23 27 -23q41 0 133 61q88 55 117 95q23 20 67 63q61 59 109 137q68 109 205 320q41 45 110 139q27 49 99 98q61 43 78 43q37 0 36 -24q0 -23 -32 -59 q-25 -29 -47 -56q-45 -57 -82 -141q-29 -72 -129 -168q-106 -102 -136 -158q-51 -96 -118 -190q-90 -127 -90 -154q0 -20 30 -20q33 0 82 26.5t68 55.5q37 51 71 86q23 18 60 59q51 51 119 145q14 33 53 76q55 68 59 72q39 45 111 141q39 41 110 156q12 27 37 45t33 31 q31 49 66 49q59 -1 59 -19q0 -12 -25 -47q-31 -47 -32 -49q-39 -78 -80 -123q-41 -53 -127 -151q-25 -23 -70 -74q-4 -6 -61 -66q-31 -31 -66 -79q-158 -227 -158 -281q0 -25 33 -25q61 0 185 96.5t131 96.5q12 0 12 -10q0 -12 -51 -58q-33 -27 -66 -55q-37 -37 -98 -78 q-74 -49 -111 -53q-12 -2 -61 -12q-39 -8 -62 -9q-18 0 -30 7q-25 10 -37 32.5t-17 22.5q-8 0 -74.5 -39t-103.5 -39q-27 0 -71 19q-53 23 -54 47q0 6 6.5 20t6.5 25q0 12 -7 12q-4 -2 -10 -6q-51 -41 -129 -76q-86 -35 -147 -35q-45 0 -56.5 20.5t-23.5 20.5 q-18 0 -62.5 -31.5t-72.5 -31.5h-27.5h-30.5q-68 0 -87 26.5t-19 91.5q0 6 -2 7q-2 -2 -6 -4q-90 -63 -158 -73.5t-158 -10.5q-61 0 -61 61q0 35 80 115q41 45 129 127q23 20 22 41q0 18 -45 18q-129 0 -268 -143q-49 -33 -150 -131q-47 -66 -118 -140q-47 -16 -103 -16 q-57 0 -57 31q0 20 27 43q25 39 90 98q27 16 89 73.5t64 76.5l-4 4h-2q4 0 -80 -43q-59 -35 -182 -95q-18 -6 -186 -127q-47 -35 -136 -51q-25 -4 -34 -4q-20 0 -43 23q-4 6 -70 39q-43 20 -43 63zM193 45q0 -31 43 -31q29 0 51 13q39 25 112 75q35 29 35 76q0 18 -12 19 q-18 0 -72.5 -34t-80 -35t-51 -29.5t-25.5 -53.5zM1083 532q0 -8 15 -8q12 0 80.5 58.5t78.5 74.5q16 27 99 119q72 80 88 119q12 29 51 75t51 66q45 82 45 92v7q-4 4 -10 4q-39 0 -117 -76q-57 -55 -96 -109q-47 -57 -125 -174q-8 -16 -90 -127q-70 -94 -70 -121zM1556 35 q0 -20 25 -21q82 0 184 133q27 29 52 58q32 36 32 65q0 45 -41 45q-43 0 -116.5 -53t-81.5 -92q-4 -16 -39 -90q-14 -27 -15 -45z" />
<glyph unicode="&#xb6;" d="M109 23q0 18 79.5 32.5t155.5 40.5q90 31 213 97q104 55 207 112q35 18 67 19q31 0 31 -25q0 -39 -74 -78q-53 -25 -106 -47q-141 -66 -190 -86q-106 -47 -195 -74q-129 -41 -147 -41q-41 0 -41 50zM193 147q0 53 59 68q27 2 84 18q84 35 227 109q35 25 72 49.5t74 32.5 q20 2 64 24.5t65 22.5q43 0 43 -31q0 -16 -23.5 -39.5t-122.5 -76.5q-88 -47 -137 -66q-76 -25 -219 -84q-35 -20 -70 -41q-47 -27 -73 -27q-43 0 -43 41z" />
<glyph unicode="&#xb7;" horiz-adv-x="2121" d="M10 45q0 35 43 78q23 25 62 88q16 27 69 59q8 4 90 76q59 51 105 51q12 0 42 -20.5t61.5 -25.5t31.5 -36q0 -8 -6 -19t-6 -20q0 -25 110 -24q45 0 80 10q358 98 930 107l14 2q176 2 318 -111q133 -106 133 -217q0 -55 -35 -162q-39 -125 -80 -125q-20 0 -20 15 q0 2 18.5 45t22.5 57q20 90 20 133q0 76 -47 127q-92 102 -145 109q-10 10 -35 28q-16 10 -49 21q-82 27 -328 26q-180 0 -387 -28q-121 -16 -174 -27q-96 -16 -172 -38.5t-187 -22.5q-35 0 -55 -23q-6 -8 -22 -28q-33 -47 -117 -115q-33 -27 -66.5 -51.5t-78.5 -24.5 q-139 0 -140 86zM166 39q0 -25 24 -25q6 0 13 4q31 25 96 72q25 20 58.5 62t33.5 67q0 10 -7 26.5t-7 20.5q0 35 -19 35q-10 0 -79 -59l-39 -39q-12 -12 -43 -81t-31 -83z" />
<glyph unicode="&#xb8;" horiz-adv-x="471" d="M-104 -123q0 61 34 62q33 0 63 -55.5t40 -55.5q14 0 42.5 41t28.5 57q0 6 -3 11.5t-3 7.5q0 4 11 4h24q16 -2 25 -2q10 0 26.5 3t24.5 3l4 -2q-6 -4 -12 -7t-17 -20q-51 -76 -59 -90q-37 -47 -74 -71.5t-61 -24.5q-37 0 -54.5 34.5t-31.5 67.5q-8 18 -8 37z" />
<glyph unicode="&#xb9;" horiz-adv-x="954" d="M612 647q0 20 90 66q49 23 132.5 86t119.5 104q49 51 148 158q41 61 137 174q51 49 80 90q8 16 29 49q53 72 79 72q35 0 35 -23q0 -25 -80 -127q-70 -78 -198 -235q-186 -248 -273 -410q-33 -61 -39 -69q-27 -41 -61 -52q-25 -6 -49 -6q-47 0 -47 31t18.5 52.5t38.5 41.5 q72 72 72 94q0 4 -4 5q-12 0 -52 -25q-45 -27 -55 -31t-51 -30q-29 -20 -57 -21q-12 0 -13 6z" />
<glyph unicode="&#xba;" horiz-adv-x="866" d="M14 129q0 6 30 30.5t40 28.5q18 14 53 41q18 20 58 60q20 16 59 57q6 14 35 43q41 25 51 25q27 0 27 -21q0 -23 -33 -59q-14 -29 -49 -82q-35 -43 -58 -88q-4 -10 -51 -74q-37 -49 -37 -78q0 -23 27 -22q20 0 41 12q35 18 72.5 41t58.5 51q31 55 61 109q45 63 95 69 q25 4 43 4q37 0 36 -18q0 -8 -11 -30.5t-11 -28.5t8 -6q16 0 46 20t40 37q23 23 55 78q10 41 80 81t117 40q35 0 35 -25q0 -41 -40 -54.5t-63 -60.5q-12 -45 -51 -119q-33 -47 -67 -94q-43 -57 -84 -78q-127 -59 -203 -59q-18 0 -49 11.5t-31 26.5t-22 15q-12 0 -83 -36.5 t-94 -38.5q-55 -6 -61 -7q-63 0 -64 70q0 23 21.5 61.5t21.5 55.5q0 6 -4 6t-13 -5t-15 -5q-16 0 -17 16zM461 66q0 -18 57 -19q47 0 80 35q27 37 53 72q13 16 13 39q0 12 -7 12q-12 -4 -51 -37q-27 -23 -51 -33q-27 -20 -88 -59q-6 -4 -6 -10zM594 760q0 23 8 33 q51 55 72 55q33 0 33 -43q0 -53 -25 -68q-2 0 -17.5 -12t-25.5 -12q-45 0 -45 47z" />
<glyph unicode="&#xbb;" horiz-adv-x="753" d="M186 512v27q-2 68 52 114q31 29 49 29q6 0 16 -4t16 -4q18 0 89 35.5t85.5 35.5t53.5 40t92 40q51 0 51 -39q0 -14 -49 -33.5t-49 -47.5q0 -8 5 -25.5t5 -26.5q0 -2 -2 -6v-6q0 -6 14 -6q18 0 37 8q61 29 148 96q63 49 159 209q27 43 84 121q68 92 88 102q12 6 23 7 q12 0 27 -17q2 -2 18 -12q10 -8 10 -14q0 -18 -59 -105q-49 -72 -76 -104q-49 -49 -104 -111q-2 -4 -2 -8q0 -16 61 -16q6 0 28.5 -11.5t22.5 -15.5q0 -16 -153 -16q-27 0 -33 -11q-47 -59 -92 -121q-66 -92 -66 -124q0 -27 53 -27q23 0 50 10q41 12 49 14q18 4 39.5 22.5 t29.5 20.5q33 12 50 33q49 55 63 56q8 0 8 -9q0 -6 -6 -14q-23 -35 -72 -90q-145 -109 -262 -109q-39 0 -78 21q-45 25 -45 59q0 27 52.5 84.5t52.5 67.5q-2 4 -4 4t-41 -21q-2 -2 -49 -16q-31 -10 -41 -27q-27 -53 -106 -93t-140 -40q-16 0 -46 10.5t-42 10.5q-63 0 -64 53 zM309 545q0 -12 41 -13h25q33 2 64.5 35t37.5 62.5t10 62.5v4q0 4 -6 4q-12 0 -54 -21.5t-52 -31.5q-10 -27 -41 -69q-25 -23 -25 -33z" />
<glyph unicode="&#xbc;" horiz-adv-x="913" d="M-410 -825q0 68 41 135q39 47 103 149q29 37 82 117q43 61 125 188q45 66 127 203q23 47 73 137q6 10 6 21q0 31 -22 31q-14 0 -39 -19q-31 -20 -40 -24t-34.5 -27t-40.5 -23q-25 0 -24 17q0 6 8 12q37 29 59 45q49 43 133 107q18 10 22.5 15t4.5 24v14v14q0 39 27 66 q14 18 32.5 39.5t40.5 21.5q12 0 36 -5t36 -5q16 0 27 10q20 18 71.5 95t65.5 108q10 23 49 66t43 55t64.5 78.5t74.5 93.5q29 57 103 123q82 74 135 73q45 0 45 -49q0 -25 -25 -71q-104 -180 -135 -205q-31 -49 -94 -133q-154 -158 -166 -170q-94 -90 -178 -158 q-35 -31 -47 -68q-2 -6 -13.5 -22t-11.5 -25q0 -25 78 -24q49 0 143 43q57 29 91 71q59 82 100 82q47 0 47 -30v-6q-4 -18 -53 -58q-25 -39 -68 -104q-41 -55 -90 -146q-2 -10 -2 -18q0 -51 45 -51q10 0 23 4q96 25 209 106q6 4 184 146q14 12 24 12q13 0 13 -10 q0 -8 -19 -27q-4 -4 -121 -104q-35 -33 -108 -88q-176 -111 -238 -111q-141 0 -141 90v21q0 29 28.5 71.5t28.5 46.5q0 10 -14 11q-16 0 -48 -9.5t-48 -9.5q-12 0 -35 4t-35 4t-26 -4q-43 -10 -52 -16q-20 -10 -39 -39q-39 -68 -59 -145q-16 -41 -37 -123q-10 -61 -47 -137 q-25 -55 -84 -162q-31 -57 -102 -168q-16 -20 -47 -80q-27 -51 -54 -76q-109 -100 -161 -100q-49 0 -50 80zM-197 -639q0 -12 9 -12q20 0 65 51q37 43 51 70q33 59 95 174q8 31 24 94q8 23 8 33q0 12 -8 12q-10 0 -27 -16q-27 -25 -55 -99q-23 -45 -67 -135 q-31 -33 -76 -108q-18 -43 -19 -64zM438 428q0 -6 6 -6q39 0 109 98q18 27 62 65t61 56q33 35 96 111q18 45 74 125q16 16 60 86t44 86q0 12 -12 12q-10 0 -51 -41q-27 -27 -51 -53q-72 -70 -131 -156q-18 -27 -127 -168q-35 -63 -117 -180q-23 -27 -23 -35zM1004 748 q0 57 63 57q8 0 26.5 5t28.5 5q37 0 37 -27q0 -8 -18 -26q-27 -20 -29 -25q-10 -16 -22.5 -31.5t-32.5 -15.5q-53 0 -53 58z" />
<glyph unicode="&#xbd;" horiz-adv-x="858" d="M-444 -809q0 39 41 109q61 90 170 278q47 102 153 266q47 74 76 121q49 84 57 123q6 53 21 115q6 6 22 20q14 25 47 62q8 2 25 8q25 8 55 45q18 23 80 108q86 123 252 371q20 39 68 103q39 49 112 124q18 14 49 15q57 0 58 -43q0 -16 -31 -76q-14 -41 -47 -98 q-20 -20 -35 -51q-33 -80 -119 -185q-137 -170 -227 -246q-39 -29 -78 -59q-68 -49 -67 -55q0 -18 67 -39q59 -16 86 -17l23 -2q92 0 127 41q2 2 80 105l157 205q57 70 166 211q33 47 109 114q88 78 129 78q35 0 35 -59q0 -29 -25 -64q-41 -59 -121 -180q-86 -133 -188 -231 q-227 -215 -285 -236q-29 -10 -55 -86q-8 -25 -19 -43q-33 -68 -32 -63q0 -12 30 -13q82 0 166 53q57 29 158 99q37 27 104.5 82t79.5 55t12 -10q0 -18 -135 -127q-119 -96 -166 -127q-39 -27 -76.5 -51.5t-95.5 -36.5q-78 -14 -90 -15q-33 0 -71 23q-45 25 -46 57 q0 35 52 101q25 31 49 61q-6 12 -23 12q-8 0 -22.5 -2t-22.5 -2h-33.5h-33.5q-33 0 -68 14.5t-41 14.5q-20 0 -37 -16q-33 -37 -104 -181q-39 -78 -150 -331q-205 -479 -342 -480q-31 0 -30 31zM334 393q0 -6 10 -6q12 0 29 16q37 45 73 82l76 76q41 45 64 84q33 59 106 170 q10 15 10 25q0 16 -18 16q-4 0 -10 -2q-14 -4 -119 -156q-61 -82 -180 -245q-41 -53 -41 -60zM666 289l3 -4t7 -4q18 0 67 51q72 63 207 200q66 74 150 218q26 34 51 79l-2 5q-2 2 -4 2q-6 0 -78 -50q-59 -39 -158 -170q-70 -98 -139 -196l-57 -66q-47 -53 -47 -65z" />
<glyph unicode="&#xbe;" horiz-adv-x="804" d="M-362 -821q0 100 86 229q129 197 135 211q27 57 94 152q82 115 121 223q12 35 43 102q27 51 26 70q0 12 -10 12q-12 0 -37.5 -20.5t-40.5 -20.5q-23 0 -22 10q0 4 22 21q37 33 111 96q63 53 110 119q70 100 147 215t232 344q29 31 84 98q20 27 67.5 53.5t80.5 26.5 q16 0 39.5 -18.5t23.5 -34.5q0 -8 -22.5 -39t-28.5 -47q-29 -86 -145 -258q-57 -86 -201 -221q-4 -4 -143 -140q-29 -29 -88 -81q-35 -27 -35 -56q0 -16 45 -16q49 0 86 18q82 39 114 97q14 29 29 57q23 43 41 43q14 0 34.5 -17.5t20.5 -31.5q0 -6 -19.5 -32t-19.5 -36 q0 -6 22 -29.5t22 -41.5q0 -25 -56 -74q-66 -57 -76 -74q-37 -66 -36 -80q0 -33 36 -33q68 0 250.5 140.5t188.5 140.5q10 0 10 -10q0 -8 -16 -27q-39 -39 -179 -149q-145 -113 -184 -133q-63 -33 -129 -33q-39 0 -71.5 25.5t-32.5 66.5q0 59 55 115q33 35 100 77 q55 35 56 41q0 8 -11.5 22.5t-21.5 14.5q12 0 -87.5 -57t-174.5 -57q-37 0 -78 -80q-72 -166 -228 -490q-31 -76 -100 -225q-29 -59 -98 -166q-68 -78 -107 -78q-35 0 -34 66zM412 438q0 -6 4 -6q18 0 188 184q47 61 141 181q31 55 101 159q14 19 14 29q0 14 -12 14 t-31.5 -19t-36.5 -34q-29 -37 -88 -102q-23 -23 -157 -226q-35 -45 -70 -92q-53 -74 -53 -88z" />
<glyph unicode="&#xbf;" horiz-adv-x="1087" d="M182 131q0 70 29 119q20 31 82 90q23 20 69 59q53 31 158 84q188 74 252 129q82 72 213 310q16 33 49 79q14 12 37 13q66 0 66 -43q0 -31 -54 -119q-14 -29 -45 -82q-61 -96 -213 -184q-90 -53 -270 -156q-123 -68 -160 -96q-88 -70 -88 -152q0 -96 21 -133 q29 -47 116 -57q68 -8 113 -8q102 0 127 28q-37 16 -37 92q0 45 21 86q39 80 117.5 136.5t162.5 56.5q96 0 96 -96q0 -61 -30 -117q-41 -80 -180 -147q-16 -8 -37 -21q-88 -57 -181 -78q-84 -18 -98 -18q-125 0 -209 39q-43 18 -71 57q-55 80 -56 129zM698 102q0 -43 33 -43 q16 0 62 15q35 12 61 41q14 33 43 65l6 -2q4 -6 4 -20t-7 -30.5t-7 -23.5q18 0 53 46q4 4 17 28q20 43 20 70q0 78 -59 78q-39 0 -94.5 -31t-79.5 -64q-51 -66 -52 -129zM1153 1214q0 74 51 74q4 0 47 -10q20 -4 26.5 -20.5t10.5 -32.5q2 -9 2 -15q0 -20 -33.5 -44.5 t-56.5 -24.5q-47 0 -47 73z" />
<glyph unicode="&#xc0;" horiz-adv-x="2082" d="M131 274q0 20 2 37q4 37 25 62q8 6 51 43q51 41 74 41q18 0 39 -19q39 -35 38 -96q0 -18 -2 -55t-2 -56q0 -270 295 -270q152 0 350 82q209 90 334 166q141 88 295 235q137 129 611 654q117 131 219 184q16 10 28 10q47 1 47 -69q0 -14 -2 -29q-10 -72 -163 -317 q-102 -160 -205 -318q-57 -78 -133 -201q-12 -35 -52 -102q-25 -29 -69 -121q-45 -98 -45 -125q0 -18 12 -18q25 0 346 252q14 12 25 12q10 0 10 -10q0 -8 -16.5 -25.5t-124.5 -109.5q-127 -109 -211 -152q-68 -37 -119 -37q-61 0 -62 66q0 63 56.5 173.5t56.5 114.5 q-2 6 -4 7q-2 0 -55.5 -41t-106.5 -41q-33 0 -33 20q0 39 43 39q16 0 43 22.5t34 39t7 38.5q0 84 -53 84q-6 0 -10 -4q-49 -39 -123 -100q-168 -135 -295 -205q-428 -233 -801 -233q-203 0 -284 129q-12 18 -15.5 46.5t-17.5 49.5q-37 51 -37 147zM1804 541q0 -10 31 -39 q18 -18 22.5 -55t12.5 -37t20.5 5t18.5 5q14 0 45 41q55 70 178 250q154 227 238 335.5t84 159.5q-2 4 -5 6q-33 0 -94 -53q-35 -29 -121 -125q-63 -70 -188 -213q-113 -121 -238 -270q-4 -4 -4 -10zM2390 1656q0 12 16.5 23.5t30.5 11.5q16 0 31 -20q6 -12 23 -47 q70 -143 192 -203q258 -123 258 -178q0 -8 -14 -8q-49 0 -230 102q-45 14 -122 61q-33 31 -105 123q-80 106 -80 135z" />
<glyph unicode="&#xc1;" horiz-adv-x="2082" d="M131 274q0 20 2 37q4 37 25 62q8 6 51 43q51 41 74 41q18 0 39 -19q39 -35 38 -96q0 -18 -2 -55t-2 -56q0 -270 295 -270q152 0 350 82q209 90 334 166q141 88 295 235q137 129 611 654q117 131 219 184q16 10 28 10q47 1 47 -69q0 -14 -2 -29q-10 -72 -163 -317 q-102 -160 -205 -318q-57 -78 -133 -201q-12 -35 -52 -102q-25 -29 -69 -121q-45 -98 -45 -125q0 -18 12 -18q25 0 346 252q14 12 25 12q10 0 10 -10q0 -8 -16.5 -25.5t-124.5 -109.5q-127 -109 -211 -152q-68 -37 -119 -37q-61 0 -62 66q0 63 56.5 173.5t56.5 114.5 q-2 6 -4 7q-2 0 -55.5 -41t-106.5 -41q-33 0 -33 20q0 39 43 39q16 0 43 22.5t34 39t7 38.5q0 84 -53 84q-6 0 -10 -4q-49 -39 -123 -100q-168 -135 -295 -205q-428 -233 -801 -233q-203 0 -284 129q-12 18 -15.5 46.5t-17.5 49.5q-37 51 -37 147zM1804 541q0 -10 31 -39 q18 -18 22.5 -55t12.5 -37t20.5 5t18.5 5q14 0 45 41q55 70 178 250q154 227 238 335.5t84 159.5q-2 4 -5 6q-33 0 -94 -53q-35 -29 -121 -125q-63 -70 -188 -213q-113 -121 -238 -270q-4 -4 -4 -10zM2335 1386q0 29 180 125q49 27 233 141q104 66 170 117q78 61 95 62 q10 -1 10 -13q0 -61 -82 -120q-59 -49 -148 -109q-29 -4 -92 -31q-23 -14 -67 -43q-35 -16 -99 -51q-43 -29 -84 -57q-49 -27 -98 -27q-18 0 -18 6z" />
<glyph unicode="&#xc2;" horiz-adv-x="2082" d="M131 274q0 20 2 37q4 37 25 62q8 6 51 43q51 41 74 41q18 0 39 -19q39 -35 38 -96q0 -18 -2 -55t-2 -56q0 -270 295 -270q152 0 350 82q209 90 334 166q141 88 295 235q137 129 611 654q117 131 219 184q16 10 28 10q47 1 47 -69q0 -14 -2 -29q-10 -72 -163 -317 q-102 -160 -205 -318q-57 -78 -133 -201q-12 -35 -52 -102q-25 -29 -69 -121q-45 -98 -45 -125q0 -18 12 -18q25 0 346 252q14 12 25 12q10 0 10 -10q0 -8 -16.5 -25.5t-124.5 -109.5q-127 -109 -211 -152q-68 -37 -119 -37q-61 0 -62 66q0 63 56.5 173.5t56.5 114.5 q-2 6 -4 7q-2 0 -55.5 -41t-106.5 -41q-33 0 -33 20q0 39 43 39q16 0 43 22.5t34 39t7 38.5q0 84 -53 84q-6 0 -10 -4q-49 -39 -123 -100q-168 -135 -295 -205q-428 -233 -801 -233q-203 0 -284 129q-12 18 -15.5 46.5t-17.5 49.5q-37 51 -37 147zM1804 541q0 -10 31 -39 q18 -18 22.5 -55t12.5 -37t20.5 5t18.5 5q14 0 45 41q55 70 178 250q154 227 238 335.5t84 159.5q-2 4 -5 6q-33 0 -94 -53q-35 -29 -121 -125q-63 -70 -188 -213q-113 -121 -238 -270q-4 -4 -4 -10zM2282 1405q0 12 32 29l45 20q25 18 78 45q18 10 78 64q43 43 80 43 q4 0 8 -2h9h10q8 2 12 2q18 0 45 -80q10 -33 39 -90q23 -31 46 -61.5t23 -73.5q0 -18 -53 -19q-35 0 -47 19q-8 10 -20.5 49t-40.5 116q-4 18 -17 50q-6 14 -16 14q-14 0 -135 -74t-152 -74q-25 0 -24 23z" />
<glyph unicode="&#xc3;" horiz-adv-x="2082" d="M131 274q0 20 2 37q4 37 25 62q8 6 51 43q51 41 74 41q18 0 39 -19q39 -35 38 -96q0 -18 -2 -55t-2 -56q0 -270 295 -270q152 0 350 82q209 90 334 166q141 88 295 235q137 129 611 654q117 131 219 184q16 10 28 10q47 1 47 -69q0 -14 -2 -29q-10 -72 -163 -317 q-102 -160 -205 -318q-57 -78 -133 -201q-12 -35 -52 -102q-25 -29 -69 -121q-45 -98 -45 -125q0 -18 12 -18q25 0 346 252q14 12 25 12q10 0 10 -10q0 -8 -16.5 -25.5t-124.5 -109.5q-127 -109 -211 -152q-68 -37 -119 -37q-61 0 -62 66q0 63 56.5 173.5t56.5 114.5 q-2 6 -4 7q-2 0 -55.5 -41t-106.5 -41q-33 0 -33 20q0 39 43 39q16 0 43 22.5t34 39t7 38.5q0 84 -53 84q-6 0 -10 -4q-49 -39 -123 -100q-168 -135 -295 -205q-428 -233 -801 -233q-203 0 -284 129q-12 18 -15.5 46.5t-17.5 49.5q-37 51 -37 147zM1804 541q0 -10 31 -39 q18 -18 22.5 -55t12.5 -37t20.5 5t18.5 5q14 0 45 41q55 70 178 250q154 227 238 335.5t84 159.5q-2 4 -5 6q-33 0 -94 -53q-35 -29 -121 -125q-63 -70 -188 -213q-113 -121 -238 -270q-4 -4 -4 -10zM2255 1499q0 55 51 56q25 0 31 -32t30 -32q12 0 53 10q68 14 201 47 q31 8 90 21q12 0 39 6t43 6q31 0 71 -43t40 -76q0 -29 -37 -86t-66 -57q-12 0 -12 14t11.5 38t11.5 36q0 27 -28 51.5t-54 24.5q-8 0 -21.5 -3t-21.5 -3h-14.5h-16.5q-55 0 -160.5 -24.5t-161.5 -24.5q-80 0 -79 71z" />
<glyph unicode="&#xc4;" horiz-adv-x="2082" d="M131 274q0 20 2 37q4 37 25 62q8 6 51 43q51 41 74 41q18 0 39 -19q39 -35 38 -96q0 -18 -2 -55t-2 -56q0 -270 295 -270q152 0 350 82q209 90 334 166q141 88 295 235q137 129 611 654q117 131 219 184q16 10 28 10q47 1 47 -69q0 -14 -2 -29q-10 -72 -163 -317 q-102 -160 -205 -318q-57 -78 -133 -201q-12 -35 -52 -102q-25 -29 -69 -121q-45 -98 -45 -125q0 -18 12 -18q25 0 346 252q14 12 25 12q10 0 10 -10q0 -8 -16.5 -25.5t-124.5 -109.5q-127 -109 -211 -152q-68 -37 -119 -37q-61 0 -62 66q0 63 56.5 173.5t56.5 114.5 q-2 6 -4 7q-2 0 -55.5 -41t-106.5 -41q-33 0 -33 20q0 39 43 39q16 0 43 22.5t34 39t7 38.5q0 84 -53 84q-6 0 -10 -4q-49 -39 -123 -100q-168 -135 -295 -205q-428 -233 -801 -233q-203 0 -284 129q-12 18 -15.5 46.5t-17.5 49.5q-37 51 -37 147zM1804 541q0 -10 31 -39 q18 -18 22.5 -55t12.5 -37t20.5 5t18.5 5q14 0 45 41q55 70 178 250q154 227 238 335.5t84 159.5q-2 4 -5 6q-33 0 -94 -53q-35 -29 -121 -125q-63 -70 -188 -213q-113 -121 -238 -270q-4 -4 -4 -10zM2349 1458q0 57 41 99q51 47 76 47q18 0 34.5 -25t16.5 -43 q0 -37 -45 -86t-82 -49q-41 0 -41 57zM2722 1428q0 45 31.5 72.5t74.5 27.5q57 0 57 -35q0 -29 -24 -49q-8 -6 -41 -57q-27 -43 -43 -43q-23 0 -39 32q-16 27 -16 52z" />
<glyph unicode="&#xc5;" horiz-adv-x="2082" d="M131 274q0 20 2 37q4 37 25 62q8 6 51 43q51 41 74 41q18 0 39 -19q39 -35 38 -96q0 -18 -2 -55t-2 -56q0 -270 295 -270q152 0 350 82q209 90 334 166q141 88 295 235q137 129 611 654q117 131 219 184q16 10 28 10q47 1 47 -69q0 -14 -2 -29q-10 -72 -163 -317 q-102 -160 -205 -318q-57 -78 -133 -201q-12 -35 -52 -102q-25 -29 -69 -121q-45 -98 -45 -125q0 -18 12 -18q25 0 346 252q14 12 25 12q10 0 10 -10q0 -8 -16.5 -25.5t-124.5 -109.5q-127 -109 -211 -152q-68 -37 -119 -37q-61 0 -62 66q0 63 56.5 173.5t56.5 114.5 q-2 6 -4 7q-2 0 -55.5 -41t-106.5 -41q-33 0 -33 20q0 39 43 39q16 0 43 22.5t34 39t7 38.5q0 84 -53 84q-6 0 -10 -4q-49 -39 -123 -100q-168 -135 -295 -205q-428 -233 -801 -233q-203 0 -284 129q-12 18 -15.5 46.5t-17.5 49.5q-37 51 -37 147zM1804 541q0 -10 31 -39 q18 -18 22.5 -55t12.5 -37t20.5 5t18.5 5q14 0 45 41q55 70 178 250q154 227 238 335.5t84 159.5q-2 4 -5 6q-33 0 -94 -53q-35 -29 -121 -125q-63 -70 -188 -213q-113 -121 -238 -270q-4 -4 -4 -10zM2466 1493q0 14 15.5 36.5t27.5 32t39 29.5q31 12 80 47q16 18 29 19 q10 0 32.5 -15.5t22.5 -22.5t12 -18.5t14 -15.5q25 -51 25 -71q0 -8 -6 -29t-31 -62q-47 -45 -119 -45q-12 0 -34.5 9.5t-32.5 9.5q-25 0 -49.5 35.5t-24.5 60.5zM2566 1487q0 -20 19.5 -34.5t40.5 -14.5q25 0 39 16q39 48 39 58q0 57 -33 57q-12 0 -47 -31t-46.5 -36 t-11.5 -15z" />
<glyph unicode="&#xc6;" horiz-adv-x="1228" d="M92 109q0 51 25 104q29 63 55 125q37 82 64 115q47 68 143 196q242 291 444 379q129 57 234 57q35 0 45 -6q33 -25 33 -86q0 -16 10 -16t112.5 126t124.5 126q16 0 37 -27.5t21 -44.5q0 -10 -22.5 -35.5t-22.5 -42.5q0 -10 8 -10q12 0 47 8t55 8t76 -28q29 -14 45 -49 q45 -97 45 -109q0 -8 -2 -27.5t-2 -31.5q0 -68 -59 -148q-8 -8 -19 -37q-8 -18 -35 -37q-68 -51 -133 -51q-51 0 -81.5 41t-30.5 97q0 113 114 188q29 18 50 18q23 0 22 -16q0 -18 -22 -41q-51 -53 -95 -152q-2 -4 -15 -23.5t-13 -25.5q0 -37 41 -50t36 -13q25 0 40.5 18.5 t31.5 36.5q6 4 17 14q23 20 57.5 85t34.5 92q0 16 -13 41q-10 33 -21 64.5t-42 43.5q-63 25 -96 25q-35 0 -78 -21q-59 -27 -76 -39q-27 -18 -63 -65q-14 -18 -52 -58q-25 -27 -61 -86q-41 -68 -41 -94q0 -18 47 -18q29 0 61.5 12t45.5 12q29 0 53 -27.5t24 -56.5 q0 -39 -65 -59q-45 -14 -96 -14h-19q-10 2 -16 2q-102 0 -195 -197q-80 -172 -80 -289q0 -47 37 -47t131 43q78 37 125 68q33 16 99 53q55 35 83 59q84 68 95 68q12 0 12 -10q0 -12 -51 -58q-78 -68 -137 -114q-27 -20 -164 -97t-170 -90q-45 -16 -76 -16q-43 0 -90 36 t-62.5 76t-15.5 76q0 14 9 43t9 43t-10 15q-6 0 -110.5 -79t-130.5 -87q-8 -4 -56 -37q-35 -29 -82 -29q-74 0 -126 53.5t-52 127.5zM264 35q0 -35 41 -35q76 0 184 100q49 39 146 117q23 18 184 184q43 43 62 70q8 10 22 31q43 45 43 73q0 8 -3 22.5t-3 23.5q0 45 72.5 166 t72.5 176q0 49 -55 49q-29 0 -88 -17q-86 -25 -221 -127q-127 -98 -191 -180q-18 -25 -38.5 -85t-38.5 -83q-49 -57 -86 -166q-29 -92 -56 -182q-47 -152 -47 -137zM1108 555q0 -6 22.5 -16.5t32.5 -10.5q12 0 44 15.5t32 25.5t-13.5 19.5t-23.5 9.5t-26.5 -7t-26.5 -7 q-41 0 -41 -29z" />
<glyph unicode="&#xc7;" horiz-adv-x="958" d="M29 252q0 31 131 63q152 39 180 68q92 86 251 265t247 263q82 78 192 172q33 31 107 84q31 20 59 41q39 27 64 27q27 0 59 -14q41 -18 41 -43l-2 -7q-14 -147 -139 -309q-154 -197 -357 -317q-166 -98 -334 -162q-20 -8 -71 -113q-94 -199 -95 -225q0 -84 109 -84 q100 0 178 37q18 12 58 33q113 41 174 137q70 113 69 166q0 43 -37 43q-86 0 -184 -68q-90 -59 -213 -159q-47 -59 -51 -60q-16 0 -16 19q0 47 98 137q78 72 139 108q49 35 100 68q66 43 105 49q25 2 51 2q90 0 90 -49q0 -90 -78 -217q-57 -94 -96 -133q-47 -49 -137 -92 q-78 -39 -191 -74q-33 -6 -92 -25q-10 -4 -22 -24q-41 -66 -60 -90q-37 -47 -74.5 -72t-62.5 -25q-33 0 -55 37q-14 33 -29 66q-8 20 -8 37q0 61 33 61q35 0 64.5 -55.5t39.5 -55.5q14 0 45 43t31 60q0 10 -16 16q-137 53 -138 195q0 94 54 166q25 35 24 45q0 6 -8 6 q-25 0 -103.5 -27.5t-111.5 -27.5q-12 0 -12 14zM604 489q0 -12 19 -12q18 0 157 64q49 23 135 87t127 107q121 129 191 254q39 74 39 86q0 8 -15 8q-90 0 -151 -39q-37 -23 -113 -100q-98 -100 -112 -115q-51 -45 -115 -133q-80 -111 -109 -141q-53 -61 -53 -66z" />
<glyph unicode="&#xc8;" horiz-adv-x="665" d="M109 55q0 47 69 144q51 70 156 209q31 43 100 118q33 29 33 39l-15 28q-14 28 -14 52q0 35 17 82q25 72 68.5 127t88.5 109q145 174 297 233q188 76 228 76q59 0 98 -37t39 -94q0 -63 -39 -162q-35 -90 -78 -150q-76 -102 -123 -102q-23 0 -51 18q-102 63 -102 162 q0 63 26 64q12 0 23.5 -13.5t11.5 -25.5q0 -4 -4 -15.5t-4 -19.5q0 -27 32.5 -69t61.5 -42q31 0 78 60q37 51 51 90q49 135 49 209q0 53 -61 53q-121 0 -301 -125q-141 -100 -234 -248q-47 -74 -47 -131q0 -23 15 -22l28 13q27 13 51 13q12 0 37 2h39q82 0 82 -61 q0 -53 -62.5 -92t-119.5 -39h-25q-16 2 -24 2q-37 0 -52 -18q-66 -82 -147 -216q-102 -166 -102 -223q0 -59 96 -59q115 0 278 135q20 14 60 39q33 27 96 76q14 12 25 12q10 0 10 -10q0 -14 -84 -86q-51 -43 -105 -86q-143 -129 -251 -158q-45 -10 -99 -10q-18 0 -53 3 t-53 3q-35 0 -62 41q-23 33 -30 74q-2 14 -2 28zM614 594q0 -16 52 -16q43 0 43 20q0 27 -33 27q-16 0 -39 -8.5t-23 -22.5zM1044 1669q0 12 16.5 23.5t30.5 11.5q16 0 31 -20q6 -12 23 -47q70 -143 192 -203q258 -123 258 -178q0 -8 -14 -8q-49 0 -230 102q-45 14 -122 61 q-33 31 -105 123q-80 106 -80 135z" />
<glyph unicode="&#xc9;" horiz-adv-x="665" d="M109 55q0 47 69 144q51 70 156 209q31 43 100 118q33 29 33 39l-15 28q-14 28 -14 52q0 35 17 82q25 72 68.5 127t88.5 109q145 174 297 233q188 76 228 76q59 0 98 -37t39 -94q0 -63 -39 -162q-35 -90 -78 -150q-76 -102 -123 -102q-23 0 -51 18q-102 63 -102 162 q0 63 26 64q12 0 23.5 -13.5t11.5 -25.5q0 -4 -4 -15.5t-4 -19.5q0 -27 32.5 -69t61.5 -42q31 0 78 60q37 51 51 90q49 135 49 209q0 53 -61 53q-121 0 -301 -125q-141 -100 -234 -248q-47 -74 -47 -131q0 -23 15 -22l28 13q27 13 51 13q12 0 37 2h39q82 0 82 -61 q0 -53 -62.5 -92t-119.5 -39h-25q-16 2 -24 2q-37 0 -52 -18q-66 -82 -147 -216q-102 -166 -102 -223q0 -59 96 -59q115 0 278 135q20 14 60 39q33 27 96 76q14 12 25 12q10 0 10 -10q0 -14 -84 -86q-51 -43 -105 -86q-143 -129 -251 -158q-45 -10 -99 -10q-18 0 -53 3 t-53 3q-35 0 -62 41q-23 33 -30 74q-2 14 -2 28zM614 594q0 -16 52 -16q43 0 43 20q0 27 -33 27q-16 0 -39 -8.5t-23 -22.5zM854 1304q0 29 180 125q49 27 233 141q104 66 170 117q78 61 95 62q10 -1 10 -13q0 -61 -82 -120q-59 -49 -148 -109q-29 -4 -92 -31 q-23 -14 -67 -43q-35 -16 -99 -51q-43 -29 -84 -57q-49 -27 -98 -27q-18 0 -18 6z" />
<glyph unicode="&#xca;" horiz-adv-x="665" d="M109 55q0 47 69 144q51 70 156 209q31 43 100 118q33 29 33 39l-15 28q-14 28 -14 52q0 35 17 82q25 72 68.5 127t88.5 109q145 174 297 233q188 76 228 76q59 0 98 -37t39 -94q0 -63 -39 -162q-35 -90 -78 -150q-76 -102 -123 -102q-23 0 -51 18q-102 63 -102 162 q0 63 26 64q12 0 23.5 -13.5t11.5 -25.5q0 -4 -4 -15.5t-4 -19.5q0 -27 32.5 -69t61.5 -42q31 0 78 60q37 51 51 90q49 135 49 209q0 53 -61 53q-121 0 -301 -125q-141 -100 -234 -248q-47 -74 -47 -131q0 -23 15 -22l28 13q27 13 51 13q12 0 37 2h39q82 0 82 -61 q0 -53 -62.5 -92t-119.5 -39h-25q-16 2 -24 2q-37 0 -52 -18q-66 -82 -147 -216q-102 -166 -102 -223q0 -59 96 -59q115 0 278 135q20 14 60 39q33 27 96 76q14 12 25 12q10 0 10 -10q0 -14 -84 -86q-51 -43 -105 -86q-143 -129 -251 -158q-45 -10 -99 -10q-18 0 -53 3 t-53 3q-35 0 -62 41q-23 33 -30 74q-2 14 -2 28zM614 594q0 -16 52 -16q43 0 43 20q0 27 -33 27q-16 0 -39 -8.5t-23 -22.5zM942 1405q0 12 32 29l45 20q25 18 78 45q18 10 78 64q43 43 80 43q4 0 8 -2h9h10q8 2 12 2q18 0 45 -80q10 -33 39 -90q23 -31 46 -61.5t23 -73.5 q0 -18 -53 -19q-35 0 -47 19q-8 10 -20.5 49t-40.5 116q-4 18 -17 50q-6 14 -16 14q-14 0 -135 -74t-152 -74q-25 0 -24 23z" />
<glyph unicode="&#xcb;" horiz-adv-x="665" d="M109 55q0 47 69 144q51 70 156 209q31 43 100 118q33 29 33 39l-15 28q-14 28 -14 52q0 35 17 82q25 72 68.5 127t88.5 109q145 174 297 233q188 76 228 76q59 0 98 -37t39 -94q0 -63 -39 -162q-35 -90 -78 -150q-76 -102 -123 -102q-23 0 -51 18q-102 63 -102 162 q0 63 26 64q12 0 23.5 -13.5t11.5 -25.5q0 -4 -4 -15.5t-4 -19.5q0 -27 32.5 -69t61.5 -42q31 0 78 60q37 51 51 90q49 135 49 209q0 53 -61 53q-121 0 -301 -125q-141 -100 -234 -248q-47 -74 -47 -131q0 -23 15 -22l28 13q27 13 51 13q12 0 37 2h39q82 0 82 -61 q0 -53 -62.5 -92t-119.5 -39h-25q-16 2 -24 2q-37 0 -52 -18q-66 -82 -147 -216q-102 -166 -102 -223q0 -59 96 -59q115 0 278 135q20 14 60 39q33 27 96 76q14 12 25 12q10 0 10 -10q0 -14 -84 -86q-51 -43 -105 -86q-143 -129 -251 -158q-45 -10 -99 -10q-18 0 -53 3 t-53 3q-35 0 -62 41q-23 33 -30 74q-2 14 -2 28zM614 594q0 -16 52 -16q43 0 43 20q0 27 -33 27q-16 0 -39 -8.5t-23 -22.5zM998 1478q0 57 41 99q51 47 76 47q18 0 34.5 -25t16.5 -43q0 -37 -45 -86t-82 -49q-41 0 -41 57zM1371 1448q0 45 31.5 72.5t74.5 27.5q57 0 57 -35 q0 -29 -24 -49q-8 -6 -41 -57q-27 -43 -43 -43q-23 0 -39 32q-16 27 -16 52z" />
<glyph unicode="&#xcc;" horiz-adv-x="827" d="M29 61q0 35 20 58q31 43 62 84q41 55 71 63q8 2 28.5 20.5t45.5 18.5t41 -39q23 -59 22 -63q0 -29 -32.5 -71t-59.5 -58q-10 -4 -34 -19q-33 -27 -33 -43q0 -29 31.5 -47t62.5 -18q23 0 51 6q98 18 256 203q49 57 150 188q127 162 127 180t-26 51t-26 58q0 23 17 49 q27 49 88 141q47 66 153 193q72 72 144 143q115 109 155 109q23 0 23 -23q0 -27 -66 -143q-57 -100 -90 -144q-18 -35 -57 -102l-39 -55q0 -4 22.5 -12.5t22.5 -30.5q0 -39 -50 -117t-87 -104q-37 -8 -88 -45q-8 -18 -23 -54q-37 -80 -75 -133q-10 -16 -58 -96 q-35 -59 -69 -90q-127 -113 -246 -162q-51 -25 -101.5 -48.5t-113.5 -23.5q-90 0 -135 23q-59 29 -78 110q-6 25 -6 43zM860 633q0 -31 31 -31q6 0 92 123q53 94 176 274q8 9 8 17q0 23 -12 22q-16 0 -57 -39q-80 -74 -224 -303q-14 -23 -14 -63zM989 594q0 -6 8 -6 q4 0 13 2q20 4 62 67t42 86q0 25 -12 25q-10 0 -61.5 -84t-51.5 -90zM1179 1663q0 12 16.5 23.5t30.5 11.5q16 0 31 -20q6 -12 23 -47q70 -143 192 -203q258 -123 258 -178q0 -8 -14 -8q-49 0 -230 102q-45 14 -122 61q-33 31 -105 123q-80 106 -80 135z" />
<glyph unicode="&#xcd;" horiz-adv-x="827" d="M29 61q0 35 20 58q31 43 62 84q41 55 71 63q8 2 28.5 20.5t45.5 18.5t41 -39q23 -59 22 -63q0 -29 -32.5 -71t-59.5 -58q-10 -4 -34 -19q-33 -27 -33 -43q0 -29 31.5 -47t62.5 -18q23 0 51 6q98 18 256 203q49 57 150 188q127 162 127 180t-26 51t-26 58q0 23 17 49 q27 49 88 141q47 66 153 193q72 72 144 143q115 109 155 109q23 0 23 -23q0 -27 -66 -143q-57 -100 -90 -144q-18 -35 -57 -102l-39 -55q0 -4 22.5 -12.5t22.5 -30.5q0 -39 -50 -117t-87 -104q-37 -8 -88 -45q-8 -18 -23 -54q-37 -80 -75 -133q-10 -16 -58 -96 q-35 -59 -69 -90q-127 -113 -246 -162q-51 -25 -101.5 -48.5t-113.5 -23.5q-90 0 -135 23q-59 29 -78 110q-6 25 -6 43zM860 633q0 -31 31 -31q6 0 92 123q53 94 176 274q8 9 8 17q0 23 -12 22q-16 0 -57 -39q-80 -74 -224 -303q-14 -23 -14 -63zM989 594q0 -6 8 -6 q4 0 13 2q20 4 62 67t42 86q0 25 -12 25q-10 0 -61.5 -84t-51.5 -90zM1149 1349q0 29 180 125q49 27 233 141q104 66 170 117q78 61 95 62q10 -1 10 -13q0 -61 -82 -120q-59 -49 -148 -109q-29 -4 -92 -31q-23 -14 -67 -43q-35 -16 -99 -51q-43 -29 -84 -57q-49 -27 -98 -27 q-18 0 -18 6z" />
<glyph unicode="&#xce;" horiz-adv-x="827" d="M29 61q0 35 20 58q31 43 62 84q41 55 71 63q8 2 28.5 20.5t45.5 18.5t41 -39q23 -59 22 -63q0 -29 -32.5 -71t-59.5 -58q-10 -4 -34 -19q-33 -27 -33 -43q0 -29 31.5 -47t62.5 -18q23 0 51 6q98 18 256 203q49 57 150 188q127 162 127 180t-26 51t-26 58q0 23 17 49 q27 49 88 141q47 66 153 193q72 72 144 143q115 109 155 109q23 0 23 -23q0 -27 -66 -143q-57 -100 -90 -144q-18 -35 -57 -102l-39 -55q0 -4 22.5 -12.5t22.5 -30.5q0 -39 -50 -117t-87 -104q-37 -8 -88 -45q-8 -18 -23 -54q-37 -80 -75 -133q-10 -16 -58 -96 q-35 -59 -69 -90q-127 -113 -246 -162q-51 -25 -101.5 -48.5t-113.5 -23.5q-90 0 -135 23q-59 29 -78 110q-6 25 -6 43zM860 633q0 -31 31 -31q6 0 92 123q53 94 176 274q8 9 8 17q0 23 -12 22q-16 0 -57 -39q-80 -74 -224 -303q-14 -23 -14 -63zM989 594q0 -6 8 -6 q4 0 13 2q20 4 62 67t42 86q0 25 -12 25q-10 0 -61.5 -84t-51.5 -90zM1090 1350q0 12 32 29l45 20q25 18 78 45q18 10 78 64q43 43 80 43q4 0 8 -2h9h10q8 2 12 2q18 0 45 -80q10 -33 39 -90q23 -31 46 -61.5t23 -73.5q0 -18 -53 -19q-35 0 -47 19q-8 10 -20.5 49t-40.5 116 q-4 18 -17 50q-6 14 -16 14q-14 0 -135 -74t-152 -74q-25 0 -24 23z" />
<glyph unicode="&#xcf;" horiz-adv-x="827" d="M29 61q0 35 20 58q31 43 62 84q41 55 71 63q8 2 28.5 20.5t45.5 18.5t41 -39q23 -59 22 -63q0 -29 -32.5 -71t-59.5 -58q-10 -4 -34 -19q-33 -27 -33 -43q0 -29 31.5 -47t62.5 -18q23 0 51 6q98 18 256 203q49 57 150 188q127 162 127 180t-26 51t-26 58q0 23 17 49 q27 49 88 141q47 66 153 193q72 72 144 143q115 109 155 109q23 0 23 -23q0 -27 -66 -143q-57 -100 -90 -144q-18 -35 -57 -102l-39 -55q0 -4 22.5 -12.5t22.5 -30.5q0 -39 -50 -117t-87 -104q-37 -8 -88 -45q-8 -18 -23 -54q-37 -80 -75 -133q-10 -16 -58 -96 q-35 -59 -69 -90q-127 -113 -246 -162q-51 -25 -101.5 -48.5t-113.5 -23.5q-90 0 -135 23q-59 29 -78 110q-6 25 -6 43zM860 633q0 -31 31 -31q6 0 92 123q53 94 176 274q8 9 8 17q0 23 -12 22q-16 0 -57 -39q-80 -74 -224 -303q-14 -23 -14 -63zM989 594q0 -6 8 -6 q4 0 13 2q20 4 62 67t42 86q0 25 -12 25q-10 0 -61.5 -84t-51.5 -90zM1182 1478q0 57 41 99q51 47 76 47q18 0 34.5 -25t16.5 -43q0 -37 -45 -86t-82 -49q-41 0 -41 57zM1555 1448q0 45 31.5 72.5t74.5 27.5q57 0 57 -35q0 -29 -24 -49q-8 -6 -41 -57q-27 -43 -43 -43 q-23 0 -39 32q-16 27 -16 52z" />
<glyph unicode="&#xd0;" horiz-adv-x="2293" d="M27 70q0 66 54 103.5t75 78.5q14 29 67 85t74 56q49 0 49 -26q0 -23 -55 -84q-14 -41 -51 -107q-14 -29 -47 -84q-33 -45 -33 -53q0 -20 26 -21q33 0 111 52q68 47 98 82q47 51 94 100q61 68 84 110q12 25 39 25q45 0 45 -65q0 -25 -16 -38.5t-39 -45.5 q-27 -39 -40 -53.5t-50 -69t-37 -66.5q0 -16 29 -16q66 0 119 47q92 82 96 86q49 55 49 115q0 49 31 81q51 55 71 56q10 0 20.5 -16.5t10.5 -28.5q0 -14 -17.5 -42t-17.5 -42q0 -35 49 -35q39 0 99.5 53t97.5 53q35 0 35 -36q0 -20 -41 -56q-33 -23 -86 -80q-6 -27 -35 -79 q-47 -53 -47 -84q0 -14 29 -15q23 0 49 17q53 31 166 118q121 94 143 129q90 133 90 144q0 6 -31 6q-12 0 -34 -2h-37q-14 0 -43 6t-43 6q-8 0 -21 -2h-18q-53 0 -53 21q0 25 65 24q25 0 72 2t71 2q10 0 31 -2t31 -2q51 0 70 31q29 51 96 141q31 49 80 131q20 33 57 101 q8 18 46 50t58 32q27 0 27 -43q0 -45 -31 -84q-18 -31 -61 -82q-12 -31 -43 -84q-14 -16 -35.5 -64.5t-38.5 -64.5q-37 -37 -37 -45q0 -14 82 -15h37h37q43 0 76 56q33 47 96 139q37 49 104 151q70 115 132 187q41 49 67 49q43 0 43 -41q0 -18 -12 -41q-18 -51 -66 -145 q-18 -57 -75 -160q-18 -31 -64 -82q-4 -6 -31.5 -43t-27.5 -41q0 -14 28 -14q23 0 23 -23q0 -27 -68 -27q-47 0 -78 -24q-31 -31 -94 -82q-47 -25 -47 -74q0 -8 10 -8q16 0 89 51t98 58q113 23 108 22q35 0 66 -33.5t31 -70.5q0 -59 -35 -107q-35 -59 -84 -131 q-23 -16 -23 -31q0 -18 37 -18q35 0 68 10q47 16 110 70q82 68 105 80q49 43 116 92q6 2 11 2q10 0 10 -8q0 -4 -4 -12.5t-92 -86t-97 -82.5q-37 -31 -110 -77q-145 -55 -160 -56q-117 0 -117 88q0 49 79 148.5t79 128.5q0 39 -39 39q-27 0 -94 -37q-59 -31 -86 -55 q-41 -27 -117 -92q-27 -29 -72 -97q-16 -39 -47 -73q-39 -43 -73 -43q-14 0 -31.5 11t-17.5 25q0 8 43 60q20 37 71 104q61 61 62 82q0 10 -9 10q-14 0 -50 -29.5t-101 -90.5q-37 -20 -96 -68q-74 -70 -133 -70q-57 0 -71.5 43t-37.5 43q-12 0 -25 -10q-41 -37 -112 -76 q-82 -45 -127 -45q-31 0 -52.5 29t-21.5 63q0 41 39 104.5t39 65.5q0 8 -33 9q-6 0 -20 -2h-19q-29 0 -69 -56q-27 -35 -87.5 -85t-97.5 -60q-4 -2 -63 -27q-47 -18 -64 -18q-72 0 -71 51q0 6 2 14v17q0 18 -11 18q-6 0 -96 -54t-147 -54q-27 0 -51.5 17t-26.5 42 q0 8 -5 32.5t-5 37.5zM1311 813q0 51 88 51q43 0 43 -39q0 -55 -82 -55q-49 0 -49 43zM1346 119q0 -27 12 -27q27 0 162 92q39 35 118 99q25 16 67 64.5t42 66.5q0 10 -14 10q-6 0 -19.5 -2t-19.5 -2q-10 0 -29.5 2t-30.5 2q-57 0 -88 -6q-45 -8 -172 -213q-29 -49 -28 -86z M1880 514q0 -14 18 -14q23 0 42.5 20.5t35.5 38.5q37 31 97 117q63 94 63 129q0 14 -10 14q-25 0 -135.5 -138t-110.5 -167z" />
<glyph unicode="&#xd1;" horiz-adv-x="1341" d="M20 29q0 25 15.5 73t30.5 68l40 61q31 43 54.5 55.5t75.5 12.5q68 0 67 -78q0 -61 -24 -92q-12 -16 -48 -35q-25 -14 -24 -31q0 -29 61 -28q86 0 209 80q203 131 343.5 269t273.5 341q29 41 57 80q18 31 29 98q20 145 96 246q70 92 121 92q53 0 53 -35q0 -10 -20 -57 q-37 -82 -85.5 -137.5t-48.5 -110.5q0 -10 3.5 -32.5t3.5 -34.5q0 -6 -4.5 -20.5t-4.5 -22.5q0 -23 13.5 -66t13.5 -66q0 -20 -4 -59t-4 -57q0 -43 24 -43q12 0 37 18q362 258 975 500q94 37 621 203q541 168 1001 168h27q285 0 422 -37q233 -63 309 -254q31 -81 31 -97 q0 -23 -33 -22q-12 0 -23 33q-6 23 -12 45q-94 262 -741 262q-371 0 -760 -88q-94 -23 -453 -141q-125 -41 -373 -129q-438 -172 -813 -404q-197 -121 -239 -197q-23 -51 -70 -149q-18 -29 -45 -92q-14 -57 -16 -64q-10 -33 -29 -59q-43 -55 -94 -55q-47 0 -47 26 q0 2 86 170q20 41 51 147.5t31 145.5q0 10 -3 30.5t-3 28.5q0 18 3 52t3 53q0 94 -23 94q-16 0 -65 -76q-84 -129 -158 -196q-78 -80 -246 -223l-184 -132q-127 -86 -189 -108q-35 -12 -51 -12q-4 0 -10 2h-10q-14 0 -43 -10.5t-45 -10.5q-51 0 -90 27q-45 31 -46 80z M1668 1409q0 55 51 56q25 0 31 -32t30 -32q12 0 53 10q68 14 201 47q31 8 90 21q12 0 39 6t43 6q31 0 71 -43t40 -76q0 -29 -37 -86t-66 -57q-12 0 -12 14t11.5 38t11.5 36q0 27 -28 51.5t-54 24.5q-8 0 -21.5 -3t-21.5 -3h-14.5h-16.5q-55 0 -160.5 -24.5t-161.5 -24.5 q-80 0 -79 71z" />
<glyph unicode="&#xd2;" horiz-adv-x="856" d="M82 57q0 80 33 136q127 211 233 331q102 113 240 244q59 53 172 162q84 92 125 125q84 68 157 67q6 0 17.5 -3t17.5 -3q18 0 58.5 13.5t60.5 13.5q27 0 49 -17q64 -51 64 -94q0 -12 -6 -31q-16 -51 -80 -180q-119 -240 -252 -411q-135 -178 -170 -217 q-104 -117 -211 -170q-213 -106 -344 -107q-164 0 -164 141zM260 29q0 -39 47 -39q117 0 293 96q135 72 274 285q102 174 205 350q123 209 123 264q0 29 -20 29q-25 0 -199 -144q-109 -88 -207 -243q-55 -63 -149 -201q-31 -55 -97 -168q-78 -131 -96 -145q-6 -4 -10 -4 q-16 0 -16 28q0 8 21.5 41t27.5 43q33 47 88 152q43 109 110 205q23 33 142 186q53 68 180 192q68 66 67 80q0 27 -24 27q-18 0 -77.5 -47t-76.5 -72q-53 -59 -153 -180q-74 -94 -256 -344q-123 -164 -170 -297q-27 -74 -27 -94zM1050 1595q0 12 16.5 23.5t30.5 11.5 q16 0 31 -20q6 -12 23 -47q70 -143 192 -203q258 -123 258 -178q0 -8 -14 -8q-49 0 -230 102q-45 14 -122 61q-33 31 -105 123q-80 106 -80 135z" />
<glyph unicode="&#xd3;" horiz-adv-x="856" d="M82 57q0 80 33 136q127 211 233 331q102 113 240 244q59 53 172 162q84 92 125 125q84 68 157 67q6 0 17.5 -3t17.5 -3q18 0 58.5 13.5t60.5 13.5q27 0 49 -17q64 -51 64 -94q0 -12 -6 -31q-16 -51 -80 -180q-119 -240 -252 -411q-135 -178 -170 -217 q-104 -117 -211 -170q-213 -106 -344 -107q-164 0 -164 141zM260 29q0 -39 47 -39q117 0 293 96q135 72 274 285q102 174 205 350q123 209 123 264q0 29 -20 29q-25 0 -199 -144q-109 -88 -207 -243q-55 -63 -149 -201q-31 -55 -97 -168q-78 -131 -96 -145q-6 -4 -10 -4 q-16 0 -16 28q0 8 21.5 41t27.5 43q33 47 88 152q43 109 110 205q23 33 142 186q53 68 180 192q68 66 67 80q0 27 -24 27q-18 0 -77.5 -47t-76.5 -72q-53 -59 -153 -180q-74 -94 -256 -344q-123 -164 -170 -297q-27 -74 -27 -94zM971 1239q0 29 180 125q49 27 233 141 q104 66 170 117q78 61 95 62q10 -1 10 -13q0 -61 -82 -120q-59 -49 -148 -109q-29 -4 -92 -31q-23 -14 -67 -43q-35 -16 -99 -51q-43 -29 -84 -57q-49 -27 -98 -27q-18 0 -18 6z" />
<glyph unicode="&#xd4;" horiz-adv-x="856" d="M82 57q0 80 33 136q127 211 233 331q102 113 240 244q59 53 172 162q84 92 125 125q84 68 157 67q6 0 17.5 -3t17.5 -3q18 0 58.5 13.5t60.5 13.5q27 0 49 -17q64 -51 64 -94q0 -12 -6 -31q-16 -51 -80 -180q-119 -240 -252 -411q-135 -178 -170 -217 q-104 -117 -211 -170q-213 -106 -344 -107q-164 0 -164 141zM260 29q0 -39 47 -39q117 0 293 96q135 72 274 285q102 174 205 350q123 209 123 264q0 29 -20 29q-25 0 -199 -144q-109 -88 -207 -243q-55 -63 -149 -201q-31 -55 -97 -168q-78 -131 -96 -145q-6 -4 -10 -4 q-16 0 -16 28q0 8 21.5 41t27.5 43q33 47 88 152q43 109 110 205q23 33 142 186q53 68 180 192q68 66 67 80q0 27 -24 27q-18 0 -77.5 -47t-76.5 -72q-53 -59 -153 -180q-74 -94 -256 -344q-123 -164 -170 -297q-27 -74 -27 -94zM981 1282q0 12 32 29l45 20q25 18 78 45 q18 10 78 64q43 43 80 43q4 0 8 -2h9h10q8 2 12 2q18 0 45 -80q10 -33 39 -90q23 -31 46 -61.5t23 -73.5q0 -18 -53 -19q-35 0 -47 19q-8 10 -20.5 49t-40.5 116q-4 18 -17 50q-6 14 -16 14q-14 0 -135 -74t-152 -74q-25 0 -24 23z" />
<glyph unicode="&#xd5;" horiz-adv-x="856" d="M82 57q0 80 33 136q127 211 233 331q102 113 240 244q59 53 172 162q84 92 125 125q84 68 157 67q6 0 17.5 -3t17.5 -3q18 0 58.5 13.5t60.5 13.5q27 0 49 -17q64 -51 64 -94q0 -12 -6 -31q-16 -51 -80 -180q-119 -240 -252 -411q-135 -178 -170 -217 q-104 -117 -211 -170q-213 -106 -344 -107q-164 0 -164 141zM260 29q0 -39 47 -39q117 0 293 96q135 72 274 285q102 174 205 350q123 209 123 264q0 29 -20 29q-25 0 -199 -144q-109 -88 -207 -243q-55 -63 -149 -201q-31 -55 -97 -168q-78 -131 -96 -145q-6 -4 -10 -4 q-16 0 -16 28q0 8 21.5 41t27.5 43q33 47 88 152q43 109 110 205q23 33 142 186q53 68 180 192q68 66 67 80q0 27 -24 27q-18 0 -77.5 -47t-76.5 -72q-53 -59 -153 -180q-74 -94 -256 -344q-123 -164 -170 -297q-27 -74 -27 -94zM924 1356q0 55 51 56q25 0 31 -32t30 -32 q12 0 53 10q68 14 201 47q31 8 90 21q12 0 39 6t43 6q31 0 71 -43t40 -76q0 -29 -37 -86t-66 -57q-12 0 -12 14t11.5 38t11.5 36q0 27 -28 51.5t-54 24.5q-8 0 -21.5 -3t-21.5 -3h-14.5h-16.5q-55 0 -160.5 -24.5t-161.5 -24.5q-80 0 -79 71z" />
<glyph unicode="&#xd6;" horiz-adv-x="856" d="M82 57q0 80 33 136q127 211 233 331q102 113 240 244q59 53 172 162q84 92 125 125q84 68 157 67q6 0 17.5 -3t17.5 -3q18 0 58.5 13.5t60.5 13.5q27 0 49 -17q64 -51 64 -94q0 -12 -6 -31q-16 -51 -80 -180q-119 -240 -252 -411q-135 -178 -170 -217 q-104 -117 -211 -170q-213 -106 -344 -107q-164 0 -164 141zM260 29q0 -39 47 -39q117 0 293 96q135 72 274 285q102 174 205 350q123 209 123 264q0 29 -20 29q-25 0 -199 -144q-109 -88 -207 -243q-55 -63 -149 -201q-31 -55 -97 -168q-78 -131 -96 -145q-6 -4 -10 -4 q-16 0 -16 28q0 8 21.5 41t27.5 43q33 47 88 152q43 109 110 205q23 33 142 186q53 68 180 192q68 66 67 80q0 27 -24 27q-18 0 -77.5 -47t-76.5 -72q-53 -59 -153 -180q-74 -94 -256 -344q-123 -164 -170 -297q-27 -74 -27 -94zM1059 1335q0 57 41 99q51 47 76 47 q18 0 34.5 -25t16.5 -43q0 -37 -45 -86t-82 -49q-41 0 -41 57zM1432 1305q0 45 31.5 72.5t74.5 27.5q57 0 57 -35q0 -29 -24 -49q-8 -6 -41 -57q-27 -43 -43 -43q-23 0 -39 32q-16 27 -16 52z" />
<glyph unicode="&#xd7;" horiz-adv-x="2068" d="M-27 20q0 23 25 52q20 37 74 102q25 29 73 86q117 131 254 131q35 0 54.5 -28.5t31.5 -28.5q10 0 44 44t46 50q20 12 68 12q45 0 45 -32q0 -12 -21.5 -37t-31.5 -29q-33 -12 -56.5 -55t-70.5 -123q-10 -20 -33 -62q-16 -20 -16 -28q0 -20 20 -21q29 0 103 58q66 47 94 82 q41 45 147 139q49 41 127 96q55 23 101 23q123 0 123 -56q0 -8 -6.5 -24.5t-6.5 -24.5q0 -10 8 -10q-6 0 78 53t133 53q70 0 99 -26q14 -8 28.5 -17.5t14.5 -33.5q0 -41 -23 -86q-23 -37 -41 -74t-80 -101q-37 -39 -37 -71q0 -14 17 -15q31 0 90 27q137 59 186 123 q18 25 63.5 60.5t63.5 58.5q109 133 217 133q29 0 46.5 -14.5t21.5 -14.5q8 0 20 23q55 96 56 200q0 74 -31 142q-51 104 -100 162.5t-146 132.5q-133 102 -141 106q-66 45 -156 84q-256 111 -526 111q-117 0 -221 -23q-172 -33 -277.5 -90t-226.5 -180q-59 -61 -99 -151.5 t-40 -172.5q0 -123 92 -164q57 -27 201 -26q354 0 532 139q188 143 188 244q0 94 -137 94q-33 0 -246 -43q-129 -27 -137 -27q-18 0 -18 17v4q2 47 182 88q150 33 234 33q66 0 94 -31q78 -82 78 -152q0 -29 -15 -61q-39 -90 -149 -178q-100 -78 -205 -117q-231 -82 -446 -82 q-377 0 -377 250q0 154 106 293q152 199 385 301q254 113 570 113q246 0 496.5 -116t404.5 -302q182 -223 182 -424q0 -109 -111 -307q-102 -182 -196 -269q-33 -29 -123 -59q-10 -2 -21 -2q-53 0 -100 47q-27 27 -37 70q0 4 -6 4q-14 0 -106.5 -63.5t-145.5 -63.5 q-31 0 -67.5 37.5t-36.5 70.5q0 31 61.5 120t93.5 112q23 18 23 45q0 51 -49 51q-14 0 -35 -8q-78 -33 -163 -105.5t-132 -148.5q-23 -18 -61 -68q-51 -94 -115 -94q-20 0 -37.5 14.5t-17.5 34.5q0 29 53 108t82 99q23 14 49 55q35 51 47 64q20 20 20 35q0 25 -34 24 q-53 0 -107 -43q-154 -119 -235 -219q-33 -39 -93 -88q-70 -55 -106 -61q-29 -6 -72 -7q-57 0 -69 11q-35 31 -37 30q-16 0 -84 -45t-105 -45q-35 0 -77 29q-49 33 -50 67zM119 59q0 -14 16.5 -29.5t30.5 -15.5t52 17.5t46 23.5q25 14 37 37q25 49 72 90q57 49 57 92 q0 61 -57 62q-6 0 -56 -23q-59 -27 -98 -75q-18 -25 -67 -105q-33 -59 -33 -74zM1747 90q0 -39 29 -39t69 31q33 23 91.5 110.5t58.5 122.5q0 20 -23 21q-41 0 -94 -37q-35 -23 -63 -72q-41 -70 -50 -80q-18 -25 -18 -57z" />
<glyph unicode="&#xd8;" horiz-adv-x="921" d="M150 203q0 14 6 24q8 18 22 78q12 45 41 80q23 29 58.5 95.5t62.5 94.5q51 47 154 146q57 59 143 135q33 27 94 82q106 104 184 147q178 96 203 97q31 0 57.5 -37t26.5 -70q0 -18 -11 -36.5t-11 -22.5q0 -12 27.5 -33.5t27.5 -62.5q0 -29 -12 -62q-2 -41 -21 -110 q-92 -186 -94 -191q-51 -96 -119 -178q-55 -68 -153 -170q-121 -129 -162 -148q-55 -37 -170 -94q-53 -12 -121 -37q-2 -2 -37 -49q-27 -39 -54.5 -67.5t-53.5 -59.5q-43 -45 -60 -45q-29 0 -28 15q150 188 149 208q0 10 -29.5 32t-44.5 26q-45 14 -53 84q-2 16 -12 65 q-10 39 -10 64zM344 188q0 -20 22.5 -46.5t43.5 -26.5q27 0 127 178q57 104 114 209q20 37 70.5 98.5t69 94t51.5 69.5q45 47 57 63q18 25 139 121q29 22 29 47q0 45 -57 45q-20 0 -72 -34q-63 -41 -80 -48q-59 -23 -196 -178q-33 -31 -95 -110q-43 -57 -108 -181 q-8 -41 -39 -120q-76 -129 -76 -181zM469 100q0 -29 53 -28q102 0 258 159q106 123 211 244q76 86 88 172q2 25 39 68t37 59q0 18 -25.5 30.5t-46.5 12.5q-43 0 -125 -67q-74 -61 -131 -154q-35 -57 -120.5 -155.5t-118.5 -149.5q-45 -61 -115 -176q-4 -8 -4 -15z" />
<glyph unicode="&#xd9;" horiz-adv-x="1583" d="M106 207q0 8 48 49q29 27 57 51q39 39 158 150q43 47 133 135q49 43 133 145.5t133 145.5q63 63 190 172q37 27 114 60.5t114 33.5q47 0 78.5 -39t31.5 -86q0 -57 -43 -133q-37 -61 -70.5 -118.5t-47.5 -82.5q-29 -41 -60 -70.5t-157 -209.5q-35 -59 -113 -170 q-25 -29 -47 -56q-33 -39 -35 -61q-12 -76 -12 -60q0 -35 39 -34q88 0 233 102q100 72 293 219q57 51 135 156q43 63 137 184q29 29 76 103.5t72 103.5q39 59 131 160q2 0 31 33q20 23 32 22q16 0 31.5 -23.5t15.5 -41.5q0 -63 -170 -285q-113 -139 -225 -281 q-43 -53 -151 -180q-27 -29 -74 -88q-14 -27 -49 -76q-31 -37 -31 -71q0 -63 57 -64q74 0 217 84q37 20 213 158q14 12 25 12q12 0 12 -10q0 -12 -51 -58q-84 -72 -121 -102q-72 -55 -133 -86q-45 -25 -89 -48.5t-97 -35.5q-35 -8 -45 -8q-43 0 -86 28.5t-43 71.5 q0 23 20.5 69t20.5 48q0 18 -21 18q-14 0 -196 -114q-29 -16 -138.5 -55.5t-136.5 -39.5q-43 0 -78 49.5t-35 94.5q0 47 99 180q143 178 284 356q213 268 240 342q20 57 21 80q0 31 -50 31q-55 0 -107 -25.5t-282 -259.5q-143 -150 -289.5 -297t-293.5 -272q-20 -16 -29 -16 q-18 0 -19 10zM1419 1638q0 12 16.5 23.5t30.5 11.5q16 0 31 -20q6 -12 23 -47q70 -143 192 -203q258 -123 258 -178q0 -8 -14 -8q-49 0 -230 102q-45 14 -122 61q-33 31 -105 123q-80 106 -80 135z" />
<glyph unicode="&#xda;" horiz-adv-x="1583" d="M106 207q0 8 48 49q29 27 57 51q39 39 158 150q43 47 133 135q49 43 133 145.5t133 145.5q63 63 190 172q37 27 114 60.5t114 33.5q47 0 78.5 -39t31.5 -86q0 -57 -43 -133q-37 -61 -70.5 -118.5t-47.5 -82.5q-29 -41 -60 -70.5t-157 -209.5q-35 -59 -113 -170 q-25 -29 -47 -56q-33 -39 -35 -61q-12 -76 -12 -60q0 -35 39 -34q88 0 233 102q100 72 293 219q57 51 135 156q43 63 137 184q29 29 76 103.5t72 103.5q39 59 131 160q2 0 31 33q20 23 32 22q16 0 31.5 -23.5t15.5 -41.5q0 -63 -170 -285q-113 -139 -225 -281 q-43 -53 -151 -180q-27 -29 -74 -88q-14 -27 -49 -76q-31 -37 -31 -71q0 -63 57 -64q74 0 217 84q37 20 213 158q14 12 25 12q12 0 12 -10q0 -12 -51 -58q-84 -72 -121 -102q-72 -55 -133 -86q-45 -25 -89 -48.5t-97 -35.5q-35 -8 -45 -8q-43 0 -86 28.5t-43 71.5 q0 23 20.5 69t20.5 48q0 18 -21 18q-14 0 -196 -114q-29 -16 -138.5 -55.5t-136.5 -39.5q-43 0 -78 49.5t-35 94.5q0 47 99 180q143 178 284 356q213 268 240 342q20 57 21 80q0 31 -50 31q-55 0 -107 -25.5t-282 -259.5q-143 -150 -289.5 -297t-293.5 -272q-20 -16 -29 -16 q-18 0 -19 10zM1475 1202q0 29 180 125q49 27 233 141q104 66 170 117q78 61 95 62q10 -1 10 -13q0 -61 -82 -120q-59 -49 -148 -109q-29 -4 -92 -31q-23 -14 -67 -43q-35 -16 -99 -51q-43 -29 -84 -57q-49 -27 -98 -27q-18 0 -18 6z" />
<glyph unicode="&#xdb;" horiz-adv-x="1583" d="M106 207q0 8 48 49q29 27 57 51q39 39 158 150q43 47 133 135q49 43 133 145.5t133 145.5q63 63 190 172q37 27 114 60.5t114 33.5q47 0 78.5 -39t31.5 -86q0 -57 -43 -133q-37 -61 -70.5 -118.5t-47.5 -82.5q-29 -41 -60 -70.5t-157 -209.5q-35 -59 -113 -170 q-25 -29 -47 -56q-33 -39 -35 -61q-12 -76 -12 -60q0 -35 39 -34q88 0 233 102q100 72 293 219q57 51 135 156q43 63 137 184q29 29 76 103.5t72 103.5q39 59 131 160q2 0 31 33q20 23 32 22q16 0 31.5 -23.5t15.5 -41.5q0 -63 -170 -285q-113 -139 -225 -281 q-43 -53 -151 -180q-27 -29 -74 -88q-14 -27 -49 -76q-31 -37 -31 -71q0 -63 57 -64q74 0 217 84q37 20 213 158q14 12 25 12q12 0 12 -10q0 -12 -51 -58q-84 -72 -121 -102q-72 -55 -133 -86q-45 -25 -89 -48.5t-97 -35.5q-35 -8 -45 -8q-43 0 -86 28.5t-43 71.5 q0 23 20.5 69t20.5 48q0 18 -21 18q-14 0 -196 -114q-29 -16 -138.5 -55.5t-136.5 -39.5q-43 0 -78 49.5t-35 94.5q0 47 99 180q143 178 284 356q213 268 240 342q20 57 21 80q0 31 -50 31q-55 0 -107 -25.5t-282 -259.5q-143 -150 -289.5 -297t-293.5 -272q-20 -16 -29 -16 q-18 0 -19 10zM1432 1315q0 12 32 29l45 20q25 18 78 45q18 10 78 64q43 43 80 43q4 0 8 -2h9h10q8 2 12 2q18 0 45 -80q10 -33 39 -90q23 -31 46 -61.5t23 -73.5q0 -18 -53 -19q-35 0 -47 19q-8 10 -20.5 49t-40.5 116q-4 18 -17 50q-6 14 -16 14q-14 0 -135 -74t-152 -74 q-25 0 -24 23z" />
<glyph unicode="&#xdc;" horiz-adv-x="1583" d="M106 207q0 8 48 49q29 27 57 51q39 39 158 150q43 47 133 135q49 43 133 145.5t133 145.5q63 63 190 172q37 27 114 60.5t114 33.5q47 0 78.5 -39t31.5 -86q0 -57 -43 -133q-37 -61 -70.5 -118.5t-47.5 -82.5q-29 -41 -60 -70.5t-157 -209.5q-35 -59 -113 -170 q-25 -29 -47 -56q-33 -39 -35 -61q-12 -76 -12 -60q0 -35 39 -34q88 0 233 102q100 72 293 219q57 51 135 156q43 63 137 184q29 29 76 103.5t72 103.5q39 59 131 160q2 0 31 33q20 23 32 22q16 0 31.5 -23.5t15.5 -41.5q0 -63 -170 -285q-113 -139 -225 -281 q-43 -53 -151 -180q-27 -29 -74 -88q-14 -27 -49 -76q-31 -37 -31 -71q0 -63 57 -64q74 0 217 84q37 20 213 158q14 12 25 12q12 0 12 -10q0 -12 -51 -58q-84 -72 -121 -102q-72 -55 -133 -86q-45 -25 -89 -48.5t-97 -35.5q-35 -8 -45 -8q-43 0 -86 28.5t-43 71.5 q0 23 20.5 69t20.5 48q0 18 -21 18q-14 0 -196 -114q-29 -16 -138.5 -55.5t-136.5 -39.5q-43 0 -78 49.5t-35 94.5q0 47 99 180q143 178 284 356q213 268 240 342q20 57 21 80q0 31 -50 31q-55 0 -107 -25.5t-282 -259.5q-143 -150 -289.5 -297t-293.5 -272q-20 -16 -29 -16 q-18 0 -19 10zM1440 1335q0 57 41 99q51 47 76 47q18 0 34.5 -25t16.5 -43q0 -37 -45 -86t-82 -49q-41 0 -41 57zM1813 1305q0 45 31.5 72.5t74.5 27.5q57 0 57 -35q0 -29 -24 -49q-8 -6 -41 -57q-27 -43 -43 -43q-23 0 -39 32q-16 27 -16 52z" />
<glyph unicode="&#xdd;" horiz-adv-x="1081" d="M-25 102q0 25 41 54q20 20 62 55q20 14 59 68q37 47 76 67q29 31 84 84q18 18 100 111q72 80 121 172q4 10 88 125q47 66 107 139q31 47 98 117q53 33 80 53q12 10 29 10q27 0 46 -21.5t19 -50.5q0 -25 -17.5 -51t-47.5 -80q-45 -78 -111 -172q-35 -29 -72 -88 q-33 -49 -117.5 -134t-140.5 -126q-18 -14 -123 -119q-55 -51 -155 -165q-45 -61 -45 -115q0 -41 34 -41q39 0 91 39q37 33 75 65q35 27 76 98.5t47 116.5q10 80 68 121q25 20 71 47q6 2 20.5 9.5t25.5 7.5q29 0 28 -21q0 -10 -45 -81.5t-59 -84.5q-18 -18 -19 -55 q0 -39 70 -39q55 0 84 43q27 27 74 89.5t82 80.5q25 12 49 27q33 18 53 18q70 0 70 -57q0 -31 -35 -72q-61 -74 -84 -96q-49 -47 -105 -72q-18 -4 -38.5 -9t-30.5 -19q-37 -59 -37 -89q0 -39 53 -38q94 0 137 16q111 45 254 160q72 57 80 57q10 0 10 -14q0 -10 -45 -49 q-31 -27 -94 -78q-27 -29 -90 -72q-33 -25 -106 -63q-117 -41 -191 -41q-43 0 -88 31.5t-45 72.5q0 27 25.5 65.5t25.5 41.5q0 4 -20 4q-72 0 -89.5 15t-29.5 15q-14 0 -49 -43q-43 -53 -56 -61q-55 -39 -110 -98q-47 -47 -98 -48q-78 0 -109 13q-51 23 -51 92q0 4 3 15.5 t3 15.5q0 35 -25 34q-4 0 -15 -6t-17 -6q-8 0 -9 10zM416 453q0 -4 2 -4q6 0 20 14q29 27 84 78q86 84 125 133q49 55 146 166q47 61 67 137q2 10 19.5 37t17.5 39q0 18 -14 18q-23 0 -72 -51q-39 -41 -57 -72q-27 -27 -74 -88q-53 -74 -145 -225q-8 -14 -68 -98 q-51 -74 -51 -84zM801 231q0 -8 8 -8q18 0 68 33q33 23 43 47q4 8 26.5 33t22.5 35q0 18 -17 18q-16 0 -65 -49q-31 -35 -64 -68q-23 -23 -22 -41z" />
<glyph unicode="&#xde;" horiz-adv-x="1075" d="M449 334q0 39 32.5 63.5t75.5 24.5q53 0 53 -39q0 -27 -37.5 -67t-68.5 -40q-55 0 -55 58zM653 326q0 18 14.5 39.5t30.5 21.5q14 0 39 -23.5t25 -35.5q0 -20 -23.5 -39t-42.5 -19q-43 0 -43 56zM864 436q0 23 20.5 44.5t45.5 21.5q23 0 40 -19.5t17 -44.5 q0 -20 -18.5 -40.5t-36.5 -20.5t-43 21.5t-25 37.5z" />
<glyph unicode="&#xdf;" horiz-adv-x="905" d="M-506 -745q0 18 14.5 55t25.5 50t25.5 51t30.5 52q35 43 115 117q47 47 150 129q57 35 92 76q12 12 123 117q23 23 75 121q35 70 70 137q25 45 25 69q0 12 -11 13q-6 0 -20 -8.5t-43 -24.5q-59 -47 -78 -47q-10 0 -10 10q0 18 119 109q127 98 138 111.5t40 66.5 q57 102 110 198q49 78 148 236q27 45 72 78q25 8 67 30q12 8 37 9q49 0 55 -25q12 -41 13 -88q0 -20 -46 -66q-12 -27 -51 -83q-31 -33 -77 -105t-74 -102q-53 -55 -156 -129q-55 -39 -108 -129q-41 -74 -82 -150q-37 -66 -37 -94q0 -8 6 -8q10 0 52 21.5t42 29.5 q0 41 35 61q10 6 47 41q25 23 55 23q8 0 21.5 -3t19.5 -3q39 0 74 18q63 33 64 35q45 27 53 41q14 31 86.5 93.5t101.5 62.5q4 0 18.5 7t24.5 7q15 0 15 -12q0 -18 -29 -43q-18 -27 -64 -72q-10 -25 -24 -66q-4 -6 -4 -16q0 -8 2 -25.5t2 -25.5q0 -25 -19 -60 q-25 -47 -26 -55q-10 -25 -82 -74q-37 -14 -107 -51q-23 -6 -63 -28q-12 -8 -55 -9q-90 0 -127 47q-2 4 -7.5 24.5t-11.5 20.5q-33 0 -98 -57q-18 -14 -31.5 -26.5t-28.5 -42.5q-20 -39 -65 -115q-27 -33 -56.5 -120t-64.5 -124q-23 -23 -58.5 -80t-60.5 -82 q-92 -88 -137 -118q-88 -63 -164 -64q-88 0 -88 64zM-393 -686q0 -16 12 -16q4 0 25 8q39 14 63 39q37 37 47 43q39 27 78 90q37 45 100 143q25 35 48 72q32 47 32 76q0 6 -6 6q-8 0 -150.5 -127t-160.5 -150q-10 -18 -35 -51q-8 -27 -35 -74q-18 -27 -18 -59zM483 498 q0 -6 6 -6q29 0 95 69q29 33 76 100.5t71 96.5q45 51 45 82q0 10 -8 10q-35 0 -86 -41q-14 -12 -51 -72q-47 -74 -49 -78q-16 -20 -45 -61q-2 -2 -31 -51q-23 -35 -23 -49zM489 47q0 -31 54 -31q66 0 145 88q29 33 29 109q0 27 -6 27q-4 0 -83 -49.5t-87 -55.5 q-20 -20 -27 -41q-2 -6 -13.5 -21.5t-11.5 -25.5z" />
<glyph unicode="&#xe0;" horiz-adv-x="563" d="M4 8q0 82 29 117q14 20 47 57q43 43 139 121q145 94 191 94q43 0 56 -30.5t23 -30.5q14 0 32 19.5t42 19.5q33 0 33 -23q0 -16 -97.5 -131t-97.5 -147q0 -29 19 -29q41 0 171 105.5t142 105.5q10 0 10 -10t-18 -27q-45 -45 -154 -133q-125 -100 -163.5 -112.5 t-61.5 -12.5q-37 0 -54.5 32t-23.5 32q-12 0 -73 -39q-41 -29 -97 -29q-94 0 -94 51zM150 82q0 -35 32 -35q29 0 82 37t76 63q86 109 86 166q0 27 -25 27q-63 0 -157 -95t-94 -163zM538 1085q0 12 16.5 23.5t30.5 11.5q16 0 31 -20q6 -12 23 -47q70 -143 192 -203 q258 -123 258 -178q0 -8 -14 -8q-49 0 -230 102q-45 14 -122 61q-33 31 -105 123q-80 106 -80 135z" />
<glyph unicode="&#xe1;" horiz-adv-x="563" d="M4 8q0 82 29 117q14 20 47 57q43 43 139 121q145 94 191 94q43 0 56 -30.5t23 -30.5q14 0 32 19.5t42 19.5q33 0 33 -23q0 -16 -97.5 -131t-97.5 -147q0 -29 19 -29q41 0 171 105.5t142 105.5q10 0 10 -10t-18 -27q-45 -45 -154 -133q-125 -100 -163.5 -112.5 t-61.5 -12.5q-37 0 -54.5 32t-23.5 32q-12 0 -73 -39q-41 -29 -97 -29q-94 0 -94 51zM150 82q0 -35 32 -35q29 0 82 37t76 63q86 109 86 166q0 27 -25 27q-63 0 -157 -95t-94 -163zM355 649q0 29 180 125q49 27 233 141q104 66 170 117q78 61 95 62q10 -1 10 -13 q0 -61 -82 -120q-59 -49 -148 -109q-29 -4 -92 -31q-23 -14 -67 -43q-35 -16 -99 -51q-43 -29 -84 -57q-49 -27 -98 -27q-18 0 -18 6z" />
<glyph unicode="&#xe2;" horiz-adv-x="563" d="M4 8q0 82 29 117q14 20 47 57q43 43 139 121q145 94 191 94q43 0 56 -30.5t23 -30.5q14 0 32 19.5t42 19.5q33 0 33 -23q0 -16 -97.5 -131t-97.5 -147q0 -29 19 -29q41 0 171 105.5t142 105.5q10 0 10 -10t-18 -27q-45 -45 -154 -133q-125 -100 -163.5 -112.5 t-61.5 -12.5q-37 0 -54.5 32t-23.5 32q-12 0 -73 -39q-41 -29 -97 -29q-94 0 -94 51zM150 82q0 -35 32 -35q29 0 82 37t76 63q86 109 86 166q0 27 -25 27q-63 0 -157 -95t-94 -163zM492 852q0 12 32 29l45 20q25 18 78 45q18 10 78 64q43 43 80 43q4 0 8 -2h9h10q8 2 12 2 q18 0 45 -80q10 -33 39 -90q23 -31 46 -61.5t23 -73.5q0 -18 -53 -19q-35 0 -47 19q-8 10 -20.5 49t-40.5 116q-4 18 -17 50q-6 14 -16 14q-14 0 -135 -74t-152 -74q-25 0 -24 23z" />
<glyph unicode="&#xe3;" horiz-adv-x="563" d="M4 8q0 82 29 117q14 20 47 57q43 43 139 121q145 94 191 94q43 0 56 -30.5t23 -30.5q14 0 32 19.5t42 19.5q33 0 33 -23q0 -16 -97.5 -131t-97.5 -147q0 -29 19 -29q41 0 171 105.5t142 105.5q10 0 10 -10t-18 -27q-45 -45 -154 -133q-125 -100 -163.5 -112.5 t-61.5 -12.5q-37 0 -54.5 32t-23.5 32q-12 0 -73 -39q-41 -29 -97 -29q-94 0 -94 51zM150 82q0 -35 32 -35q29 0 82 37t76 63q86 109 86 166q0 27 -25 27q-63 0 -157 -95t-94 -163zM433 864q0 55 51 56q25 0 31 -32t30 -32q12 0 53 10q68 14 201 47q31 8 90 21q12 0 39 6 t43 6q31 0 71 -43t40 -76q0 -29 -37 -86t-66 -57q-12 0 -12 14t11.5 38t11.5 36q0 27 -28 51.5t-54 24.5q-8 0 -21.5 -3t-21.5 -3h-14.5h-16.5q-55 0 -160.5 -24.5t-161.5 -24.5q-80 0 -79 71z" />
<glyph unicode="&#xe4;" horiz-adv-x="563" d="M4 8q0 82 29 117q14 20 47 57q43 43 139 121q145 94 191 94q43 0 56 -30.5t23 -30.5q14 0 32 19.5t42 19.5q33 0 33 -23q0 -16 -97.5 -131t-97.5 -147q0 -29 19 -29q41 0 171 105.5t142 105.5q10 0 10 -10t-18 -27q-45 -45 -154 -133q-125 -100 -163.5 -112.5 t-61.5 -12.5q-37 0 -54.5 32t-23.5 32q-12 0 -73 -39q-41 -29 -97 -29q-94 0 -94 51zM150 82q0 -35 32 -35q29 0 82 37t76 63q86 109 86 166q0 27 -25 27q-63 0 -157 -95t-94 -163zM516 864q0 57 41 99q51 47 76 47q18 0 34.5 -25t16.5 -43q0 -37 -45 -86t-82 -49 q-41 0 -41 57zM889 834q0 45 31.5 72.5t74.5 27.5q57 0 57 -35q0 -29 -24 -49q-8 -6 -41 -57q-27 -43 -43 -43q-23 0 -39 32q-16 27 -16 52z" />
<glyph unicode="&#xe5;" horiz-adv-x="563" d="M4 8q0 82 29 117q14 20 47 57q43 43 139 121q145 94 191 94q43 0 56 -30.5t23 -30.5q14 0 32 19.5t42 19.5q33 0 33 -23q0 -16 -97.5 -131t-97.5 -147q0 -29 19 -29q41 0 171 105.5t142 105.5q10 0 10 -10t-18 -27q-45 -45 -154 -133q-125 -100 -163.5 -112.5 t-61.5 -12.5q-37 0 -54.5 32t-23.5 32q-12 0 -73 -39q-41 -29 -97 -29q-94 0 -94 51zM150 82q0 -35 32 -35q29 0 82 37t76 63q86 109 86 166q0 27 -25 27q-63 0 -157 -95t-94 -163zM602 899q0 14 15.5 36.5t27.5 32t39 29.5q31 12 80 47q16 18 29 19q10 0 32.5 -15.5 t22.5 -22.5t12 -18.5t14 -15.5q25 -51 25 -71q0 -8 -6 -29t-31 -62q-47 -45 -119 -45q-12 0 -34.5 9.5t-32.5 9.5q-25 0 -49.5 35.5t-24.5 60.5zM702 893q0 -20 19.5 -34.5t40.5 -14.5q25 0 39 16q39 48 39 58q0 57 -33 57q-12 0 -47 -31t-46.5 -36t-11.5 -15z" />
<glyph unicode="&#xe6;" horiz-adv-x="745" d="M4 8q0 82 29 117q14 20 47 57q43 43 139 121q145 94 191 94q51 0 59 -41q0 -6 4 -6q-2 0 19 19q6 6 26 6q31 0 37 -17q8 -23 6 -22q2 0 55.5 26.5t71.5 26.5q35 0 35 -41q0 -86 -94 -155q-86 -61 -162 -93q-14 -6 -39 -24q-8 -12 -8 -27q0 -35 63 -33h4q66 0 154 47 q63 35 246 181q14 12 24 12q11 0 11 -10q0 -12 -52 -58q-127 -113 -211 -161q-127 -74 -251 -74q-55 0 -87 38t-38 38q-20 0 -88 -43q-41 -29 -97 -29q-94 0 -94 51zM150 82q0 -35 32 -35q29 0 82 37t76 63q86 109 86 166q0 27 -25 27q-63 0 -157 -95t-94 -163zM489 174 q0 -6 9 -6q16 0 63 30.5t57 47.5q21 31 21 47q0 4 -2 6h-8q-27 0 -83.5 -50t-56.5 -75z" />
<glyph unicode="&#xe7;" horiz-adv-x="471" d="M-104 -123q0 61 36 62q31 0 61 -55.5t40 -55.5q14 0 45 43t31 59q0 12 -17 17q-88 16 -88 69q0 139 197 285q160 119 200 119q104 0 105 -80q0 -23 -32 -59.5t-54 -36.5q-14 0 -26.5 14t-12.5 31q0 6 5 22.5t5 24.5q0 16 -10 16q-23 0 -78 -30.5t-61 -49.5 q-2 -10 -21.5 -41.5t-19.5 -49t-22.5 -59.5t-22.5 -67q0 -49 47 -49q25 0 65 21q25 10 76 34q14 6 82 48q20 12 63 38q20 14 121 97q12 12 25 12q10 0 10 -10t-16 -27q-145 -141 -400 -260q-12 -6 -23 -11t-22 -24q-45 -76 -86 -123q-57 -63 -108 -63q-37 0 -54.5 34.5 t-31.5 67.5q-8 18 -8 37z" />
<glyph unicode="&#xe8;" horiz-adv-x="411" d="M-31 57q0 33 47 89.5t98.5 114.5t116.5 95q94 53 123 54q35 0 35 -41q0 -86 -95 -157t-159 -91q-14 -6 -15 -7t-5 -16q-16 -41 -17 -49q0 -33 58 -33q63 0 153 47q53 29 244 181q14 12 25 12q12 0 12 -10q0 -12 -51 -58q-129 -113 -213 -161q-127 -74 -252 -74 q-104 0 -105 104zM158 195q0 -6 8 -7q16 0 62 31t59 47q18 31 18 47q0 4 -2 6h-8q-27 0 -82 -50t-55 -74zM477 1085q0 12 16.5 23.5t30.5 11.5q16 0 31 -20q6 -12 23 -47q70 -143 192 -203q258 -123 258 -178q0 -8 -14 -8q-49 0 -230 102q-45 14 -122 61q-33 31 -105 123 q-80 106 -80 135z" />
<glyph unicode="&#xe9;" horiz-adv-x="411" d="M-31 57q0 33 47 89.5t98.5 114.5t116.5 95q94 53 123 54q35 0 35 -41q0 -86 -95 -157t-159 -91q-14 -6 -15 -7t-5 -16q-16 -41 -17 -49q0 -33 58 -33q63 0 153 47q53 29 244 181q14 12 25 12q12 0 12 -10q0 -12 -51 -58q-129 -113 -213 -161q-127 -74 -252 -74 q-104 0 -105 104zM158 195q0 -6 8 -7q16 0 62 31t59 47q18 31 18 47q0 4 -2 6h-8q-27 0 -82 -50t-55 -74zM330 649q0 29 180 125q49 27 233 141q104 66 170 117q78 61 95 62q10 -1 10 -13q0 -61 -82 -120q-59 -49 -148 -109q-29 -4 -92 -31q-23 -14 -67 -43q-35 -16 -99 -51 q-43 -29 -84 -57q-49 -27 -98 -27q-18 0 -18 6z" />
<glyph unicode="&#xea;" horiz-adv-x="411" d="M-31 57q0 33 47 89.5t98.5 114.5t116.5 95q94 53 123 54q35 0 35 -41q0 -86 -95 -157t-159 -91q-14 -6 -15 -7t-5 -16q-16 -41 -17 -49q0 -33 58 -33q63 0 153 47q53 29 244 181q14 12 25 12q12 0 12 -10q0 -12 -51 -58q-129 -113 -213 -161q-127 -74 -252 -74 q-104 0 -105 104zM158 195q0 -6 8 -7q16 0 62 31t59 47q18 31 18 47q0 4 -2 6h-8q-27 0 -82 -50t-55 -74zM381 852q0 12 32 29l45 20q25 18 78 45q18 10 78 64q43 43 80 43q4 0 8 -2h9h10q8 2 12 2q18 0 45 -80q10 -33 39 -90q23 -31 46 -61.5t23 -73.5q0 -18 -53 -19 q-35 0 -47 19q-8 10 -20.5 49t-40.5 116q-4 18 -17 50q-6 14 -16 14q-14 0 -135 -74t-152 -74q-25 0 -24 23z" />
<glyph unicode="&#xeb;" horiz-adv-x="411" d="M-31 57q0 33 47 89.5t98.5 114.5t116.5 95q94 53 123 54q35 0 35 -41q0 -86 -95 -157t-159 -91q-14 -6 -15 -7t-5 -16q-16 -41 -17 -49q0 -33 58 -33q63 0 153 47q53 29 244 181q14 12 25 12q12 0 12 -10q0 -12 -51 -58q-129 -113 -213 -161q-127 -74 -252 -74 q-104 0 -105 104zM158 195q0 -6 8 -7q16 0 62 31t59 47q18 31 18 47q0 4 -2 6h-8q-27 0 -82 -50t-55 -74zM436 864q0 57 41 99q51 47 76 47q18 0 34.5 -25t16.5 -43q0 -37 -45 -86t-82 -49q-41 0 -41 57zM809 834q0 45 31.5 72.5t74.5 27.5q57 0 57 -35q0 -29 -24 -49 q-8 -6 -41 -57q-27 -43 -43 -43q-23 0 -39 32q-16 27 -16 52z" />
<glyph unicode="&#xec;" horiz-adv-x="337" d="M-4 8q0 20 16 47q2 4 60 92q14 31 55 84q10 8 76 99q53 74 82 73q45 0 45 -41q0 -23 -21 -45q-41 -47 -92 -124q-63 -96 -63 -132q0 -18 32 -18q37 0 293 201q12 12 25 12q10 0 10 -10q0 -20 -201 -183q-100 -80 -157.5 -102t-87.5 -22q-25 0 -48.5 21.5t-23.5 47.5z M452 1085q0 12 16.5 23.5t30.5 11.5q16 0 31 -20q6 -12 23 -47q70 -143 192 -203q258 -123 258 -178q0 -8 -14 -8q-49 0 -230 102q-45 14 -122 61q-33 31 -105 123q-80 106 -80 135z" />
<glyph unicode="&#xed;" horiz-adv-x="337" d="M-4 8q0 20 16 47q2 4 60 92q14 31 55 84q10 8 76 99q53 74 82 73q45 0 45 -41q0 -23 -21 -45q-41 -47 -92 -124q-63 -96 -63 -132q0 -18 32 -18q37 0 293 201q12 12 25 12q10 0 10 -10q0 -20 -201 -183q-100 -80 -157.5 -102t-87.5 -22q-25 0 -48.5 21.5t-23.5 47.5z M219 649q0 29 180 125q49 27 233 141q104 66 170 117q78 61 95 62q10 -1 10 -13q0 -61 -82 -120q-59 -49 -148 -109q-29 -4 -92 -31q-23 -14 -67 -43q-35 -16 -99 -51q-43 -29 -84 -57q-49 -27 -98 -27q-18 0 -18 6z" />
<glyph unicode="&#xee;" horiz-adv-x="337" d="M-4 8q0 20 16 47q2 4 60 92q14 31 55 84q10 8 76 99q53 74 82 73q45 0 45 -41q0 -23 -21 -45q-41 -47 -92 -124q-63 -96 -63 -132q0 -18 32 -18q37 0 293 201q12 12 25 12q10 0 10 -10q0 -20 -201 -183q-100 -80 -157.5 -102t-87.5 -22q-25 0 -48.5 21.5t-23.5 47.5z M369 852q0 12 32 29l45 20q25 18 78 45q18 10 78 64q43 43 80 43q4 0 8 -2h9h10q8 2 12 2q18 0 45 -80q10 -33 39 -90q23 -31 46 -61.5t23 -73.5q0 -18 -53 -19q-35 0 -47 19q-8 10 -20.5 49t-40.5 116q-4 18 -17 50q-6 14 -16 14q-14 0 -135 -74t-152 -74q-25 0 -24 23z " />
<glyph unicode="&#xef;" horiz-adv-x="337" d="M-4 8q0 20 16 47q2 4 60 92q14 31 55 84q10 8 76 99q53 74 82 73q45 0 45 -41q0 -23 -21 -45q-41 -47 -92 -124q-63 -96 -63 -132q0 -18 32 -18q37 0 293 201q12 12 25 12q10 0 10 -10q0 -20 -201 -183q-100 -80 -157.5 -102t-87.5 -22q-25 0 -48.5 21.5t-23.5 47.5z M406 864q0 57 41 99q51 47 76 47q18 0 34.5 -25t16.5 -43q0 -37 -45 -86t-82 -49q-41 0 -41 57zM779 834q0 45 31.5 72.5t74.5 27.5q57 0 57 -35q0 -29 -24 -49q-8 -6 -41 -57q-27 -43 -43 -43q-23 0 -39 32q-16 27 -16 52z" />
<glyph unicode="&#xf0;" horiz-adv-x="507" d="M-1245 1198q0 158 123 240q82 57 209 93t233 36q86 0 211 -37q160 -47 225 -70q125 -41 217 -90q547 -287 617 -622q18 -86 18 -234q0 -12 13 -12q25 0 63 10q49 12 61 14q119 16 268.5 100.5t217.5 176.5q18 25 33.5 39t38.5 51q6 27 25.5 58.5t19.5 47.5q12 92 12 93 q0 12 -4 22q-4 35 -8.5 71t-42.5 58q-115 70 -213 70q-178 0 -330 -45q-25 -8 -178 -78q-8 -4 -17 -4q-12 0 -12 10q0 18 25 33q23 8 43 16q53 27 165 70q176 47 367 47q229 0 262 -107q6 -27 23 -81q8 -15 8 -48q0 -160 -98 -299q-90 -133 -240 -211q-55 -33 -174 -86 q-135 -45 -250 -67q-27 -4 -51 -8q-29 -10 -37 -31q-6 -27 -25 -78q-31 -82 -98 -166q-57 -76 -96 -106q-29 -16 -84 -56q-100 -78 -148 -77q-45 0 -90 34q-20 16 -27 34t-16 38q-6 12 -6 23q0 29 43 73q12 20 42 57.5t106 78.5q63 39 127 75q84 45 137 45q14 0 24.5 -6 t12.5 -6q25 0 24 37q0 12 -22 14q16 -2 -107 -2q-193 0 -269.5 12.5t-231.5 28.5q-84 4 -445 119q-694 223 -694 602zM-1159 1219q0 -29 2 -62q8 -88 65 -160q31 -37 125 -118q104 -88 414 -217q215 -88 410 -125q295 -53 573 -54q74 0 92 9q29 16 29 86q0 51 -14 133 q-39 227 -279 403q-166 123 -170 125q-102 72 -180 106.5t-234 96.5q-88 31 -260 55q-104 14 -137 14q-154 0 -272 -63q-86 -45 -121 -90q-43 -53 -43 -139zM168 49q0 -25 8 -24q31 0 109 55q61 45 96 78q86 84 86 131q0 35 -33 35q-70 0 -168 -101.5t-98 -173.5z" />
<glyph unicode="&#xf1;" horiz-adv-x="737" d="M45 -10q0 16 18 39q43 51 121 159q4 6 37 52q29 39 29 45q0 4 -4 6q-2 0 -86 -69.5t-94 -69.5t-11 16q0 8 23.5 27.5t130.5 115.5q20 27 70 68q20 12 36 12q18 0 35 -20.5t17 -38.5q0 -12 -15.5 -34t-15.5 -28t6 -6q10 0 101.5 57.5t160.5 57.5q29 0 52.5 -28.5 t23.5 -57.5q0 -47 -100.5 -151.5t-100.5 -118.5l2 -5q8 -8 25 -8q66 0 137 53q111 82 234 181q14 12 24 12t10 -10q0 -25 -213 -193q-70 -53 -118 -71q-111 -39 -140 -39q-35 0 -75 57q-10 10 -11 25q0 41 107.5 149.5t107.5 124.5t-37 16q-33 0 -81 -32q-37 -25 -76 -52 q-61 -37 -113 -108q-39 -47 -104 -148q-12 -23 -39 -22q-74 0 -74 37zM494 864q0 55 51 56q25 0 31 -32t30 -32q12 0 53 10q68 14 201 47q31 8 90 21q12 0 39 6t43 6q31 0 71 -43t40 -76q0 -29 -37 -86t-66 -57q-12 0 -12 14t11.5 38t11.5 36q0 27 -28 51.5t-54 24.5 q-8 0 -21.5 -3t-21.5 -3h-14.5h-16.5q-55 0 -160.5 -24.5t-161.5 -24.5q-80 0 -79 71z" />
<glyph unicode="&#xf2;" horiz-adv-x="538" d="M4 45q0 47 123 184q78 86 170 129q29 16 60.5 34t56.5 18q27 0 41 -19q47 -66 47 -78q0 -4 -2 -15t-2 -17t2 -18.5t2 -18.5q0 -27 -17.5 -47.5t-17.5 -28.5q0 -33 43 -33q39 0 113.5 60.5t85.5 60.5q12 0 12 -10q0 -20 -90 -90q-82 -63 -113 -74q-14 -4 -31 -4 q-37 0 -64.5 18.5t-23.5 18.5q-12 0 -34 -33q-29 -47 -103 -96t-127 -49q-131 0 -131 108zM172 74q0 -45 41 -45q37 0 92 55q47 47 68 88q8 18 8 41q0 6 -2 17.5t-2 17.5q0 25 11 45t11 22q0 16 -26 17q-10 0 -29 -6q-33 -12 -102.5 -110.5t-69.5 -141.5zM538 1085 q0 12 16.5 23.5t30.5 11.5q16 0 31 -20q6 -12 23 -47q70 -143 192 -203q258 -123 258 -178q0 -8 -14 -8q-49 0 -230 102q-45 14 -122 61q-33 31 -105 123q-80 106 -80 135z" />
<glyph unicode="&#xf3;" horiz-adv-x="538" d="M4 45q0 47 123 184q78 86 170 129q29 16 60.5 34t56.5 18q27 0 41 -19q47 -66 47 -78q0 -4 -2 -15t-2 -17t2 -18.5t2 -18.5q0 -27 -17.5 -47.5t-17.5 -28.5q0 -33 43 -33q39 0 113.5 60.5t85.5 60.5q12 0 12 -10q0 -20 -90 -90q-82 -63 -113 -74q-14 -4 -31 -4 q-37 0 -64.5 18.5t-23.5 18.5q-12 0 -34 -33q-29 -47 -103 -96t-127 -49q-131 0 -131 108zM172 74q0 -45 41 -45q37 0 92 55q47 47 68 88q8 18 8 41q0 6 -2 17.5t-2 17.5q0 25 11 45t11 22q0 16 -26 17q-10 0 -29 -6q-33 -12 -102.5 -110.5t-69.5 -141.5zM330 649 q0 29 180 125q49 27 233 141q104 66 170 117q78 61 95 62q10 -1 10 -13q0 -61 -82 -120q-59 -49 -148 -109q-29 -4 -92 -31q-23 -14 -67 -43q-35 -16 -99 -51q-43 -29 -84 -57q-49 -27 -98 -27q-18 0 -18 6z" />
<glyph unicode="&#xf4;" horiz-adv-x="538" d="M4 45q0 47 123 184q78 86 170 129q29 16 60.5 34t56.5 18q27 0 41 -19q47 -66 47 -78q0 -4 -2 -15t-2 -17t2 -18.5t2 -18.5q0 -27 -17.5 -47.5t-17.5 -28.5q0 -33 43 -33q39 0 113.5 60.5t85.5 60.5q12 0 12 -10q0 -20 -90 -90q-82 -63 -113 -74q-14 -4 -31 -4 q-37 0 -64.5 18.5t-23.5 18.5q-12 0 -34 -33q-29 -47 -103 -96t-127 -49q-131 0 -131 108zM172 74q0 -45 41 -45q37 0 92 55q47 47 68 88q8 18 8 41q0 6 -2 17.5t-2 17.5q0 25 11 45t11 22q0 16 -26 17q-10 0 -29 -6q-33 -12 -102.5 -110.5t-69.5 -141.5zM430 852 q0 12 32 29l45 20q25 18 78 45q18 10 78 64q43 43 80 43q4 0 8 -2h9h10q8 2 12 2q18 0 45 -80q10 -33 39 -90q23 -31 46 -61.5t23 -73.5q0 -18 -53 -19q-35 0 -47 19q-8 10 -20.5 49t-40.5 116q-4 18 -17 50q-6 14 -16 14q-14 0 -135 -74t-152 -74q-25 0 -24 23z" />
<glyph unicode="&#xf5;" horiz-adv-x="538" d="M4 45q0 47 123 184q78 86 170 129q29 16 60.5 34t56.5 18q27 0 41 -19q47 -66 47 -78q0 -4 -2 -15t-2 -17t2 -18.5t2 -18.5q0 -27 -17.5 -47.5t-17.5 -28.5q0 -33 43 -33q39 0 113.5 60.5t85.5 60.5q12 0 12 -10q0 -20 -90 -90q-82 -63 -113 -74q-14 -4 -31 -4 q-37 0 -64.5 18.5t-23.5 18.5q-12 0 -34 -33q-29 -47 -103 -96t-127 -49q-131 0 -131 108zM172 74q0 -45 41 -45q37 0 92 55q47 47 68 88q8 18 8 41q0 6 -2 17.5t-2 17.5q0 25 11 45t11 22q0 16 -26 17q-10 0 -29 -6q-33 -12 -102.5 -110.5t-69.5 -141.5zM433 864 q0 55 51 56q25 0 31 -32t30 -32q12 0 53 10q68 14 201 47q31 8 90 21q12 0 39 6t43 6q31 0 71 -43t40 -76q0 -29 -37 -86t-66 -57q-12 0 -12 14t11.5 38t11.5 36q0 27 -28 51.5t-54 24.5q-8 0 -21.5 -3t-21.5 -3h-14.5h-16.5q-55 0 -160.5 -24.5t-161.5 -24.5q-80 0 -79 71z " />
<glyph unicode="&#xf6;" horiz-adv-x="538" d="M4 45q0 47 123 184q78 86 170 129q29 16 60.5 34t56.5 18q27 0 41 -19q47 -66 47 -78q0 -4 -2 -15t-2 -17t2 -18.5t2 -18.5q0 -27 -17.5 -47.5t-17.5 -28.5q0 -33 43 -33q39 0 113.5 60.5t85.5 60.5q12 0 12 -10q0 -20 -90 -90q-82 -63 -113 -74q-14 -4 -31 -4 q-37 0 -64.5 18.5t-23.5 18.5q-12 0 -34 -33q-29 -47 -103 -96t-127 -49q-131 0 -131 108zM172 74q0 -45 41 -45q37 0 92 55q47 47 68 88q8 18 8 41q0 6 -2 17.5t-2 17.5q0 25 11 45t11 22q0 16 -26 17q-10 0 -29 -6q-33 -12 -102.5 -110.5t-69.5 -141.5zM514 864 q0 57 41 99q51 47 76 47q18 0 34.5 -25t16.5 -43q0 -37 -45 -86t-82 -49q-41 0 -41 57zM887 834q0 45 31.5 72.5t74.5 27.5q57 0 57 -35q0 -29 -24 -49q-8 -6 -41 -57q-27 -43 -43 -43q-23 0 -39 32q-16 27 -16 52z" />
<glyph unicode="&#xf7;" horiz-adv-x="6885" d="M227 635q0 121 123 231q109 84 217 168q70 61 211 62q129 0 240 -62q119 -66 168 -174t49 -219q0 -14 12 -14q39 0 39 30q0 20 2 65.5t2 65.5q0 41 -4 55.5t-4 22.5q0 20 33 79t51 59q63 0 64 -97q0 -16 -5 -37q-16 -90 -16 -186q0 -16 12 -16q35 0 49 30q59 139 164 224 q121 94 166 94q98 0 98 -25q0 -20 -65 -45q-90 -31 -121 -80q-72 -106 -88 -256q-20 -178 -20 -256q0 -55 8 -90q10 -47 35 -96q33 -66 67 -66q18 0 83 53.5t97 53.5q41 0 41 -23q0 -16 -30 -41q-78 -63 -234 -182q-41 -31 -72 -31q-20 0 -28 21q-16 39 -64 70 q-23 16 -41 131q-20 135 -20 168q0 18 2 57v59q0 35 -6 43t-43 8q-12 0 -15.5 -8t-11.5 -170q0 -18 -6 -57t-6 -59v-13q2 -8 2 -12q0 -20 -13.5 -39.5t-33.5 -19.5q-41 0 -41 41q0 18 5 54t5 54q0 16 -2 50t-2 50q0 18 7 51t7 52q0 18 -28 18q-29 0 -33 -12t-10 -41 q-10 -51 -41 -147q-23 -55 -68 -97q-2 -2 -35 -20q-25 -16 -24 -25q0 -10 12 -10q6 0 26.5 13.5t32.5 13.5q25 0 25 -19q0 -12 -16 -31q-43 -37 -125 -118q-20 -25 -39 -47q-29 -33 -49 -33q-37 0 -37 31q0 10 24.5 35.5t24.5 43.5q0 12 -37 23q-45 14 -59 25 q-76 70 -81 153.5t-22 83.5q-6 0 -27.5 -14.5t-41.5 -14.5q-18 0 -44 15.5t-26 32.5q0 10 16 14q27 8 29 12q10 12 12 14q10 6 24.5 13.5t14.5 17.5q0 31 -55 31q-49 0 -59 -23q-14 -29 -17 -28q-37 -18 -106 -19q-8 0 -17.5 31t-36.5 35q-174 29 -174 215zM344 674 q0 -68 51 -112t119 -44q53 0 108.5 45t73.5 45q23 0 68 -24q55 -31 55 -107q0 -10 -6 -28.5t-6 -28.5q0 -12 13.5 -28.5t27.5 -35.5q8 -12 16 -53t53.5 -81t86.5 -40t69 107q27 86 27 145q0 96 -53 279q-45 164 -314 252q-31 10 -59 10q-66 0 -135 -57q-115 -96 -123 -101 q-72 -43 -72 -143zM1761 453q0 16 43 74.5t62 70.5q55 35 92 79t72 44q39 0 38 -35q0 -2 -7 -18.5t-7 -28.5q0 -14 49 -31.5t54 -52.5q2 -18 2 -94q0 -12 8 -12q10 0 142 103t155 112q14 6 30 6q49 0 50 -27q0 -12 -15.5 -25.5t-15.5 -17.5q0 2 33 -37q66 -78 73 -78 q12 0 91 66q63 55 89.5 85t55.5 61.5t67 31.5q41 0 41 -31q0 -35 -28.5 -63.5t-28.5 -36.5q0 -14 31 -53q16 -18 53 -19q14 0 39 5.5t37 5.5q49 0 49 -56q0 -27 -31 -45q-57 -35 -102 -86q-55 -63 -55 -117q0 -43 41 -77.5t86 -34.5q51 0 120.5 57.5t92.5 57.5q28 0 28 -23 q0 -27 -43 -61q-35 -23 -67 -46q-66 -35 -158 -102q-14 -18 -27 -37q-18 -23 -34 -22q-8 0 -21 8q-158 84 -158 203q0 129 92 202q23 20 23 27q0 8 -27 14q-63 18 -86.5 50t-38.5 32q-29 0 -107.5 -67.5t-78.5 -98.5q0 -10 2 -31.5t2 -31.5q0 -16 -3 -49t-3 -47 q0 -18 14 -19q8 0 25.5 9.5t28.5 9.5q14 0 30.5 -11.5t16.5 -23.5q0 -25 -55.5 -67t-63.5 -64q-23 -55 -55 -56q-8 0 -49 35q-29 27 -99 35q-37 2 -37 45q0 18 44 25.5t53.5 43.5t9.5 99q0 86 2 100q4 59 4 66q0 39 -25 53q-51 29 -63 29q-10 0 -27 -6q-29 -12 -78 -45 q-55 -35 -63 -56q-6 -10 -18 -88q-2 -10 -15 -61q-8 -37 -8 -62q0 -35 26.5 -62.5t26.5 -41.5q0 -16 -16 -33q-25 -16 -76 -53q-20 -16 -31 -16q-14 0 -36.5 20.5t-88.5 56.5q-39 16 -38 33q0 10 18 25q6 4 47 18q29 8 33 31q16 104 16 197q0 16 -2 32q0 39 -2 80 q-8 55 -41 55q-96 0 -125 -32q-33 -39 -57 -39q-27 0 -27 35zM3320 279q0 37 45 110q27 45 51 70q14 12 41 41q29 39 92 108q18 12 51 37q20 18 44 39t40 21q33 0 54 -41q12 -35 24 -68q2 -6 2 -12q0 -8 -30 -80q-2 -2 -31 -101q-18 -57 -53 -94q-41 -45 -132 -108 q-10 -8 -10 -13q0 -25 29 -68.5t51 -43.5q16 0 54 46t61 46q31 0 31 -37q0 -29 -54 -84q-72 -72 -76 -80q-37 -53 -86 -53q-53 0 -119.5 74.5t-74.5 132.5v84q0 12 -2 36.5t-2 37.5zM3490 381q0 -4 4 -16.5t4 -18.5q0 -4 -2 -14v-17q0 -31 12 -30q14 0 58 71q18 29 18 68 q0 70 -20 70t-47 -45.5t-27 -67.5zM3811 446q0 25 35 54q51 51 121 106q43 8 67.5 39t41.5 31q55 0 55 -29q0 -10 -16.5 -28.5t-16.5 -26.5q0 -6 6 -12q20 -12 45 -50q8 -37 29 -36q10 0 20 10q47 47 113 100q39 14 61 41q51 61 91 62q29 0 28 -21q0 -20 -34.5 -49 t-34.5 -45q0 -51 63 -51q18 0 42 20.5t46 20.5q43 0 43 -23q0 -16 -31 -45q-125 -119 -235 -119q-23 0 -51.5 30t-44.5 30t-52 -35q-18 -14 -32.5 -29.5t-18.5 -44.5q-23 -127 -22 -160q0 -10 2 -26v-29q0 -10 -3 -29.5t-3 -29.5q0 -6 15 -19.5t22 -13.5q14 0 57 40t59 40 q20 0 21 -23q0 -23 -76 -92q-70 -61 -102 -78q-4 -2 -20.5 -13t-22.5 -11q-12 0 -59.5 21.5t-61.5 33.5q-4 6 -43 8q-31 2 -31 17q0 33 53 57q39 16 51 137q18 156 19 213q0 59 -66 60q-63 0 -77 -11q-18 -16 -31 -16q-20 0 -21 24zM4526 375q0 23 57 71q70 57 99 82 q53 49 84 97q45 63 51 63q45 0 45 -37q0 -12 -33 -50t-33 -54q0 -14 18.5 -38t33.5 -24q10 0 28.5 3.5t26.5 3.5q25 0 24 -19q0 -25 -53 -66.5t-59 -70.5q-12 -55 -12 -168q0 -63 36 -98q25 -20 29 -21q12 0 67.5 51.5t78.5 51.5q30 0 30 -25q0 -12 -28 -37 q-55 -51 -125 -125q-59 -63 -95 -63q-51 0 -115.5 54t-64.5 101q0 23 10 60q37 131 37 217q0 59 -24 59q-16 0 -40 -29.5t-42 -29.5q-31 0 -31 41zM4622 711q0 8 46 62t46 79q0 4 -18 30.5t-18 49.5q0 55 51 98q43 37 65 37q29 0 52.5 -28.5t23.5 -57.5q0 -92 -57 -168 q-90 -121 -172 -121q-18 0 -19 19zM5116 205q0 150 43 196q33 31 88 95q102 145 174 176q18 8 78 78q53 59 82 59q10 0 27.5 -13.5t17.5 -21.5q0 -18 -39 -51t-39 -49q0 -35 24.5 -65.5t57.5 -30.5q27 0 45 22q27 29 35 35q27 6 72 27q12 8 24 8q33 -1 33 -19q0 -14 -17 -33 q-135 -156 -282 -155q-61 0 -99 31.5t-49 31.5q-10 0 -24 -10q-45 -33 -58 -78q-6 -25 -6 -98q0 -117 33 -180.5t68 -63.5q29 0 109.5 88t94.5 88q25 0 25 -26q0 -4 -45 -58q-66 -76 -84 -94q-49 -53 -92 -86q-80 -59 -127 -106t-70 -47q-20 0 -20 24q0 12 21.5 37t21.5 35 q0 2 -58.5 63.5t-62.5 132.5q-2 25 -2 58zM5722 166q0 125 68 280q74 168 172 224q59 39 180 108q37 10 108 37q35 14 48 14q39 0 39 -30q0 -23 -35 -39q-27 -12 -56 -25q-55 -39 -55 -55q0 -33 31 -76t59 -43q20 0 59.5 18.5t55.5 18.5q14 0 29.5 -11.5t15.5 -25.5 q0 -20 -58.5 -53t-62.5 -47v-43q0 -236 9.5 -247t21.5 -11q18 0 59 30q55 33 168 99q152 90 213 151q18 20 42 46t40 26q29 0 29 -25q0 -20 -25 -38q-12 -16 -39 -50q-20 -25 -67 -55q-102 -53 -285 -166q-70 -61 -139 -125q-102 -86 -158 -86q-33 0 -33 37q0 10 10.5 24.5 t10.5 24.5q0 12 -8 33q-14 43 -15 109q0 25 -12 24q-10 0 -29 -18q-57 -53 -172 -162q-25 -23 -76 -64q-4 -4 -40 -36q-27 -25 -41 -25q-43 0 -43 39q0 10 11 31.5t11 29.5q0 -6 -20.5 41t-20.5 111zM5915 426q0 -23 2 -66v-65q0 -145 47 -145q18 0 88 69q61 59 82 86 q25 35 24 101q0 4 2 14v14q0 16 -30 37q-23 16 -45 31q-20 23 -62 67q-6 8 -18 9q-41 0 -65.5 -38t-24.5 -114z" />
<glyph unicode="&#xf8;" horiz-adv-x="501" d="M-37 -164q0 12 44 61.5t44 59.5q0 -2 -21.5 20.5t-21.5 51.5q0 72 90 147q29 23 39 40t42 49t67 65q53 45 73.5 48t49 15.5t32.5 12.5q18 0 37 -10.5t17 -10.5q16 0 95 99.5t85 101.5t18 2q23 -1 23 -17q0 -20 -33 -53q-25 -23 -49 -47q-106 -125 -107 -125 q0 -6 5.5 -20.5t5.5 -22.5q0 -84 -136 -229q-123 -131 -212 -133h-11q-6 0 -20.5 2t-20.5 2q-12 0 -64 -59.5t-61 -59.5q-10 0 -10 10zM156 84q-2 -12 2 -12l22 22q43 57 131 150q49 43 49 51q0 4 -8 2q-66 0 -104 -43q-14 -20 -45 -59q-8 -10 -27.5 -54.5t-19.5 -56.5z M162 16q0 -16 22 -16q37 0 92.5 43t71.5 78q4 18 21 57q22 31 22 60q0 10 -8 10q4 0 -111 -98q-25 -29 -73 -87q-37 -37 -37 -47z" />
<glyph unicode="&#xf9;" horiz-adv-x="661" d="M-27 37q0 96 123 174q23 14 68 51q27 31 50.5 57.5t64.5 49.5q20 12 36 12q35 0 35 -43q0 -31 -65 -86q-182 -154 -183 -225q0 -23 25 -23q66 0 221 121q18 16 78 92q33 25 100 96q27 37 35 47q25 25 49 25h13q45 2 45 -25q0 -37 -58 -88q-72 -63 -80 -77 q-78 -133 -77 -164q0 -12 16 -13q45 0 200.5 121t164.5 121q10 0 10 -8q0 -25 -152 -143q-141 -109 -183 -131.5t-142 -22.5q-47 0 -48 33q0 6 2.5 16t2.5 16q0 20 -11 21q-33 0 -108 -53q-55 -39 -139 -39q-92 0 -93 88zM600 1085q0 12 16.5 23.5t30.5 11.5q16 0 31 -20 q6 -12 23 -47q70 -143 192 -203q258 -123 258 -178q0 -8 -14 -8q-49 0 -230 102q-45 14 -122 61q-33 31 -105 123q-80 106 -80 135z" />
<glyph unicode="&#xfa;" horiz-adv-x="661" d="M-27 37q0 96 123 174q23 14 68 51q27 31 50.5 57.5t64.5 49.5q20 12 36 12q35 0 35 -43q0 -31 -65 -86q-182 -154 -183 -225q0 -23 25 -23q66 0 221 121q18 16 78 92q33 25 100 96q27 37 35 47q25 25 49 25h13q45 2 45 -25q0 -37 -58 -88q-72 -63 -80 -77 q-78 -133 -77 -164q0 -12 16 -13q45 0 200.5 121t164.5 121q10 0 10 -8q0 -25 -152 -143q-141 -109 -183 -131.5t-142 -22.5q-47 0 -48 33q0 6 2.5 16t2.5 16q0 20 -11 21q-33 0 -108 -53q-55 -39 -139 -39q-92 0 -93 88zM404 649q0 29 180 125q49 27 233 141 q104 66 170 117q78 61 95 62q10 -1 10 -13q0 -61 -82 -120q-59 -49 -148 -109q-29 -4 -92 -31q-23 -14 -67 -43q-35 -16 -99 -51q-43 -29 -84 -57q-49 -27 -98 -27q-18 0 -18 6z" />
<glyph unicode="&#xfb;" horiz-adv-x="661" d="M-27 37q0 96 123 174q23 14 68 51q27 31 50.5 57.5t64.5 49.5q20 12 36 12q35 0 35 -43q0 -31 -65 -86q-182 -154 -183 -225q0 -23 25 -23q66 0 221 121q18 16 78 92q33 25 100 96q27 37 35 47q25 25 49 25h13q45 2 45 -25q0 -37 -58 -88q-72 -63 -80 -77 q-78 -133 -77 -164q0 -12 16 -13q45 0 200.5 121t164.5 121q10 0 10 -8q0 -25 -152 -143q-141 -109 -183 -131.5t-142 -22.5q-47 0 -48 33q0 6 2.5 16t2.5 16q0 20 -11 21q-33 0 -108 -53q-55 -39 -139 -39q-92 0 -93 88zM486 852q0 12 32 29l45 20q25 18 78 45q18 10 78 64 q43 43 80 43q4 0 8 -2h9h10q8 2 12 2q18 0 45 -80q10 -33 39 -90q23 -31 46 -61.5t23 -73.5q0 -18 -53 -19q-35 0 -47 19q-8 10 -20.5 49t-40.5 116q-4 18 -17 50q-6 14 -16 14q-14 0 -135 -74t-152 -74q-25 0 -24 23z" />
<glyph unicode="&#xfc;" horiz-adv-x="661" d="M-27 37q0 96 123 174q23 14 68 51q27 31 50.5 57.5t64.5 49.5q20 12 36 12q35 0 35 -43q0 -31 -65 -86q-182 -154 -183 -225q0 -23 25 -23q66 0 221 121q18 16 78 92q33 25 100 96q27 37 35 47q25 25 49 25h13q45 2 45 -25q0 -37 -58 -88q-72 -63 -80 -77 q-78 -133 -77 -164q0 -12 16 -13q45 0 200.5 121t164.5 121q10 0 10 -8q0 -25 -152 -143q-141 -109 -183 -131.5t-142 -22.5q-47 0 -48 33q0 6 2.5 16t2.5 16q0 20 -11 21q-33 0 -108 -53q-55 -39 -139 -39q-92 0 -93 88zM547 864q0 57 41 99q51 47 76 47q18 0 34.5 -25 t16.5 -43q0 -37 -45 -86t-82 -49q-41 0 -41 57zM920 834q0 45 31.5 72.5t74.5 27.5q57 0 57 -35q0 -29 -24 -49q-8 -6 -41 -57q-27 -43 -43 -43q-23 0 -39 32q-16 27 -16 52z" />
<glyph unicode="&#xfd;" horiz-adv-x="1286" d="M-29 94q0 14 16.5 26.5t30.5 22.5q59 47 177 146q16 12 76.5 92t72.5 102q31 53 92 121q51 55 105 113q41 55 133 160q59 68 139 143q2 2 43 24q27 16 45 17q43 0 43 -47q0 -33 -24 -62q-16 -35 -54 -100q-31 -49 -96 -129l-111 -117q-35 -31 -102 -96q-86 -92 -123 -109 q-14 -6 -90 -82q-37 -37 -51 -55q-25 -31 -41 -67q-20 -43 -43 -84q-23 -47 -23 -95q0 -37 25 -36q51 0 133 84q94 98 94 120q0 10 -24.5 33t-24.5 39q0 57 82 107q63 35 82 34q33 0 33 -53q0 -12 -10.5 -23.5t-10.5 -15.5q0 -10 21 -10q23 0 78 36t75 42q12 4 80 37 q47 25 84 24q20 0 35.5 -22.5t15.5 -44.5q0 -14 -7 -24.5t-17 -51.5t-27 -64q-70 -90 -100.5 -108.5t-30.5 -75.5q0 -20 31 -20q74 0 178 84q94 74 137 149q25 43 45 66q18 10 45 41q10 20 21.5 40.5t30.5 26.5q80 25 75 25q27 0 27 -35q0 -31 -25 -60q-4 -4 -28.5 -41.5 t-61.5 -70.5t-96 -103q-23 -18 -59 -59q-31 -49 -31 -65q0 -10 12 -11q12 0 45 19q41 23 47 24q31 10 115 76q156 119 164 119q12 0 12 -10q0 -12 -88 -84q-23 -25 -80 -70q-41 -39 -117 -88q-23 -6 -118 -80q-49 -37 -64 -51q-29 -25 -55 -62q-115 -154 -199 -278 q-47 -47 -117 -137q-27 -57 -194 -148q-123 -66 -168 -65q-35 0 -35 41t58 133q76 121 237 235q72 53 119 99q27 29 78 67q29 14 88 72.5t86 71.5q16 8 29.5 30.5l25.5 42.5q27 37 27 49q0 10 -8 11q-4 0 -73 -35t-122 -35q-47 0 -82 25q-41 27 -41 71q0 72 93 158t93 111 q0 29 -20 28q-18 0 -119 -57q-43 -25 -88 -47q-55 -31 -78 -60q-55 -74 -139 -151q-39 -25 -113 -82q-61 -55 -100 -55q-37 0 -80 18q-51 23 -51 55q0 4 6 52.5t8 52.5q6 14 6 26q0 18 -8 19q-4 0 -30.5 -20.5t-38.5 -20.5t-13 12zM330 -700q0 -23 22 -23q45 0 150 88 q86 76 129 129q47 61 123 191q8 12 8 18t-6 6q-8 0 -23.5 -13t-42.5 -38q-47 -43 -92 -75t-135 -95q-33 -20 -83 -88t-50 -100zM399 436q0 -4 7 -4q18 0 83 60q57 53 79 81.5t104 106.5q41 39 112 125q84 104 84 133q0 16 -12 16q-29 0 -88 -55q-41 -39 -80 -78 q-27 -25 -61 -78q-39 -63 -56 -84q-49 -53 -100 -108q-72 -86 -72 -115z" />
<glyph unicode="&#xfe;" horiz-adv-x="2240" d="M76 174q0 27 100 98q23 23 70 68q47 33 106 86q39 59 76 76q20 8 94 90q49 53 99 106q33 31 77 111q39 43 107 135q18 39 55 90q27 12 58 13q35 0 34 -29q0 -12 -37.5 -65.5t-54.5 -67.5q-27 -45 -76 -123q-23 -51 -82 -144q-86 -106 -86 -122q0 -10 21 -11q29 0 73 14.5 t62 18.5q88 10 150 84q37 49 118 137q23 18 68 80q41 53 70 74q90 63 194 186q57 66 125 66q78 0 78 -43q0 -57 -53 -123q-29 -47 -97 -127q-20 -16 -46.5 -59t-43.5 -60l-69 -69q-47 -43 -76 -58q-43 -18 -158 -57q-27 -8 -53.5 -16.5t-42.5 -26.5q-47 -45 -62 -80l-45 -96 q2 -2 2 -6h5q18 0 91.5 44t123.5 44q51 0 94 -25q51 -29 51 -76q0 -35 -33 -61q-25 -29 -76 -86q-70 -66 -69 -107q0 -25 43 -24q37 0 86 30q37 14 102 64q29 23 78 76q20 37 96 86q57 37 117 71q92 57 127 58q37 0 56.5 -26.5t25.5 -26.5q10 0 38 25.5t54 25.5q55 0 55 -35 q0 -8 -4 -16q-16 -37 -51 -95q-16 -23 -53 -65q-23 -18 -64 -74q-43 -61 -43 -80q0 -18 31 -18q35 0 74 26q53 33 125 111q45 35 129 113q111 113 110 137q0 18 -92 18q-141 0 -141 25q0 31 78 31h35q25 2 36 2q16 0 46 -7.5t47 -7.5q78 0 108 88q18 25 53 78q12 18 25 19 q78 0 78 -23q0 4 -10 -47q-4 -18 -33 -62.5t-29 -46.5q0 -12 37 -12q74 0 172 12q8 0 141 31q49 4 140 27q27 10 38 10q17 0 17 -14q0 -29 -62 -39q-35 -10 -112 -25q-41 -12 -137 -26q-102 -4 -197 -19q-31 -2 -94 -8l-35 -49q-16 -25 -78 -82q-51 -49 -70 -90 q-8 -25 -39.5 -62t-41.5 -57q-16 -35 -17 -43q0 -12 19 -12q18 0 53 10q63 16 135 74q55 43 166 131q14 12 24 12q12 0 13 -10q0 -10 -19 -27q-29 -29 -110 -96q-86 -74 -109 -84q-37 -25 -112 -59q-104 -27 -127 -27q-63 0 -64 47q0 16 10.5 41t10.5 37q0 14 -11 14 l-32 -30q-33 -29 -48 -35q-35 -18 -69.5 -36t-85.5 -18q-90 0 -90 50q0 25 -21 24q-10 0 -22 -10q-33 -27 -47 -39q-29 -20 -54 -29q-45 -12 -104 -12q-49 0 -59 16q-2 2 -13 45q-8 29 -24 29t-62 -33q-33 -8 -92 -34q-29 -18 -65 -19q-43 0 -86.5 32t-43.5 75q0 39 78 106 q92 78 105 105q27 45 26 57q0 31 -45 31q-27 0 -80 -33q-135 -82 -196 -156q-43 -66 -137 -188q-45 -57 -82 -58q-59 0 -60 37q0 43 172 277q49 59 105 149q2 20 26.5 37t24.5 25q0 12 -18 12q-14 0 -66 -16q-59 -20 -72 -23q-33 -10 -96 -22q-43 -2 -65 -37 q-27 -47 -91 -125q-23 -18 -53 -68q-33 -57 -44 -70.5t-38 -62.5q-18 -35 -46.5 -48t-59.5 -13q-57 0 -58 32q0 49 58 88q20 12 48 50.5t44 50.5q27 23 59 92q18 41 19 45q0 4 -6 4l-66 -51q-20 -14 -63 -47q-109 -90 -111 -90q-10 0 -10 16zM1008 600q0 -4 10 -4t36.5 10 t32.5 12q88 23 166 87q20 16 50 59t48.5 58.5t35 44t24.5 38.5q29 31 53 74q49 88 49 96q0 2 -3 7t-15 5q-33 0 -61 -24q-98 -80 -127 -133q-14 -27 -74 -86q-82 -84 -84 -86q-39 -39 -76 -80q-66 -68 -65 -78zM1358 45q0 -25 26 -25q70 0 125.5 51.5t112.5 98.5 q61 61 61 127q0 59 -51 59q-35 0 -119 -82q-76 -76 -96 -114q-18 -29 -35 -58q-25 -41 -24 -57z" />
<glyph unicode="&#xff;" horiz-adv-x="3022" d="M23 342q0 16 49 41q16 6 82 84q78 88 174 182q51 51 153 154q55 59 178 160l136 110q102 78 139 78q55 0 72 -82q10 -55 10 -59q0 -20 -20.5 -40t-55.5 -71t-35 -68q0 -12 10 -12q8 0 141.5 108.5t190.5 108.5q12 0 36 -7t36 -7q45 0 45 -33q0 -16 -22.5 -88t-30.5 -84 q-16 -47 -66 -131q-84 -109 -84 -117q0 -2 2 -2q12 0 66 47q45 43 166 127q94 74 247 170q37 14 76 15q59 0 60 -41q0 -86 -39 -135q-51 -72 -158 -207q-43 -51 -133 -168q-31 -39 -88 -119q-31 -59 -98 -174q-23 -39 -23 -59q0 -25 29 -25q12 0 30 6q94 23 161 78t198 170 q23 20 45 39q23 27 24 51v8q-2 4 -2 6q0 45 58 52q12 0 32.5 12t28.5 12q31 0 31 -37q0 -18 -18.5 -38.5t-18.5 -24.5q0 -12 32 -32.5t32 -37.5q0 -20 -75 -81.5t-75 -108.5q0 -51 76 -52q8 0 90 31q53 14 121 51q16 27 59 56.5t76 38t65.5 15.5t63.5 26q37 27 115 71 q27 12 71 80q16 25 63.5 50.5t78.5 25.5q34 0 34 -39q0 -35 -61 -88t-61 -70q0 -10 8 -36.5t8 -41.5q0 -51 -78 -114q-68 -55 -127 -72q-12 -2 -94 -35q-51 -18 -105 -18q-111 0 -118 39q-6 31 -23 30q-14 0 -51 -20q-111 -53 -209 -53q-61 0 -92 18q-20 12 -66 66 q-8 10 -8 20q0 41 74 86q113 70 113 121q0 16 -17 16q-18 0 -131 -104q-127 -115 -145 -127q-100 -63 -158 -86q-80 -27 -176 -33h-6q-57 -4 -58 62q0 33 21 80q55 125 123 198q51 63 164 178q49 43 108 129q84 121 96 138q68 84 68 122q0 23 -14 23t-131 -84 q-49 -31 -141.5 -95.5t-188.5 -160.5q-66 -63 -101 -92q-31 -16 -81 -66q-63 -88 -152 -163q-25 -20 -82 -113q-51 -84 -96 -115q-51 -35 -88 -35q-39 0 -39 39t43 86q35 37 70 72q53 55 129 160q88 125 120 164q68 80 222 243q41 47 73 113q39 74 39 129q0 16 -12 16 q-39 0 -248 -151q-57 -39 -113 -78q-66 -47 -102 -94q-23 -27 -96 -140q-37 -57 -88 -124q-100 -139 -164 -222q-135 -178 -163 -197.5t-66 -19.5q-53 0 -54 41q0 41 64 115q72 84 203 256q33 53 102 156q106 113 301 352q127 184 127 201q0 20 -27 20q-10 0 -20 -4 q-74 -51 -187 -123q-59 -39 -155 -135q-125 -125 -152 -148q-117 -100 -221 -219q-23 -27 -74 -78q-12 -14 -26 -26q-20 -23 -27 -23q-25 0 -24 31zM2183 37q0 -29 31 -29q59 0 143 72t84 131q0 29 -24 29q-12 0 -25 -11q-53 -35 -156 -110q-53 -41 -53 -82zM2714 -12 q0 47 31.5 76.5t78.5 29.5q58 0 58 -37q0 -29 -25 -53q-8 -6 -43 -57q-27 -45 -43 -45q-25 0 -41 30.5t-16 55.5z" />
<glyph unicode="&#x152;" horiz-adv-x="1265" d="M43 119q0 25 12 45q23 53 68 133q2 2 39 61q27 43 57.5 89.5t63.5 72.5q23 16 96 96q47 51 88 91q59 63 160 153q23 12 88 80q51 49 98 64q20 8 78 47q43 35 92 34q49 0 104 -16q39 -12 69 -70.5t34 -58.5q8 0 24 16q74 76 238 131q23 6 41 7q27 0 70 -17 q31 -12 57.5 -24.5t42.5 -44.5q12 -23 35 -70q10 -23 10 -39q0 -8 -2 -27.5t-2 -31.5q0 -68 -59 -148q-6 -8 -19 -37q-8 -18 -35 -37q-68 -51 -133 -51q-51 0 -81.5 41t-30.5 97q0 113 114 188q29 18 49 18q23 0 23 -16q0 -18 -23 -41q-51 -53 -94 -152q-2 -4 -15.5 -23.5 t-13.5 -25.5q0 -37 41 -50t37 -13q25 0 40.5 18.5t31.5 36.5q6 4 16 14q23 20 58 85t35 92q0 16 -13 41q-10 33 -21.5 64.5t-41.5 43.5q-63 25 -96 25q-35 0 -78 -21q-59 -27 -76 -39q-27 -18 -64 -65q-14 -18 -51 -58q-25 -27 -61 -86q-41 -68 -41 -92q0 -20 47 -20 q29 0 61.5 12t44.5 12q29 0 53.5 -27.5t24.5 -56.5q0 -39 -65 -59q-45 -14 -97 -14q-8 0 -24 2h-27q-100 0 -192 -197q-82 -172 -82 -289q0 -47 43 -47q96 0 266 111q33 16 98 53q53 33 154 115q14 12 25 12q12 0 12 -10q0 -12 -51 -58q-78 -68 -138 -114q-27 -20 -164 -97 t-169 -90q-45 -16 -80 -16q-72 0 -126 57.5t-54 130.5q0 14 9 43t9 43t-10 15q-6 0 -59.5 -44t-61.5 -50q-37 -23 -72 -43q-41 -25 -78 -27q-23 -6 -67 -14q-68 -14 -158 -15q-66 0 -88 37q-43 63 -43 115zM227 96q0 -53 70 -53q27 0 65 6q111 14 265 144q45 39 215 208 q43 43 61 70q6 10 23 31q41 45 41 73q0 8 -3 22.5t-3 23.5q0 47 72.5 164.5t72.5 172.5q0 33 -57 33q-98 0 -150 -35q-102 -66 -121 -73q-10 -4 -166 -160q-59 -61 -84 -88q-57 -61 -69 -92q-16 -37 -99 -142q-70 -90 -79 -139q-4 -23 -31 -80q-23 -49 -23 -86zM1145 555 q0 -6 22.5 -16.5t32.5 -10.5q12 0 44 15.5t32 25.5t-13.5 19.5t-23.5 9.5t-26.5 -7t-26.5 -7q-41 0 -41 -29z" />
<glyph unicode="&#x153;" horiz-adv-x="741" d="M4 45q0 47 123 184q78 86 170 129q29 16 60.5 34t56.5 18q29 0 60 -44l32 -44q25 16 55 34q94 53 123 54q35 0 35 -41q0 -86 -95.5 -156t-158.5 -92q-14 -6 -15 -7t-8 -16q-14 -41 -14 -49q0 -33 57 -33q61 0 154 47q63 35 244 181q14 12 24 12q13 0 13 -10 q0 -12 -52 -58q-129 -113 -213 -161q-127 -74 -252 -74q-72 0 -96 51q-4 6 -6 6q4 0 -58.5 -36.5t-107.5 -36.5q-131 0 -131 108zM172 74q0 -45 41 -45q37 0 92 55q49 47 68 88q8 18 8 41q0 6 -2 17.5t-2 17.5q0 23 11 44t11 23q0 16 -26 17q-10 0 -29 -6 q-33 -12 -102.5 -110.5t-69.5 -141.5zM487 195q0 -6 7 -7q18 0 64 31t56 47q21 31 21 47q0 4 -2 6h-8q-27 0 -82.5 -50t-55.5 -74z" />
<glyph unicode="&#x178;" horiz-adv-x="2805" d="M203 -76q0 16 63 109q43 63 108.5 198.5t108.5 196.5q94 145 287 430q100 143 100 176q0 12 -12 13q-31 0 -94 -60q-47 -43 -143 -113q-102 -76 -146 -112q-63 -59 -125 -119q-100 -90 -127 -90q-20 0 -20 20q0 6 69 68q205 182 359 301q72 51 205 166q63 63 106 63 q25 0 48.5 -16t23.5 -41q0 -4 -88 -173t-88 -206q0 -14 10 -14q18 0 76 51q39 33 75 68q53 43 250 161q61 39 97 39q37 0 59 -47q16 -39 16 -80q0 -29 -10 -55q-16 -53 -57 -160q-4 -8 -4 -14t8 -6q16 0 123 98q125 113 137 123q35 29 68 57q49 39 71 39q39 0 76 -71 q31 -61 31 -105q0 -49 -31 -92q-98 -139 -125 -180q-68 -102 -113 -187q-111 -209 -110 -286q0 -39 47 -39q45 0 141 65q92 51 271 168q68 55 84 70q59 51 69 76q14 39 49 39q43 0 43 -45q0 -16 -17.5 -31t-17.5 -17q53 -55 54 -92q0 -33 -70 -114.5t-70 -118.5 q0 -39 46 -39q59 0 236 178t204 178q10 0 10 -10l-2 -4q-2 -25 -65 -86q-102 -102 -201 -197q-39 -37 -123 -104q-49 -35 -191 -35q-90 0 -90 59q0 33 104.5 140.5t104.5 152.5q0 23 -33 23q-29 0 -163 -105q-80 -61 -230 -141q-174 -92 -239 -92q-47 0 -87 30.5t-40 75.5 q0 20 8 45q57 174 209 379q72 94 141 189q104 145 105 190q0 16 -12.5 34.5t-30.5 18.5t-48 -24q-2 -2 -196 -170q-57 -47 -170 -146q-20 -18 -62 -88q-31 -47 -59 -96q-57 -102 -182 -303q-43 -63 -84 -125q-68 -90 -105 -90q-25 0 -42 27.5t-17 52.5q0 43 61 137 q78 102 183 270q41 98 198 316q100 139 101 231q0 47 -27 47q-8 0 -20 -6q-176 -94 -261 -164q-195 -164 -292 -284q-55 -70 -134 -215q-84 -162 -127 -224q-119 -166 -180 -165q-63 0 -63 28zM2513 -47q0 57 43 96q51 49 76 49q16 0 33.5 -24.5t17.5 -42.5q0 -35 -46 -85 t-83 -50q-41 0 -41 57z" />
<glyph unicode="&#x2c6;" horiz-adv-x="337" d="M369 852q0 12 32 29l45 20q25 18 78 45q18 10 78 64q43 43 80 43q4 0 8 -2h9h10q8 2 12 2q18 0 45 -80q10 -33 39 -90q23 -31 46 -61.5t23 -73.5q0 -18 -53 -19q-35 0 -47 19q-8 10 -20.5 49t-40.5 116q-4 18 -17 50q-6 14 -16 14q-14 0 -135 -74t-152 -74q-25 0 -24 23z " />
<glyph unicode="&#x2dc;" horiz-adv-x="737" d="M494 864q0 55 51 56q25 0 31 -32t30 -32q12 0 53 10q68 14 201 47q31 8 90 21q12 0 39 6t43 6q31 0 71 -43t40 -76q0 -29 -37 -86t-66 -57q-12 0 -12 14t11.5 38t11.5 36q0 27 -28 51.5t-54 24.5q-8 0 -21.5 -3t-21.5 -3h-14.5h-16.5q-55 0 -160.5 -24.5t-161.5 -24.5 q-80 0 -79 71z" />
<glyph unicode="&#x2000;" horiz-adv-x="915" />
<glyph unicode="&#x2001;" horiz-adv-x="1831" />
<glyph unicode="&#x2002;" horiz-adv-x="915" />
<glyph unicode="&#x2003;" horiz-adv-x="1831" />
<glyph unicode="&#x2004;" horiz-adv-x="610" />
<glyph unicode="&#x2005;" horiz-adv-x="457" />
<glyph unicode="&#x2006;" horiz-adv-x="305" />
<glyph unicode="&#x2007;" horiz-adv-x="305" />
<glyph unicode="&#x2008;" horiz-adv-x="228" />
<glyph unicode="&#x2009;" horiz-adv-x="366" />
<glyph unicode="&#x200a;" horiz-adv-x="101" />
<glyph unicode="&#x2010;" horiz-adv-x="638" d="M190 193q0 25 72 24q23 0 66 -2t65 -2q27 0 77 9t77 9q16 0 46 -10t30 -22q0 -18 -43 -33q-35 -12 -58 -12q-33 0 -97.5 5t-96.5 5q-14 0 -41 -2t-39 -2q-57 0 -58 33z" />
<glyph unicode="&#x2011;" horiz-adv-x="638" d="M190 193q0 25 72 24q23 0 66 -2t65 -2q27 0 77 9t77 9q16 0 46 -10t30 -22q0 -18 -43 -33q-35 -12 -58 -12q-33 0 -97.5 5t-96.5 5q-14 0 -41 -2t-39 -2q-57 0 -58 33z" />
<glyph unicode="&#x2012;" horiz-adv-x="638" d="M190 193q0 25 72 24q23 0 66 -2t65 -2q27 0 77 9t77 9q16 0 46 -10t30 -22q0 -18 -43 -33q-35 -12 -58 -12q-33 0 -97.5 5t-96.5 5q-14 0 -41 -2t-39 -2q-57 0 -58 33z" />
<glyph unicode="&#x2013;" horiz-adv-x="1830" d="M213 184q0 12 39 26.5t57 14.5q16 0 46 -9t46 -9h10.5h8.5h55q39 -2 57 -2q98 0 294 7t294 7q25 0 72 -2h70q66 0 193.5 5t191.5 5q33 0 61.5 -4t56.5 -8q43 -6 43 -22q0 -33 -139 -33q-12 0 -37.5 -3t-38.5 -3q-8 0 -26 2h-29q-109 0 -325 -4.5t-324 -4.5q-276 0 -506 3 q-47 2 -94 2q-76 6 -76 32z" />
<glyph unicode="&#x2014;" horiz-adv-x="3004" d="M188 195q0 31 115 30q14 0 43 -2t43 -2q31 0 89.5 6t86.5 6q23 0 58 -8q43 -10 57 -12q29 -2 63 -2q45 0 135.5 6t135.5 6h20.5h20.5q82 0 244.5 12.5t244.5 12.5q88 0 261 -9.5t261 -9.5q412 0 852 -16q62 -4 80 -33q-14 -6 -114 -6q-41 0 -122 -7t-120 -7q-29 0 -87 4 t-87 4h-60q-41 -2 -59 -2q-31 0 -92.5 2t-91.5 2q-63 0 -191.5 -8t-191.5 -8q-35 0 -104.5 5t-106.5 5q-96 0 -290 -8.5t-290 -8.5q-57 0 -173 6.5t-173 6.5q-12 0 -37 -2h-39q-45 0 -136 7t-138 7q-106 0 -107 23z" />
<glyph unicode="&#x2018;" horiz-adv-x="761" d="M696 688q0 61 27 109.5t53 97.5q12 23 45 49q41 31 51 43q16 23 119 68q31 14 45 14q17 0 17 -14q0 -25 -41 -39q-59 -20 -66 -25q-14 -12 -30.5 -42.5t-28.5 -43.5q-23 -27 -29 -55.5t-10 -56.5q-10 -35 -10 -58q0 -14 8 -38.5t8 -37.5q0 -49 -68 -49q-90 0 -90 78z" />
<glyph unicode="&#x2019;" horiz-adv-x="344" d="M422 618q0 16 20.5 33t36 20t43.5 40q35 45 41 49q20 16 29 49q10 43 16 53q8 18 8 27q0 10 -9 22.5t-9 18.5q0 37 31 65q29 23 59 45q18 16 45 17q49 -1 49 -58q0 -10 -2 -31.5t-2 -33.5q0 -53 -63 -119q-33 -41 -92 -96q-12 -6 -86 -70q-53 -47 -95 -47q-20 0 -20 16z " />
<glyph unicode="&#x201a;" horiz-adv-x="2250" d="M31 141q0 10 41 45q123 102 315 295q43 45 133 133q55 49 123 162q37 49 92 146q6 14 34 34.5t44 20.5q12 0 23.5 -15.5t11.5 -27.5q0 -20 -45 -72q-31 -33 -60 -67q-37 -47 -139 -211q-31 -66 -98 -191q-27 -43 -27 -63q0 -18 19 -19q55 0 176 58q82 37 194 96 q6 6 78 108q33 49 248 314q45 55 102 112q27 23 72 72q45 66 94 66q41 0 41 -31q0 -10 -8 -33.5t-8 -36.5q0 -35 -74 -172q-82 -156 -164 -250q-57 -63 -123 -92q-10 -4 -135 -71q-31 -12 -76 -43q-39 -59 -38 -93q0 -6 4 -6q8 0 48 24.5t48 28.5q57 23 108 23 q102 0 103 -100q0 -74 -56.5 -162t-56.5 -94q0 -41 37 -41q70 0 270 198q49 43 131 133q49 74 89 74q66 0 65 -55q0 -43 -25 -53q-37 -14 -65 -58q-4 -8 -66 -80q-47 -55 -52 -80.5t-5 -37.5q0 -31 27 -31q31 0 196 84q53 27 54 51q0 10 33.5 49t50 51.5t43.5 12.5 q31 0 49 -16.5t28 -16.5q31 0 67 30.5t48 62.5t51 70t70 48q68 18 72 18q41 0 41 -57q0 -37 -25 -61q-43 -45 -76 -45q-18 0 -18 -13q0 -6 7 -30.5t7 -40.5q0 -90 -53 -132q-80 -61 -123 -61q-16 0 -61.5 -15.5t-81.5 -15.5q-43 0 -56 19q-43 63 -63 63q-6 0 -133 -62.5 t-193 -62.5q-31 0 -74 17q-53 18 -53 43q0 4 3 11t3 11q0 10 -10 10q-12 0 -69.5 -36.5t-69.5 -51.5q-27 -31 -96 -30q-92 0 -93 69q0 12 -7 36t-7 38q0 37 52.5 123t52.5 123q0 16 -27 16q-90 0 -178 -133q-35 -53 -84 -96q-20 -16 -58 -88q-2 -2 -14 -56 q-10 -39 -26.5 -43t-32.5 -4q-35 0 -59.5 21.5t-24.5 54.5t26 70q39 61 119 184q94 133 94 135q0 8 -10 8q-14 0 -123 -51q-115 -53 -143 -57q-41 0 -96 -16q-16 -18 -107 -168q-80 -133 -113 -146q-20 -10 -40 -10q-55 0 -56 45q0 23 51 106q20 37 82 94.5t82 94.5 q55 88 56 106q0 12 -13 13q-20 0 -157.5 -122t-151.5 -122q-12 0 -12 14zM1008 537q0 -6 12 -7q8 0 37.5 13.5t52.5 13.5q31 0 139 123q88 102 164 268q21 44 21 60q0 14 -13 14q-29 0 -82 -59q-20 -23 -114 -136q-59 -72 -176 -217q-41 -51 -41 -73zM1835 874q0 31 25.5 67 t56.5 36q25 0 48.5 -24.5t23.5 -49.5q0 -35 -31 -66.5t-66 -31.5q-57 0 -57 69zM1884 106q0 -37 35 -36q10 0 26.5 10t26.5 10q23 0 43.5 23.5t20.5 46.5q0 27 -19 26q-14 0 -106 -43q-27 -12 -27 -37z" />
<glyph unicode="&#x201c;" horiz-adv-x="1005" d="M668 643q0 201 196 393q23 20 71 49t69 48q31 27 51 26q10 0 22.5 -14.5t12.5 -22.5q-18 -16 -41 -35q-43 -39 -129 -118q-27 -23 -56 -88q-39 -86 -47 -99q-12 -20 -18 -79.5t-19 -81.5q-18 -37 -67 -37q-45 0 -45 59zM915 686q0 31 103.5 160t126.5 137q12 4 36.5 20.5 t32.5 16.5q41 0 41 -14q0 -4 -10 -12.5t-33 -24.5q-31 -25 -70.5 -98.5t-39.5 -114.5q0 -12 7 -28.5t7 -22.5q0 -14 -41 -58q-23 -20 -53 -20q-106 0 -107 59z" />
<glyph unicode="&#x201d;" horiz-adv-x="716" d="M500 647q0 18 39 60q23 43 61 116q49 76 49 138q0 8 -5 20t-5 18q0 57 86 58q61 -1 61 -62q0 -84 -53 -155q-133 -186 -168 -211q-20 -12 -33 -13q-33 0 -32 31zM618 496q0 10 11 22q27 18 69 60q25 29 72 84q27 49 90 133q20 18 35 123q12 84 70 83q67 0 67 -55 q0 -8 -35 -110q-25 -72 -66.5 -114t-125.5 -120q-16 -18 -53 -47q-12 -6 -43 -33q-41 -51 -64 -51q-27 0 -27 25z" />
<glyph unicode="&#x201e;" horiz-adv-x="3330" d="M4 23q0 70 53 124q18 25 56 76q33 31 92 101q16 23 29.5 36t31.5 15l4 2q37 2 37 -35t-63 -102q-23 -25 -54 -93q-2 -8 -28 -45q-20 -27 -21 -49q0 -41 35 -41q10 0 23 6q66 29 163 91q29 18 92.5 81.5t88.5 96.5q45 57 80 57q47 0 47 -22q0 -8 -83 -117t-83 -154 q0 -31 24 -31q43 0 167 106.5t124 147.5q0 8 -2 21.5t-2 19.5q0 23 14 33q2 0 27 29q18 16 31 16q12 0 30.5 -10t18.5 -21q0 -8 -13.5 -29.5t-13.5 -35.5q0 -18 21 -18q72 0 90 14q12 8 70 18q35 6 71 74q45 55 123 172q158 283 221 322q51 31 101 94q20 29 71 69q2 0 35 23 q23 14 39 14t32.5 -18.5t16.5 -36.5q0 -14 -10 -33q-2 -2 -49 -119q-12 -37 -75.5 -131t-88.5 -122.5t-78 -83.5q-35 -25 -94 -92.5t-98 -94.5q-84 -59 -84 -63t4 -4q-4 0 66.5 32.5t156.5 32.5q78 0 78 -65q0 -18 -31 -67.5t-49 -63.5q-10 -10 -51 -75t-41 -75 q0 -29 49 -29q23 0 22 -16q0 -16 -34 -27q-27 -10 -47 -10q-43 0 -86 31t-43 74q0 47 55 94q43 37 88 71q41 43 41 74q0 12 -19 12q-61 0 -122 -41q-33 -20 -97 -61q-72 -47 -98 -111q-8 -16 -33.5 -42.5t-34.5 -38.5q-55 -88 -94 -89q-8 0 -25.5 17.5t-17.5 28.5 q0 12 21 32q29 29 102 127q82 111 82 131q0 14 -8 15q-18 0 -59.5 -8.5t-61.5 -8.5q-10 0 -27.5 3t-27.5 3q-12 0 -19 -8q-37 -63 -100 -104q-6 -4 -94 -80q-33 -16 -99 -53q-35 -29 -82 -29q-27 0 -49 12q-33 14 -61 64q-2 6 -8 6q-14 0 -107.5 -48t-148.5 -48 q-109 0 -109 80zM1266 387q0 -4 6 -4q33 0 69 51q14 20 101 111q70 74 131 149q14 20 94 144q27 39 27 57q0 12 -15 12q-27 0 -69 -47q-39 -31 -105 -100q-27 -31 -80 -107q-37 -68 -114 -196zM1534 20q0 10 18 27q23 25 72 70q45 31 123 104q59 78 108 121q39 33 50 33 q29 0 28 -41q0 -35 -41 -78q-33 -35 -63 -80q-10 -18 -37 -53l-49 -49q-29 -33 -29 -58q0 -35 31 -34q27 0 178 86q49 29 68 47q23 29 48 57.5t115.5 99t122.5 84.5q100 45 131 45q23 0 45.5 -16t22.5 -39q0 -8 -6 -20l-16 -78q-6 -37 -50 -37q-39 0 -58 30.5t-36 30.5 q-8 0 -16 -6q-45 -31 -90 -102q-45 -78 -45 -129q0 -45 59 -45q49 0 125 41q57 33 117 65q72 33 147 115q70 74 139 147q78 86 127 158q63 88 187 266q66 102 129 207q98 150 141 185q27 23 52.5 45t62.5 22q57 0 57 -43q0 -18 -10 -47q-12 -37 -14 -47q-6 -41 -58 -123 q-27 -59 -92 -160q-8 -8 -66 -90q-41 -59 -90 -115q-115 -133 -219 -206q-20 -18 -63 -56q-55 -43 -56 -51q2 -4 5 -4q4 0 71.5 37t116.5 37q63 0 82 -49q12 -35 12 -52q0 -18 -12 -32q-33 -31 -86 -99q-33 -51 -59.5 -74.5t-26.5 -46.5q0 -49 65 -49q76 0 197 74 q74 45 188 137q94 74 105 74q10 0 10 -10q0 -8 -18 -27q-66 -66 -133 -115q-57 -49 -195 -137q-43 -23 -86 -45q-33 -14 -98 -20q-20 -2 -37 -2q-72 0 -113 40t-41 70q0 53 114 165t114 120q0 12 -21 12q-29 0 -80 -28q-131 -72 -205 -160q-37 -37 -106 -119 q-51 -72 -98 -72q-14 0 -37 8.5t-23 20.5q0 10 30 52t30 54q0 2 -5 3q-18 0 -75 -41q-37 -16 -109 -54q-98 -53 -174 -53q-55 0 -102 29q-55 35 -56 71q0 10 -16 11q-33 0 -70 -25q-37 -14 -106 -51q-39 -12 -109 -35q-8 -2 -22 -2q-55 0 -69.5 40t-26.5 44q-25 8 -25 20z M2212 801q0 31 24 47q12 10 25.5 21.5t32.5 11.5q45 -1 45 -54q0 -29 -25.5 -49t-52.5 -20q-49 0 -49 43zM2957 485q0 -4 6 -4q18 0 56 39q29 27 83 84.5t154 186.5q33 45 90 141l45 86q33 64 33 80q0 18 -12 18q-35 0 -119 -115q-100 -137 -110 -145q-20 -18 -45 -61 q-29 -49 -41 -66q-23 -27 -52 -78q-33 -61 -45 -80q-43 -66 -43 -86z" />
<glyph unicode="&#x2022;" d="M459 338q0 16 8 35q35 84 152.5 191.5t197.5 107.5q66 0 66 -66q0 -61 -70 -160q-63 -84 -125 -133q-51 -41 -115 -41q-115 0 -114 66z" />
<glyph unicode="&#x2026;" horiz-adv-x="1587" d="M209 -49q0 106 48 137t77 31q35 0 60.5 -25.5t25.5 -58.5q0 -12 -4 -21q-6 -16 -75 -62t-87 -46q-45 0 -45 45zM688 -37q0 16 6 33q33 98 113 98q88 1 88 -67q0 -47 -49 -85t-98 -38q-59 0 -60 59zM1192 -49q0 57 43 98q51 49 76 49q16 0 33.5 -24.5t17.5 -42.5 q0 -37 -46 -86t-83 -49q-41 0 -41 55z" />
<glyph unicode="&#x202f;" horiz-adv-x="366" />
<glyph unicode="&#x2039;" horiz-adv-x="534" d="M-711 1597q0 154 201 154q72 0 172 -16q203 -31 367 -113q84 -41 327 -197q2 0 52 -41q39 -33 51 -32q43 0 131 135q41 61 41 108q0 27 -18.5 71t-18.5 65q0 20 16 20q29 0 52 -70q16 -57 16 -96q0 -86 -85 -187l-85 -100q0 -6 16 -30q55 -74 82 -140q18 -47 43 -153 q14 -68 15 -125q0 -121 -75 -272.5t-169 -217.5q-29 -18 -82 -18q-84 0 -84 68q0 55 70 151q61 84 115.5 127t64.5 51q45 33 69 35q35 4 35 74q0 78 -38 187.5t-85 168.5q-47 53 -71 53q-12 0 -35 -6q-45 -14 -135 -43q-55 -18 -152.5 -30.5t-177.5 -12.5q-129 0 -219 33 q-115 41 -166 66q-80 43 -139 106q-100 106 -101 227zM-625 1595q0 -43 35 -114q41 -86 188.5 -171t362.5 -85q221 0 389 69q23 9 23 19q0 37 -217 153q-70 43 -217 121q-66 31 -187 60q-152 37 -235 36q-141 0 -142 -88zM373 442q0 -6 4 -6t36.5 14.5t88.5 104.5 q51 84 51 98q0 2 -2 2l-12 -10q-35 -25 -66 -48.5t-59 -66.5q-41 -63 -41 -88z" />
<glyph unicode="&#x203a;" horiz-adv-x="770" d="M166 434q0 23 33.5 51.5t33.5 42.5q0 8 -9 12.5t-9 8.5q0 8 18 24q63 53 115 113q23 37 76 105q74 80 104 131q25 43 50 88q31 53 57 77q16 20 35.5 44t46.5 24q35 0 35 -31q0 -8 -29 -55t-33 -61q-8 -33 -31 -52q-14 -12 -78.5 -103t-64.5 -99q0 -27 35 -27q47 0 117 55 q25 12 67 47q49 53 109 146q66 102 82 125q61 82 102 98q16 6 25 12q35 25 53 25q41 0 41 -27q0 -10 -6 -24q-70 -137 -137 -215q-57 -63 -170 -129q-20 -12 -43 -25.5t-33 -36.5q-20 -37 -21 -59q0 -16 8 -17q4 0 23 5q37 8 78 8q33 0 43 -17q18 -29 18 -43 q0 -18 -57 -84.5t-57 -89.5q0 -31 24 -30q51 0 121 34q88 43 117 52q6 0 32.5 11t28.5 11q18 0 19 -12q0 -2 -2 -2q-33 -14 -101 -39q-35 -20 -92 -45q-20 -8 -66 -23q-94 -33 -120 -32q-23 0 -37 10q-49 35 -49 55q0 6 33.5 60.5t41.5 60.5q49 39 50 55q0 10 -29 10 q-20 0 -41 -12q-35 -18 -98 -84q-72 -72 -72 -100v-8q2 -4 2 -7q0 -23 -59 -22q-66 0 -66 18t98.5 129t98.5 131q0 10 -9 11q-16 0 -51 -25q-16 -12 -82 -12q-18 0 -30 -8q-18 -12 -87 -94t-75 -103q-8 -31 -49 -44t-58 -13q-20 0 -20 20zM842 887q0 -8 10 -8q29 0 92 65 q57 59 76 92q12 25 29 47q26 40 26 50q0 16 -14 16q-35 0 -64 -25q-18 -16 -41 -51q-115 -174 -114 -186z" />
<glyph unicode="&#x205f;" horiz-adv-x="457" />
<glyph unicode="&#x2122;" horiz-adv-x="872" d="M-186 463q0 12 18 18t35 11q49 18 125 28q20 6 63 17q37 10 97 14q31 2 135 10q66 0 145 8q12 6 55 54q25 37 53.5 78.5t71.5 41.5q35 0 35 -24q0 -23 -43 -74t-43 -61l2 -6q4 -2 12 -3q12 0 35 3.5t35 3.5q10 0 33.5 -5.5t36.5 -5.5q18 0 65 10.5t78 10.5q102 0 129 18 q14 10 37 11q25 0 25 -13q0 -45 -78 -49q-27 -2 -81 -12t-77 -10h-35q-25 2 -37 2q-14 0 -26 -2q-86 -2 -193 -11q-23 -8 -90 -102q-76 -102 -90 -117q-23 -29 -70 -82q-14 -12 -55 -99t-41 -106q0 -10 14 -10q39 0 105 56q47 33 125 108q27 37 94 90q61 51 123 101 q74 51 145 55q8 0 28.5 3t33.5 3q25 0 40 -44t29 -44q-20 0 68 10q10 2 31.5 10.5t36.5 8.5q24 -1 24 -13q0 -29 -94 -47q-29 -14 -86 -39q-72 -31 -123 -104q-76 -109 -92 -123q-70 -68 -191 -90q-20 -4 -36 -4q-63 0 -80 44t-31 44q-18 0 -115 -72q-10 -8 -64.5 -23.5 t-68.5 -15.5q-55 0 -55 45q0 25 11 63t13 53t20.5 38.5t18.5 34.5q0 2 -2 2q-4 0 -49 -35t-65 -35q-10 0 -11 8q0 12 25 29q45 41 129 106q39 25 112.5 113t106.5 111q49 35 49 53q0 8 -12 8q-10 0 -43 -10q-10 -2 -207 -6q-78 -2 -139 -21q-41 -2 -121 -16q-39 -12 -47 -12 q-12 0 -12 10zM510 100q0 -55 39 -55q59 0 98 45q35 35 96 115q43 71 43 94q0 53 -28 53q-12 0 -62 -18q-72 -23 -100 -76q-2 -2 -53 -74q-33 -45 -33 -84z" />
<glyph unicode="&#x25fc;" horiz-adv-x="419" d="M0 0v420h420v-420h-420z" />
</font>
</defs>
</svg>
