<?xml version="1.0" standalone="no"?>
<!DOCTYPE svg PUBLIC "-//W3C//DTD SVG 1.1//EN" "http://www.w3.org/Graphics/SVG/1.1/DTD/svg11.dtd" >
<svg xmlns="http://www.w3.org/2000/svg" xmlns:xlink="http://www.w3.org/1999/xlink" version="1.1">
<metadata></metadata>
<defs>
<font id="baskervvilleregular" horiz-adv-x="1675" >
<font-face units-per-em="2048" ascent="1454" descent="-594" />
<missing-glyph horiz-adv-x="540" />
<glyph unicode="&#xfb01;" horiz-adv-x="1161" d="M51 842v51h197v139q0 451 389 451q80 0 154.5 -26.5t123 -81t48.5 -132.5q0 -53 -28 -84t-73 -31q-37 0 -63.5 23t-26.5 59q0 18 5 28.5t16 23.5q18 23 18 41q0 47 -51 88t-123 41q-147 0 -196.5 -111t-49.5 -299v-129h246q188 0 324 25v-670q0 -92 12 -131t38.5 -51.5 t96.5 -20.5l33 -4v-47l-252 6l-252 -6v47l33 4q70 8 96.5 20.5t38.5 51.5t12 131v432q0 80 -26.5 115.5t-79.5 46.5h-320v-594q0 -92 9.5 -131t32 -51.5t77.5 -20.5l33 -4v-47l-224 6l-251 -6v47l32 4q70 8 96.5 20.5t39 51.5t12.5 131v594h-197z" />
<glyph unicode="&#xfb02;" horiz-adv-x="1163" d="M51 -6v47l33 4q70 8 96.5 20.5t38.5 51.5t12 131v594h-176v51h176v100q0 219 92.5 354.5t307.5 135.5q59 0 112.5 -16.5t87.5 -45.5l132 64v-1237q0 -92 12 -131t38.5 -51.5t96.5 -20.5l33 -4v-47l-252 6l-227 -6v47l32 4q55 8 78 20.5t34 51.5t11 131v969q0 117 -55 166 t-135 49q-150 0 -202 -111t-52 -328v-100h188v-51h-188v-594q0 -92 11 -132t37 -52.5t87 -18.5l33 -4v-47l-240 6z" />
<glyph horiz-adv-x="0" />
<glyph horiz-adv-x="682" />
<glyph unicode=" "  horiz-adv-x="540" />
<glyph unicode="&#x09;" horiz-adv-x="540" />
<glyph unicode="&#xa0;" horiz-adv-x="540" />
<glyph unicode="!" horiz-adv-x="507" d="M123 102q0 53 39 92t92 39t92 -38.5t39 -92.5q0 -53 -39 -92t-92 -39t-92 39t-39 92zM154 1317q-8 82 21.5 124t78.5 42q45 0 73.5 -35t28.5 -102l-2 -29l-12 -125q-25 -260 -38 -434t-17 -350h-66q-4 165 -16 330t-25.5 311.5t-17.5 191.5q-4 23 -8 76z" />
<glyph unicode="&#x22;" horiz-adv-x="690" d="M129 1374q0 49 19.5 79t60.5 30t60.5 -30t19.5 -79q0 -25 -2 -39l-54 -374h-49l-53 374q-2 14 -2 39zM401 1374q0 49 19.5 79t60.5 30t60.5 -30t19.5 -79q0 -25 -2 -39l-54 -374h-49l-53 374q-2 14 -2 39z" />
<glyph unicode="#" horiz-adv-x="1445" d="M0 485l18 64h359l106 366h-362l18 66h363l137 473h74l-138 -473h402l137 473h76l-137 -473h393l-19 -66h-393l-106 -366h395l-18 -64h-396l-139 -485h-76l140 485h-402l-139 -485h-76l141 485h-358zM451 549h401l106 366h-401z" />
<glyph unicode="$" horiz-adv-x="1148" d="M123 0l10 242l-6 264h51l23 -96q33 -139 138 -248t253 -123v623l-39 18l-86 41q-158 76 -230.5 166t-72.5 225q0 106 53 191.5t147.5 132.5t213.5 47h14v217h51v-221q84 -14 166 -58q53 -27 84 -26q18 0 26.5 14t12.5 49h51l-6 -196l4 -199h-51q-18 145 -98 240.5 t-189 115.5v-577l31 -15q125 -61 201.5 -118.5t118.5 -136t42 -189.5q0 -117 -52 -209t-141 -143t-200 -54v-213h-51v216q-61 6 -114.5 26.5t-112.5 50.5q-49 27 -78 38t-49 11q-27 0 -38.5 -19t-19.5 -56l-6 -31h-51zM317 1178q0 -109 68 -176.5t205 -133.5h2v557h-4 q-121 0 -196 -68.5t-75 -178.5zM643 37q100 4 173 69.5t73 192.5q0 111 -60.5 188.5t-185.5 147.5v-598z" />
<glyph unicode="%" d="M92 918q0 129 79 205.5t210 76.5q133 0 213 -76.5t80 -205.5q0 -131 -80 -208t-213 -77q-131 0 -210 76.5t-79 208.5zM217 918q0 -125 40 -181.5t124 -56.5q86 0 126 56.5t40 181.5q0 123 -40 179t-126 56q-84 0 -124 -56.5t-40 -178.5zM287 0l968 1178h119l-968 -1178 h-119zM1001 264q0 129 79 206t210 77q133 0 213 -77t80 -206q0 -131 -80 -207.5t-213 -76.5q-131 0 -210 76.5t-79 207.5zM1126 264q0 -125 40 -181t124 -56q86 0 126 56t40 181t-40 180.5t-126 55.5q-84 0 -124 -56.5t-40 -179.5z" />
<glyph unicode="&#x26;" horiz-adv-x="1429" d="M94 344q0 135 83 237.5t226 196.5q-94 135 -129.5 217t-35.5 168q0 102 48 175t127 110t173 37q117 0 194.5 -38t114.5 -98.5t37 -127.5q0 -113 -97.5 -212.5t-246.5 -191.5l180 -244q117 -156 188 -241l33 51q82 133 82 199q0 41 -32.5 62.5t-100.5 27.5l-61 6v51 l268 -6l223 6v-49l-74 -16q-47 -10 -86 -49.5t-66.5 -85.5t-88.5 -160q-18 -35 -54 -90q182 -209 271 -209q59 0 114 49l33 -39q-37 -47 -94 -75t-113 -28q-92 0 -159.5 30t-161.5 132q-158 -162 -367 -162q-104 0 -203.5 46.5t-162 129.5t-62.5 191zM279 342 q0 -121 60 -210t202 -89q151 0 303 147q-74 90 -127 162l-103 137q-45 61 -86 117t-77 107q-82 -80 -127 -169t-45 -202zM408 1221q0 -92 32.5 -169t114.5 -190q123 106 168 182t45 179q0 86 -47 141t-125 55q-88 0 -138 -55t-50 -143z" />
<glyph unicode="'" horiz-adv-x="417" d="M129 1374q0 49 19.5 79t60.5 30t60.5 -30t19.5 -79q0 -25 -2 -39l-54 -374h-49l-53 374q-2 14 -2 39z" />
<glyph unicode="(" horiz-adv-x="753" d="M123 657q0 195 61.5 382.5t175 341t261.5 249.5l30 -47q-106 -76 -191 -221t-134.5 -330.5t-49.5 -374.5q0 -188 49.5 -373.5t134.5 -331t191 -220.5l-30 -47q-148 96 -261.5 249.5t-175 341t-61.5 381.5z" />
<glyph unicode=")" horiz-adv-x="753" d="M102 -268q106 76 191.5 221t134.5 330.5t49 373.5t-49 374t-134 331t-192 221l31 47q147 -96 261 -249.5t175.5 -341t61.5 -382.5t-61.5 -382t-175 -340.5t-261.5 -249.5z" />
<glyph unicode="*" horiz-adv-x="940" d="M82 887q0 23 15.5 41t45.5 37q31 18 109 32q55 10 96 22.5t82 35.5q-39 27 -77 43t-95 32q-31 8 -58.5 18.5t-45.5 22.5q-55 39 -56 78q0 23 19 47q25 35 61 35q31 0 70 -28q31 -23 74 -82q68 -90 129 -134q0 45 -9.5 86t-27.5 97q-27 76 -27 110q0 102 82 103 q37 0 58.5 -28t21.5 -75q0 -29 -11.5 -66.5t-13.5 -43.5q-35 -109 -35 -183q66 47 132 138q49 59 71 78q39 29 70 28q37 0 61 -35q18 -25 19 -47q0 -39 -56 -78q-18 -12 -45.5 -22t-58.5 -19q-57 -16 -95 -32.5t-77 -42.5q41 -23 82 -35t96 -23q76 -14 109 -32 q61 -35 61 -76q0 -20 -14 -47q-23 -39 -64 -39q-31 0 -63 20q-20 12 -46 37t-38 37q-76 84 -144 123q0 -45 8.5 -85t24.5 -97q23 -76 23 -111q0 -47 -21.5 -74.5t-58.5 -27.5q-82 0 -82 102q0 35 27 111q41 102 41 182q-68 -39 -144 -123q-12 -12 -37.5 -36.5t-46.5 -37.5 q-33 -20 -63 -20q-43 0 -64 39q-14 29 -14 45z" />
<glyph unicode="+" horiz-adv-x="1228" d="M221 590v82h404v405h86v-405h403v-82h-403v-406h-86v406h-404z" />
<glyph unicode="," horiz-adv-x="577" d="M123 115q0 57 39 97t106 40q90 0 139.5 -74t49.5 -178q0 -139 -97 -262q-72 -96 -204 -180l-29 55q268 176 268 387q0 47 -13 93t-42 61l-6 -11q8 -12 14 -30.5t6 -36.5q0 -39 -27.5 -69t-80.5 -30q-51 0 -87 40t-36 98z" />
<glyph unicode="-" horiz-adv-x="792" d="M123 406v81h547v-81h-547z" />
<glyph unicode="." horiz-adv-x="503" d="M123 109q0 51 38 89t93 38q53 0 90 -38t37 -89q0 -53 -37 -92.5t-90 -39.5q-55 0 -93 38t-38 94z" />
<glyph unicode="/" horiz-adv-x="606" d="M0 -276l532 1984h74l-532 -1984h-74z" />
<glyph unicode="0" horiz-adv-x="1003" d="M82 469q0 127 49 239.5t144.5 182.5t226.5 70t226 -70t144.5 -182.5t49.5 -239.5t-49.5 -239.5t-144.5 -182.5t-226 -70t-226.5 70t-144.5 182.5t-49 239.5zM246 469q0 -205 56 -317.5t200 -112.5q143 0 199.5 112.5t56.5 317.5t-56.5 317.5t-199.5 112.5t-199.5 -112.5 t-56.5 -317.5z" />
<glyph unicode="1" horiz-adv-x="626" d="M61 -6v47l33 4q70 8 96.5 20.5t39 51.5t12.5 131v442q0 74 -19.5 111t-55.5 49t-97 10v62q76 -2 180 12q94 18 135 39v-725q0 -92 12.5 -131t39 -51.5t95.5 -20.5l33 -4v-47l-252 6z" />
<glyph unicode="2" horiz-adv-x="874" d="M90 686q0 119 88 197t223 78q102 0 175 -40t111 -103.5t38 -133.5q0 -84 -48 -168t-112.5 -149.5t-163.5 -153.5l-92 -82l406 31l-10 -90l-3 -252h-47l-4 33q-8 70 -20.5 96t-51 38.5t-130.5 12.5h-295v41l122 135l50 53q80 86 126 143.5t77.5 130t31.5 156.5 q0 109 -54 173.5t-145 64.5q-100 0 -155 -63.5t-55 -153.5q0 -70 34.5 -121t77.5 -67l-20 -46q-70 31 -112 95.5t-42 144.5z" />
<glyph unicode="3" horiz-adv-x="913" d="M-12 -375q0 49 26.5 81t71.5 32q37 0 62.5 -24.5t25.5 -63.5q0 -16 -8 -45q-10 -25 -10 -47q0 -45 36.5 -75t122.5 -30q131 0 209 117t78 309q0 154 -54 231.5t-147 77.5q-84 0 -153 -38l-21 53q51 23 88 51q98 70 171 172t73 244q0 109 -59.5 168t-153.5 59 t-155.5 -62.5t-61.5 -152.5q0 -82 38 -130t91 -69l-16 -47q-86 35 -130 100.5t-44 149.5q0 119 93 197t234 78q152 0 240 -80t88 -209q0 -195 -223 -346l-123 -84q41 4 55 4q98 0 176 -53.5t122 -141.5t44 -190q0 -127 -51 -232.5t-152.5 -168t-246.5 -62.5q-88 0 -165 29.5 t-124 81t-47 116.5z" />
<glyph unicode="4" horiz-adv-x="1007" d="M-10 434v60l698 901h45v-893h230v-68h-230v-186q0 -92 12.5 -131t39 -51.5t96.5 -20.5l32 -4v-47l-251 6l-252 -4v47l32 2q70 8 96.5 20.5t39 51.5t14.5 131l2 186h-604zM63 502h531l4 674z" />
<glyph unicode="5" horiz-adv-x="976" d="M96 205q0 57 29 92t74 35q37 0 60.5 -23.5t23.5 -60.5q0 -14 -9 -43q-8 -33 -8 -55q0 -49 40 -82t100 -33q127 0 197.5 138t70.5 335q0 121 -32 200.5t-83 116.5t-108 37q-66 0 -115 -39t-76 -98h-39l53 741h54l-4 -55l82 -2h63q207 0 270 37h21v-21q0 -102 -91 -133.5 t-278 -31.5h-80l-32 -414q37 39 91 61.5t113 22.5q96 0 179 -50.5t132.5 -145.5t49.5 -222q0 -160 -58.5 -280.5t-156 -187.5t-213.5 -67q-99 0 -171.5 33t-110.5 85t-38 110z" />
<glyph unicode="6" horiz-adv-x="1087" d="M117 653q0 242 62.5 429.5t181 294t282.5 106.5q106 0 183 -35t77 -105q0 -47 -25.5 -72.5t-66.5 -27.5q-31 0 -56.5 14.5t-31.5 45.5q-14 61 -42 90.5t-79 29.5q-84 0 -160.5 -84t-123 -248.5t-42.5 -396.5v-14q49 96 128 147.5t184 51.5q88 0 171 -47.5t136 -145.5 t53 -244q0 -129 -50 -234.5t-142 -168t-217 -62.5q-232 0 -327 180.5t-95 495.5zM295 430q0 -184 59.5 -287.5t167.5 -103.5q117 0 189.5 109.5t72.5 302.5q0 178 -59 271t-168 93q-68 0 -128 -48t-97 -135t-37 -202z" />
<glyph unicode="7" horiz-adv-x="978" d="M92 549v475h45v-102h731v-33l-393 -1362q-39 -129 -121 -129q-32 0 -51.5 25.5t-19.5 66.5q0 47 24 107l473 1157h-643v-205h-45z" />
<glyph unicode="8" horiz-adv-x="1005" d="M102 319q0 96 41 174t97.5 133.5t146.5 129.5l-45 35q-195 150 -195 348q0 106 51.5 185t135.5 119t182 40q154 0 237 -87t83 -214q0 -117 -64.5 -199t-173.5 -162l41 -33q123 -94 193.5 -189t70.5 -234q0 -113 -51 -201t-146.5 -137.5t-220.5 -49.5q-184 0 -283.5 97.5 t-99.5 244.5zM178 317q0 -123 79 -198.5t230 -75.5q131 0 207 64.5t76 177.5q0 111 -69.5 196.5t-194.5 182.5l-68 53q-123 -98 -191.5 -188.5t-68.5 -211.5zM293 1192q0 -86 51 -149.5t135 -129.5l68 -53q92 68 152.5 145.5t60.5 176.5q0 94 -59.5 161.5t-172.5 67.5 q-100 0 -167.5 -61.5t-67.5 -157.5z" />
<glyph unicode="9" horiz-adv-x="1136" d="M117 449q-4 133 50 250.5t155.5 189.5t226.5 72q248 0 345 -195t97 -537q0 -250 -62.5 -439t-182 -292.5t-287.5 -103.5q-97 0 -163.5 32.5t-66.5 110.5q0 43 26 69.5t67 28.5q29 0 49 -12t41 -45q37 -70 59.5 -95.5t56.5 -25.5q80 0 148.5 74t108.5 224.5t36 373.5 q-45 -78 -120.5 -115t-165.5 -37q-111 0 -203 54.5t-150.5 161t-64.5 256.5zM281 457q10 -211 73.5 -314.5t194.5 -103.5q156 0 209 116.5t53 344.5q0 193 -63.5 296t-194.5 103t-206 -117.5t-66 -324.5z" />
<glyph unicode=":" horiz-adv-x="503" d="M123 109q0 51 38 89t93 38q53 0 90 -38t37 -89q0 -53 -37 -92.5t-90 -39.5q-55 0 -93 38t-38 94zM123 760q0 51 38 89t93 38q53 0 90 -38t37 -89q0 -53 -37 -92.5t-90 -39.5q-55 0 -93 38t-38 94z" />
<glyph unicode=";" horiz-adv-x="579" d="M123 113q0 57 39 97t106 40q90 0 139.5 -74t49.5 -178q0 -139 -97 -262q-72 -96 -204 -180l-29 55q268 176 268 387q0 47 -13 93t-42 61l-6 -11q8 -12 14 -30.5t6 -36.5q0 -39 -27.5 -69t-80.5 -30q-51 0 -87 40t-36 98zM123 760q0 51 38 89t93 38q53 0 90 -38t37 -89 q0 -53 -37 -92.5t-90 -39.5q-55 0 -93 38t-38 94z" />
<glyph unicode="&#x3c;" horiz-adv-x="1007" d="M205 627v55l700 334v-86l-557 -275l557 -272v-90z" />
<glyph unicode="=" horiz-adv-x="1228" d="M172 453v82h909v-82h-909zM172 721v82h909v-82h-909z" />
<glyph unicode="&#x3e;" horiz-adv-x="1028" d="M205 293v90l557 272l-557 275v86l700 -334v-55z" />
<glyph unicode="?" horiz-adv-x="929" d="M137 1307q0 78 93.5 127t205.5 49q102 0 188.5 -45t137.5 -128t51 -190q0 -115 -45 -205t-122 -140t-171 -50q-125 0 -207 70q18 -100 39 -169t23 -79q18 -59 22 -78q4 -25 4 -33q0 -35 -20.5 -55.5t-46.5 -20.5q-33 0 -55.5 20.5t-24.5 57.5l-25 512v6l43 2 q23 -84 78 -131t146 -47q113 0 155.5 92.5t42.5 268.5q0 141 -52 215t-165 74q-119 0 -119 -62q0 -10 7.5 -37.5t7.5 -42.5q0 -35 -24.5 -62.5t-70.5 -27.5q-41 0 -68.5 32t-27.5 77zM168 109q0 51 37 89t90 38q55 0 93 -38t38 -89q0 -55 -38 -93.5t-93 -38.5q-53 0 -90 39 t-37 93z" />
<glyph unicode="@" horiz-adv-x="1726" d="M123 420q0 248 119.5 438.5t320.5 294.5t434 104q186 0 331 -71.5t225.5 -206.5t80.5 -317q0 -145 -56 -269.5t-164.5 -198t-262.5 -73.5q-92 0 -136 33.5t-44 91.5q0 10 4 35q-113 -160 -254 -160q-113 0 -172.5 79t-59.5 183q0 133 82 252t202 190.5t228 71.5 q66 0 106 -38t46 -114l51 129h133l-196 -522q-16 -41 -17 -84q0 -41 20.5 -64.5t59.5 -23.5q86 0 172 62.5t141.5 173t55.5 246.5q0 162 -70.5 282.5t-202 186t-305.5 65.5q-197 0 -370.5 -95t-280 -272.5t-106.5 -412.5q0 -180 73.5 -324.5t217 -227.5t339.5 -83 q94 0 194.5 19.5t178.5 52.5l23 -52q-78 -39 -188.5 -62.5t-223.5 -23.5q-211 0 -377 85t-259 245t-93 375zM637 322q0 -150 106 -150q84 0 173.5 107.5t144.5 240.5q45 106 45 191q0 61 -26.5 98t-78.5 37q-88 0 -173 -76t-138 -197.5t-53 -250.5z" />
<glyph unicode="A" horiz-adv-x="1525" d="M-31 -6v51l19 2q109 14 163 55t99 150l495 1202h70l483 -1202q41 -102 89.5 -148.5t128.5 -54.5l40 -4v-51l-253 6l-328 -6v51l41 4q72 8 102.5 30.5t30.5 63.5t-29 111l-106 266h-578l-110 -266q-35 -84 -35 -119q0 -39 33.5 -59.5t111.5 -26.5l41 -4v-51l-260 6z M463 586h526l-258 649z" />
<glyph unicode="B" horiz-adv-x="1404" d="M82 -6v51l41 4q82 10 114.5 23.5t47 55.5t14.5 144v910q0 102 -14.5 144t-47 55.5t-114.5 23.5l-41 4v51l303 -6h250q141 0 258 -18.5t210 -92t93 -223.5q0 -131 -84 -215t-209 -127q168 -16 273.5 -101t105.5 -263q0 -219 -154.5 -316.5t-377.5 -97.5h-365zM465 264 q0 -119 40 -163t130 -44h115q168 0 254 76t86 279q0 137 -46.5 206.5t-137.5 93t-251 23.5h-190v-471zM465 793h272q129 0 199 82.5t70 244.5q0 113 -36 173.5t-101.5 82t-172.5 21.5h-231v-604z" />
<glyph unicode="C" horiz-adv-x="1474" d="M127 727q0 213 92 386t249 271.5t343 98.5q109 0 185.5 -22.5t142.5 -53.5t80 -31q47 0 55 78h51l-4 -240l4 -239h-51q-31 213 -148.5 329.5t-308.5 116.5q-252 0 -366.5 -190.5t-114.5 -503.5q0 -338 111.5 -513t369.5 -175q129 0 228.5 60.5t160 163t74.5 226.5h49 l-4 -249l6 -240h-49l-6 23q-10 35 -22.5 54t-34.5 19q-20 0 -78 -28q-82 -39 -161 -65t-181 -26q-205 0 -357.5 95.5t-233.5 265.5t-81 389z" />
<glyph unicode="D" horiz-adv-x="1622" d="M82 -6v51l41 4q82 10 115.5 23.5t48 56.5t14.5 143v910q0 102 -14.5 144t-47 55.5t-114.5 23.5l-41 4v51l303 -6h289q424 0 642 -174t218 -547q0 -233 -103.5 -399t-276.5 -250t-378 -84h-393zM477 299q0 -113 25.5 -175.5t109.5 -62.5h174q258 0 405.5 167t147.5 501 q0 326 -141 495t-463 169h-258v-1094z" />
<glyph unicode="E" horiz-adv-x="1329" d="M82 -6v51l41 4q82 10 114.5 23.5t47 55.5t14.5 144v910q0 102 -14.5 144t-47 55.5t-114.5 23.5l-41 4v51l303 -6h795l4 -147l16 -189h-49q-20 127 -57 183.5t-113 75t-238 18.5h-270v-600h229q66 0 102 52t44 193h51l-6 -274l6 -303h-51q0 145 -36 209.5t-110 64.5h-229 v-518q0 -66 18.5 -100.5t61.5 -48t123 -13.5h190q125 0 188.5 28t95.5 105.5t46 239.5h51l-14 -246l-6 -184h-842z" />
<glyph unicode="F" horiz-adv-x="1243" d="M82 -6v51l41 4q82 10 114.5 23.5t47 55.5t14.5 144v910q0 102 -14.5 144t-47 55.5t-114.5 23.5l-41 4v51l303 -6h823l6 -149l19 -183h-49q-10 125 -70.5 185.5t-133.5 74t-171 13.5h-336v-600h229q66 0 102 52t44 193h51l-6 -274l6 -303h-51q0 145 -36 209.5t-110 64.5 h-229v-465q0 -100 16.5 -145t50 -59.5t109.5 -18.5l70 -4v-51l-332 6h-2z" />
<glyph unicode="G" horiz-adv-x="1607" d="M127 727q0 217 94 389t253 269.5t345 97.5q80 0 146.5 -18.5t132.5 -47.5q57 -25 77.5 -32t45.5 -7t38 23.5t13 52.5h51l-4 -235l4 -240h-51q-4 133 -70.5 233.5t-171 154.5t-217.5 54q-238 0 -357.5 -178t-119.5 -516q0 -346 124 -517t359 -171q111 0 201 37t141 97 t51 126v57q0 90 -42 129t-154 50l-88 8v49l340 -8l315 8v-49l-92 -8q-59 -4 -92 -45t-33 -134v-37q0 -76 45 -157l29 -51l-47 -31q-47 74 -97 74q-29 0 -53 -13.5t-63 -42.5q-78 -55 -159 -88t-214 -33q-189 0 -344.5 92.5t-245.5 263.5t-90 394z" />
<glyph unicode="H" horiz-adv-x="1726" d="M82 -6v51l41 4q82 10 114.5 23.5t47 55.5t14.5 144v910q0 102 -14.5 144t-47 55.5t-114.5 23.5l-41 4v51l303 -6h2l303 6v-51l-41 -4q-82 -10 -114.5 -23.5t-47 -55.5t-14.5 -144v-396h780v396q0 102 -14 144t-47 55.5t-115 23.5l-41 4v51l303 -6h2l304 6v-51l-41 -4 q-82 -10 -115 -23.5t-47.5 -55.5t-14.5 -144v-910q0 -102 14.5 -144t47.5 -55.5t115 -23.5l41 -4v-51l-304 6h-2l-303 -6v51l41 4q82 10 115 23.5t47 55.5t14 144v449h-780v-449q0 -102 14.5 -144t47 -55.5t114.5 -23.5l41 -4v-51l-303 6h-2z" />
<glyph unicode="I" horiz-adv-x="772" d="M82 -6v51l41 4q82 10 114.5 23.5t47 55.5t14.5 144v910q0 102 -14.5 144t-47 55.5t-114.5 23.5l-41 4v51l303 -6h2l303 6v-51l-41 -4q-82 -10 -114.5 -23.5t-47 -55.5t-14.5 -144v-910q0 -102 14.5 -144t47 -55.5t114.5 -23.5l41 -4v-51l-303 6h-2z" />
<glyph unicode="J" horiz-adv-x="882" d="M31 158q0 45 27.5 76.5t78.5 31.5q39 0 65.5 -23.5t26.5 -60.5q0 -27 -12 -55q-10 -27 -10 -43q0 -23 17.5 -40t54.5 -17q152 0 151 225v930q0 102 -14.5 144t-47 55.5t-114.5 23.5l-41 4v51l303 -6h2l303 6v-51l-41 -4q-82 -10 -114.5 -23.5t-47 -55.5t-14.5 -144v-893 q0 -186 -95 -249t-243 -63q-94 0 -164.5 51.5t-70.5 129.5z" />
<glyph unicode="K" horiz-adv-x="1517" d="M82 -6v51l41 4q82 10 114.5 23.5t47 55.5t14.5 144v910q0 102 -14.5 144t-47 55.5t-114.5 23.5l-41 4v51l303 -6l272 6v-53l-41 -4q-68 -8 -97.5 -24.5t-41.5 -59.5t-12 -137v-549l471 551q82 96 82 151t-94 66l-66 6v53l262 -6l248 6v-51l-70 -8q-59 -8 -113.5 -47 t-115.5 -113l-319 -377l393 -514q82 -109 134 -166t109.5 -93t129.5 -42l43 -4v-51l-312 6l-303 -6v51l31 2q98 6 98 59q0 41 -55 113l-389 502l-164 -193v-256q0 -102 13.5 -144t43 -55.5t105.5 -23.5l37 -4v-51l-277 6h-2z" />
<glyph unicode="L" horiz-adv-x="1333" d="M82 -6v51l41 4q82 10 114.5 23.5t47 55.5t14.5 144v910q0 102 -14.5 144t-47 55.5t-114.5 23.5l-41 4v51l307 -6l264 6v-47l-32 -4q-70 -8 -96.5 -20.5t-39 -51.5t-12.5 -131v-854q0 -119 13.5 -176t63.5 -87t163 -30h153q172 0 253 91.5t98 279.5h45l-21 -436l-856 6z " />
<glyph unicode="M" horiz-adv-x="2007" d="M72 -6v51l41 4q82 10 114.5 23.5t47 55.5t14.5 144v910q0 102 -14.5 144t-47 55.5t-114.5 23.5l-41 4v51l303 -6h114l488 -1182l539 1182h122l287 6v-51l-41 -4q-82 -10 -114.5 -23.5t-47 -55.5t-14.5 -144v-910q0 -102 14.5 -145t47 -56.5t114.5 -21.5l41 -4v-51l-303 6 l-305 -6v51l41 4q82 8 114.5 21.5t47 56.5t14.5 145v1053l-606 -1325h-39l-529 1305v-1090q0 -66 15.5 -98.5t51.5 -46t110 -21.5l41 -4v-51l-261 6z" />
<glyph unicode="N" horiz-adv-x="1599" d="M72 1407v53l397 -6q106 -147 366.5 -490t424.5 -556v774q0 102 -14.5 145t-47.5 56.5t-115 21.5l-41 4v51l267 -6l250 6v-51l-41 -4q-82 -10 -115 -23.5t-47.5 -55.5t-14.5 -144v-1182h-61q-90 180 -395 592t-506 649v-969q0 -102 14.5 -146t47 -57.5t114.5 -21.5l41 -4 v-51l-262 8l-254 -8v51l41 4q82 8 114.5 21.5t47 57.5t14.5 146v1057q-61 78 -164 78h-61z" />
<glyph unicode="O" d="M127 731q0 217 92 388t254 267.5t365 96.5t364.5 -96.5t253.5 -267.5t92 -388t-92 -389t-254 -268.5t-364 -96.5q-203 0 -365 96.5t-254 268.5t-92 389zM336 731q0 -692 502 -692q501 0 501 692q0 332 -121.5 511t-379.5 179t-380 -179t-122 -511z" />
<glyph unicode="P" horiz-adv-x="1300" d="M82 -6v51l41 4q82 10 114.5 23.5t47 55.5t14.5 144v910q0 102 -14.5 144t-47 55.5t-114.5 23.5l-41 4v51l303 -6h279q184 0 310 -31.5t200.5 -120t74.5 -249.5q0 -186 -139 -297t-397 -111h-240v-373q0 -102 16.5 -144t55.5 -55.5t135 -23.5l45 -4v-51l-346 6zM473 707 h240q137 0 211.5 39.5t102.5 114.5t28 192q0 207 -90.5 275.5t-221.5 68.5h-270v-690z" />
<glyph unicode="Q" horiz-adv-x="1646" d="M127 731q0 217 92 388t254 267.5t365 96.5t364.5 -96.5t253.5 -267.5t92 -388q0 -205 -82 -369.5t-227 -264t-330 -115.5l-245 -115h14q119 0 207 -43t188 -125q88 -72 162 -112t145 -40q176 0 205 199h41q-16 -172 -84.5 -260t-204.5 -88q-117 0 -196.5 43t-133 88 t-67.5 57q-125 104 -223.5 153.5t-210.5 55.5q-86 -53 -137 -104q-70 -70 -127 -70q-27 0 -43.5 17.5t-16.5 50.5q0 74 86 113.5t228 39.5l297 138q-193 10 -344.5 108t-236.5 266t-85 377zM336 731q0 -692 502 -692q501 0 501 689q0 335 -121.5 514t-379.5 179t-380 -179 t-122 -511z" />
<glyph unicode="R" horiz-adv-x="1423" d="M82 -6v51l41 4q82 10 114.5 23.5t47 55.5t14.5 144v910q0 102 -14.5 144t-47 55.5t-114.5 23.5l-41 4v51l303 -6h287q233 0 377.5 -83t144.5 -275q0 -170 -107.5 -258t-281.5 -115q152 -10 246 -104.5t120 -272.5q45 -295 177 -295q37 0 82 25l14 -51q-35 -18 -91.5 -33 t-109.5 -15q-201 0 -237 267q-18 137 -55.5 235.5t-130.5 164t-259 65.5h-88v-437q0 -102 14.5 -144t47 -55.5t114.5 -23.5l41 -4v-51l-303 6h-2zM473 764h172q193 0 273.5 78t80.5 241q0 158 -74.5 238t-248.5 80h-203v-637z" />
<glyph unicode="S" horiz-adv-x="1148" d="M123 0l10 242l-6 264h51l23 -96q23 -94 82 -180.5t150 -139.5t200 -53q104 0 180 66.5t76 195.5t-82 214t-254 167l-86 41q-158 76 -230.5 166t-72.5 225q0 106 53 191.5t147.5 132.5t213.5 47q115 0 231 -62q51 -26 82 -26h2q18 0 26.5 14t12.5 49h51l-6 -196l4 -199 h-51q-12 111 -62.5 192.5t-124 125.5t-155.5 44q-121 0 -196 -68.5t-75 -178.5q0 -109 68 -176.5t205 -133.5l84 -41q125 -61 201.5 -118.5t118.5 -136t42 -189.5q0 -119 -53 -211t-145.5 -143.5t-204.5 -51.5q-72 0 -136.5 21.5t-131.5 58.5q-49 27 -78 38t-49 11 q-27 0 -38.5 -19t-19.5 -56l-6 -31h-51z" />
<glyph unicode="T" horiz-adv-x="1523" d="M6 1044l51 252l23 164l584 -6h194l586 6l22 -164l52 -252l-45 -12q-57 145 -94.5 216t-90.5 111t-137 40h-303v-1127q0 -102 16.5 -144t55 -55.5t135.5 -23.5l45 -4v-51l-334 6l-344 -6v51l45 4q96 10 135 23.5t55.5 55.5t16.5 144v1127h-289q-92 0 -145.5 -35 t-90 -103.5t-100.5 -226.5z" />
<glyph unicode="U" horiz-adv-x="1536" d="M51 1409v51l303 -6h2l303 6v-51l-41 -4q-82 -10 -114.5 -23.5t-47 -55.5t-14.5 -144v-725q0 -201 110 -306.5t294 -105.5q201 0 296 110.5t95 313.5v713q0 102 -14.5 144t-47 55.5t-114.5 23.5l-41 4v51l303 -4l203 4v-51l-41 -4q-82 -10 -115 -23.5t-47 -55.5t-14 -144 v-713q0 -240 -126 -366t-376 -126q-264 0 -401.5 116t-137.5 364v725q0 102 -14 144t-47 55.5t-115 23.5z" />
<glyph unicode="V" horiz-adv-x="1501" d="M-31 1409v51l305 -6l306 6v-51l-62 -6q-139 -12 -139 -109q0 -37 22 -92l414 -981l397 983q23 53 23 94q0 90 -123 103l-72 8v51l287 -6l205 6v-49l-47 -10q-76 -16 -119 -61.5t-80 -137.5l-491 -1222h-66l-536 1263q-29 68 -70 105.5t-113 52.5z" />
<glyph unicode="W" horiz-adv-x="2148" d="M-31 1409v51l307 -6l304 6v-51l-58 -6q-72 -8 -111.5 -29.5t-39.5 -77.5q0 -31 14 -71l313 -967l357 969q12 37 12 61q0 86 -129 107l-82 12l8 53l86 -10q150 -14 180 -90q29 55 81.5 73.5t125.5 22.5l76 4l4 -53l-78 -6q-133 -10 -133 -113q0 -43 21 -96l342 -928 l301 985q10 37 10 60q0 43 -29.5 62.5t-91.5 27.5l-67 8v53l270 -6l217 6v-53l-49 -8q-150 -25 -180 -127l-394 -1290h-65l-414 1103l-407 -1103h-66l-401 1235q-27 84 -72 125.5t-115 56.5z" />
<glyph unicode="X" horiz-adv-x="1447" d="M-20 -6v51l43 6q78 12 140 50t148 157l332 455l-336 504q-45 70 -84 105.5t-76.5 51t-97.5 27.5l-41 8v51l338 -6l318 6v-51l-86 -10q-106 -12 -107 -74q0 -51 61 -143l230 -344l280 391q37 53 37 94q0 66 -90 78l-67 8v51l270 -6l238 6v-51l-44 -4q-141 -14 -282 -211 l-301 -416l356 -534q61 -92 119.5 -134t128.5 -55l61 -10v-51l-305 6l-350 -6v51l84 8q96 8 96 78q0 51 -53 133l-258 389l-309 -430q-33 -47 -33 -96q0 -31 18.5 -51.5t51.5 -22.5l77 -8v-51l-254 6z" />
<glyph unicode="Y" horiz-adv-x="1355" d="M-41 1409v51l311 -6l308 6v-51l-66 -6q-113 -10 -113 -86q0 -47 45 -125l299 -520l297 520q45 82 45 127q0 41 -30.5 60.5t-85.5 23.5l-60 6v51l271 -10l217 10v-51l-56 -10q-66 -12 -107.5 -47t-84.5 -111l-373 -651v-318q0 -102 14.5 -144t47 -55.5t114.5 -23.5l41 -4 v-51l-303 6h-2l-303 -6v51l41 4q82 10 114.5 23.5t47 55.5t14.5 144v316l-358 626q-49 86 -97.5 126t-128.5 57z" />
<glyph unicode="Z" horiz-adv-x="1308" d="M61 0v53l932 1340l-401 -4q-184 -2 -269 -31t-116 -88.5t-49 -192.5h-49l22 273l4 108l604 -4l459 6v-69l-924 -1330l500 5q150 0 229.5 53t114.5 151.5t60 276.5h49l-21 -342v-211l-422 6h-723z" />
<glyph unicode="[" horiz-adv-x="602" d="M123 -291v1897h377v-84h-285v-1729h285v-84h-377z" />
<glyph unicode="\" horiz-adv-x="759" d="M154 1708h73l533 -1984h-74z" />
<glyph unicode="]" horiz-adv-x="602" d="M102 -207h285v1729h-285v84h377v-1897h-377v84z" />
<glyph unicode="^" horiz-adv-x="1044" d="M102 713l373 741h82l385 -741h-102l-324 626l-311 -626h-103z" />
<glyph unicode="_" horiz-adv-x="1134" d="M102 -24h930v-91h-930v91z" />
<glyph unicode="`" horiz-adv-x="432" d="M98 1409q0 35 18.5 54.5t45.5 19.5q57 0 88 -115l80 -303h-45l-152 244q-35 55 -35 100z" />
<glyph unicode="a" horiz-adv-x="1003" d="M102 168q0 82 71 151.5t196 137.5q70 39 151.5 73.5t145.5 59.5v65q0 117 -44 170.5t-157 53.5q-66 0 -114 -16.5t-48 -51.5q0 -14 8 -39q10 -27 11 -55q0 -37 -28 -59.5t-67 -22.5q-37 0 -61.5 27.5t-24.5 66.5q0 100 108.5 150.5t244.5 50.5q166 0 240.5 -76t74.5 -248 v-368q0 -100 14.5 -144.5t59.5 -44.5q29 0 51 20.5t33 51.5l37 -15q-37 -129 -175 -129q-86 0 -121.5 48.5t-39.5 142.5q-55 -92 -143.5 -141.5t-194.5 -49.5q-100 0 -164 51.5t-64 139.5zM262 178q0 -57 34 -91t99 -34q86 0 163 58.5t108 138.5v299q-168 -70 -286 -164 t-118 -207z" />
<glyph unicode="b" horiz-adv-x="1099" d="M-16 1413v47q188 0 323 25v-684q119 129 285 129q117 0 212 -63.5t149.5 -173t54.5 -242.5q0 -131 -55.5 -240t-153 -171.5t-215.5 -62.5q-82 0 -155 34t-124 87l-108 -121h-33v1270q0 98 -40 132t-126 34h-14zM307 178q37 -57 107.5 -98t150.5 -41q135 0 207 113.5 t72 298.5q0 186 -71 301.5t-202 115.5q-154 0 -264 -137v-553z" />
<glyph unicode="c" horiz-adv-x="972" d="M92 432q0 141 62.5 255t173 178.5t245.5 64.5q70 0 139.5 -21.5t115.5 -63.5t46 -97q0 -45 -28.5 -75t-69.5 -30q-49 0 -77.5 28.5t-28.5 63.5q0 23 8 51q8 29 8 45q0 25 -37 36.5t-78 11.5q-143 0 -229 -120t-86 -317q0 -172 85 -287.5t234 -115.5q94 0 169 51t108 162 l49 -16q-37 -133 -133 -196t-223 -63q-135 0 -238.5 58.5t-159 162t-55.5 234.5z" />
<glyph unicode="d" horiz-adv-x="1116" d="M92 457q0 131 55.5 239.5t152.5 171t216 62.5q80 0 152.5 -33t124.5 -84v434q0 98 -40 132t-126 34h-15v47q188 0 324 25v-1262q0 -73 18.5 -112t54 -51.5t97.5 -12.5v-47h-84q-102 0 -184 -16l-27 143q-57 -70 -134 -110t-169 -40q-117 0 -212 63.5t-149.5 173.5 t-54.5 243zM256 457q0 -186 70.5 -302t201.5 -116q154 0 265 137v553q-37 57 -108 98t-150 41q-135 0 -207 -113.5t-72 -297.5z" />
<glyph unicode="e" horiz-adv-x="987" d="M102 434q0 139 61.5 253t166 178.5t227.5 64.5q156 0 246 -100.5t90 -264.5q0 -39 -6 -63h-619q-2 -18 -2 -58q0 -174 82 -289.5t232 -115.5q96 0 170.5 54t115.5 161l49 -18q-86 -258 -364 -259q-133 0 -234.5 58.5t-158 162t-56.5 236.5zM272 549h260q125 0 174.5 40 t49.5 97q0 86 -59.5 139.5t-139.5 53.5q-123 0 -194.5 -88.5t-90.5 -241.5z" />
<glyph unicode="f" horiz-adv-x="694" d="M51 -6v47l33 4q70 8 96.5 20.5t38.5 51.5t12 131v594h-176v51h176v233q0 184 82 270.5t246 86.5q109 0 176.5 -43t67.5 -123q0 -51 -29 -80t-72 -29q-37 0 -63.5 27t-26.5 59q0 29 13 62q6 16 6 26q0 25 -21.5 37.5t-50.5 12.5q-106 0 -145 -80t-39 -226v-233h211v-51 h-211v-594q0 -92 12 -131t39 -51.5t96 -20.5l33 -4v-47l-252 6z" />
<glyph unicode="g" horiz-adv-x="1134" d="M20 -276q0 66 32 108.5t83 42.5q35 0 59.5 -20.5t24.5 -57.5q0 -23 -6 -40t-18 -40q-27 -39 -27 -77q0 -100 96 -145.5t252 -45.5q166 0 277.5 71.5t111.5 198.5q0 90 -71.5 133.5t-225.5 51.5l-209 10q-127 6 -210 43t-83 137q0 76 63.5 136.5t152.5 84.5 q-84 43 -134.5 118t-50.5 167t50.5 168t137.5 119t191 43q121 0 219 -60q41 55 101.5 83t126.5 28q65 0 110 -33t45 -84q0 -41 -26.5 -65.5t-61.5 -24.5t-59.5 22.5t-32.5 63.5q-10 57 -57 58q-31 0 -58.5 -22t-48.5 -52q57 -47 89 -110.5t32 -133.5q0 -90 -50 -166 t-137 -120t-192 -44q-63 0 -135 21q-63 -14 -107.5 -45t-44.5 -76q0 -57 55.5 -77.5t161.5 -26.5l91 -5q152 -8 248 -30.5t155 -86t59 -182.5q0 -113 -66.5 -195.5t-177 -125.5t-239.5 -43q-209 0 -352.5 83t-143.5 243zM295 600q0 -127 53 -202.5t168 -75.5t168 75.5 t53 202.5t-53 203t-168 76t-168 -76t-53 -203z" />
<glyph unicode="h" horiz-adv-x="1191" d="M31 -6v47l32 4q70 8 96.5 20.5t39 51.5t12.5 131v999q0 98 -40 132t-126 34h-14v47q188 0 323 25v-733q53 76 139.5 127t194.5 51q141 0 221 -72t80 -201v-409q0 -92 12.5 -131t39 -51.5t96.5 -20.5l32 -4v-47l-251 6l-252 -6v47l32 4q70 8 96.5 20.5t39 51.5t12.5 131 v409q0 102 -52.5 156.5t-150.5 54.5q-102 0 -180 -65.5t-109 -145.5v-409q0 -92 12.5 -131t39 -51.5t96.5 -20.5l33 -4v-47l-252 6z" />
<glyph unicode="i" horiz-adv-x="581" d="M57 -6v47l33 4q70 8 96.5 20.5t39 51.5t12.5 131v432q0 98 -40 132t-126 34h-15v47q188 0 324 25v-670q0 -92 12.5 -131t39 -51.5t95.5 -20.5l33 -4v-47l-252 6zM171 1282q0 53 30.5 89t83.5 36q55 0 85 -35t30 -90t-29.5 -90t-85.5 -35q-53 0 -83.5 36t-30.5 89z" />
<glyph unicode="j" horiz-adv-x="565" d="M-96 -457q0 49 28.5 82t79.5 33q43 0 65.5 -25.5t22.5 -56.5q0 -14 -8 -39t-8 -41q0 -27 16.5 -41t40.5 -14q61 0 82 70.5t21 177.5v997q0 70 -21.5 104.5t-58.5 45t-101 10.5v47q156 0 324 31v-1235q0 -129 -79 -210t-202 -81q-96 0 -149 39t-53 106zM185 1270 q0 53 30.5 89t83.5 36q55 0 85 -35t30 -90t-29.5 -90t-85.5 -35q-53 0 -83.5 36t-30.5 89z" />
<glyph unicode="k" horiz-adv-x="1073" d="M31 -6v47l32 4q70 8 96.5 20.5t39 51.5t12.5 131v999q0 98 -40 132t-126 34h-14v47q188 0 323 25v-1096l303 363q27 33 27 57q0 31 -49 37l-33 4v47l197 -4l172 4v-47l-33 -4q-86 -12 -149.5 -52t-118.5 -108l-119 -141l348 -389q43 -51 76 -80t65 -31l33 -4v-47l-227 6 l-387 436l-105 -125v-63q0 -92 12.5 -131t39 -51.5t96.5 -20.5l33 -4v-47l-252 6z" />
<glyph unicode="l" horiz-adv-x="555" d="M31 -6v47l32 4q70 8 96.5 20.5t39 51.5t12.5 131v999q0 98 -40 132t-126 34h-14v47q188 0 323 25v-1237q0 -92 12.5 -131t39 -51.5t96.5 -20.5l33 -4v-47l-252 6z" />
<glyph unicode="m" horiz-adv-x="1789" d="M57 -6v47l33 4q70 8 96.5 20.5t39 51.5t12.5 131v432q0 102 -43 134t-138 32v47q188 0 324 25v-160q47 74 130 123t183 49q111 0 182.5 -47t96.5 -144q47 82 133 136.5t192 54.5q137 0 214 -73t77 -218v-391q0 -92 11.5 -131t39 -51.5t95.5 -20.5l32 -4v-47l-249 6 l-232 -6v47l33 4q59 6 82.5 18.5t34 52.5t10.5 132v426q0 90 -50 142t-139 52q-100 0 -171.5 -64.5t-100.5 -146.5v-18v-391q0 -92 10.5 -131t34 -51.5t82.5 -20.5l33 -4v-47l-232 6l-231 -6v47l33 4q59 8 82.5 20.5t34 51.5t10.5 131v426q0 90 -50.5 142t-138.5 52 q-100 0 -171.5 -64.5t-100.5 -146.5v-409q0 -92 10 -131t34 -51.5t83 -20.5l33 -4v-47l-232 6z" />
<glyph unicode="n" horiz-adv-x="1218" d="M57 -6v47l33 4q70 8 96.5 20.5t39 51.5t12.5 131v432q0 98 -40 132t-126 34h-15v47q188 0 324 25v-166q53 76 139 127t195 51q141 0 221 -72t80 -201v-409q0 -92 12 -131t39 -51.5t96 -20.5l33 -4v-47l-252 6l-252 -6v47l33 4q70 8 96.5 20.5t38.5 51.5t12 131v409 q0 102 -52 156.5t-150 54.5q-102 0 -180 -65.5t-109 -145.5v-409q0 -92 12.5 -131t39 -51.5t95.5 -20.5l33 -4v-47l-252 6z" />
<glyph unicode="o" horiz-adv-x="1126" d="M92 451q0 133 62.5 242.5t171 173t237.5 63.5t237.5 -63.5t171 -173t62.5 -242.5q0 -129 -62.5 -238t-171 -172.5t-237.5 -63.5t-237.5 63.5t-171 172.5t-62.5 238zM256 451q0 -190 75 -306t232 -116q158 0 232.5 115.5t74.5 306.5q0 195 -74.5 311.5t-232.5 116.5 t-232.5 -117t-74.5 -311z" />
<glyph unicode="p" horiz-adv-x="1153" d="M37 -532l33 4q70 8 96.5 20t38.5 51t12 131v1012q0 70 -21.5 104.5t-58.5 45t-100 10.5v47q156 0 323 31l-14 -140q129 145 299 146q117 0 212 -63.5t149.5 -173t54.5 -242.5q0 -131 -55.5 -240t-152.5 -171.5t-216 -62.5q-80 0 -152.5 33t-124.5 84v-420 q0 -92 12.5 -131t39 -51t96.5 -20l33 -4v-48l-252 7l-252 -7v48zM360 178q37 -57 108 -98t150 -41q136 0 207.5 113.5t71.5 298.5q0 186 -70.5 301.5t-205.5 115.5q-150 0 -261 -137v-553z" />
<glyph unicode="q" horiz-adv-x="1095" d="M92 457q0 131 55.5 239.5t152.5 171t216 62.5q84 0 158 -36t125 -89l106 115h31v-1246q0 -92 12.5 -131t39 -51t95.5 -20l33 -4v-48l-252 7l-252 -7v48l33 4q70 8 96.5 20t39 51t12.5 131v432q-119 -129 -285 -129q-117 0 -212 63.5t-149.5 173.5t-54.5 243zM256 457 q0 -186 70.5 -302t201.5 -116q154 0 265 137v553q-37 57 -108 98t-150 41q-135 0 -207 -113.5t-72 -297.5z" />
<glyph unicode="r" horiz-adv-x="802" d="M57 -6v47l33 4q70 8 96.5 20.5t39 51.5t12.5 131v426q0 76 -20.5 113.5t-58.5 48t-102 10.5v47q156 0 324 25l-23 -236h9q80 248 251 248q78 0 111 -37t33 -86q0 -45 -26.5 -73.5t-71.5 -28.5q-41 0 -65 19t-24 48q0 14 5.5 35.5t5.5 32.5q0 20 -29 20t-60.5 -27.5 t-54.5 -72.5q-41 -86 -61 -189v-323q0 -92 12.5 -131t39 -51.5t95.5 -20.5l33 -4v-47l-252 6z" />
<glyph unicode="s" horiz-adv-x="825" d="M104 0l9 135l6 174h45l2 -35q4 -59 39 -116.5t95 -95t134 -37.5q84 0 135.5 44t51.5 117q0 63 -49.5 108.5t-147.5 82.5l-74 29q-111 43 -163 104t-52 156q0 117 80 190.5t193 73.5q74 0 147 -37q20 -10 35 -10q12 0 19 10t14 33l45 -2l-9 -133v-144h-47 q-14 104 -68.5 171t-144.5 67q-68 0 -113.5 -43t-45.5 -109q0 -61 45 -103t135 -77l80 -31q121 -47 171 -111.5t50 -160.5q0 -115 -77 -194t-210 -79q-108 1 -217 50q-33 16 -41 16q-10 0 -14 -7t-10 -36h-48z" />
<glyph unicode="t" horiz-adv-x="694" d="M61 842v51l56 4q82 6 127 67.5t59 176.5h53v-248h262v-51h-262v-615q0 -180 127 -180q49 0 83 33t63 92l45 -22q-23 -55 -64 -101q-66 -72 -172 -72q-104 0 -164.5 62.5t-60.5 196.5v606h-152z" />
<glyph unicode="u" horiz-adv-x="1169" d="M20 846v47l252 -6l72 2v-639q0 -100 51 -153.5t140 -53.5q104 0 182 66.5t119 162.5v367q0 92 -12.5 131t-39 51.5t-96.5 20.5l-33 4v47l252 -6l72 2v-662q0 -75 18.5 -113t54 -51.5t97.5 -13.5v-47q-104 0 -169 -3t-144 -17v188q-16 -27 -43 -57q-121 -135 -306 -136 q-135 0 -210.5 68t-75.5 197v397q0 92 -12.5 131t-39 51.5t-96.5 20.5z" />
<glyph unicode="v" horiz-adv-x="1038" d="M-27 846v47l211 -6l209 6v-47l-33 -4q-45 -6 -63 -21.5t-18 -42.5q0 -23 16 -61l258 -570l240 562q18 41 18 67q0 29 -22.5 44.5t-71.5 21.5l-35 4v47l184 -6l172 6v-47l-47 -6q-55 -8 -86 -41t-63 -111l-295 -688h-78l-334 737q-23 47 -49.5 73t-75.5 32z" />
<glyph unicode="w" horiz-adv-x="1572" d="M-27 846v47l217 -6l201 6v-47l-20 -2q-102 -8 -103 -78q0 -29 11 -57l198 -551l228 514q24 53 24 82q0 86 -84 90l-63 2v47h71q74 0 111 -62q12 31 52 46.5t81 15.5h94v-47l-30 -2q-35 -2 -52.5 -21.5t-17.5 -48.5q0 -27 16 -69l213 -545l213 540q18 55 19 68 q0 33 -24.5 50.5t-76.5 23.5l-32 4v47l192 -6l162 6v-47l-33 -4q-63 -8 -94 -44t-60 -104l-274 -694h-78l-266 686l-301 -686h-78l-252 694q-27 72 -59.5 109t-81.5 41z" />
<glyph unicode="x" horiz-adv-x="1075" d="M0 -6v47l27 4q84 12 142 55t122 115l180 203l-289 317q-53 59 -83.5 82t-71.5 27l-19 2v47l230 -6l229 6v-47l-33 -6q-84 -18 -84 -58q0 -14 7.5 -28.5t27.5 -36.5l186 -205l183 205q28 30 28 59q0 27 -29.5 44.5t-72.5 23.5l-12 2v47l237 -6l156 6v-47l-23 -2 q-76 -6 -134 -50t-128 -120l-174 -197l248 -272q63 -72 111.5 -111t101.5 -49l22 -4v-45l-202 4l-254 -4v47l33 4q41 4 60 15.5t19 29.5q0 29 -26 58l-213 233l-183 -211q-32 -36 -32 -64q0 -53 71 -61l33 -4v-49l-192 6z" />
<glyph unicode="y" horiz-adv-x="1071" d="M-61 -494q0 41 29.5 69t74.5 28q25 0 41 -7.5t35 -21.5q43 -33 76 -33q43 0 81.5 32t77.5 116l135 291l-339 745q-27 55 -51.5 82t-69.5 33l-47 6v47l213 -6l206 6v-47l-28 -4q-45 -6 -65.5 -20.5t-20.5 -43.5q0 -25 22 -73l256 -562l256 551q23 51 23 80 q0 31 -23.5 46.5t-77.5 21.5l-32 4v47l196 -6l164 6v-47l-31 -4q-68 -10 -102.5 -48t-69.5 -118l-462 -1010q-57 -123 -134 -195.5t-194 -72.5q-68 0 -103.5 31.5t-35.5 76.5z" />
<glyph unicode="z" horiz-adv-x="954" d="M72 41l620 803h-149q-125 0 -205 -22.5t-131 -83t-74 -175.5h-47l45 185l23 145h708l15 -39l-623 -803h221q103 0 172.5 20.5t116.5 80t61 172.5h47l-24 -215l-2 -109h-760z" />
<glyph unicode="{" horiz-adv-x="798" d="M123 633v47q61 0 116.5 30.5t88 81t32.5 105.5q0 72 -26 170q-25 102 -25 164q0 100 50.5 186t139.5 137.5t197 51.5v-47q-102 0 -170.5 -50.5t-68.5 -142.5q0 -66 18 -172q20 -127 21 -205q0 -82 -38 -156.5t-101.5 -121.5t-135.5 -47v-13q72 0 135.5 -47t101.5 -121.5 t38 -156.5q0 -78 -21 -205q-18 -106 -18 -172q0 -92 68.5 -142.5t170.5 -50.5v-47q-108 0 -197 51.5t-139.5 137.5t-50.5 186q0 61 25 164q27 98 26 170q0 55 -32.5 104t-88 80t-116.5 31z" />
<glyph unicode="|" horiz-adv-x="376" d="M152 -276v1984h71v-1984h-71z" />
<glyph unicode="}" horiz-adv-x="798" d="M102 -244q102 0 171 50.5t69 142.5q0 66 -18 172q-20 127 -21 205q0 82 38 156.5t101.5 121.5t135.5 47v13q-72 0 -135.5 47t-101.5 121.5t-38 156.5q0 78 21 205q18 106 18 172q0 92 -68.5 142.5t-171.5 50.5v47q109 0 198 -51.5t139 -137.5t50 -186q0 -61 -24 -164 q-27 -98 -27 -170q0 -55 33 -105.5t88 -81t117 -30.5v-47q-61 0 -116.5 -31t-88.5 -80t-33 -104q0 -72 27 -170q25 -102 24 -164q0 -100 -50 -186t-139 -137.5t-198 -51.5v47z" />
<glyph unicode="~" horiz-adv-x="1531" d="M82 471q0 51 35 135t114.5 149.5t204.5 65.5q82 0 172 -31.5t217 -93.5q115 -55 187.5 -81.5t132.5 -26.5q100 0 163.5 58.5t90.5 141.5h51q-14 -80 -59 -153.5t-115 -118.5t-156 -45q-88 0 -168 29.5t-198 91.5q-106 53 -179 80.5t-145 27.5q-113 0 -188.5 -57 t-108.5 -172h-51z" />
<glyph unicode="&#xa1;" horiz-adv-x="483" d="M123 799q0 53 39 92t92 39t92 -39t39 -92t-39 -92t-92 -39t-92 38.5t-39 92.5zM152 -444l2 28q4 53 8 76q4 45 19.5 222t25.5 330t14 282h66q4 -176 17 -350.5t38 -434.5l12 -125l2 -28q0 -68 -28.5 -103t-73.5 -35q-43 0 -72.5 35t-29.5 103z" />
<glyph unicode="&#xa2;" horiz-adv-x="972" d="M92 432q0 129 54.5 236.5t148.5 175t215 82.5v217h51v-213h12q70 0 139.5 -21.5t115.5 -63.5t46 -97q0 -45 -28.5 -75t-69.5 -30q-49 0 -77.5 28.5t-28.5 63.5q0 23 8 51q8 29 8 45q0 25 -37 36.5t-78 11.5h-10v-840h14q94 0 169 51t108 162l49 -16q-35 -130 -127 -192 t-213 -67v-213h-51v216q-125 6 -220 66t-146.5 160.5t-51.5 225.5zM256 442q0 -149 66.5 -260.5t187.5 -136.5v827q-117 -27 -185.5 -141.5t-68.5 -288.5z" />
<glyph unicode="&#xa3;" horiz-adv-x="1146" d="M63 47q0 66 73 103.5t177 48.5q12 55 17.5 123.5t9.5 179.5l4 22q0 55 6 107h-192l8 51h190l6 51q35 207 85.5 367t147.5 271.5t251 111.5q106 0 175 -40t69 -122q0 -55 -29 -84t-72 -29q-39 0 -64.5 28t-25.5 67q0 23 9.5 46t9.5 33q0 25 -22 37.5t-50 12.5 q-94 0 -153.5 -86t-89.5 -208t-60 -315l-25 -141h344l-8 -51h-346l-4 -19l-19 -86l-4 -22q-43 -190 -90 -301q72 -2 134.5 -12.5t138.5 -30.5q74 -18 119.5 -27.5t95.5 -9.5q90 0 142 48t60 142h45q0 -150 -69.5 -243t-214.5 -93q-70 0 -129.5 24t-141.5 69 q-68 37 -110.5 55t-91.5 29q-45 -90 -103.5 -133.5t-132.5 -43.5q-39 0 -54.5 21.5t-15.5 48.5z" />
<glyph unicode="&#xa4;" horiz-adv-x="911" d="M82 428l102 102q-76 96 -75 220q0 123 75 219l-102 102l51 53l105 -104q96 76 219 76t219 -76l102 102l51 -51l-102 -102q76 -96 76 -219q0 -124 -76 -220l102 -102l-51 -53l-104 104q-92 -76 -217 -76q-127 0 -219 74l-103 -102zM190 750q0 -113 77 -189t190 -76 t188.5 76t75.5 189t-76 188.5t-188 75.5q-113 0 -190 -76t-77 -188z" />
<glyph unicode="&#xa5;" horiz-adv-x="1355" d="M-41 1409v51l311 -6l308 6v-51l-66 -6q-113 -10 -113 -86q0 -47 45 -125l299 -520l297 520q45 82 45 127q0 41 -30.5 60.5t-85.5 23.5l-60 6v51l271 -10l217 10v-51l-56 -10q-66 -12 -107.5 -47t-84.5 -111l-346 -604h305v-66h-332v-168h332v-65h-332v-66 q0 -102 14.5 -144t47 -55.5t114.5 -23.5l41 -4v-51l-303 6h-2l-303 -6v51l41 4q82 10 114.5 23.5t47 55.5t14.5 144v66h-346v65h346v168h-346v66h317l-329 577q-49 86 -97.5 126t-128.5 57z" />
<glyph unicode="&#xa6;" horiz-adv-x="1134" d="M152 -276v888h71v-888h-71zM152 819v889h71v-889h-71z" />
<glyph unicode="&#xa7;" horiz-adv-x="888" d="M123 1149q0 150 97 242t253 92q84 0 159 -30t120 -82t45 -114q0 -47 -28 -80.5t-73 -33.5q-43 0 -69.5 24.5t-26.5 63.5q0 31 16 55q14 25 15 45q0 41 -41 70t-117 29q-98 0 -161.5 -58.5t-63.5 -144.5q0 -61 30.5 -114.5t68.5 -91.5t122 -114l121 -108q100 -90 149 -167 t49 -165q0 -84 -39.5 -150.5t-106.5 -103.5t-140 -41l8 -6q141 -98 219 -211t78 -217q0 -154 -96.5 -247t-243.5 -93q-88 0 -164 30.5t-122 83t-46 111.5q0 57 30 93t77 36q41 0 65.5 -25.5t24.5 -66.5q0 -23 -17 -55q-16 -29 -16 -54q0 -45 47 -72.5t117 -27.5 q98 0 159.5 63.5t61.5 145.5q0 59 -27.5 110.5t-66.5 89.5t-109 97l-65 55q-145 131 -210 219t-65 197q0 80 40 143.5t107.5 100.5t147.5 37l-69 55q-125 100 -184.5 193.5t-59.5 191.5zM266 487q0 -72 34 -131t89 -95t117 -36q67 0 112.5 48.5t45.5 134.5q0 61 -34 118.5 t-86 93t-108 35.5q-72 0 -121 -44t-49 -124z" />
<glyph unicode="&#xa8;" horiz-adv-x="905" d="M139 1278q0 49 29 82t76 33q49 0 75.5 -32t26.5 -83t-26.5 -84t-75.5 -33q-47 0 -76 33t-29 84zM528 1278q0 49 29 82t76 33q49 0 75.5 -32t26.5 -83t-26.5 -84t-75.5 -33q-47 0 -76 33t-29 84z" />
<glyph unicode="&#xa9;" horiz-adv-x="1759" d="M127 731q0 207 97.5 379t270.5 272.5t388 100.5q213 0 384 -100.5t268 -272.5t97 -379q0 -209 -93 -381t-264 -272.5t-392 -100.5q-215 0 -388 100.5t-270.5 273.5t-97.5 380zM213 731q0 -182 86 -336.5t239.5 -246t344.5 -91.5q196 0 347.5 91.5t233.5 246t82 336.5 q0 180 -86 335t-237.5 246t-339.5 91q-190 0 -344 -91t-240 -246t-86 -335zM498 733q0 111 52 201t143 141t206 51q57 0 100 -12t80 -27.5t45 -15.5q12 0 19.5 9.5t9.5 31.5h33l-4 -125l4 -125h-39q-16 98 -78.5 151.5t-144.5 53.5q-121 0 -190.5 -95t-69.5 -239 q0 -156 71.5 -244t194.5 -88q76 0 138 47.5t89 126.5l49 -18q-35 -113 -122 -164t-185 -51q-184 0 -292.5 108.5t-108.5 282.5z" />
<glyph unicode="&#xaa;" horiz-adv-x="815" d="M72 741q0 100 143 181.5t330 146.5v29q0 90 -25.5 139t-116.5 49q-63 0 -108 -12t-49 -29q-4 -10 4 -29.5t8 -41.5q0 -31 -21.5 -54.5t-52.5 -23.5t-53 19.5t-22 45.5q0 84 90 128t200 44q115 0 175.5 -25.5t83 -72.5t22.5 -123l-2 -72v-243q0 -68 10 -109t55 -41 q20 0 35 14.5t31 38.5l37 -20q-43 -90 -154 -90q-80 0 -112.5 38t-34.5 111q-35 -63 -112 -106t-154 -43q-95 0 -151 38t-56 113zM74 379v49h721v-49h-721zM221 748q0 -43 31 -68t78 -25q59 0 124.5 47.5t90.5 106.5v217q-324 -129 -324 -278z" />
<glyph unicode="&#xab;" horiz-adv-x="876" d="M102 446q0 139 74 239.5t209 131.5l21 -61q-98 -29 -144.5 -111t-46.5 -199t46 -198.5t145 -110.5l-21 -61q-133 30 -208 131.5t-75 238.5zM440 446q0 139 74 239.5t209 131.5l21 -61q-98 -29 -144.5 -111t-46.5 -199t46 -198.5t145 -110.5l-21 -61q-133 30 -208 131.5 t-75 238.5z" />
<glyph unicode="&#xac;" horiz-adv-x="1134" d="M102 813v80h930v-397h-80v317h-850z" />
<glyph unicode="&#xad;" horiz-adv-x="1228" d="M123 406v81h547v-81h-547z" />
<glyph unicode="&#xae;" horiz-adv-x="1759" d="M127 731q0 207 97.5 379t270.5 272.5t388 100.5q213 0 384 -100.5t268 -272.5t97 -379t-97 -380t-268 -273.5t-384 -100.5q-215 0 -388 100.5t-270.5 273.5t-97.5 380zM213 731q0 -182 86 -336.5t239.5 -246t344.5 -91.5q188 0 339.5 91.5t237.5 247t86 335.5t-86 335 t-237.5 246t-339.5 91q-190 0 -344 -91t-240 -246t-86 -335zM524 362v39l23 2q47 4 64.5 10.5t25.5 26t8 66.5l2 461q0 45 -8 64.5t-26.5 25.5t-65.5 10l-23 4l2 37l168 -4h160q139 0 226 -42t87 -138q0 -166 -227 -197q90 -6 148.5 -52t70.5 -126q29 -141 86 -135l35 4 l6 -39q-59 -25 -112 -25q-60 0 -92.5 37t-41.5 98q-12 70 -32.5 116t-71.5 79t-143 35h-21v-213q0 -47 8 -66.5t28.5 -25.5t70.5 -11l22 -2v-39l-190 5zM772 762h68q98 0 138 38t40 118q0 72 -37 108.5t-125 36.5h-84v-301z" />
<glyph unicode="&#xaf;" horiz-adv-x="669" d="M102 1231v82h465v-82h-465z" />
<glyph unicode="&#xb0;" horiz-adv-x="620" d="M41 1176q0 72 36 134t98.5 98t135.5 36q72 0 134.5 -36t98.5 -98.5t36 -133.5q0 -74 -36 -136.5t-98.5 -98.5t-134.5 -36q-73 0 -135.5 36t-98.5 98.5t-36 136.5zM117 1176q0 -82 56 -138.5t138 -56.5q80 0 136.5 56.5t56.5 138.5q0 80 -56.5 136t-136.5 56 q-82 0 -138 -56.5t-56 -135.5z" />
<glyph unicode="&#xb1;" horiz-adv-x="1224" d="M322 207v82h682v-82h-682zM322 672v90h290v213h99v-213h290v-90h-290v-215h-99v215h-290z" />
<glyph unicode="&#xb2;" horiz-adv-x="712" d="M61 1241q0 53 35 106.5t100.5 87t151.5 33.5q125 0 201 -67.5t76 -181.5q0 -84 -58.5 -161t-185.5 -190l-160 -141l219 4q55 2 81 8t39 23.5t28 56.5h43l-4 -176v-35h-555v47l241 234q86 88 123 161.5t37 157.5q0 96 -42 151.5t-124 55.5q-63 0 -107 -31.5t-44 -80.5 q0 -18 6 -26.5t15 -12.5t13 -7q45 -25 46 -73q0 -29 -20.5 -47.5t-53.5 -18.5q-49 0 -75 34t-26 89z" />
<glyph unicode="&#xb3;" horiz-adv-x="712" d="M51 739q0 35 25.5 58.5t64.5 23.5q31 0 48.5 -17.5t17.5 -43.5q0 -18 -7 -39t-7 -33q0 -59 102 -59t149.5 75.5t47.5 180.5q0 82 -38 119.5t-118 37.5q-41 0 -103 -20l-12 45q133 37 182.5 88t49.5 139q0 57 -37 93t-113 36q-51 0 -87 -21.5t-36 -55.5q0 -27 23 -46 q18 -12 25.5 -22t7.5 -29q0 -29 -20.5 -47t-55.5 -18q-41 0 -65.5 31.5t-24.5 78.5q0 74 75.5 124t186.5 50q127 0 199.5 -46t72.5 -128q0 -129 -233 -211h8q121 -2 191.5 -62t70.5 -165q0 -121 -95 -190.5t-259 -69.5q-100 0 -168 38t-68 105z" />
<glyph unicode="&#xb4;" horiz-adv-x="432" d="M102 1065l80 303q31 115 88 115q27 0 45.5 -19.5t18.5 -54.5q0 -45 -35 -100l-152 -244h-45z" />
<glyph unicode="&#xb5;" horiz-adv-x="1173" />
<glyph unicode="&#xb6;" horiz-adv-x="1228" d="M129 1069q0 168 115.5 275.5t320.5 113.5l187 -4l397 4v-55q-90 0 -137 -19.5t-47 -70.5v-1694h-84v1765h-185v-1765h-86v1055q-225 0 -353 102.5t-128 292.5z" />
<glyph unicode="&#xb7;" horiz-adv-x="464" d="M123 441q0 51 38 89t93 38q53 0 90 -38t37 -89q0 -53 -37 -92.5t-90 -39.5q-55 0 -93 38t-38 94z" />
<glyph unicode="&#xb8;" horiz-adv-x="626" d="M111 -430l45 14q10 -51 52 -88t101 -37q68 0 107 60.5t39 140.5q0 74 -37 123t-103 49q-35 0 -68.5 -22.5t-58.5 -59.5l-41 27q29 51 77 78.5t106 27.5l39 117h61l-43 -123q76 -18 124 -79.5t48 -143.5q0 -111 -69.5 -181.5t-167.5 -70.5q-86 0 -140.5 50t-70.5 118z" />
<glyph unicode="&#xb9;" horiz-adv-x="493" d="M31 1366v47q74 6 105.5 14.5t107.5 38.5h73v-688q0 -57 6.5 -80.5t27 -33t71.5 -11.5l41 -2v-47l-213 4l-215 -4v47l41 2q51 2 72.5 11.5t28.5 33t7 80.5v488q0 55 -18.5 73.5t-73.5 22.5z" />
<glyph unicode="&#xba;" horiz-adv-x="905" d="M61 961q0 102 52.5 188t141.5 135t198 49t197.5 -49t141 -135t52.5 -188q0 -100 -52.5 -185.5t-141.5 -135.5t-197 -50q-109 0 -198 50t-141.5 135t-52.5 186zM92 379v49h723v-49h-723zM211 961q0 -145 58.5 -233.5t183.5 -88.5t184 87t59 235q0 147 -59 236t-184 89 t-183.5 -89t-58.5 -236z" />
<glyph unicode="&#xbb;" horiz-adv-x="876" d="M133 137q98 29 144.5 111t46.5 198q0 117 -46.5 199t-144.5 111l21 61q135 -31 208.5 -131t73.5 -240q0 -137 -74.5 -238.5t-207.5 -131.5zM471 137q98 29 144.5 111t46.5 198q0 117 -46.5 199t-144.5 111l21 61q135 -31 208.5 -131t73.5 -240q0 -137 -74.5 -238.5 t-207.5 -131.5z" />
<glyph unicode="&#xbc;" horiz-adv-x="1650" d="M31 1366v47q74 6 105.5 14.5t107.5 38.5h73v-688q0 -57 6.5 -80.5t27 -33t71.5 -11.5l41 -2v-47l-213 4l-215 -4v47l41 2q51 2 72.5 11.5t28.5 33t7 80.5v488q0 55 -18.5 73.5t-73.5 22.5zM269 0l1005 1479h109l-1006 -1479h-108zM987 203v22q76 88 150.5 218.5 t171.5 318.5q10 18 20 40t25 46h217v-16l-510 -584h301v211q43 12 94 55h45v-266h100v-45h-100v-45q0 -49 5 -69.5t21.5 -28t57.5 -11.5l25 -2l-2 -51l-175 4l-219 -4l-2 51l45 2q51 4 71.5 12.5t27 28t6.5 68.5v45h-375z" />
<glyph unicode="&#xbd;" horiz-adv-x="1802" d="M31 1366v47q74 6 105.5 14.5t107.5 38.5h73v-688q0 -57 6.5 -80.5t27 -33t71.5 -11.5l41 -2v-47l-213 4l-215 -4v47l41 2q51 2 72.5 11.5t28.5 33t7 80.5v488q0 55 -18.5 73.5t-73.5 22.5zM269 0l1005 1479h109l-1006 -1479h-108zM1151 633q0 53 35 106.5t100.5 87 t151.5 33.5q125 0 201 -67.5t76 -181.5q0 -84 -58.5 -161t-185.5 -190l-160 -141l219 4q55 2 81 8t39 23.5t28 56.5h43l-4 -176v-35h-555v47l241 234q86 88 123 161.5t37 157.5q0 96 -42 151.5t-124 55.5q-63 0 -107 -31.5t-44 -80.5q0 -18 6 -26.5t15 -12.5t13 -7 q45 -25 46 -73q0 -29 -20.5 -47.5t-53.5 -18.5q-49 0 -75 34t-26 89z" />
<glyph unicode="&#xbe;" horiz-adv-x="1869" d="M51 739q0 35 25.5 58.5t64.5 23.5q31 0 48.5 -17.5t17.5 -43.5q0 -18 -7 -39t-7 -33q0 -59 102 -59t149.5 75.5t47.5 180.5q0 82 -38 119.5t-118 37.5q-41 0 -103 -20l-12 45q133 37 182.5 88t49.5 139q0 57 -37 93t-113 36q-51 0 -87 -21.5t-36 -55.5q0 -27 23 -46 q18 -12 25.5 -22t7.5 -29q0 -29 -20.5 -47t-55.5 -18q-41 0 -65.5 31.5t-24.5 78.5q0 74 75.5 124t186.5 50q127 0 199.5 -46t72.5 -128q0 -129 -233 -211h8q121 -2 191.5 -62t70.5 -165q0 -121 -95 -190.5t-259 -69.5q-100 0 -168 38t-68 105zM488 0l1005 1479h109 l-1006 -1479h-108zM1206 203v22q76 88 150.5 218.5t171.5 318.5q10 18 20 40t25 46h217v-16l-510 -584h301v211q43 12 94 55h45v-266h100v-45h-100v-45q0 -49 5 -69.5t21.5 -28t57.5 -11.5l25 -2l-2 -51l-175 4l-219 -4l-2 51l45 2q51 4 71.5 12.5t27 28t6.5 68.5v45h-375z " />
<glyph unicode="&#xbf;" horiz-adv-x="929" d="M102 -219q0 115 45.5 205t122 140t170.5 50q125 0 207 -70q-18 100 -38.5 169t-22.5 79q-18 59 -23 78q-4 25 -4 33q0 35 20.5 55.5t47.5 20.5q32 0 55 -20.5t25 -57.5l24 -512v-6l-43 -2q-23 84 -78 131t-145 47q-113 0 -156 -92t-43 -269q0 -141 52.5 -214.5 t164.5 -73.5q119 0 119 61q0 10 -7 38t-7 42q0 35 24.5 62.5t69.5 27.5q41 0 68.5 -31.5t27.5 -77.5q0 -78 -93 -127t-206 -49q-102 0 -188 45t-137.5 128t-51.5 190zM489 793q0 55 38 93t94 38q53 0 90 -39t37 -92q0 -51 -37 -89t-90 -38q-55 0 -93.5 37.5t-38.5 89.5z" />
<glyph unicode="&#xc0;" horiz-adv-x="1525" d="M-31 -6v51l19 2q109 14 163 55t99 150l495 1202h70l483 -1202q41 -102 89.5 -148.5t128.5 -54.5l40 -4v-51l-253 6l-328 -6v51l41 4q72 8 102.5 30.5t30.5 63.5t-29 111l-106 266h-578l-110 -266q-35 -84 -35 -119q0 -39 33.5 -59.5t111.5 -26.5l41 -4v-51l-260 6z M463 586h526l-258 649zM559 1925h166l54 -369h-25z" />
<glyph unicode="&#xc1;" horiz-adv-x="1525" d="M-31 -6v51l19 2q109 14 163 55t99 150l495 1202h70l483 -1202q41 -102 89.5 -148.5t128.5 -54.5l40 -4v-51l-253 6l-328 -6v51l41 4q72 8 102.5 30.5t30.5 63.5t-29 111l-106 266h-578l-110 -266q-35 -84 -35 -119q0 -39 33.5 -59.5t111.5 -26.5l41 -4v-51l-260 6z M463 586h526l-258 649zM755 1556l54 369h166l-195 -369h-25z" />
<glyph unicode="&#xc2;" horiz-adv-x="1525" d="M-31 -6v51l19 2q109 14 163 55t99 150l495 1202h70l483 -1202q41 -102 89.5 -148.5t128.5 -54.5l40 -4v-51l-253 6l-328 -6v51l41 4q72 8 102.5 30.5t30.5 63.5t-29 111l-106 266h-578l-110 -266q-35 -84 -35 -119q0 -39 33.5 -59.5t111.5 -26.5l41 -4v-51l-260 6z M463 586h526l-258 649zM549 1559l192 366h45l193 -366h-50l-159 188h-13l-159 -188h-49z" />
<glyph unicode="&#xc3;" horiz-adv-x="1525" d="M-31 -6v51l19 2q109 14 163 55t99 150l495 1202h70l483 -1202q41 -102 89.5 -148.5t128.5 -54.5l40 -4v-51l-253 6l-328 -6v51l41 4q72 8 102.5 30.5t30.5 63.5t-29 111l-106 266h-578l-110 -266q-35 -84 -35 -119q0 -39 33.5 -59.5t111.5 -26.5l41 -4v-51l-260 6z M442 1663q0 35 19.5 86t59.5 89t98 38q51 0 137 -53l76 -45q66 -39 104 -39q39 0 67.5 28.5t43.5 75.5h38q-10 -90 -57 -146t-108 -56q-52 0 -140 51l-53 33q-43 27 -71.5 40t-53.5 13q-41 0 -75.5 -37t-45.5 -78h-39zM463 586h526l-258 649z" />
<glyph unicode="&#xc4;" horiz-adv-x="1525" d="M-31 -6v51l19 2q109 14 163 55t99 150l495 1202h70l483 -1202q41 -102 89.5 -148.5t128.5 -54.5l40 -4v-51l-253 6l-328 -6v51l41 4q72 8 102.5 30.5t30.5 63.5t-29 111l-106 266h-578l-110 -266q-35 -84 -35 -119q0 -39 33.5 -59.5t111.5 -26.5l41 -4v-51l-260 6z M463 586h526l-258 649zM475 1800q0 49 29 82t76 33q49 0 75.5 -32t26.5 -83t-26.5 -84t-75.5 -33q-47 0 -76 33t-29 84zM864 1800q0 49 29 82t76 33q49 0 75.5 -32t26.5 -83t-26.5 -84t-75.5 -33q-47 0 -76 33t-29 84z" />
<glyph unicode="&#xc5;" horiz-adv-x="1525" d="M-31 -6v51l19 2q109 14 163 55t99 150l495 1202h70l483 -1202q41 -102 89.5 -148.5t128.5 -54.5l40 -4v-51l-253 6l-328 -6v51l41 4q72 8 102.5 30.5t30.5 63.5t-29 111l-106 266h-578l-110 -266q-35 -84 -35 -119q0 -39 33.5 -59.5t111.5 -26.5l41 -4v-51l-260 6z M463 586h526l-258 649zM593 1743q0 70 47.5 122t126.5 52q84 0 128.5 -54.5t44.5 -119.5q0 -84 -51.5 -129.5t-118.5 -45.5q-78 0 -127.5 50.5t-49.5 124.5zM661 1743q0 -51 31.5 -81t77.5 -30q40 0 71 29.5t31 81.5q0 51 -31 80.5t-74 29.5q-41 0 -73.5 -28.5t-32.5 -81.5z " />
<glyph unicode="&#xc6;" horiz-adv-x="2082" d="M-31 -6v45l54 6q59 6 97 19.5t82 56.5t97 131l592 983q31 53 45 82t14 49q0 41 -65 43l-74 4v47l223 -6h879l4 -147l16 -189h-49q-20 129 -57 186.5t-113 76t-237 18.5h-267v-606h226q66 0 101.5 52t43.5 195h51l-6 -274l6 -303h-51q0 147 -36 212.5t-109 65.5h-226v-522 q0 -86 43 -127t156 -41h190q135 0 204 27.5t100.5 106.5t46.5 245h51l-14 -246l-7 -184h-909l-317 -6v41l147 14q55 6 82 31.5t38 98.5t11 229v227h-436l-227 -379q-43 -70 -43 -119q0 -80 110 -92l64 -6v-45q-94 6 -260 6q-162 0 -271 -6zM629 688h403v672z" />
<glyph unicode="&#xc7;" horiz-adv-x="1474" d="M127 727q0 213 92 386t249 271.5t343 98.5q109 0 185.5 -22.5t142.5 -53.5t80 -31q47 0 55 78h51l-4 -240l4 -239h-51q-31 213 -148.5 329.5t-308.5 116.5q-252 0 -366.5 -190.5t-114.5 -503.5q0 -338 111.5 -513t369.5 -175q129 0 228.5 60.5t160 163t74.5 226.5h49 l-4 -249l6 -240h-49l-6 23q-10 35 -22.5 54t-34.5 19q-20 0 -78 -28q-76 -39 -155 -63.5t-179 -27.5l-35 -100q76 -18 124 -79.5t48 -143.5q0 -111 -69.5 -181.5t-167.5 -70.5q-86 0 -140.5 50t-70.5 118l45 14q10 -51 52 -88t101 -37q68 0 107 60.5t39 140.5q0 74 -37 123 t-103 49q-35 0 -68.5 -22.5t-58.5 -59.5l-41 27q29 51 77 78.5t106 27.5l33 97q-190 12 -331 109t-215.5 263t-74.5 375z" />
<glyph unicode="&#xc8;" horiz-adv-x="1329" d="M82 -6v51l41 4q82 10 114.5 23.5t47 55.5t14.5 144v910q0 102 -14.5 144t-47 55.5t-114.5 23.5l-41 4v51l303 -6h795l4 -147l16 -189h-49q-20 127 -57 183.5t-113 75t-238 18.5h-270v-600h229q66 0 102 52t44 193h51l-6 -274l6 -303h-51q0 145 -36 209.5t-110 64.5h-229 v-518q0 -66 18.5 -100.5t61.5 -48t123 -13.5h190q125 0 188.5 28t95.5 105.5t46 239.5h51l-14 -246l-6 -184h-842zM536 1925h166l54 -369h-25z" />
<glyph unicode="&#xc9;" horiz-adv-x="1329" d="M82 -6v51l41 4q82 10 114.5 23.5t47 55.5t14.5 144v910q0 102 -14.5 144t-47 55.5t-114.5 23.5l-41 4v51l303 -6h795l4 -147l16 -189h-49q-20 127 -57 183.5t-113 75t-238 18.5h-270v-600h229q66 0 102 52t44 193h51l-6 -274l6 -303h-51q0 145 -36 209.5t-110 64.5h-229 v-518q0 -66 18.5 -100.5t61.5 -48t123 -13.5h190q125 0 188.5 28t95.5 105.5t46 239.5h51l-14 -246l-6 -184h-842zM733 1556l54 369h166l-195 -369h-25z" />
<glyph unicode="&#xca;" horiz-adv-x="1329" d="M82 -6v51l41 4q82 10 114.5 23.5t47 55.5t14.5 144v910q0 102 -14.5 144t-47 55.5t-114.5 23.5l-41 4v51l303 -6h795l4 -147l16 -189h-49q-20 127 -57 183.5t-113 75t-238 18.5h-270v-600h229q66 0 102 52t44 193h51l-6 -274l6 -303h-51q0 145 -36 209.5t-110 64.5h-229 v-518q0 -66 18.5 -100.5t61.5 -48t123 -13.5h190q125 0 188.5 28t95.5 105.5t46 239.5h51l-14 -246l-6 -184h-842zM527 1559l192 366h45l193 -366h-50l-159 188h-13l-159 -188h-49z" />
<glyph unicode="&#xcb;" horiz-adv-x="1329" d="M82 -6v51l41 4q82 10 114.5 23.5t47 55.5t14.5 144v910q0 102 -14.5 144t-47 55.5t-114.5 23.5l-41 4v51l303 -6h795l4 -147l16 -189h-49q-20 127 -57 183.5t-113 75t-238 18.5h-270v-600h229q66 0 102 52t44 193h51l-6 -274l6 -303h-51q0 145 -36 209.5t-110 64.5h-229 v-518q0 -66 18.5 -100.5t61.5 -48t123 -13.5h190q125 0 188.5 28t95.5 105.5t46 239.5h51l-14 -246l-6 -184h-842zM452 1800q0 49 29 82t76 33q49 0 75.5 -32t26.5 -83t-26.5 -84t-75.5 -33q-47 0 -76 33t-29 84zM841 1800q0 49 29 82t76 33q49 0 75.5 -32t26.5 -83 t-26.5 -84t-75.5 -33q-47 0 -76 33t-29 84z" />
<glyph unicode="&#xcc;" horiz-adv-x="772" d="M82 -6v51l41 4q82 10 114.5 23.5t47 55.5t14.5 144v910q0 102 -14.5 144t-47 55.5t-114.5 23.5l-41 4v51l303 -6h2l303 6v-51l-41 -4q-82 -10 -114.5 -23.5t-47 -55.5t-14.5 -144v-910q0 -102 14.5 -144t47 -55.5t114.5 -23.5l41 -4v-51l-303 6h-2zM176 1925h166l54 -369 h-25z" />
<glyph unicode="&#xcd;" horiz-adv-x="772" d="M82 -6v51l41 4q82 10 114.5 23.5t47 55.5t14.5 144v910q0 102 -14.5 144t-47 55.5t-114.5 23.5l-41 4v51l303 -6h2l303 6v-51l-41 -4q-82 -10 -114.5 -23.5t-47 -55.5t-14.5 -144v-910q0 -102 14.5 -144t47 -55.5t114.5 -23.5l41 -4v-51l-303 6h-2zM372 1556l54 369h166 l-195 -369h-25z" />
<glyph unicode="&#xce;" horiz-adv-x="772" d="M82 -6v51l41 4q82 10 114.5 23.5t47 55.5t14.5 144v910q0 102 -14.5 144t-47 55.5t-114.5 23.5l-41 4v51l303 -6h2l303 6v-51l-41 -4q-82 -10 -114.5 -23.5t-47 -55.5t-14.5 -144v-910q0 -102 14.5 -144t47 -55.5t114.5 -23.5l41 -4v-51l-303 6h-2zM166 1559l192 366h45 l193 -366h-50l-159 188h-13l-159 -188h-49z" />
<glyph unicode="&#xcf;" horiz-adv-x="772" d="M82 -6v51l41 4q82 10 114.5 23.5t47 55.5t14.5 144v910q0 102 -14.5 144t-47 55.5t-114.5 23.5l-41 4v51l303 -6h2l303 6v-51l-41 -4q-82 -10 -114.5 -23.5t-47 -55.5t-14.5 -144v-910q0 -102 14.5 -144t47 -55.5t114.5 -23.5l41 -4v-51l-303 6h-2zM92 1800q0 49 29 82 t76 33q49 0 75.5 -32t26.5 -83t-26.5 -84t-75.5 -33q-47 0 -76 33t-29 84zM481 1800q0 49 29 82t76 33q49 0 75.5 -32t26.5 -83t-26.5 -84t-75.5 -33q-47 0 -76 33t-29 84z" />
<glyph unicode="&#xd0;" horiz-adv-x="1622" d="M82 -6v51l41 4q82 10 115.5 23.5t48 56.5t14.5 143v447h-219v65h219v398q0 102 -14.5 144t-47 55.5t-114.5 23.5l-41 4v51l303 -6h289q424 0 642 -174t218 -547q0 -233 -103.5 -399t-276.5 -250t-378 -84h-393zM477 299q0 -113 25.5 -175.5t109.5 -62.5h174 q258 0 405.5 167t147.5 501q0 326 -141 495t-463 169h-258v-609h379v-65h-379v-420z" />
<glyph unicode="&#xd1;" horiz-adv-x="1599" d="M72 1407v53l397 -6q106 -147 366.5 -490t424.5 -556v774q0 102 -14.5 145t-47.5 56.5t-115 21.5l-41 4v51l267 -6l250 6v-51l-41 -4q-82 -10 -115 -23.5t-47.5 -55.5t-14.5 -144v-1182h-61q-90 180 -395 592t-506 649v-969q0 -102 14.5 -146t47 -57.5t114.5 -21.5l41 -4 v-51l-262 8l-254 -8v51l41 4q82 8 114.5 21.5t47 57.5t14.5 146v1057q-61 78 -164 78h-61zM499 1663q0 35 19.5 86t59.5 89t98 38q51 0 137 -53l76 -45q66 -39 104 -39q39 0 67.5 28.5t43.5 75.5h38q-10 -90 -57 -146t-108 -56q-52 0 -140 51l-53 33q-43 27 -71.5 40 t-53.5 13q-41 0 -75.5 -37t-45.5 -78h-39z" />
<glyph unicode="&#xd2;" d="M127 731q0 217 92 388t254 267.5t365 96.5t364.5 -96.5t253.5 -267.5t92 -388t-92 -389t-254 -268.5t-364 -96.5q-203 0 -365 96.5t-254 268.5t-92 389zM336 731q0 -692 502 -692q501 0 501 692q0 332 -121.5 511t-379.5 179t-380 -179t-122 -511zM630 1925h166l54 -369 h-25z" />
<glyph unicode="&#xd3;" d="M127 731q0 217 92 388t254 267.5t365 96.5t364.5 -96.5t253.5 -267.5t92 -388t-92 -389t-254 -268.5t-364 -96.5q-203 0 -365 96.5t-254 268.5t-92 389zM336 731q0 -692 502 -692q501 0 501 692q0 332 -121.5 511t-379.5 179t-380 -179t-122 -511zM827 1556l54 369h166 l-195 -369h-25z" />
<glyph unicode="&#xd4;" d="M127 731q0 217 92 388t254 267.5t365 96.5t364.5 -96.5t253.5 -267.5t92 -388t-92 -389t-254 -268.5t-364 -96.5q-203 0 -365 96.5t-254 268.5t-92 389zM336 731q0 -692 502 -692q501 0 501 692q0 332 -121.5 511t-379.5 179t-380 -179t-122 -511zM621 1559l192 366h45 l193 -366h-50l-159 188h-13l-159 -188h-49z" />
<glyph unicode="&#xd5;" d="M127 731q0 217 92 388t254 267.5t365 96.5t364.5 -96.5t253.5 -267.5t92 -388t-92 -389t-254 -268.5t-364 -96.5q-203 0 -365 96.5t-254 268.5t-92 389zM336 731q0 -692 502 -692q501 0 501 692q0 332 -121.5 511t-379.5 179t-380 -179t-122 -511zM514 1663q0 35 19.5 86 t59.5 89t98 38q51 0 137 -53l76 -45q66 -39 104 -39q39 0 67.5 28.5t43.5 75.5h38q-10 -90 -57 -146t-108 -56q-52 0 -140 51l-53 33q-43 27 -71.5 40t-53.5 13q-41 0 -75.5 -37t-45.5 -78h-39z" />
<glyph unicode="&#xd6;" d="M127 731q0 217 92 388t254 267.5t365 96.5t364.5 -96.5t253.5 -267.5t92 -388t-92 -389t-254 -268.5t-364 -96.5q-203 0 -365 96.5t-254 268.5t-92 389zM336 731q0 -692 502 -692q501 0 501 692q0 332 -121.5 511t-379.5 179t-380 -179t-122 -511zM547 1800q0 49 29 82 t76 33q49 0 75.5 -32t26.5 -83t-26.5 -84t-75.5 -33q-47 0 -76 33t-29 84zM936 1800q0 49 29 82t76 33q49 0 75.5 -32t26.5 -83t-26.5 -84t-75.5 -33q-47 0 -76 33t-29 84z" />
<glyph unicode="&#xd7;" horiz-adv-x="1228" d="M250 272l358 359l-358 358l59 60l359 -359l358 359l59 -60l-358 -358l358 -359l-59 -59l-358 358l-359 -358z" />
<glyph unicode="&#xd8;" d="M127 731q0 217 92 388t254 267.5t365 96.5q133 0 251.5 -44t210.5 -124l148 170h115l-201 -230q90 -102 138 -235t48 -289q0 -217 -92 -389t-254 -268.5t-364 -96.5q-129 0 -244 40t-207 116l-143 -164h-115l195 224q-94 102 -145.5 239t-51.5 299zM336 731 q0 -268 78 -436l813 934q-127 193 -389 192q-258 0 -380 -179t-122 -511zM459 217q127 -178 379 -178q502 0 501 692q1 254 -69 418z" />
<glyph unicode="&#xd9;" horiz-adv-x="1536" d="M51 1409v51l303 -6h2l303 6v-51l-41 -4q-82 -10 -114.5 -23.5t-47 -55.5t-14.5 -144v-725q0 -201 110 -306.5t294 -105.5q201 0 296 110.5t95 313.5v713q0 102 -14.5 144t-47 55.5t-114.5 23.5l-41 4v51l303 -4l203 4v-51l-41 -4q-82 -10 -115 -23.5t-47 -55.5t-14 -144 v-713q0 -240 -126 -366t-376 -126q-264 0 -401.5 116t-137.5 364v725q0 102 -14 144t-47 55.5t-115 23.5zM630 1925h166l54 -369h-25z" />
<glyph unicode="&#xda;" horiz-adv-x="1536" d="M51 1409v51l303 -6h2l303 6v-51l-41 -4q-82 -10 -114.5 -23.5t-47 -55.5t-14.5 -144v-725q0 -201 110 -306.5t294 -105.5q201 0 296 110.5t95 313.5v713q0 102 -14.5 144t-47 55.5t-114.5 23.5l-41 4v51l303 -4l203 4v-51l-41 -4q-82 -10 -115 -23.5t-47 -55.5t-14 -144 v-713q0 -240 -126 -366t-376 -126q-264 0 -401.5 116t-137.5 364v725q0 102 -14 144t-47 55.5t-115 23.5zM827 1556l54 369h166l-195 -369h-25z" />
<glyph unicode="&#xdb;" horiz-adv-x="1536" d="M51 1409v51l303 -6h2l303 6v-51l-41 -4q-82 -10 -114.5 -23.5t-47 -55.5t-14.5 -144v-725q0 -201 110 -306.5t294 -105.5q201 0 296 110.5t95 313.5v713q0 102 -14.5 144t-47 55.5t-114.5 23.5l-41 4v51l303 -4l203 4v-51l-41 -4q-82 -10 -115 -23.5t-47 -55.5t-14 -144 v-713q0 -240 -126 -366t-376 -126q-264 0 -401.5 116t-137.5 364v725q0 102 -14 144t-47 55.5t-115 23.5zM621 1559l192 366h45l193 -366h-50l-159 188h-13l-159 -188h-49z" />
<glyph unicode="&#xdc;" horiz-adv-x="1536" d="M51 1409v51l303 -6h2l303 6v-51l-41 -4q-82 -10 -114.5 -23.5t-47 -55.5t-14.5 -144v-725q0 -201 110 -306.5t294 -105.5q201 0 296 110.5t95 313.5v713q0 102 -14.5 144t-47 55.5t-114.5 23.5l-41 4v51l303 -4l203 4v-51l-41 -4q-82 -10 -115 -23.5t-47 -55.5t-14 -144 v-713q0 -240 -126 -366t-376 -126q-264 0 -401.5 116t-137.5 364v725q0 102 -14 144t-47 55.5t-115 23.5zM547 1800q0 49 29 82t76 33q49 0 75.5 -32t26.5 -83t-26.5 -84t-75.5 -33q-47 0 -76 33t-29 84zM936 1800q0 49 29 82t76 33q49 0 75.5 -32t26.5 -83t-26.5 -84 t-75.5 -33q-47 0 -76 33t-29 84z" />
<glyph unicode="&#xdd;" horiz-adv-x="1355" d="M-41 1409v51l311 -6l308 6v-51l-66 -6q-113 -10 -113 -86q0 -47 45 -125l299 -520l297 520q45 82 45 127q0 41 -30.5 60.5t-85.5 23.5l-60 6v51l271 -10l217 10v-51l-56 -10q-66 -12 -107.5 -47t-84.5 -111l-373 -651v-318q0 -102 14.5 -144t47 -55.5t114.5 -23.5l41 -4 v-51l-303 6h-2l-303 -6v51l41 4q82 10 114.5 23.5t47 55.5t14.5 144v316l-358 626q-49 86 -97.5 126t-128.5 57zM696 1626l80 303q31 115 88 115q27 0 45.5 -19.5t18.5 -54.5q0 -45 -35 -100l-152 -244h-45z" />
<glyph unicode="&#xde;" horiz-adv-x="1136" d="M82 1409v51l301 -6l297 6v-51l-41 -4q-82 -10 -114.5 -23.5t-47 -55.5t-14.5 -144v-43h178q221 0 368.5 -76t147.5 -305q0 -178 -144.5 -284.5t-402.5 -106.5h-147v-95q0 -100 14.5 -143t48 -56.5t115.5 -23.5l41 -4v-51l-291 6l-307 -6v51l41 4q82 10 114.5 23.5 t46 55.5t13.5 144v910q0 102 -14.5 144t-47 55.5t-114.5 23.5zM463 420h147q137 0 212 39t102.5 111.5t27.5 187.5q0 125 -29.5 195.5t-97 102t-184.5 31.5h-178v-667z" />
<glyph unicode="&#xdf;" horiz-adv-x="1214" d="M51 -6v47l33 4q70 8 96.5 20.5t38.5 51.5t12 131v598h-176v47h176v127q0 256 100.5 359.5t291.5 103.5q96 0 173.5 -32t123 -86t45.5 -120q0 -47 -28 -90t-77 -90q-66 -63 -100.5 -107.5t-34.5 -85.5q0 -45 48 -103t134 -118q117 -80 192 -162.5t75 -201.5 q0 -72 -47.5 -144.5t-128 -119t-177.5 -46.5q-109 0 -182.5 32t-109 81t-35.5 100t26.5 83t71.5 32q37 0 65.5 -24.5t28.5 -61.5q0 -20 -8 -49q-6 -27 -6 -49q0 -43 32.5 -67.5t96.5 -24.5q98 0 155.5 64.5t57.5 158.5q0 96 -57.5 162.5t-165.5 140.5q-88 59 -144.5 119.5 t-56.5 122.5q0 45 23.5 79.5t72.5 84.5q45 45 80 108.5t35 130.5q0 115 -58.5 173.5t-148.5 58.5q-115 0 -166 -84t-51 -222v-878q0 -152 20 -248h-94z" />
<glyph unicode="&#xe0;" horiz-adv-x="1003" d="M102 168q0 82 71 151.5t196 137.5q70 39 151.5 73.5t145.5 59.5v65q0 117 -44 170.5t-157 53.5q-66 0 -114 -16.5t-48 -51.5q0 -14 8 -39q10 -27 11 -55q0 -37 -28 -59.5t-67 -22.5q-37 0 -61.5 27.5t-24.5 66.5q0 100 108.5 150.5t244.5 50.5q166 0 240.5 -76t74.5 -248 v-368q0 -100 14.5 -144.5t59.5 -44.5q29 0 51 20.5t33 51.5l37 -15q-37 -129 -175 -129q-86 0 -121.5 48.5t-39.5 142.5q-55 -92 -143.5 -141.5t-194.5 -49.5q-100 0 -164 51.5t-64 139.5zM262 178q0 -57 34 -91t99 -34q86 0 163 58.5t108 138.5v299q-168 -70 -286 -164 t-118 -207zM330 1403q0 35 18.5 54.5t45.5 19.5q57 0 88 -115l80 -303h-45l-152 244q-35 55 -35 100z" />
<glyph unicode="&#xe1;" horiz-adv-x="1003" d="M102 168q0 82 71 151.5t196 137.5q70 39 151.5 73.5t145.5 59.5v65q0 117 -44 170.5t-157 53.5q-66 0 -114 -16.5t-48 -51.5q0 -14 8 -39q10 -27 11 -55q0 -37 -28 -59.5t-67 -22.5q-37 0 -61.5 27.5t-24.5 66.5q0 100 108.5 150.5t244.5 50.5q166 0 240.5 -76t74.5 -248 v-368q0 -100 14.5 -144.5t59.5 -44.5q29 0 51 20.5t33 51.5l37 -15q-37 -129 -175 -129q-86 0 -121.5 48.5t-39.5 142.5q-55 -92 -143.5 -141.5t-194.5 -49.5q-100 0 -164 51.5t-64 139.5zM262 178q0 -57 34 -91t99 -34q86 0 163 58.5t108 138.5v299q-168 -70 -286 -164 t-118 -207zM422 1059l80 303q31 115 88 115q27 0 45.5 -19.5t18.5 -54.5q0 -45 -35 -100l-152 -244h-45z" />
<glyph unicode="&#xe2;" horiz-adv-x="1003" d="M102 168q0 82 71 151.5t196 137.5q70 39 151.5 73.5t145.5 59.5v65q0 117 -44 170.5t-157 53.5q-66 0 -114 -16.5t-48 -51.5q0 -14 8 -39q10 -27 11 -55q0 -37 -28 -59.5t-67 -22.5q-37 0 -61.5 27.5t-24.5 66.5q0 100 108.5 150.5t244.5 50.5q166 0 240.5 -76t74.5 -248 v-368q0 -100 14.5 -144.5t59.5 -44.5q29 0 51 20.5t33 51.5l37 -15q-37 -129 -175 -129q-86 0 -121.5 48.5t-39.5 142.5q-55 -92 -143.5 -141.5t-194.5 -49.5q-100 0 -164 51.5t-64 139.5zM262 178q0 -57 34 -91t99 -34q86 0 163 58.5t108 138.5v299q-168 -70 -286 -164 t-118 -207zM278 1059l193 389h45l192 -389h-49l-159 201h-13l-159 -201h-50z" />
<glyph unicode="&#xe3;" horiz-adv-x="1003" d="M102 168q0 82 71 151.5t196 137.5q70 39 151.5 73.5t145.5 59.5v65q0 117 -44 170.5t-157 53.5q-66 0 -114 -16.5t-48 -51.5q0 -14 8 -39q10 -27 11 -55q0 -37 -28 -59.5t-67 -22.5q-37 0 -61.5 27.5t-24.5 66.5q0 100 108.5 150.5t244.5 50.5q166 0 240.5 -76t74.5 -248 v-368q0 -100 14.5 -144.5t59.5 -44.5q29 0 51 20.5t33 51.5l37 -15q-37 -129 -175 -129q-86 0 -121.5 48.5t-39.5 142.5q-55 -92 -143.5 -141.5t-194.5 -49.5q-100 0 -164 51.5t-64 139.5zM172 1149q0 35 19.5 86t59.5 89t98 38q51 0 137 -53l76 -45q66 -39 104 -39 q39 0 67.5 28.5t43.5 75.5h38q-10 -90 -57 -146t-108 -56q-52 0 -140 51l-53 33q-43 27 -71.5 40t-53.5 13q-41 0 -75.5 -37t-45.5 -78h-39zM262 178q0 -57 34 -91t99 -34q86 0 163 58.5t108 138.5v299q-168 -70 -286 -164t-118 -207z" />
<glyph unicode="&#xe4;" horiz-adv-x="1003" d="M102 168q0 82 71 151.5t196 137.5q70 39 151.5 73.5t145.5 59.5v65q0 117 -44 170.5t-157 53.5q-66 0 -114 -16.5t-48 -51.5q0 -14 8 -39q10 -27 11 -55q0 -37 -28 -59.5t-67 -22.5q-37 0 -61.5 27.5t-24.5 66.5q0 100 108.5 150.5t244.5 50.5q166 0 240.5 -76t74.5 -248 v-368q0 -100 14.5 -144.5t59.5 -44.5q29 0 51 20.5t33 51.5l37 -15q-37 -129 -175 -129q-86 0 -121.5 48.5t-39.5 142.5q-55 -92 -143.5 -141.5t-194.5 -49.5q-100 0 -164 51.5t-64 139.5zM190 1272q0 49 29 82t76 33q49 0 75.5 -32t26.5 -83t-26.5 -84t-75.5 -33 q-47 0 -76 33t-29 84zM262 178q0 -57 34 -91t99 -34q86 0 163 58.5t108 138.5v299q-168 -70 -286 -164t-118 -207zM579 1272q0 49 29 82t76 33q49 0 75.5 -32t26.5 -83t-26.5 -84t-75.5 -33q-47 0 -76 33t-29 84z" />
<glyph unicode="&#xe5;" horiz-adv-x="1003" d="M102 168q0 82 71 151.5t196 137.5q70 39 151.5 73.5t145.5 59.5v65q0 117 -44 170.5t-157 53.5q-66 0 -114 -16.5t-48 -51.5q0 -14 8 -39q10 -27 11 -55q0 -37 -28 -59.5t-67 -22.5q-37 0 -61.5 27.5t-24.5 66.5q0 100 108.5 150.5t244.5 50.5q166 0 240.5 -76t74.5 -248 v-368q0 -100 14.5 -144.5t59.5 -44.5q29 0 51 20.5t33 51.5l37 -15q-37 -129 -175 -129q-86 0 -121.5 48.5t-39.5 142.5q-55 -92 -143.5 -141.5t-194.5 -49.5q-100 0 -164 51.5t-64 139.5zM262 178q0 -57 34 -91t99 -34q86 0 163 58.5t108 138.5v299q-168 -70 -286 -164 t-118 -207zM315 1254q0 70 47.5 122t126.5 52q84 0 128.5 -54.5t44.5 -119.5q0 -84 -51.5 -129.5t-118.5 -45.5q-78 0 -127.5 50.5t-49.5 124.5zM383 1254q0 -51 31.5 -81t77.5 -30q40 0 71 29.5t31 81.5q0 51 -31 80.5t-74 29.5q-41 0 -73.5 -28.5t-32.5 -81.5z" />
<glyph unicode="&#xe6;" horiz-adv-x="1548" d="M102 170q0 209 564 420v37q0 123 -34 187.5t-145 64.5q-68 0 -126 -16.5t-58 -51.5q0 -14 8 -39q10 -27 11 -55q0 -37 -28 -59.5t-69 -22.5q-35 0 -59.5 24.5t-24.5 63.5q0 100 110.5 153.5t246.5 53.5q217 0 282 -154q55 70 136 112t186 42q154 0 245 -100.5t91 -266.5 q0 -31 -11 -61h-618v-47q0 -182 86 -297t231 -115q94 0 168 54.5t113 156.5l49 -14q-86 -262 -358 -263q-135 0 -238.5 57.5t-169.5 155.5q-59 -100 -153.5 -156.5t-190.5 -56.5q-111 0 -177.5 48.5t-66.5 144.5zM262 178q0 -57 41 -93t105 -36q71 0 150 61.5t108 137.5v301 q-168 -70 -286 -164t-118 -207zM811 549h262q129 0 179.5 40t50.5 97q0 84 -61.5 138.5t-139.5 54.5q-119 0 -199 -94.5t-92 -235.5z" />
<glyph unicode="&#xe7;" horiz-adv-x="972" d="M92 432q0 141 62.5 255t173 178.5t245.5 64.5q70 0 139.5 -21.5t115.5 -63.5t46 -97q0 -45 -28.5 -75t-69.5 -30q-49 0 -77.5 28.5t-28.5 63.5q0 23 8 51q8 29 8 45q0 25 -37 36.5t-78 11.5q-143 0 -229 -120t-86 -317q0 -172 85 -287.5t234 -115.5q94 0 169 51t108 162 l49 -16q-35 -130 -127 -192t-215 -67l-35 -100q76 -18 124 -79.5t48 -143.5q0 -111 -69.5 -181.5t-167.5 -70.5q-86 0 -140.5 50t-70.5 118l45 14q10 -51 52 -88t101 -37q68 0 107 60.5t39 140.5q0 74 -37 123t-102 49q-35 0 -69 -22.5t-58 -59.5l-41 27q29 51 77 78.5 t105 27.5l33 97q-186 14 -297 139t-111 313z" />
<glyph unicode="&#xe8;" horiz-adv-x="987" d="M102 434q0 139 61.5 253t166 178.5t227.5 64.5q156 0 246 -100.5t90 -264.5q0 -39 -6 -63h-619q-2 -18 -2 -58q0 -174 82 -289.5t232 -115.5q96 0 170.5 54t115.5 161l49 -18q-86 -258 -364 -259q-133 0 -234.5 58.5t-158 162t-56.5 236.5zM272 549h260q125 0 174.5 40 t49.5 97q0 86 -59.5 139.5t-139.5 53.5q-123 0 -194.5 -88.5t-90.5 -241.5zM391 1409q0 35 18.5 54.5t45.5 19.5q57 0 88 -115l80 -303h-45l-152 244q-35 55 -35 100z" />
<glyph unicode="&#xe9;" horiz-adv-x="987" d="M102 434q0 139 61.5 253t166 178.5t227.5 64.5q156 0 246 -100.5t90 -264.5q0 -39 -6 -63h-619q-2 -18 -2 -58q0 -174 82 -289.5t232 -115.5q96 0 170.5 54t115.5 161l49 -18q-86 -258 -364 -259q-133 0 -234.5 58.5t-158 162t-56.5 236.5zM272 549h260q125 0 174.5 40 t49.5 97q0 86 -59.5 139.5t-139.5 53.5q-123 0 -194.5 -88.5t-90.5 -241.5zM483 1065l80 303q31 115 88 115q27 0 45.5 -19.5t18.5 -54.5q0 -45 -35 -100l-152 -244h-45z" />
<glyph unicode="&#xea;" horiz-adv-x="987" d="M102 434q0 139 61.5 253t166 178.5t227.5 64.5q156 0 246 -100.5t90 -264.5q0 -39 -6 -63h-619q-2 -18 -2 -58q0 -174 82 -289.5t232 -115.5q96 0 170.5 54t115.5 161l49 -18q-86 -258 -364 -259q-133 0 -234.5 58.5t-158 162t-56.5 236.5zM272 549h260q125 0 174.5 40 t49.5 97q0 86 -59.5 139.5t-139.5 53.5q-123 0 -194.5 -88.5t-90.5 -241.5zM339 1065l193 389h45l192 -389h-49l-159 201h-13l-159 -201h-50z" />
<glyph unicode="&#xeb;" horiz-adv-x="987" d="M102 434q0 139 61.5 253t166 178.5t227.5 64.5q156 0 246 -100.5t90 -264.5q0 -39 -6 -63h-619q-2 -18 -2 -58q0 -174 82 -289.5t232 -115.5q96 0 170.5 54t115.5 161l49 -18q-86 -258 -364 -259q-133 0 -234.5 58.5t-158 162t-56.5 236.5zM252 1278q0 49 29 82t76 33 q49 0 75.5 -32t26.5 -83t-26.5 -84t-75.5 -33q-47 0 -76 33t-29 84zM272 549h260q125 0 174.5 40t49.5 97q0 86 -59.5 139.5t-139.5 53.5q-123 0 -194.5 -88.5t-90.5 -241.5zM641 1278q0 49 29 82t76 33q49 0 75.5 -32t26.5 -83t-26.5 -84t-75.5 -33q-47 0 -76 33t-29 84z " />
<glyph unicode="&#xec;" horiz-adv-x="612" d="M57 -6v47l33 4q70 8 96.5 20.5t39 51.5t12.5 131v432q0 98 -40 132t-126 34h-15v47q188 0 324 25v-670q0 -92 12.5 -131t39 -51.5t95.5 -20.5l33 -4v-47l-252 6zM127 1409q0 35 18.5 54.5t45.5 19.5q57 0 88 -115l80 -303h-45l-152 244q-35 55 -35 100z" />
<glyph unicode="&#xed;" horiz-adv-x="612" d="M57 -6v47l33 4q70 8 96.5 20.5t39 51.5t12.5 131v432q0 98 -40 132t-126 34h-15v47q188 0 324 25v-670q0 -92 12.5 -131t39 -51.5t95.5 -20.5l33 -4v-47l-252 6zM219 1065l80 303q31 115 88 115q27 0 45.5 -19.5t18.5 -54.5q0 -45 -35 -100l-152 -244h-45z" />
<glyph unicode="&#xee;" horiz-adv-x="612" d="M57 -6v47l33 4q70 8 96.5 20.5t39 51.5t12.5 131v432q0 98 -40 132t-126 34h-15v47q188 0 324 25v-670q0 -92 12.5 -131t39 -51.5t95.5 -20.5l33 -4v-47l-252 6zM75 1065l193 389h45l192 -389h-49l-159 201h-13l-159 -201h-50z" />
<glyph unicode="&#xef;" horiz-adv-x="612" d="M29 1274q0 49 28.5 82t75.5 33q49 0 75.5 -32t26.5 -83t-26.5 -84t-75.5 -33q-47 0 -75.5 33t-28.5 84zM57 -6v47l33 4q70 8 96.5 20.5t39 51.5t12.5 131v432q0 98 -40 132t-126 34h-15v47q188 0 324 25v-670q0 -92 12.5 -131t39 -51.5t95.5 -20.5l33 -4v-47l-252 6z M336 1274q0 49 28.5 82t75.5 33q49 0 76 -32t27 -83t-27 -84t-76 -33q-47 0 -75.5 33t-28.5 84z" />
<glyph unicode="&#xf0;" horiz-adv-x="1126" d="M92 451q0 133 62.5 242.5t171 173t237.5 63.5q131 0 244 -68q-88 215 -258 375l-266 -100l-17 47l240 90q-117 100 -258 164l20 45q180 -63 324 -176l248 94l18 -47l-221 -84q186 -158 291.5 -370t105.5 -415q0 -145 -62.5 -260.5t-170 -181.5t-238.5 -66 q-129 0 -237.5 63.5t-171 172.5t-62.5 238zM256 451q0 -190 75 -306t232 -116q158 0 232.5 115.5t74.5 306.5q0 195 -74.5 311.5t-232.5 116.5t-232.5 -117t-74.5 -311z" />
<glyph unicode="&#xf1;" horiz-adv-x="1218" d="M57 -6v47l33 4q70 8 96.5 20.5t39 51.5t12.5 131v432q0 98 -40 132t-126 34h-15v47q188 0 324 25v-166q53 76 139 127t195 51q141 0 221 -72t80 -201v-409q0 -92 12 -131t39 -51.5t96 -20.5l33 -4v-47l-252 6l-252 -6v47l33 4q70 8 96.5 20.5t38.5 51.5t12 131v409 q0 102 -52 156.5t-150 54.5q-102 0 -180 -65.5t-109 -145.5v-409q0 -92 12.5 -131t39 -51.5t95.5 -20.5l33 -4v-47l-252 6zM295 1155q0 35 19.5 86t59.5 89t98 38q51 0 137 -53l76 -45q66 -39 104 -39q39 0 67.5 28.5t43.5 75.5h38q-10 -90 -57 -146t-108 -56q-52 0 -140 51 l-53 33q-43 27 -71.5 40t-53.5 13q-41 0 -75.5 -37t-45.5 -78h-39z" />
<glyph unicode="&#xf2;" horiz-adv-x="1126" d="M92 451q0 133 62.5 242.5t171 173t237.5 63.5t237.5 -63.5t171 -173t62.5 -242.5q0 -129 -62.5 -238t-171 -172.5t-237.5 -63.5t-237.5 63.5t-171 172.5t-62.5 238zM256 451q0 -190 75 -306t232 -116q158 0 232.5 115.5t74.5 306.5q0 195 -74.5 311.5t-232.5 116.5 t-232.5 -117t-74.5 -311zM399 1395q0 35 18.5 54.5t45.5 19.5q57 0 88 -115l80 -303h-45l-152 244q-35 55 -35 100z" />
<glyph unicode="&#xf3;" horiz-adv-x="1126" d="M92 451q0 133 62.5 242.5t171 173t237.5 63.5t237.5 -63.5t171 -173t62.5 -242.5q0 -129 -62.5 -238t-171 -172.5t-237.5 -63.5t-237.5 63.5t-171 172.5t-62.5 238zM256 451q0 -190 75 -306t232 -116q158 0 232.5 115.5t74.5 306.5q0 195 -74.5 311.5t-232.5 116.5 t-232.5 -117t-74.5 -311zM491 1051l80 303q31 115 88 115q27 0 45.5 -19.5t18.5 -54.5q0 -45 -35 -100l-152 -244h-45z" />
<glyph unicode="&#xf4;" horiz-adv-x="1126" d="M92 451q0 133 62.5 242.5t171 173t237.5 63.5t237.5 -63.5t171 -173t62.5 -242.5q0 -129 -62.5 -238t-171 -172.5t-237.5 -63.5t-237.5 63.5t-171 172.5t-62.5 238zM256 451q0 -190 75 -306t232 -116q158 0 232.5 115.5t74.5 306.5q0 195 -74.5 311.5t-232.5 116.5 t-232.5 -117t-74.5 -311zM348 1051l193 389h45l192 -389h-49l-159 201h-13l-159 -201h-50z" />
<glyph unicode="&#xf5;" horiz-adv-x="1126" d="M92 451q0 133 62.5 242.5t171 173t237.5 63.5t237.5 -63.5t171 -173t62.5 -242.5q0 -129 -62.5 -238t-171 -172.5t-237.5 -63.5t-237.5 63.5t-171 172.5t-62.5 238zM241 1141q0 35 19.5 86t59.5 89t98 38q51 0 137 -53l76 -45q66 -39 104 -39q39 0 67.5 28.5t43.5 75.5 h38q-10 -90 -57 -146t-108 -56q-52 0 -140 51l-53 33q-43 27 -71.5 40t-53.5 13q-41 0 -75.5 -37t-45.5 -78h-39zM256 451q0 -190 75 -306t232 -116q158 0 232.5 115.5t74.5 306.5q0 195 -74.5 311.5t-232.5 116.5t-232.5 -117t-74.5 -311z" />
<glyph unicode="&#xf6;" horiz-adv-x="1126" d="M92 451q0 133 62.5 242.5t171 173t237.5 63.5t237.5 -63.5t171 -173t62.5 -242.5q0 -129 -62.5 -238t-171 -172.5t-237.5 -63.5t-237.5 63.5t-171 172.5t-62.5 238zM256 451q0 -190 75 -306t232 -116q158 0 232.5 115.5t74.5 306.5q0 195 -74.5 311.5t-232.5 116.5 t-232.5 -117t-74.5 -311zM260 1264q0 49 29 82t76 33q49 0 75.5 -32t26.5 -83t-26.5 -84t-75.5 -33q-47 0 -76 33t-29 84zM649 1264q0 49 29 82t76 33q49 0 75.5 -32t26.5 -83t-26.5 -84t-75.5 -33q-47 0 -76 33t-29 84z" />
<glyph unicode="&#xf7;" horiz-adv-x="1228" d="M160 602v82h893v-82h-893zM510 262q0 45 30.5 78t71.5 33t68 -31t25 -72q-2 -43 -33 -73.5t-70 -30.5t-65.5 27.5t-26.5 68.5zM510 967q0 45 30.5 77.5t71.5 32.5t68 -30.5t25 -71.5q-2 -43 -33 -74t-70 -31t-65.5 28t-26.5 69z" />
<glyph unicode="&#xf8;" horiz-adv-x="1126" d="M70 -29l145 160q-57 63 -90 146t-33 174q0 133 62.5 242.5t171 173t237.5 63.5q164 0 291 -101l86 95h115l-140 -152q119 -139 119 -321q0 -129 -62.5 -238t-171 -172.5t-237.5 -63.5q-162 0 -284 95l-93 -101h-116zM256 451q0 -136 37 -234l502 547q-78 115 -232 115 q-158 0 -232.5 -117t-74.5 -311zM336 135q80 -106 227 -106q158 0 232.5 115.5t74.5 306.5q1 137 -34 233z" />
<glyph unicode="&#xf9;" horiz-adv-x="1169" d="M20 846v47l252 -6l72 2v-639q0 -100 51 -153.5t140 -53.5q104 0 182 66.5t119 162.5v367q0 92 -12.5 131t-39 51.5t-96.5 20.5l-33 4v47l252 -6l72 2v-662q0 -75 18.5 -113t54 -51.5t97.5 -13.5v-47q-104 0 -169 -3t-144 -17v188q-16 -27 -43 -57q-121 -135 -306 -136 q-135 0 -210.5 68t-75.5 197v397q0 92 -12.5 131t-39 51.5t-96.5 20.5zM368 1405q0 35 18.5 54.5t45.5 19.5q57 0 88 -115l80 -303h-45l-152 244q-35 55 -35 100z" />
<glyph unicode="&#xfa;" horiz-adv-x="1169" d="M20 846v47l252 -6l72 2v-639q0 -100 51 -153.5t140 -53.5q104 0 182 66.5t119 162.5v367q0 92 -12.5 131t-39 51.5t-96.5 20.5l-33 4v47l252 -6l72 2v-662q0 -75 18.5 -113t54 -51.5t97.5 -13.5v-47q-104 0 -169 -3t-144 -17v188q-16 -27 -43 -57q-121 -135 -306 -136 q-135 0 -210.5 68t-75.5 197v397q0 92 -12.5 131t-39 51.5t-96.5 20.5zM461 1061l80 303q31 115 88 115q27 0 45.5 -19.5t18.5 -54.5q0 -45 -35 -100l-152 -244h-45z" />
<glyph unicode="&#xfb;" horiz-adv-x="1169" d="M20 846v47l252 -6l72 2v-639q0 -100 51 -153.5t140 -53.5q104 0 182 66.5t119 162.5v367q0 92 -12.5 131t-39 51.5t-96.5 20.5l-33 4v47l252 -6l72 2v-662q0 -75 18.5 -113t54 -51.5t97.5 -13.5v-47q-104 0 -169 -3t-144 -17v188q-16 -27 -43 -57q-121 -135 -306 -136 q-135 0 -210.5 68t-75.5 197v397q0 92 -12.5 131t-39 51.5t-96.5 20.5zM317 1061l193 389h45l192 -389h-49l-159 201h-13l-159 -201h-50z" />
<glyph unicode="&#xfc;" horiz-adv-x="1169" d="M20 846v47l252 -6l72 2v-639q0 -100 51 -153.5t140 -53.5q104 0 182 66.5t119 162.5v367q0 92 -12.5 131t-39 51.5t-96.5 20.5l-33 4v47l252 -6l72 2v-662q0 -75 18.5 -113t54 -51.5t97.5 -13.5v-47q-104 0 -169 -3t-144 -17v188q-16 -27 -43 -57q-121 -135 -306 -136 q-135 0 -210.5 68t-75.5 197v397q0 92 -12.5 131t-39 51.5t-96.5 20.5zM229 1274q0 49 29 82t76 33q49 0 75.5 -32t26.5 -83t-26.5 -84t-75.5 -33q-47 0 -76 33t-29 84zM618 1274q0 49 29 82t76 33q49 0 75.5 -32t26.5 -83t-26.5 -84t-75.5 -33q-47 0 -76 33t-29 84z" />
<glyph unicode="&#xfd;" horiz-adv-x="1071" d="M-61 -494q0 41 29.5 69t74.5 28q25 0 41 -7.5t35 -21.5q43 -33 76 -33q43 0 81.5 32t77.5 116l135 291l-339 745q-27 55 -51.5 82t-69.5 33l-47 6v47l213 -6l206 6v-47l-28 -4q-45 -6 -65.5 -20.5t-20.5 -43.5q0 -25 22 -73l256 -562l256 551q23 51 23 80 q0 31 -23.5 46.5t-77.5 21.5l-32 4v47l196 -6l164 6v-47l-31 -4q-68 -10 -102.5 -48t-69.5 -118l-462 -1010q-57 -123 -134 -195.5t-194 -72.5q-68 0 -103.5 31.5t-35.5 76.5zM491 1065l80 303q31 115 88 115q27 0 45.5 -19.5t18.5 -54.5q0 -45 -35 -100l-152 -244h-45z" />
<glyph unicode="&#xfe;" horiz-adv-x="1228" d="M51 -532l33 4q70 8 96.5 20t38.5 51t12 131v1571q0 70 -21.5 104.5t-58 45t-100.5 10.5v47q154 0 324 31v-676q49 59 118.5 91t151.5 32q123 0 221.5 -63.5t153.5 -173t55 -242.5q0 -131 -55 -240t-153.5 -171.5t-221.5 -62.5q-166 0 -270 123v-426q0 -92 12 -131t39 -51 t96 -20l33 -4v-48l-252 7l-252 -7v48zM375 184q47 -68 115.5 -106.5t154.5 -38.5q127 0 196.5 114.5t69.5 297.5q0 190 -69.5 309t-196.5 119q-84 0 -153.5 -39t-116.5 -109v-547z" />
<glyph unicode="&#xff;" horiz-adv-x="1071" d="M-61 -494q0 41 29.5 69t74.5 28q25 0 41 -7.5t35 -21.5q43 -33 76 -33q43 0 81.5 32t77.5 116l135 291l-339 745q-27 55 -51.5 82t-69.5 33l-47 6v47l213 -6l206 6v-47l-28 -4q-45 -6 -65.5 -20.5t-20.5 -43.5q0 -25 22 -73l256 -562l256 551q23 51 23 80 q0 31 -23.5 46.5t-77.5 21.5l-32 4v47l196 -6l164 6v-47l-31 -4q-68 -10 -102.5 -48t-69.5 -118l-462 -1010q-57 -123 -134 -195.5t-194 -72.5q-68 0 -103.5 31.5t-35.5 76.5zM260 1278q0 49 29 82t76 33q49 0 75.5 -32t26.5 -83t-26.5 -84t-75.5 -33q-47 0 -76 33t-29 84z M649 1278q0 49 29 82t76 33q49 0 75.5 -32t26.5 -83t-26.5 -84t-75.5 -33q-47 0 -76 33t-29 84z" />
<glyph unicode="&#x152;" horiz-adv-x="2068" d="M127 727q0 217 99.5 390t265 270.5t356.5 97.5q92 0 199 -31h851l5 -147l16 -189h-49q-20 129 -57 186.5t-113 76t-238 18.5h-205v-606h164q66 0 102 52t44 195h51l-6 -274l6 -303h-51q0 147 -36 212.5t-110 65.5h-164v-522q0 -86 31 -127t109 -41h188q135 0 204 27.5 t100.5 106.5t45.5 245h52l-15 -246l-6 -184h-801l-174 -4q-80 -18 -164 -19q-199 0 -358.5 96.5t-250.5 267.5t-91 386zM336 727q0 -328 124 -508t367 -180q100 0 153.5 18.5t77 67.5t23.5 147v910q0 139 -55 190t-178 51q-256 0 -384 -186t-128 -510z" />
<glyph unicode="&#x153;" horiz-adv-x="1755" d="M92 451q0 133 62.5 242.5t171 173t237.5 63.5q121 0 223.5 -55.5t165.5 -151.5q63 96 161.5 151.5t211.5 55.5q156 0 246 -100.5t90 -264.5q0 -39 -6 -63h-619q-2 -18 -2 -58q0 -174 82 -289.5t232 -115.5q96 0 170.5 54t115.5 161l49 -18q-86 -258 -364 -259 q-125 0 -221.5 50.5t-155.5 140.5q-63 -88 -162.5 -139.5t-216.5 -51.5q-129 0 -237.5 63.5t-171 172.5t-62.5 238zM256 451q0 -190 75 -306t232 -116q158 0 232.5 115.5t74.5 306.5q0 195 -74.5 311.5t-232.5 116.5t-232.5 -117t-74.5 -311zM1040 549h260q125 0 174.5 40 t49.5 97q0 86 -59.5 139.5t-139.5 53.5q-123 0 -194.5 -88.5t-90.5 -241.5z" />
<glyph unicode="&#x178;" horiz-adv-x="1355" d="M-41 1409v51l311 -6l308 6v-51l-66 -6q-113 -10 -113 -86q0 -47 45 -125l299 -520l297 520q45 82 45 127q0 41 -30.5 60.5t-85.5 23.5l-60 6v51l271 -10l217 10v-51l-56 -10q-66 -12 -107.5 -47t-84.5 -111l-373 -651v-318q0 -102 14.5 -144t47 -55.5t114.5 -23.5l41 -4 v-51l-303 6h-2l-303 -6v51l41 4q82 10 114.5 23.5t47 55.5t14.5 144v316l-358 626q-49 86 -97.5 126t-128.5 57zM477 1800q0 49 29 82t76 33q49 0 75.5 -32t26.5 -83t-26.5 -84t-75.5 -33q-47 0 -76 33t-29 84zM866 1800q0 49 29 82t76 33q49 0 75.5 -32t26.5 -83t-26.5 -84 t-75.5 -33q-47 0 -76 33t-29 84z" />
<glyph unicode="&#x2c6;" horiz-adv-x="634" d="M102 1065l193 389h45l192 -389h-49l-159 201h-13l-159 -201h-50z" />
<glyph unicode="&#x2dc;" horiz-adv-x="847" d="M102 1155q0 35 19.5 86t59.5 89t98 38q51 0 137 -53l76 -45q66 -39 104 -39q39 0 67.5 28.5t43.5 75.5h38q-10 -90 -57 -146t-108 -56q-52 0 -140 51l-53 33q-43 27 -71.5 40t-53.5 13q-41 0 -75.5 -37t-45.5 -78h-39z" />
<glyph unicode="&#x2000;" horiz-adv-x="1022" />
<glyph unicode="&#x2001;" horiz-adv-x="2044" />
<glyph unicode="&#x2002;" horiz-adv-x="1022" />
<glyph unicode="&#x2003;" horiz-adv-x="2044" />
<glyph unicode="&#x2004;" horiz-adv-x="681" />
<glyph unicode="&#x2005;" horiz-adv-x="511" />
<glyph unicode="&#x2006;" horiz-adv-x="340" />
<glyph unicode="&#x2007;" horiz-adv-x="340" />
<glyph unicode="&#x2008;" horiz-adv-x="255" />
<glyph unicode="&#x2009;" horiz-adv-x="408" />
<glyph unicode="&#x200a;" horiz-adv-x="113" />
<glyph unicode="&#x2010;" horiz-adv-x="792" d="M123 406v81h547v-81h-547z" />
<glyph unicode="&#x2011;" horiz-adv-x="792" d="M123 406v81h547v-81h-547z" />
<glyph unicode="&#x2012;" horiz-adv-x="792" d="M123 406v81h547v-81h-547z" />
<glyph unicode="&#x2013;" horiz-adv-x="1134" d="M102 401v91h930v-91h-930z" />
<glyph unicode="&#x2014;" horiz-adv-x="1505" d="M41 418v74h1423v-74h-1423z" />
<glyph unicode="&#x2018;" horiz-adv-x="440" d="M41 1139q0 115 52 186.5t153 136.5l26 -43q-86 -57 -136 -122.5t-50 -153.5q0 -41 11.5 -72t27.5 -22q4 2 4 6q0 6 -4 17t-4 22q0 29 29.5 52t66.5 23q53 0 87 -33.5t34 -86.5q0 -59 -37 -96.5t-96 -37.5q-74 0 -119 60.5t-45 163.5z" />
<glyph unicode="&#x2019;" horiz-adv-x="526" d="M106 1346q0 59 37 96t97 37q74 0 118.5 -60.5t44.5 -163.5q0 -115 -52 -186.5t-152 -136.5l-27 43q86 57 136 122.5t50 153.5q0 41 -11 72t-28 23q-4 -2 -4 -7q0 -6 4.5 -17t4.5 -22q0 -29 -30 -52t-67 -23q-53 0 -87 33.5t-34 87.5z" />
<glyph unicode="&#x201a;" horiz-adv-x="475" d="M123 115q0 57 39 97t106 40q90 0 139.5 -74t49.5 -178q0 -139 -97 -262q-72 -96 -204 -180l-29 55q268 176 268 387q0 47 -13 93t-42 61l-6 -11q8 -12 14 -30.5t6 -36.5q0 -39 -27.5 -69t-80.5 -30q-51 0 -87 40t-36 98z" />
<glyph unicode="&#x201c;" horiz-adv-x="880" d="M41 1139q0 115 52 186.5t153 136.5l26 -43q-86 -57 -136 -122.5t-50 -153.5q0 -41 11.5 -72t27.5 -22q4 2 4 6q0 6 -4 17t-4 22q0 29 29.5 52t66.5 23q53 0 87 -33.5t34 -86.5q0 -59 -37 -96.5t-96 -37.5q-74 0 -119 60.5t-45 163.5zM481 1139q0 115 52 186.5t153 136.5 l26 -43q-86 -57 -136 -122.5t-50 -153.5q0 -41 11.5 -72t27.5 -22q4 2 4 6q0 6 -4 17t-4 22q0 29 29.5 52t66.5 23q53 0 87 -33.5t34 -86.5q0 -59 -37 -96.5t-96 -37.5q-74 0 -119 60.5t-45 163.5z" />
<glyph unicode="&#x201d;" horiz-adv-x="880" d="M122 1346q0 59 37 96t97 37q74 0 118.5 -60.5t44.5 -163.5q0 -115 -52 -186.5t-152 -136.5l-27 43q86 57 136 122.5t50 153.5q0 41 -11 72t-28 23q-4 -2 -4 -7q0 -6 4.5 -17t4.5 -22q0 -29 -30 -52t-67 -23q-53 0 -87 33.5t-34 87.5zM563 1346q0 59 37 96t97 37 q74 0 118.5 -60.5t44.5 -163.5q0 -115 -52 -186.5t-152 -136.5l-27 43q86 57 136 122.5t50 153.5q0 41 -11 72t-28 23q-4 -2 -4 -7q0 -6 4.5 -17t4.5 -22q0 -29 -30 -52t-67 -23q-53 0 -87 33.5t-34 87.5z" />
<glyph unicode="&#x201e;" horiz-adv-x="880" d="M122 99q0 59 37 96t97 37q74 0 118.5 -60.5t44.5 -163.5q0 -115 -52 -186.5t-152 -136.5l-27 43q86 57 136 122.5t50 153.5q0 41 -11 72t-28 23q-4 -2 -4 -7q0 -6 4.5 -17t4.5 -22q0 -29 -30 -52t-67 -23q-53 0 -87 33.5t-34 87.5zM563 99q0 59 37 96t97 37 q74 0 118.5 -60.5t44.5 -163.5q0 -115 -52 -186.5t-152 -136.5l-27 43q86 57 136 122.5t50 153.5q0 41 -11 72t-28 23q-4 -2 -4 -7q0 -6 4.5 -17t4.5 -22q0 -29 -30 -52t-67 -23q-53 0 -87 33.5t-34 87.5z" />
<glyph unicode="&#x2022;" horiz-adv-x="604" d="M123 725q0 72 52 124t130 52q74 0 125 -52t51 -124q0 -76 -51 -129t-125 -53q-78 0 -130 53t-52 129z" />
<glyph unicode="&#x2026;" horiz-adv-x="1763" d="M123 109q0 51 38 89t93 38q53 0 90 -38t37 -89q0 -53 -37 -92.5t-90 -39.5q-55 0 -93 38t-38 94zM754 109q0 51 38 89t93 38q53 0 90 -38t37 -89q0 -53 -37 -92.5t-90 -39.5q-55 0 -93 38t-38 94zM1383 109q0 51 38 89t93 38q53 0 90 -38t37 -89q0 -53 -37 -92.5 t-90 -39.5q-55 0 -93 38t-38 94z" />
<glyph unicode="&#x202f;" horiz-adv-x="408" />
<glyph unicode="&#x2039;" horiz-adv-x="538" d="M102 446q0 139 74 239.5t209 131.5l21 -61q-98 -29 -144.5 -111t-46.5 -199t46 -198.5t145 -110.5l-21 -61q-133 30 -208 131.5t-75 238.5z" />
<glyph unicode="&#x203a;" horiz-adv-x="538" d="M133 137q98 29 144.5 111t46.5 198q0 117 -46.5 199t-144.5 111l21 61q135 -31 208.5 -131t73.5 -240q0 -137 -74.5 -238.5t-207.5 -131.5z" />
<glyph unicode="&#x205f;" horiz-adv-x="511" />
<glyph unicode="&#x20ac;" horiz-adv-x="1665" d="M127 772l41 66h188q23 180 110 327.5t226 232.5t309 85q98 0 171 -23.5t151 -60.5q8 -4 27.5 -13.5t29.5 -9.5q25 0 41.5 18.5t20.5 59.5h51l-4 -240l6 -239h-51q-18 135 -79.5 236.5t-153 155.5t-197.5 54q-207 0 -312.5 -142t-134.5 -441h721l-28 -66h-699l-2 -45 q0 -66 6 -131h641l-28 -66h-607q31 -229 141.5 -360t309.5 -131q195 0 293 127t143 289l64 -13q-31 -121 -81 -219t-161 -172t-291 -74q-254 0 -413.5 151t-206.5 402h-201l41 66h149q-8 57 -8 131q0 31 2 45h-225z" />
<glyph unicode="&#x2122;" horiz-adv-x="2088" d="M102 1245l27 129l12 84l322 -4h106l324 4l12 -84l29 -129l-27 -6q-31 66 -51 98.5t-49 51t-76 18.5h-149v-555q0 -43 9 -60.5t29.5 -23.5t73.5 -10l25 -2v-47l-199 4l-207 -4v47l25 2q53 4 74.5 10t31 23.5t9.5 60.5v555h-144q-49 0 -76.5 -15.5t-46 -43t-61.5 -107.5z M965 709v47l22 2q39 4 56.5 10t24.5 24.5t7 59.5v463q0 51 -7 74.5t-24.5 29.5t-56.5 11l-22 2v26l161 -4h86l250 -555l271 555h67l187 4v-26l-23 -2q-45 -5 -62.5 -11t-25.5 -28.5t-8 -75.5v-463q0 -43 8 -60.5t25.5 -23.5t62.5 -10l23 -2v-47l-195 4l-168 -4v47l23 2 q45 4 62 10t25.5 23.5t8.5 60.5v500l-313 -639h-23l-279 635v-496q0 -43 7.5 -60.5t24 -23.5t54.5 -10l23 -2v-47l-137 4z" />
<glyph unicode="&#x25fc;" horiz-adv-x="890" d="M0 0v891h891v-891h-891z" />
</font>
</defs>
</svg>
