<?xml version="1.0" standalone="no"?>
<!DOCTYPE svg PUBLIC "-//W3C//DTD SVG 1.1//EN" "http://www.w3.org/Graphics/SVG/1.1/DTD/svg11.dtd" >
<svg xmlns="http://www.w3.org/2000/svg" xmlns:xlink="http://www.w3.org/1999/xlink" version="1.1">
<metadata></metadata>
<defs>
<font id="bd_northernregular" horiz-adv-x="761" >
<font-face units-per-em="2048" ascent="1638" descent="-410" />
<missing-glyph horiz-adv-x="500" />
<glyph horiz-adv-x="0" />
<glyph unicode="&#xd;" />
<glyph />
<glyph />
<glyph />
<glyph />
<glyph />
<glyph />
<glyph />
<glyph />
<glyph />
<glyph />
<glyph />
<glyph />
<glyph />
<glyph />
<glyph unicode=" " />
<glyph unicode="!" horiz-adv-x="225" d="M48 0v226h159v-226h-159zM51 368v994h156v-994h-156z" />
<glyph unicode="&#x22;" horiz-adv-x="415" d="M0 1051v311h156v-311h-156zM237 1049v313h159v-313h-159z" />
<glyph unicode="#" horiz-adv-x="1196" d="M61 578l50 130h175l83 231h-206l50 130h203l109 302l139 -2l-110 -300h242l107 296l139 -2l-108 -294h222l-50 -130h-219l-83 -231h250l-50 -130h-247l-96 -271l-139 2l97 269h-242l-94 -265l-139 2l95 263h-178zM424 708h242l83 231h-242z" />
<glyph unicode="$" horiz-adv-x="689" d="M51 987q0 152 66.5 234.5t188.5 94.5v112h75v-112q97 0 159 -48.5t86 -137.5l-127 -75q-8 54 -50 87t-101 33q-61 0 -98.5 -40.5t-37.5 -120.5q0 -74 16 -108q9 -19 43 -50q122 -82 196 -133q80 -56 114.5 -96t45.5 -72q15 -46 15 -145q0 -331 -261 -360v-111h-75v111 q-93 0 -155 49t-92 141l138 69q10 -55 47 -84t91 -34q71 0 107.5 48.5t36.5 138.5q0 85 -24 125q-19 32 -86 77q-101 64 -135 89q-85 61 -127 117q-33 44 -42 70q-14 41 -14 131z" />
<glyph unicode="%" horiz-adv-x="1400" d="M51 911q0 62 28.5 117.5t82.5 92.5q64 43 141 43q62 0 118 -28.5t92 -81.5q43 -64 43 -142q0 -62 -28.5 -117t-82.5 -92q-65 -44 -142 -44q-62 0 -117 28.5t-92 82.5q-43 64 -43 141zM207 912q0 -29 17 -55q28 -42 79 -42q29 0 55 17q42 30 42 80q0 29 -17 55 q-29 41 -80 41q-31 0 -55 -17q-41 -27 -41 -79zM208 0l774 1175h156l-771 -1175h-159zM851 269q0 62 28.5 117t82.5 92q31 21 68 32t73 11q62 0 118 -28.5t92 -81.5q21 -31 32 -68t11 -73q0 -62 -28.5 -118t-81.5 -92q-65 -44 -142 -44q-63 0 -118 28.5t-91 82.5 q-44 65 -44 142zM1007 269q0 -29 17 -55q30 -42 81 -42q28 0 54 17q41 29 41 80q0 31 -17 55q-28 42 -81 42q-28 0 -53 -17q-42 -30 -42 -80z" />
<glyph unicode="&#x26;" horiz-adv-x="1393" d="M19 558q0 95 15 150q19 70 77 154q64 88 149 130q96 47 271 66l-166 304h345v-134h-112l140 -271l-64 -119q-33 30 -68 46q-43 20 -90 20q-43 0 -95.5 -17t-114 -54.5t-104.5 -116.5t-43 -168q0 -62 18 -117t54 -115q52 -86 153 -127q92 -37 224 -37q121 0 230 74 q113 77 113 168q0 59 -30 103t-88 77q-80 50 -164 50q-66 0 -105 -26q-46 -31 -46 -93q0 -46 55.5 -81t114.5 -35q25 0 43 7l-95 -118q-17 -3 -34 -3q-89 0 -165 72t-76 158q0 43 30 98q38 70 105 113q32 21 64 28.5t78 7.5q24 0 120 -6t175 -6q85 0 148 19q78 23 162 85 l77 -118q-68 -60 -123 -85q-67 -31 -150 -31q-24 0 -51 3q46 -45 72 -101.5t26 -113.5q0 -114 -102 -229q-92 -105 -196 -136q-80 -22 -115 -27.5t-90 -5.5q-176 0 -320 83t-200 215q-24 64 -38 131t-14 129z" />
<glyph unicode="'" horiz-adv-x="269" d="M9 1198l116 167h131l-119 -167h-128z" />
<glyph unicode="(" horiz-adv-x="437" d="M90 681q0 249 56.5 465t93.5 216h164q-53 0 -117 -212q-31 -108 -46.5 -225.5t-15.5 -247.5q0 -142 11 -252.5t39 -218.5q50 -203 103 -203l-134 -3q-43 0 -98 209q-28 106 -42 222t-14 250z" />
<glyph unicode=")" horiz-adv-x="399" d="M37 1365h153q34 0 92 -219q27 -106 42 -226t15 -243q0 -261 -52 -469t-93 -208h-141q52 0 102 200.5t50 473.5q0 271 -56.5 481t-111.5 210z" />
<glyph unicode="*" horiz-adv-x="630" d="M62 1068l9 165q67 -24 145 -51q62 -21 95 -32q-5 -24 -32 -166q-8 -40 -17 -82l-136 61q27 36 54.5 72t58.5 70l-3 4q-40 -11 -86 -22.5t-88 -18.5zM123 1322l128 96q32 -89 65 -178q9 20 25 64q38 109 39 110l131 -86q-65 -59 -96 -86q-47 -41 -99 -83q-97 81 -193 163z M326 1150q45 13 117 38q120 41 126 43l3 -155q-85 16 -169 33l-3 -4l117 -132l-145 -71q-4 19 -24 123q-15 76 -22 125z" />
<glyph unicode="+" horiz-adv-x="710" d="M6 719v112h274v285h116v-285h281v-112h-281v-280l-110 2l-2 278h-278z" />
<glyph unicode="," horiz-adv-x="332" d="M-62 -159l171 258h143l-171 -258h-143z" />
<glyph unicode="-" horiz-adv-x="1042" d="M133 799v155h810v-155h-810z" />
<glyph unicode="." horiz-adv-x="202" d="M0 0v162h156v-162h-156z" />
<glyph unicode="/" horiz-adv-x="713" d="M-3 0l515 1359h165l-521 -1359h-159z" />
<glyph unicode="0" horiz-adv-x="995" d="M41 681q0 272 122.5 476.5t340.5 204.5q220 0 342 -200.5t122 -476.5q0 -279 -123.5 -483.5t-340.5 -204.5q-218 0 -342 203q-60 101 -90.5 221.5t-30.5 259.5zM189 669q0 -208 85 -362t236 -154q138 0 225 168q43 87 64.5 182t21.5 205q0 203 -80.5 345t-232.5 142 q-150 0 -234.5 -155.5t-84.5 -370.5z" />
<glyph unicode="1" horiz-adv-x="351" d="M32 1208v157h264v-1362h-156v1205h-108z" />
<glyph unicode="2" horiz-adv-x="758" d="M89 58q0 85 9 151q13 99 46 158q42 77 110 176q56 82 149 205.5t125 195.5q28 63 28 119q0 46 -20 85q-14 27 -51.5 43.5t-96.5 16.5q-69 0 -136.5 -24t-111.5 -68l22 182q0 22 85 43.5t151 21.5q109 0 182 -41q117 -66 117 -225q0 -109 -60 -238q-33 -73 -94 -164 q-41 -60 -119 -162q-93 -121 -116 -153q-42 -58 -60 -145q-6 -29 -10 -76h390v-159h-537q-1 10 -1.5 23t-0.5 35z" />
<glyph unicode="3" horiz-adv-x="777" d="M67 133q36 0 119.5 9.5t126.5 16.5q115 20 180 80q88 81 88 234q0 54 -5 82q-12 65 -49 114q-49 65 -141 103q-24 8 -64.5 12t-84.5 4q-65 0 -97 -7v151q46 2 71 3q74 5 102 14q38 13 58 62q15 38 15 82q0 54 -33 92q-36 41 -93 41q-44 0 -85.5 -12.5t-64.5 -37.5 l-28 129q-5 15 67.5 36t108.5 21q115 0 190 -84q71 -79 71 -188q0 -83 -29 -153q-9 -23 -30 -54q77 -39 114 -70q51 -42 108 -127q29 -41 39.5 -92t10.5 -134q0 -188 -138 -315q-126 -116 -306 -136q-42 -5 -94.5 -7t-111.5 -2z" />
<glyph unicode="4" horiz-adv-x="861" d="M0 796l531 568h146v-422h100v-146h-100v-799h-150v799h-527zM307 942h220v227z" />
<glyph unicode="5" horiz-adv-x="813" d="M82 6v156l250 117q142 67 215 195q61 107 61 224q0 101 -60.5 155.5t-166.5 54.5q-46 0 -172 -34q-64 -18 -127 -36v524h473v-156h-309v-174q18 2 107 18q63 11 100 11q66 0 128 -33q78 -42 124 -123q56 -100 56 -247q0 -156 -112 -297q-91 -115 -241 -202 q-95 -52 -173.5 -89.5t-152.5 -63.5z" />
<glyph unicode="6" horiz-adv-x="904" d="M48 446q0 77 32 209q39 163 111 323q45 104 98 200q43 78 81 134q33 48 39 50h168q-114 -114 -251 -424q-65 -150 -99 -280t-34 -234q0 -107 56 -194q68 -105 179 -105q81 0 149 50q85 62 85 167q0 52 -28 85.5t-77 48.5q-12 4 -27 4q-40 0 -86 -41q-38 -34 -75 -68 l-54 141q-6 8 40 42q105 78 202 78q44 0 80 -10q71 -20 114 -73q58 -73 58 -201q0 -163 -112 -267q-108 -100 -267 -100q-172 0 -279 134q-103 129 -103 331z" />
<glyph unicode="7" horiz-adv-x="856" d="M3 1198l42 164h771l-538 -1362h-186l480 1198h-569z" />
<glyph unicode="8" horiz-adv-x="1008" d="M108 398q0 114 41 197q54 109 174 168q-69 49 -108 126t-39 156q0 132 99.5 229.5t235.5 97.5q139 0 238 -102q95 -98 95 -226q0 -81 -40 -157t-105 -119q110 -50 168 -157q51 -94 51 -208q0 -160 -108 -281q-118 -132 -299 -132q-173 0 -291 127q-112 120 -112 281z M261 407q0 -96 73 -183q79 -94 183 -94q99 0 177 88t78 189q0 99 -74 182q-78 88 -181 88q-111 0 -186 -85q-70 -79 -70 -185zM332 1045q0 -66 53.5 -122.5t124.5 -56.5q69 0 123.5 56.5t54.5 123.5q0 63 -54.5 116.5t-125.5 53.5q-68 0 -122 -52t-54 -119z" />
<glyph unicode="9" horiz-adv-x="976" d="M97 1004q0 164 112 267q108 99 267 99q172 0 278 -133q103 -129 103 -332q0 -77 -32 -209q-39 -163 -111 -323q-45 -105 -98 -200q-44 -79 -81 -134q-32 -47 -39 -50h-168q117 117 251 424q67 156 100.5 282.5t33.5 231.5q0 106 -56 194q-68 106 -180 106q-81 0 -149 -50 q-84 -62 -84 -168q0 -56 15 -87.5t55 -52.5q12 -6 33 -6q57 0 130 37q80 41 119 96l54 -140l-94 -68q-115 -61 -203 -61q-131 0 -190 63q-66 70 -66 214z" />
<glyph unicode=":" horiz-adv-x="272" d="M60 40h156v-162h-156v162zM63 786v162h156v-162h-156z" />
<glyph unicode=";" horiz-adv-x="342" d="M-26 -253l169 256h139l-172 -256h-136zM143 786v162h156v-162h-156z" />
<glyph unicode="&#x3c;" horiz-adv-x="873" d="M84 759l681 506l5 -194l-430 -315l422 -342v-214z" />
<glyph unicode="=" horiz-adv-x="719" d="M0 625v124h685v-124h-685zM0 861v122h685v-122h-685z" />
<glyph unicode="&#x3e;" horiz-adv-x="891" d="M126 1063v202l681 -506l-677 -559v214l423 342z" />
<glyph unicode="?" horiz-adv-x="684" d="M156 288v147q0 57 107 153q49 43 96.5 86.5t79.5 89.5q66 98 66 263q0 120 -104 152q-56 15 -113.5 23t-131.5 8l3 143q7 2 13 2q36 5 78 5q202 0 297.5 -91.5t95.5 -241.5q0 -180 -63 -294q-25 -48 -77 -96q-19 -18 -88 -74q-39 -31 -72 -67q-28 -30 -42 -55v-153h-145z M159 0v180h145v-180h-145z" />
<glyph unicode="@" horiz-adv-x="1119" d="M34 771q0 43 8 93q32 189 168.5 306.5t332.5 117.5q52 0 115 -11q172 -32 288 -168.5t116 -314.5q0 -71 -21 -145q-30 -107 -75 -167q-39 -53 -82 -61q-20 -3 -37 -3q-63 0 -107 42q-28 27 -53 78l-53 111h-175l-45 -112l-133 4q24 48 83 176q75 165 88 192 q48 104 90 184h6q41 -74 96 -189q48 -101 87 -185q19 -43 37 -82.5t35 -60.5q22 -28 39 -28q2 0 8 2q39 18 60 80t21 134q0 127 -57 221t-170 146q-76 35 -156 35q-127 0 -230 -82t-137 -209q-15 -56 -15 -112q0 -157 103 -262q112 -114 302 -114l-13 -122q-233 0 -382 152 q-142 145 -142 354zM499 749h94q-40 90 -49 120q-16 -38 -23 -57q-11 -32 -22 -63z" />
<glyph unicode="A" horiz-adv-x="1121" d="M18 2l502 1364h82l492 -1364h-172l-206 583h-316l-210 -583h-172zM454 734h209l-103 292z" />
<glyph unicode="B" horiz-adv-x="845" d="M66 1v1362q31 3 52 4q64 4 125 4q98 0 175.5 -11.5t111.5 -40.5q53 -47 81.5 -107.5t28.5 -125.5q0 -78 -40 -151q-8 -15 -28 -41.5t-33 -39.5q73 -29 90 -38q51 -26 82 -66q46 -59 69 -133.5t23 -152.5q0 -100 -35 -190.5t-94 -142.5q-76 -65 -166 -95q-74 -24 -195 -31 q-72 -4 -247 -4zM222 159q128 0 182 10q96 18 168 80q38 32 61 92.5t23 127.5q0 54 -14.5 102t-46.5 89q-53 68 -138 91q-36 10 -176 24l-59 2v-618zM222 933q32 0 56 -3q5 0 13 -3q10 -1 15 -1q45 0 91.5 23t64.5 58q20 36 20 78q0 68 -54 115q-20 17 -58 24.5t-83 7.5 q-35 0 -65 -3v-296z" />
<glyph unicode="C" horiz-adv-x="816" d="M73 763q0 214 63 347q74 155 243 228q34 14 77.5 21t85.5 7q57 0 109 -8.5t108 -25.5l-20 -154q-39 15 -89.5 24.5t-99.5 9.5q-63 0 -110 -19q-123 -51 -172 -172q-39 -96 -39 -262q0 -240 59 -382q74 -177 244 -223q39 -12 86 -12q62 0 121 24v-158q-65 -21 -132 -21 q-58 0 -117 16q-156 44 -253 157q-87 102 -128 265q-36 144 -36 338z" />
<glyph unicode="D" horiz-adv-x="844" d="M66 -24v1384q26 2 43 2q68 3 101 3q56 0 102.5 -3.5t76.5 -12.5q192 -58 299 -210.5t107 -364.5q0 -106 -9.5 -189t-27.5 -145q-36 -128 -127 -227q-70 -77 -172 -134q-71 -40 -143 -63q-46 -14 -109 -24q-45 -7 -141 -16zM222 162q37 0 107 29q124 51 200 158 q108 152 108 396q0 170 -72 284q-76 120 -220 162q-24 7 -56.5 10.5t-66.5 3.5v-1043z" />
<glyph unicode="E" horiz-adv-x="645" d="M69 2v1363h429v-155h-273v-271h328v-155h-328v-626h369v-156h-525z" />
<glyph unicode="F" horiz-adv-x="627" d="M49 2v1363h429v-155h-273v-271h328v-155h-328v-782h-156z" />
<glyph unicode="G" horiz-adv-x="819" d="M37 658q0 138 21.5 255t69.5 189q64 96 128 149q70 58 173 94q37 13 97.5 18.5t119.5 5.5q43 0 61.5 -0.5t34.5 -2.5l-2 -156q-19 2 -32 2q-51 3 -76 3q-62 0 -92.5 -4t-58.5 -14q-79 -27 -132 -73q-44 -38 -100 -119q-27 -39 -39 -124t-12 -197q0 -119 10 -216.5 t25 -135.5q32 -83 94 -130q59 -44 153 -59q9 -2 29 -3t22 -1q27 0 39.5 1t19.5 3v631h-136v141h292v-900q-74 -15 -125.5 -23t-98.5 -8q-17 0 -33.5 1t-33.5 4q-134 20 -222.5 88.5t-145.5 197.5q-21 47 -35.5 153t-14.5 230z" />
<glyph unicode="H" horiz-adv-x="883" d="M90 0v1365h156v-426h402v426h156v-1365h-156v784h-402v-784h-156z" />
<glyph unicode="I" horiz-adv-x="317" d="M78 0v1365h156v-1365q0 -1 -27 -2t-51 -1h-15h-12q-18 0 -34.5 0.5t-16.5 2.5z" />
<glyph unicode="J" horiz-adv-x="560" d="M-6 81l102 120q29 -25 46 -37q53 -37 88 -37q60 0 86 53q22 45 22 134v1051h156v-1036q0 -106 -9 -150q-13 -65 -56.5 -113.5t-84 -69.5t-102.5 -21q-7 -1 -10 -1q-64 0 -157 53q-31 17 -81 54z" />
<glyph unicode="K" horiz-adv-x="932" d="M71 -1v1366h153l1 -488l475 480l195 6l-428 -446l430 -918l-174 1l-369 799l-130 -136v-664h-153z" />
<glyph unicode="L" horiz-adv-x="731" d="M66 -1v1366h155v-1210h472v-156h-627z" />
<glyph unicode="M" horiz-adv-x="1141" d="M71 3v1361l124 1l384 -473l387 473h122v-1362h-153v1087l-356 -439l-355 438v-1086h-153z" />
<glyph unicode="N" horiz-adv-x="963" d="M68 0v1365h156l506 -998v998h153v-1365h-153l-504 975l-2 -975h-156z" />
<glyph unicode="O" horiz-adv-x="1156" d="M76 682q0 143 32.5 267t101.5 225q137 201 378 201q246 0 380 -199q67 -98 101.5 -224.5t34.5 -267.5q0 -142 -34.5 -271.5t-103.5 -231.5q-136 -202 -378 -202q-237 0 -377 201q-66 98 -100.5 229t-34.5 273zM215 687q0 -111 24.5 -212.5t73.5 -180.5q99 -156 275 -156 q175 0 275 156q49 75 75 178t26 212q0 107 -25.5 205t-75 176.5t-117.5 118t-158 39.5q-173 0 -275 -155q-47 -76 -72.5 -175t-25.5 -206z" />
<glyph unicode="P" horiz-adv-x="860" d="M78 0v1360h178.5h148.5h99q191 0 264 -88q56 -68 56 -216q0 -125 -51 -183q-82 -93 -317 -93l-222 -4v-776h-156zM234 931q35 0 115 -2t81 -2q124 0 178 24q72 32 72 121q0 72 -39.5 103.5t-123.5 31.5q-40 0 -155 -1t-128 -1v-274z" />
<glyph unicode="Q" horiz-adv-x="1136" d="M47 682q0 143 32.5 267t101.5 225q137 201 378 201q246 0 380 -199q67 -98 101.5 -224.5t34.5 -267.5q0 -142 -34.5 -271.5t-103.5 -231.5q39 -35 70 -56q36 -25 75 -39l-77 -96q-32 15 -77 47q-22 16 -69 52q-121 -110 -300 -110q-237 0 -377 201q-66 98 -100.5 229 t-34.5 273zM186 687q0 -111 24.5 -212.5t73.5 -180.5q99 -156 275 -156q40 0 80.5 12.5t69.5 29.5q-34 21 -74 37q-14 5 -93 27l77 108q29 -5 113 -48q28 -14 79 -43l23 33q49 75 75 178t26 212q0 107 -25.5 205t-75 176.5t-117.5 118t-158 39.5q-173 0 -275 -155 q-47 -76 -72.5 -175t-25.5 -206z" />
<glyph unicode="R" horiz-adv-x="880" d="M78 -1v1361h178.5h148.5h99q192 0 265 -83q55 -63 55 -197q0 -128 -45 -191q-50 -70 -177 -93l245 -797l-151 1l-240 780q-27 0 -109 -2t-113 -2v-777h-156zM234 931q48 0 122 -2.5t79 -2.5q122 0 175 26q70 34 70 128q0 77 -42 105q-34 22 -115 22q-41 0 -159.5 -1 t-129.5 -1v-274z" />
<glyph unicode="S" horiz-adv-x="858" d="M50 59l75 135q23 -20 40 -29q54 -29 121 -29t111.5 15t102.5 56q160 111 160 304q0 109 -88 195q-56 55 -183 123.5t-157 97.5q-31 32 -46.5 78.5t-15.5 102.5q0 95 42 165q28 45 72 68q33 17 100 33q15 3 34 3q34 0 86 -9q17 -3 45 -9l-4 -144q-23 9 -51 14.5t-59 5.5 q-36 0 -60.5 -9t-37.5 -31q-16 -27 -16 -77q0 -26 5 -46.5t17 -32.5q32 -32 176 -111q138 -75 201 -147q96 -110 96 -272q0 -139 -56 -243.5t-170 -185.5q-74 -52 -135.5 -75t-138.5 -23h-23q-16 2 -24 2q-62 0 -116.5 18.5t-102.5 56.5z" />
<glyph unicode="T" horiz-adv-x="838" d="M57 1204v161h726v-161h-283v-1205h-156v1205h-287z" />
<glyph unicode="U" horiz-adv-x="866" d="M71 330v1035h157v-1063q0 -81 53 -126.5t141 -45.5q82 0 141 41q64 44 78 122v1072h156v-1063q0 -80 -36.5 -144t-95.5 -103q-55 -36 -113 -53.5t-120 -17.5q-60 0 -119 16.5t-115 49.5q-108 66 -127 280z" />
<glyph unicode="V" horiz-adv-x="1121" d="M66 1365h157l352 -1107l355 1107h157l-435 -1366h-170z" />
<glyph unicode="W" horiz-adv-x="1615" d="M39 1365h156l354 -1107l175 551l-166 556h155l97 -307l92 307h157l-173 -570l181 -538l356 1108h155l-432 -1366h-170l-172 555l-177 -555h-169z" />
<glyph unicode="X" horiz-adv-x="1223" d="M-28 0l506 775l-440 590h191l338 -454l299 454h182l-384 -585l582 -780l-191 -1l-480 645l-421 -644h-182z" />
<glyph unicode="Y" horiz-adv-x="1042" d="M47 1363h169l318 -509l298 509h160l-374 -655v-708h-154v704z" />
<glyph unicode="Z" horiz-adv-x="987" d="M27 0l678 1220h-568v143h833l-697 -1223h636v-140h-882z" />
<glyph unicode="[" d="M335 -175v1542h308v-155h-152v-1247h152l-2 -140h-306zM938 0z" />
<glyph unicode="\" horiz-adv-x="713" d="M-6 1364h156l521 -1360h-149z" />
<glyph unicode="]" d="M0 0zM295 -35h152v1247h-152v155h308v-1542h-306z" />
<glyph unicode="^" horiz-adv-x="661" d="M48 1151l167 207h242l164 -197l-94 -78l-128 153h-125l-130 -162z" />
<glyph unicode="_" horiz-adv-x="710" d="M0 0v67h709v-67h-709z" />
<glyph unicode="`" horiz-adv-x="492" d="M77 1368l163 -1l191 -214h-162z" />
<glyph unicode="a" horiz-adv-x="896" d="M42 1v153h804v-153h-804zM72 488q0 125 103.5 210.5t256.5 85.5q44 0 121 -25q25 -8 69 -26l-1 108q0 79 -48 127t-125 48q-117 0 -189 -71q-24 -23 -49 -72l-106 76l34 58q48 69 111 110q89 59 199 59q133 0 231.5 -94.5t98.5 -235.5v-626h-507q-90 0 -148 93 q-51 81 -51 175zM222 476q0 -34 30.5 -68.5t70.5 -34.5h299v186q-36 22 -60 32q-75 33 -138 33q-91 0 -138 -26q-64 -35 -64 -122z" />
<glyph unicode="b" horiz-adv-x="811" d="M51 -7v1372h156v-309q76 -4 118 -6q139 -8 218 -66.5t123 -104.5q62 -66 92 -143q35 -91 35 -216q0 -132 -62 -250q-53 -100 -143 -177q-72 -61 -184 -84q-82 -17 -211 -17h-18h-16h-14h-12q-21 0 -41.5 0.5t-40.5 0.5zM207 139q99 0 149 8q91 15 143 61q56 51 94 130 q44 91 44 182q0 126 -60 215q-40 60 -127 123q-28 21 -68.5 29t-84.5 8q-14 0 -38 -1t-32 -1h-11q-7 2 -9 2v-756z" />
<glyph unicode="c" horiz-adv-x="756" d="M28 583q0 222 121 406q134 203 330 203q62 0 123 -25q86 -35 129 -109l-4 -162q-49 69 -107.5 104.5t-122.5 35.5h-14q-10 -2 -15 -2q-138 -17 -216 -159q-68 -124 -68 -289q0 -156 88 -290q94 -143 220 -143q67 0 119 9q85 15 105 49v-156q-21 -24 -86.5 -38.5 t-124.5 -14.5q-14 0 -26.5 1.5t-18.5 2.5q-194 40 -315 207q-117 161 -117 370z" />
<glyph unicode="d" horiz-adv-x="822" d="M36 520q0 124 35 215q30 78 91 143q44 46 125 106q68 51 173 62l162 10v309h156v-1372h-70.5t-71.5 -1q-170 0 -261 28q-75 23 -134 73q-91 77 -143 176q-62 117 -62 251zM192 520q0 -89 44 -181q39 -81 94 -131q50 -45 143 -60q55 -9 149 -9v756q-10 -2 -22 -2 q-8 0 -33 1t-41 1q-47 0 -82 -7.5t-65 -29.5q-110 -80 -151 -165q-36 -75 -36 -173z" />
<glyph unicode="e" horiz-adv-x="912" d="M32 680q0 192 106 334q115 154 294 154q194 0 315 -150.5t121 -401.5h-686q21 -117 102.5 -198.5t187.5 -81.5q73 0 130.5 34.5t97.5 94.5l120 -82q-62 -90 -145 -138q-91 -53 -203 -53q-177 0 -308.5 147t-131.5 341zM48 1v152h811v-152h-811zM182 760h528 q0 114 -80 189t-198 75q-106 0 -178 -78t-72 -186z" />
<glyph unicode="f" horiz-adv-x="603" d="M35 799v139h99q7 72 15.5 106.5t38.5 87.5q53 93 144 145q68 38 194 69l38 -136q-79 -20 -127 -42q-70 -33 -106 -82q-44 -60 -44 -149h157v-138h-157v-799l-154 -3l1 802h-99z" />
<glyph unicode="g" horiz-adv-x="844" d="M72 -20l72 136q44 -59 114 -100q81 -48 158 -48q95 0 152 73q66 84 66 250v338q-32 0 -63.5 -0.5t-62.5 -0.5q-152 0 -221 13q-103 19 -154 77q-58 65 -58 191q0 135 64.5 190.5t227.5 70.5q109 10 426 10v-895q0 -182 -70 -296q-58 -94 -162 -138q-84 -35 -185 -35 q-92 0 -163 42q-57 33 -141 122zM235 901q0 -76 59 -104q46 -22 153 -22q29 0 103 2t84 2v255h-78t-75 1q-127 0 -178 -22q-68 -29 -68 -112z" />
<glyph unicode="h" horiz-adv-x="828" d="M61 0v1368h155v-499q38 24 65 35q82 35 166 35q114 0 211 -73q120 -90 120 -242l-1 -626l-153 2v567q0 94 -37 154q-50 80 -158 80q-132 0 -186 -67q-17 -22 -27 -67v-667h-155z" />
<glyph unicode="i" horiz-adv-x="327" d="M63 1275q0 41 29 70t70 29t70 -29t29 -70t-29 -70t-70 -29t-70 29t-29 70zM80 3v1055h156v-1055h-156z" />
<glyph unicode="j" horiz-adv-x="495" d="M48 -34q99 24 142 67q67 67 67 214v812h163v-819q0 -95 -17 -168q-11 -47 -28 -79q-44 -78 -123 -120q-55 -30 -166 -58zM243 1275q0 41 29 70t70 29t70 -29t29 -70t-29 -70t-70 -29t-70 29t-29 70z" />
<glyph unicode="k" horiz-adv-x="903" d="M62 0v1362h157v-918l455 731h151l-377 -629l411 -546h-190l-317 414l-131 -201v-213h-159z" />
<glyph unicode="l" horiz-adv-x="502" d="M94 0v1362h156v-1203h181v-159h-337z" />
<glyph unicode="m" horiz-adv-x="1344" d="M39 0l237 1175h128l228 -417l232 417h125l322 -1175h-169l-254 895l-256 -438l-257 438l-180 -895h-156z" />
<glyph unicode="n" horiz-adv-x="986" d="M44 -3v1177h157v-103q77 50 134 63.5t161 13.5q138 0 254 -77q132 -88 132 -221v-849h-153v774q0 93 -56 157q-64 73 -182 73q-136 0 -215 -64q-75 -61 -75 -157v-787h-157z" />
<glyph unicode="o" horiz-adv-x="989" d="M44 707q0 204 119 339q125 142 329 142q198 0 326 -146q122 -139 122 -335q0 -208 -118 -342q-124 -141 -331 -141q-199 0 -326 146q-121 139 -121 337zM111 3v153h757v-153h-757zM208 707q0 -138 71 -228q78 -99 214 -99q133 0 214 96q77 91 77 231q0 132 -74 224 q-81 101 -219 101q-126 0 -207 -100q-76 -94 -76 -225z" />
<glyph unicode="p" horiz-adv-x="823" d="M65 -179v1349q326 0 425 -9q163 -15 228 -70.5t65 -191.5q0 -126 -57 -190q-51 -57 -155 -77q-73 -14 -221 -14h-15h-14h-12h-36.5t-37.5 1h-11v-800zM224 769q46 0 99.5 -1.5t87.5 -2.5q107 0 152 21q60 28 60 105q0 84 -69 113q-50 21 -183 21q-35 0 -72 -0.5t-75 -0.5 v-255z" />
<glyph unicode="q" horiz-adv-x="823" d="M75 929q0 135 64.5 190.5t227.5 70.5q109 10 426 10v-1379l-159 6v822q-32 0 -63.5 -0.5t-62.5 -0.5q-152 0 -221 13q-103 19 -154 77q-58 65 -58 191zM235 921q0 -76 59 -104q46 -22 153 -22q29 0 103 2t84 2v255h-78t-75 1q-127 0 -178 -22q-68 -29 -68 -112z" />
<glyph unicode="r" horiz-adv-x="531" d="M80 1v1178h162v-134q82 86 244 113l26 -151q-149 -54 -169 -69q-101 -76 -101 -263v-674h-162z" />
<glyph unicode="s" horiz-adv-x="832" d="M25 39l74 136q44 -15 100 -22q31 -4 60 -7t54 -3q122 0 212 50q95 53 95 132q0 89 -75 174q-53 60 -159 135q-123 87 -144 107q-76 76 -76 179q0 63 35 121q29 48 80.5 82.5t111.5 48.5q30 6 53 6q14 0 46.5 -2t41.5 -2v-158q-33 6 -67 6q-47 0 -80.5 -14t-53.5 -49 q-11 -19 -11 -40q0 -41 30 -66l168 -132q120 -96 178 -177q82 -114 82 -234q0 -139 -148 -233q-140 -89 -326 -89h-21h-18q-12 2 -17 2q-59 5 -109 16t-116 33z" />
<glyph unicode="t" horiz-adv-x="564" d="M21 800v137h99v303h162v-303h157v-137h-154v-400q0 -115 69 -185q48 -48 128 -71q46 -13 69 -13l-30 -142q-188 19 -290 121q-112 111 -112 314l1 376h-99z" />
<glyph unicode="u" horiz-adv-x="947" d="M81 357v817h162v-812q0 -142 50 -201q55 -64 192 -64q143 0 195 64q47 58 47 206v807h148v-803q0 -177 -50 -272q-45 -85 -136 -117q-71 -25 -204 -25q-128 0 -201 24q-97 32 -147 114q-56 92 -56 262z" />
<glyph unicode="v" horiz-adv-x="1121" d="M58 1175h157l348 -913l358 913h157l-434 -1175h-171z" />
<glyph unicode="w" horiz-adv-x="1468" d="M40 1175h159l270 -934l253 690l268 -699l283 943h155l-361 -1175h-170l-175 512l-173 -512h-170z" />
<glyph unicode="x" horiz-adv-x="1220" d="M7 0l492 629l-438 546l193 1l340 -432l358 431l199 1l-455 -550l487 -627h-199l-388 507l-388 -507z" />
<glyph unicode="y" horiz-adv-x="949" d="M41 1176h194l274 -625l233 625h177l-335 -876q-51 -132 -68 -171q-25 -57 -47 -97q-52 -92 -144 -144q-70 -40 -194 -70l-38 151q96 24 137 44q67 33 104 96q9 16 48 122q13 35 38 104z" />
<glyph unicode="z" horiz-adv-x="1102" d="M46 -3l724 1034h-528l-21 144h852l-756 -1038h637l-24 -140h-884z" />
<glyph unicode="{" horiz-adv-x="434" d="M3 506v89q44 0 75 13t46.5 34t23 45t7.5 53v279q0 107 39 178q20 33 80.5 52.5t119.5 19.5q20 0 37 -3v-95q-42 0 -70.5 -12.5t-41.5 -33.5q-23 -36 -23 -98v-291q0 -155 -158 -185q98 -24 128 -75t30 -135v-245q0 -65 7 -93.5t35 -49.5q16 -12 38.5 -18.5t54.5 -6.5v-96 h-63q-98 0 -143 37.5t-57.5 87t-12.5 136.5v255q0 68 -30 107q-28 41 -122 51z" />
<glyph unicode="|" horiz-adv-x="420" d="M152 0v1394h117v-1394h-117z" />
<glyph unicode="}" horiz-adv-x="434" d="M3 -67q87 0 111 41.5t24 100.5v283q0 160 158 190q-71 20 -103.5 49.5t-44.5 69.5q-4 19 -7 44t-3 50v244q0 70 -6.5 99.5t-34.5 43t-90 13.5v100q68 -2 105 -8q111 -20 141 -77q15 -28 20.5 -72.5t5.5 -89.5v-266q0 -67 29.5 -104.5t122.5 -48.5v-89 q-91 -9 -121.5 -49.5t-30.5 -98.5v-283q0 -79 -11 -117q-16 -54 -63 -89q-24 -19 -71 -29.5t-92 -10.5q-22 0 -39 3v101z" />
<glyph unicode="~" horiz-adv-x="1089" d="M100 1223q111 84 163.5 115.5t106.5 31.5q16 0 25 -1q60 -6 115.5 -98.5t111.5 -106.5q7 -2 17 -3t18 -1q60 0 157 96q58 58 102 80l70 -140q-30 -16 -173 -120q-94 -69 -171 -69q-17 0 -27 1t-30 6q-52 12 -101 95q-45 76 -99 76q-15 1 -19 1q-48 0 -97 -48 q-70 -68 -94 -81z" />
<glyph unicode="&#xa1;" horiz-adv-x="598" d="M206 -195l25 1045h168l18 -1045h-211zM211 1093q0 56 30.5 91.5t77.5 35.5q46 0 74.5 -35.5t28.5 -87.5q0 -58 -31.5 -94.5t-73.5 -36.5q-49 0 -77.5 37t-28.5 90z" />
<glyph unicode="&#xa2;" horiz-adv-x="689" d="M159 618q0 94 14 180.5t34 128.5q30 67 71 97q26 19 93 43v117h79v-120q55 -9 76 -21v-148q-33 20 -73 20q-118 0 -118 -255q0 -86 7 -148t33 -116t82 -54q31 0 69 16v-142q-35 -22 -79 -22v-108h-76v104q-73 21 -114 62q-45 45 -70 131q-14 48 -21 111.5t-7 123.5z" />
<glyph unicode="&#xa3;" horiz-adv-x="689" d="M35 59q11 65 56 105q49 43 125 43q33 59 33 134q0 76 -33 141h-147v66h125l-56 124q-33 75 -51 144t-18 134q0 161 103 253q90 80 214 80q115 0 185 -61q76 -67 76 -189l-131 -62q0 86 -36.5 130.5t-98.5 44.5q-71 0 -111 -45t-40 -133q0 -53 15 -113t44 -129l69 -178 h164v-66h-154q17 -54 17 -118q0 -109 -41 -188q29 -13 59.5 -22.5t52.5 -9.5q49 0 66 43l138 -46q-26 -79 -75 -119q-24 -19 -50 -28.5t-55 -9.5q-28 0 -55 9q-8 3 -90 38q-42 18 -53 21.5t-25 6.5t-24 3q-24 0 -41.5 -12.5t-26.5 -42.5z" />
<glyph unicode="&#xa4;" horiz-adv-x="1409" d="M205 274l127 127q-40 64 -57 108q-27 71 -27 157q0 85 26 156q18 48 58 112l-127 127l104 106l129 -129q63 40 108 58q71 28 156 28t156 -27q44 -17 113 -59l129 129l104 -106l-129 -129q40 -60 58 -107q28 -72 28 -157q0 -87 -27 -158q-16 -42 -59 -109l129 -127 l-104 -106l-129 127q-63 -40 -108 -58q-71 -28 -156 -28q-90 0 -161 27q-44 17 -108 59l-127 -127zM397 674q0 -141 96 -232q89 -84 212 -84q127 0 217 91t90 219q0 126 -90.5 216.5t-216.5 90.5q-132 0 -223 -97q-85 -90 -85 -204z" />
<glyph unicode="&#xa5;" horiz-adv-x="689" d="M21 1266h179l165 -584l127 584h180l-159 -515h137v-86h-161l-39 -121v-17h200v-83h-200v-444h-168v444h-196v83h196v17l-42 121h-154v86h121z" />
<glyph unicode="&#xa6;" horiz-adv-x="1118" d="M479 361h160v-725h-160v725zM479 610v725h160v-725h-160z" />
<glyph unicode="&#xa7;" horiz-adv-x="854" d="M74 575q0 92 63 185q35 52 103 117q-42 56 -59 91q-31 65 -31 142q0 126 77.5 207.5t192.5 81.5q70 0 128 -31q73 -39 116 -119q22 -44 32.5 -94t10.5 -104h-140q0 85 -22 138q-34 83 -119 83q-65 0 -103 -43.5t-38 -104.5q0 -56 33 -111q28 -47 82 -98q33 -31 104 -88 l26 -20q81 -65 125 -108q63 -62 91 -112q34 -61 34 -128q0 -90 -59 -176q-34 -50 -107 -117q41 -49 58 -81q33 -63 33 -142q0 -126 -80.5 -210.5t-194.5 -84.5q-70 0 -126 31q-70 38 -111 118q-23 46 -32 95t-9 108h137q0 -84 22 -141q35 -90 119 -90q59 0 99 46t40 111 q0 55 -33 109q-39 64 -147 149l-41 33q-95 77 -133 113q-68 64 -101 117q-40 64 -40 128zM209 629q0 -70 42 -129t165 -154l18 -14q44 -35 72.5 -59t52.5 -46q36 36 58 72q38 62 38 125q0 61 -39 113q-43 57 -161 149l-19 14q-35 27 -74 61q-20 17 -65 58q-39 -45 -57 -78 q-31 -55 -31 -112z" />
<glyph unicode="&#xa8;" horiz-adv-x="682" d="M74 1212q0 58 32.5 92.5t71.5 34.5q47 0 77 -36t30 -91q0 -54 -29 -88t-76 -34t-76.5 34.5t-29.5 87.5zM397 1212q0 57 35 94q31 33 70 33q46 0 76 -36t30 -91q0 -54 -29 -88t-75 -34q-47 0 -77 35t-30 87z" />
<glyph unicode="&#xa9;" horiz-adv-x="831" d="M30 854q0 163 104 281q108 122 265 122q163 0 282 -106.5t119 -263.5q0 -163 -104 -280q-107 -121 -264 -121q-163 0 -281 104q-121 107 -121 264zM77 855q0 -138 104.5 -230t248.5 -92q137 0 230 104.5t93 247.5q0 137 -105 230t-248 93q-137 0 -230 -105t-93 -248z M213 880q0 94 56.5 157.5t144.5 63.5q83 0 133 -33q58 -39 77 -124h-76q-7 45 -38.5 69t-81.5 24q-60 0 -99.5 -42.5t-39.5 -119.5l1 -21q0 -66 36.5 -109.5t93.5 -43.5q8 1 12 1q47 5 77 28q34 26 39 71h77q-13 -73 -66 -118.5t-125 -45.5q-101 0 -161 69q-51 59 -59 145z " />
<glyph unicode="&#xaa;" horiz-adv-x="575" d="M41 954q0 123 122 178q67 30 202 44q0 60 -22 91q-27 38 -89 38q-35 0 -71 -18q-30 -15 -85 -54v129l17 8q44 21 74 30q48 15 94 15q100 0 156 -61q50 -55 50 -140v-309q0 -16 7 -26.5t24 -10.5q11 0 21 3.5t18 9.5v-107q-28 -7 -51 -10.5t-37 -3.5q-59 0 -84 28 q-15 17 -22 52q-40 -46 -64 -62q-31 -20 -74 -20q-84 0 -135 57t-51 139zM172 958q0 -47 27 -74q24 -24 59 -24q48 0 77.5 41.5t29.5 102.5v75q-110 -17 -144 -35q-49 -26 -49 -86z" />
<glyph unicode="&#xab;" horiz-adv-x="783" d="M55 461l253 256q-35 -48 -70 -104q-72 -114 -72 -152q0 -39 71 -153q23 -37 71 -106zM387 461l252 256q-34 -48 -69 -104q-72 -115 -72 -152q0 -40 70 -153q23 -37 71 -106z" />
<glyph unicode="&#xac;" horiz-adv-x="1366" d="M135 836v157h1096v-645h-158v488h-938z" />
<glyph unicode="&#xad;" horiz-adv-x="1366" d="M135 588v157h1096v-157h-1096z" />
<glyph unicode="&#xae;" horiz-adv-x="848" d="M30 854q0 163 104 281q108 122 265 122q163 0 282 -106.5t119 -263.5q0 -163 -104 -280q-107 -121 -264 -121q-163 0 -281 104q-121 107 -121 264zM77 855q0 -138 104.5 -230t248.5 -92q137 0 230 104.5t93 247.5q0 137 -105 230t-248 93q-137 0 -230 -105t-93 -248z M271 651v445h217q53 0 88 -36t35 -85q0 -67 -37 -97q-32 -26 -91 -26l134 -201h-80l-125 201h-78v-201h-63zM334 904h120q54 0 77.5 13.5t23.5 49.5q0 38 -21 56t-70 18h-130v-137z" />
<glyph unicode="&#xaf;" horiz-adv-x="682" d="M72 1145v137h538v-137h-538z" />
<glyph unicode="&#xb0;" horiz-adv-x="541" d="M99 1189v11q0 76 50.5 133.5t126.5 66.5q6 1 13 1h11q76 0 133.5 -50.5t66.5 -126.5q1 -6 1 -12v-12q0 -76 -50.5 -133.5t-126.5 -66.5q-6 -1 -13 -1h-11q-76 0 -133.5 50.5t-66.5 126.5q-1 6 -1 13zM163 1200q0 -11 1 -16q6 -51 45.5 -86t90.5 -35q11 0 16 1 q51 6 86 45.5t35 90.5q0 11 -1 16q-6 51 -45.5 86t-90.5 35q-11 0 -16 -1q-51 -6 -86 -45.5t-35 -90.5z" />
<glyph unicode="&#xb1;" horiz-adv-x="1366" d="M135 0v158h1096v-158h-1096zM135 758v157h469v471h158v-471h469v-157h-469v-467h-158v467h-469z" />
<glyph unicode="&#xb4;" horiz-adv-x="682" d="M233 1069l150 293h192l-217 -293h-125z" />
<glyph unicode="&#xb5;" horiz-adv-x="1139" d="M219 -444v1396h189v-401q0 -108 2.5 -179t17.5 -118.5t48 -73.5q28 -22 59 -22q57 0 102.5 38.5t67.5 102.5q13 38 18.5 114.5t5.5 139.5v399h191v-952h-140v141h-4q-52 -106 -95.5 -133.5t-117.5 -27.5q-73 0 -111 40q-26 27 -40 82h-4v-546h-189z" />
<glyph unicode="&#xb6;" horiz-adv-x="737" d="M-37 979q0 128 102 210q96 77 228 77h364v-1453h-111v1342h-159v-1342h-125l4 807q-60 0 -118 26q-79 35 -126 107q-59 90 -59 226z" />
<glyph unicode="&#xb7;" horiz-adv-x="551" d="M189 599q0 31 22.5 54.5t55.5 23.5t57 -23t24 -57q0 -33 -21.5 -55.5t-55.5 -22.5t-58 23t-24 57z" />
<glyph unicode="&#xb8;" horiz-adv-x="682" d="M225 -315q32 -19 56 -29q41 -16 86 -16q49 0 85.5 21t36.5 56q0 40 -44 57q-29 11 -74 11h-82v235h104v-141h45q77 0 130 -38q59 -42 59 -115q0 -81 -69 -135t-173 -54q-46 0 -92 11q-27 7 -68 22v115z" />
<glyph unicode="&#xb9;" horiz-adv-x="682" d="M174 1130v111q70 0 99 15q51 26 51 106v33h125v-793h-144v528h-131z" />
<glyph unicode="&#xba;" horiz-adv-x="618" d="M43 1083q0 150 79 244q74 88 181 88q130 0 205 -98q70 -91 70 -232q0 -146 -75.5 -237.5t-195.5 -91.5q-122 0 -195 96q-69 91 -69 231zM170 1077q0 -86 33 -146q38 -69 106 -69q70 0 109 73q33 62 33 150q0 98 -39.5 161t-96.5 63q-88 0 -123 -92q-22 -57 -22 -140z" />
<glyph unicode="&#xbb;" horiz-adv-x="783" d="M109 202q47 69 70 106q71 115 71 153q0 40 -71 152q-62 99 -70 104l252 -256zM440 202q48 69 71 106q72 115 72 153q0 39 -71 151q-23 37 -72 105l253 -256z" />
<glyph unicode="&#xbc;" horiz-adv-x="1579" d="M204 1290v137h251v-825h-144v688h-107zM332 -90l809 1485h147l-817 -1485h-139zM861 352l409 423h135v-311h85v-112h-85v-426h-135v426h-409zM1110 464h160l4 159z" />
<glyph unicode="&#xbd;" horiz-adv-x="1579" d="M204 1290v137h251v-825h-144v688h-107zM332 -90l809 1485h147l-817 -1485h-139zM1045 -29q0 63 6.5 115t28 91.5t66.5 105.5q32 47 90 125q54 70 71.5 107.5t17.5 68.5q0 23 -8.5 39.5t-26.5 22.5t-48 6q-40 0 -77 -18q-45 -22 -96 -74l18 168q0 16 60 36.5t101 20.5 q73 0 122 -28q78 -45 78 -152q0 -38 -8.5 -72.5t-28.5 -78.5q-28 -60 -93 -149q-54 -71 -107 -142q-16 -23 -24.5 -49.5t-11.5 -51.5h232v-135h-361q0 7 -0.5 17.5t-0.5 26.5z" />
<glyph unicode="&#xbe;" horiz-adv-x="1579" d="M170 647q38 0 82.5 5t85.5 11q62 10 96 42q47 43 47 126q0 50 -10 75q-22 57 -94 87q-21 7 -68 7q-48 0 -92 -9v136q33 1 67 2t51 6.5t23 25t6 42.5q0 24 -15 42t-40 18t-44 -8q-28 -12 -57 -43l-26 114q-4 11 48 35t78 24q77 0 128 -57q48 -53 48 -126q0 -37 -8 -66.5 t-19 -50.5q37 -19 60 -40q28 -25 61 -74q19 -27 26.5 -60t7.5 -87q0 -121 -88 -203q-81 -75 -196 -88q-45 -5 -144 -5zM326 -90l815 1485h147l-817 -1485h-145zM861 352l409 423h135v-311h85v-112h-85v-426h-135v426h-409zM1110 464h160l4 159z" />
<glyph unicode="&#xbf;" horiz-adv-x="918" d="M76 -15q0 104 55 187q41 62 150 159q91 82 122 130q43 66 43 155v90h193v-90q0 -89 -18.5 -144.5t-63.5 -112.5q-27 -35 -111 -120q-125 -131 -148 -162q-30 -41 -30 -92q0 -78 66.5 -129.5t159.5 -51.5q58 0 120 23q52 19 109 55q32 20 96 68v-201q-60 -39 -122 -64 q-106 -42 -218 -42q-150 0 -263 75q-140 93 -140 267zM440 949q0 54 29 91.5t78 37.5q44 0 74 -33t30 -87q0 -55 -31.5 -93.5t-70.5 -38.5q-51 0 -80 35.5t-29 87.5z" />
<glyph unicode="&#xc0;" horiz-adv-x="981" d="M18 2l502 1364h82l492 -1364h-172l-206 583h-316l-210 -583h-172zM329 1697l163 -1l191 -214h-162zM454 734h209l-103 292z" />
<glyph unicode="&#xc1;" horiz-adv-x="981" d="M18 2l502 1364h82l492 -1364h-172l-206 583h-316l-210 -583h-172zM454 734h209l-103 292zM456 1472l119 217h153l-172 -217h-100z" />
<glyph unicode="&#xc2;" horiz-adv-x="981" d="M18 2l502 1364h82l492 -1364h-172l-206 583h-316l-210 -583h-172zM368 1482l120 203h162l124 -205h-110l-95 134l-98 -132h-103zM454 734h209l-103 292z" />
<glyph unicode="&#xc3;" horiz-adv-x="981" d="M18 2l502 1364h82l492 -1364h-172l-206 583h-316l-210 -583h-172zM254 1453q0 37 5 72t20 71q19 43 47 66q35 28 86 28q31 0 53 -8q38 -14 96 -57q29 -22 50 -33q29 -16 51 -16q32 0 44 31q9 24 9 73h117q0 -101 -31 -163q-40 -79 -125 -79q-70 0 -164 72q-20 17 -46 32 t-44 15q-31 0 -44 -37q-9 -26 -9 -67h-115zM454 734h209l-103 292z" />
<glyph unicode="&#xc4;" horiz-adv-x="981" d="M18 2l502 1364h82l492 -1364h-172l-206 583h-316l-210 -583h-172zM291 1563q0 58 32.5 92.5t71.5 34.5q47 0 77 -36t30 -91q0 -54 -29 -88t-76 -34t-76.5 34.5t-29.5 87.5zM454 734h209l-103 292zM614 1563q0 57 35 94q31 33 70 33q46 0 76 -36t30 -91q0 -54 -29 -88 t-75 -34q-47 0 -77 35t-30 87z" />
<glyph unicode="&#xc5;" horiz-adv-x="981" d="M18 2l502 1364h82l492 -1364h-172l-206 583h-316l-210 -583h-172zM416 1561q0 55 40 93t100 38q57 0 97.5 -38.5t40.5 -92.5q0 -53 -40 -91t-98 -38t-99 38t-41 91zM454 734h209l-103 292zM493 1562q0 -25 17 -41t44 -16q26 0 44 17t18 40t-18 40t-44 17q-25 0 -43 -17 t-18 -40z" />
<glyph unicode="&#xc6;" horiz-adv-x="1516" d="M-33 0l502 1395h969v-189h-541v-389h508v-176h-508v-457h541v-184h-740v479h-348l-162 -479h-221zM414 655h284v566h-94z" />
<glyph unicode="&#xc7;" horiz-adv-x="831" d="M63 686q0 309 122 509q134 220 368 220q69 0 135 -23q43 -15 105 -49v-221q-64 55 -95 75q-66 42 -129 42q-71 0 -136 -49q-54 -41 -85 -100q-44 -87 -66 -223q-16 -99 -16 -185q0 -245 96 -391q86 -131 209 -131q65 0 132 44q36 23 90 75v-220q-78 -44 -116 -58 q-55 -21 -114 -21v-101h45q79 0 131 -38q58 -42 58 -115q0 -81 -68 -135t-174 -54q-44 0 -90 11q-26 6 -70 22v115q32 -19 56 -29q41 -16 86 -16q49 0 87 21t38 56q0 40 -45 57q-30 11 -74 11h-82v203q-142 28 -237 143q-83 101 -125 259q-36 136 -36 296z" />
<glyph unicode="&#xc8;" horiz-adv-x="938" d="M36 1687l163 -1l191 -214h-162zM69 2v1363h429v-155h-273v-271h328v-155h-328v-626h369v-156h-525z" />
<glyph unicode="&#xc9;" horiz-adv-x="938" d="M69 2v1363h429v-155h-273v-271h328v-155h-328v-626h369v-156h-525zM192 1464l112 232h144l-163 -232h-93z" />
<glyph unicode="&#xca;" horiz-adv-x="938" d="M56 1466l125 218h169l130 -220h-115l-99 145l-102 -143h-108zM69 2v1363h429v-155h-273v-271h328v-155h-328v-626h369v-156h-525z" />
<glyph unicode="&#xcb;" horiz-adv-x="938" d="M17 1563q0 58 32.5 92.5t71.5 34.5q47 0 77 -36t30 -91q0 -54 -29 -88t-76 -34t-76.5 34.5t-29.5 87.5zM69 2v1363h429v-155h-273v-271h328v-155h-328v-626h369v-156h-525zM340 1563q0 57 35 94q31 33 70 33q46 0 76 -36t30 -91q0 -54 -29 -88t-75 -34q-47 0 -77 35 t-30 87z" />
<glyph unicode="&#xcc;" horiz-adv-x="449" d="M-44 1695l163 -1l191 -214h-162zM78 0v1365h156v-1365q0 -1 -27 -2t-51 -1h-15h-12q-18 0 -34.5 0.5t-16.5 2.5z" />
<glyph unicode="&#xcd;" horiz-adv-x="449" d="M24 1472l132 225h170l-192 -225h-110zM78 0v1365h156v-1365q0 -1 -27 -2t-51 -1h-15h-12q-18 0 -34.5 0.5t-16.5 2.5z" />
<glyph unicode="&#xce;" horiz-adv-x="449" d="M0 1474l123 210h166l127 -212h-113l-97 139l-100 -137h-106zM134 0v1365h156v-1365q0 -1 -27 -2t-51 -1h-15h-12q-18 0 -34.5 0.5t-16.5 2.5z" />
<glyph unicode="&#xcf;" horiz-adv-x="449" d="M-23 1563q0 58 32.5 92.5t71.5 34.5q47 0 77 -36t30 -91q0 -54 -29 -88t-76 -34t-76.5 34.5t-29.5 87.5zM158 0v1365h156v-1365q0 -1 -27 -2t-51 -1h-15h-12q-18 0 -34.5 0.5t-16.5 2.5zM300 1563q0 57 35 94q31 33 70 33q46 0 76 -36t30 -91q0 -54 -29 -88t-75 -34 q-47 0 -77 35t-30 87z" />
<glyph unicode="&#xd0;" horiz-adv-x="1024" d="M-6 612v176h121v607h379q181 0 294 -111q96 -95 140 -264q35 -135 35 -309q0 -92 -8 -159q-14 -115 -50 -213q-46 -123 -125 -206q-72 -75 -158 -104t-249 -29h-258v612h-121zM313 184h138q72 0 134 37.5t97.5 101t56.5 173t21 231.5q0 119 -20 208q-27 123 -89 191 q-76 84 -200 84h-138v-422h222v-176h-222v-428z" />
<glyph unicode="&#xd1;" horiz-adv-x="1087" d="M68 0v1365h156l506 -998v998h153v-1365h-153l-504 975l-2 -975h-156zM184 1453q0 37 5 72t20 71q19 43 47 66q35 28 86 28q31 0 53 -8q38 -14 96 -57q29 -22 50 -33q29 -16 51 -16q32 0 44 31q9 24 9 73h117q0 -101 -31 -163q-40 -79 -125 -79q-70 0 -164 72 q-20 17 -46 32t-44 15q-31 0 -44 -37q-9 -26 -9 -67h-115z" />
<glyph unicode="&#xd2;" horiz-adv-x="1087" d="M76 682q0 143 32.5 267t101.5 225q137 201 378 201q246 0 380 -199q67 -98 101.5 -224.5t34.5 -267.5q0 -142 -34.5 -271.5t-103.5 -231.5q-136 -202 -378 -202q-237 0 -377 201q-66 98 -100.5 229t-34.5 273zM215 687q0 -111 24.5 -212.5t73.5 -180.5q99 -156 275 -156 q175 0 275 156q49 75 75 178t26 212q0 107 -25.5 205t-75 176.5t-117.5 118t-158 39.5q-173 0 -275 -155q-47 -76 -72.5 -175t-25.5 -206zM368 1687l163 -1l191 -214h-162z" />
<glyph unicode="&#xd3;" horiz-adv-x="1087" d="M76 682q0 143 32.5 267t101.5 225q137 201 378 201q246 0 380 -199q67 -98 101.5 -224.5t34.5 -267.5q0 -142 -34.5 -271.5t-103.5 -231.5q-136 -202 -378 -202q-237 0 -377 201q-66 98 -100.5 229t-34.5 273zM215 687q0 -111 24.5 -212.5t73.5 -180.5q99 -156 275 -156 q175 0 275 156q49 75 75 178t26 212q0 107 -25.5 205t-75 176.5t-117.5 118t-158 39.5q-173 0 -275 -155q-47 -76 -72.5 -175t-25.5 -206zM432 1456l142 233h181l-205 -233h-118z" />
<glyph unicode="&#xd4;" horiz-adv-x="1087" d="M76 682q0 143 32.5 267t101.5 225q137 201 378 201q246 0 380 -199q67 -98 101.5 -224.5t34.5 -267.5q0 -142 -34.5 -271.5t-103.5 -231.5q-136 -202 -378 -202q-237 0 -377 201q-66 98 -100.5 229t-34.5 273zM215 687q0 -111 24.5 -212.5t73.5 -180.5q99 -156 275 -156 q175 0 275 156q49 75 75 178t26 212q0 107 -25.5 205t-75 176.5t-117.5 118t-158 39.5q-173 0 -275 -155q-47 -76 -72.5 -175t-25.5 -206zM336 1466l127 226h170l131 -228h-116l-101 149l-102 -147h-109z" />
<glyph unicode="&#xd5;" horiz-adv-x="1087" d="M76 682q0 143 32.5 267t101.5 225q137 201 378 201q246 0 380 -199q67 -98 101.5 -224.5t34.5 -267.5q0 -142 -34.5 -271.5t-103.5 -231.5q-136 -202 -378 -202q-237 0 -377 201q-66 98 -100.5 229t-34.5 273zM215 687q0 -111 24.5 -212.5t73.5 -180.5q99 -156 275 -156 q175 0 275 156q49 75 75 178t26 212q0 107 -25.5 205t-75 176.5t-117.5 118t-158 39.5q-173 0 -275 -155q-47 -76 -72.5 -175t-25.5 -206zM328 1453q0 37 5 72t20 71q19 43 47 66q35 28 86 28q31 0 53 -8q38 -14 96 -57q29 -22 50 -33q29 -16 51 -16q32 0 44 31q9 24 9 73 h117q0 -101 -31 -163q-40 -79 -125 -79q-70 0 -164 72q-20 17 -46 32t-44 15q-31 0 -44 -37q-9 -26 -9 -67h-115z" />
<glyph unicode="&#xd6;" horiz-adv-x="1087" d="M76 682q0 143 32.5 267t101.5 225q137 201 378 201q246 0 380 -199q67 -98 101.5 -224.5t34.5 -267.5q0 -142 -34.5 -271.5t-103.5 -231.5q-136 -202 -378 -202q-237 0 -377 201q-66 98 -100.5 229t-34.5 273zM215 687q0 -111 24.5 -212.5t73.5 -180.5q99 -156 275 -156 q175 0 275 156q49 75 75 178t26 212q0 107 -25.5 205t-75 176.5t-117.5 118t-158 39.5q-173 0 -275 -155q-47 -76 -72.5 -175t-25.5 -206zM325 1563q0 58 32.5 92.5t71.5 34.5q47 0 77 -36t30 -91q0 -54 -29 -88t-76 -34t-76.5 34.5t-29.5 87.5zM648 1563q0 57 35 94 q31 33 70 33q46 0 76 -36t30 -91q0 -54 -29 -88t-75 -34q-47 0 -77 35t-30 87z" />
<glyph unicode="&#xd8;" horiz-adv-x="1087" d="M59 678q0 138 25 264q40 201 133 318q123 155 330 155q58 0 103.5 -10t109.5 -43l53 123h135l-88 -207q42 -57 72 -114q43 -83 66 -183q30 -128 30 -276q0 -183 -42 -332q-50 -178 -150 -277q-117 -116 -295 -116q-73 0 -133 19q-32 10 -76 34l-53 -125h-136l88 207 q-73 78 -116 205q-33 95 -47 215q-9 75 -9 143zM262 694q0 -141 21 -240q11 -52 39 -126l364 858q-38 31 -87 43q-25 6 -52 6q-121 0 -192 -107q-55 -83 -78 -229q-15 -95 -15 -205zM408 209q27 -25 61.5 -37t73.5 -12q107 0 175 92q57 77 85 212q22 107 22 230q0 85 -8 157 q-13 118 -47 214z" />
<glyph unicode="&#xd9;" horiz-adv-x="1024" d="M71 330v1035h157v-1063q0 -81 53 -126.5t141 -45.5q82 0 141 41q64 44 78 122v1072h156v-1063q0 -80 -36.5 -144t-95.5 -103q-55 -36 -113 -53.5t-120 -17.5q-60 0 -119 16.5t-115 49.5q-108 66 -127 280zM249 1687l163 -1l191 -214h-162z" />
<glyph unicode="&#xda;" horiz-adv-x="1024" d="M71 330v1035h157v-1063q0 -81 53 -126.5t141 -45.5q82 0 141 41q64 44 78 122v1072h156v-1063q0 -80 -36.5 -144t-95.5 -103q-55 -36 -113 -53.5t-120 -17.5q-60 0 -119 16.5t-115 49.5q-108 66 -127 280zM336 1472l142 217h181l-205 -217h-118z" />
<glyph unicode="&#xdb;" horiz-adv-x="1024" d="M71 330v1035h157v-1063q0 -81 53 -126.5t141 -45.5q82 0 141 41q64 44 78 122v1072h156v-1063q0 -80 -36.5 -144t-95.5 -103q-55 -36 -113 -53.5t-120 -17.5q-60 0 -119 16.5t-115 49.5q-108 66 -127 280zM224 1466l132 218h177l136 -220h-120l-105 145l-106 -143h-114z " />
<glyph unicode="&#xdc;" horiz-adv-x="1024" d="M71 330v1035h157v-1063q0 -81 53 -126.5t141 -45.5q82 0 141 41q64 44 78 122v1072h156v-1063q0 -80 -36.5 -144t-95.5 -103q-55 -36 -113 -53.5t-120 -17.5q-60 0 -119 16.5t-115 49.5q-108 66 -127 280zM174 1563q0 58 32.5 92.5t71.5 34.5q47 0 77 -36t30 -91 q0 -54 -29 -88t-76 -34t-76.5 34.5t-29.5 87.5zM497 1563q0 57 35 94q31 33 70 33q46 0 76 -36t30 -91q0 -54 -29 -88t-75 -34q-47 0 -77 35t-30 87z" />
<glyph unicode="&#xdd;" horiz-adv-x="918" d="M47 1363h169l318 -509l298 509h160l-374 -655v-708h-154v704zM456 1472l127 217h162l-184 -217h-105z" />
<glyph unicode="&#xde;" horiz-adv-x="961" d="M113 0v1395h198v-301h262q160 0 259.5 -112.5t99.5 -295.5q0 -176 -87 -276q-93 -107 -272 -107h-262v-303h-198zM311 487h211q100 0 153.5 53.5t53.5 151.5q0 99 -57 158t-150 59h-211v-422z" />
<glyph unicode="&#xdf;" horiz-adv-x="961" d="M131 0v1030q0 182 95 283.5t257 101.5q149 0 243.5 -86.5t94.5 -228.5q0 -103 -50.5 -178.5t-166.5 -130.5v-5q69 -10 116 -30q84 -35 132 -103q63 -89 63 -229q0 -187 -109.5 -315.5t-266.5 -128.5q-40 0 -69 6t-52 14v180q21 -9 44 -14.5t48 -5.5q89 0 148 79t59 191 q0 127 -71 195q-65 63 -173 63h-55v154q82 15 125 44q86 57 86 175q0 81 -42.5 131.5t-109.5 50.5q-79 0 -118.5 -59.5t-39.5 -153.5v-1030h-188z" />
<glyph unicode="&#xe0;" horiz-adv-x="854" d="M42 1v153h804v-153h-804zM72 488q0 125 103.5 210.5t256.5 85.5q44 0 121 -25q25 -8 69 -26l-1 108q0 79 -48 127t-125 48q-117 0 -189 -71q-24 -23 -49 -72l-106 76l34 58q48 69 111 110q89 59 199 59q133 0 231.5 -94.5t98.5 -235.5v-626h-507q-90 0 -148 93 q-51 81 -51 175zM183 1536l163 -1l191 -214h-162zM222 476q0 -34 30.5 -68.5t70.5 -34.5h299v186q-36 22 -60 32q-75 33 -138 33q-91 0 -138 -26q-64 -35 -64 -122z" />
<glyph unicode="&#xe1;" horiz-adv-x="854" d="M42 1v153h804v-153h-804zM72 488q0 125 103.5 210.5t256.5 85.5q44 0 121 -25q25 -8 69 -26l-1 108q0 79 -48 127t-125 48q-117 0 -189 -71q-24 -23 -49 -72l-106 76l34 58q48 69 111 110q89 59 199 59q133 0 231.5 -94.5t98.5 -235.5v-626h-507q-90 0 -148 93 q-51 81 -51 175zM222 476q0 -34 30.5 -68.5t70.5 -34.5h299v186q-36 22 -60 32q-75 33 -138 33q-91 0 -138 -26q-64 -35 -64 -122zM344 1328l137 211h177l-200 -211h-114z" />
<glyph unicode="&#xe2;" horiz-adv-x="854" d="M42 1v153h804v-153h-804zM72 488q0 125 103.5 210.5t256.5 85.5q44 0 121 -25q25 -8 69 -26l-1 108q0 79 -48 127t-125 48q-117 0 -189 -71q-24 -23 -49 -72l-106 76l34 58q48 69 111 110q89 59 199 59q133 0 231.5 -94.5t98.5 -235.5v-626h-507q-90 0 -148 93 q-51 81 -51 175zM222 476q0 -34 30.5 -68.5t70.5 -34.5h299v186q-36 22 -60 32q-75 33 -138 33q-91 0 -138 -26q-64 -35 -64 -122zM232 1322l133 219h180l138 -221h-123l-106 145l-107 -143h-115z" />
<glyph unicode="&#xe3;" horiz-adv-x="854" d="M42 1v153h804v-153h-804zM72 488q0 125 103.5 210.5t256.5 85.5q44 0 121 -25q25 -8 69 -26l-1 108q0 79 -48 127t-125 48q-117 0 -189 -71q-24 -23 -49 -72l-106 76l34 58q48 69 111 110q89 59 199 59q133 0 231.5 -94.5t98.5 -235.5v-626h-507q-90 0 -148 93 q-51 81 -51 175zM183 1294q0 37 5 72t20 71q19 43 47 66q35 28 86 28q31 0 53 -8q38 -14 96 -57q29 -22 50 -33q29 -16 51 -16q32 0 44 31q9 24 9 73h117q0 -101 -31 -163q-40 -79 -125 -79q-70 0 -164 72q-20 17 -46 32t-44 15q-31 0 -44 -37q-9 -26 -9 -67h-115zM222 476 q0 -34 30.5 -68.5t70.5 -34.5h299v186q-36 22 -60 32q-75 33 -138 33q-91 0 -138 -26q-64 -35 -64 -122z" />
<glyph unicode="&#xe4;" horiz-adv-x="854" d="M42 1v153h804v-153h-804zM72 488q0 125 103.5 210.5t256.5 85.5q44 0 121 -25q25 -8 69 -26l-1 108q0 79 -48 127t-125 48q-117 0 -189 -71q-24 -23 -49 -72l-106 76l34 58q48 69 111 110q89 59 199 59q133 0 231.5 -94.5t98.5 -235.5v-626h-507q-90 0 -148 93 q-51 81 -51 175zM188 1412q0 58 32.5 92.5t71.5 34.5q47 0 77 -36t30 -91q0 -54 -29 -88t-76 -34t-76.5 34.5t-29.5 87.5zM222 476q0 -34 30.5 -68.5t70.5 -34.5h299v186q-36 22 -60 32q-75 33 -138 33q-91 0 -138 -26q-64 -35 -64 -122zM511 1412q0 57 35 94q31 33 70 33 q46 0 76 -36t30 -91q0 -54 -29 -88t-75 -34q-47 0 -77 35t-30 87z" />
<glyph unicode="&#xe5;" horiz-adv-x="854" d="M42 1v153h804v-153h-804zM72 488q0 125 103.5 210.5t256.5 85.5q44 0 121 -25q25 -8 69 -26l-1 108q0 79 -48 127t-125 48q-117 0 -189 -71q-24 -23 -49 -72l-106 76l34 58q48 69 111 110q89 59 199 59q133 0 231.5 -94.5t98.5 -235.5v-626h-507q-90 0 -148 93 q-51 81 -51 175zM222 476q0 -34 30.5 -68.5t70.5 -34.5h299v186q-36 22 -60 32q-75 33 -138 33q-91 0 -138 -26q-64 -35 -64 -122zM278 1394q0 68 47 115t115 47q67 0 113.5 -47.5t46.5 -114.5q0 -65 -47 -112t-113 -47q-68 0 -115 46t-47 113zM368 1396q0 -31 20 -51 t50 -20t51 21t21 50q0 28 -21 49t-51 21q-29 0 -49.5 -20.5t-20.5 -49.5z" />
<glyph unicode="&#xe6;" horiz-adv-x="1496" d="M42 1v153h804v-153h-804zM72 488q0 125 103.5 210.5t256.5 85.5q44 0 121 -25q25 -8 69 -26l-1 108q0 79 -48 127t-125 48q-117 0 -189 -71q-24 -23 -49 -72l-106 76l34 58q48 69 111 110q89 59 199 59q133 0 231.5 -94.5t98.5 -235.5v-626h-507q-90 0 -148 93 q-51 81 -51 175zM222 476q0 -34 30.5 -68.5t70.5 -34.5h299v186q-36 22 -60 32q-75 33 -138 33q-91 0 -138 -26q-64 -35 -64 -122zM630 680q0 192 106 334q115 154 294 154q194 0 315 -150.5t121 -401.5h-686q21 -117 102.5 -198.5t187.5 -81.5q73 0 130.5 34.5t97.5 94.5 l120 -82q-62 -90 -145 -138q-91 -53 -203 -53q-177 0 -308.5 147t-131.5 341zM646 1v152h811v-152h-811zM780 760h528q0 114 -80 189t-198 75q-106 0 -178 -78t-72 -186z" />
<glyph unicode="&#xe7;" horiz-adv-x="748" d="M66 463q0 219 118.5 364.5t300.5 145.5q63 0 123 -18q36 -11 92 -37v-205q-46 36 -74 54q-54 34 -112 34q-115 0 -185.5 -95t-70.5 -231q0 -137 69 -230t173 -93q48 0 94.5 20.5t105.5 69.5v-201q-60 -32 -104 -46.5t-98 -14.5v-101h45q78 0 130 -38q58 -42 58 -115 q0 -82 -67.5 -135.5t-174.5 -53.5q-45 0 -90 11q-24 6 -69 22v115q30 -19 55 -29q40 -16 86 -16q49 0 87 21t38 56q0 40 -45 57q-30 11 -74 11h-84v203q-155 30 -243 164q-84 127 -84 311z" />
<glyph unicode="&#xe8;" horiz-adv-x="897" d="M32 680q0 192 106 334q115 154 294 154q194 0 315 -150.5t121 -401.5h-686q21 -117 102.5 -198.5t187.5 -81.5q73 0 130.5 34.5t97.5 94.5l120 -82q-62 -90 -145 -138q-91 -53 -203 -53q-177 0 -308.5 147t-131.5 341zM48 1v152h811v-152h-811zM182 760h528 q0 114 -80 189t-198 75q-106 0 -178 -78t-72 -186zM282 1528l163 -1l191 -214h-162z" />
<glyph unicode="&#xe9;" horiz-adv-x="897" d="M32 680q0 192 106 334q115 154 294 154q194 0 315 -150.5t121 -401.5h-686q21 -117 102.5 -198.5t187.5 -81.5q73 0 130.5 34.5t97.5 94.5l120 -82q-62 -90 -145 -138q-91 -53 -203 -53q-177 0 -308.5 147t-131.5 341zM48 1v152h811v-152h-811zM182 760h528 q0 114 -80 189t-198 75q-106 0 -178 -78t-72 -186zM311 1325l148 219h189l-214 -219h-123z" />
<glyph unicode="&#xea;" horiz-adv-x="897" d="M32 680q0 192 106 334q115 154 294 154q194 0 315 -150.5t121 -401.5h-686q21 -117 102.5 -198.5t187.5 -81.5q73 0 130.5 34.5t97.5 94.5l120 -82q-62 -90 -145 -138q-91 -53 -203 -53q-177 0 -308.5 147t-131.5 341zM48 1v152h811v-152h-811zM182 760h528 q0 114 -80 189t-198 75q-106 0 -178 -78t-72 -186zM216 1329l131 204h178l137 -205h-122l-104 134l-107 -133h-113z" />
<glyph unicode="&#xeb;" horiz-adv-x="897" d="M32 680q0 192 106 334q115 154 294 154q194 0 315 -150.5t121 -401.5h-686q21 -117 102.5 -198.5t187.5 -81.5q73 0 130.5 34.5t97.5 94.5l120 -82q-62 -90 -145 -138q-91 -53 -203 -53q-177 0 -308.5 147t-131.5 341zM48 1v152h811v-152h-811zM182 760h528 q0 114 -80 189t-198 75q-106 0 -178 -78t-72 -186zM199 1412q0 58 32.5 92.5t71.5 34.5q47 0 77 -36t30 -91q0 -54 -29 -88t-76 -34t-76.5 34.5t-29.5 87.5zM522 1412q0 57 35 94q31 33 70 33q46 0 76 -36t30 -91q0 -54 -29 -88t-75 -34q-47 0 -77 35t-30 87z" />
<glyph unicode="&#xec;" horiz-adv-x="426" d="M31 1368l163 -1l191 -214h-162zM144 3v1055h156v-1055h-156z" />
<glyph unicode="&#xed;" horiz-adv-x="426" d="M72 1112l155 250h198l-224 -250h-129zM112 3v1055h156v-1055h-156z" />
<glyph unicode="&#xee;" horiz-adv-x="426" d="M-5 1131l137 234h185l142 -236h-126l-109 155l-111 -153h-118zM128 3v1055h156v-1055h-156z" />
<glyph unicode="&#xef;" horiz-adv-x="426" d="M-20 1236q0 58 32.5 92.5t71.5 34.5q47 0 77 -36t30 -91q0 -54 -29 -88t-76 -34t-76.5 34.5t-29.5 87.5zM136 3v1055h156v-1055h-156zM303 1236q0 57 35 94q31 33 70 33q46 0 76 -36t30 -91q0 -54 -29 -88t-75 -34q-47 0 -77 35t-30 87z" />
<glyph unicode="&#xf0;" horiz-adv-x="961" d="M74 479q0 214 106.5 354t274.5 140q66 0 114 -26q31 -16 58 -46l4 4q-25 86 -45 133t-66 125l-241 -92l-46 115l222 88q-28 44 -49 71t-44 50h205q10 -12 23.5 -30t21.5 -32l150 62l47 -121l-123 -45q44 -78 77 -151q54 -118 83 -233q39 -153 39 -302q0 -244 -109 -399 q-115 -164 -307 -164q-180 0 -290 147q-105 140 -105 352zM254 473q0 -137 56 -230q62 -102 163 -102q100 0 155 103q48 90 48 221q0 149 -59 247.5t-146 98.5q-121 0 -177 -124q-40 -88 -40 -214z" />
<glyph unicode="&#xf1;" horiz-adv-x="918" d="M44 -3v1177h157v-103q77 50 134 63.5t161 13.5q138 0 254 -77q132 -88 132 -221v-849h-153v774q0 93 -56 157q-64 73 -182 73q-136 0 -215 -64q-75 -61 -75 -157v-787h-157zM151 1302q0 37 5 72t20 71q19 43 47 66q35 28 86 28q31 0 53 -8q38 -14 96 -57q29 -22 50 -33 q29 -16 51 -16q32 0 44 31q9 24 9 73h117q0 -101 -31 -163q-40 -79 -125 -79q-70 0 -164 72q-20 17 -46 32t-44 15q-31 0 -44 -37q-9 -26 -9 -67h-115z" />
<glyph unicode="&#xf2;" horiz-adv-x="938" d="M44 707q0 204 119 339q125 142 329 142q198 0 326 -146q122 -139 122 -335q0 -208 -118 -342q-124 -141 -331 -141q-199 0 -326 146q-121 139 -121 337zM111 3v153h757v-153h-757zM208 707q0 -138 71 -228q78 -99 214 -99q133 0 214 96q77 91 77 231q0 132 -74 224 q-81 101 -219 101q-126 0 -207 -100q-76 -94 -76 -225zM308 1536l163 -1l191 -214h-162z" />
<glyph unicode="&#xf3;" horiz-adv-x="938" d="M44 707q0 204 119 339q125 142 329 142q198 0 326 -146q122 -139 122 -335q0 -208 -118 -342q-124 -141 -331 -141q-199 0 -326 146q-121 139 -121 337zM111 3v153h757v-153h-757zM208 707q0 -138 71 -228q78 -99 214 -99q133 0 214 96q77 91 77 231q0 132 -74 224 q-81 101 -219 101q-126 0 -207 -100q-76 -94 -76 -225zM368 1328l139 210h179l-202 -210h-116z" />
<glyph unicode="&#xf4;" horiz-adv-x="938" d="M44 707q0 204 119 339q125 142 329 142q198 0 326 -146q122 -139 122 -335q0 -208 -118 -342q-124 -141 -331 -141q-199 0 -326 146q-121 139 -121 337zM111 3v153h757v-153h-757zM208 707q0 -138 71 -228q78 -99 214 -99q133 0 214 96q77 91 77 231q0 132 -74 224 q-81 101 -219 101q-126 0 -207 -100q-76 -94 -76 -225zM256 1314l135 219h181l140 -221h-124l-107 145l-109 -143h-116z" />
<glyph unicode="&#xf5;" horiz-adv-x="938" d="M44 707q0 204 119 339q125 142 329 142q198 0 326 -146q122 -139 122 -335q0 -208 -118 -342q-124 -141 -331 -141q-199 0 -326 146q-121 139 -121 337zM111 3v153h757v-153h-757zM172 1302q0 37 5 72t20 71q19 43 47 66q35 28 86 28q31 0 53 -8q38 -14 96 -57 q29 -22 50 -33q29 -16 51 -16q32 0 44 31q9 24 9 73h117q0 -101 -31 -163q-40 -79 -125 -79q-70 0 -164 72q-20 17 -46 32t-44 15q-31 0 -44 -37q-9 -26 -9 -67h-115zM208 707q0 -138 71 -228q78 -99 214 -99q133 0 214 96q77 91 77 231q0 132 -74 224q-81 101 -219 101 q-126 0 -207 -100q-76 -94 -76 -225z" />
<glyph unicode="&#xf6;" horiz-adv-x="938" d="M44 707q0 204 119 339q125 142 329 142q198 0 326 -146q122 -139 122 -335q0 -208 -118 -342q-124 -141 -331 -141q-199 0 -326 146q-121 139 -121 337zM111 3v153h757v-153h-757zM208 707q0 -138 71 -228q78 -99 214 -99q133 0 214 96q77 91 77 231q0 132 -74 224 q-81 101 -219 101q-126 0 -207 -100q-76 -94 -76 -225zM209 1420q0 58 32.5 92.5t71.5 34.5q47 0 77 -36t30 -91q0 -54 -29 -88t-76 -34t-76.5 34.5t-29.5 87.5zM532 1420q0 57 35 94q31 33 70 33q46 0 76 -36t30 -91q0 -54 -29 -88t-75 -34q-47 0 -77 35t-30 87z" />
<glyph unicode="&#xf8;" horiz-adv-x="918" d="M59 467q0 223 108.5 364.5t283.5 141.5q48 0 95 -12q27 -7 60 -21l49 100h140l-82 -178q65 -73 96 -139q49 -103 49 -240q0 -214 -105 -353q-114 -150 -309 -150q-74 0 -135 20l-51 -96h-139l82 174q-59 66 -89 130q-53 112 -53 259zM242 471q0 -78 15 -141q8 -35 26 -76 l256 539q-24 10 -37 14q-27 8 -51 8q-34 0 -70 -19q-28 -15 -49 -36q-90 -90 -90 -289zM377 156q19 -11 38.5 -15t39.5 -4q110 0 169 103q52 90 52 227q0 64 -11.5 120.5t-33.5 100.5z" />
<glyph unicode="&#xf9;" horiz-adv-x="918" d="M81 357v817h162v-812q0 -142 50 -201q55 -64 192 -64q143 0 195 64q47 58 47 206v807h148v-803q0 -177 -50 -272q-45 -85 -136 -117q-71 -25 -204 -25q-128 0 -201 24q-97 32 -147 114q-56 92 -56 262zM271 1536l163 -1l191 -214h-162z" />
<glyph unicode="&#xfa;" horiz-adv-x="918" d="M81 357v817h162v-812q0 -142 50 -201q55 -64 192 -64q143 0 195 64q47 58 47 206v807h148v-803q0 -177 -50 -272q-45 -85 -136 -117q-71 -25 -204 -25q-128 0 -201 24q-97 32 -147 114q-56 92 -56 262zM352 1312l130 234h167l-189 -234h-108z" />
<glyph unicode="&#xfb;" horiz-adv-x="918" d="M81 357v817h162v-812q0 -142 50 -201q55 -64 192 -64q143 0 195 64q47 58 47 206v807h148v-803q0 -177 -50 -272q-45 -85 -136 -117q-71 -25 -204 -25q-128 0 -201 24q-97 32 -147 114q-56 92 -56 262zM272 1314l124 211h167l128 -213h-114l-98 140l-100 -138h-107z" />
<glyph unicode="&#xfc;" horiz-adv-x="918" d="M81 357v817h162v-812q0 -142 50 -201q55 -64 192 -64q143 0 195 64q47 58 47 206v807h148v-803q0 -177 -50 -272q-45 -85 -136 -117q-71 -25 -204 -25q-128 0 -201 24q-97 32 -147 114q-56 92 -56 262zM204 1412q0 58 32.5 92.5t71.5 34.5q47 0 77 -36t30 -91 q0 -54 -29 -88t-76 -34t-76.5 34.5t-29.5 87.5zM527 1412q0 57 35 94q31 33 70 33q46 0 76 -36t30 -91q0 -54 -29 -88t-75 -34q-47 0 -77 35t-30 87z" />
<glyph unicode="&#xfd;" horiz-adv-x="854" d="M41 1176h194l274 -625l233 625h177l-335 -876q-51 -132 -68 -171q-25 -57 -47 -97q-52 -92 -144 -144q-70 -40 -194 -70l-38 151q96 24 137 44q67 33 104 96q9 16 48 122q13 35 38 104zM472 1320l144 218h185l-209 -218h-120z" />
<glyph unicode="&#xfe;" horiz-adv-x="938" d="M109 -444v1839h188l-4 -544q41 41 69 61q86 61 173 61q145 0 240 -141.5t95 -346.5q0 -230 -117 -374q-106 -131 -251 -131q-70 0 -128 37q-34 22 -77 69v-530h-188zM297 266q24 -39 54 -66q54 -48 114 -48q92 0 152.5 98t60.5 237q0 128 -51 218q-55 96 -142 96 q-84 0 -136 -85.5t-52 -209.5v-240z" />
<glyph unicode="&#xff;" horiz-adv-x="854" d="M41 1176h194l274 -625l233 625h177l-335 -876q-51 -132 -68 -171q-25 -57 -47 -97q-52 -92 -144 -144q-70 -40 -194 -70l-38 151q96 24 137 44q67 33 104 96q9 16 48 122q13 35 38 104zM324 1412q0 58 32.5 92.5t71.5 34.5q47 0 77 -36t30 -91q0 -54 -29 -88t-76 -34 t-76.5 34.5t-29.5 87.5zM647 1412q0 57 35 94q31 33 70 33q46 0 76 -36t30 -91q0 -54 -29 -88t-75 -34q-47 0 -77 35t-30 87z" />
<glyph unicode="&#x152;" horiz-adv-x="1642" d="M78 692q0 179 44 330q51 177 151 277q115 116 284 116q100 0 174 -39q44 -23 105 -82v101h743v-185h-541v-393h510v-176h-510v-457h541v-184h-743v96q-59 -53 -99 -74q-79 -42 -180 -42q-175 0 -290 116q-98 99 -148 276q-41 146 -41 320zM281 698q0 -250 67 -389 q72 -149 209 -149q140 0 214 153q69 143 69 389q0 276 -84 415q-71 118 -185 118q-119 0 -190 -97q-57 -79 -82 -217q-18 -101 -18 -223z" />
<glyph unicode="&#x153;" horiz-adv-x="1648" d="M44 707q0 204 119 339q125 142 329 142q198 0 326 -146q122 -139 122 -335q0 -208 -118 -342q-124 -141 -331 -141q-199 0 -326 146q-121 139 -121 337zM111 3v153h757v-153h-757zM208 707q0 -138 71 -228q78 -99 214 -99q133 0 214 96q77 91 77 231q0 132 -74 224 q-81 101 -219 101q-126 0 -207 -100q-76 -94 -76 -225zM798 688q0 192 106 334q115 154 294 154q194 0 315 -150.5t121 -401.5h-686q21 -117 102.5 -198.5t187.5 -81.5q73 0 130.5 34.5t97.5 94.5l120 -82q-62 -90 -145 -138q-91 -53 -203 -53q-177 0 -308.5 147t-131.5 341 zM814 9v152h811v-152h-811zM948 768h528q0 114 -80 189t-198 75q-106 0 -178 -78t-72 -186z" />
<glyph unicode="&#x178;" horiz-adv-x="918" d="M47 1363h169l318 -509l298 509h160l-374 -655v-708h-154v704zM284 1563q0 58 32.5 92.5t71.5 34.5q47 0 77 -36t30 -91q0 -54 -29 -88t-76 -34t-76.5 34.5t-29.5 87.5zM607 1563q0 57 35 94q31 33 70 33q46 0 76 -36t30 -91q0 -54 -29 -88t-75 -34q-47 0 -77 35t-30 87z " />
<glyph unicode="&#x2c6;" horiz-adv-x="682" d="M113 1131l137 234h185l142 -236h-126l-109 155l-111 -153h-118z" />
<glyph unicode="&#x2dc;" horiz-adv-x="682" d="M53 1102q0 37 5 72t20 71q19 43 47 66q35 28 86 28q31 0 53 -8q38 -14 96 -57q29 -22 50 -33q29 -16 51 -16q32 0 44 31q9 24 9 73h117q0 -101 -31 -163q-40 -79 -125 -79q-70 0 -164 72q-20 17 -46 32t-44 15q-31 0 -44 -37q-9 -26 -9 -67h-115z" />
<glyph unicode="&#x2000;" horiz-adv-x="848" />
<glyph unicode="&#x2001;" horiz-adv-x="1697" />
<glyph unicode="&#x2002;" horiz-adv-x="848" />
<glyph unicode="&#x2003;" horiz-adv-x="1697" />
<glyph unicode="&#x2004;" horiz-adv-x="565" />
<glyph unicode="&#x2005;" horiz-adv-x="424" />
<glyph unicode="&#x2006;" horiz-adv-x="282" />
<glyph unicode="&#x2007;" horiz-adv-x="282" />
<glyph unicode="&#x2008;" horiz-adv-x="212" />
<glyph unicode="&#x2009;" horiz-adv-x="339" />
<glyph unicode="&#x200a;" horiz-adv-x="94" />
<glyph unicode="&#x2010;" horiz-adv-x="1042" d="M133 799v155h810v-155h-810z" />
<glyph unicode="&#x2011;" horiz-adv-x="1042" d="M133 799v155h810v-155h-810z" />
<glyph unicode="&#x2012;" horiz-adv-x="1042" d="M133 799v155h810v-155h-810z" />
<glyph unicode="&#x2013;" horiz-adv-x="1024" d="M-12 453v129h1048v-129h-1048z" />
<glyph unicode="&#x2014;" horiz-adv-x="2048" d="M-12 453v129h2072v-129h-2072z" />
<glyph unicode="&#x2018;" horiz-adv-x="378" d="M24 1529q16 -3 30 -4t29 -1h22t23 1q19 0 57 -5l157 -249h-147z" />
<glyph unicode="&#x2019;" horiz-adv-x="420" d="M24 1271l157 249h14.5h18.5q41 0 68.5 1.5t59.5 7.5l-171 -258h-147z" />
<glyph unicode="&#x201a;" horiz-adv-x="378" d="M24 49l151 -1l157 -257h-137z" />
<glyph unicode="&#x201c;" horiz-adv-x="584" d="M24 1529q15 -2 28.5 -3.5t25.5 -1.5h18t19 1q16 0 54 -5l173 -249h-147zM280 1529q15 -2 28.5 -3.5t25.5 -1.5h18t19 1q16 0 54 -5l173 -249h-147z" />
<glyph unicode="&#x201d;" horiz-adv-x="624" d="M0 0zM24 1271l173 249q17 3 31 4t27 1q9 0 18 -0.5t19 -0.5q9 0 21.5 1t28.5 4l-171 -258h-147zM280 1271l173 249q17 3 31 4t27 1q9 0 18 -0.5t19 -0.5q9 0 21.5 1t28.5 4l-171 -258h-147z" />
<glyph unicode="&#x201e;" horiz-adv-x="584" d="M32 85q15 -2 28.5 -3.5t25.5 -1.5h18t19 1q16 0 54 -5l173 -249h-147zM288 85q15 -2 28.5 -3.5t25.5 -1.5h18t19 1q16 0 54 -5l173 -249h-147z" />
<glyph unicode="&#x2022;" horiz-adv-x="672" d="M21 636q0 123 90.5 218.5t219.5 95.5q131 0 228.5 -93.5t97.5 -226.5q0 -126 -91.5 -219.5t-214.5 -93.5q-135 0 -232.5 96.5t-97.5 222.5z" />
<glyph unicode="&#x2026;" horiz-adv-x="2048" d="M231 109q0 52 33 86t76 34q51 0 83 -33t32 -81q0 -52 -32.5 -88.5t-82.5 -36.5q-45 0 -77 34t-32 85zM911 109q0 52 33 86t76 34q51 0 83 -33t32 -81q0 -52 -33 -88.5t-82 -36.5q-47 0 -78 34t-31 85zM1591 109q0 52 33 86t76 34q50 0 82.5 -33.5t32.5 -80.5 q0 -52 -33 -88.5t-82 -36.5q-47 0 -78 34t-31 85z" />
<glyph unicode="&#x202f;" horiz-adv-x="339" />
<glyph unicode="&#x2039;" horiz-adv-x="406" d="M104 477l107 314h125l-107 -314l107 -317h-125z" />
<glyph unicode="&#x203a;" horiz-adv-x="406" d="M70 160l106 317l-106 314h125l106 -314l-106 -317h-125z" />
<glyph unicode="&#x205f;" horiz-adv-x="424" />
<glyph unicode="&#x2122;" horiz-adv-x="1008" d="M0 1154v79h376v-79h-145v-485h-85v485h-146zM458 669v564h120l133 -399l137 399h118v-564h-74l-2 485l-158 -485h-44l-157 485v-485h-73z" />
<glyph unicode="&#x25fc;" horiz-adv-x="1175" d="M0 0v1175h1175v-1175h-1175z" />
</font>
</defs>
</svg>
