<?xml version="1.0" standalone="no"?>
<!DOCTYPE svg PUBLIC "-//W3C//DTD SVG 1.1//EN" "http://www.w3.org/Graphics/SVG/1.1/DTD/svg11.dtd" >
<svg xmlns="http://www.w3.org/2000/svg" xmlns:xlink="http://www.w3.org/1999/xlink" version="1.1">
<metadata></metadata>
<defs>
<font id="besleybook" horiz-adv-x="1085" >
<font-face units-per-em="2048" ascent="1638" descent="-410" />
<missing-glyph horiz-adv-x="614" />
<glyph unicode="&#xfb01;" horiz-adv-x="1320" d="M61 68q0 26 9 37q8 10 30 10q12 0 24 -1t28 -1h28q46 0 56 12q10 11 10 70v692q0 41 -16 54q-14 11 -74 11q-17 0 -29 -1t-25 -1q-20 0 -30 9q-11 9 -11 38q0 41 16 55q14 13 46 13h33q56 0 73 21q17 22 17 85q0 198 112 322q113 125 332 125q178 0 282 -68 q103 -67 103 -159q0 -67 -33 -101q-33 -35 -88 -35q-52 0 -86 28q-32 26 -32 71q0 32 21 65q22 35 22 51q0 56 -164 56q-153 0 -219 -94t-66 -306q0 -39 14 -52t45 -13q1 0 37 2t43 2h490q32 0 39 -11q8 -13 8 -57v-794q0 -68 11 -79t79 -11h39q34 0 45 -13q10 -11 10 -61 q0 -41 -37 -41q-12 0 -24 1t-29 1h-412q-36 0 -44 8q-7 7 -7 51q0 38 7 45q9 9 36 9h80q39 0 52 14q14 16 14 43q0 3 -2 35t-2 39v653q0 34 -14 45q-13 10 -64 10h-340q-50 0 -62 -9t-12 -44v-704q0 -16 -1 -26t-1 -22q0 -18 8 -26t35 -8h160q32 0 39 -5q6 -4 6 -34v-11 q0 -42 -10 -53q-10 -12 -39 -12q-12 0 -24 1t-30 1h-456q-40 0 -47 10q-9 13 -9 58z" />
<glyph unicode="&#xfb02;" horiz-adv-x="1392" d="M61 57q0 39 8 47q9 9 35 9h93q53 0 53 51q0 1 -2 31t-2 34v574l2 40q2 40 2 44q0 65 -37 65h-86q-49 0 -57 10q-9 11 -9 58q0 28 6 38q4 7 25 7h111q28 0 36 8q7 7 7 45v53q0 207 120 327t345 120q144 0 243 -51q67 -35 70 -35q12 0 57 33q8 6 28 24q18 17 30 27 q11 10 20 10q19 0 19 -57v-1295q0 -28 -1 -48t-1 -40q0 -40 18 -57q17 -16 76 -16q14 0 26 1t27 1q39 0 39 -29v-33q0 -35 -12 -44t-60 -9h-444q-22 0 -30 8q-7 7 -7 41q0 42 8 53t39 11h84q33 0 43 13t10 62v992q0 17 1 28t1 21q0 16 -8 21t-33 5q-52 0 -86 28 q-32 26 -32 71q0 32 21 65q22 35 22 51q0 56 -164 56q-161 0 -223 -96q-62 -97 -62 -304v-28q0 -21 8 -27t37 -6h193q30 0 41 -8q10 -7 10 -29q0 -10 -1 -20t-1 -25q0 -33 -27 -33q-7 0 -15 1t-20 1h-147q-56 0 -67 -10t-11 -63v-703q0 -43 13 -53t73 -10h74q15 0 26 1t23 1 q37 0 37 -37q0 -58 -9 -68t-63 -10h-495q-31 0 -39 9q-9 11 -9 48z" />
<glyph unicode="&#xfb03;" horiz-adv-x="2037" d="M61 57q0 36 8 46t31 10h93q33 0 44 10t11 35q0 14 -1 27t-1 32v643q0 63 -12 78q-11 14 -56 14h-43q-12 0 -22 -1t-19 -1q-17 0 -25 8t-8 37q0 43 14 59q14 15 44 15q2 0 6.5 -0.5t13 -1t15.5 -0.5q36 -2 43 -2q31 0 41 11t10 34q0 15 -1 29t-1 32h2q12 184 133 295 q122 111 309 111q125 0 221 -51q34 -19 56 -39q15 -14 31 -30q9 -9 16 -9q8 0 69 63q123 127 344 127q177 0 270 -74q95 -75 95 -173q0 -67 -33 -101q-33 -35 -88 -35q-52 0 -86 28q-33 27 -33 71q0 30 22 65q21 33 21 51q0 17 -13 37q-13 21 -53 40q-42 20 -97 20 q-160 0 -223 -114q-62 -112 -62 -327q0 -39 9 -51t36 -12q13 0 26 1t31 1h463q5 0 35 2t31 2q45 0 45 -49v-840q0 -42 12 -56q12 -13 43 -13q16 0 32 1t40 1h10q34 0 41 -9q6 -8 6 -47q0 -36 -12 -48q-11 -11 -37 -11q-15 0 -29 1t-33 1h-372q-13 0 -22 -1t-17 -1 q-19 0 -25 9t-6 38q0 44 11 56q12 14 40 14q13 0 25 -1t31 -1q49 0 65 18q16 17 16 55l-2 46q-2 46 -2 55v540q0 24 1 39t1 31q0 32 -14 43q-15 12 -61 12h-363q-37 0 -46 -13t-9 -67v-692q0 -44 11 -56q12 -13 40 -13q13 0 27 1t32 1h91q31 0 38 -5t7 -28v-19q0 -40 -8 -51 q-7 -10 -35 -10h-543q-20 0 -24 7q-5 8 -5 34q0 51 9 61q9 11 59 11h88q31 0 31 43q0 14 -1 26t-1 27v670q0 53 -12 63q-11 10 -70 10h-381q-47 0 -59 -11q-13 -12 -13 -40q0 -11 1 -23t1 -30v-627q0 -19 -1 -31t-1 -24q0 -33 14 -43t66 -10h65q6 0 32 2t28 2q43 0 43 -47 v-27q0 -29 -9 -36q-8 -7 -49 -7h-516q-25 0 -32 10q-9 13 -9 47zM430 1085q0 -22 25 -22q7 0 15 1t17 1h406q12 0 21 -1t18 -1q18 0 24 9q7 10 7 38v57q0 39 -19 39h-10q-13 0 -21 8q-52 0 -86 28q-32 26 -32 71q0 32 21 65q22 35 22 52q0 19 -41 37t-103 18 q-264 0 -264 -400z" />
<glyph unicode="&#xfb04;" horiz-adv-x="2037" d="M61 47v10q0 39 9 48q8 8 53 8h57q43 0 55 9q11 8 11 38v698q0 17 1 29t1 24q0 41 -45 41h-82q-42 0 -50 7q-10 8 -10 36v27q0 47 48 47q2 0 5.5 -0.5t10.5 -1t12 -0.5q28 -2 33 -2q50 0 62 11q14 12 14 44v51h2q12 184 133 295q122 111 309 111q148 0 248 -68 q24 -16 34 -25t22 -21q6 -6 14 -12q7 -5 10 -5q4 0 10 6q1 1 23 25t34 36q122 125 342 125q129 0 218 -43q3 -2 23 -15q16 -10 24 -14q12 -5 18 -5q14 0 25 10l65 51q13 8 17 8q10 0 10 -24q0 -2 -2 -30t-2 -34v-1374q0 -40 10 -47q11 -8 57 -8h49q13 0 21 1t16 1 q31 0 31 -35v-41q0 -25 -10 -32t-45 -7h-434q-48 0 -56 8t-8 55q0 31 9 41q9 11 32 11q13 0 25 -1t30 -1q60 0 74 11t14 54v979q0 41 -4 60t-9 27q-4 7 -22 22q-19 16 -28 26q-23 28 -23 62q0 30 22 65q21 33 21 51q0 17 -13 37q-13 21 -53 40q-42 20 -97 20 q-160 0 -223 -114q-62 -112 -62 -327q0 -38 12 -52q12 -13 41 -13l32 2q32 2 40 2h141q29 0 35 -7q6 -8 6 -44q0 -42 -8 -52t-49 -10h-213q-25 0 -31 -9t-6 -44v-727q0 -44 9 -51q10 -8 58 -8h129q34 0 42 -10t8 -52q0 -32 -8 -42q-7 -9 -29 -9h-529q-34 0 -41 10 q-8 11 -8 53v19q0 22 6 27q5 4 37 4h70q47 0 60 8q12 7 12 43v678q0 18 1 30t1 25q0 32 -15 44q-14 11 -63 11h-377q-60 0 -70 -11t-10 -71v-671q0 -63 10 -74q10 -12 60 -12h114q12 0 20 1t15 1q27 0 27 -35q0 -15 1 -24t1 -19q0 -22 -10 -29q-11 -8 -41 -8h-480 q-17 0 -28 -1t-21 -1q-21 0 -28 10q-9 13 -9 39zM430 1085q0 -22 23 -22q7 0 13 1t15 1h385q19 0 31 -1t25 -1q22 0 31 10q10 12 10 43v68q0 35 -11 35l-2 -1q-2 0 -5.5 -0.5t-6.5 -0.5q-24 -3 -25 -3q-52 0 -86 28q-32 26 -32 71q0 32 21 65q22 35 22 52q0 19 -41 37 t-103 18q-264 0 -264 -400z" />
<glyph horiz-adv-x="0" />
<glyph unicode="&#xd;" horiz-adv-x="681" />
<glyph unicode=" "  horiz-adv-x="614" />
<glyph unicode="&#x09;" horiz-adv-x="614" />
<glyph unicode="&#xa0;" horiz-adv-x="614" />
<glyph unicode="!" horiz-adv-x="653" d="M205 100q0 51 35 86t86 35t86 -35q34 -34 34 -86t-34 -86t-86 -34t-86 34q-35 35 -35 86zM205 1350v39q0 163 121 163q123 0 123 -163q0 -3 -2 -19q-1 -8 -1 -20q-7 -123 -43 -398q-34 -259 -34 -401q0 -15 1 -28t1 -29q0 -68 -39 -68q-49 0 -49 63v70q-5 111 -37 380 q-31 265 -41 411z" />
<glyph unicode="&#x22;" horiz-adv-x="716" d="M100 1427q0 59 29 93q28 32 74 32q45 0 73 -32q29 -34 29 -93q0 -16 -2 -36q-6 -45 -31 -167q-21 -103 -28 -163v-21q0 -23 -4 -31q-5 -10 -15 -10h-30q-20 0 -27 7q-6 6 -6 20v31q-5 60 -28 167q-25 116 -32 167q-2 20 -2 36zM408 1427q0 61 28 93t74 32t74 -32t28 -93 q0 -16 -2 -36q-8 -58 -30 -167q-23 -114 -29 -163v-21q0 -23 -4 -31q-5 -10 -15 -10h-30q-20 0 -27 7q-6 6 -6 20v31q-5 60 -28 167q-22 104 -31 167q-2 20 -2 36z" />
<glyph unicode="#" horiz-adv-x="1351" d="M-20 512q0 39 9 51t36 12q12 0 24 -1t29 -1h196q21 0 43 2q17 2 25 16q10 17 10 19q1 6 3 34q2 29 3 40l25 209q0 13 3 32t3 27q0 29 -17 35q-18 6 -81 6h-180q-13 0 -22 -1t-17 -1q-31 0 -31 41q0 54 9 64t59 10h231q24 0 44 5q17 4 25 21q7 15 9 24q1 9 3 38q1 27 3 43 l37 319q2 14 2 30q0 18 2 28q1 3 7 18q5 11 16 14q12 3 32 3q62 0 62 -31q0 -2 -1 -9.5t-3.5 -23t-4.5 -29.5l-45 -376q-4 -36 -4 -45q0 -19 13 -24t57 -5h213q55 0 64 10q10 12 16 66l51 424q5 32 10 37q6 6 35 6h12q60 0 60 -43q0 -15 -7 -43q-9 -36 -10 -47l-34 -302 q0 -3 -2 -12.5t-3 -14.5q-1 -6 -2.5 -15.5t-1.5 -10.5q-2 -14 -2 -18q0 -37 72 -37h258q33 0 41 -6t8 -31v-27q0 -30 -8 -41q-7 -10 -29 -10q-10 0 -20 1t-25 1h-225q-27 0 -51 -2q-18 -2 -29 -17q-10 -14 -12 -21q-3 -8 -4 -40q-1 -23 -4 -47l-29 -243q0 -7 -1 -12t-1 -9 q0 -31 33 -31q9 0 20 1t29 1h217q14 0 23 1t20 1q19 0 27 -8t8 -35q0 -46 -10 -59q-9 -12 -41 -12h-265q-22 0 -30 -1q-4 0 -11.5 -0.5t-10.5 -1.5q-10 -2 -15 -7l-4 -4l-5 -5q-5 -2 -6 -13t-3 -16q-1 -4 -3 -23q-2 -24 -2 -25l-39 -328q-2 -16 -2 -38q0 -31 -1 -42 q-1 -16 -6 -34q-4 -17 -18 -26q-15 -10 -36 -10q-64 0 -64 31q0 1 1 7.5t3.5 20.5t4.5 29l47 414q4 33 4 41q0 21 -13 26t-53 5h-213q-23 0 -38 -3q-16 -3 -23 -6q-9 -4 -14 -16q-3 -8 -6 -17q0 -1 -2 -29q-1 -23 -3 -34l-47 -393q-1 -7 -3 -23q0 -4 -0.5 -8.5t-1 -7.5 t-0.5 -4t-1.5 -5.5l-2.5 -7.5q-3 -8 -6 -10l-12 -6q-7 -4 -18 -4h-27q-47 0 -47 23q0 5 3 20t3 25l45 385q0 4 2 15t3 17q1 7 2.5 16.5t1.5 11.5q2 16 2 20q0 23 -17 32t-63 9h-184q-18 0 -29 -1t-21 -1q-21 0 -28 10q-8 11 -8 43zM461 598q0 -15 10 -19q14 -6 45 -6h217 q23 0 32 1t23 3q12 2 17 7l9 9q3 3 6 14l2.5 10t1.5 8l2 23q1 17 3 28l29 248q4 33 4 41q0 19 -12 24q-11 4 -59 4h-252q-19 0 -26 -6t-9 -29l-39 -323q-4 -29 -4 -37z" />
<glyph unicode="$" horiz-adv-x="1351" d="M94 381q0 67 40 101t91 34q45 0 81 -33t36 -86q0 -41 -33 -75t-33 -56q0 -38 49 -84q47 -44 142 -71q49 -15 65 -15q26 0 33 21q9 25 13 76l24 372q0 17 3 48q3 32 3 44q0 34 -16 51q-13 15 -64 31q-171 46 -268 134q-96 87 -96 264q0 203 144 311t347 108q15 0 15 46 l4 86q0 5 2 11t3 7q1 2 6 3q3 1 8 1h12h12q44 0 57 -5q12 -5 12 -30q0 -7 -1 -15t-1 -17l-4 -48v-14q0 -15 4 -22q6 -10 10 -11q9 -3 21 -4q5 0 10 -1l10 -2t7 -1q334 -67 334 -354q0 -68 -40 -102q-39 -33 -92 -33q-45 0 -80 32q-36 33 -36 86q0 43 32 76q33 35 33 55 q0 35 -37 72t-108 58q-45 12 -51 12q-29 0 -31 -66l-21 -340q-2 -36 -2 -63q0 -37 15 -49q16 -13 69 -27q95 -23 159 -51t131 -79q63 -48 98 -132q34 -81 34 -195q0 -192 -115 -310q-114 -117 -335 -144q-15 -1 -43 -3q-6 0 -19 -0.5t-17 -1.5q-11 -1 -24 -8q-13 -6 -17 -21 q-6 -19 -7 -42v-25q0 -16 -1 -20q-1 -2 -1.5 -7.5t-0.5 -7.5q-2 -9 -5 -11q-2 -1 -6 -3.5t-6 -3.5q-6 -3 -18 -5q-8 -1 -28 -1q-28 0 -39 8q-10 7 -10 29q0 23 1 41t1 33q0 12 -1 17q0 2 -0.5 6t-1.5 6q-2 4 -6 9l-7 7q-2 2 -13 5l-14 4q-2 1 -20 4l-25 5q-183 37 -280 139 q-97 101 -97 242zM348 1198q0 -163 193 -229q46 -17 59 -17q11 0 15 4q6 6 10 18q3 10 5 26q1 13 3 44l20 308v30q0 37 -8 53q-7 15 -31 15q-22 0 -71 -14q-96 -27 -145 -90q-50 -64 -50 -148zM688 156q0 -41 10 -55q10 -15 37 -15t76 12q126 30 190 113q64 84 64 178 q0 107 -57 168q-55 60 -164 98q-4 1 -14.5 5.5l-17.5 7.5q-5 2 -16.5 6.5t-16.5 6.5q-15 5 -23 5q-38 0 -39 -63l-27 -414q-2 -28 -2 -53z" />
<glyph unicode="%" horiz-adv-x="2048" d="M72 1106q0 214 114 332t295 118t295 -118q115 -120 115 -332q0 -208 -126 -329q-127 -122 -284 -122q-181 0 -295 119q-114 118 -114 332zM297 1106q0 -174 39 -261t145 -87q107 0 146 87t39 261t-39 261t-146 87q-106 0 -145 -87t-39 -261zM502 27q0 10 7 23q8 14 22 34 q18 26 22 33l813 1306q2 2 20 37q11 20 23 40q7 11 30 24q21 12 52 12q55 0 55 -27q0 -10 -7 -23q-10 -18 -22 -36q-14 -21 -22 -31l-797 -1294q-6 -11 -21 -42t-26 -44q-12 -14 -34 -26q-23 -13 -56 -13q-59 0 -59 27zM1157 430q0 212 115 332q114 119 295 119t295 -119 t114 -332q0 -208 -126 -329q-125 -121 -283 -121q-181 0 -295 118q-115 120 -115 332zM1382 430q0 -174 39 -261t146 -87q106 0 145 87t39 261t-39 261t-145 87q-107 0 -146 -87t-39 -261z" />
<glyph unicode="&#x26;" horiz-adv-x="1781" d="M43 410q0 95 32 173t93 130q64 55 124 89q56 32 152 72q21 9 24 10q4 2 10.5 4t8.5 3q7 2 13 6q8 6 9 7q3 3 3 9q0 10 -20 43l-31 48q-94 146 -94 251q0 138 115 220q113 81 296 81q169 0 275 -67t106 -189q0 -126 -75 -209q-77 -85 -210 -147q-6 -3 -28 -13l-25 -10 q-3 -1 -16 -9q-7 -4 -11 -10q-3 -5 -3 -11q0 -13 24 -57l252 -398q34 -49 45 -49q12 0 47 53q87 126 131 287q17 63 17 72q0 30 -72 30h-88q-19 0 -25 8q-6 7 -6 33q0 48 8 61q7 11 43 11h400q25 0 32 -10q9 -13 9 -49q0 -31 -11 -44q-11 -12 -34 -12q-13 0 -27 1t-35 1 q-42 0 -62 -14q-23 -16 -27 -31q-7 -24 -10 -53q-4 -32 -11 -57q-60 -197 -185 -361q-24 -30 -24 -47q0 -8 30 -59q6 -9 20 -33q15 -28 19 -30l21 -15q17 -13 37 -14q28 -2 53 -2h90q2 0 34 2t36 2q55 0 55 -37q0 -52 -11 -66t-46 -14h-367q-31 0 -48 5q-16 5 -28 26l-30 49 q-22 37 -39 37q-9 0 -17 -5q-1 -1 -23 -16q-10 -7 -28 -16q-182 -100 -387 -100q-221 0 -365 110q-145 111 -145 320zM268 451q0 -164 102 -251t255 -87q117 0 225 51q84 39 84 69q0 25 -33 76l-280 443q-33 53 -60 53q-16 0 -76 -33q-217 -121 -217 -321zM567 1311 q0 -86 140 -307q11 -13 20 -13q11 0 61 33q179 108 179 287q0 69 -54 117q-53 47 -137 47q-92 0 -150 -43q-59 -44 -59 -121z" />
<glyph unicode="'" horiz-adv-x="407" d="M100 1427q0 59 29 93q28 32 74 32q45 0 73 -32q29 -34 29 -93q0 -16 -2 -36q-6 -45 -31 -167q-21 -103 -28 -163v-21q0 -23 -4 -31q-5 -10 -15 -10h-30q-20 0 -27 7q-6 6 -6 20v31q-5 60 -28 167q-25 116 -32 167q-2 20 -2 36z" />
<glyph unicode="(" horiz-adv-x="911" d="M113 666q0 356 148 592q149 237 427 339q100 35 111 35q41 0 41 -59q0 -27 -16 -43q-15 -15 -55 -27q-41 -12 -58 -22q-363 -191 -363 -815q0 -654 367 -856q28 -13 55 -21q38 -12 54 -28t16 -44q0 -59 -39 -59q-11 0 -92 29q-288 102 -442 357q-154 254 -154 622z" />
<glyph unicode=")" horiz-adv-x="911" d="M72 -283q0 28 15 43t55 27t59 23q362 190 362 815q0 655 -366 856q-19 9 -56 20q-38 12 -54 28q-15 15 -15 44q0 59 39 59q14 0 92 -28q286 -102 441 -358t155 -621q0 -355 -149 -593q-149 -237 -427 -339q-100 -35 -110 -35q-41 0 -41 59z" />
<glyph unicode="*" horiz-adv-x="1300" d="M156 838q0 72 104 118q86 34 205 72q78 27 78 37t-64 33q-189 63 -219 76q-104 46 -104 118q0 42 29 70q31 29 69 29q47 0 106 -43q32 -25 170 -146q56 -47 62 -47t6 16q0 21 -8 64q0 1 -2 8.5t-4 17.5l-5.5 27.5t-6.5 36.5q-19 104 -23 131q-2 20 -2 37q0 60 28 92 q29 33 74 33t74 -33q29 -34 29 -92q0 -17 -2 -37q-4 -25 -39 -211q-13 -60 -13 -74q0 -16 9 -16q8 0 57 43q3 3 12.5 11t27 23.5t34.5 30.5q74 65 100 85q59 43 106 43q38 0 69 -29q30 -28 30 -70q0 -72 -105 -118q-67 -26 -125 -46q-23 -8 -43.5 -15t-35.5 -11.5t-17 -5.5 q-63 -24 -63 -33t71 -33q197 -67 213 -74q105 -46 105 -118q0 -42 -30 -70q-31 -29 -69 -29q-47 0 -106 43q-25 20 -168 146q-56 49 -63 49q-9 0 -9 -19q0 -14 9 -61q1 -5 3.5 -17t7.5 -35t9 -44q18 -84 23 -127q2 -20 2 -37q0 -58 -29 -92q-29 -33 -74 -33t-74 33 q-28 32 -28 92q0 17 2 37q7 54 22 127q17 78 21 96q8 42 8 59q0 19 -8 19t-64 -47q-143 -126 -168 -146q-59 -43 -106 -43q-38 0 -69 29q-29 28 -29 70z" />
<glyph unicode="+" d="M123 645v27q0 33 33 33l20 -2q10 -1 23 -1h239q31 0 40 12t9 56v238q0 41 9 50q7 7 51 7q33 0 43 -9t10 -32q0 -9 -1 -20t-1 -29v-189q0 -62 12 -73q13 -11 80 -11h213q41 0 50 -10q10 -12 10 -61q0 -45 -48 -45q-2 0 -5.5 0.5t-10.5 1t-12 0.5q-28 2 -33 2h-176 q-58 0 -69 -10t-11 -66v-238q0 -36 -10 -43q-11 -8 -58 -8q-45 0 -45 41q0 13 1 25t1 28v193q0 54 -9 66t-48 12h-235q-49 0 -61 9q-11 8 -11 46z" />
<glyph unicode="," horiz-adv-x="440" d="M78 -270q0 16 5 24q5 9 12 10l8 2q8 2 14 3q13 1 24 6q56 23 90 73q35 52 35 119v19q0 16 -5 18t-15 -7q-11 -10 -15 -11q-12 -6 -41 -6q-48 0 -78 34q-30 35 -30 86q0 52 40 86q41 35 97 35q63 0 104 -53q39 -51 39 -160q0 -99 -55 -191q-56 -94 -151 -124 q-40 -12 -52 -12q-26 0 -26 49z" />
<glyph unicode="-" horiz-adv-x="942" d="M123 799q0 32 8 42q8 9 31 9h604q15 0 29 -2q8 -1 17 -10q7 -7 7 -27v-29q0 -31 -13 -38t-46 -7h-584q-38 0 -46 8q-7 7 -7 54z" />
<glyph unicode="." horiz-adv-x="409" d="M82 102q0 51 36 87t87 36t87 -36t36 -87t-36 -87q-35 -35 -87 -35t-87 35q-36 36 -36 87z" />
<glyph unicode="/" horiz-adv-x="1064" d="M90 -281q0 13 18 47q12 23 21 44l676 1671q4 10 10 32q4 15 11 33q3 8 15 26q9 13 25 19q17 6 41 6q66 0 66 -34q0 -15 -9 -34q-6 -12 -23 -45q-12 -23 -19 -40l-654 -1641l-11 -33q-9 -26 -11 -29t-6.5 -9.5t-6.5 -10.5q-7 -12 -19 -16q-4 -1 -30 -8q-16 -4 -45 -4 q-49 0 -49 26z" />
<glyph unicode="0" d="M72 573q0 283 135 439q134 155 336 155q213 0 342 -153t129 -441q0 -277 -142 -436q-141 -157 -329 -157q-202 0 -336 155q-135 156 -135 438zM297 573q0 -491 246 -491q137 0 191 122t54 369q0 249 -54 370q-54 122 -191 122q-246 0 -246 -492z" />
<glyph unicode="1" d="M113 55q0 37 10 48q11 12 35 12q11 0 23 -1t28 -1h156q67 0 81 11q15 12 15 66v603q0 31 -6 38q-7 9 -27 9h-174q-19 0 -33 -1t-26 -1q-25 0 -36 11q-12 12 -12 46v24q0 8 5 16l5 10q2 4 10 5q12 2 13 2h19h22q134 5 199 43q64 38 125 170q1 2 2.5 6t2.5 6q2 5 4 11 q1 4 4 8q3 5 7 6l12 4q10 2 17 2h24q25 0 31 -8t6 -43v-983q0 -43 12 -52t62 -9h199q39 0 48 -9q7 -7 7 -53q0 -32 -8 -43q-7 -10 -29 -10q-10 0 -20 1t-25 1h-676q-20 0 -35 -1t-30 -1q-25 0 -36 11t-11 46z" />
<glyph unicode="2" d="M61 -2q0 17 7 55q46 334 428 498q155 67 215 137q61 71 61 172q0 116 -57 168q-58 53 -178 53q-111 0 -185 -35q-76 -36 -76 -79q0 -21 33 -56t33 -75q0 -53 -36 -86t-81 -33q-51 0 -91 34t-40 101q0 126 129 221q128 94 314 94q198 0 330 -84t132 -243q0 -269 -473 -410 q-208 -63 -311 -244q-10 -14 -10 -24q0 -6 6 -6q3 0 60 21q60 22 98 22q107 0 209 -35t172 -35q130 0 163 92q6 13 7 40q1 28 10 45q8 16 35 16q61 0 61 -41q0 -9 -3 -28q-3 -20 -3 -28q-15 -157 -84 -222q-68 -64 -199 -64q-115 0 -237 61t-203 61q-58 0 -90 -26 q-4 -4 -25 -40t-49 -36q-41 0 -57 8q-15 7 -15 31z" />
<glyph unicode="3" d="M61 -2q0 67 40 101t92 34q44 0 80 -33t36 -86q0 -40 -33 -75q-32 -33 -32 -56q0 -47 69 -86t191 -39q152 0 228 97q75 96 75 227q0 298 -297 342q-12 2 -36 3q-6 0 -19 0.5t-18 1.5q-14 2 -23 12q-11 13 -11 34v25q0 37 48 37h38q77 6 129 27q54 22 82 48q29 28 44 66 q16 42 19 70q3 30 3 73q0 119 -66 190q-66 70 -196 70q-93 0 -146 -38t-53 -85q0 -20 33 -55t33 -76q0 -53 -36 -86q-35 -32 -81 -32q-52 0 -91 33q-40 34 -40 102q0 138 107 230q108 93 315 93q173 0 301 -87q127 -87 127 -259q0 -107 -36 -179q-37 -73 -132 -118 q-18 -9 -61 -24q-22 -8 -39 -15q-11 -5 -11 -6t13 -6q1 0 16 -5t27 -10q35 -14 63 -28q201 -100 201 -348q0 -174 -132 -292q-131 -118 -358 -118q-219 0 -342 96q-121 94 -121 230z" />
<glyph unicode="4" d="M72 164q0 63 37 131q53 99 162 244q122 162 201 278q90 133 118 236q4 17 6 39q1 20 5 31q3 10 16 17t40 7h62q65 0 65 -39q0 -26 -14 -72q-28 -113 -116 -231q-85 -115 -210 -247q-127 -135 -176 -206q-2 -3 -9.5 -12.5t-13.5 -17.5q-4 -5 -9 -12t-8.5 -11.5t-5.5 -8.5 q-7 -11 -7 -20q0 -24 78 -24h311q42 0 52 8t10 39v174q0 39 4 52q5 17 26 35q22 20 27 24q42 48 70 131q0 4 4 17l6 18q2 5 11 9q10 5 24 5q24 0 24 -25q0 -7 -1 -15t-1 -18v-403q0 -33 12 -42t60 -9q21 0 35 1t28 1q26 0 38 -12q11 -11 11 -52q0 -33 -14 -44t-43 -11 q-2 0 -38 2t-42 2q-31 0 -39 -6t-8 -29v-102q0 -41 2 -75q1 -22 8 -57q6 -32 24 -45q19 -14 44 -14q9 0 17 1t16 1q43 0 43 -49q0 -41 -8 -54q-7 -11 -39 -11h-451q-30 0 -38 9q-7 8 -7 48q0 35 11 46t36 11q9 0 17 -1t18 -1q79 0 96 33q17 34 17 142v94q0 43 -9 52 q-7 7 -53 7h-467q-12 0 -20 -1t-17 -1q-28 0 -28 33z" />
<glyph unicode="5" d="M82 -23q0 68 40 102t91 34q45 0 81 -33t36 -86q0 -42 -33 -76t-33 -55q0 -41 59 -73t140 -32q151 0 248 103q96 102 96 262q0 201 -81 306q-82 106 -222 106q-145 0 -217 -72q-4 -4 -20 -22q-14 -16 -18 -19q-8 -6 -25 -12q-21 -7 -44 -7q-53 0 -53 37q0 10 6 37t6 41 l66 561q6 58 19 68t79 10h203q69 0 133 -4t88 -4q62 0 96 31q7 7 16 18q14 17 25 21t37 4q19 4 23 4q24 0 24 -23q0 -8 -10 -47q-11 -52 -28 -84q-14 -26 -43 -52q-27 -24 -94 -32q-66 -8 -151 -12q-76 -4 -243 -4h-35q-30 0 -41 -9q-9 -8 -14 -49l-31 -262q-6 -43 -6 -61 q0 -19 8 -19q4 0 12 5l23 11q14 7 29 13q78 33 204 33q242 0 364 -125t122 -346q0 -224 -153 -358q-154 -134 -378 -134q-183 0 -292 88t-109 217z" />
<glyph unicode="6" d="M61 717q0 205 66 377q65 171 190 276q124 105 285 105q136 0 227 -63q93 -64 93 -181q0 -68 -40 -102q-39 -33 -91 -33q-46 0 -81 32q-36 33 -36 86q0 42 24 77q25 36 25 42q0 22 -28 39t-83 17q-146 0 -229 -131t-107 -345q-10 -74 -10 -94q0 -16 6 -16q4 0 68 53 q109 86 266 86q178 0 298 -125t120 -346q0 -195 -133 -343t-340 -148q-490 0 -490 737zM266 520q0 -48 8 -94q24 -151 93 -254q67 -100 186 -100q125 0 196 126q70 125 70 273q0 174 -68 272q-69 99 -190 99q-127 0 -211 -92t-84 -230z" />
<glyph unicode="7" horiz-adv-x="1105" d="M70 846q0 13 4 33t4 30q17 154 85 216q69 63 195 63q102 0 231 -62q126 -61 210 -61q69 0 102 39q12 16 18 30q9 19 22 26t46 7q55 0 55 -20q0 -12 -10 -41q-24 -86 -164 -325q-138 -236 -186 -335q-111 -225 -111 -360q0 -83 34 -158t34 -116q0 -63 -34 -101 q-35 -39 -97 -39q-60 0 -98 57q-37 56 -37 160q0 289 188 584q159 249 236 383q10 17 17 27q18 24 20 28q8 13 8 19q0 8 -13 8q-8 0 -16 -2q-35 -8 -86 -8q-107 0 -209 35q-99 34 -172 34q-118 0 -156 -75q-8 -16 -11 -49q-3 -34 -14 -51t-46 -17q-49 0 -49 41z" />
<glyph unicode="8" d="M82 389q0 220 174 316q30 13 43 19q20 10 36 16q11 4 11 12q0 10 -33 22q-91 33 -140 117q-50 85 -50 194q0 171 118 280q119 110 302 110t302 -110q118 -109 118 -280q0 -203 -156 -292q-57 -35 -57 -41q0 -9 65 -39q189 -89 189 -324q0 -187 -123 -298t-338 -111 t-338 111t-123 298zM287 389q0 -139 63 -228t193 -89q129 0 192 89q64 90 64 228t-64 228t-192 90q-129 0 -193 -90q-63 -89 -63 -228zM328 1085q0 -119 57 -208t158 -89q100 0 157 89q58 90 58 208q0 119 -58 209q-57 88 -157 88q-101 0 -158 -88t-57 -209z" />
<glyph unicode="9" d="M61 676q0 194 134 343q133 148 340 148q489 0 489 -737q0 -204 -66 -377q-65 -171 -190 -276q-124 -105 -285 -105q-135 0 -227 63t-92 181q0 67 40 101t91 34q45 0 81 -33t36 -86q0 -40 -25 -76t-25 -42q0 -22 28 -39t83 -17q146 0 229 128t107 339q1 12 5 45 q1 8 2.5 20.5t2.5 17.5q2 18 2 22q0 14 -6 14q-8 0 -57 -43q-108 -96 -279 -96q-178 0 -298 125q-120 124 -120 346zM266 676q0 -174 69 -273q68 -98 189 -98q124 0 210 92q85 91 85 217q0 180 -82 320q-83 141 -223 141q-86 0 -144 -66q-58 -65 -81 -153q-23 -87 -23 -180z " />
<glyph unicode=":" horiz-adv-x="405" d="M82 102q0 51 36 87t87 36t87 -36t36 -87t-36 -87q-35 -35 -87 -35t-87 35q-36 36 -36 87zM82 963q0 51 36 87q35 35 87 35t87 -35q36 -36 36 -87t-36 -87t-87 -36t-87 36t-36 87z" />
<glyph unicode=";" horiz-adv-x="440" d="M78 -270q0 16 5 24q5 9 12 10l8 2q8 2 14 3q13 1 24 6q56 23 90 73q35 52 35 119v19q0 16 -5 18t-15 -7q-11 -10 -15 -11q-12 -6 -41 -6q-48 0 -78 34q-30 35 -30 86q0 52 40 86q41 35 97 35q63 0 104 -53q39 -51 39 -160q0 -99 -55 -191q-56 -94 -151 -124 q-40 -12 -52 -12q-26 0 -26 49zM82 963q0 51 36 87q35 35 87 35t87 -35q36 -36 36 -87t-36 -87t-87 -36t-87 36t-36 87z" />
<glyph unicode="&#x3c;" horiz-adv-x="1146" d="M123 748v92q0 22 9 36q8 13 19 18q10 5 31 12t31 9l705 273q7 3 39 19t42 16q25 0 25 -47q0 -32 -3 -50t-15 -30q-11 -11 -19 -17q-6 -5 -33 -12q-23 -6 -36 -12l-558 -215q-90 -34 -90 -49q0 -4 5 -9q4 -4 17 -9q4 -2 11.5 -5t11.5 -4l34 -11q11 -4 40 -16l537 -207 l37 -12q31 -11 35 -15q5 -5 16 -24q10 -17 10 -49q0 -61 -33 -61q-12 0 -29 7q-29 12 -40 18q-24 13 -37 18l-680 264q-7 4 -29 9t-29 9q-9 5 -16 18q-8 14 -8 36z" />
<glyph unicode="=" horiz-adv-x="1146" d="M123 645q0 32 8 42q8 9 31 9h809q14 0 28 -2q9 -1 18 -10q7 -7 7 -27v-28q0 -31 -13 -38t-46 -7h-789q-38 0 -46 8q-7 7 -7 53zM123 952q0 32 8 42t31 10h809q7 0 28 -3q9 -1 18 -10q7 -7 7 -26v-29q0 -31 -13 -38t-46 -7h-789q-38 0 -46 8q-7 7 -7 53z" />
<glyph unicode="&#x3e;" horiz-adv-x="1146" d="M123 412q0 31 3 49q3 19 15 31q7 7 19 16q6 4 33 12q23 6 36 12l557 216q91 35 91 49q0 2 -6 8q-5 5 -16 9l-24 9l-33 12q-28 10 -40 15l-537 207l-37 12q-32 11 -36 15q-2 2 -15 24q-10 17 -10 49q0 62 33 62q10 0 29 -8q29 -12 40 -18q16 -9 37 -17l680 -265 q7 -4 29 -9q20 -4 28 -9q11 -7 17 -17q8 -14 8 -36v-92q0 -22 -9 -36t-19 -19t-31 -12t-31 -9l-705 -273q-14 -6 -40 -19q-30 -15 -42 -15q-24 0 -24 47z" />
<glyph unicode="?" horiz-adv-x="1126" d="M92 1210q0 137 119 242q117 104 324 104q241 0 365 -112t124 -318q0 -147 -98 -273q-100 -128 -264 -183q-6 -2 -35 -8q-23 -5 -32 -9q-10 -5 -18 -18q-10 -17 -10 -39v-70q0 -16 1 -28t1 -25q0 -27 -12 -36t-53 -9q-38 0 -50 9t-12 36q0 12 1 24t1 29v109q0 37 10 60 q9 22 18 29q6 5 38 17q17 6 45 19q120 62 191 171t71 236q0 126 -71 215q-70 88 -211 88q-119 0 -174 -36q-56 -37 -56 -78q0 -24 32 -68t32 -100q0 -62 -40 -92q-42 -31 -100 -31q-56 0 -97 38q-40 37 -40 107zM387 102q0 51 36 87t87 36t87 -36t36 -87t-36 -87 q-35 -35 -87 -35t-87 35q-36 36 -36 87z" />
<glyph unicode="@" horiz-adv-x="2170" d="M133 453q0 251 88 469q89 219 235 370q148 153 340 239q194 87 402 87q202 0 370 -65q165 -64 271 -173q105 -108 162 -241q57 -134 57 -277q0 -125 -36 -251t-102 -231q-65 -104 -172 -171q-105 -66 -230 -66t-183 97q-39 69 -53 69q-6 0 -14 -9q-9 -11 -23 -29 q-12 -15 -33 -33q-112 -95 -221 -95q-130 0 -218 87q-89 87 -89 241q0 231 149 422q148 190 330 190q145 0 205 -129q34 -75 39 -75q8 0 23 63q4 13 7 40q3 26 6 36q3 9 12 23q10 15 27 19q20 5 44 5q65 0 85 -7q21 -8 21 -30q0 -11 -20 -92l-117 -506q-6 -30 -6 -61 q0 -99 74 -99q153 0 260 181q106 179 106 419q0 268 -205 454q-204 185 -491 185q-244 0 -449 -142q-204 -141 -320 -380q-116 -238 -116 -514q0 -176 41 -319q40 -139 108 -230q64 -86 155 -146q88 -58 178 -81t184 -23q286 0 506 172q98 76 127 76q10 0 16 -6 q33 -33 33 -53q0 -7 -3 -14q-1 -3 -12 -16q-8 -9 -14 -14q-2 -1 -9.5 -8t-13.5 -12q-24 -20 -26 -22q-251 -215 -657 -215q-98 0 -199 26q-105 27 -219 93q-120 69 -204 162q-89 98 -147 256q-59 160 -59 354zM891 492q0 -115 35 -179q34 -63 127 -63q102 0 204 137 q103 138 103 322q0 59 -11 110q-12 56 -52 108t-101 52q-116 0 -210 -150q-95 -151 -95 -337z" />
<glyph unicode="A" horiz-adv-x="1884" d="M61 31v30q0 31 7 42q7 10 28 10h76q60 0 79 11q22 12 42 56l561 1299q4 7 9 24q4 15 8 23q1 2 11 16q6 9 15 14q8 5 23 8t34 3q23 0 38 -3q16 -3 25 -14q10 -11 12 -16q3 -6 9 -27q5 -18 11 -28l522 -1311q16 -41 28 -47q16 -8 72 -8h107q29 0 38 -7q7 -6 7 -26v-31 q0 -31 -12 -41q-11 -10 -33 -10q-15 0 -29 1t-33 1h-520q-31 0 -40 12t-9 58q0 25 8 35t29 10q11 0 22 -1t27 -1h55q68 0 68 24q0 5 -19 64l-67 180q-1 3 -6 17q-3 8 -6 17q-3 8 -5 12q-5 8 -8 10q-6 4 -11 7q-8 5 -17 6q-7 1 -25 1h-557q-67 0 -87 -10q-16 -8 -38 -56 l-84 -197q-21 -46 -21 -57q0 -12 17 -15t74 -3h90q25 0 38 -8q11 -7 11 -31v-37q0 -23 -9 -30q-8 -7 -44 -7h-476q-29 0 -37 5t-8 26zM600 590q0 -18 24 -22q27 -5 89 -5h389q21 0 34 -1t25 -1q31 0 31 19q0 11 -8 30l-234 623q-28 72 -45 72q-9 0 -16 -18q-16 -38 -21 -54 q-14 -44 -22 -62l-213 -495q-33 -76 -33 -86z" />
<glyph unicode="B" horiz-adv-x="1576" d="M82 66q0 47 111 47h34q80 0 80 125v1089q0 66 -12 81t-62 15h-43q-20 0 -34 -1t-27 -1q-26 0 -37 13q-10 11 -10 53q0 55 82 55q18 0 54 -3t50 -3h613q237 0 374 -102q138 -103 138 -297q0 -234 -199 -312q-68 -24 -68 -34q0 -4 19 -9q15 -4 53 -12q33 -7 62 -20 q194 -91 194 -320q0 -430 -532 -430h-748q-54 0 -73 15t-19 51zM500 909q0 -35 15 -47t69 -12h297q129 0 218 72t89 215t-89 215q-87 71 -218 71h-320q-42 0 -50 -11q-9 -12 -9 -64v-381q0 -19 -1 -32t-1 -26zM502 221q0 -74 13 -91t65 -17h321q139 0 233 85q95 86 95 232 q0 145 -94 226q-95 81 -234 81h-268q-24 0 -40 1t-32 1q-35 0 -47 -15t-12 -69v-434z" />
<glyph unicode="C" horiz-adv-x="1607" d="M113 768q0 336 230 562t548 226q253 0 430 -167q40 -35 47 -35q3 0 4 1q4 3 4 5l4 8l2 4q1 4 2 7t3 7.5t2 6.5q1 3 6 17q5 12 6 22q5 11 9 38q4 25 10 41q4 11 22 24q15 11 43 11q31 0 36 -5t5 -36v-422q0 -50 -8 -60q-8 -9 -56 -9h-10q-29 0 -39 14q-9 13 -14 46t-10 46 q-51 134 -183 227q-130 91 -305 91q-257 0 -405 -190t-148 -480q0 -292 138 -480t395 -188q219 0 363 129q143 128 181 314q0 2 2 16q1 9 4 12l1 1q0 2 0.5 4.5t0.5 4.5q1 6 3 8q4 3 4 5q1 3 6 5q1 1 3.5 2t4.5 1q6 2 11 2h15h17q49 0 49 -24q0 -6 -3 -20t-3 -21 q-35 -248 -215 -404q-179 -155 -465 -155q-324 0 -536 222q-211 221 -211 566z" />
<glyph unicode="D" horiz-adv-x="1689" d="M80 1458q0 12 1 22t1 25q0 33 24 33q8 0 15 -1t16 -1h703q335 0 536 -217t201 -551q0 -330 -207 -549t-530 -219h-670q-16 0 -27 -1t-22 -1q-39 0 -39 49v19q0 32 9 39q10 8 50 8h95q47 0 59 9t12 44v1216q0 26 -6 34q-6 7 -25 7h-151q-25 0 -36 9q-9 8 -9 26zM502 186 q0 -50 9 -62q8 -11 50 -11h279q501 0 501 655q0 300 -123 476q-125 179 -378 179h-281q-42 0 -49 -10q-8 -11 -8 -59v-1168z" />
<glyph unicode="E" horiz-adv-x="1484" d="M82 63q0 54 59 54q4 0 40 -2t42 -2q56 0 70 11t14 50v1145q0 77 -15 91q-14 13 -97 13q-21 0 -35 -1t-29 -1q-25 0 -38 13q-11 11 -11 51q0 33 9 43t32 10q12 0 24 -1t31 -1h1114q75 0 92 -14q19 -16 19 -66v-303q0 -17 1 -29t1 -26q0 -22 -9 -33q-9 -10 -38 -10 q-17 0 -33 2q-12 2 -17 11q-1 2 -4 7.5t-4 7.5q-2 8 -2 26v32q-11 161 -77 221q-67 61 -228 61h-397q-71 0 -82 -11q-12 -12 -12 -75v-415q0 -63 12 -75q11 -11 82 -11h80q215 0 242 182q0 2 2 16t2 15q0 3 2 9q1 3 4 6l8 4q6 3 13 3h20q49 0 49 -53q0 -2 -2 -36t-2 -38 v-399q0 -22 -8 -30q-7 -7 -41 -7q-30 0 -41 20q-13 22 -17 58t-12 51q-60 117 -219 117h-113q-44 0 -53 -9q-8 -8 -8 -55v-495q0 -56 10 -69t51 -13h410q188 0 267 70t79 257v39q0 23 9 33t38 10q42 0 49 -7q8 -8 8 -44v-408q0 -45 -12 -54t-70 -9h-1214q-30 0 -37 11 q-8 13 -8 52z" />
<glyph unicode="F" horiz-adv-x="1464" d="M82 51q0 35 14 48q16 14 70 14q11 0 23 -1t28 -1q90 0 90 92v1114q0 21 1 33t1 26q0 25 -11 36t-46 11h-115q-36 0 -46 8q-9 7 -9 33v33q0 24 5 32q4 7 22 7h1183q16 0 28 1t23 1q21 0 30 -9t9 -36v-324q0 -21 1 -35t1 -30q0 -26 -12 -38q-11 -11 -47 -11q-32 0 -39 10 q-8 11 -8 33v43q-11 160 -78 221t-227 61h-416q-40 0 -48 -8q-7 -7 -7 -53v-459q0 -15 -1 -25t-1 -22q0 -24 11 -32q12 -9 44 -9h141q197 0 236 133q5 15 6 34q1 13 4 28q2 8 14 14t37 6q43 0 43 -43q0 -14 -1 -26t-1 -29v-328q0 -3 2 -33t2 -32q0 -52 -41 -52q-36 0 -49 13 q-12 12 -15 45q-3 32 -9 49q-50 119 -228 119h-141q-37 0 -45 -6t-8 -33v-463q0 -74 12 -86t86 -12h113q19 0 27 -10t8 -40q0 -38 -9 -52q-7 -11 -34 -11h-510q-70 0 -92 8q-21 8 -21 43z" />
<glyph unicode="G" horiz-adv-x="1792" d="M113 768q0 336 230 562t548 226q287 0 459 -172q23 -23 28 -30l27 86q1 3 3 14.5t4 19.5q4 22 9 32t19 20t37 10q31 0 41 -11t10 -34q0 -15 -1 -28t-1 -31v-371q0 -30 -11 -38q-12 -9 -55 -9q-21 0 -34 5q-11 4 -14 9q-4 5 -5 25q0 4 -4 30q-72 359 -498 359 q-247 0 -402 -195q-155 -196 -155 -479q0 -293 136 -484q136 -192 386 -192q280 0 414 193q32 44 39 77q8 40 8 111v115q0 20 -9 28q-11 9 -42 9h-156q-34 0 -41 6q-8 6 -8 31v55q0 27 9 34q8 7 49 7h569q34 0 41 -7q8 -8 8 -30v-68q0 -16 -7 -22q-8 -6 -34 -6h-117 q-31 0 -39 -10t-8 -52v-69q0 -94 -33 -168q-66 -144 -231 -245t-422 -101q-321 0 -534 223t-213 565z" />
<glyph unicode="H" horiz-adv-x="1822" d="M82 39q0 50 9 62t48 12h27q24 0 39 -1t31 -1q42 0 57 18q14 17 14 86v1176q0 36 -59 36q-5 0 -41 -2t-37 -2q-16 0 -26 -1t-21 -1q-25 0 -33 12q-8 13 -8 48q0 38 7 46q7 9 34 9h485q7 0 43 2t37 2q31 0 45 -13q15 -13 15 -54q0 -56 -66 -56q-12 0 -44 3q-31 3 -46 3h-10 q-60 0 -70 -11t-10 -75v-422q0 -49 8 -57t57 -8h656q72 0 85 14t13 92v414q0 38 -7 45q-8 8 -36 8h-121q-57 0 -70 11q-12 10 -12 59v20q0 25 39 25q15 0 27 -1t24 -1h439q5 0 41 2q6 0 12.5 0.5t10 1t7.5 0.5h6q60 0 60 -55q0 -39 -15 -52q-16 -14 -43 -14q-2 0 -6.5 0.5 t-12.5 1t-15 0.5q-36 2 -41 2q-62 0 -77 -12t-15 -57v-1147q0 -5 -2 -27q-1 -11 -1 -22q0 -26 13 -36q12 -9 53 -9h45q5 0 35 2t31 2q51 0 51 -54v-10q0 -38 -8 -46q-7 -7 -52 -7h-495q-4 0 -32 -2t-32 -2q-47 0 -47 39q0 12 -1 22t-1 21q0 20 9 27q10 8 38 8h131q49 0 60 8 q10 7 10 49v520q0 34 -5 41q-4 6 -40 6h-643q-86 0 -109 -19q-24 -20 -24 -75q0 -21 1 -43t1 -53v-324q0 -21 -1 -33t-1 -26q0 -28 13 -40q12 -11 58 -11h144q19 0 26 -7t7 -34v-31q0 -26 -10 -34q-8 -7 -48 -7h-581q-18 0 -22 7q-5 8 -5 32z" />
<glyph unicode="I" horiz-adv-x="829" d="M80 78q0 18 8 26q9 9 35 9h106q57 0 68 9q10 9 10 68v1151q0 52 -16 69t-53 17h-6.5t-8.5 -0.5t-11.5 -1t-13.5 -0.5q-40 -2 -51 -2h-10q-39 0 -48 9q-7 7 -7 53q0 33 9 43t32 10q9 0 20 -1t29 -1h522q38 0 45 -10q9 -13 9 -53v-19q0 -22 -7 -27q-5 -4 -36 -4h-95 q-4 0 -32 2t-29 2q-47 0 -47 -45v-1122q0 -10 -2 -46t-2 -38q0 -33 15 -48t60 -15h119q39 0 47 -11q9 -13 9 -59q0 -45 -41 -45q-13 0 -26 1t-30 1h-389q-3 0 -9 -0.5t-17 -1t-20 -0.5q-48 -2 -54 -2q-80 0 -80 39q0 14 -1 23t-1 20z" />
<glyph unicode="J" horiz-adv-x="1220" d="M20 297q0 88 49 142q48 53 113 53q56 0 93 -34q38 -35 38 -87q0 -59 -22 -85q-24 -29 -45 -47q-23 -20 -23 -55q0 -20 14 -40q13 -18 60 -35q48 -17 125 -17q297 0 297 400v851q0 49 -32 66q-31 16 -91 16q-27 0 -47 -1t-45 -1h-35q-21 0 -30 9q-7 7 -7 41q0 42 10 53 q10 12 39 12q14 0 29 -1t35 -1h549q42 0 55 -8q12 -8 12 -37q0 -8 -1 -17t-1 -22q-2 -31 -76 -31q-23 0 -41 1t-38 1q-23 0 -43 -2q-14 -1 -31 -14q-17 -12 -17 -37v-817q0 -256 -126 -415q-125 -158 -365 -158q-195 0 -298 97q-104 98 -104 220z" />
<glyph unicode="K" horiz-adv-x="1781" d="M82 39q0 53 9 63q9 11 59 11h10q25 0 42 -1t34 -1q42 0 57 18q14 17 14 82v1106q0 21 1 33t1 26q0 25 -11 36t-48 11h-125q-27 0 -35 11t-8 51q0 55 49 55q1 0 31 -2t35 -2h508q27 0 35 -9q8 -10 8 -50q0 -36 -7 -45t-32 -9h-123q-60 0 -72 -9t-12 -56v-602q0 -94 22 -94 q12 0 23 11q21 21 37 40q27 32 34 39l568 585l23 24q21 21 27 28q9 11 9 18q0 16 -45 16h-121q-18 0 -27 9q-8 8 -8 41q0 46 9 55q8 8 57 8h459q17 0 28 1t21 1q23 0 32 -10q9 -11 9 -43q0 -42 -8 -52t-43 -10h-133q-14 0 -32 -2q-10 -1 -24 -7q-6 -2 -14 -8l-15 -15 q-5 -5 -10 -10.5t-6 -6.5l-391 -401q-33 -33 -33 -58q0 -11 6 -23q5 -11 26 -33t28 -34l508 -651q33 -43 62 -52q30 -9 116 -9q15 0 27 1t24 1q26 0 36 -13q9 -12 9 -51q0 -34 -7 -42q-7 -9 -30 -9h-584q-35 0 -45 7t-10 32v37q0 26 4 31q4 6 23 6h127q41 0 41 16 q0 8 -11 21q-14 16 -24 26q-13 13 -21 23l-399 528q-39 51 -47 51q-10 0 -45 -35l-160 -163l-16 -17l-18 -17l-3 -3t-5.5 -6t-6.5 -8q-13 -14 -15 -19q-1 -2 -5.5 -8t-6.5 -10q-8 -13 -11 -23q-1 -4 -4 -12t-4 -13q-5 -16 -6 -29q-1 -10 -1 -32v-217q0 -33 10 -44t35 -11 q12 0 24 1t31 1h117q18 0 23 -8q6 -10 6 -33q0 -48 -10 -61q-8 -11 -48 -11h-506q-2 0 -30 -2t-29 -2q-43 0 -43 43z" />
<glyph unicode="L" horiz-adv-x="1495" d="M80 74q0 39 24 39h127q48 0 63 28q15 29 15 86q0 22 -1 40t-1 42v1071q0 28 -8 36q-7 7 -47 7h-137q-21 0 -27 8q-6 7 -6 37q0 47 8 58q7 10 47 10h547q28 0 35 -11q8 -13 8 -52q0 -56 -63 -56q-13 0 -43 3t-46 3h-10q-47 0 -55 -9q-8 -10 -8 -60v-1159q0 -55 11 -69 q12 -15 46 -15q13 0 26 1t31 1h347q179 0 256 72q76 71 88 239q2 20 2 35q0 23 1 28q2 9 6 19t18 13t36 3q47 0 47 -43q0 -1 -2 -27t-2 -32v-311q0 -19 1 -31t1 -25q0 -33 -14 -43t-64 -10h-1126q-2 0 -6 -0.5t-11.5 -1t-14.5 -0.5q-34 -2 -40 -2q-57 0 -57 27q0 12 -1 24 t-1 27z" />
<glyph unicode="M" horiz-adv-x="2119" d="M72 35q0 55 10 66q10 12 63 12h11q25 0 43 -1t34 -1q43 0 57 17q16 19 17 75l51 1114v24q0 54 -16 69t-59 15q-20 0 -39 -1t-47 -1q-45 0 -55 8q-9 7 -9 39v27q0 26 7 33q8 8 26 8q8 0 17 -1t22 -1h340q27 0 45 -3q17 -3 28 -6t19 -17q2 -3 11 -17q2 -3 10 -29l4.5 -13.5 l4 -12t1.5 -6.5l356 -1082q4 -10 7 -21q1 -3 2.5 -9.5t2.5 -9.5q0 -2 2 -7t2 -8q1 -3 2.5 -8t1.5 -6l3 -6t2 -5q1 -3 4 -6q2 -2 4 -2q9 0 30 64l367 1110q21 65 49 83q27 17 99 17h278q19 0 32 1t25 1q29 0 39 -12q11 -13 11 -53q0 -33 -7 -42q-6 -8 -36 -8h-93 q-53 0 -69 -8q-15 -7 -15 -39q0 -11 1 -21t1 -26l39 -942v-35q0 -31 -1 -53t-1 -47q0 -75 31 -108q30 -31 129 -31q15 0 25 1t20 1q21 0 29 -11t8 -41q0 -44 -8 -54q-8 -9 -51 -9h-498q-19 0 -33 -1t-28 -1q-24 0 -36 12t-12 49q0 31 10 44q9 12 31 12q12 0 24 -1t28 -1 q98 0 121 13q24 14 24 75q0 15 -1 30t-1 37l-27 1037q0 53 -14 53t-29 -45l-413 -1245q-7 -16 -10 -31q-4 -19 -8 -27q-3 -6 -13 -16t-26 -12q-20 -2 -40 -2t-28 1q-16 2 -21 5l-12 6q-3 1 -8 10q-4 6 -6 13q0 1 -2.5 7.5t-4.5 11.5l-6 21l-432 1295q-15 45 -24 45 q-11 0 -13 -52l-41 -1067q0 -23 -4 -54t-4 -46q0 -34 20 -49q18 -14 76 -14q5 0 43 2t41 2q64 0 64 -54q0 -40 -9 -52q-8 -11 -38 -11h-465q-4 0 -28 -2t-25 -2q-39 0 -39 39z" />
<glyph unicode="N" horiz-adv-x="1792" d="M82 82q0 33 22 33q8 0 15 -1t16 -1h86q50 0 64 10t14 43q0 12 -1 24t-1 31v1143q0 37 -14 48t-70 11q-9 0 -41 -2t-33 -2q-30 0 -44 14q-13 13 -13 54q0 31 9 41t32 10q11 0 22 -1t27 -1h238q34 0 58 -3q25 -3 42 -16q20 -15 25 -20q6 -6 24 -33q11 -17 25 -34l737 -967 q53 -68 65 -68q17 0 17 84v869q0 13 1 23t1 20q0 17 -8 25q-7 7 -37 7h-139q-28 0 -36 10q-7 8 -7 50q0 36 7 44q7 9 32 9h425q2 0 30 2t32 2q47 0 47 -33q0 -53 -13 -69q-14 -17 -50 -17q-17 0 -35 1t-43 1h-11q-48 0 -55 -10q-8 -11 -8 -61v-1254q0 -2 2 -32t2 -35 q0 -51 -37 -51q-17 0 -32 5q-13 5 -18 9q-6 6 -15 19q-12 17 -15 20l-901 1171q-9 11 -29 43q-18 29 -28 40t-16 11q-19 0 -19 -114v-1016q0 -34 8 -45q7 -10 33 -10h150q26 0 35 -12q10 -13 10 -52q0 -32 -7 -41q-6 -8 -28 -8h-473q-56 0 -66 11t-10 71z" />
<glyph unicode="O" horiz-adv-x="1699" d="M113 768q0 336 201 562t536 226q334 0 535 -226q202 -228 202 -562q0 -333 -208 -560q-209 -228 -529 -228q-335 0 -536 226q-201 227 -201 562zM348 768q0 -301 125 -494q125 -192 377 -192q136 0 236 53q98 52 156 151q56 95 83 217q27 120 27 265q0 301 -125 494 q-125 192 -377 192t-377 -192q-125 -193 -125 -494z" />
<glyph unicode="P" horiz-adv-x="1423" d="M82 59q0 36 7 44q8 10 30 10h123q42 0 54 9q11 8 11 38v1231q0 34 -28 34q-9 0 -17 -1t-20 -1h-133q-17 0 -22 7t-5 30v33q0 32 4 37q4 6 27 6h696q269 0 401 -112q131 -111 131 -318q0 -208 -131 -319q-130 -111 -401 -111h-211q-17 0 -30 1t-25 1q-41 0 -41 -45v-463 q0 -36 8 -47q7 -10 35 -10h110q13 0 22 1t19 1q31 0 31 -27v-35q0 -36 -11 -44q-12 -9 -61 -9h-526q-33 0 -40 9q-7 8 -7 50zM502 834q0 -30 6 -38t29 -8h272q142 0 225 89q82 88 82 229t-82 229t-225 88h-236q-48 0 -60 -9q-11 -8 -11 -46v-534z" />
<glyph unicode="Q" horiz-adv-x="1699" d="M113 768q0 336 201 562t536 226q334 0 535 -226q202 -228 202 -562q0 -190 -73 -356t-205 -273q-4 -3 -8.5 -6.5t-10.5 -7.5t-10 -7t-9.5 -7t-9.5 -6.5t-6 -4.5q-8 -6 -14 -14t-6 -18q0 -21 27 -60q57 -84 106 -84q125 0 166 146q5 17 6 40q1 13 4 32q2 10 16 18t42 8 q43 0 43 -49q0 -7 -3 -37q-18 -153 -94 -245q-76 -93 -196 -93q-178 0 -254 225q-12 41 -54 41q-16 0 -80 -15t-114 -15q-335 0 -536 226q-201 227 -201 562zM348 768q0 -180 43 -322q23 -72 35 -90q21 -39 27 -39q4 0 7 12q1 3 4 17t6 25q10 40 17 59q27 81 92 136 q66 55 162 55q239 0 398 -379q18 -47 32 -47q7 0 12 6t15 21q4 6 10.5 15t8.5 11q135 174 135 520q0 301 -125 494q-125 192 -377 192t-377 -192q-125 -193 -125 -494zM573 254q0 -108 111 -145q80 -27 166 -27q58 0 121 11q69 12 69 32q0 6 -4 13q-1 2 -4.5 8.5t-6.5 11.5 q-5 8 -11 22q-49 118 -110 185q-59 65 -159 65q-77 0 -124 -53q-48 -54 -48 -123z" />
<glyph unicode="R" horiz-adv-x="1587" d="M82 45q0 44 9 56t40 12h129q32 0 39 11q8 13 8 56v1202q0 26 -9 34q-8 7 -48 7h-119q-33 0 -41 8t-8 29v35q0 27 8 35t27 8q11 0 21 -1t26 -1h727q263 0 387 -114q125 -114 125 -296q0 -261 -232 -338q-84 -27 -84 -32q0 -6 66 -39q81 -44 119 -121q40 -79 44 -158 q6 -111 8 -153q3 -75 27 -121q24 -47 85 -47q59 0 104 39q12 8 19 20q10 16 12 18q5 5 12 5q15 0 33 -15t18 -26q0 -18 -24 -56q-71 -122 -228 -122q-97 0 -152 39q-57 41 -75 105q-19 70 -25 142q-4 57 -14 155q-7 73 -31 141q-22 64 -86 105q-62 40 -170 40h-268 q-41 0 -50 -11q-9 -10 -9 -61v-471q0 -30 12 -41q11 -10 59 -10h86q13 0 21 1t16 1q31 0 31 -41q0 -48 -13 -62t-46 -14q-17 0 -33 1t-41 1h-473q-29 0 -34 6q-5 7 -5 39zM500 883q0 -30 14 -41q16 -13 59 -13h318q126 0 217 77q90 77 90 220q0 144 -90 221q-89 76 -217 76 h-289q-19 0 -31 1t-24 1q-23 0 -34 -10t-11 -43v-426q0 -22 -1 -36t-1 -27z" />
<glyph unicode="S" horiz-adv-x="1310" d="M98 471q0 51 58 51h20q28 0 32 -6t9 -41q18 -158 142 -279q125 -122 317 -122q191 0 291 92q98 91 98 213q0 94 -50 159q-48 63 -129 98q-77 34 -175 58q-70 18 -193 54q-95 28 -175 69q-79 40 -129 122t-50 198q0 204 139 312q138 107 352 107q156 0 283 -79 q11 -7 37 -33q25 -25 37 -25q14 0 22 23l27 61q11 25 19 29t46 4q12 0 20 1t15 1q27 0 27 -35v-364q0 -19 1 -32t1 -26q0 -27 -12 -37q-11 -10 -52 -10q-35 0 -47 18t-15 59q-3 43 -7 56q-38 131 -140 208q-103 77 -241 77q-167 0 -248 -70q-80 -69 -80 -184q0 -85 50 -144 t129 -89q96 -36 175 -56q85 -21 193 -55q93 -29 175 -77q80 -47 129 -134q50 -89 50 -213q0 -215 -145 -338q-146 -123 -408 -123q-211 0 -372 133q-33 27 -45 27q-7 0 -10 -3q-1 -1 -7 -11q-1 -1 -7 -17q-5 -11 -8 -24q-5 -18 -9 -29q0 -1 -2.5 -5.5t-3.5 -7.5l-4 -12 l-4 -8q-3 -6 -5 -8q-3 -3 -6 -5q-4 -3 -8 -4q-6 -2 -11 -3q-10 -2 -16 -2h-18q-38 0 -48 8t-10 35v373q0 4 -2 34t-2 31z" />
<glyph unicode="T" horiz-adv-x="1464" d="M39 1067q0 14 1 28t1 36v356q0 53 57 53q1 0 37 -2t41 -2h1200q30 0 38 -11q9 -12 9 -55v-352q0 -3 2 -31q0 -4 0.5 -9.5t1 -8t0.5 -5.5v-5q0 -45 -43 -45q-42 0 -56 18q-13 17 -13 55q0 10 1 17t1 14q0 8 -1 14t-1 15q-15 162 -89 224q-75 63 -253 63h-109q-21 0 -28 -9 t-7 -41v-1194q0 -50 17 -64q16 -13 88 -13h121q29 0 35 -8q6 -7 6 -44v-36q0 -29 -39 -29q-3 0 -27 2t-26 2h-521q-5 0 -33 -2t-32 -2q-49 0 -49 45v45q0 29 45 29q16 0 29 -1t28 -1h107q35 0 48 8q11 7 11 33q0 11 -1 21t-1 26v1159q0 47 -15 62q-16 16 -49 16q-1 0 -35 -2 t-44 -2q-165 0 -241 -53q-74 -52 -95 -185q0 -22 -1 -59q-1 -54 -12 -89q-10 -34 -37 -34q-40 0 -54 12q-13 12 -13 41z" />
<glyph unicode="U" horiz-adv-x="1679" d="M31 1454v57q0 27 30 27q11 0 20 -1t21 -1h562q32 0 32 -33v-20q0 -26 -4 -34t-32 -16q-31 -9 -91 -10h-6q-14 0 -26 1t-27 1q-59 0 -59 -57v-733q0 -256 97 -399q98 -144 333 -144q233 0 326 120t93 402v746q0 39 -8 52q-7 11 -37 11h-149q-11 0 -20 -1t-17 -1 q-25 0 -25 25v57q0 23 5 28t20 5h479q17 0 30 1t28 1q43 0 43 -39q0 -51 -10 -64q-9 -12 -50 -12h-28q-3 0 -39 2t-39 2q-60 0 -60 -47v-766q0 -334 -136 -489q-137 -156 -437 -156q-312 0 -453 172q-141 173 -141 473v752q0 37 -13 47t-67 10h-41q-1 0 -29 -2t-30 -2 q-45 0 -45 35z" />
<glyph unicode="V" horiz-adv-x="1761" d="M0 1497q0 41 37 41q12 0 24 -1t29 -1h547q25 0 32 -7t7 -36v-10q0 -31 -13 -45q-13 -15 -65 -15h-61q-29 0 -37 -1q-13 -2 -20 -7q-7 -6 -7 -18q0 -15 19 -64l415 -1032q24 -59 41 -59q11 0 18 16q6 13 19 54q1 2 21 59l407 995q10 26 10 37q0 20 -67 20h-115 q-41 0 -47 8t-6 46q0 37 13 50t42 13q3 0 33 -2t39 -2h414q23 0 27 -7q5 -8 5 -40q0 -46 -8 -56t-51 -10h-76q-23 0 -41 -5q-7 -2 -26 -10q-9 -4 -22 -26q-8 -14 -17 -32q-6 -12 -21 -48q-12 -28 -22 -59l-469 -1139q-8 -15 -17 -46q-11 -36 -17 -47q-6 -10 -29 -27 q-21 -15 -56 -15q-28 0 -50 19q-23 19 -30 37q-5 12 -19 54q-13 39 -16 46l-506 1212q-1 2 -2.5 6t-4 10t-4.5 11l-10 24l-10 15q-7 10 -17 12q-3 0 -11 2t-14 3q-17 3 -39 3h-88q-50 0 -59 11q-9 10 -9 63z" />
<glyph unicode="W" horiz-adv-x="2437" d="M10 1489q0 51 62 51q3 0 41 -2t43 -2h417q20 0 35 1t29 1q26 0 38 -12q11 -11 11 -49q0 -58 -53 -58q-2 0 -34 2t-38 2h-53q-34 0 -45 -4q-12 -5 -12 -20t14 -58l323 -958q33 -98 56 -98q13 0 25 30q7 17 29 91q17 56 30 94l229 620q33 92 33 137q0 38 -19 103 q-15 47 -28 54q-15 9 -70 9h-57q-27 0 -35 11t-8 49q0 32 8 43q7 10 31 10h409q5 0 37 2t35 2q53 0 53 -45t-13 -59q-13 -15 -44 -15q-17 0 -33 1t-41 1q-55 0 -55 -22q0 -7 3 -17q1 -3 3.5 -11t4.5 -13q4 -13 9 -25l273 -921q33 -109 47 -109q4 0 9 6q6 8 10 21q1 5 5 14.5 t6 14.5q0 2 5 16.5t8 25.5q3 10 8 26.5t6 21.5l287 854q24 73 24 86q0 32 -45 32h-135q-37 0 -37 31q0 9 1 19t1 22q0 43 37 43q12 0 22 -1t25 -1h443q30 0 38 -11q9 -12 9 -55q0 -53 -68 -53q-15 0 -45 3t-45 3q-27 0 -42 -3q-16 -3 -24 -13q-2 -3 -7 -8.5t-7 -7.5 q-4 -6 -9 -29q-4 -22 -9 -33l-399 -1198q-7 -18 -13 -48q-7 -34 -15 -53q-7 -17 -27 -34q-19 -16 -50 -16q-27 0 -48 8q-18 7 -31 26q-11 16 -16 35q-7 25 -11 45q-4 21 -11 43l-256 824q-27 88 -37 88q-8 0 -43 -95l-299 -823q-2 -4 -14 -48q-12 -43 -17 -53 q-7 -14 -29 -33q-20 -17 -54 -17q-28 0 -48 5q-17 4 -28 21q-10 16 -15 32q-13 42 -15 52q-10 41 -19 66l-418 1198q-17 45 -37 58q-17 11 -76 11h-26q-19 0 -33 -1t-27 -1q-25 0 -37 14q-12 13 -12 54z" />
<glyph unicode="X" horiz-adv-x="1781" d="M20 55q0 37 7 48q7 10 34 10h158q23 0 44 8q18 7 27 16q2 2 5 6.5t7.5 11.5t8.5 12q17 25 21 28l426 536q24 30 24 47q0 10 -37 60l-395 520q-21 29 -34 42q-8 8 -33 16q-22 7 -72 7q-5 0 -35 -2t-33 -2q-51 0 -51 49q0 45 11 57q12 13 40 13q15 0 29 -1t35 -1h500 q42 0 52 -8q9 -8 9 -49v-11q0 -49 -53 -49q-2 0 -36 2t-38 2q-86 0 -86 -16q0 -5 43 -61l285 -373q1 -2 4.5 -7t5.5 -8q2 -2 9 -13q4 -6 7 -9q5 -5 7 -6q4 -2 8 -2q11 0 32 28l314 402q39 46 39 53q0 12 -66 12h-129q-30 0 -34 6q-5 7 -5 39v41q0 29 39 29q14 0 26 -1t25 -1 h484q25 0 32 -10q9 -13 9 -49q0 -31 -10 -43q-9 -11 -31 -11h-115q-21 0 -30 -1q-4 0 -11.5 -0.5t-10.5 -1.5q-11 -2 -19 -6t-14 -6q-5 -2 -12 -9l-10 -10l-1 -2q-2 -2 -5 -6t-6 -7q-11 -12 -12 -16l-342 -447q-5 -7 -17 -20l-15 -19q-8 -11 -10 -14q-6 -10 -7 -15 q-2 -10 -2 -14q0 -23 28 -57l430 -561q18 -26 21 -30q9 -15 20 -28q6 -8 23 -21q13 -10 35 -15q19 -4 49 -4h112q21 0 27 -8q6 -7 6 -37q0 -13 1 -21t1 -16q0 -31 -37 -31h-536q-19 0 -32 -1t-28 -1q-24 0 -34 11q-11 13 -11 42q0 12 -1 20t-1 15q0 27 33 27h78q90 0 90 18 q0 5 -51 68l-326 426q-4 5 -12 17t-10 14t-4.5 6t-3.5 6q-5 7 -9 8q-6 2 -8 2q-10 0 -37 -33l-387 -491q-16 -22 -16 -33q0 -12 26 -12q2 0 6.5 0.5t13 1t15.5 0.5q36 2 45 2q19 0 33 1t29 1q47 0 47 -52v-18q0 -30 -8 -38q-7 -7 -47 -7h-476q-14 0 -24 -1t-21 -1 q-23 0 -30 11q-9 14 -9 46z" />
<glyph unicode="Y" horiz-adv-x="1607" d="M0 1489q0 32 5 40q4 7 28 7h545q14 0 26 1t29 1q43 0 43 -29q0 -15 1 -26t1 -23q0 -21 -10 -28q-13 -9 -41 -9h-131q-60 0 -60 -18q0 -8 8 -19q3 -4 10.5 -12.5t11.5 -13.5q12 -14 19 -27l310 -463q43 -63 55 -63q3 0 5 1q4 2 7 5l7 7q5 5 8 9q1 2 7 13q4 8 10 15 q3 3 11 17l332 508q16 26 16 33q0 8 -30 8h-150q-14 0 -23 -1t-20 -1q-21 0 -29 11t-8 41v34q0 17 7 23q8 6 32 6h488q15 0 25 1t22 1q25 0 32 -11q9 -14 9 -46v-11q0 -33 -9 -40t-47 -7h-86q-25 0 -40 -3t-27 -12q-15 -11 -18 -16q-9 -15 -14 -25q-10 -19 -15 -26 l-391 -602q-5 -5 -8 -10t-6 -11q-4 -7 -5 -9l-5 -10l-4 -10q-2 -5 -4 -11l-3 -12q-2 -10 -2 -15q0 -9 -1 -15t-1 -20v-423q0 -60 11 -70t75 -10h102q34 0 47 -9q10 -7 10 -32v-37q0 -37 -34 -37q-12 0 -22 1t-26 1h-536q-30 0 -38 11q-9 12 -9 57q0 32 6 38q7 7 41 7h127 q34 0 42 11q9 12 9 58v377q0 23 -1 33q-2 18 -4 28q-3 14 -6 21q-2 5 -9 19q-4 8 -10 17l-12 18q-3 4 -7 11t-6 9l-430 643q-8 11 -12 17l-10 16q-1 2 -4 6l-5 5q-5 7 -12 10q-5 3 -17 6q-8 2 -22 4q-8 1 -29 1h-72q-43 0 -51 10t-8 56z" />
<glyph unicode="Z" horiz-adv-x="1505" d="M72 53q0 50 10 76q10 25 45 62q30 32 41 45l889 1126q35 46 35 49q0 12 -76 12h-412q-179 0 -252 -55q-74 -56 -90 -199q0 -7 -1 -12t-1 -12t1 -13t1 -14q0 -63 -49 -63q-37 0 -50 13t-13 42q0 1 2 33t2 39v311q0 47 47 47l28 -2q28 -2 33 -2h983q17 0 30 1t25 1 q23 0 32 -10t9 -39q0 -27 -3 -46t-12 -36q-4 -7 -14 -24q-1 -2 -4 -5.5t-8 -9t-9 -10.5q-20 -24 -21 -25l-807 -1024q-1 -1 -21 -24.5t-34 -38.5q-43 -49 -52 -60q-16 -20 -16 -34q0 -39 184 -39h449q187 0 260 64q74 65 86 243v53q0 27 11 38t46 11q32 0 39 -7q8 -8 8 -28 v-391q0 -66 -12 -81t-61 -15h-1149q-16 0 -28 -1t-26 -1q-75 0 -75 55z" />
<glyph unicode="[" horiz-adv-x="665" d="M106 -219q0 1 4 55q3 40 3 66v1583q1 68 26 93q24 24 74 24q4 0 17.5 -1.5t22.5 -1.5q36 -2 44 -2h266q29 0 35 -8q6 -7 6 -47q0 -42 -7 -49q-8 -8 -44 -8h-182q-47 0 -63 -16q-15 -15 -15 -50q0 -1 2 -39t2 -47v-1376q0 -6 -2 -46t-2 -42q0 -34 14 -48q16 -16 58 -16 h188q36 0 43 -11q8 -13 8 -58q0 -47 -53 -47q-2 0 -34 2t-36 2h-276q-57 0 -78 21t-21 67z" />
<glyph unicode="\" horiz-adv-x="1064" d="M88 1579q0 18 45 18q43 0 68 -14t33 -27q7 -11 21 -53q4 -11 7.5 -23t6 -19.5l3.5 -10.5l652 -1610q8 -23 19 -43q18 -31 22 -41q8 -18 8 -28q0 -35 -90 -35q-34 0 -52 22q-17 21 -34 76q-17 54 -17 55l-669 1678q-23 54 -23 55z" />
<glyph unicode="]" horiz-adv-x="665" d="M61 -252q0 41 8 49t44 8h182q43 0 61 16q17 15 17 50q0 1 -2 39t-2 47v1376q0 9 2 47t2 41q0 33 -15 48q-16 16 -57 16h-188q-36 0 -43 11q-9 14 -9 58q0 48 54 48q3 0 14 -1t19 -2q32 -2 36 -2h277q57 0 78 -21q20 -20 20 -67q0 -15 -3 -55t-3 -65v-1584q-1 -67 -27 -93 q-23 -23 -73 -23q-4 0 -40 2t-44 2h-267q-28 0 -34 8q-7 9 -7 47z" />
<glyph unicode="^" horiz-adv-x="1116" d="M111 1192q0 6 6 13t18 18q4 4 10 8.5t7 5.5l286 287l14 13l12 12l10 10q9 7 13 8q2 1 8 2.5t9 2.5q9 2 21 4q8 1 28 1t44 -2q16 -1 34 -11q15 -8 21 -14l8 -8q8 -7 15 -14t14 -15l7 -8l250 -250q4 -4 24 -19q17 -13 25 -24q9 -13 9 -18q0 -13 -21 -25t-37 -12t-30 8 q-11 6 -34 29q-15 15 -30 27l-225 186q-49 43 -68 43t-63 -37l-254 -211q-51 -45 -70 -45q-15 0 -37 11q-24 12 -24 24z" />
<glyph unicode="_" horiz-adv-x="1146" d="M-10 -72q0 32 8 42t31 10h1075q8 0 29 -3q8 -1 17 -10q7 -7 7 -26v-29q0 -31 -13 -38t-46 -7h-1055q-38 0 -46 8q-7 7 -7 53z" />
<glyph unicode="`" horiz-adv-x="808" d="M297 1546q0 27 18 48q19 22 52 22q12 0 22 -2l438 -107q4 0 22 -3t22 -7q6 -6 6 -14q0 -20 -9 -25q-6 -4 -32 -2l-467 19q-31 2 -51 22q-21 21 -21 49z" />
<glyph unicode="a" horiz-adv-x="1128" d="M61 252q0 153 140 257q139 103 391 103h80q49 0 49 39q0 13 -1 25t-1 29v47q0 114 -51 177q-50 62 -181 62q-82 0 -134 -23q-54 -24 -54 -57q0 -13 29 -37q28 -24 28 -69q0 -52 -29 -80q-31 -29 -83 -29t-86 33q-35 33 -35 96q0 116 117 188t278 72q211 0 298 -94 q87 -95 87 -239v-607q0 -59 53 -59q39 0 68 29q8 6 15 18q9 14 15 19q8 6 15 6q18 0 34 -16q15 -15 15 -27q0 -23 -45 -68q-67 -67 -166 -67q-113 0 -162 73q-13 19 -17 38t-6 30q-1 10 -5 10q-6 0 -37 -31q-123 -120 -301 -120q-139 0 -228 72q-90 73 -90 200zM270 283 q0 -96 58 -143q56 -46 143 -46q106 0 177 80t71 217v39q0 19 1 32t1 25q0 27 -11 37q-13 11 -51 11h-67q-171 0 -247 -64q-75 -63 -75 -188z" />
<glyph unicode="b" horiz-adv-x="1286" d="M31 35v35q0 43 67 43h39q53 0 67 12q13 12 13 68q0 25 -1 50t-1 66v1094q0 59 -10 70q-11 12 -60 12h-20q-16 0 -28 -1t-23 -1q-23 0 -33 11t-10 44q0 38 10 49q11 12 35 12q12 0 24 -1t31 -1h221q30 0 38 -11q9 -12 9 -54v-522q0 -121 15 -121q6 0 15 13l24 36 q18 27 28 37q102 108 258 108q192 0 323 -149q132 -150 132 -402t-132 -402t-323 -150q-109 0 -195 48q-85 48 -120 140q-10 22 -14 22q-11 0 -11 -65v-49q0 -53 -9 -65q-8 -11 -54 -11h-254q-33 0 -42 6t-9 29zM399 532q0 -182 84 -314t219 -132q125 0 206 133 q81 134 81 313q0 180 -81 314q-81 133 -206 133q-135 0 -219 -132t-84 -315z" />
<glyph unicode="c" horiz-adv-x="1122" d="M92 512q0 255 135 414t375 159q183 0 292 -88q110 -89 110 -217q0 -67 -40 -101t-92 -34q-44 0 -80 33t-36 86q0 43 32 76q33 34 33 55q0 41 -57 68q-55 26 -141 26q-156 0 -240 -130q-84 -131 -84 -306q0 -207 73 -341q72 -132 230 -132q210 0 305 215q5 7 9 21 q2 5 5 11t3 7q1 4 9 10q9 7 18 8q16 2 30 2q49 0 49 -22q0 -14 -8 -33q-67 -155 -165 -237t-259 -82q-250 0 -378 150q-128 151 -128 382z" />
<glyph unicode="d" horiz-adv-x="1286" d="M92 532q0 252 132 402q131 149 323 149q132 0 227 -79q25 -22 47 -51q27 -36 35 -48q12 -18 18 -18q13 0 13 151v351q0 15 1 27t1 24q0 24 -12 35q-11 10 -50 10q-21 0 -35 -1t-28 -1q-37 0 -49 16q-13 18 -13 74q0 26 35 26q13 0 23 -1t22 -1h213q50 0 64 -11t14 -44 q0 -12 -1 -24t-1 -31v-1276v-33q0 -5 2 -23t2 -19q0 -5 7 -11q5 -4 11 -7q3 -2 16 -3q18 -2 20 -2h30h37h10q19 0 28 -3t15 -21t6 -50q0 -39 -75 -39h-222q-47 0 -60 8q-11 7 -11 43v86q0 62 -6 62q-3 0 -8 -9q-9 -14 -13 -24q-6 -12 -16 -29q-108 -157 -297 -157 q-191 0 -323 150t-132 402zM297 532q0 -180 81 -313t206 -133q135 0 219 132t84 314q0 183 -84 315t-219 132q-125 0 -206 -133q-81 -134 -81 -314z" />
<glyph unicode="e" horiz-adv-x="1118" d="M92 512q0 256 126 415q125 158 366 158q213 0 317 -123q105 -124 123 -327q2 -20 2 -39q0 -38 -15 -50q-14 -11 -59 -11h-575q-49 0 -63 -8q-13 -7 -13 -33q0 -19 2 -43q33 -371 291 -371q206 0 305 205q3 5 10 26q6 19 11 25q5 7 17 12q13 6 36 6q53 0 53 -20 q0 -7 -16 -51q-111 -303 -441 -303q-223 0 -350 153q-127 152 -127 379zM303 651q0 -19 13 -23q15 -5 55 -5h399q55 0 55 28q0 6 -3 24t-3 25q-43 295 -235 295q-111 0 -177 -69q-67 -70 -90 -185q-14 -74 -14 -90z" />
<glyph unicode="f" horiz-adv-x="821" d="M61 989q0 11 1 21t1 24q0 19 9 28q7 7 26 7q1 0 33 -2t43 -2q49 0 63 13q15 14 15 42q0 18 -4 51q0 208 104 327q105 120 299 120q149 0 247 -69q97 -69 97 -158q0 -68 -32 -101q-33 -35 -89 -35q-52 0 -86 28q-32 26 -32 71q0 32 21 65q22 35 22 51q0 22 -35 39 q-36 17 -109 17q-118 0 -171 -100q-52 -98 -52 -300v-10q0 -36 8 -44q7 -7 49 -7h170q40 0 50 -14t10 -70q0 -31 -29 -31q-8 0 -16 1t-21 1h-123q-18 0 -30 1t-25 1q-43 0 -43 -51v-713q0 -54 10 -65q10 -12 47 -12h132q37 0 48 -9q9 -8 9 -38v-19q0 -28 -8 -39 q-7 -10 -29 -10q-10 0 -20 1t-25 1h-446q-16 0 -27 -1t-23 -1q-37 0 -37 37v10q0 49 11 58q12 10 63 10h37q51 0 62 14q12 15 12 80v651q0 18 1 30t1 23q0 23 -10 32t-41 9h-86q-28 0 -41 9q-11 8 -11 28z" />
<glyph unicode="g" horiz-adv-x="1222" d="M51 -276q0 136 117 231q7 5 19 15l16 12q2 2 6 4t5 3q6 4 7 5q2 2 2 4t-6 6q-2 1 -4.5 3t-7 5t-8.5 6q-2 1 -29 23q-51 45 -51 131q0 118 149 184q25 11 25 21q0 6 -10 12q-14 8 -28 15q-9 5 -28 18q-123 106 -123 285q0 168 112 274q110 104 296 104q148 0 254 -71 q39 -25 49 -25q7 0 12 4q6 4 20 17q9 8 25 22q73 53 140 53q104 0 158 -51q55 -52 55 -135q0 -51 -31 -82t-78 -31q-43 0 -71 26q-27 26 -27 65q0 37 19 63q20 28 20 39q0 31 -39 31q-41 0 -91 -29q-51 -29 -51 -68q0 -12 19 -61q25 -66 25 -145q0 -169 -112 -275 q-110 -104 -296 -104q-16 0 -48 3t-46 3q-49 0 -105 -41q-55 -40 -55 -76q0 -27 13 -43q13 -15 46 -23q33 -7 59 -9q17 -1 81 -1q53 0 111 1t116 1q86 0 143 -10q60 -11 119 -40q61 -30 90 -95q31 -68 31 -166q0 -170 -143 -267t-390 -97q-226 0 -353 64q-128 65 -128 192z M246 -209q0 -107 80 -167t239 -60q143 0 248 56q107 57 107 161q0 84 -54 143q-53 58 -149 58h-234q-66 0 -116 2h-13q-59 0 -86 -66q-22 -50 -22 -127zM297 707q0 -128 50 -213q50 -84 163 -84q114 0 163 84q50 85 50 213t-50 213q-49 84 -163 84t-163 -84 q-50 -85 -50 -213z" />
<glyph unicode="h" horiz-adv-x="1351" d="M31 59v11q0 29 5 36t34 7h82q39 0 52 8q11 7 11 37v1235q0 70 -11 81t-81 11q-16 0 -28 -1t-23 -1q-23 0 -32 10q-9 11 -9 43q0 40 10 51q11 12 37 12q15 0 29 -1t32 -1h205q33 0 46 -8q11 -7 11 -30q0 -12 -1 -22t-1 -26v-475q0 -23 -2 -81q0 -12 -0.5 -24t-1 -18 t-0.5 -8q0 -20 6 -20q7 0 58 61q114 139 315 139q189 0 260 -78q72 -79 72 -251v-580q0 -46 11 -54q12 -9 67 -9q19 0 33 1t26 1q23 0 36 -13q11 -11 11 -49v-26q0 -17 -6 -22q-7 -5 -31 -5h-458q-38 0 -46 7q-10 8 -10 32v31q0 28 8 36q9 9 25 9q9 0 18 -1t21 -1h78 q37 0 37 43q0 2 -0.5 5.5t-1 10.5t-0.5 12q-2 28 -2 29v520q0 236 -195 236q-148 0 -238 -113q-90 -112 -90 -276v-387q0 -53 11 -67q10 -13 49 -13h73q33 0 42 -12q10 -13 10 -56q0 -27 -9 -38q-7 -9 -28 -9q-12 0 -22 1t-25 1h-406q-44 0 -54 8q-9 8 -9 51z" />
<glyph unicode="i" horiz-adv-x="634" d="M51 49q0 42 8 53t41 11h80q40 0 47 13q9 16 9 58v664q0 1 2 29t2 30q0 45 -35 45h-96q-42 0 -50 10t-8 54q0 34 7 41q8 8 30 8h264q45 0 57 -11q13 -12 13 -40q0 -13 -1 -25t-1 -31v-704q0 -13 -2 -57q0 -9 -0.5 -18.5t-1 -15t-0.5 -7.5q0 -31 13 -37t67 -6q18 0 32 1 t29 1q26 0 37 -13q10 -11 10 -53q0 -32 -11 -40q-12 -9 -38 -9h-412q-15 0 -27 -1t-24 -1q-23 0 -32 10q-9 11 -9 41zM195 1434q0 52 35 87t87 35t87 -35q36 -36 36 -87t-36 -87t-87 -36t-87 36q-35 35 -35 87z" />
<glyph unicode="j" horiz-adv-x="536" d="M-201 -287q0 60 34 103t87 43q52 0 86 -32q33 -31 33 -83q0 -39 -20 -67q-19 -26 -19 -44q0 -75 88 -75q162 0 162 313q0 68 -7 179t-7 163v666q0 12 1 22t1 19q0 16 -9 25q-7 7 -36 7h-111q-33 0 -33 29q0 8 1 16t1 21q0 32 6 39q6 8 27 8h260q50 0 63 -10t13 -39v-993 q0 -103 -6 -178q-5 -69 -28 -149q-21 -75 -56 -122t-97 -77q-59 -29 -145 -29q-130 0 -210 72q-79 72 -79 173zM188 1434q0 51 36 87q35 35 87 35t87 -35q36 -36 36 -87t-36 -87t-87 -36t-87 36t-36 87z" />
<glyph unicode="k" horiz-adv-x="1222" d="M31 43q0 46 9 58t44 12h35q15 0 27 -1t24 -1q24 0 35 12q10 11 10 49v1260q0 38 -10 45q-11 8 -55 8h-62q-40 0 -48 7q-9 8 -9 36v26q0 48 43 48q2 0 11 -1t15 -2q24 -2 31 -2h184q57 0 71 -13q15 -14 15 -48q0 -17 -1 -33t-1 -41v-694v-59q0 -18 3 -39q2 -17 9 -28 q4 -7 15 -7q15 0 66 39l272 221q8 6 13 10q2 1 6.5 4.5t6.5 5.5l10 9q1 1 3 2.5t3 3t2 2.5q3 4 3 6q0 14 -68 14h-84q-38 0 -38 31q0 11 1 21t1 22q0 41 36 41q12 0 23 -1t27 -1h387q15 0 26 1t23 1q37 0 37 -41q0 -46 -11 -60t-43 -14h-51q-20 0 -30 -1q-4 0 -12.5 -0.5 t-12.5 -1.5q-14 -2 -22 -5q-2 -1 -5 -2t-5 -1.5t-3.5 -1.5t-2.5 -1q-4 -2 -15 -9q-9 -7 -14 -9q-2 -1 -15 -14q-12 -12 -16 -13q-69 -54 -165 -133q-38 -32 -92.5 -75.5t-70.5 -57.5q202 -211 206 -215q35 -37 80 -84.5t74.5 -78.5t49.5 -52q2 -2 22 -26q10 -12 23 -25 q7 -7 22 -16q14 -8 33 -13q16 -4 45 -4h25q22 0 28 -8q6 -7 6 -37q0 -13 1 -21t1 -16q0 -31 -43 -31h-356q-16 0 -27 -1t-22 -1q-21 0 -30 10q-9 11 -9 41v25q0 23 8 31t43 8q64 0 64 8q0 1 -33 39l-275 282q-6 6 -33 39q-25 31 -52 56q-23 22 -35 22q-13 0 -13 -24v-361 q0 -40 13 -51q11 -10 69 -10q14 0 25 1t22 1q35 0 35 -35q0 -58 -10 -69t-57 -11h-371q-17 0 -29 -1t-24 -1q-41 0 -41 45z" />
<glyph unicode="l" horiz-adv-x="614" d="M31 51v27q0 39 51 39q3 0 33 -2t32 -2q70 0 70 127q0 24 -1 44t-1 44v1112q0 30 -9 38q-8 7 -50 7h-58q-44 0 -56 9q-11 8 -11 42v33q0 30 45 30q16 0 28 -1t27 -1h223q30 0 37 -11q8 -13 8 -54v-1282q0 -25 -1 -42t-1 -34q0 -34 16 -48q14 -13 66 -13h80q15 0 20 -7 t5 -28v-45q0 -23 -3 -28t-20 -5h-463q-46 0 -57 8q-10 7 -10 43z" />
<glyph unicode="m" horiz-adv-x="1890" d="M61 47v10q0 39 9 48q8 8 53 8q66 0 85 16t19 61q0 20 -1 39t-1 47v619q0 35 -12 47t-37 12q-15 0 -29 -1t-32 -1q-31 0 -43 10q-11 9 -11 31v41q0 33 41 33q14 0 26 -1t28 -1h217q21 0 28 -9q9 -11 9 -42q0 -119 8 -119q4 0 13 12q15 20 26 36q15 22 35 42 q100 100 253 100q98 0 149 -29q52 -30 85 -93q30 -62 49 -62q9 0 19 11q9 11 28 34q19 24 39 41q104 98 258 98q159 0 225 -79t66 -250v-480q0 -16 -3 -48q-3 -31 -3 -46q0 -69 59 -69h74q29 0 34 -5t5 -36q0 -49 -9 -61q-8 -11 -44 -11h-441q-32 0 -40 7q-9 8 -9 28 q0 8 1 18t1 23q0 39 41 39q15 0 27 -1t28 -1q64 0 79 12q16 13 16 55v553q0 118 -35 177t-119 59q-289 0 -289 -389v-242q0 -51 -3 -111t-3 -67q0 -29 10 -38t45 -9h82q22 0 29 -5q6 -4 6 -22v-23q0 -42 -10 -53q-10 -12 -37 -12q-13 0 -25 1t-28 1h-336q-13 0 -23 -1 t-20 -1q-35 0 -35 41v10q0 47 9 55q11 9 61 9h49q30 0 38 7q9 8 9 27q0 9 -1 18t-1 21v547q0 118 -35 177t-119 59q-144 0 -216 -110q-72 -109 -72 -279v-422q0 -30 6 -38q6 -7 24 -7h35q5 0 37 2t35 2q53 0 53 -49v-27q0 -29 -8 -35t-47 -6h-381q-19 0 -32 -1t-28 -1 q-22 0 -32 9q-11 9 -11 40z" />
<glyph unicode="n" horiz-adv-x="1382" d="M61 51q0 38 9 51q8 11 34 11h43q69 0 84 12t15 70v675q0 54 -12 69t-46 15q-13 0 -27 -1t-34 -1q-41 0 -54 10q-12 9 -12 37v43q0 25 39 25q15 0 27 -1t25 -1h237q26 0 33 -10q8 -11 8 -45v-58q0 -80 8 -80q5 0 11 12q2 3 4.5 7.5t6.5 11.5t7 12q7 13 25 35 q114 135 313 135q189 0 260 -78q72 -79 72 -251v-537q0 -19 -1 -33t-1 -28q0 -24 9 -35q9 -10 40 -10h88q34 0 42 -11q7 -10 7 -55q0 -32 -11 -40q-12 -9 -36 -9q-15 0 -29 1t-33 1h-397q-28 0 -39 8q-10 7 -10 29q0 10 1 19t1 24q0 35 41 35q14 0 25 -1t26 -1h33q40 0 50 8 q9 8 9 37v575q0 236 -194 236q-190 0 -281 -181q-47 -96 -47 -290v-303q0 -59 10 -70q10 -12 60 -12h55q38 0 49 -13q10 -11 10 -65q0 -39 -71 -39q-9 0 -49 2t-43 2h-299q-18 0 -29 -1t-21 -1q-22 0 -31 10q-10 12 -10 43z" />
<glyph unicode="o" horiz-adv-x="1163" d="M92 512q0 256 126 415q125 158 364 158q235 0 362 -151t127 -381q0 -256 -126 -415q-125 -158 -363 -158q-236 0 -363 151t-127 381zM307 553q0 -481 275 -481q274 0 274 440q0 481 -274 481q-275 0 -275 -440z" />
<glyph unicode="p" horiz-adv-x="1286" d="M31 -479q0 53 10 66q11 14 47 14h53q50 0 62 9t12 44v1231q0 45 -7 56t-38 11h-49q-59 0 -76 10q-14 8 -14 35v15q0 33 14 44t45 11q15 0 28 -1t32 -1h192q37 0 48 -10t11 -33q0 -13 -1 -25t-1 -30q0 -95 9 -95q4 0 10 12q2 3 4.5 7.5t6.5 11.5t7 12q7 12 25 37 q105 133 278 133q191 0 323 -150t132 -403q0 -251 -132 -401q-131 -149 -323 -149q-156 0 -258 108q-10 11 -30 42q-19 30 -27 43q-10 18 -14 18q-11 0 -11 -91v-436q0 -42 15 -54q14 -11 75 -11q16 0 28 1t24 1q24 0 33 -12q10 -13 10 -50v-26q0 -15 -6 -21t-27 -6h-434 q-14 0 -26 -1t-23 -1q-37 0 -37 35zM399 532q0 -182 84 -314t219 -132q125 0 206 133q81 134 81 313q0 180 -81 314q-81 133 -206 133q-135 0 -219 -132t-84 -315z" />
<glyph unicode="q" horiz-adv-x="1286" d="M92 532q0 253 132 403t323 150q158 0 260 -112q18 -18 32 -42l24 -41q10 -16 14 -16q10 0 10 101q0 62 10 76t53 14h201q5 0 33 2q4 0 9.5 0.5t8 1t5.5 0.5h5q43 0 43 -45v-31q0 -27 -9 -34q-8 -7 -46 -7h-86q-28 0 -36 -6q-7 -6 -7 -24v-1184q0 -7 -2 -43t-2 -37 q0 -29 13 -43t50 -14h91q21 0 28 -5q6 -4 6 -20v-45q0 -28 -8 -36q-7 -7 -47 -7h-393q-5 0 -33 -2t-29 -2q-43 0 -43 45v37q0 20 6 28q5 7 19 7h117q47 0 47 55q0 2 -2 36t-2 38v321q0 113 -13 113q-4 0 -12 -8q-2 -2 -24 -28q-23 -27 -31 -36q-100 -110 -260 -110 q-192 0 -323 149q-132 150 -132 401zM297 532q0 -180 81 -313t206 -133q135 0 219 132t84 314q0 183 -84 315t-219 132q-125 0 -206 -133q-81 -134 -81 -314z" />
<glyph unicode="r" horiz-adv-x="927" d="M51 51v29q0 20 8 26q9 7 37 7h107q35 0 35 34q0 12 -1 23t-1 25v714q0 28 -10 36q-8 7 -48 7h-78q-37 0 -43 6t-6 43v37q0 31 47 31q3 0 33 -2t31 -2h188q50 0 60 -12q10 -11 10 -76q0 -78 8 -78q5 0 12 16q7 15 23 41q19 30 26 39q79 90 218 90q88 0 155 -53 q66 -52 66 -139q0 -67 -37 -111q-37 -45 -90 -45q-52 0 -89 29q-36 28 -36 76q0 44 23 74q24 31 24 38q0 31 -61 31q-80 0 -142 -78q-62 -79 -86 -196q-14 -67 -14 -199v-342q0 -42 10 -49q11 -8 59 -8h58q42 0 50 -8q7 -7 7 -50q0 -34 -8 -45q-7 -10 -33 -10h-469 q-31 0 -37 7q-6 8 -6 44z" />
<glyph unicode="s" horiz-adv-x="964" d="M61 14q0 12 1 22t1 25v252q0 29 8 35t40 6q41 0 54 -9t19 -41q5 -26 15 -50q39 -80 118 -125q83 -47 162 -47q119 0 187 54q67 54 67 136q0 77 -65 120q-69 46 -159 66q-93 21 -186 48q-94 27 -159 94q-66 68 -66 178q0 152 99 232q100 80 239 80q121 0 211 -66 q11 -8 31 -28q12 -12 22 -24q8 -9 13 -9q12 0 30 57q8 20 11 32t6 21q1 3 11 8q8 4 28 4q12 0 20 1t17 1q30 0 30 -38v-297q0 -23 -9 -29t-42 -6q-27 0 -42 5q-13 4 -16 11q-2 4 -7 27q-4 17 -9 35q-29 85 -108 138q-79 52 -154 52q-98 0 -160 -41q-61 -40 -61 -113 q0 -67 48 -110q49 -44 120 -62q66 -17 155 -44q72 -22 154 -53q71 -27 120 -92q48 -64 48 -159q0 -156 -107 -245q-109 -91 -276 -91q-141 0 -252 84q-4 3 -22 21q-12 13 -20 17q-8 5 -11 5q-10 0 -25 -45q-2 -9 -6 -23q-2 -5 -4 -12.5t-2 -8.5l-7 -14q-5 -9 -12 -12 q-9 -4 -21 -5q-18 -2 -32 -2q-25 0 -35 8t-10 26z" />
<glyph unicode="t" horiz-adv-x="782" d="M20 997q0 50 8 58q9 9 54 10q100 4 145 61q47 59 54 236q1 56 12 63q14 9 55 9q27 0 39 -10q10 -9 10 -31q0 -13 -1 -26t-1 -30v-211q0 -46 9 -53q10 -8 59 -8h160q12 0 21 1t18 1q20 0 27 -9q7 -8 7 -40v-25q0 -26 -8 -34q-7 -7 -45 -7h-197q-32 0 -42 -8q-9 -8 -9 -31 v-694q0 -117 90 -117q62 0 109 64q4 5 13 23q3 5 7.5 13.5t5.5 11.5q4 8 13 17t20 9q22 0 40 -15t18 -26q0 -14 -31 -68q-88 -156 -262 -156q-105 0 -156 56t-51 145v653q0 6 2 38t2 34q0 27 -12 39t-47 12h-105q-18 0 -24 7q-7 9 -7 38z" />
<glyph unicode="u" horiz-adv-x="1382" d="M61 1014q0 31 10 43q9 10 31 10q12 0 24 -1t30 -1h184q17 0 27 1t20 1q26 0 34 -11q9 -12 9 -50v-674q0 -119 48 -188q47 -68 147 -68q144 0 236 122q91 121 91 287v398q0 48 -12 59q-11 10 -76 10q-18 0 -30 -1t-25 -1q-23 0 -32 12t-9 44q0 42 7 50q7 9 38 9h231 q64 0 78 -11q15 -12 15 -61v-753q0 -6 -2 -38t-2 -34q0 -29 13 -42t50 -13h70q39 0 47 -8t8 -35v-19q0 -33 -9 -43t-30 -10q-10 0 -20 1t-25 1h-238q-29 0 -37 11q-10 13 -10 57q0 13 2 63q0 11 0.5 21t1 15t0.5 7q0 16 -4 16q-7 0 -34 -40q-117 -170 -340 -170 q-190 0 -261 78t-71 251v611q0 23 -7 27q-8 5 -38 5h-95q-26 0 -35 12q-10 13 -10 50z" />
<glyph unicode="v" horiz-adv-x="1206" d="M10 991v45q0 17 7 23t32 6h389q24 0 39 1t31 1q34 0 45 -14q12 -15 12 -64q0 -23 -6 -30t-22 -7h-70q-72 0 -72 -39q0 -18 21 -60q18 -36 24 -56l135 -389q14 -44 21 -73q12 -48 21 -72q9 -23 20 -23q19 0 43 69l209 566q6 14 10 23l9 21t3 13q0 20 -59 20h-74 q-28 0 -35 6q-8 6 -8 25q0 8 1 17t1 22q0 30 6 37q6 8 25 8q8 0 17 -1t22 -1h352q21 0 29 -9q8 -10 8 -42q0 -39 -8 -52q-8 -12 -35 -12q-11 0 -21 1t-26 1h-49q-19 0 -27 -9t-14 -34l-8 -26l-291 -779q0 -2 -1.5 -7t-4 -13t-4.5 -16q-5 -19 -15 -44q-6 -16 -22 -30 q-15 -14 -39 -14h-29q-25 0 -40 12t-21 24q-7 14 -14 39q-9 32 -11 37l-305 799q-12 32 -17 41q-5 8 -22 14t-53 6h-58q-36 0 -44 5q-7 4 -7 34z" />
<glyph unicode="w" horiz-adv-x="1771" d="M10 991v35q0 43 45 43q1 0 29 -2t31 -2h446q29 0 37 -9q8 -10 8 -50q0 -38 -7 -45q-9 -9 -36 -9h-129q-59 0 -59 -18q0 -7 16 -55l164 -541q29 -92 35 -92q8 0 35 88l204 680q0 1 1.5 3.5t2.5 5.5t2 7q3 13 4 14l1 2q1 1 2 3.5t2 4.5q4 7 9 7q2 0 14 2t22 2q25 0 35 -1 q16 -2 25 -5q8 -3 17 -6q4 -1 11 -13q6 -10 7 -14l2 -8q3 -7 5 -14q7 -20 8 -27l201 -639q27 -86 35 -86q9 0 37 106l141 500q14 49 14 66q0 20 -19 24q-17 4 -85 4h-20q-44 0 -53 12t-9 62q0 43 70 43q4 0 44 -2t42 -2h258q21 0 33 1t24 1q29 0 39 -13t10 -57q0 -31 -6 -38 t-24 -7h-97q-20 0 -40 -2q-15 -2 -24 -13q-2 -3 -4.5 -5.5t-4 -4.5t-2.5 -4t-2 -3q-3 -5 -9 -29q-7 -27 -8 -33l-213 -737q-2 -9 -10 -43q-7 -30 -10 -40q-5 -14 -15 -30t-29 -22t-51 -6q-33 0 -52 10q-20 11 -24 17q-8 13 -14 39l-4.5 18t-4 15.5t-1.5 8.5l-186 598 q-29 92 -33 92q-8 0 -29 -67l-186 -607q-2 -12 -9 -41q-5 -20 -13 -44q-4 -13 -22 -26q-17 -13 -44 -13q-29 0 -47 3q-19 3 -29 6t-19 16q-11 17 -12 19q0 1 -1.5 5t-3.5 10.5t-4 13.5q-11 34 -11 35l-254 778q-4 10 -9 29q-2 9 -9 26q-2 5 -11 16q-8 9 -21 12t-36 3h-62 q-31 0 -42 9q-9 7 -9 30z" />
<glyph unicode="x" horiz-adv-x="1157" d="M10 86q0 27 29 27q38 0 65 10q29 11 40 19q10 7 34 38q23 28 31 37l207 229q12 15 20 23l19 19q1 1 2.5 3.5t4 6t4.5 6.5q8 11 9 16q2 8 2 15q0 26 -37 75l-200 271q-9 11 -17 25q-11 19 -17 25q-5 5 -23 14q-14 7 -38 7h-69q-43 0 -54 9q-10 8 -10 49v10q0 29 11 38 t32 9q15 0 27 -1t31 -1h352q33 0 42 -6t9 -29v-35q0 -29 -6 -36t-25 -7h-28q-33 0 -33 -16q0 -12 11 -26q12 -15 29 -32q11 -11 23 -26l82 -111q1 -2 5 -6t5 -6t4 -5t4 -5q4 -6 7 -9t6 -9q1 -2 5 -6l3 -3l2 -1q1 -1 2 -1t1.5 -0.5t1.5 -0.5q2 -1 6 -1q14 0 49 41l159 176 q29 34 29 39q0 8 -70 8q-28 0 -33 5t-5 34v45q0 33 47 33q3 0 31 -2t30 -2h244q30 0 38 -9q7 -8 7 -48t-6 -47q-7 -9 -35 -9h-27q-29 0 -52 -10q-25 -11 -34 -20q-10 -10 -28 -34q-15 -20 -27 -32l-174 -192q-55 -56 -55 -91q0 -23 65 -110l172 -234q12 -17 25 -38 q19 -31 27 -40q14 -15 35 -26q24 -12 54 -12h19q29 0 35 -8q6 -7 6 -44q0 -39 -9 -51t-36 -12q-10 0 -21 1t-26 1h-334q-31 0 -39 9q-8 10 -8 52q0 36 5 44t34 8h94q-111 153 -143 194q-12 17 -33 51q-23 38 -34 49q-13 13 -30 13q-20 0 -53 -35l-170 -188q-14 -14 -26 -24 q-6 -5 -27 -26q-10 -10 -10 -18q0 -16 53 -16q13 0 25 1t24 1q37 0 37 -33v-41q0 -23 -10 -32t-43 -9h-275q-14 0 -23 -1t-20 -1q-22 0 -29 10q-8 11 -8 41q0 13 -1 21t-1 16z" />
<glyph unicode="y" horiz-adv-x="1286" d="M10 1024q0 43 37 43q12 0 22 -1t25 -1h361q18 0 32 1t29 1q26 0 37 -11q12 -12 12 -48q0 -38 -7 -46q-8 -10 -34 -10h-69q-70 0 -70 -26q0 -8 6 -22q7 -15 18 -32q11 -16 17 -32l225 -500q41 -92 51 -92q12 0 52 100l209 533q18 47 18 53q0 18 -72 18q-52 0 -63 11 q-10 10 -10 59v10q0 37 38 37q3 0 27 -2t29 -2h311q35 0 35 -29v-32q0 -32 -9 -43t-32 -11q-12 0 -24 1t-27 1q-25 0 -40 -3q-17 -3 -25 -13q-8 -9 -13 -16q-3 -5 -10 -26q-5 -15 -11 -30l-426 -1073q-129 -323 -380 -323q-116 0 -184 77t-68 187q0 69 36 108q38 41 89 41 q48 0 74 -26q28 -28 28 -74q0 -43 -43 -70t-43 -51q0 -35 31 -63q30 -27 80 -27q70 0 148 70q76 68 142 237l15 37q16 44 16 68t-33 100l-372 819q-16 36 -33 44q-15 7 -72 7h-20q-42 0 -51 11q-9 10 -9 61z" />
<glyph unicode="z" horiz-adv-x="1128" d="M82 37v20q0 26 1 32q2 12 7 22q5 11 12 19q1 2 27 31q7 8 20.5 24t20.5 24l555 676q5 7 23 25q4 4 20 24q6 8 6 14q0 15 -86 15h-194q-139 0 -191 -42q-53 -42 -65 -135q-2 -14 -2 -30v-35q0 -33 -13 -52q-12 -18 -51 -18q-47 0 -47 54q0 1 2 35t2 38v209q0 58 10 68 t70 10h704q17 0 29 1t27 1q21 0 32 -9t11 -38q0 -32 -13 -65q-12 -30 -24 -45q-9 -12 -38 -42q-31 -33 -34 -37l-526 -638q-9 -11 -26 -29q-17 -19 -23 -27q-9 -13 -9 -16q0 -19 82 -19h222q183 0 245 50t62 182q0 13 -1 25t-1 26q0 53 39 53q43 0 56 -12t13 -43 q0 -16 -1 -31t-1 -37v-249q0 -42 -15 -54t-73 -12h-786q-78 0 -78 37z" />
<glyph unicode="{" horiz-adv-x="557" d="M113 -20q0 120 30 218q25 80 62 166q31 71 31 117q0 53 -20 75q-19 21 -42 19q-22 -1 -42 17q-19 18 -19 65q0 20 4 29q5 11 8 13q7 5 18 8q15 5 21 6q72 24 72 98q0 47 -31 118q-37 86 -62 166q-30 97 -30 218q0 128 64 196q64 69 224 84q2 0 18 2q8 1 20 3q6 1 18 1 q39 0 39 -38q0 -22 -6 -40q-5 -14 -9 -17q-5 -4 -25 -5q-5 0 -34 -4q-119 -24 -119 -170q0 -71 35 -203t35 -239q0 -86 -39 -152q-10 -17 -26 -37q-14 -17 -20 -23q-3 -3 -7 -7.5t-5 -5.5q-4 -4 -4 -9q0 -2 54 -78q47 -64 47 -161q0 -108 -35 -240t-35 -203q0 -139 82 -160 q23 -6 52 -9q21 -2 37 -5q9 -2 15 -13q7 -14 7 -38q0 -47 -72 -47q-4 0 -59 6q-139 21 -195 89q-57 69 -57 190z" />
<glyph unicode="|" horiz-adv-x="614" d="M209 1524q0 73 74 73t97 -22t23 -74q0 -1 -2 -55t-2 -68v-1794q0 -70 -16 -83t-100 -13q-43 0 -58 16q-14 15 -14 52q0 1 2 41t2 49v1775q0 19 -3 54q-3 34 -3 49z" />
<glyph unicode="}" horiz-adv-x="557" d="M61 -270q0 22 6 40q4 13 9 16q5 4 25 5q5 0 34 4q119 24 119 170q0 71 -35 203t-35 240q0 85 39 151q10 17 26 37q18 22 20 24l12 12q4 4 4 9q0 2 -54 78q-47 64 -47 162q0 107 35 239t35 203q0 139 -82 160q-23 6 -52 9q-21 2 -37 5q-9 2 -15 13q-7 14 -7 38q0 47 72 47 q5 0 60 -6q138 -21 194 -89q57 -69 57 -189q0 -121 -30 -218q-25 -80 -62 -166q-30 -69 -30 -118q0 -55 19 -75q19 -21 42 -19q22 1 42 -17q19 -18 19 -65q0 -20 -4 -29q-5 -11 -8 -13q-4 -3 -18 -7q-15 -4 -21 -6q-71 -24 -71 -99q0 -49 30 -118q38 -88 62 -165 q30 -98 30 -219q0 -128 -64 -196q-64 -69 -224 -84l-56 -6q-39 0 -39 39z" />
<glyph unicode="~" horiz-adv-x="1409" d="M203 739q0 5 10 58q22 123 104 185q81 62 193 62q84 0 143 -29q61 -30 91 -67q28 -35 73 -66q43 -30 94 -30q141 0 168 117l4 32q1 17 6 27q3 7 15 11q13 5 39 5q61 0 61 -49q0 -19 -20 -88q-32 -99 -110 -152q-77 -53 -175 -53q-95 0 -162 30q-68 30 -96 67 q-26 34 -66 66q-37 30 -77 30q-105 0 -144 -57q-12 -17 -17 -55q-4 -37 -20 -59t-55 -22q-59 0 -59 37z" />
<glyph unicode="&#xa1;" horiz-adv-x="653" d="M205 -324q0 11 1 19t1 20q7 123 43 398q35 266 35 401q0 15 -1 28t-1 29q0 68 39 68q49 0 49 -64v-69q5 -111 37 -380q31 -265 41 -411v-39q0 -163 -121 -163q-123 0 -123 163zM207 965q0 51 35 86q34 34 86 34t86 -34q35 -35 35 -86t-35 -86t-86 -35t-86 35t-35 86z" />
<glyph unicode="&#xa2;" horiz-adv-x="1122" d="M92 512q0 226 105 382q106 157 292 181q5 0 16.5 1.5t17.5 2.5q24 2 27 2q5 0 19 2t15 2q2 0 10 6l7 5q1 0 3 9q1 8 3 13l2 20q2 16 3 23q3 7 5 29q1 12 1 33q0 11 7 25q6 12 22 12h55q33 0 33 -29q0 -30 -10 -71t-10 -50q0 -33 76 -55q98 -29 156 -106q57 -75 57 -169 q0 -67 -40 -101t-92 -34q-44 0 -80 33t-36 86q0 43 32 76q33 34 33 55q0 49 -78 76q-18 6 -26 6q-9 0 -13 -3t-7 -10q-1 -3 -4 -14l-2 -20q-2 -16 -3 -23l-100 -708l-8 -35q-9 -40 -9 -49q0 -35 31 -35q210 0 305 215q5 7 9 21q2 5 5 11t3 7q1 4 9 10q9 7 18 8q16 2 30 2 q53 0 53 -14q0 -11 -12 -41q-117 -319 -424 -319q-8 0 -26 -3q-10 -2 -14 -9q-5 -9 -6 -11q0 -1 -2 -20q-2 -18 -3 -25q-1 -9 -3 -26q0 -4 -0.5 -8.5t-1 -8t-0.5 -5.5q-2 -12 -4 -17q-3 -9 -11 -12q-10 -4 -18 -6q-12 -3 -28 -3q-55 0 -55 33q0 11 6 51q6 41 6 53 q0 10 -1 14q-2 10 -4 12q-4 6 -5 8q-1 1 -10 7q-3 1 -13 5q-1 0 -6.5 2t-10.5 4q-10 3 -21 10q-138 62 -206 190q-69 129 -69 297zM299 553q0 -225 78 -350q45 -72 65 -72q21 0 33 72l100 704q5 42 5 43q0 33 -21 33q-18 0 -57 -18q-98 -46 -151 -161q-52 -113 -52 -251z " />
<glyph unicode="&#xa3;" d="M-78 709q0 8 1 17t1 22q0 27 5 34q5 6 26 6h180q90 0 90 21q0 5 -30 74q-60 133 -60 243q0 211 146 321q145 109 399 109q223 0 343 -90t120 -225q0 -67 -40 -101t-91 -34q-45 0 -81 33t-36 86q0 41 33 75t33 56q0 43 -85 79q-83 35 -196 35q-168 0 -243 -95t-75 -228 q0 -105 58 -264q3 -8 10 -31q6 -22 9 -26q0 -1 4.5 -6t7.5 -10q7 -11 17 -13q2 0 11 -2t16 -3q24 -4 42 -4h272q25 0 31 -9t6 -44q0 -42 -7 -50q-7 -9 -38 -9h-223q-13 0 -26 1t-30 1q-45 0 -45 -23q0 -31 -3 -58q-4 -31 -6 -49q-4 -25 -14 -46q-11 -22 -16 -39 q-5 -16 -20 -37q-13 -18 -21 -31q-5 -9 -25 -30q-21 -23 -26 -26q-3 -2 -29 -28l-26 -26q-98 -98 -98 -123q0 -6 8 -6q13 0 59 24q36 19 88 19q108 0 240 -35t203 -35q151 0 213 96q6 11 12 37t15 43t30 17q37 0 51 -7q12 -6 12 -28q0 -15 -2 -35q-33 -313 -344 -313 q-120 0 -218 30q-80 25 -166 62q-69 30 -118 30q-32 0 -55 -16q-25 -17 -37 -35q-16 -24 -26 -35q-15 -16 -27 -16h-49q-47 0 -47 55q0 10 12 78q21 87 84 175q60 85 117 156q53 67 53 112q0 87 -39 117t-119 30q-25 0 -85 -3t-95 -3q-26 0 -33 7q-8 8 -8 26z" />
<glyph unicode="&#xa5;" horiz-adv-x="1607" d="M0 1489q0 32 5 40q4 7 28 7h545q14 0 26 1t29 1q43 0 43 -29q0 -15 1 -26t1 -23q0 -21 -10 -28q-13 -9 -41 -9h-131q-60 0 -60 -18q0 -8 8 -19q3 -4 10.5 -12.5t11.5 -13.5q12 -14 19 -27l310 -463q43 -63 55 -63q3 0 5 1q4 2 7 5l7 7q5 5 8 9q1 2 7 13q4 8 10 15 q3 3 11 17l332 508q16 26 16 33q0 8 -30 8h-150q-14 0 -23 -1t-20 -1q-21 0 -29 11t-8 41v34q0 17 7 23q8 6 32 6h488q15 0 25 1t22 1q25 0 32 -11q9 -14 9 -46v-11q0 -33 -9 -40t-47 -7h-86q-25 0 -40 -3t-27 -12q-15 -11 -18 -16q-9 -15 -14 -25q-10 -19 -15 -26 q-51 -77 -196 -301q-37 -57 -104 -160.5t-91 -140.5q-5 -7 -5 -12q0 -14 33 -14q4 0 40 2t38 2h160q14 0 28 -2q9 -1 18 -10q7 -7 7 -27v-29q0 -31 -13 -38t-46 -7h-213q-18 0 -29 1t-21 1q-21 0 -28 -10q-8 -11 -8 -43v-107q0 -38 26 -38q9 0 17 1t20 1h242q14 0 28 -2 q8 -1 18 -11q7 -7 7 -26v-29q0 -31 -13 -38t-46 -7q-2 0 -10 0.5t-23.5 1t-31.5 0.5q-76 2 -93 2q-141 0 -141 -33v-75q0 -60 11 -70t75 -10h102q34 0 47 -9q10 -7 10 -32v-37q0 -37 -34 -37q-12 0 -22 1t-26 1h-536q-30 0 -38 11q-9 12 -9 57q0 32 6 38q7 7 41 7h127 q34 0 42 11q9 12 9 58v72q0 34 -6 38q-7 5 -39 5h-250q-38 0 -46 8q-7 7 -7 53q0 32 8 42t31 10h188h14h20h24q44 0 54 8q9 8 9 49v92q0 31 -6 38t-29 7h-260q-38 0 -46 8q-7 7 -7 54q0 32 8 42q7 9 31 9h188h14h20h24l2 2q0 19 -45 74l-379 565q-8 11 -12 17l-10 16 q-1 2 -4 6l-5 5q-5 7 -12 10q-5 3 -17 6q-8 2 -22 4q-8 1 -29 1h-72q-43 0 -51 10t-8 56z" />
<glyph unicode="&#xa6;" horiz-adv-x="614" d="M209 309q0 31 74 31q71 0 97 -8q23 -7 23 -31v-3.5t-0.5 -5t-1 -6.5t-0.5 -7q-2 -22 -2 -27v-725q0 -30 -16 -34q-18 -5 -100 -5q-72 0 -72 27l2 16q2 16 2 20v717q0 8 -3 22t-3 19zM209 1571q0 26 74 26q71 0 97 -8q23 -7 23 -26q0 -1 -2 -21t-2 -24v-646q0 -25 -16 -29 q-18 -5 -100 -5q-72 0 -72 24l2 16q2 16 2 17v639q0 6 -3 19t-3 18z" />
<glyph unicode="&#xa7;" horiz-adv-x="1093" d="M43 303q0 69 41 113q40 43 90 43q45 0 81 -33t36 -86q0 -42 -33 -76t-33 -55q0 -47 93 -86t182 -39q107 0 194 43q88 43 88 111q0 66 -74 113q-72 46 -181 82q-112 37 -212 72q-105 37 -181 104q-75 66 -75 159q0 131 88 209q50 44 50 55q0 4 -6 12q-9 12 -19 22 q-15 15 -27 30q-49 61 -49 149q0 153 111 232q110 79 268 79q186 0 311 -75q127 -76 127 -228q0 -68 -41 -112q-40 -43 -90 -43q-46 0 -81 32t-35 87q0 42 32 75q33 34 33 56q0 46 -73 75t-160 29q-100 0 -171 -42t-71 -112q0 -64 73 -113q69 -46 175 -82q110 -37 206 -72 q103 -37 176 -104q72 -66 72 -159q0 -108 -67 -193q-8 -11 -27 -30q-14 -15 -19 -22q-5 -8 -5 -13q0 -13 43 -57q59 -65 59 -162q0 -150 -131 -231q-129 -80 -309 -80q-190 0 -324 79q-135 79 -135 244zM256 834q0 -33 10 -56q11 -25 34 -45q18 -16 45 -35q14 -10 63 -30 t67 -26q5 -2 19 -6.5t29 -9.5l30 -10q51 -16 78 -24q79 -27 86 -27q30 0 53 60q12 37 12 77q0 37 -17 65q-18 30 -40 49q-21 18 -69 40q-39 17 -75 32q-24 10 -93 31q-77 24 -91 29q-63 19 -78 19q-33 0 -48 -30t-15 -103z" />
<glyph unicode="&#xa8;" horiz-adv-x="819" d="M82 1516q0 51 36 87q35 35 87 35t87 -35q36 -36 36 -87q0 -52 -36 -88q-35 -35 -87 -35t-87 35q-36 36 -36 88zM492 1516q0 52 35 87t87 35t87 -35q36 -36 36 -87q0 -52 -36 -88q-35 -35 -87 -35t-87 35t-35 88z" />
<glyph unicode="&#xa9;" horiz-adv-x="1781" d="M82 768q0 326 237 557t572 231q334 0 571 -231q238 -232 238 -557t-238 -557q-237 -231 -571 -231q-335 0 -572 231t-237 557zM205 768q0 -285 201 -486q202 -202 485 -202t485 202q201 201 201 486t-201 486q-202 202 -485 202t-485 -202q-201 -201 -201 -486zM440 768 q0 202 139 338q138 135 328 135q151 0 258 -100q21 -21 29 -21q3 0 18 45q0 1 1.5 5t2.5 9l2 10q3 15 6 24q3 8 13 15t27 7q18 0 21 -3t3 -22v-254q0 -30 -5 -35q-6 -6 -34 -6h-6q-15 0 -22 9t-10 27q-2 13 -5 28q-30 82 -109 136t-184 54q-155 0 -243 -113t-88 -288 q0 -176 83 -289q82 -112 236 -112q135 0 219 77q87 79 109 189q5 29 9 33t34 4q28 0 28 -15q0 -5 -4 -24q-21 -150 -129 -243t-278 -93q-197 0 -323 133q-126 134 -126 340z" />
<glyph unicode="&#xaa;" horiz-adv-x="722" d="M29 1139q0 91 83 153t234 62h49q29 0 29 24v60q0 143 -139 143q-49 0 -80 -14q-33 -15 -33 -33q0 -8 16 -23q17 -15 17 -41q0 -65 -68 -65q-31 0 -51 19t-20 59q0 68 70 111q71 44 167 44q232 0 232 -200v-363q0 -37 30 -37q22 0 41 19q6 6 9 10l5 5t4 5q3 4 9 4 q9 0 20 -8t11 -16q0 -12 -29 -41q-41 -41 -98 -41q-69 0 -99 45q-7 12 -9 21q-1 5 -2.5 11t-1.5 7q-1 6 -3 6q-5 0 -23 -18q-72 -72 -180 -72q-84 0 -137 44t-53 120zM154 1157q0 -58 34 -85q36 -28 86 -28q65 0 108 49q42 48 42 130v57q0 17 -7 23t-30 6h-41 q-192 0 -192 -152z" />
<glyph unicode="&#xab;" horiz-adv-x="1423" d="M51 793q0 18 1 23q2 8 4 13q3 6 16 14q5 3 14 8.5t13 7.5q20 12 47 30q32 21 69 45l463 321q36 25 45 25q12 0 33 -33q20 -31 20 -47q0 -9 -5 -17t-26 -23q-17 -12 -28 -23l-281 -236q-3 -3 -15 -12.5t-19 -15.5q-21 -16 -28 -22q-18 -15 -20 -17q-6 -6 -14 -19 q-4 -7 -4 -16q0 -27 63 -82l324 -273q1 -1 5 -3.5t9.5 -6.5t10.5 -8q17 -14 24 -23q6 -7 6 -18q0 -13 -14 -33q-28 -43 -45 -43q-12 0 -57 33l-480 334q-34 24 -69 45q-39 24 -43 27q-11 9 -14 15q-5 10 -5 30zM625 797q0 17 8 28q7 10 30 23q21 12 23 14l561 400 q22 16 39 16q18 0 40 -28t22 -48q0 -13 -8 -24t-32 -28q-27 -19 -34 -26l-340 -286q-35 -29 -35 -47q0 -8 3 -12q4 -6 9 -11t13 -11q1 -1 4 -3.5t6.5 -5.5t7.5 -5q13 -8 21 -16l315 -266q3 -2 12 -9.5t15 -11.5q18 -13 24 -19q8 -8 14 -17q7 -11 7 -19q0 -15 -19 -43 q-23 -33 -41 -33q-9 0 -19 5q-7 4 -27 20q-23 19 -27 22l-562 392q-2 1 -11 6q-8 4 -9 6q-1 1 -5 7q-2 3 -4 12q-1 5 -1 18z" />
<glyph unicode="&#xac;" horiz-adv-x="983" d="M131 1208q0 33 9 42q10 10 36 10h711q16 0 39 -5q24 -5 24 -30v-348q0 -22 -8 -27q-7 -4 -53 -4q-33 0 -41 5t-8 17v279h-647q-46 0 -54 8t-8 53z" />
<glyph unicode="&#xad;" horiz-adv-x="942" d="M123 799q0 32 8 42q8 9 31 9h604q15 0 29 -2q8 -1 17 -10q7 -7 7 -27v-29q0 -31 -13 -38t-46 -7h-584q-38 0 -46 8q-7 7 -7 54z" />
<glyph unicode="&#xae;" horiz-adv-x="1781" d="M82 768q0 326 237 557t572 231q334 0 571 -231q238 -232 238 -557t-238 -557q-237 -231 -571 -231q-335 0 -572 231t-237 557zM205 768q0 -285 201 -486q202 -202 485 -202t485 202q201 201 201 486t-201 486q-202 202 -485 202t-485 -202q-201 -201 -201 -486zM455 330 q0 26 5 34q4 7 23 7h78q20 0 24 7q5 8 5 34v721q0 15 -5 20q-4 4 -30 4h-72q-19 0 -23 4q-5 5 -5 19v20q0 27 20 27q7 0 13 -1t16 -1h436q156 0 232 -68q75 -67 75 -178q0 -158 -139 -203q-49 -15 -49 -20q0 -2 39 -23q59 -29 82 -94q22 -62 19 -121t10 -101q14 -44 59 -44 q31 0 61 24q1 1 3.5 4.5t4.5 5.5q4 4 6 8q1 3 6 5q4 2 7 2q9 0 20 -8q10 -7 10 -17q0 -15 -14 -32q-44 -74 -137 -74q-79 0 -113 45t-39 108q-3 42 -9 128q-5 65 -45 110q-41 45 -126 45h-162q-25 0 -29 -6q-5 -7 -5 -37v-283q0 -18 7 -24q8 -6 36 -6h51q7 0 12 1t10 1 q19 0 19 -25q0 -47 -35 -47q-11 0 -21 1t-24 1h-285q-16 0 -19 3t-3 24zM705 834q0 -18 8 -26q7 -7 37 -7h190q77 0 130 46q54 47 54 132t-54 132q-53 46 -130 46h-174q-11 0 -18 1t-15 1q-26 0 -26 -33v-256q0 -12 -1 -20t-1 -16z" />
<glyph unicode="&#xaf;" horiz-adv-x="983" d="M131 1208q0 33 9 42q10 10 36 10h711q11 0 35 -3q11 -1 20 -10q8 -8 8 -26v-29q0 -30 -16 -37q-18 -8 -55 -8h-686q-46 0 -54 8t-8 53z" />
<glyph unicode="&#xb0;" horiz-adv-x="655" d="M82 1393q0 102 72 174q71 71 174 71t174 -71t71 -174t-71 -174q-72 -72 -174 -72t-174 72t-72 174zM195 1393q0 -59 37 -96t96 -37q58 0 95 37q38 38 38 96q0 57 -38 95t-95 38q-58 0 -96 -38q-37 -37 -37 -95z" />
<glyph unicode="&#xb1;" d="M123 119q0 33 10 42q11 9 37 9h729q19 0 35 -2q11 -1 20 -10t9 -27v-29q0 -29 -16 -37t-56 -8h-703q-45 0 -56 9q-9 8 -9 53zM123 727v27q0 32 33 32q10 0 20 -1t23 -1h239q31 0 40 12t9 56v238q0 41 9 50q7 7 51 7q33 0 43 -9t10 -32q0 -10 -1 -21t-1 -28v-189 q0 -62 12 -73q13 -11 80 -11h213q41 0 50 -10q10 -12 10 -61q0 -45 -48 -45q-2 0 -5.5 0.5t-10.5 1t-12 0.5q-28 2 -33 2h-176q-58 0 -69 -10t-11 -66v-238q0 -36 -10 -43q-11 -8 -58 -8q-45 0 -45 41q0 13 1 25t1 28v193q0 53 -9 65q-10 13 -48 13h-235q-49 0 -61 9 q-11 8 -11 46z" />
<glyph unicode="&#xb2;" horiz-adv-x="962" d="M193 934q0 10 4 35q27 198 256 297q92 39 129 82q36 42 36 104q0 133 -141 133q-65 0 -110 -21t-45 -48q0 -13 19 -33t19 -45q0 -34 -21 -53q-20 -19 -48 -19q-31 0 -54 20q-24 21 -24 62q0 75 77 132q75 56 187 56q120 0 200 -50q79 -49 79 -146q0 -162 -285 -246 q-82 -22 -145 -90q-25 -25 -41 -55q-6 -12 -6 -17q0 -2 4 -2q1 0 35 12q37 13 59 13q66 0 126 -21q57 -20 103 -20q78 0 99 55q1 6 3 24q1 17 6 26q4 9 21 9q37 0 37 -24q0 -8 -4 -33q-7 -94 -51 -133q-43 -39 -119 -39q-70 0 -143 37t-121 37q-31 0 -53 -17q-3 -3 -16 -23 q-14 -22 -29 -22q-28 0 -35 4q-8 5 -8 19z" />
<glyph unicode="&#xb3;" horiz-adv-x="921" d="M170 934q0 40 24 61t54 21q26 0 49 -20q22 -19 22 -52q0 -25 -20 -45t-20 -33q0 -27 43 -51q44 -24 114 -24q93 0 136 58q44 59 44 136q0 178 -178 205q-10 0 -20 1q-4 0 -12 0.5t-11 1.5q-9 2 -14 7q-6 6 -6 21v14q0 22 28 22h23q73 6 113 37q38 29 46 60q7 27 7 76 q0 71 -39 113t-117 42q-56 0 -88 -23q-33 -24 -33 -51q0 -12 21 -33q20 -20 20 -46q0 -32 -22 -51t-49 -19q-32 0 -55 19t-23 61q0 82 65 138t189 56q104 0 180 -52t76 -154q0 -132 -101 -179q-12 -6 -51 -20q-16 -6 -16 -8q0 -3 7 -4q2 0 6 -1.5t9.5 -3.5t10.5 -4 q21 -7 39 -16q120 -59 120 -209q0 -106 -78 -175q-80 -71 -214 -71q-133 0 -206 58t-73 137z" />
<glyph unicode="&#xb4;" horiz-adv-x="808" d="M-109 1483q0 10 8 15q10 6 25 7q12 1 27 4l428 105q10 2 22 2q33 0 52 -22q18 -21 18 -48q0 -28 -21 -49q-20 -20 -51 -22l-448 -19q-10 0 -18 -1t-15 -1q-27 0 -27 29z" />
<glyph unicode="&#xb5;" horiz-adv-x="1382" d="M61 1014q0 31 10 43q9 10 31 10q12 0 24 -1t30 -1h184q17 0 27 1t20 1q26 0 34 -11q9 -12 9 -50v-674q0 -119 48 -188q47 -68 147 -68q144 0 236 122q91 121 91 287v398q0 48 -12 59q-11 10 -76 10q-18 0 -30 -1t-25 -1q-23 0 -32 12t-9 44q0 42 7 50q7 9 38 9h231 q64 0 78 -11q15 -12 15 -61v-753q0 -6 -2 -38t-2 -34q0 -29 13 -42t50 -13h70q39 0 47 -8t8 -35v-19q0 -33 -9 -43t-30 -10q-10 0 -20 1t-25 1h-238q-29 0 -37 11q-10 13 -10 57q0 13 2 63q0 11 0.5 21t1 15t0.5 7q0 16 -4 16q-7 0 -34 -40q-117 -170 -340 -170 q-86 0 -138 14q-27 9 -44 17q-26 12 -31 12q-17 0 -17 -68v-199q0 -88 76 -88q16 0 44 20q26 19 67 19q51 0 82 -33q32 -34 32 -86q0 -53 -43 -87q-42 -33 -102 -33q-103 0 -180 76q-78 77 -78 206v1170q0 23 -7 27q-8 5 -38 5h-95q-26 0 -35 12q-10 13 -10 50z" />
<glyph unicode="&#xb7;" horiz-adv-x="405" d="M82 819q0 51 36 87t87 36t87 -36t36 -87t-36 -87t-87 -36t-87 36t-36 87z" />
<glyph unicode="&#xb8;" horiz-adv-x="1126" d="M356 -193q0 3 27 41l184 236h144l-123 -156q-29 -40 -29 -45q0 -4 3 -7q3 -4 11 -5l17 -4l8 -2q9 -2 16 -3q24 -4 29 -5q176 -44 176 -144q0 -84 -86 -144q-88 -62 -280 -63q-13 0 -23 -1t-20 -1q-19 0 -30 9q-9 7 -9 34q0 47 28 47q1 0 21 -2t26 -2q117 0 183 33 q65 33 65 70q0 90 -260 102q-78 1 -78 12z" />
<glyph unicode="&#xb9;" d="M287 967q0 37 26 37q8 0 15 -1q14 -2 16 -2h94q41 0 49 8q9 9 9 40v360q0 20 -4 24q-5 5 -17 5h-104q-12 0 -20 -1t-15 -1q-29 0 -29 34v15q0 5 2 9t3 5l6 3q1 0 4.5 0.5t4.5 1.5q2 1 11 1h14q79 1 120 26q41 24 75 101q0 1 1.5 5t2.5 6t4 9q2 3 7 5q6 2 13 2h15 q16 0 19 -5t3 -26v-590q0 -26 8 -31q10 -6 37 -6h119q24 0 29 -5q4 -4 4 -31q0 -33 -23 -33q-7 0 -12 1t-14 1h-406q-12 0 -21 -1t-18 -1q-28 0 -28 35z" />
<glyph unicode="&#xba;" horiz-adv-x="1163" d="M289 1292q0 154 75 249t218 95q142 0 218 -91q77 -92 77 -228q0 -155 -76 -249q-77 -95 -219 -95q-141 0 -217 91t-76 228zM418 1317q0 -289 164 -289q166 0 166 264q0 289 -166 289q-164 0 -164 -264z" />
<glyph unicode="&#xbb;" horiz-adv-x="1423" d="M74 1202q0 14 18 43q23 33 41 33q10 0 20 -5q5 -3 26 -20q17 -14 28 -22l561 -391q2 -1 11 -6q5 -3 9 -7t6 -7t4 -12q1 -5 1 -17q0 -18 -8 -29q-7 -10 -30 -23t-24 -14l-561 -399q-23 -17 -39 -17q-18 0 -40 28q-21 27 -21 48q0 15 7 25q5 7 33 27q27 19 34 26l339 287 q35 29 35 47q0 7 -3 11q-4 6 -9 11q-8 8 -12 11q-17 13 -19 14q-11 7 -20 16l-316 266q-3 2 -11.5 9.5t-14.5 11.5q-22 16 -25 19q-8 8 -14 17t-6 19zM645 1202q0 13 14 33q28 43 46 43q12 0 57 -33l479 -334q28 -19 70 -45q9 -5 19.5 -11.5t16 -9.5t7.5 -5q8 -7 13 -16 q5 -10 5 -29t-1 -24q-2 -8 -4 -13q-3 -7 -15 -14q-4 -3 -13.5 -8t-14.5 -8q-20 -12 -47 -30q-31 -21 -69 -45l-463 -321q-34 -25 -45 -25t-32 33t-21 47q0 9 5 17t26 23q18 13 29 24l280 235q4 3 15.5 12.5t18.5 15.5q6 4 16 11.5t13 10.5q6 5 19 18q8 8 14 18q4 7 4 16 q0 26 -63 82l-324 273l-24 18q-20 16 -25 23q-6 8 -6 18z" />
<glyph unicode="&#xbc;" horiz-adv-x="2048" d="M287 967q0 37 26 37q8 0 15 -1q14 -2 16 -2h94q41 0 49 8q9 9 9 40v360q0 20 -4 24q-5 5 -17 5h-104q-12 0 -20 -1t-15 -1q-29 0 -29 34v15q0 5 2 9t3 5l6 3q1 0 4.5 0.5t4.5 1.5q2 1 11 1h14q79 1 120 26q41 24 75 101q0 1 1.5 5t2.5 6t4 9q2 3 7 5q6 2 13 2h15 q16 0 19 -5t3 -26v-590q0 -26 8 -31q10 -6 37 -6h119q24 0 29 -5q4 -4 4 -31q0 -33 -23 -33q-7 0 -12 1t-14 1h-406q-12 0 -21 -1t-18 -1q-28 0 -28 35zM498 31q0 16 14 37q19 28 37 50q24 29 31 40l790 1272q5 5 21 40q19 41 35 53q17 13 49 13h4q65 0 65 -31q0 -9 -8 -25 t-26 -40q-13 -17 -23 -35l-813 -1321q-1 -2 -7 -13t-11 -20q-14 -26 -19 -29q-11 -8 -26 -14q-21 -8 -50 -8q-63 0 -63 31zM1139 164q0 38 22 78q29 53 148 213q119 159 141 241q3 15 4 28q2 21 9 25q8 5 28 5h37q39 0 39 -23q0 -8 -8 -43q-17 -70 -69 -139 q-60 -79 -127 -150q-79 -83 -106 -123q-32 -45 -32 -49q0 -14 47 -14h186q24 0 31 5q6 4 6 24v104q0 23 3 32q3 8 15 19q16 14 17 15q19 22 41 80q6 24 14 26q6 2 12 2q17 0 17 -14q0 -4 -1 -9t-1 -12v-241q0 -22 7 -26q8 -5 36 -5q12 0 21 1t18 1q16 0 22 -7t6 -32 q0 -33 -34 -33q-12 0 -23 1t-25 1q-19 0 -23 -4q-5 -5 -5 -16v-62q0 -31 2 -59q1 -21 13 -38q11 -17 32 -17q6 0 10 1t8 1q27 0 27 -31q0 -24 -5 -32q-4 -7 -24 -7h-270q-18 0 -23 5q-4 4 -4 30q0 35 29 35q4 0 9 -1t11 -1q48 0 58 19t10 85v58q0 25 -5 30q-4 4 -32 4h-280 q-8 0 -13 -1t-10 -1q-16 0 -16 21z" />
<glyph unicode="&#xbd;" horiz-adv-x="2048" d="M287 967q0 37 26 37q1 0 15 -2q7 -1 16 -1h94q41 0 49 8q9 9 9 40v360q0 20 -4 24q-5 5 -17 5h-104q-12 0 -20 -1t-15 -1q-29 0 -29 34v15q0 5 2 9t3 5l6 3q1 0 4.5 0.5t4.5 1.5q2 1 11 1h14q79 1 120 26q41 24 75 101q0 1 1.5 4.5t2.5 5.5q1 4 4 10q2 3 7 5q6 2 13 2h15 q16 0 19 -5t3 -26v-590q0 -26 8 -31q10 -6 37 -6h119q24 0 29 -5q4 -4 4 -31q0 -33 -23 -33q-7 0 -12 1t-14 1h-406q-12 0 -21 -1t-18 -1q-28 0 -28 35zM498 31q0 16 14 37q19 28 37 50q24 29 31 40l790 1272q5 5 21 40q19 41 35 53q17 13 49 13h4q65 0 65 -31q0 -9 -8 -25 t-26 -40q-13 -17 -23 -35l-813 -1321q-1 -2 -7 -13t-11 -20q-14 -26 -19 -29q-11 -8 -26 -14q-21 -8 -50 -8q-63 0 -63 31zM1217 33q0 10 4 35q27 198 256 297q94 40 129 81q36 42 36 105q0 133 -141 133q-65 0 -110 -21t-45 -49q0 -12 19 -32t19 -45q0 -34 -21 -53 q-20 -19 -48 -19q-31 0 -54 20q-24 21 -24 62q0 75 77 132q75 56 187 56q120 0 200 -50q79 -49 79 -146q0 -162 -285 -246q-82 -22 -145 -90q-24 -24 -41 -56q-6 -12 -6 -16q0 -2 4 -2q1 0 35 12q37 13 59 13q66 0 126 -21q57 -20 103 -20q77 0 99 55q2 6 3 23q2 18 6 27 t21 9q37 0 37 -24q0 -8 -4 -33q-7 -94 -51 -133q-43 -39 -119 -39q-70 0 -143 37t-121 37q-31 0 -53 -17q-3 -3 -16 -23q-14 -22 -29 -22q-28 0 -35 4q-8 5 -8 19z" />
<glyph unicode="&#xbe;" horiz-adv-x="2048" d="M170 934q0 40 24 61t54 21q26 0 49 -20q22 -19 22 -52q0 -25 -20 -45t-20 -33q0 -27 43 -51q44 -24 114 -24q93 0 136 58q44 59 44 136q0 178 -178 205q-10 0 -20 1q-4 0 -12 0.5t-11 1.5q-9 2 -14 7q-6 6 -6 21v14q0 22 28 22h23q73 6 113 37q38 29 46 60q7 27 7 76 q0 71 -39 113t-117 42q-56 0 -88 -23q-33 -24 -33 -51q0 -12 21 -33q20 -20 20 -46q0 -32 -22 -51t-49 -19q-32 0 -55 19t-23 61q0 82 65 138t189 56q104 0 180 -52t76 -154q0 -132 -101 -179q-12 -6 -51 -20q-16 -6 -16 -8q0 -3 7 -4q2 0 6 -1.5t9.5 -3.5t10.5 -4 q21 -7 39 -16q120 -59 120 -209q0 -106 -78 -175q-80 -71 -214 -71q-133 0 -206 58t-73 137zM498 31q0 16 14 37q19 28 37 50q24 29 31 40l790 1272q5 5 21 40q19 41 35 53q17 13 49 13h4q65 0 65 -31q0 -9 -8 -25t-26 -40q-13 -17 -23 -35l-813 -1321q-1 -2 -7 -13t-11 -20 q-14 -26 -19 -29q-11 -8 -26 -14q-21 -8 -50 -8q-63 0 -63 31zM1139 164q0 38 22 78q29 53 148 213q119 159 141 241q3 15 4 28q2 21 9 25q8 5 28 5h37q39 0 39 -23q0 -8 -8 -43q-17 -70 -69 -139q-60 -79 -127 -150q-79 -83 -106 -123q-32 -45 -32 -49q0 -14 47 -14h186 q24 0 31 5q6 4 6 24v104q0 23 3 32q3 8 15 19q16 14 17 15q19 22 41 80q6 24 14 26q6 2 12 2q17 0 17 -14q0 -4 -1 -9t-1 -12v-241q0 -22 7 -26q8 -5 36 -5q12 0 21 1t18 1q16 0 22 -7t6 -32q0 -33 -34 -33q-12 0 -23 1t-25 1q-19 0 -23 -4q-5 -5 -5 -16v-62q0 -31 2 -59 q1 -21 13 -38q11 -17 32 -17q6 0 10 1t8 1q27 0 27 -31q0 -24 -5 -32q-4 -7 -24 -7h-270q-18 0 -23 5q-4 4 -4 30q0 35 29 35q4 0 9 -1t11 -1q48 0 58 19t10 85v58q0 25 -5 30q-4 4 -32 4h-280q-8 0 -13 -1t-10 -1q-16 0 -16 21z" />
<glyph unicode="&#xbf;" horiz-adv-x="1126" d="M92 -61q0 147 98 273q99 128 265 183q7 3 34 8q23 5 32 9q12 6 19 18q9 15 9 39v70q0 16 -1 28t-1 25q0 27 12 36t53 9q39 0 51 -9q11 -8 11 -36q0 -12 -1 -24t-1 -29v-109q0 -39 -9 -60q-9 -20 -19 -29q-6 -5 -38 -17q-17 -6 -45 -19q-120 -62 -191 -171t-71 -236 q0 -126 71 -215t212 -89q117 0 173 37t56 78q0 24 -32 68q-31 43 -31 100q0 63 39 92q42 31 100 31q56 0 97 -38q40 -37 40 -107q0 -137 -119 -242t-323 -105q-241 0 -366 113q-124 112 -124 318zM483 963q0 51 36 87q35 35 87 35t87 -35q36 -36 36 -87t-36 -87t-87 -36 t-87 36t-36 87z" />
<glyph unicode="&#xc0;" horiz-adv-x="1884" d="M61 31v30q0 31 7 42q7 10 28 10h76q60 0 79 11q22 12 42 56l561 1299q4 7 9 24q4 15 8 23q1 2 11 16q6 9 15 14q8 5 23 8t34 3q23 0 38 -3q16 -3 25 -14q10 -11 12 -16q3 -6 9 -27q5 -18 11 -28l522 -1311q16 -41 28 -47q16 -8 72 -8h107q29 0 38 -7q7 -6 7 -26v-31 q0 -31 -12 -41q-11 -10 -33 -10q-15 0 -29 1t-33 1h-520q-31 0 -40 12t-9 58q0 25 8 35t29 10q11 0 22 -1t27 -1h55q68 0 68 24q0 5 -19 64l-67 180q-1 3 -6 17q-3 8 -6 17q-3 8 -5 12q-5 8 -8 10q-6 4 -11 7q-8 5 -17 6q-7 1 -25 1h-557q-67 0 -87 -10q-16 -8 -38 -56 l-84 -197q-21 -46 -21 -57q0 -12 17 -15t74 -3h90q25 0 38 -8q11 -7 11 -31v-37q0 -23 -9 -30q-8 -7 -44 -7h-476q-29 0 -37 5t-8 26zM584 1772q0 27 18 48t51 21q13 0 23 -2l438 -106q4 0 22 -3q17 -3 22 -8t5 -14q0 -20 -8 -25q-6 -4 -33 -2l-467 19q-30 2 -50 22 q-21 21 -21 50zM600 590q0 -18 24 -22q27 -5 89 -5h389q21 0 34 -1t25 -1q31 0 31 19q0 11 -8 30l-234 623q-28 72 -45 72q-9 0 -16 -18q-16 -38 -21 -54q-14 -44 -22 -62l-213 -495q-33 -76 -33 -86z" />
<glyph unicode="&#xc1;" horiz-adv-x="1884" d="M61 31v30q0 31 7 42q7 10 28 10h76q60 0 79 11q22 12 42 56l561 1299q4 7 9 24q4 15 8 23q1 2 11 16q6 9 15 14q8 5 23 8t34 3q23 0 38 -3q16 -3 25 -14q10 -11 12 -16q3 -6 9 -27q5 -18 11 -28l522 -1311q16 -41 28 -47q16 -8 72 -8h107q29 0 38 -7q7 -6 7 -26v-31 q0 -31 -12 -41q-11 -10 -33 -10q-15 0 -29 1t-33 1h-520q-31 0 -40 12t-9 58q0 25 8 35t29 10q11 0 22 -1t27 -1h55q68 0 68 24q0 5 -19 64l-67 180q-1 3 -6 17q-3 8 -6 17q-3 8 -5 12q-5 8 -8 10q-6 4 -11 7q-8 5 -17 6q-7 1 -25 1h-557q-67 0 -87 -10q-16 -8 -38 -56 l-84 -197q-21 -46 -21 -57q0 -12 17 -15t74 -3h90q25 0 38 -8q11 -7 11 -31v-37q0 -23 -9 -30q-8 -7 -44 -7h-476q-29 0 -37 5t-8 26zM600 590q0 -18 24 -22q27 -5 89 -5h389q21 0 34 -1t25 -1q31 0 31 19q0 11 -8 30l-234 623q-28 72 -45 72q-9 0 -16 -18q-16 -38 -21 -54 q-14 -44 -22 -62l-213 -495q-33 -76 -33 -86zM743 1708q0 10 8 15q11 7 25 8q12 1 27 4l428 104q10 2 22 2q34 0 52 -21t18 -48q0 -29 -21 -50q-20 -20 -51 -22l-448 -19q-10 0 -18 -1t-15 -1q-27 0 -27 29z" />
<glyph unicode="&#xc2;" horiz-adv-x="1884" d="M61 31v30q0 31 7 42q7 10 28 10h76q60 0 79 11q22 12 42 56l561 1299q4 7 9 24q4 15 8 23q1 2 11 16q6 9 15 14q8 5 23 8t34 3q23 0 38 -3q16 -3 25 -14q10 -11 12 -16q3 -6 9 -27q5 -18 11 -28l522 -1311q16 -41 28 -47q16 -8 72 -8h107q29 0 38 -7q7 -6 7 -26v-31 q0 -31 -12 -41q-11 -10 -33 -10q-15 0 -29 1t-33 1h-520q-31 0 -40 12t-9 58q0 25 8 35t29 10q11 0 22 -1t27 -1h55q68 0 68 24q0 5 -19 64l-67 180q-1 3 -6 17q-3 8 -6 17q-3 8 -5 12q-5 8 -8 10q-6 4 -11 7q-8 4 -18 6q-7 1 -24 1h-557q-67 0 -87 -10q-16 -8 -38 -56 l-84 -197q-21 -46 -21 -57q0 -12 17 -15t74 -3h90q25 0 38 -8q11 -7 11 -31v-37q0 -23 -9 -30q-8 -7 -44 -7h-476q-29 0 -37 5t-8 26zM506 1745q0 5 6 13t18 18q4 4 10 8.5t7 5.5l287 287l13 13l12 12q5 5 10 9q10 8 14 9q2 0 7 2t9 3q8 2 22 4q8 1 27 1q20 0 44 -2 q16 -1 34 -11t22 -14l22 -22q7 -7 14 -15l8 -8l249 -250q4 -4 24 -19q19 -14 26 -24q8 -11 8 -18q0 -13 -21 -25t-37 -12q-15 0 -29 8q-13 7 -35 29q-15 15 -30 27l-225 186q-49 43 -68 43q-17 0 -63 -37l-254 -211q-51 -45 -70 -45q-15 0 -37 11q-24 12 -24 24zM600 590 q0 -18 24 -22q27 -5 89 -5h389q21 0 34 -1t25 -1q31 0 31 19q0 11 -8 30l-234 623q-28 72 -45 72q-9 0 -16 -18q-16 -38 -21 -54q-14 -44 -22 -62l-213 -495q-33 -76 -33 -86z" />
<glyph unicode="&#xc3;" horiz-adv-x="1884" d="M61 31v30q0 31 7 42q7 10 28 10h76q60 0 79 11q22 12 42 56l561 1299q4 7 9 24q4 15 8 23q1 2 11 16q6 9 15 14q8 5 23 8t34 3q23 0 38 -3q16 -3 25 -14q10 -11 12 -16q3 -6 9 -27q5 -18 11 -28l522 -1311q16 -41 28 -47q16 -8 72 -8h107q29 0 38 -7q7 -6 7 -26v-31 q0 -31 -12 -41q-11 -10 -33 -10q-15 0 -29 1t-33 1h-520q-31 0 -40 12t-9 58q0 25 8 35t29 10q11 0 22 -1t27 -1h55q68 0 68 24q0 5 -19 64l-67 180q-1 3 -6 17q-3 8 -6 17q-3 8 -5 12q-5 8 -8 10q-6 4 -11 7q-8 5 -17 6q-7 1 -25 1h-557q-67 0 -87 -10q-16 -8 -38 -56 l-84 -197q-21 -46 -21 -57q0 -12 17 -15t74 -3h90q25 0 38 -8q11 -7 11 -31v-37q0 -23 -9 -30q-8 -7 -44 -7h-476q-29 0 -37 5t-8 26zM453 1757l10 58q22 123 104 185q81 62 193 62q84 0 143 -29q61 -30 91 -67q28 -35 73 -66q43 -30 94 -30q141 0 168 117q0 2 1 8l2 12 t1 12q1 20 5 27q3 6 16 11t39 5q61 0 61 -49q0 -19 -20 -88q-32 -99 -110 -152q-77 -53 -175 -53q-95 0 -162 30q-68 30 -96 67q-26 34 -66 66q-37 30 -77 30q-104 0 -144 -58q-13 -17 -17 -54t-20 -59t-55 -22q-59 0 -59 37zM600 590q0 -18 24 -22q27 -5 89 -5h389 q21 0 34 -1t25 -1q31 0 31 19q0 11 -8 30l-234 623q-28 72 -45 72q-9 0 -16 -18q-16 -38 -21 -54q-14 -44 -22 -62l-213 -495q-33 -76 -33 -86z" />
<glyph unicode="&#xc4;" horiz-adv-x="1884" d="M61 31v30q0 31 7 42q7 10 28 10h76q60 0 79 11q22 12 42 56l561 1299q4 7 9 24q4 15 8 23q1 2 11 16q6 9 15 14q8 5 23 8t34 3q23 0 38 -3q16 -3 25 -14q10 -11 12 -16q3 -6 9 -27q5 -18 11 -28l522 -1311q16 -41 28 -47q16 -8 72 -8h107q29 0 38 -7q7 -6 7 -26v-31 q0 -31 -12 -41q-11 -10 -33 -10q-15 0 -29 1t-33 1h-520q-31 0 -40 12t-9 58q0 25 8 35t29 10q11 0 22 -1t27 -1h55q68 0 68 24q0 5 -19 64l-67 180q-1 3 -6 17q-3 8 -6 17q-3 8 -5 12q-5 8 -8 10q-6 4 -11 7q-8 5 -17 6q-7 1 -25 1h-557q-67 0 -87 -10q-16 -8 -38 -56 l-84 -197q-21 -46 -21 -57q0 -12 17 -15t74 -3h90q25 0 38 -8q11 -7 11 -31v-37q0 -23 -9 -30q-8 -7 -44 -7h-476q-29 0 -37 5t-8 26zM600 590q0 -18 24 -22q27 -5 89 -5h389q21 0 34 -1t25 -1q31 0 31 19q0 11 -8 30l-234 623q-28 72 -45 72q-9 0 -16 -18q-16 -38 -21 -54 q-14 -44 -22 -62l-213 -495q-33 -76 -33 -86zM627 1802q0 51 36 87t87 36t87 -36q35 -35 35 -87t-35 -87q-36 -36 -87 -36t-87 36t-36 87zM1036 1802q0 51 36 87t87 36t87 -36t36 -87t-36 -87t-87 -36t-87 36t-36 87z" />
<glyph unicode="&#xc5;" horiz-adv-x="1884" d="M61 31v30q0 31 7 42q7 10 28 10h76q60 0 79 11q22 12 42 56l561 1299q23 57 35 69q-78 23 -129 88q-51 66 -51 150q0 103 71 174q72 72 174 72t174 -72t72 -174q0 -84 -51 -150q-50 -65 -131 -88q5 -5 31 -69l522 -1311q16 -41 28 -47q16 -8 72 -8h107q29 0 38 -7 q7 -6 7 -26v-31q0 -31 -12 -41q-11 -10 -33 -10q-15 0 -29 1t-33 1h-520q-31 0 -40 12t-9 58q0 25 8 35t29 10q11 0 22 -1t27 -1h55q68 0 68 24q0 5 -19 64l-67 180q-1 3 -6 17q-3 8 -6 17q-3 8 -5 12q-5 8 -8 10q-6 4 -11 7q-8 5 -17 6q-7 1 -25 1h-557q-67 0 -87 -10 q-16 -8 -38 -56l-84 -197q-20 -44 -20 -57q0 -12 16 -15q17 -3 74 -3h90q25 0 38 -8q11 -7 11 -31v-37q0 -23 -9 -30q-8 -7 -44 -7h-476q-29 0 -37 5t-8 26zM600 590q0 -18 24 -22q27 -5 89 -5h389q21 0 34 -1t25 -1q31 0 31 19q0 11 -8 30l-234 623q-28 72 -45 72 q-9 0 -16 -18q-16 -38 -21 -54q-14 -44 -22 -62l-213 -495q-33 -76 -33 -86zM821 1786q0 -57 38 -95t95 -38q58 0 96 38q37 37 37 95t-37 95q-38 38 -96 38q-57 0 -95 -38t-38 -95z" />
<glyph unicode="&#xc6;" horiz-adv-x="2451" d="M0 0v113h231l912 1310h-6q-21 0 -35 -1t-29 -1q-25 0 -38 13q-11 11 -11 51q0 33 9 43t32 10q13 0 25 -1t30 -1h1114q76 0 93 -14q18 -15 18 -66v-303q0 -17 1 -29t1 -26q0 -22 -9 -33q-9 -10 -38 -10q-17 0 -33 2q-12 2 -17 11q-6 13 -7 15q-2 8 -2 26v32 q-11 160 -78 221t-228 61h-397q-71 0 -82 -11q-12 -12 -12 -75v-415q0 -63 12 -75q11 -11 82 -11h80q215 0 242 182q0 2 2 16t2 15q0 3 2 9q1 3 4 6l8 4q6 3 13 3h20q49 0 49 -53q0 -2 -2 -36t-2 -38v-399q0 -22 -8 -30q-7 -7 -41 -7q-30 0 -41 20q-13 22 -17 58t-12 51 q-60 117 -219 117h-113q-44 0 -53 -9q-8 -8 -8 -55v-495q0 -56 10 -69t51 -13h410q188 0 267 70t79 257v39q0 23 9 33t38 10q42 0 49 -7q8 -8 8 -44v-408q0 -45 -12 -54t-69 -9h-1321v113h88q7 4 32 4q4 0 40 -2t42 -2q56 0 70 11t14 50v277h-635l-231 -338h190v-113h-573z M692 563h557v756q0 31 -2 51z" />
<glyph unicode="&#xc7;" horiz-adv-x="1607" d="M113 768q0 336 230 562t548 226q253 0 430 -167q40 -35 47 -35q3 0 4 1q4 3 4 5l4 8l2 4q1 4 2 7t3 7.5t2 6.5q1 3 6 17q5 12 6 22q5 11 9 38q4 25 10 41q4 11 22 24q15 11 43 11q31 0 36 -5t5 -36v-422q0 -50 -8 -60q-8 -9 -56 -9h-10q-29 0 -39 14q-9 13 -14 46t-10 46 q-51 134 -183 227q-130 91 -305 91q-257 0 -405 -190t-148 -480q0 -292 138 -480t395 -188q219 0 363 129q143 128 181 314q0 2 2 16q1 9 4 12l1 1q0 2 0.5 4.5t0.5 4.5q1 6 3 8q4 3 4 5q1 3 6 5q1 1 3.5 2t4.5 1q6 2 11 2h15h17q49 0 49 -24q0 -6 -3 -20t-3 -21 q-33 -234 -197 -388q-163 -152 -423 -169l-111 -140q-29 -40 -29 -45q0 -4 3 -7t12 -5l16 -4q1 0 5.5 -1t9.5 -2l10 -2q26 -5 28 -5q176 -44 176 -144q0 -84 -86 -144q-88 -62 -280 -63q-13 0 -23 -1t-20 -1q-19 0 -30 9q-9 7 -9 34q0 47 29 47l20 -2q20 -2 27 -2 q116 0 182 33q65 33 65 70q0 90 -260 102q-77 1 -77 12q0 5 26 41l174 222q-294 28 -480 246q-185 216 -185 538z" />
<glyph unicode="&#xc8;" horiz-adv-x="1484" d="M82 63q0 54 59 54q4 0 40 -2t42 -2q56 0 70 11t14 50v1145q0 77 -15 91q-14 13 -97 13q-21 0 -35 -1t-29 -1q-25 0 -38 13q-11 11 -11 51q0 33 9 43t32 10q12 0 24 -1t31 -1h1114q75 0 92 -14q19 -16 19 -66v-303q0 -17 1 -29t1 -26q0 -22 -9 -33q-9 -10 -38 -10 q-17 0 -33 2q-12 2 -17 11q-1 2 -4 7.5t-4 7.5q-2 8 -2 26v32q-11 161 -77 221q-67 61 -228 61h-397q-71 0 -82 -11q-12 -12 -12 -75v-415q0 -63 12 -75q11 -11 82 -11h80q215 0 242 182q0 2 2 16t2 15q0 3 2 9q1 3 4 6l8 4q6 3 13 3h20q49 0 49 -53q0 -2 -2 -36t-2 -38 v-399q0 -22 -8 -30q-7 -7 -41 -7q-30 0 -41 20q-13 22 -17 58t-12 51q-60 117 -219 117h-113q-44 0 -53 -9q-8 -8 -8 -55v-495q0 -56 10 -69t51 -13h410q188 0 267 70t79 257v39q0 23 9 33t38 10q42 0 49 -7q8 -8 8 -44v-408q0 -45 -12 -54t-70 -9h-1214q-30 0 -37 11 q-8 13 -8 52zM375 1772q0 27 18 48t51 21q13 0 23 -2l438 -106q4 0 22 -3q17 -3 22 -8t5 -14q0 -20 -8 -25q-6 -4 -33 -2l-467 19q-30 2 -50 22q-21 21 -21 50z" />
<glyph unicode="&#xc9;" horiz-adv-x="1484" d="M82 63q0 54 59 54q4 0 40 -2t42 -2q56 0 70 11t14 50v1145q0 77 -15 91q-14 13 -97 13q-21 0 -35 -1t-29 -1q-25 0 -38 13q-11 11 -11 51q0 33 9 43t32 10q12 0 24 -1t31 -1h1114q75 0 92 -14q19 -16 19 -66v-303q0 -17 1 -29t1 -26q0 -22 -9 -33q-9 -10 -38 -10 q-17 0 -33 2q-12 2 -17 11q-1 2 -4 7.5t-4 7.5q-2 8 -2 26v32q-11 161 -77 221q-67 61 -228 61h-397q-71 0 -82 -11q-12 -12 -12 -75v-415q0 -63 12 -75q11 -11 82 -11h80q215 0 242 182q0 2 2 16t2 15q0 3 2 9q1 3 4 6l8 4q6 3 13 3h20q49 0 49 -53q0 -2 -2 -36t-2 -38 v-399q0 -22 -8 -30q-7 -7 -41 -7q-30 0 -41 20q-13 22 -17 58t-12 51q-60 117 -219 117h-113q-44 0 -53 -9q-8 -8 -8 -55v-495q0 -56 10 -69t51 -13h410q188 0 267 70t79 257v39q0 23 9 33t38 10q42 0 49 -7q8 -8 8 -44v-408q0 -45 -12 -54t-70 -9h-1214q-30 0 -37 11 q-8 13 -8 52zM530 1708q0 10 8 15q11 7 25 8q12 1 27 4l428 104q10 2 22 2q34 0 52 -21t18 -48q0 -29 -21 -50q-20 -20 -51 -22l-448 -19q-10 0 -18 -1t-15 -1q-27 0 -27 29z" />
<glyph unicode="&#xca;" horiz-adv-x="1484" d="M82 63q0 54 59 54q4 0 40 -2t42 -2q56 0 70 11t14 50v1145q0 77 -15 91q-14 13 -97 13q-21 0 -35 -1t-29 -1q-25 0 -38 13q-11 11 -11 51q0 33 9 43t32 10q12 0 24 -1t31 -1h1114q75 0 92 -14q19 -16 19 -66v-303q0 -17 1 -29t1 -26q0 -22 -9 -33q-9 -10 -38 -10 q-17 0 -33 2q-12 2 -17 11q-1 2 -4 7.5t-4 7.5q-2 8 -2 26v32q-11 161 -77 221q-67 61 -228 61h-397q-71 0 -82 -11q-12 -12 -12 -75v-415q0 -63 12 -75q11 -11 82 -11h80q215 0 242 182q0 2 2 16t2 15q0 3 2 9q1 3 4 6l8 4q6 3 13 3h20q49 0 49 -53q0 -2 -2 -36t-2 -38 v-399q0 -22 -8 -30q-7 -7 -41 -7q-30 0 -41 20q-13 22 -17 58t-12 51q-60 117 -219 117h-113q-44 0 -53 -9q-8 -8 -8 -55v-495q0 -56 10 -69t51 -13h410q188 0 267 70t79 257v39q0 23 9 33t38 10q42 0 49 -7q8 -8 8 -44v-408q0 -45 -12 -54t-70 -9h-1214q-30 0 -37 11 q-8 13 -8 52zM295 1745q0 5 6 13t18 18q4 4 10 8.5t7 5.5l287 287l13 13l12 12q5 5 10 9q10 8 14 9q2 0 7.5 2t8.5 3q8 2 22 4q8 1 27 1q20 0 44 -2q16 -1 34 -11t22 -14l22 -22l15 -15l7 -8l249 -250q4 -4 24 -19q19 -14 26 -24q8 -11 8 -18q0 -13 -21 -25t-37 -12 q-15 0 -29 8q-14 7 -35 29q-15 15 -30 27l-225 186q-49 43 -68 43t-63 -37l-254 -211q-51 -45 -70 -45q-15 0 -37 11q-24 12 -24 24z" />
<glyph unicode="&#xcb;" horiz-adv-x="1484" d="M82 63q0 54 59 54q4 0 40 -2t42 -2q56 0 70 11t14 50v1145q0 77 -15 91q-14 13 -97 13q-21 0 -35 -1t-29 -1q-25 0 -38 13q-11 11 -11 51q0 33 9 43t32 10q12 0 24 -1t31 -1h1114q75 0 92 -14q19 -16 19 -66v-303q0 -17 1 -29t1 -26q0 -22 -9 -33q-9 -10 -38 -10 q-17 0 -33 2q-12 2 -17 11q-1 2 -4 7.5t-4 7.5q-2 8 -2 26v32q-11 161 -77 221q-67 61 -228 61h-397q-71 0 -82 -11q-12 -12 -12 -75v-415q0 -63 12 -75q11 -11 82 -11h80q215 0 242 182q0 2 2 16t2 15q0 3 2 9q1 3 4 6l8 4q6 3 13 3h20q49 0 49 -53q0 -2 -2 -36t-2 -38 v-399q0 -22 -8 -30q-7 -7 -41 -7q-30 0 -41 20q-13 22 -17 58t-12 51q-60 117 -219 117h-113q-44 0 -53 -9q-8 -8 -8 -55v-495q0 -56 10 -69t51 -13h410q188 0 267 70t79 257v39q0 23 9 33t38 10q42 0 49 -7q8 -8 8 -44v-408q0 -45 -12 -54t-70 -9h-1214q-30 0 -37 11 q-8 13 -8 52zM414 1802q0 51 36 87t87 36t87 -36q35 -35 35 -87t-35 -87q-36 -36 -87 -36t-87 36t-36 87zM823 1802q0 51 36 87t87 36t87 -36t36 -87t-36 -87t-87 -36t-87 36t-36 87z" />
<glyph unicode="&#xcc;" horiz-adv-x="829" d="M47 1772q0 26 19 48q18 21 51 21q12 0 22 -2l439 -106q3 0 21 -3t23 -8t5 -14q0 -20 -9 -25q-6 -4 -32 -2l-467 19q-30 2 -50 22q-22 22 -22 50zM80 78q0 18 8 26q9 9 35 9h106q57 0 68 9q10 9 10 68v1151q0 52 -16 69t-53 17h-6.5t-8.5 -0.5t-11.5 -1t-13.5 -0.5 q-40 -2 -51 -2h-10q-39 0 -48 9q-7 7 -7 53q0 33 9 43t32 10q9 0 20 -1t29 -1h522q38 0 45 -10q9 -13 9 -53v-19q0 -22 -7 -27q-5 -4 -36 -4h-95q-4 0 -32 2t-29 2q-47 0 -47 -45v-1122q0 -10 -2 -46t-2 -38q0 -33 15 -48t60 -15h119q39 0 47 -11q9 -13 9 -59q0 -45 -41 -45 q-13 0 -26 1t-30 1h-389q-3 0 -9 -0.5t-17 -1t-20 -0.5q-48 -2 -54 -2q-80 0 -80 39q0 14 -1 23t-1 20z" />
<glyph unicode="&#xcd;" horiz-adv-x="829" d="M80 78q0 18 8 26q9 9 35 9h106q57 0 68 9q10 9 10 68v1151q0 52 -16 69t-53 17h-6.5t-8.5 -0.5t-11.5 -1t-13.5 -0.5q-40 -2 -51 -2h-10q-39 0 -48 9q-7 7 -7 53q0 33 9 43t32 10q9 0 20 -1t29 -1h522q38 0 45 -10q9 -13 9 -53v-19q0 -22 -7 -27q-5 -4 -36 -4h-95 q-4 0 -32 2t-29 2q-47 0 -47 -45v-1122q0 -10 -2 -46t-2 -38q0 -33 15 -48t60 -15h119q39 0 47 -11q9 -13 9 -59q0 -45 -41 -45q-13 0 -26 1t-30 1h-389q-3 0 -9 -0.5t-17 -1t-20 -0.5q-48 -2 -54 -2q-80 0 -80 39q0 14 -1 23t-1 20zM203 1708q0 11 7 15q11 7 26 8 q10 1 26 4l428 104q10 2 23 2q33 0 51 -21t18 -48q0 -29 -21 -50q-20 -20 -50 -22l-449 -19q-9 0 -17 -1t-16 -1q-26 0 -26 29z" />
<glyph unicode="&#xce;" horiz-adv-x="829" d="M-33 1745q0 5 6 13q4 5 19 18l16 14l287 287l13 13l13 12q5 5 10 9q10 8 13 9q2 0 7 2t9 3q8 2 22 4q8 1 28 1t44 -2q15 -1 33 -11t22 -14l22 -22l15 -15l7 -8l250 -250q7 -7 23 -19q19 -14 26 -24q8 -11 8 -18q0 -14 -20 -25q-21 -12 -37 -12t-30 8q-13 8 -35 29 q-19 19 -29 27l-226 186q-49 43 -67 43q-20 0 -64 -37l-254 -211q-51 -45 -69 -45q-15 0 -37 11q-25 13 -25 24zM80 78q0 18 8 26q9 9 35 9h106q57 0 68 9q10 9 10 68v1151q0 52 -16 69t-53 17h-6.5t-8.5 -0.5t-11.5 -1t-13.5 -0.5q-40 -2 -51 -2h-10q-39 0 -48 9 q-7 7 -7 53q0 33 9 43t32 10q9 0 20 -1t29 -1h522q38 0 45 -10q9 -13 9 -53v-19q0 -22 -7 -27q-5 -4 -36 -4h-95q-4 0 -32 2t-29 2q-47 0 -47 -45v-1122q0 -10 -2 -46t-2 -38q0 -33 15 -48t60 -15h119q39 0 47 -11q9 -13 9 -59q0 -45 -41 -45q-13 0 -26 1t-30 1h-389 q-3 0 -9 -0.5t-17 -1t-20 -0.5q-48 -2 -54 -2q-80 0 -80 39q0 14 -1 23t-1 20z" />
<glyph unicode="&#xcf;" horiz-adv-x="829" d="M80 78q0 18 8 26q9 9 35 9h106q57 0 68 9q10 9 10 68v1151q0 52 -16 69t-53 17h-6.5t-8.5 -0.5t-11.5 -1t-13.5 -0.5q-40 -2 -51 -2h-10q-39 0 -48 9q-7 7 -7 53q0 33 9 43t32 10q9 0 20 -1t29 -1h522q38 0 45 -10q9 -13 9 -53v-19q0 -22 -7 -27q-5 -4 -36 -4h-95 q-4 0 -32 2t-29 2q-47 0 -47 -45v-1122q0 -10 -2 -46t-2 -38q0 -33 15 -48t60 -15h119q39 0 47 -11q9 -13 9 -59q0 -45 -41 -45q-13 0 -26 1t-30 1h-389q-3 0 -9 -0.5t-17 -1t-20 -0.5q-48 -2 -54 -2q-80 0 -80 39q0 14 -1 23t-1 20zM86 1802q0 51 36 87t87 36t87 -36 t36 -87t-36 -87t-87 -36t-87 36t-36 87zM496 1802q0 52 35 87q36 36 87 36q52 0 88 -36q35 -35 35 -87t-35 -87q-36 -36 -88 -36q-51 0 -87 36q-35 35 -35 87z" />
<glyph unicode="&#xd0;" horiz-adv-x="1689" d="M80 1458q0 12 1 22t1 25q0 33 24 33q8 0 15 -1t16 -1h703q335 0 536 -217t201 -551q0 -330 -207 -549t-530 -219h-670q-16 0 -27 -1t-22 -1q-39 0 -39 49v19q0 32 9 39q10 8 50 8h95q47 0 59 9t12 44v571h-131q-38 0 -46 8q-7 7 -7 54q0 32 8 42q8 9 31 9h145v532 q0 26 -6 34q-6 7 -25 7h-151q-25 0 -36 9q-9 8 -9 26zM502 186q0 -50 9 -62q8 -11 50 -11h279q501 0 501 655q0 300 -123 476q-125 179 -378 179h-281q-42 0 -49 -10q-8 -11 -8 -59v-504h264q15 0 29 -2q8 -1 17 -10q7 -7 7 -27v-29q0 -31 -13 -38t-46 -7h-258v-551z" />
<glyph unicode="&#xd1;" horiz-adv-x="1792" d="M82 82q0 33 22 33q8 0 15 -1t16 -1h86q50 0 64 10t14 43q0 12 -1 24t-1 31v1143q0 37 -14 48t-70 11q-9 0 -41 -2t-33 -2q-30 0 -44 14q-13 13 -13 54q0 31 9 41t32 10q11 0 22 -1t27 -1h238q34 0 58 -3q25 -3 42 -16q20 -15 25 -20q6 -6 24 -33q15 -23 25 -35l737 -966 q53 -68 65 -68q17 0 17 84v869q0 13 1 23t1 20q0 17 -8 25q-7 7 -37 7h-139q-28 0 -36 10q-7 8 -7 50q0 36 7 44q7 9 32 9h425q2 0 30 2t32 2q47 0 47 -33q0 -53 -13 -69q-14 -17 -50 -17q-17 0 -35 1t-43 1h-11q-48 0 -55 -10q-8 -11 -8 -61v-1254q0 -2 2 -32t2 -35 q0 -51 -37 -51q-17 0 -32 5q-13 5 -18 9q-6 6 -15 19q-12 17 -15 20l-901 1171q-9 11 -29 43q-18 29 -28 40t-16 11q-19 0 -19 -114v-1016q0 -34 8 -45q7 -10 33 -10h150q26 0 35 -12q10 -13 10 -52q0 -32 -7 -41q-6 -8 -28 -8h-473q-56 0 -66 11t-10 71zM416 1757l10 58 q22 123 104 185q81 62 193 62q84 0 143 -29q61 -30 91 -67q28 -35 73 -66q44 -30 94 -30q141 0 168 117q0 2 1 8l2 12t1 12q1 17 6 27q3 7 15 11q13 5 39 5q61 0 61 -49q0 -19 -20 -88q-32 -99 -110 -152q-77 -53 -175 -53q-94 0 -162 30t-96 67q-26 34 -66 66 q-37 30 -77 30q-104 0 -144 -58q-13 -17 -17 -54t-20 -59t-55 -22q-59 0 -59 37z" />
<glyph unicode="&#xd2;" horiz-adv-x="1699" d="M113 768q0 336 201 562t536 226q334 0 535 -226q202 -228 202 -562q0 -333 -208 -560q-209 -228 -529 -228q-335 0 -536 226q-201 227 -201 562zM348 768q0 -301 125 -494q125 -192 377 -192q136 0 236 53q98 52 156 151q56 95 83 217q27 120 27 265q0 301 -125 494 q-125 192 -377 192t-377 -192q-125 -193 -125 -494zM481 1772q0 26 19 48q18 21 51 21q12 0 22 -2l439 -106q3 0 21 -3t23 -8t5 -14q0 -20 -8 -25q-6 -4 -33 -2l-467 19q-30 2 -50 22q-22 22 -22 50z" />
<glyph unicode="&#xd3;" horiz-adv-x="1699" d="M113 768q0 336 201 562t536 226q334 0 535 -226q202 -228 202 -562q0 -333 -208 -560q-209 -228 -529 -228q-335 0 -536 226q-201 227 -201 562zM348 768q0 -301 125 -494q125 -192 377 -192q136 0 236 53q98 52 156 151q56 95 83 217q27 120 27 265q0 301 -125 494 q-125 192 -377 192t-377 -192q-125 -193 -125 -494zM639 1708q0 11 7 15q11 7 26 8q10 1 26 4l428 104q10 2 23 2q33 0 51 -21q19 -22 19 -48q0 -28 -22 -50q-20 -20 -50 -22l-449 -19q-9 0 -17 -1t-15 -1q-27 0 -27 29z" />
<glyph unicode="&#xd4;" horiz-adv-x="1699" d="M113 768q0 336 201 562t536 226q334 0 535 -226q202 -228 202 -562q0 -333 -208 -560q-209 -228 -529 -228q-335 0 -536 226q-201 227 -201 562zM348 768q0 -301 125 -494q125 -192 377 -192q136 0 236 53q98 52 156 151q56 95 83 217q27 120 27 265q0 301 -125 494 q-125 192 -377 192t-377 -192q-125 -193 -125 -494zM401 1745q0 4 7 13q6 8 18 18l16 14l287 287l13 13l13 12q5 5 10 9q10 8 13 9q2 1 8 2.5t9 2.5q9 2 21 4q8 1 28 1t44 -2q16 -1 34 -11q15 -8 21 -14l8 -7l15 -15t14 -15l7 -8l250 -250q4 -4 24 -19q17 -13 25 -24t8 -18 q0 -14 -20 -25q-21 -12 -37 -12t-30 8q-14 7 -35 29q-19 19 -29 27l-226 186q-49 43 -67 43t-64 -37l-254 -211q-51 -45 -69 -45q-15 0 -37 11q-25 13 -25 24z" />
<glyph unicode="&#xd5;" horiz-adv-x="1699" d="M113 768q0 336 201 562t536 226q334 0 535 -226q202 -228 202 -562q0 -333 -208 -560q-209 -228 -529 -228q-335 0 -536 226q-201 227 -201 562zM348 768q0 -301 125 -494q125 -192 377 -192q136 0 236 53q98 52 156 151q56 95 83 217q27 120 27 265q0 301 -125 494 q-125 192 -377 192t-377 -192q-125 -193 -125 -494zM348 1757l10 58q22 122 105 185q81 62 192 62q85 0 144 -29q61 -30 91 -67q28 -35 73 -66q43 -30 94 -30q139 0 168 117q0 2 1 8l2 12t1 12q1 20 5 27q3 7 15 11q13 5 39 5q62 0 62 -49q0 -16 -21 -88q-33 -100 -109 -152 q-77 -53 -176 -53q-94 0 -161 30q-70 31 -97 67t-65 66q-37 30 -78 30q-103 0 -143 -58q-14 -19 -18 -54q-5 -39 -19 -59q-16 -22 -55 -22q-60 0 -60 37z" />
<glyph unicode="&#xd6;" horiz-adv-x="1699" d="M113 768q0 336 201 562t536 226q334 0 535 -226q202 -228 202 -562q0 -333 -208 -560q-209 -228 -529 -228q-335 0 -536 226q-201 227 -201 562zM348 768q0 -301 125 -494q125 -192 377 -192q136 0 236 53q98 52 156 151q56 95 83 217q27 120 27 265q0 301 -125 494 q-125 192 -377 192t-377 -192q-125 -193 -125 -494zM522 1802q0 51 36 87t87 36t87 -36t36 -87t-36 -87t-87 -36t-87 36t-36 87zM932 1802q0 51 36 87t87 36t87 -36t36 -87t-36 -87t-87 -36t-87 36t-36 87z" />
<glyph unicode="&#xd7;" d="M215 391q0 13 10 23q4 4 16 13q8 6 17 15l170 170q21 21 21 33q0 14 -35 49l-168 168q-31 31 -31 41q0 8 33 41q25 25 41 25q10 0 20 -7q8 -6 22 -23q16 -20 17 -21l133 -134q43 -43 60 -43q15 0 65 50l150 149q29 29 43 29t51 -37q16 -16 16 -33q0 -16 -11 -27 q-9 -9 -31 -26q-17 -13 -23 -19l-125 -125q-39 -39 -39 -57q0 -16 45 -61l160 -160q22 -22 22 -35q0 -14 -35 -49q-16 -16 -30 -16q-15 0 -29 14q-8 8 -16 17t-21 22l-135 135q-41 41 -57 41q-12 0 -39 -27l-166 -166q-36 -36 -53 -36q-13 0 -37 24q-31 31 -31 43z" />
<glyph unicode="&#xd8;" horiz-adv-x="1699" d="M113 768q0 336 201 562t536 226q110 0 201 -24l20 51q2 6 10 33q1 4 12 33q3 9 14 25q9 14 26 20t41 6q65 0 65 -35q0 -15 -9 -34q-6 -12 -23 -45q-12 -23 -19 -40l-23 -55q200 -91 311 -284q111 -194 111 -439q0 -333 -208 -560q-209 -228 -529 -228q-144 0 -268 45 l-47 -119l-12 -34q-9 -26 -11 -29t-6 -9.5t-6 -9.5q-8 -12 -20 -17q-6 -2 -29 -8q-16 -4 -45 -4q-50 0 -50 27q0 12 18 46q12 23 21 44l70 170q-166 100 -259 283t-93 403zM348 768q0 -367 170 -551l492 1213q-72 24 -160 24q-252 0 -377 -192q-125 -193 -125 -494zM625 135 q103 -53 225 -53q136 0 236 53q98 52 156 151q56 95 83 217q27 120 27 265q0 202 -59 362q-59 161 -175 244z" />
<glyph unicode="&#xd9;" horiz-adv-x="1679" d="M31 1454v57q0 27 30 27q11 0 20 -1t21 -1h562q32 0 32 -33v-20q0 -26 -4 -34t-32 -16q-31 -9 -91 -10h-6q-14 0 -26 1t-27 1q-59 0 -59 -57v-733q0 -256 97 -399q98 -144 333 -144q233 0 326 120t93 402v746q0 39 -8 52q-7 11 -37 11h-149q-11 0 -20 -1t-17 -1 q-25 0 -25 25v57q0 23 5 28t20 5h479q17 0 30 1t28 1q43 0 43 -39q0 -51 -10 -64q-9 -12 -50 -12h-28q-3 0 -39 2t-39 2q-60 0 -60 -47v-766q0 -334 -136 -489q-137 -156 -437 -156q-312 0 -453 172q-141 173 -141 473v752q0 37 -13 47t-67 10h-41q-1 0 -29 -2t-30 -2 q-45 0 -45 35zM471 1772q0 27 18 48t52 21q12 0 22 -2l438 -106q4 0 22 -3t23 -8t5 -14q0 -20 -9 -25q-6 -4 -32 -2l-467 19q-30 2 -50 22q-22 22 -22 50z" />
<glyph unicode="&#xda;" horiz-adv-x="1679" d="M31 1454v57q0 27 30 27q11 0 20 -1t21 -1h562q32 0 32 -33v-20q0 -26 -4 -34t-32 -16q-31 -9 -91 -10h-6q-14 0 -26 1t-27 1q-59 0 -59 -57v-733q0 -256 97 -399q98 -144 333 -144q233 0 326 120t93 402v746q0 39 -8 52q-7 11 -37 11h-149q-11 0 -20 -1t-17 -1 q-25 0 -25 25v57q0 23 5 28t20 5h479q17 0 30 1t28 1q43 0 43 -39q0 -51 -10 -64q-9 -12 -50 -12h-28q-3 0 -39 2t-39 2q-60 0 -60 -47v-766q0 -334 -136 -489q-137 -156 -437 -156q-312 0 -453 172q-141 173 -141 473v752q0 37 -13 47t-67 10h-41q-1 0 -29 -2t-30 -2 q-45 0 -45 35zM629 1708q0 11 7 15q11 7 26 8q10 1 26 4l428 104q10 2 23 2q33 0 51 -21t18 -48q0 -29 -21 -50q-20 -20 -50 -22l-449 -19q-9 0 -17 -1t-16 -1q-26 0 -26 29z" />
<glyph unicode="&#xdb;" horiz-adv-x="1679" d="M31 1454v57q0 27 30 27q11 0 20 -1t21 -1h562q32 0 32 -33v-20q0 -26 -4 -34t-32 -16q-31 -9 -91 -10h-6q-14 0 -26 1t-27 1q-59 0 -59 -57v-733q0 -256 97 -399q98 -144 333 -144q233 0 326 120t93 402v746q0 39 -8 52q-7 11 -37 11h-149q-11 0 -20 -1t-17 -1 q-25 0 -25 25v57q0 23 5 28t20 5h479q17 0 30 1t28 1q43 0 43 -39q0 -51 -10 -64q-9 -12 -50 -12h-28q-3 0 -39 2t-39 2q-60 0 -60 -47v-766q0 -334 -136 -489q-137 -156 -437 -156q-312 0 -453 172q-141 173 -141 473v752q0 37 -13 47t-67 10h-41q-1 0 -29 -2t-30 -2 q-45 0 -45 35zM393 1745q0 5 6 13q4 5 19 18l16 14l287 287l13 13l12 12q1 1 11 9t13 9q2 0 7.5 2t8.5 3q8 2 22 4q8 1 28 1t44 -2q15 -1 33 -11t22 -14l22 -22l15 -15l7 -8l250 -250q7 -7 23 -19q19 -14 26 -24q8 -11 8 -18q0 -14 -20 -25q-21 -12 -37 -12t-30 8 q-14 7 -35 29q-19 19 -29 27l-226 186q-49 43 -67 43q-20 0 -64 -37l-254 -211q-51 -45 -69 -45q-15 0 -37 11q-25 13 -25 24z" />
<glyph unicode="&#xdc;" horiz-adv-x="1679" d="M31 1454v57q0 27 30 27q11 0 20 -1t21 -1h562q32 0 32 -33v-20q0 -26 -4 -34t-32 -16q-31 -9 -91 -10h-6q-14 0 -26 1t-27 1q-59 0 -59 -57v-733q0 -256 97 -399q98 -144 333 -144q233 0 326 120t93 402v746q0 39 -8 52q-7 11 -37 11h-149q-11 0 -20 -1t-17 -1 q-25 0 -25 25v57q0 23 5 28t20 5h479q17 0 30 1t28 1q43 0 43 -39q0 -51 -10 -64q-9 -12 -50 -12h-28q-3 0 -39 2t-39 2q-60 0 -60 -47v-766q0 -334 -136 -489q-137 -156 -437 -156q-312 0 -453 172q-141 173 -141 473v752q0 37 -13 47t-67 10h-41q-1 0 -29 -2t-30 -2 q-45 0 -45 35zM512 1802q0 51 36 87t87 36t87 -36t36 -87t-36 -87t-87 -36t-87 36t-36 87zM922 1802q0 52 35 87q36 36 87 36q52 0 88 -36q35 -35 35 -87t-35 -87q-36 -36 -88 -36q-51 0 -87 36q-35 35 -35 87z" />
<glyph unicode="&#xdd;" horiz-adv-x="1607" d="M0 1489q0 32 5 40q4 7 28 7h545q14 0 26 1t29 1q43 0 43 -29q0 -15 1 -26t1 -23q0 -21 -10 -28q-13 -9 -41 -9h-131q-60 0 -60 -18q0 -8 8 -19q3 -4 10.5 -12.5t11.5 -13.5q12 -14 19 -27l310 -463q43 -63 55 -63q3 0 5 1q4 2 7 5l7 7q5 5 8 9q1 2 7 13q4 8 10 15 q3 3 11 17l332 508q16 26 16 33q0 8 -30 8h-150q-14 0 -23 -1t-20 -1q-21 0 -29 11t-8 41v34q0 17 7 23q8 6 32 6h488q15 0 25 1t22 1q25 0 32 -11q9 -14 9 -46v-11q0 -34 -9 -41q-7 -6 -47 -6h-86q-25 0 -40 -3t-27 -12q-15 -11 -18 -16q-9 -15 -14 -25q-10 -19 -15 -26 l-391 -602q-5 -5 -8 -10t-6 -11q-4 -7 -5 -9l-5 -10l-4 -10q-2 -5 -4 -11l-3 -12q-2 -10 -2 -15q0 -9 -1 -15t-1 -20v-423q0 -60 11 -70t75 -10h102q34 0 47 -9q10 -7 10 -32v-37q0 -37 -34 -37q-12 0 -22 1t-26 1h-536q-30 0 -38 11q-9 12 -9 57q0 32 6 38q7 7 41 7h127 q34 0 42 11q9 12 9 58v377q0 23 -1 33q-2 18 -4 28q-3 14 -6 21q-2 5 -9 19q-4 8 -10 17l-12 18q-3 4 -7 11t-6 9l-430 643q-8 11 -12 17l-10 16q-1 2 -4 6l-5 5q-5 7 -12 10q-5 3 -17 6q-8 2 -22 4q-8 1 -29 1h-72q-43 0 -51 10t-8 56zM592 1708q0 11 7 15q11 7 26 8 q10 1 26 4l428 104q10 2 23 2q33 0 51 -21t18 -48q0 -29 -21 -50q-20 -20 -50 -22l-449 -19q-9 0 -17 -1t-16 -1q-26 0 -26 29z" />
<glyph unicode="&#xe0;" horiz-adv-x="1128" d="M61 252q0 153 140 257q139 103 391 103h80q49 0 49 39q0 13 -1 25t-1 29v47q0 114 -51 177q-50 62 -181 62q-82 0 -134 -23q-54 -24 -54 -57q0 -13 29 -37q28 -24 28 -69q0 -52 -29 -80q-31 -29 -83 -29t-86 33q-35 33 -35 96q0 116 117 188t278 72q211 0 298 -94 q87 -95 87 -239v-607q0 -59 53 -59q39 0 68 29q8 6 15 18q9 14 15 19q8 6 15 6q18 0 34 -16q15 -15 15 -27q0 -23 -45 -68q-67 -67 -166 -67q-113 0 -162 73q-13 19 -17 38t-6 30q-1 10 -5 10q-6 0 -37 -31q-123 -120 -301 -120q-139 0 -228 72q-90 73 -90 200zM211 1300 q0 28 18 49t52 21q12 0 22 -2l438 -106q1 0 4 -0.5t8 -1.5l10 -2q18 -3 22 -7q6 -6 6 -14q0 -20 -9 -25q-6 -4 -32 -2l-467 19q-31 2 -51 22q-21 21 -21 49zM270 283q0 -96 58 -143q56 -46 143 -46q106 0 177 80t71 217v39q0 19 1 32t1 25q0 27 -11 37q-13 11 -51 11h-67 q-171 0 -247 -64q-75 -63 -75 -188z" />
<glyph unicode="&#xe1;" horiz-adv-x="1128" d="M61 252q0 153 140 257q139 103 391 103h80q49 0 49 39q0 13 -1 25t-1 29v47q0 114 -51 177q-50 62 -181 62q-82 0 -134 -23q-54 -24 -54 -57q0 -13 29 -37q28 -24 28 -69q0 -52 -29 -80q-31 -29 -83 -29t-86 33q-35 33 -35 96q0 116 117 188t278 72q211 0 298 -94 q87 -95 87 -239v-607q0 -59 53 -59q39 0 68 29q8 6 15 18q9 14 15 19q8 6 15 6q18 0 34 -16q15 -15 15 -27q0 -23 -45 -68q-67 -67 -166 -67q-113 0 -162 73q-13 19 -17 38t-6 30q-1 10 -5 10q-6 0 -37 -31q-123 -120 -301 -120q-139 0 -228 72q-90 73 -90 200zM270 283 q0 -96 58 -143q56 -46 143 -46q106 0 177 80t71 217v39q0 19 1 32t1 25q0 27 -11 37q-13 11 -51 11h-67q-171 0 -247 -64q-75 -63 -75 -188zM369 1237q0 11 7 15q11 7 25 8q12 1 27 4l428 104q10 2 23 2q33 0 51 -21t18 -49t-21 -49q-20 -20 -50 -22l-449 -19q-9 0 -17 -1 t-16 -1q-26 0 -26 29z" />
<glyph unicode="&#xe2;" horiz-adv-x="1128" d="M61 252q0 153 140 257q139 103 391 103h80q49 0 49 39q0 13 -1 25t-1 29v47q0 114 -51 177q-50 62 -181 62q-82 0 -134 -23q-54 -24 -54 -57q0 -13 29 -37q28 -24 28 -69q0 -52 -29 -80q-31 -29 -83 -29t-86 33q-35 33 -35 96q0 116 117 188t278 72q211 0 298 -94 q87 -95 87 -239v-607q0 -59 53 -59q39 0 68 29q8 6 15 18q9 14 15 19q8 6 15 6q18 0 34 -16q15 -15 15 -27q0 -23 -45 -68q-67 -67 -166 -67q-113 0 -162 73q-13 19 -17 38t-6 30q-1 10 -5 10q-6 0 -37 -31q-123 -120 -301 -120q-139 0 -228 72q-90 73 -90 200zM131 1274 q0 6 6 13q4 5 19 18l16 14l287 287l13 13l12 12q1 1 11 9t13 9q2 1 7 2.5t9 2.5q8 2 22 4q8 1 27 1q20 0 44 -2q16 -1 34 -11t22 -14l22 -22l15 -15l7 -8l250 -250q7 -7 23 -19q19 -14 26 -24q8 -11 8 -18q0 -14 -20 -25q-21 -12 -37 -12t-30 8q-14 7 -35 29q-15 15 -30 27 l-225 186q-49 43 -67 43q-20 0 -64 -37l-254 -211q-51 -45 -69 -45q-15 0 -37 11q-25 12 -25 24zM270 283q0 -96 58 -143q56 -46 143 -46q106 0 177 80t71 217v39q0 19 1 32t1 25q0 27 -11 37q-13 11 -51 11h-67q-171 0 -247 -64q-75 -63 -75 -188z" />
<glyph unicode="&#xe3;" horiz-adv-x="1128" d="M37 1286l10 57q23 123 105 186q81 62 192 62q84 0 143 -29q63 -31 92 -67q31 -39 72 -67q42 -29 94 -29q139 0 168 117q0 2 2 13t3 19q1 20 5 27q3 7 15 11q13 5 39 5q61 0 61 -49q0 -19 -20 -88q-32 -99 -110 -152q-77 -53 -175 -53q-95 0 -162 30q-68 30 -96 67 q-27 36 -65 66t-78 30q-104 0 -144 -58q-13 -17 -17 -54q-5 -39 -19 -59q-16 -22 -56 -22q-59 0 -59 37zM61 252q0 153 140 257q139 103 391 103h80q49 0 49 39q0 13 -1 25t-1 29v47q0 114 -51 177q-50 62 -181 62q-82 0 -134 -23q-54 -24 -54 -57q0 -13 29 -37 q28 -24 28 -69q0 -52 -29 -80q-31 -29 -83 -29t-86 33q-35 33 -35 96q0 116 117 188t278 72q211 0 298 -94q87 -95 87 -239v-607q0 -59 53 -59q39 0 68 29q8 6 15 18q9 14 15 19q8 6 15 6q18 0 34 -16q15 -15 15 -27q0 -23 -45 -68q-67 -67 -166 -67q-113 0 -162 73 q-13 19 -17 38t-6 30q-1 10 -5 10q-6 0 -37 -31q-123 -120 -301 -120q-139 0 -228 72q-90 73 -90 200zM270 283q0 -96 58 -143q56 -46 143 -46q106 0 177 80t71 217v39q0 19 1 32t1 25q0 27 -11 37q-13 11 -51 11h-67q-171 0 -247 -64q-75 -63 -75 -188z" />
<glyph unicode="&#xe4;" horiz-adv-x="1128" d="M61 252q0 153 140 257q139 103 391 103h80q49 0 49 39q0 13 -1 25t-1 29v47q0 114 -51 177q-50 62 -181 62q-82 0 -134 -23q-54 -24 -54 -57q0 -13 29 -37q28 -24 28 -69q0 -52 -29 -80q-31 -29 -83 -29t-86 33q-35 33 -35 96q0 116 117 188t278 72q211 0 298 -94 q87 -95 87 -239v-607q0 -59 53 -59q39 0 68 29q8 6 15 18q9 14 15 19q8 6 15 6q18 0 34 -16q15 -15 15 -27q0 -23 -45 -68q-67 -67 -166 -67q-113 0 -162 73q-13 19 -17 38t-6 30q-1 10 -5 10q-6 0 -37 -31q-123 -120 -301 -120q-139 0 -228 72q-90 73 -90 200zM252 1331 q0 51 36 87t87 36t87 -36t36 -87t-36 -87t-87 -36t-87 36t-36 87zM270 283q0 -96 58 -143q56 -46 143 -46q106 0 177 80t71 217v39q0 19 1 32t1 25q0 27 -11 37q-13 11 -51 11h-67q-171 0 -247 -64q-75 -63 -75 -188zM662 1331q0 52 35 87q36 36 87 36t87 -36t36 -87 t-36 -87t-87 -36t-87 36q-35 35 -35 87z" />
<glyph unicode="&#xe5;" horiz-adv-x="1128" d="M61 252q0 153 140 257q139 103 391 103h80q49 0 49 39q0 13 -1 25t-1 29v47q0 114 -51 177q-50 62 -181 62q-82 0 -134 -23q-54 -24 -54 -57q0 -13 29 -37q28 -24 28 -69q0 -52 -29 -80q-31 -29 -83 -29t-86 33q-35 33 -35 96q0 116 117 188t278 72q211 0 298 -94 q87 -95 87 -239v-607q0 -59 53 -59q39 0 68 29q8 6 15 18q9 14 15 19q8 6 15 6q18 0 34 -16q15 -15 15 -27q0 -23 -45 -68q-67 -67 -166 -67q-113 0 -162 73q-13 19 -17 38t-6 30q-1 10 -5 10q-6 0 -37 -31q-123 -120 -301 -120q-139 0 -228 72q-90 73 -90 200zM270 283 q0 -96 58 -143q56 -46 143 -46q106 0 177 80t71 217v39q0 19 1 32t1 25q0 27 -11 37q-13 11 -51 11h-67q-171 0 -247 -64q-75 -63 -75 -188zM334 1454q0 101 73 174q72 72 173 72t173 -72t72 -174t-72 -174t-173 -72t-173 72q-73 73 -73 174zM446 1454q0 -57 38 -95t96 -38 q57 0 95 38t38 95t-38 95t-95 38q-58 0 -96 -38t-38 -95z" />
<glyph unicode="&#xe6;" horiz-adv-x="1507" d="M82 252q0 154 139 257t391 103h127v140q0 239 -211 239q-82 0 -145 -24q-64 -24 -64 -56q0 -13 29 -37t29 -69q0 -51 -30 -80q-31 -29 -83 -29t-86 33q-35 33 -35 96q0 117 124 189q123 71 313 71q227 0 303 -139q129 139 348 139q125 0 215 -45t138 -125q49 -82 70 -173 q21 -93 21 -207h-729q4 -205 74 -330q69 -125 221 -125q122 0 207 74t125 200h104q-90 -374 -460 -374q-148 0 -255 70q-108 70 -165 194q-61 -264 -398 -264q-139 0 -228 72t-89 200zM291 283q0 -97 57 -143q56 -46 144 -46q56 0 98 17q41 17 77 60t54 129q18 85 18 212v23 h-127q-170 0 -246 -64q-75 -63 -75 -188zM948 623h535q-7 95 -33 181q-23 77 -81 135q-56 56 -138 56q-137 0 -205 -105t-78 -267z" />
<glyph unicode="&#xe7;" horiz-adv-x="1122" d="M92 512q0 255 135 414t375 159q183 0 292 -88q110 -89 110 -217q0 -67 -40 -101t-92 -34q-44 0 -80 33t-36 86q0 43 32 76q33 34 33 55q0 41 -57 68q-55 26 -141 26q-156 0 -240 -130q-84 -131 -84 -306q0 -207 73 -341q72 -132 230 -132q210 0 305 215q5 7 9 21 q2 5 5 11t3 7q1 4 9 10q9 7 18 8q16 2 30 2q49 0 49 -22q0 -14 -8 -33q-61 -139 -149 -223q-86 -82 -224 -94l-110 -140q-29 -40 -29 -45q0 -4 3 -7q3 -4 11 -5l17 -4l9 -2q8 -2 15 -3q24 -4 29 -5q176 -44 176 -144q0 -84 -86 -144q-88 -62 -281 -63q-12 0 -22 -1t-21 -1 q-18 0 -29 9q-9 7 -9 34q0 47 28 47q1 0 21 -2t26 -2q117 0 183 33q65 33 65 70q0 90 -260 102q-78 1 -78 12q0 3 27 41l174 224q-205 28 -310 174q-106 147 -106 352z" />
<glyph unicode="&#xe8;" horiz-adv-x="1118" d="M92 512q0 256 126 415q125 158 366 158q213 0 317 -123q105 -124 123 -327q2 -20 2 -39q0 -38 -15 -50q-14 -11 -59 -11h-575q-49 0 -63 -8q-13 -7 -13 -33q0 -19 2 -43q33 -371 291 -371q206 0 305 205q3 5 10 26q6 19 11 25q5 7 17 12q13 6 36 6q53 0 53 -20 q0 -7 -16 -51q-111 -303 -441 -303q-223 0 -350 153q-127 152 -127 379zM215 1300q0 28 18 49t52 21q12 0 22 -2l438 -106q1 0 4 -0.5t8 -1.5l10 -2q19 -3 23 -7q5 -5 5 -14q0 -20 -9 -25q-6 -4 -32 -2l-467 19q-30 2 -50 22q-22 22 -22 49zM303 651q0 -19 13 -23 q15 -5 55 -5h399q55 0 55 28q0 6 -3 24t-3 25q-43 295 -235 295q-111 0 -177 -69q-67 -70 -90 -185q-14 -74 -14 -90z" />
<glyph unicode="&#xe9;" horiz-adv-x="1118" d="M92 512q0 256 126 415q125 158 366 158q213 0 317 -123q105 -124 123 -327q2 -20 2 -39q0 -38 -15 -50q-14 -11 -59 -11h-575q-49 0 -63 -8q-13 -7 -13 -33q0 -19 2 -43q33 -371 291 -371q206 0 305 205q3 5 10 26q6 19 11 25q5 7 17 12q13 6 36 6q53 0 53 -20 q0 -7 -16 -51q-111 -303 -441 -303q-223 0 -350 153q-127 152 -127 379zM303 651q0 -19 13 -23q15 -5 55 -5h399q55 0 55 28q0 6 -3 24t-3 25q-43 295 -235 295q-111 0 -177 -69q-67 -70 -90 -185q-14 -74 -14 -90zM373 1237q0 11 7 15q11 7 26 8q10 1 26 4l428 104 q10 2 23 2q33 0 51 -21t18 -49t-21 -49q-20 -20 -50 -22l-449 -19q-9 0 -17 -1t-16 -1q-26 0 -26 29z" />
<glyph unicode="&#xea;" horiz-adv-x="1118" d="M92 512q0 256 126 415q125 158 366 158q213 0 317 -123q105 -124 123 -327q2 -20 2 -39q0 -38 -15 -50q-14 -11 -59 -11h-575q-49 0 -63 -8q-13 -7 -13 -33q0 -19 2 -43q33 -371 291 -371q206 0 305 205q3 5 10 26q6 19 11 25q5 7 17 12q13 6 36 6q53 0 53 -20 q0 -7 -16 -51q-111 -303 -441 -303q-223 0 -350 153q-127 152 -127 379zM135 1274q0 6 6 13q4 5 19 18l16 14l287 287l13 13l12 12q1 1 11 9t13 9q2 1 7 2.5t9 2.5q8 2 22 4q8 1 28 1t44 -2q15 -1 33 -11t22 -14l22 -22l15 -15l7 -8l250 -250q7 -7 23 -19q19 -14 26 -24 q8 -11 8 -18q0 -14 -20 -25q-21 -12 -37 -12t-30 8q-14 7 -35 29q-19 19 -29 27l-226 186q-49 43 -67 43q-20 0 -64 -37l-254 -211q-51 -45 -69 -45q-15 0 -37 11q-25 12 -25 24zM303 651q0 -19 13 -23q15 -5 55 -5h399q55 0 55 28q0 6 -3 24t-3 25q-43 295 -235 295 q-111 0 -177 -69q-67 -70 -90 -185q-14 -74 -14 -90z" />
<glyph unicode="&#xeb;" horiz-adv-x="1118" d="M92 512q0 256 126 415q125 158 366 158q213 0 317 -123q105 -124 123 -327q2 -20 2 -39q0 -38 -15 -50q-14 -11 -59 -11h-575q-49 0 -63 -8q-13 -7 -13 -33q0 -19 2 -43q33 -371 291 -371q206 0 305 205q3 5 10 26q6 19 11 25q5 7 17 12q13 6 36 6q53 0 53 -20 q0 -7 -16 -51q-111 -303 -441 -303q-223 0 -350 153q-127 152 -127 379zM256 1331q0 51 36 87t87 36t87 -36t36 -87t-36 -87t-87 -36t-87 36t-36 87zM303 651q0 -19 13 -23q15 -5 55 -5h399q55 0 55 28q0 6 -3 24t-3 25q-43 295 -235 295q-111 0 -177 -69q-67 -70 -90 -185 q-14 -74 -14 -90zM666 1331q0 52 35 87q36 36 87 36q52 0 88 -36q35 -35 35 -87t-35 -87q-36 -36 -88 -36q-51 0 -87 36q-35 35 -35 87z" />
<glyph unicode="&#xec;" horiz-adv-x="634" d="M-61 1772q0 27 18 48t51 21q13 0 23 -2l438 -106q3 0 21 -3t23 -8t5 -14q0 -20 -8 -25q-6 -4 -33 -2l-467 19q-30 2 -50 22q-21 21 -21 50zM51 49q0 42 8 53t41 11h80q40 0 47 13q9 16 9 58v664q0 1 2 29t2 30q0 45 -35 45h-96q-42 0 -50 10t-8 54q0 34 7 41q8 8 30 8 h264q45 0 57 -11q13 -12 13 -40q0 -13 -1 -25t-1 -31v-704q0 -13 -2 -57q0 -9 -0.5 -18.5t-1 -15t-0.5 -7.5q0 -31 13 -37t67 -6q18 0 32 1t29 1q26 0 37 -13q10 -11 10 -53q0 -32 -11 -40q-12 -9 -38 -9h-412q-15 0 -27 -1t-24 -1q-23 0 -32 10q-9 11 -9 41zM195 1434 q0 52 35 87t87 35t87 -35q36 -36 36 -87t-36 -87t-87 -36t-87 36q-35 35 -35 87z" />
<glyph unicode="&#xed;" horiz-adv-x="634" d="M51 49q0 42 8 53t41 11h80q40 0 47 13q9 16 9 58v664q0 1 2 29t2 30q0 45 -35 45h-96q-42 0 -50 10t-8 54q0 34 7 41q8 8 30 8h264q45 0 57 -11q13 -12 13 -40q0 -13 -1 -25t-1 -31v-704q0 -13 -2 -57q0 -9 -0.5 -18.5t-1 -15t-0.5 -7.5q0 -31 13 -37t67 -6q18 0 32 1 t29 1q26 0 37 -13q10 -11 10 -53q0 -32 -11 -40q-12 -9 -38 -9h-412q-15 0 -27 -1t-24 -1q-23 0 -32 10q-9 11 -9 41zM96 1708q0 11 7 15q11 7 26 8q12 1 27 4l428 104q10 2 22 2q33 0 51 -21q19 -22 19 -48q0 -28 -22 -50q-20 -20 -50 -22l-448 -19q-10 0 -18 -1t-15 -1 q-27 0 -27 29zM195 1434q0 52 35 87t87 35t87 -35q36 -36 36 -87t-36 -87t-87 -36t-87 36q-35 35 -35 87z" />
<glyph unicode="&#xee;" horiz-adv-x="634" d="M-139 1745q0 5 6 13t18 18q4 4 10 8.5t7 5.5l286 287l14 13l12 12q5 5 10 9q10 8 14 9q2 0 7.5 2t8.5 3q9 2 21 4q8 1 28 1t44 -2q16 -1 34 -11q15 -8 21 -14l8 -7l15 -15t14 -15l7 -8l250 -250q4 -4 24 -19q17 -13 25 -24q9 -13 9 -18q0 -13 -21 -25t-37 -12 q-15 0 -29 8t-35 29q-15 15 -30 27l-225 186q-49 43 -68 43t-63 -37l-254 -211q-51 -45 -70 -45q-15 0 -37 11q-24 12 -24 24zM51 49q0 42 8 53t41 11h80q40 0 47 13q9 16 9 58v664q0 1 2 29t2 30q0 45 -35 45h-96q-42 0 -50 10t-8 54q0 34 7 41q8 8 30 8h264q45 0 57 -11 q13 -12 13 -40q0 -13 -1 -25t-1 -31v-704q0 -13 -2 -57q0 -9 -0.5 -18.5t-1 -15t-0.5 -7.5q0 -31 13 -37t67 -6q18 0 32 1t29 1q26 0 37 -13q10 -11 10 -53q0 -32 -11 -40q-12 -9 -38 -9h-412q-15 0 -27 -1t-24 -1q-23 0 -32 10q-9 11 -9 41zM195 1434q0 52 35 87t87 35 t87 -35q36 -36 36 -87t-36 -87t-87 -36t-87 36q-35 35 -35 87z" />
<glyph unicode="&#xef;" horiz-adv-x="634" d="M-20 1802q0 52 35 87q36 36 87 36t87 -36t36 -87t-36 -87t-87 -36t-87 36q-35 35 -35 87zM51 49q0 42 8 53t41 11h80q40 0 47 13q9 16 9 58v664q0 1 2 29t2 30q0 45 -35 45h-96q-42 0 -50 10t-8 54q0 34 7 41q8 8 30 8h264q45 0 57 -11q13 -12 13 -40q0 -13 -1 -25 t-1 -31v-704q0 -13 -2 -57q0 -9 -0.5 -18.5t-1 -15t-0.5 -7.5q0 -31 13 -37t67 -6q18 0 32 1t29 1q26 0 37 -13q10 -11 10 -53q0 -32 -11 -40q-12 -9 -38 -9h-412q-15 0 -27 -1t-24 -1q-23 0 -32 10q-9 11 -9 41zM195 1434q0 52 35 87t87 35t87 -35q36 -36 36 -87t-36 -87 t-87 -36t-87 36q-35 35 -35 87zM389 1802q0 51 36 87t87 36t87 -36t36 -87t-36 -87t-87 -36t-87 36t-36 87z" />
<glyph unicode="&#xf1;" horiz-adv-x="1382" d="M61 51q0 38 9 51q8 11 34 11h43q69 0 84 12t15 70v675q0 54 -12 69t-46 15q-13 0 -27 -1t-34 -1q-41 0 -54 10q-12 9 -12 37v43q0 25 39 25q15 0 27 -1t25 -1h237q26 0 33 -10q8 -11 8 -45v-58q0 -80 8 -80q5 0 11 12q2 3 4.5 7.5t6.5 11.5t7 12q7 13 25 35 q114 135 313 135q189 0 260 -78q72 -79 72 -251v-537q0 -19 -1 -33t-1 -28q0 -24 9 -35q9 -10 40 -10h88q34 0 42 -11q7 -10 7 -55q0 -32 -11 -40q-12 -9 -36 -9q-15 0 -29 1t-33 1h-397q-28 0 -39 8q-10 7 -10 29q0 10 1 19t1 24q0 35 41 35q14 0 25 -1t26 -1h33q40 0 50 8 q9 8 9 37v575q0 236 -194 236q-190 0 -281 -181q-47 -96 -47 -290v-303q0 -59 10 -70q10 -12 60 -12h55q38 0 49 -13q10 -11 10 -65q0 -39 -71 -39q-9 0 -49 2t-43 2h-299q-18 0 -29 -1t-21 -1q-22 0 -31 10q-10 12 -10 43zM190 1286l11 57q23 124 104 186t193 62 q84 0 143 -29q61 -30 91 -67t73 -67q42 -29 94 -29q141 0 168 117q0 2 1 8l2 12t1 12q1 20 5 27q3 6 16 11t38 5q62 0 62 -49q0 -16 -21 -88q-33 -100 -109 -152q-77 -53 -175 -53q-95 0 -162 30q-68 30 -96 67q-26 34 -66 66q-37 30 -78 30q-103 0 -143 -58 q-13 -17 -17 -54t-20 -59t-55 -22q-60 0 -60 37z" />
<glyph unicode="&#xf2;" horiz-adv-x="1163" d="M92 512q0 256 126 415q125 158 364 158q235 0 362 -151t127 -381q0 -256 -126 -415q-125 -158 -363 -158q-236 0 -363 151t-127 381zM213 1300q0 28 18 49t52 21q12 0 22 -2l438 -106q1 0 4 -0.5t8 -1.5l10 -2q18 -3 22 -7q6 -6 6 -14q0 -20 -9 -25q-6 -4 -32 -2l-467 19 q-31 2 -51 22q-21 21 -21 49zM307 553q0 -481 275 -481q274 0 274 440q0 481 -274 481q-275 0 -275 -440z" />
<glyph unicode="&#xf3;" horiz-adv-x="1163" d="M92 512q0 256 126 415q125 158 364 158q235 0 362 -151t127 -381q0 -256 -126 -415q-125 -158 -363 -158q-236 0 -363 151t-127 381zM307 553q0 -481 275 -481q274 0 274 440q0 481 -274 481q-275 0 -275 -440zM371 1237q0 11 7 15q11 7 25 8q12 1 27 4l428 104 q10 2 23 2q33 0 51 -21t18 -49t-21 -49q-20 -20 -50 -22l-449 -19q-9 0 -17 -1t-16 -1q-26 0 -26 29z" />
<glyph unicode="&#xf4;" horiz-adv-x="1163" d="M92 512q0 256 126 415q125 158 364 158q235 0 362 -151t127 -381q0 -256 -126 -415q-125 -158 -363 -158q-236 0 -363 151t-127 381zM135 1274q0 6 6 13q4 5 19 18l16 14l287 287l13 13l12 12q1 1 11 9t13 9q2 1 7 2.5t9 2.5q8 2 22 4q8 1 28 1t44 -2q15 -1 33 -11 t22 -14l22 -22l15 -15l7 -8l250 -250q7 -7 23 -19q19 -14 26 -24q8 -11 8 -18q0 -14 -20 -25q-21 -12 -37 -12t-30 8q-14 7 -35 29q-19 19 -29 27l-226 186q-49 43 -67 43q-20 0 -64 -37l-254 -211q-51 -45 -69 -45q-15 0 -37 11q-25 12 -25 24zM307 553q0 -481 275 -481 q274 0 274 440q0 481 -274 481q-275 0 -275 -440z" />
<glyph unicode="&#xf5;" horiz-adv-x="1163" d="M80 1286l10 57q22 123 105 186q81 62 192 62q84 0 143 -29q63 -31 92 -67q31 -39 72 -67q42 -29 94 -29q141 0 168 117q0 2 2 13t3 19q1 20 5 27q3 7 15 11q13 5 39 5q61 0 61 -49q0 -19 -20 -88q-32 -99 -110 -152q-77 -53 -175 -53q-94 0 -162 30t-96 67q-27 36 -65 66 q-37 30 -78 30q-104 0 -144 -58q-13 -17 -17 -54q-5 -39 -19 -59q-16 -22 -56 -22q-59 0 -59 37zM92 512q0 256 126 415q125 158 364 158q235 0 362 -151t127 -381q0 -256 -126 -415q-125 -158 -363 -158q-236 0 -363 151t-127 381zM307 553q0 -481 275 -481q274 0 274 440 q0 481 -274 481q-275 0 -275 -440z" />
<glyph unicode="&#xf6;" horiz-adv-x="1163" d="M92 512q0 256 126 415q125 158 364 158q235 0 362 -151t127 -381q0 -256 -126 -415q-125 -158 -363 -158q-236 0 -363 151t-127 381zM254 1331q0 51 36 87t87 36t87 -36t36 -87t-36 -87t-87 -36t-87 36t-36 87zM307 553q0 -481 275 -481q274 0 274 440q0 481 -274 481 q-275 0 -275 -440zM664 1331q0 52 35 87q36 36 87 36t87 -36t36 -87t-36 -87t-87 -36t-87 36q-35 35 -35 87z" />
<glyph unicode="&#xf7;" horiz-adv-x="1146" d="M102 799q0 33 12 42t42 9h817q22 0 40 -2q12 -1 22 -10q9 -8 9 -27v-29q0 -31 -17 -38t-62 -7h-791q-50 0 -61 8t-11 54zM451 430q0 52 35 87q36 36 87 36t87 -36t36 -87t-36 -87t-87 -36t-87 36q-35 35 -35 87zM451 1157q0 52 35 87q36 36 87 36t87 -36t36 -87t-36 -87 t-87 -36t-87 36q-35 35 -35 87z" />
<glyph unicode="&#xf8;" horiz-adv-x="2048" d="M90 -190q0 6 7 17q2 3 18 26q10 14 14 24l121 223q-158 147 -158 412q0 256 126 415q125 158 364 158q99 0 180 -28l43 82q2 3 13 29q8 20 16 31q7 11 25 19q19 9 48 9q66 0 66 -27q0 -10 -9 -25q-8 -13 -23 -35q-11 -15 -19 -30l-56 -106q205 -144 205 -451 q0 -256 -126 -415q-125 -158 -363 -158q-136 0 -230 49l-84 -156q-2 -3 -13 -29q-9 -21 -13 -25q-9 -9 -18 -16q-14 -11 -33 -12q-26 -2 -52 -2q-49 0 -49 21zM307 553q0 -177 33 -283l369 691q-54 32 -127 32q-275 0 -275 -440zM410 141q66 -69 172 -69q274 0 274 440 q0 237 -63 354z" />
<glyph unicode="&#xf9;" horiz-adv-x="1382" d="M61 1014q0 31 10 43q9 10 31 10q12 0 24 -1t30 -1h184q17 0 27 1t20 1q26 0 34 -11q9 -12 9 -50v-674q0 -119 48 -188q47 -68 147 -68q144 0 236 122q91 121 91 287v398q0 48 -12 59q-11 10 -76 10q-18 0 -30 -1t-25 -1q-23 0 -32 12t-9 44q0 42 7 50q7 9 38 9h231 q64 0 78 -11q15 -12 15 -61v-753q0 -6 -2 -38t-2 -34q0 -29 13 -42t50 -13h70q39 0 47 -8t8 -35v-19q0 -33 -9 -43t-30 -10q-10 0 -20 1t-25 1h-238q-29 0 -37 11q-10 13 -10 57q0 13 2 63q0 11 0.5 21t1 15t0.5 7q0 16 -4 16q-8 0 -35 -41q-117 -169 -339 -169 q-190 0 -261 78t-71 251v611q0 23 -7 27q-8 5 -38 5h-95q-26 0 -35 12q-10 13 -10 50zM231 1300q0 27 19 49q18 21 51 21q13 0 23 -2l438 -106q1 0 3 -0.5l4 -1t6 -1t8 -1.5q19 -3 23 -7q5 -5 5 -14q0 -20 -8 -25q-6 -4 -33 -2l-467 19q-30 2 -50 22q-22 22 -22 49z" />
<glyph unicode="&#xfa;" horiz-adv-x="1382" d="M61 1014q0 31 10 43q9 10 31 10q12 0 24 -1t30 -1h184q17 0 27 1t20 1q26 0 34 -11q9 -12 9 -50v-674q0 -119 48 -188q47 -68 147 -68q144 0 236 122q91 121 91 287v398q0 48 -12 59q-11 10 -76 10q-18 0 -30 -1t-25 -1q-23 0 -32 12t-9 44q0 42 7 50q7 9 38 9h231 q64 0 78 -11q15 -12 15 -61v-753q0 -6 -2 -38t-2 -34q0 -29 13 -42t50 -13h70q39 0 47 -8t8 -35v-19q0 -33 -9 -43t-30 -10q-10 0 -20 1t-25 1h-238q-29 0 -37 11q-10 13 -10 57q0 13 2 63q0 11 0.5 21t1 15t0.5 7q0 16 -4 16q-7 0 -34 -40q-117 -170 -340 -170 q-190 0 -261 78t-71 251v611q0 23 -7 27q-8 5 -38 5h-95q-26 0 -35 12q-10 13 -10 50zM387 1237q0 11 7 15q11 7 26 8q10 1 26 4l428 104q10 2 23 2q33 0 51 -21q19 -22 19 -49t-22 -49q-20 -20 -50 -22l-449 -19q-9 0 -17 -1t-15 -1q-27 0 -27 29z" />
<glyph unicode="&#xfb;" horiz-adv-x="1382" d="M61 1014q0 31 10 43q9 10 31 10q12 0 24 -1t30 -1h184q17 0 27 1t20 1q26 0 34 -11q9 -12 9 -50v-674q0 -119 48 -188q47 -68 147 -68q144 0 236 122q91 121 91 287v398q0 48 -12 59q-11 10 -76 10q-18 0 -30 -1t-25 -1q-23 0 -32 12t-9 44q0 42 7 50q7 9 38 9h231 q64 0 78 -11q15 -12 15 -61v-753q0 -6 -2 -38t-2 -34q0 -29 13 -42t50 -13h70q39 0 47 -8t8 -35v-19q0 -33 -9 -43t-30 -10q-10 0 -20 1t-25 1h-238q-29 0 -37 11q-10 13 -10 57q0 13 2 63q0 11 0.5 21t1 15t0.5 7q0 16 -4 16q-8 0 -35 -40q-117 -170 -339 -170 q-190 0 -261 78t-71 251v611q0 23 -7 27q-8 5 -38 5h-95q-26 0 -35 12q-10 13 -10 50zM152 1274q0 6 6 13t18 18q4 4 10 8.5t7 5.5l286 287l14 13l12 12q5 5 10 9q10 8 13 9q2 1 8 2.5t9 2.5q9 2 21 4q8 1 28 1t44 -2q16 -1 34 -11q15 -8 21 -14l8 -8q8 -7 15 -14t14 -15 l7 -8l250 -250q4 -4 24 -19q17 -13 25 -24t8 -18q0 -14 -20 -25q-21 -12 -37 -12t-30 8q-11 6 -34 29q-15 15 -30 27l-225 186q-49 43 -68 43t-63 -37l-254 -211q-51 -45 -70 -45q-15 0 -37 11q-24 12 -24 24z" />
<glyph unicode="&#xfc;" horiz-adv-x="1382" d="M61 1014q0 31 10 43q9 10 31 10q12 0 24 -1t30 -1h184q17 0 27 1t20 1q26 0 34 -11q9 -12 9 -50v-674q0 -119 48 -188q47 -68 147 -68q144 0 236 122q91 121 91 287v398q0 48 -12 59q-11 10 -76 10q-18 0 -30 -1t-25 -1q-23 0 -32 12t-9 44q0 42 7 50q7 9 38 9h231 q64 0 78 -11q15 -12 15 -61v-753q0 -6 -2 -38t-2 -34q0 -29 13 -42t50 -13h70q39 0 47 -8t8 -35v-19q0 -33 -9 -43t-30 -10q-10 0 -20 1t-25 1h-238q-29 0 -37 11q-10 13 -10 57q0 13 2 63q0 11 0.5 21t1 15t0.5 7q0 16 -4 16q-7 0 -34 -40q-117 -170 -340 -170 q-190 0 -261 78t-71 251v611q0 23 -7 27q-8 5 -38 5h-95q-26 0 -35 12q-10 13 -10 50zM270 1331q0 51 36 87t87 36t87 -36t36 -87t-36 -87t-87 -36t-87 36t-36 87zM680 1331q0 51 36 87t87 36t87 -36t36 -87t-36 -87t-87 -36t-87 36t-36 87z" />
<glyph unicode="&#xfd;" horiz-adv-x="1286" d="M10 1024q0 43 37 43q12 0 22 -1t25 -1h361q18 0 32 1t29 1q26 0 37 -11q12 -12 12 -48q0 -38 -7 -46q-8 -10 -34 -10h-69q-70 0 -70 -26q0 -8 6 -22q7 -15 18 -32q11 -16 17 -32l225 -500q41 -92 51 -92q12 0 52 100l209 533q18 47 18 53q0 18 -72 18q-52 0 -63 11 q-10 10 -10 59v10q0 37 38 37q3 0 27 -2t29 -2h311q35 0 35 -29v-32q0 -32 -9 -43t-32 -11q-12 0 -24 1t-27 1q-25 0 -40 -3q-17 -3 -25 -13q-8 -9 -13 -16q-3 -5 -10 -26q-5 -15 -11 -30l-426 -1073q-129 -323 -380 -323q-116 0 -184 77t-68 187q0 69 36 108q38 41 89 41 q48 0 74 -26q28 -28 28 -74q0 -43 -43 -70t-43 -51q0 -35 31 -63q30 -27 80 -27q70 0 148 70q76 68 142 237l15 37q16 44 16 68t-33 100l-372 819q-16 36 -33 44q-15 7 -72 7h-20q-42 0 -51 11q-9 10 -9 61zM432 1237q0 11 7 15q11 7 26 8q12 1 27 4l428 104q10 2 22 2 q33 0 51 -21q19 -22 19 -49t-22 -49q-20 -20 -50 -22l-448 -19q-10 0 -18 -1t-15 -1q-27 0 -27 29z" />
<glyph unicode="&#xff;" horiz-adv-x="1286" d="M10 1024q0 43 37 43q12 0 22 -1t25 -1h361q18 0 32 1t29 1q26 0 37 -11q12 -12 12 -48q0 -38 -7 -46q-8 -10 -34 -10h-69q-70 0 -70 -26q0 -8 6 -22q7 -15 18 -32q11 -16 17 -32l225 -500q41 -92 51 -92q12 0 52 100l209 533q18 47 18 53q0 18 -72 18q-52 0 -63 11 q-10 10 -10 59v10q0 37 38 37q3 0 27 -2t29 -2h311q35 0 35 -29v-32q0 -32 -9 -43t-32 -11q-12 0 -24 1t-27 1q-25 0 -40 -3q-17 -3 -25 -13q-8 -9 -13 -16q-3 -5 -10 -26q-5 -15 -11 -30l-426 -1073q-129 -323 -380 -323q-116 0 -184 77t-68 187q0 69 36 108q38 41 89 41 q48 0 74 -26q28 -28 28 -74q0 -43 -43 -70t-43 -51q0 -35 31 -63q30 -27 80 -27q70 0 148 70q76 68 142 237l15 37q16 44 16 68t-33 100l-372 819q-16 36 -33 44q-15 7 -72 7h-20q-42 0 -51 11q-9 10 -9 61zM315 1331q0 51 36 87t87 36t87 -36t36 -87t-36 -87t-87 -36 t-87 36t-36 87zM725 1331q0 51 36 87t87 36t87 -36t36 -87t-36 -87t-87 -36t-87 36t-36 87z" />
<glyph unicode="&#x178;" horiz-adv-x="1607" d="M0 1489q0 32 5 40q4 7 28 7h545q14 0 26 1t29 1q43 0 43 -29q0 -15 1 -26t1 -23q0 -21 -10 -28q-13 -9 -41 -9h-131q-60 0 -60 -18q0 -8 8 -19q3 -4 10.5 -12.5t11.5 -13.5q12 -14 19 -27l310 -463q43 -63 55 -63q3 0 5 1q4 2 7 5l7 7q5 5 8 9q1 2 7 13q4 8 10 15 q3 3 11 17l332 508q16 26 16 33q0 8 -30 8h-150q-14 0 -23 -1t-20 -1q-21 0 -29 11t-8 41v34q0 17 7 23q8 6 32 6h488q15 0 25 1t22 1q25 0 32 -11q9 -14 9 -46v-11q0 -33 -9 -40t-47 -7h-86q-25 0 -40 -3t-27 -12q-15 -11 -18 -16q-9 -15 -14 -25q-10 -19 -15 -26 l-391 -602q-5 -5 -8 -10t-6 -11q-4 -7 -5 -9l-5 -10l-4 -10q-2 -5 -4 -11l-3 -12q-2 -10 -2 -15q0 -9 -1 -15t-1 -20v-423q0 -60 11 -70t75 -10h102q34 0 47 -9q10 -7 10 -32v-37q0 -37 -34 -37q-12 0 -22 1t-26 1h-536q-30 0 -38 11q-9 12 -9 57q0 32 6 38q7 7 41 7h127 q34 0 42 11q9 12 9 58v377q0 23 -1 33q-2 18 -4 28q-3 14 -6 21q-2 5 -9 19q-4 8 -10 17l-12 18q-3 4 -7 11t-6 9l-430 643q-8 11 -12 17l-10 16q-1 2 -4 6l-5 5q-5 7 -12 10q-5 3 -17 6q-8 2 -22 4q-8 1 -29 1h-72q-43 0 -51 10t-8 56zM475 1802q0 51 36 87t87 36t87 -36 t36 -87t-36 -87t-87 -36t-87 36t-36 87zM885 1802q0 51 36 87t87 36t87 -36q35 -35 35 -87t-35 -87q-36 -36 -87 -36t-87 36t-36 87z" />
<glyph unicode="&#x2dc;" horiz-adv-x="614" d="M-502 201l10 57q22 122 105 185t192 63q83 0 144 -30q63 -31 91 -66q30 -37 73 -67t94 -30q141 0 168 117q4 31 4 33q1 19 5 26q4 8 15 12q13 5 39 5q62 0 62 -49q0 -16 -21 -88q-33 -101 -109 -153t-175 -52q-95 0 -162 30q-69 31 -96 66q-28 36 -66 67q-36 29 -78 29 q-104 0 -143 -57q-14 -19 -18 -54q-5 -40 -19 -60q-15 -21 -55 -21q-60 0 -60 37z" />
<glyph unicode="&#x2000;" horiz-adv-x="1065" />
<glyph unicode="&#x2001;" horiz-adv-x="2130" />
<glyph unicode="&#x2002;" horiz-adv-x="1065" />
<glyph unicode="&#x2003;" horiz-adv-x="2130" />
<glyph unicode="&#x2004;" horiz-adv-x="710" />
<glyph unicode="&#x2005;" horiz-adv-x="532" />
<glyph unicode="&#x2006;" horiz-adv-x="355" />
<glyph unicode="&#x2007;" horiz-adv-x="355" />
<glyph unicode="&#x2008;" horiz-adv-x="266" />
<glyph unicode="&#x2009;" horiz-adv-x="426" />
<glyph unicode="&#x200a;" horiz-adv-x="118" />
<glyph unicode="&#x2010;" horiz-adv-x="942" d="M123 799q0 32 8 42q8 9 31 9h604q15 0 29 -2q8 -1 17 -10q7 -7 7 -27v-29q0 -31 -13 -38t-46 -7h-584q-38 0 -46 8q-7 7 -7 54z" />
<glyph unicode="&#x2011;" horiz-adv-x="942" d="M123 799q0 32 8 42q8 9 31 9h604q15 0 29 -2q8 -1 17 -10q7 -7 7 -27v-29q0 -31 -13 -38t-46 -7h-584q-38 0 -46 8q-7 7 -7 54z" />
<glyph unicode="&#x2012;" horiz-adv-x="942" d="M123 799q0 32 8 42q8 9 31 9h604q15 0 29 -2q8 -1 17 -10q7 -7 7 -27v-29q0 -31 -13 -38t-46 -7h-584q-38 0 -46 8q-7 7 -7 54z" />
<glyph unicode="&#x2013;" horiz-adv-x="1064" d="M123 799q0 33 9 42t36 9h711q18 0 34 -2q13 -2 21 -10t8 -27v-29q0 -30 -16 -37q-18 -8 -56 -8h-686q-45 0 -53 8t-8 54z" />
<glyph unicode="&#x2014;" horiz-adv-x="1433" d="M123 799q0 34 14 42q15 9 53 9h1031q27 0 49 -2q14 -1 28 -10q13 -8 13 -27v-29q0 -30 -22 -38q-20 -7 -79 -7h-995q-65 0 -79 8q-13 7 -13 54z" />
<glyph unicode="&#x2018;" horiz-adv-x="440" d="M78 1311q0 99 55 191q56 94 152 124q41 12 51 12q26 0 26 -49q0 -16 -5 -24q-6 -10 -12 -11q-19 -4 -21 -4q-14 -1 -25 -6q-55 -22 -90 -74t-35 -118v-19q0 -16 5 -18q6 -2 16 7q12 10 14 11q12 6 41 6q49 0 79 -34q29 -33 29 -86q0 -52 -40 -86q-41 -35 -97 -35 q-62 0 -103 53q-40 52 -40 160z" />
<glyph unicode="&#x2019;" horiz-adv-x="440" d="M78 1065q0 17 5 25q5 9 12 10q18 4 22 4q13 1 24 6q55 22 90 74t35 119v18q0 16 -5 18t-15 -7q-11 -10 -15 -11q-12 -6 -41 -6q-48 0 -78 35q-30 34 -30 86t40 86t97 34q63 0 104 -53q39 -51 39 -160q0 -99 -55 -191q-56 -94 -151 -124q-41 -12 -52 -12q-26 0 -26 49z " />
<glyph unicode="&#x201c;" horiz-adv-x="798" d="M78 1311q0 99 55 191q56 94 152 124q41 12 51 12q27 0 27 -49q0 -14 -6 -24t-12 -11q-19 -4 -21 -4q-14 -1 -25 -6q-55 -22 -90 -74t-35 -118v-19q0 -16 5 -18q6 -2 16 7q12 10 14 11q12 6 41 6q49 0 79 -34q29 -33 29 -86q0 -52 -40 -86q-41 -35 -97 -35q-62 0 -103 53 q-40 52 -40 160zM436 1311q0 97 56 191t151 124q41 12 51 12q27 0 27 -49q0 -16 -5 -24q-6 -10 -13 -11q-19 -4 -21 -4q-14 -1 -25 -6q-55 -22 -90 -74t-35 -118v-19q0 -16 6 -18q5 -2 15 7q12 10 14 11q12 6 41 6q49 0 79 -34t30 -86t-40 -86q-41 -35 -97 -35 q-63 0 -104 53q-40 52 -40 160z" />
<glyph unicode="&#x201d;" horiz-adv-x="798" d="M78 1065q0 17 5 25q5 9 12 10q18 4 22 4q13 1 24 6q55 22 90 74t35 119v18q0 16 -5 18t-15 -7q-11 -10 -15 -11q-12 -6 -41 -6q-48 0 -78 35q-30 34 -30 86t40 86t97 34q63 0 104 -53q39 -51 39 -160q0 -99 -55 -191q-56 -94 -151 -124q-41 -12 -52 -12q-26 0 -26 49z M436 1065q0 17 5 25t13 10q19 4 21 4q14 1 25 6q55 22 90 74t35 119v18q0 16 -5 18q-6 2 -16 -7q-12 -10 -14 -11q-12 -6 -41 -6q-49 0 -79 35q-30 34 -30 86t40 86t98 34q62 0 103 -53q40 -52 40 -160q0 -99 -55 -191q-56 -94 -152 -124q-40 -12 -51 -12q-27 0 -27 49z" />
<glyph unicode="&#x202f;" horiz-adv-x="426" />
<glyph unicode="&#x205f;" horiz-adv-x="532" />
<glyph unicode="&#x25fc;" horiz-adv-x="1064" d="M0 0v1065h1065v-1065h-1065z" />
</font>
</defs>
</svg>
