<?xml version="1.0" standalone="no"?>
<!DOCTYPE svg PUBLIC "-//W3C//DTD SVG 1.1//EN" "http://www.w3.org/Graphics/SVG/1.1/DTD/svg11.dtd" >
<svg xmlns="http://www.w3.org/2000/svg" xmlns:xlink="http://www.w3.org/1999/xlink" version="1.1">
<metadata></metadata>
<defs>
<font id="besley_mediummedium" horiz-adv-x="1085" >
<font-face units-per-em="2048" ascent="1638" descent="-410" />
<missing-glyph horiz-adv-x="614" />
<glyph unicode="&#xfb01;" horiz-adv-x="1392" d="M51 61v37q0 24 4 29q5 6 21 6h100q44 0 51 7q9 9 9 46v721q0 16 -7 21q-5 4 -28 4h-123q-18 0 -22 6q-5 7 -5 29v53q0 30 6 38q6 7 27 7h102q34 0 42 9q8 10 8 52v45q0 210 123 333q124 124 362 124q198 0 311 -70q115 -71 115 -178q0 -80 -48 -128t-120 -48 q-68 0 -111 40t-43 99q0 47 27 81t27 42q0 19 -45 34q-48 16 -109 16q-121 0 -172 -95t-51 -295q0 -44 7 -52q7 -9 38 -9h598q28 0 36 -8q7 -7 7 -45v-799q0 -15 -1 -25t-1 -20q0 -20 9 -28q8 -7 38 -7h100q30 0 34 -7q5 -8 5 -40v-61q0 -27 -26 -27q-9 0 -17 1t-18 1h-492 q-28 0 -35 5q-6 4 -6 30v59q0 24 5 32q4 7 24 7h78q39 0 39 31q0 8 -1 16t-1 21v680q0 31 -7 42q-6 9 -28 9h-332q-38 0 -45 -10q-8 -11 -8 -54v-659q0 -13 -1 -23t-1 -18q0 -20 9 -28q8 -7 40 -7h113q24 0 24 -31v-69q0 -35 -27 -35q-8 0 -16 1t-20 1h-523q-34 0 -42 9 q-7 8 -7 52z" />
<glyph unicode="&#xfb02;" horiz-adv-x="1454" d="M51 47v39q0 32 5 40q4 7 28 7h98q33 0 44 10q12 11 12 33q0 12 -1 24t-1 27v676q0 17 -8 23q-7 6 -31 6h-115q-22 0 -26 6q-5 7 -5 33v45q0 36 5 43q4 6 42 6h82q41 0 48 7q8 8 8 48v51q0 209 119 332q120 125 345 125q176 0 287 -57q5 -2 14 -7.5t12 -7.5q13 -8 21 -12 q7 -4 17 -4q18 0 43 14l77 43q49 27 60 27q12 0 15 -17q3 -18 3 -71v-1358q0 -30 12 -37q13 -8 52 -8h82q23 0 31 -6t8 -23v-69q0 -19 -9 -28q-7 -7 -41 -7h-550q-20 0 -28 8q-7 7 -7 41v49q0 37 28 37q9 0 19 -1t22 -1h82q35 0 35 27q0 7 -1 14t-1 16v990q0 20 -3 22 q-4 2 -22 2q-67 0 -110 40t-43 99q0 46 29 83q28 35 28 44q0 19 -46 32q-48 14 -111 14q-106 0 -155 -96q-48 -94 -48 -294v-18q0 -28 8 -36q7 -7 47 -7h207q16 0 20 -6q4 -5 4 -29v-63q0 -22 -5 -29q-5 -6 -19 -6h-225q-27 0 -32 -6q-5 -7 -5 -39v-680q0 -56 10 -65t66 -9 h139q21 0 25 -7q6 -10 6 -38v-49q0 -22 -6 -32q-4 -7 -21 -7h-637q-21 0 -27 8q-6 7 -6 39z" />
<glyph unicode="&#xfb03;" horiz-adv-x="2119" d="M51 41v61q0 22 6 26q7 5 33 5h98q52 0 52 53q0 2 -2 34t-2 38v631q0 29 -6 37q-5 6 -31 6h-117q-22 0 -27 6q-4 5 -4 33v65q0 29 39 29h115q22 0 26 4q5 5 5 29v32q0 209 119 332q120 125 345 125q241 0 351 -110q133 151 387 151q196 0 311 -71t115 -177q0 -80 -48 -128 t-120 -48q-68 0 -111 40t-43 99q0 47 27 81q26 33 26 42q0 19 -45 34q-48 16 -108 16q-121 0 -172 -95t-51 -295v-28q0 -21 8 -27q7 -6 39 -6h612q28 0 32 -6q5 -7 5 -39v-787q0 -18 -1 -30t-1 -27q0 -22 9 -33q9 -10 40 -10h96q29 0 35 -7t6 -40v-49q0 -24 -5 -31 q-4 -6 -21 -6h-541q-13 0 -21 -1t-16 -1q-31 0 -31 39v63q0 20 9 27q7 6 38 6h99q41 0 41 41q0 15 -1 27t-1 28v668q0 22 -5 29q-4 6 -22 6h-358q-33 0 -39 -7t-6 -44v-664q0 -15 -1 -25t-1 -20q0 -24 11 -31q13 -8 46 -8h108q10 0 13 -1q5 -2 6 -7q2 -8 2 -19v-73 q0 -21 -7 -27q-8 -6 -36 -6h-545q-32 0 -40 5q-7 4 -7 28v73q0 29 25 29q7 0 15 -1t19 -1h91q36 0 36 37q0 11 -1 21t-1 26v678q0 24 -5 31q-5 6 -21 6h-398q-17 0 -21 -7q-5 -8 -5 -32v-678q0 -56 17 -69t91 -13h33q13 0 21 1t16 1q27 0 27 -33v-36q0 -13 1 -21t1 -16 q0 -29 -37 -29h-590q-22 0 -26 6q-5 7 -5 35zM502 1085q0 -11 3 -15t6 -6q3 -1 14 0q8 1 16 1h379q20 0 26 7q6 8 6 38q0 24 -5 37q-5 12 -11 14q-12 3 -24 4q-15 1 -31 6q-46 15 -71 51q-26 37 -26 81q0 45 29 82t29 45q0 18 -37 31q-39 14 -100 14q-94 0 -149 -100 q-54 -99 -54 -290z" />
<glyph unicode="&#xfb04;" horiz-adv-x="2119" d="M51 45v57q0 31 25 31h96q47 0 55 8q9 9 9 56v712q0 23 -31 23h-127q-18 0 -22 7q-5 8 -5 32v53q0 26 5 34q4 7 24 7h92q47 0 55 8q9 9 9 57q0 209 119 332q120 125 345 125q171 0 275 -55q63 -33 74 -33q8 0 15 4q11 7 26 19q12 10 36 26q115 80 291 80q161 0 271 -49 q54 -23 59 -23q8 0 39 13l65 35q1 1 5 3t7.5 4.5t7.5 4.5q4 3 10 7t8 5q7 4 12 4q14 0 14 -47v-1364q0 -17 -1 -28t-1 -21q0 -21 10 -30q11 -9 43 -9h62q12 0 21 1t17 1q18 0 26 -9q7 -8 7 -40v-37q0 -34 -5 -42q-4 -7 -32 -7h-538q-45 0 -53 8q-7 7 -7 53v41q0 31 25 31 h121q41 0 41 33q0 10 -1 20t-1 23v997q-54 7 -91 46q-36 38 -36 91q0 48 28 83q29 37 29 44q0 19 -46 32q-48 14 -112 14q-105 0 -154 -96q-48 -94 -48 -294v-18q0 -28 8 -36q7 -7 47 -7h149q29 0 35 -8q6 -7 6 -45v-25q0 -9 1 -16t1 -15q0 -24 -28 -24h-181q-43 0 -43 -47 q0 -2 1 -12t2 -17q2 -28 2 -33v-647q0 -28 10 -35q11 -8 49 -8h96q17 0 23 -7q6 -8 6 -32v-57q0 -39 -33 -39q-11 0 -21 1t-26 1h-516q-25 0 -32 6t-7 23v57q0 32 6 39q6 8 29 8h110q43 0 43 49q0 2 -2 30t-2 34v645q0 29 -7 35t-44 6h-340q-45 0 -52 -7t-7 -53v-690 q0 -34 10 -41q11 -8 53 -8h115q14 0 20 -6q7 -7 7 -29v-57q0 -45 -43 -45q-2 0 -28 2t-30 2h-522q-21 0 -27 7q-6 8 -6 38zM502 1085q0 -22 41 -22q15 0 27 1t24 1h313q33 0 39 7q6 8 6 46v45h-14q-68 0 -111 40t-43 100q0 45 29 82t29 45q0 18 -37 31q-39 14 -100 14 q-94 0 -149 -100q-54 -99 -54 -290z" />
<glyph horiz-adv-x="0" />
<glyph unicode="&#xd;" horiz-adv-x="681" />
<glyph unicode=" "  horiz-adv-x="614" />
<glyph unicode="&#x09;" horiz-adv-x="614" />
<glyph unicode="&#xa0;" horiz-adv-x="614" />
<glyph unicode="!" horiz-adv-x="735" d="M205 133q0 68 48 116t116 48q67 0 115 -48t48 -116t-48 -116t-115 -48q-68 0 -116 48t-48 116zM205 1329v39q0 86 45 140q46 55 117 55q70 0 117 -55q46 -53 46 -140q0 -10 -1 -18t-1 -21q-10 -159 -60 -411q-50 -255 -50 -394v-24q0 -33 -29 -33h-55q-21 0 -21 35 q0 9 1 16t1 14q-6 128 -53 379q-46 247 -57 418z" />
<glyph unicode="&#x22;" horiz-adv-x="880" d="M100 1427q0 60 41 98t103 38q61 0 102 -38t41 -98q0 -16 -2 -36q-11 -70 -49 -165q-40 -99 -47 -153q-2 -8 -2 -31q0 -24 -6 -33q-7 -10 -27 -10h-29q-24 0 -24 39v29q-8 58 -48 157t-51 167q-2 20 -2 36zM469 1427q0 60 41 98t102 38q62 0 103 -38t41 -98q0 -16 -2 -36 q-11 -70 -49 -165q-41 -103 -48 -153q-2 -8 -2 -31q0 -24 -6 -33q-7 -10 -26 -10h-29q-25 0 -25 39v29q-8 58 -48 157q-39 95 -50 167q-2 20 -2 36z" />
<glyph unicode="#" horiz-adv-x="1351" d="M-20 506v59q0 19 6 24q7 5 32 5h291q18 0 23 1q9 2 13 8q5 7 6 9l2 19q1 11 1 20l33 283q0 8 1 13t1 9q0 17 -33 17h-272q-33 0 -38 5t-5 38v63q0 29 29 29q10 0 19 -1t22 -1h237q44 0 54 8t14 51l51 443q5 36 12 37q7 4 29 4h61q33 0 33 -15q0 -10 -2 -24l-53 -457 q-4 -21 -4 -29q0 -12 8 -15t39 -3h221q15 0 20 1q12 2 15 4q2 1 5 3t4 2q4 2 5 9q2 7 3 12l2 16q1 8 1 18l52 439q4 32 12 37q10 2 26 2h68q23 0 26 -3t1 -24l-52 -451q0 -7 -3 -22t-3 -21q0 -22 45 -22h293h10q8 0 11 1q4 1 8 0l6 -2q4 -3 4 -5q2 -6 2 -10v-66q0 -9 1 -15 t1 -14q0 -22 -28 -22h-338q-21 0 -28 -7t-9 -32l-33 -289q-4 -25 -4 -33q0 -18 37 -18h309q22 0 27 -3q4 -3 4 -26v-71q0 -22 -4 -27q-5 -6 -19 -6h-319q-38 0 -46 -6q-7 -6 -12 -41l-55 -467q0 -13 -1 -22q-2 -16 -2 -17q-2 -6 -5 -10q-6 -8 -12 -9q-10 -2 -23 -2h-68 q-28 0 -28 17q0 4 3 17q3 14 3 20l53 452q0 9 3 24t3 21q0 23 -49 23h-213q-40 0 -48 -6q-6 -5 -11 -45l-55 -478q-4 -32 -11 -39q-6 -6 -43 -6h-51q-35 0 -35 19q0 6 3 19t3 20l56 473q0 9 1 14t1 10q0 13 -7 16t-38 3h-275q-21 0 -25 7q-5 8 -5 38zM485 610q0 -10 8 -13 t33 -3h201q53 0 64 8q10 7 16 53l31 279q0 6 1 9t1 7q0 23 -29 23h-242q-30 0 -37 -7q-8 -8 -12 -42l-33 -285q-2 -16 -2 -29z" />
<glyph unicode="$" horiz-adv-x="1351" d="M74 381q0 81 48 118q49 38 103 38q50 0 93 -37q44 -38 44 -103q0 -41 -37 -75q-38 -35 -38 -56q0 -40 49 -80q50 -41 149 -63q27 -6 41 -6q18 0 22 12q6 15 7 49l31 455q0 9 1 16t1 15q0 29 -10 36q-13 10 -52 21q-84 24 -146 53q-58 28 -119 76q-57 46 -88 119 q-30 72 -30 168q0 186 132 294q130 106 321 123q9 0 17 1q12 1 15 3q1 1 4 1.5t4 0.5q4 2 6 6q1 3 3 11t2 18l6 82q2 24 6 28q5 5 23 5h94q30 0 31 -6t0 -21l-6 -92q0 -6 -1 -11t-1 -9q0 -17 6 -21q4 -3 29 -8q10 -2 12 -2q80 -16 137 -36q55 -20 108 -57q51 -36 78 -103 q27 -66 27 -158q0 -80 -48 -118q-49 -38 -104 -38q-50 0 -93 37q-44 38 -44 102q0 42 43 76t43 55q0 82 -162 117q-21 4 -26 4q-18 0 -19 -43l-24 -379q-2 -22 -2 -38q0 -27 35 -35q89 -22 141 -40q55 -19 126 -59q68 -38 109 -87q42 -50 70 -125q29 -78 29 -175 q0 -196 -133 -316q-132 -119 -373 -140h-31q-37 0 -39 -25l-4 -65q0 -13 -1 -23q-2 -17 -2 -18l-3 -13q-1 -7 -8 -9q-4 -1 -16 -3t-23 -2h-84q-20 0 -18 29l6 82q0 7 1 12t1 10q0 12 -1 16q-2 7 -9 10l-10 4q-3 2 -19 3q-10 2 -12 2q-213 34 -316 127q-102 91 -102 260z M369 1198q0 -141 184 -207q29 -10 39 -10q16 0 18 53l23 336v12q0 48 -31 48q-5 0 -59 -13q-174 -45 -174 -219zM707 137q0 -31 32 -31q1 0 11 2q5 1 12 1q148 18 215 97t67 183q0 100 -60 157q-58 55 -173 95l-51 18q-22 0 -23 -45l-26 -426q-4 -40 -4 -51z" />
<glyph unicode="%" horiz-adv-x="2048" d="M51 1106q0 214 119 338q119 123 311 123q193 0 312 -123q118 -122 118 -338q0 -209 -130 -335q-131 -126 -300 -126q-193 0 -311 123q-119 124 -119 338zM338 1106q0 -180 27 -259t116 -79q90 0 117 79t27 259t-27 259t-117 79q-89 0 -116 -79t-27 -259zM492 18q0 9 7 20 q8 13 19 28q3 4 7.5 9.5t7 9.5t4.5 7l821 1383q2 2 5.5 8.5t5.5 9.5q8 13 9 16t10 12q8 8 14 9q1 0 5 1t7.5 2t7.5 1q18 2 30 2h74q33 0 33 -14q0 -7 -7 -19q-8 -13 -17 -25q-5 -6 -9.5 -13.5t-5.5 -8.5l-791 -1345q-1 -2 -3.5 -7.5t-7 -14.5t-9.5 -18q-17 -31 -25 -40 q-7 -7 -33 -20q-22 -11 -59 -11h-49q-51 0 -51 18zM1137 430q0 216 118 338q119 123 312 123t311 -123q119 -124 119 -338q0 -209 -130 -335q-131 -126 -300 -126q-193 0 -312 123q-118 122 -118 338zM1423 430q0 -180 27 -259t117 -79q89 0 116 79q27 80 27 259 q0 180 -27 259t-116 79q-90 0 -117 -79t-27 -259z" />
<glyph unicode="&#x26;" horiz-adv-x="1781" d="M2 410q0 94 30 169q31 76 88 128q62 56 121 88q64 35 148 69q18 9 30 13q9 3 24 9q13 5 16 7q9 6 11 8q3 5 3 10q0 10 -29 56l-24 37q-94 146 -94 251q0 141 123 226q124 86 329 86q194 0 308 -72t114 -195q0 -132 -80 -217q-78 -82 -225 -149q-6 -4 -22 -9q-3 -1 -19 -9 q-8 -4 -13 -7q-7 -5 -12 -6q-1 0 -8 -5q-3 -2 -5 -7q-1 -3 -1 -8q0 -20 29 -64l215 -340q1 -2 17 -29q13 -23 18 -28q6 -6 14 -6q14 0 37 35q74 107 117 241q20 64 20 72q0 24 -29 24h-90q-30 0 -39 7q-8 6 -8 28v82q0 39 31 39q8 0 18 -1t23 -1h340q15 0 25 1t22 1 q33 0 33 -39v-80q0 -24 -8 -30q-9 -7 -39 -7h-62q-45 0 -54 -6q-11 -7 -18 -41q-52 -238 -206 -430q-21 -27 -21 -43q0 -11 4 -18q10 -16 16 -24q10 -12 17 -25q22 -33 43 -40q20 -7 84 -7h158q37 0 46 -12t9 -60v-37q0 -29 -10 -38q-11 -9 -33 -9q-15 0 -28 1t-31 1h-328 q-21 0 -29 1q-14 2 -22 4q-4 1 -9.5 2.5t-6.5 1.5q-4 1 -12 9q-2 2 -4 4.5t-4 4.5l-1 2q-4 4 -10 15q-5 9 -13 17q-24 37 -43 37q-8 0 -63 -32q-185 -97 -377 -97q-232 0 -392 116q-159 115 -159 325zM309 451q0 -154 83 -231t233 -77q99 0 198 39q82 30 82 60q0 21 -41 82 l-243 372q-31 48 -43 62q-15 16 -33 16q-22 0 -80 -41q-156 -111 -156 -282zM588 1290q0 -75 143 -291q215 101 215 291q0 62 -45 108t-125 46q-87 0 -137 -43q-51 -43 -51 -111z" />
<glyph unicode="'" horiz-adv-x="489" d="M100 1427q0 60 41 98t103 38q61 0 102 -38t41 -98q0 -16 -2 -36q-11 -70 -49 -165q-40 -99 -47 -153q-2 -8 -2 -31q0 -24 -6 -33q-7 -10 -27 -10h-29q-24 0 -24 39v29q-8 58 -48 157t-51 167q-2 20 -2 36z" />
<glyph unicode="(" horiz-adv-x="952" d="M113 666q0 378 189 625q188 246 519 335q33 10 37 10q13 0 19 -16l24 -72q6 -18 6 -24q0 -12 -30 -19q-243 -80 -345 -282q-102 -203 -102 -557q0 -350 97 -565t319 -304q4 -3 26 -8q20 -5 26 -10q7 -6 7 -17q0 -6 -2 -14l-24 -72q-6 -20 -29 -20q-16 0 -70 20 q-309 99 -488 359t-179 631z" />
<glyph unicode=")" horiz-adv-x="911" d="M4 -233q0 10 31 18q241 79 344 283q102 202 102 557q0 349 -97 564t-318 304q-4 2 -27 8q-20 5 -26 10q-7 6 -7 17q0 6 2 14l25 72q6 20 28 20q16 0 70 -20q310 -99 489 -359t179 -630q0 -377 -190 -626q-188 -246 -519 -335q-33 -10 -37 -10q-12 0 -18 16l-25 72 q-6 18 -6 25z" />
<glyph unicode="*" horiz-adv-x="1300" d="M180 860q0 74 68 115q41 24 94 38q48 12 119 22q51 7 94 16q35 11 35 14q0 4 -37 14q-33 8 -82 16q-59 9 -101 18q-46 9 -91 27q-49 19 -73 50q-26 34 -26 80q0 61 45 106t99 45q43 0 98 -39q36 -28 62 -57q25 -27 61 -72q42 -51 47 -57q34 -39 43 -39q4 0 4 8 q0 11 -12 52q-2 7 -27 69q-20 50 -32 86q-13 38 -19 84q-2 20 -2 37q0 59 41 97t102 38q62 0 103 -38t41 -97q0 -7 -3 -37q-6 -44 -19 -83q-16 -47 -31 -84t-25 -68q-13 -44 -13 -54q0 -8 5 -8q10 0 49 45q9 8 49 61q37 48 73 84q32 32 70 54q35 18 68 18q53 0 98 -45 t45 -106q0 -75 -67 -115q-55 -34 -178 -54q-120 -19 -136 -24q-28 -6 -28 -12t28 -12q41 -11 84 -17q53 -7 103 -17q45 -9 93 -27q49 -18 75 -50t26 -82q0 -61 -45 -106t-98 -45q-43 0 -99 39q-48 38 -110 114t-82 96q-25 25 -27 23t2 -23q7 -39 45 -129t45 -155 q3 -30 3 -37q0 -59 -41 -97t-103 -38q-61 0 -102 38t-41 97q0 17 2 37q11 68 44 152q33 86 42 120q6 21 6 29q0 4 -2 4q-4 0 -25 -21q-11 -11 -85 -101q-76 -92 -138 -130q-35 -18 -67 -18q-54 0 -99 45t-45 106z" />
<glyph unicode="+" d="M123 631v41q0 26 5 34q4 7 24 7h278q32 0 39 9q8 10 8 48v252q0 31 7 37q8 6 42 6h49q35 0 35 -27q0 -7 -1 -15t-1 -19v-218q0 -12 -1 -22t-1 -19q0 -32 43 -32h250q13 0 21 1t16 1q27 0 27 -35v-66q0 -36 -27 -36q-8 0 -16 1t-21 1h-233q-10 0 -17 1t-14 1 q-27 0 -27 -33v-281q0 -31 -7 -37t-42 -6h-45q-22 0 -30 6q-7 6 -7 23v278q0 30 -8 40t-29 10q-8 0 -18 -1t-23 -1h-225q-39 0 -45 6t-6 45z" />
<glyph unicode="," horiz-adv-x="542" d="M78 -260q0 9 2 19q0 2 4 13q1 4 7 8q3 2 9 4q5 2 16 3q2 0 17 4q69 18 125 68t66 112q4 21 3 28t-8 9q-6 2 -20 -4q-35 -14 -78 -14q-64 0 -101 46q-38 47 -38 116q0 65 52 113t126 48q205 0 205 -295q0 -132 -99 -223q-100 -92 -233 -110q-14 -2 -27 -2q-16 0 -22 9 t-6 38v10z" />
<glyph unicode="-" horiz-adv-x="942" d="M123 754v73q0 29 12 36q11 7 43 7h610q25 0 28 -5t3 -34v-79q0 -26 -6 -31q-5 -4 -43 -4h-602q-30 0 -38 6q-7 6 -7 31z" />
<glyph unicode="." horiz-adv-x="491" d="M82 133q0 68 48 116t116 48q67 0 115 -48q49 -49 49 -116t-49 -116q-48 -48 -115 -48q-68 0 -116 48t-48 116z" />
<glyph unicode="/" horiz-adv-x="1064" d="M88 -283q0 13 15 41q18 34 20 39l657 1721q1 4 8 24q2 6 5.5 13.5t3.5 8.5q1 4 8 14q6 9 14 11q2 0 9.5 2t13.5 3q15 3 35 3h55q43 0 43 -28q0 -12 -8 -31q-7 -16 -20 -41q-6 -12 -15 -35l-623 -1652q-5 -10 -12 -39q-7 -27 -14 -41q-6 -12 -25 -25q-18 -12 -45 -12h-80 q-45 0 -45 24z" />
<glyph unicode="0" d="M61 573q0 292 129 448q130 157 353 157q234 0 358 -154q123 -153 123 -451q0 -285 -134 -445q-134 -159 -347 -159q-223 0 -353 157q-129 156 -129 447zM369 573q0 -242 39 -356q39 -115 135 -115q105 0 140 108q34 106 34 363q0 258 -34 364q-34 107 -140 107 q-96 0 -135 -114t-39 -357z" />
<glyph unicode="1" d="M113 45v33q0 44 9 55q9 10 46 10h160q57 0 76 14q18 13 18 52q0 14 -1 29t-1 36v488q0 32 -9 40q-8 7 -55 7h-139q-12 0 -21 -1t-18 -1q-18 0 -24 8q-7 9 -7 35v53q0 36 7 43q6 6 43 6q149 1 231 34q79 31 139 142q3 2 13 31q11 29 22 39t37 10h29q28 0 28 -22v-936 q0 -72 13 -90q12 -17 65 -17h125q64 0 74 -10t10 -74q0 -38 -10 -49q-11 -12 -35 -12q-13 0 -26 1t-31 1h-707q-44 0 -52 7q-9 8 -9 38z" />
<glyph unicode="2" d="M49 -2q0 16 12 72q29 165 147 287q116 121 288 194q144 61 185 128q40 65 40 181q0 211 -205 211q-94 0 -162 -30q-67 -30 -67 -64q0 -13 31 -26q33 -14 64 -45q32 -32 32 -91q0 -70 -49 -115t-109 -45q-68 0 -120 46t-52 130q0 154 130 250q132 97 323 97q220 0 347 -86 q126 -86 126 -252q0 -130 -120 -239q-119 -108 -364 -181q-142 -43 -243 -150q-68 -74 -68 -75h1q1 0 4 1.5l7 3.5q4 3 39 20q30 15 53 24q42 16 91 16q86 0 181 -45t159 -45q135 0 168 88q5 11 6 31q1 19 10 26t33 7h28q29 0 39 -6q8 -5 8 -25v-21q-18 -342 -305 -342 q-105 0 -229 62q-122 61 -191 61q-75 0 -112 -37q-11 -11 -15 -17q-6 -9 -9 -15q-4 -8 -9 -12q-7 -5 -18 -8q-12 -3 -31 -3h-41q-33 0 -33 39z" />
<glyph unicode="3" d="M51 -2q0 77 45 127q45 49 107 49q61 0 99 -35t38 -104q0 -53 -43 -90t-43 -56q0 -46 61 -83t168 -37q252 0 252 313q0 289 -241 332q-15 2 -33 3q-19 2 -26 3q-3 1 -16 7q-9 5 -12 18q-4 18 -4 36q0 27 1 35q2 12 10 19q6 5 13 7q1 0 4.5 0.5t9.5 1t10 0.5q18 2 30 3 q128 18 171 91q42 72 42 183q0 250 -211 250q-66 0 -116 -34q-52 -35 -52 -68q0 -20 43 -54t43 -88q0 -70 -37 -104q-38 -35 -100 -35q-64 0 -107 42q-44 42 -44 114q0 135 109 234q111 100 302 100q197 0 329 -91q130 -90 130 -266q0 -213 -162 -291q-28 -13 -62 -21 q-14 -3 -32 -7.5l-22 -5.5q-19 -5 -19 -9q0 -7 78 -36q260 -92 260 -369q0 -176 -137 -298t-363 -122q-236 0 -355 93q-118 93 -118 243z" />
<glyph unicode="4" d="M72 186q0 35 28 95q46 93 161 257q121 174 195 297q83 140 101 248q8 54 18 58q11 6 58 6h143q51 0 51 -35q0 -16 -12 -61q-27 -119 -118 -236q-95 -123 -221 -252q-129 -132 -185 -209q-12 -12 -23 -25q-14 -16 -23 -31q-7 -11 -7 -19q0 -23 61 -23h272q38 0 46 8t8 53 v164q0 26 9 44t19 25q3 2 7.5 4.5t12 6.5t12.5 7q23 13 34 20q73 53 112 125q6 7 8 16q3 11 6 15q4 6 11 10t21 4q12 0 15 -1q6 -2 7 -6l3 -9q2 -3 0 -12q-1 -6 -1 -15v-412q0 -31 9 -39q10 -8 48 -8h64q12 0 17 -6q5 -7 5 -27v-84q0 -14 -7 -20t-29 -6h-62q-30 0 -38 -5 q-7 -4 -7 -26v-160q0 -14 -1 -24t-1 -21q0 -26 11 -33q13 -8 48 -8h54q28 0 36 -6q7 -6 7 -25v-77q0 -37 -29 -37q-8 0 -18 1t-23 1h-485q-37 0 -43 6t-6 43v63q0 19 7 25q8 6 34 6h63q46 0 58 9t12 42v176q0 28 -9 41q-8 11 -28 11q-11 0 -20 -1t-23 -1h-416q-40 0 -48 11 q-9 12 -9 62z" />
<glyph unicode="5" d="M72 -23q0 78 44 133q44 54 117 54q69 0 99 -43q30 -44 30 -107q0 -42 -21 -69q-20 -26 -44 -42q-23 -15 -23 -30q0 -30 56 -62t133 -32q146 0 209 88q63 89 63 256q0 216 -49 308q-50 93 -182 93q-105 0 -162 -45q-12 -10 -27 -27q-19 -22 -39 -35q-22 -14 -49 -14h-49 q-49 0 -49 33q0 8 5 33t5 37l66 575q1 6 3 24l2 19q0 1 1.5 6t2.5 8q3 8 6 10l4 2q4 1 7 3q7 4 19 4h26h230q72 0 133 -4t82 -4q55 0 92 39q2 2 10 12q4 5 11 12q6 6 13 8q9 3 23 3h41q25 0 32 -3t7 -16q0 -100 -22 -170q-18 -66 -66 -96q-47 -29 -147 -38q-101 -9 -336 -9 q-12 0 -20 1t-15 1q-31 0 -33 -35l-20 -184q-4 -47 -4 -58q0 -26 10 -26q5 0 18 5q9 3 32 14q26 12 38 16q60 20 164 20q239 0 357 -129q118 -128 118 -352t-158 -358t-383 -134q-185 0 -298 88t-113 217z" />
<glyph unicode="6" d="M51 717q0 206 64 381q62 171 190 279q127 108 297 108q147 0 244 -67q96 -66 96 -187q0 -156 -151 -156q-62 0 -100 35t-38 104q0 41 18 65t35 34t17 20q0 45 -111 45q-68 0 -120 -35q-51 -34 -81 -101q-30 -66 -45 -144q-16 -85 -22 -180q-2 -22 -2 -41q0 -31 8 -31 q5 0 14 9l24 25q13 13 30 25q73 47 188 47q179 0 303 -130q125 -131 125 -351q0 -199 -132 -350q-132 -152 -351 -152q-257 0 -379 187q-121 185 -121 561zM338 532q0 -91 11 -160q12 -77 37 -144q25 -66 73 -107q47 -39 112 -39q59 0 96 34q38 35 54 98q16 64 21 122 q6 76 6 135q0 183 -42 271q-42 89 -145 89q-107 0 -165 -85t-58 -214z" />
<glyph unicode="7" horiz-adv-x="1105" d="M59 846q0 13 4 32q5 23 5 29q34 291 301 291q107 0 229 -61q124 -62 190 -62q82 0 119 43q6 6 14 22t16 21q9 6 32 6h37q36 0 36 -20q0 -14 -10 -43q-28 -88 -165 -325q-141 -244 -185 -333q-71 -145 -96 -217t-25 -135t60 -129q59 -65 59 -133q0 -73 -49 -116 q-50 -44 -131 -44t-138 62q-57 61 -57 176q0 71 24 149q26 84 44 119q23 45 84 149q70 120 84 146q40 74 217 352q7 9 14 20q4 6 12 17q4 5 4 10t-8 5q-3 0 -41 -6q-32 -5 -43 -5q-87 0 -181 45q-95 45 -159 45q-135 0 -168 -88q-5 -11 -6 -22l-3 -19q-1 -6 -6 -12t-14 -8 q-12 -2 -28 -2h-31q-41 0 -41 41z" />
<glyph unicode="8" d="M72 389q0 228 239 334q54 25 54 29q0 3 -8 8q-5 3 -25 13q-17 8 -35 20q-184 112 -184 292q0 175 116 287q118 113 314 113q195 0 313 -113q117 -112 117 -287q0 -97 -51 -173q-50 -75 -136 -121q-57 -30 -57 -35q0 -11 51 -35q234 -128 234 -332q0 -186 -128 -303 t-343 -117t-343 117t-128 303zM358 389q0 -66 7 -124q6 -50 24 -98t57 -72q37 -23 97 -23q59 0 96 23q39 24 57 72q19 52 25 98q6 49 6 124q0 153 -37 233t-147 80q-111 0 -148 -80t-37 -233zM399 1085q0 -55 7 -109q6 -50 20 -89q15 -45 44 -66q29 -22 73 -22q43 0 72 22 q29 21 44 66q15 44 21 89q6 47 6 109q0 63 -6 110q-6 45 -21 89q-15 45 -44 66q-29 22 -72 22q-44 0 -73 -22q-29 -21 -44 -66q-14 -39 -20 -89q-7 -54 -7 -110z" />
<glyph unicode="9" d="M51 676q0 198 132 350t352 152q256 0 378 -187q121 -185 121 -561q0 -208 -63 -381q-62 -170 -191 -279q-128 -108 -297 -108q-146 0 -243 67t-97 187q0 156 152 156q61 0 99 -35t38 -105q0 -41 -17 -64q-18 -24 -35 -34q-18 -10 -18 -20q0 -45 111 -45q71 0 121 34 t81 102q30 66 45 144t21 180q2 22 2 41q0 31 -8 31q-4 0 -13 -9l-25 -25q-16 -16 -29 -25q-73 -47 -189 -47q-179 0 -303 130q-125 131 -125 351zM338 676q0 -184 42 -272q42 -89 144 -89q107 0 165 85q59 86 59 214q0 86 -12 161q-12 77 -37 144q-25 68 -72 107 q-46 39 -113 39q-58 0 -95 -34q-38 -35 -54 -98q-18 -70 -22 -122q-5 -63 -5 -135z" />
<glyph unicode=":" horiz-adv-x="405" d="M82 133q0 68 48 116t116 48q67 0 115 -48q49 -49 49 -116t-49 -116q-48 -48 -115 -48q-68 0 -116 48t-48 116zM82 993q0 68 48 116t116 48q67 0 115 -48q49 -49 49 -116q0 -66 -49 -115t-115 -49q-67 0 -116 49q-48 48 -48 115z" />
<glyph unicode=";" horiz-adv-x="440" d="M78 -260q0 9 2 19q0 2 4 13q1 4 7 8q3 2 9 4q5 2 16 3q2 0 17 4q69 18 125 68t66 112q4 21 3 28t-8 9q-6 2 -20 -4q-35 -14 -78 -14q-64 0 -101 46q-38 47 -38 116q0 65 52 113t126 48q205 0 205 -295q0 -132 -99 -223q-100 -92 -233 -110q-14 -2 -27 -2q-16 0 -22 9 t-6 38v10zM82 993q0 68 48 116t116 48q67 0 115 -48q49 -49 49 -116q0 -66 -49 -115t-115 -49q-67 0 -116 49q-48 48 -48 115z" />
<glyph unicode="&#x3c;" horiz-adv-x="1146" d="M123 727v133q0 13 2 27q1 10 9 16l12 9q5 3 19 8q15 5 19 6l758 293q6 1 21 9l24 12q12 5 19 5q18 0 18 -31v-57q0 -25 -3 -41q-1 -5 -2.5 -13.5t-2.5 -12.5q-2 -12 -12 -19q-12 -9 -16 -10q-1 0 -4 -1.5t-9 -3.5l-12 -4q-22 -8 -29 -12l-549 -213q-70 -27 -70 -34 q0 -9 78 -37l545 -211q9 -4 26 -9q4 -1 8.5 -3t8 -3.5t5.5 -2.5q6 -3 16 -9q10 -7 13 -14q2 -6 6 -24q3 -15 3 -36v-61q0 -41 -20 -41q-7 0 -19 5l-24 12l-23 12l-770 297q-37 16 -40 24q-5 12 -5 35z" />
<glyph unicode="=" horiz-adv-x="1146" d="M123 600v74q0 28 12 36q11 7 43 7h815q25 0 28 -5t3 -34v-80q0 -26 -5 -31q-4 -4 -44 -4h-807q-30 0 -38 6q-7 6 -7 31zM123 907v74q0 29 12 36q11 7 43 7h815q25 0 28 -5t3 -34v-80q0 -26 -5 -31q-4 -4 -44 -4h-807q-29 0 -38 7q-7 6 -7 30z" />
<glyph unicode="&#x3e;" horiz-adv-x="1146" d="M123 373v57q0 24 3 41q1 3 2.5 13t2.5 14q1 10 12 18q12 9 16 10q1 0 4.5 1.5t9 4t11.5 4.5q26 9 29 11l549 213q69 27 69 35t-77 36l-545 211q-17 7 -26 10q-8 2 -22 8q-9 4 -17 9q-9 6 -12 14q-2 6 -6 24q-3 15 -3 36v61q0 41 20 41q7 0 19 -5l24 -12l23 -11l770 -297 q36 -16 40 -25q5 -12 5 -35v-133q0 -13 -2 -27q-1 -10 -9 -16q-2 -2 -13 -9q-3 -2 -18 -7t-19 -6l-758 -293q-2 -1 -21 -10l-24 -12q-12 -5 -19 -5q-18 0 -18 31z" />
<glyph unicode="?" horiz-adv-x="1167" d="M92 1210q0 140 122 248q123 109 341 109q269 0 399 -117q131 -117 131 -324q0 -139 -105 -253q-103 -112 -280 -164q-1 0 -26 -7q-4 -1 -9.5 -2.5t-8.5 -2.5t-4 -1q-3 -1 -12 -8q-8 -6 -9 -18q-2 -16 -2 -33v-117q0 -32 -13 -42q-12 -9 -59 -9h-53q-41 0 -41 35 q0 11 1 21t1 26v135q0 16 2 34q0 2 4 21q2 9 9 15q9 7 12 8q1 0 4 1.5t7 3t8 2.5q18 5 24 9q262 108 262 387q0 126 -58 210q-57 83 -184 83q-105 0 -162 -33t-57 -71q0 -25 41 -78t41 -111q0 -62 -44 -103q-43 -40 -114 -40q-72 0 -120 50t-48 136zM387 133q0 68 48 116 t116 48t116 -48t48 -116t-48 -116t-116 -48t-116 48t-48 116z" />
<glyph unicode="@" horiz-adv-x="2170" d="M92 453q0 248 89 470q88 219 239 373q153 156 352 243q204 89 426 89q203 0 371 -66q164 -64 275 -177q107 -109 166 -244q58 -134 58 -279q0 -173 -62 -332q-63 -163 -192 -274q-131 -113 -296 -113q-140 0 -209 95q-39 51 -41 51q-3 0 -8 -5q-2 -1 -7 -7.5t-8 -10.5 q-14 -16 -22 -24q-95 -99 -232 -99q-168 0 -258 84t-90 244q0 245 143 428q144 184 377 184q154 0 193 -114q24 -66 26 -66q3 0 4 10q0 3 2.5 15t4.5 21q6 34 10 50q4 18 4 21q2 13 3 17q4 11 5 13q5 8 9 9q9 3 16 4q14 2 24 2h158q31 0 42 -4t11 -21l-1 -4q-1 -5 -3 -16.5 t-4 -22.5l-131 -567q-6 -30 -6 -57q0 -76 63 -76q149 0 238 164q88 163 88 409q0 269 -200 449q-199 180 -486 180q-235 0 -429 -139q-196 -140 -305 -375q-110 -237 -110 -512q0 -177 39 -318q40 -144 101 -227q64 -86 147 -143q86 -58 167 -79q83 -21 171 -21 q275 0 499 190q14 14 26 24q27 23 29 24q22 17 25 18q16 8 25 8q12 0 22 -10l46 -45q16 -16 16 -27q0 -10 -39 -49q-264 -267 -702 -267q-103 0 -220 28q-108 26 -230 94q-117 65 -210 166q-91 98 -150 259q-59 160 -59 355zM932 492q0 -120 22 -170q23 -52 99 -52 q66 0 132 64q63 61 101 170l27 110q6 45 6 95q0 37 -2 77q-2 31 -12 77q-11 47 -38 71t-71 24q-111 0 -188 -137q-76 -136 -76 -329z" />
<glyph unicode="A" horiz-adv-x="1945" d="M51 45v74q0 22 8 28q9 7 41 7h125q24 0 40 8t21 13t14 29q2 6 5 13l4.5 10.5t1.5 5.5l576 1274q1 5 6 15q1 3 3 8q1 3 2 4l1 2q1 1 2 3l2 4q3 5 6 8l3 1l4 4q3 4 11 6q5 2 12 3q10 2 16 2h22h61q23 0 39 -8q15 -7 20 -16t11 -30q6 -24 10 -30l496 -1241q3 -6 10 -30 q7 -21 10 -26q2 -2 7 -7.5t7 -8.5q9 -10 23 -13q15 -3 39 -3h121q12 0 20 1t17 1q26 0 26 -37v-68q0 -36 -5 -44q-4 -7 -34 -7h-722q-25 0 -31 8t-6 45v53q0 28 8 39t29 11q11 0 22 -1t27 -1h106q31 0 31 22q0 15 -15 45q-16 32 -16 33l-47 125q-15 39 -27 45q-15 6 -49 6 h-487q-71 0 -88 -10q-18 -11 -41 -58l-55 -124q-25 -55 -25 -64q0 -20 35 -20h131q20 0 25 -8q6 -10 6 -35v-66q0 -28 -8 -38q-8 -9 -27 -9q-9 0 -18 1t-21 1h-510q-19 0 -25 8q-6 7 -6 37zM659 608q0 -24 95 -24h342q61 0 61 24q0 7 -5 20q-1 4 -5.5 13l-7.5 15 q-2 5 -6.5 15.5t-6.5 14.5l-161 436q-27 72 -37 72t-45 -84l-191 -424q-33 -74 -33 -78z" />
<glyph unicode="B" horiz-adv-x="1638" d="M72 53v47q0 38 6 45q7 9 33 9h98q66 0 77 11t11 79v1097q0 26 -5 34q-4 7 -24 7h-153q-32 0 -37 4q-6 4 -6 27v68q0 33 8 46q7 11 33 11q11 0 21 -1t26 -1h751q249 0 401 -94t152 -285q0 -291 -340 -360q189 -27 295 -118q107 -92 107 -249q0 -220 -156 -325t-418 -105 h-776q-19 0 -32 -1t-27 -1q-25 0 -35 11t-10 44zM573 203q0 -30 13 -40q12 -9 57 -9h289q126 0 206 71q81 72 81 215q0 144 -80 210q-81 67 -207 67h-305q-33 0 -43 -12q-11 -13 -11 -64v-438zM573 952q0 -51 11 -67q10 -15 47 -15h280q267 0 267 256t-267 256h-278 q-43 0 -51 -9q-9 -11 -9 -56v-365z" />
<glyph unicode="C" horiz-adv-x="1628" d="M102 768q0 346 226 567t594 221q227 0 372 -120q4 -3 22 -21q5 -4 10.5 -10t6.5 -8q6 -6 13 -6q9 0 24 32l33 76q0 1 2 5.5t3 7.5l4 12l2 3q1 3 3 5q4 6 7 7q1 1 4.5 2t6.5 2q7 3 14 3h19q16 0 27 1t23 1q20 0 29 -10t9 -43v-448q0 -21 -7 -27t-36 -6h-61q-32 0 -47 12 t-22 46q-8 35 -13 46q-56 125 -170 202q-115 77 -268 77q-219 0 -366 -182q-146 -180 -146 -447q0 -272 131 -450q131 -177 360 -177q212 0 338 106q125 105 162 277q0 2 1 7l2 10t1 10q1 15 3 23q2 9 6 16q5 8 17 11t29 3h66q39 0 39 -29q0 -13 -4 -34q-34 -249 -215 -406 q-179 -155 -465 -155q-367 0 -578 219q-211 218 -211 569z" />
<glyph unicode="D" horiz-adv-x="1751" d="M72 37v57q0 42 7 50q8 10 38 10h137q47 0 47 61q0 5 -2 43t-2 41v1044q0 25 -6 32t-23 7h-155q-29 0 -35 8t-6 40v57q0 32 7 40q7 9 27 9h764q365 0 572 -215q207 -214 207 -553q0 -334 -213 -551t-566 -217h-694q-3 0 -31 -2q-4 0 -9.5 -0.5t-8 -1t-5.5 -0.5h-5 q-45 0 -45 41zM573 211q0 -39 12 -48t62 -9h223q254 0 358 156q103 155 103 458q0 614 -461 614h-270q-16 0 -21 -6q-6 -8 -6 -30v-1135z" />
<glyph unicode="E" horiz-adv-x="1505" d="M72 43v63q0 32 6 40t35 8h120q42 0 54 9t12 36q0 11 -1 21t-1 26v1087q0 34 -7 41q-8 8 -30 8h-149q-23 0 -32 7q-7 6 -7 22v84q0 29 7 35q8 6 40 6h1249q13 0 21 1t16 1q29 0 29 -37v-360q0 -16 1 -27t1 -22q0 -37 -43 -37h-62q-27 0 -35 8t-8 29v36q-11 140 -79 197 q-69 57 -226 57h-307q-19 0 -32 1t-26 1q-24 0 -34 -11q-11 -13 -11 -48v-412q0 -42 8 -50q7 -7 50 -7h76q197 0 221 186q1 7 3 20q1 8 1 14q0 4 4 8q6 6 11 7t22 1h59q23 0 26 -1q5 -2 8 -8t3 -24v-535q0 -24 -7 -30q-9 -7 -40 -7h-37q-36 0 -43 7q-6 6 -10 43 q-12 89 -67 143q-55 53 -154 53h-86q-32 0 -40 -5t-8 -30v-465q0 -58 11 -69q10 -10 71 -10h308q199 0 271 69q73 69 77 258v11q1 26 14 28l25 2h63q29 0 35 -6t6 -27v-417q0 -13 1 -22t1 -17q0 -18 -8 -26q-7 -7 -35 -7h-1257q-16 0 -26 -1t-21 -1q-37 0 -37 45z" />
<glyph unicode="F" horiz-adv-x="1484" d="M72 51v66q0 25 4 30q5 7 22 7h160q26 0 33 5q6 5 6 23v1170q0 30 -25 30h-170q-21 0 -26 7q-4 5 -4 36v74q0 26 4 31q4 6 20 6h1288q20 0 24 -7q5 -8 5 -32v-412q0 -18 -7 -24q-8 -6 -34 -6h-67q-22 0 -30 8q-7 7 -7 27v30q-10 142 -77 203q-65 59 -228 59h-357 q-20 0 -26 -7q-7 -9 -7 -36v-444q0 -11 -1 -19t-1 -16q0 -24 33 -24h82q212 0 242 161q1 7 3 23q1 13 3 18q1 4 10 9q7 4 25 4h67h4q19 0 22 -3t3 -24v-502q0 -9 1 -16t1 -14q0 -25 -33 -25h-67q-17 0 -25 3t-9 6l-2 18q-1 14 -3 22q-15 83 -77 129q-64 47 -165 47h-68 q-32 0 -38 -6q-7 -7 -7 -39v-450q0 -27 10 -35t50 -8h125q12 0 16 -4t4 -21v-100q0 -20 -7 -24q-8 -5 -32 -5h-618q-37 0 -43 7t-6 44z" />
<glyph unicode="G" horiz-adv-x="1832" d="M102 768q0 339 237 564q236 224 583 224q227 0 395 -114q10 -7 30 -23q6 -5 13.5 -11t9.5 -7q8 -6 14 -6q17 0 35 63q2 12 6 24q1 4 2.5 8.5t3 7.5t1.5 4q1 3 7 15q5 9 12 12q10 4 19 5q16 2 31 2q13 0 23 1t20 1q33 0 33 -39v-393q0 -17 1 -29t1 -24q0 -39 -41 -39h-61 h-22q-4 0 -14 2q-7 1 -10 3q-5 2 -7 8q-3 7 -3 9l-1 2q0 2 -0.5 6t-0.5 7q-1 4 -4 18q-30 149 -147 241q-116 91 -332 91q-235 0 -376 -175q-140 -174 -140 -458q0 -290 122 -463q121 -172 359 -172q121 0 216 48q97 49 147 124q36 50 36 137v119q0 46 -7 54q-8 10 -40 10 h-145q-47 0 -55 8q-9 9 -9 55v35q0 22 10 29q9 6 42 6h680q14 0 20 -7t6 -30v-53q0 -28 -5 -36q-4 -7 -25 -7h-134q-28 0 -34 -8q-7 -9 -7 -44v-77q0 -76 -10 -107q-47 -158 -233 -284q-185 -125 -463 -125q-347 0 -568 222q-221 223 -221 566z" />
<glyph unicode="H" horiz-adv-x="1884" d="M70 1432q0 12 1 26t1 35q0 45 37 45q11 0 21 -1t26 -1h589q50 0 62 -9t12 -44v-45q0 -40 -8 -48t-53 -8h-123q-46 0 -53 -7q-9 -9 -9 -54v-416q0 -24 8 -29q10 -6 38 -6h622q48 0 59 13t11 69v394q0 38 -29 38q-8 0 -16 -1t-21 -1h-143q-26 0 -31 4q-6 4 -6 21v82 q0 34 5 41q4 6 40 6h635q46 0 57 -8q10 -7 10 -45v-45q0 -40 -10 -47q-13 -9 -57 -9h-98q-45 0 -52 -10q-8 -11 -8 -63v-1098q0 -42 8 -50q7 -7 52 -7h139q16 0 21 -7t5 -30v-84q0 -23 -6 -28q-7 -5 -37 -5h-663q-26 0 -34 5q-7 4 -7 24v63q0 42 8 52t43 10h146q30 0 40 8 q9 8 9 28v484q0 34 -6 38q-7 5 -39 5h-641q-33 0 -42 -12q-10 -13 -10 -60v-430q0 -39 10 -52q8 -11 36 -11q9 0 20 1t29 1h82q12 0 21 1t17 1q31 0 31 -39v-78q0 -25 -10 -32t-47 -7h-653q-25 0 -31 7t-6 40v80q0 17 7 21q10 6 32 6h147q25 0 32 10t7 47v1114q0 36 -9 48 q-8 11 -36 11q-12 0 -22 -1t-25 -1h-82q-29 0 -42 13q-11 11 -11 37z" />
<glyph unicode="I" horiz-adv-x="890" d="M70 1419q0 11 1 21t1 24q0 48 8 61q7 11 43 11h651q30 0 37 -6q8 -6 8 -33v-59q0 -37 -10 -46q-12 -10 -55 -10h-129q-36 0 -44 -8t-8 -49v-1171h211q25 0 30 -7t5 -34v-74q0 -24 -5 -32q-4 -7 -23 -7h-691q-19 0 -23 7q-5 8 -5 32v84q0 23 6 27q5 4 37 4h151q22 0 26 6 q5 7 5 35v1138q0 33 -6 41t-31 8h-141q-26 0 -39 9q-10 7 -10 28z" />
<glyph unicode="J" horiz-adv-x="1282" d="M10 338q0 105 61 171q60 64 142 64q76 0 124 -42t48 -119q0 -51 -17 -82q-17 -32 -37 -44q-18 -11 -37 -27q-18 -15 -18 -34q0 -35 39 -63q40 -29 138 -29q141 0 198 80q58 81 58 279v819q0 52 -10 62q-9 9 -62 9h-137q-27 0 -32 7t-5 36v70q0 28 7 35q8 8 26 8 q8 0 17 -1t22 -1h669q15 0 21 -6t6 -27v-94q0 -14 -7 -20q-9 -7 -30 -7h-145q-36 0 -50 -10t-14 -47v-772q0 -263 -143 -418t-389 -155q-226 0 -334 102q-109 103 -109 256z" />
<glyph unicode="K" horiz-adv-x="1802" d="M70 1413q0 11 1 21t1 22v57q0 25 28 25q11 0 20 -1t19 -1h615q12 0 20 1t17 1q16 0 22 -8t6 -33v-88q0 -17 -6 -21q-8 -6 -31 -6h-180q-16 0 -22 -7q-7 -9 -7 -34v-557q0 -69 17 -69q6 0 15 10q2 2 10.5 11.5t14.5 16.5q10 12 25 27l545 533q3 3 25 21q6 5 14.5 12.5 t10.5 9.5q10 8 10 14q0 12 -52 12h-102q-33 0 -33 29q0 11 1 20t1 21v29q0 40 7 47q8 8 42 8h506q39 0 49 -7q11 -8 11 -34v-39q0 -52 -11 -63t-59 -11h-55q-18 0 -26 -1t-19 -1q-9 0 -18 -3q-3 -1 -8 -2.5t-6 -1.5q-8 -3 -12 -5l-12 -6q-3 -1 -10 -8t-9 -8l-11 -11l-13 -12 l-344 -328q-45 -41 -45 -55q0 -13 25 -49l499 -668l16 -22q3 -4 7 -9.5t6 -8.5t3 -4q6 -6 17 -13q14 -9 27 -10q22 -2 39 -2h103q29 0 40 -9q9 -7 9 -28v-72q0 -29 -11 -37t-51 -8h-610q-42 0 -54 11q-14 12 -14 38q0 15 1 27t1 33q0 27 6 37q5 8 25 8h80q78 0 78 18 q0 6 -6 15q-7 11 -20 25q-11 13 -21 28l-340 479q-29 41 -47 41q-4 0 -10 -2q-3 -1 -11 -7q-2 -2 -5.5 -6t-4.5 -5t-5.5 -6t-8.5 -9l-17 -16l-147 -142q-2 -2 -14 -12q-6 -5 -12 -11q-5 -5 -9 -10q-6 -8 -8 -13q-2 -7 -6 -13q-3 -4 -5 -16q-1 -5 -3 -21q-1 -8 -1 -27v-233 q0 -42 8 -50q7 -7 50 -7h147q43 0 43 -33q0 -9 -1 -19t-1 -22v-33q0 -32 -11 -39q-13 -8 -54 -8h-611q-48 0 -60 9q-11 8 -11 48v37q0 44 9 51q11 9 58 9h99q38 0 49 10q12 10 12 35q0 12 -1 25t-1 32v1092q0 25 -7 29q-8 5 -40 5h-148q-32 0 -32 31z" />
<glyph unicode="L" horiz-adv-x="1515" d="M72 35v71q0 32 9 40q10 8 54 8h125q22 0 30 8q7 7 7 41v1126q0 39 -7 46t-48 7h-90q-15 0 -24 -1t-19 -1q-21 0 -29 11t-8 41v73q0 35 51 35q4 0 36 -2t34 -2h598q33 0 40 -7q9 -9 9 -30v-80q0 -21 -6 -29t-21 -8h-201q-23 0 -31 -8t-8 -45v-1044q0 -24 -1 -38t-1 -30 q0 -37 18 -50q17 -13 75 -13h288q166 0 248 64q81 63 96 222q2 16 2 32q0 22 1 25q2 5 8 13q7 9 18 10q16 2 35 2h49q22 0 29 -5q6 -5 6 -19v-348l2 -40q2 -40 2 -44q0 -66 -39 -66h-1270q-12 0 -20 -1t-17 -1q-30 0 -30 37z" />
<glyph unicode="M" horiz-adv-x="2140" d="M61 43v74q0 22 1 25q2 6 8 9t24 3h168q37 0 37 36v33l49 1090q0 14 1 23t1 18q0 16 -10 22q-11 6 -41 6h-131q-28 0 -38 6q-7 4 -7 29v68q0 32 8 42q8 9 29 9h442q74 0 91 -10q18 -10 36 -66l311 -944q8 -20 17 -52q4 -15 10.5 -38t7.5 -27q7 -26 12 -26t13 30 q10 39 17 74q9 45 13 55l275 904q3 7 8 27t6 25q1 3 3.5 9t3.5 9q4 11 12 15q13 6 17 8q12 5 27 6q10 1 38 1h438q39 0 49 -7t10 -34v-49q0 -48 -10 -55q-13 -9 -61 -9h-97q-33 0 -41 -5t-8 -29v-23l45 -1114q1 -35 10 -47q7 -10 35 -10h158q33 0 33 -27q0 -7 -1 -15t-1 -20 v-51q0 -29 -7 -35q-8 -6 -40 -6h-674q-15 0 -21 6t-6 29v65q0 38 6 46t41 8h129q40 0 53 10t13 35q0 2 -0.5 5.5t-1 10t-0.5 12.5q-2 30 -2 37l-29 799v33q0 74 6 147v12q0 43 -12 43q-14 0 -21 -59q-12 -82 -36 -160l-320 -1036q0 -1 -2 -7t-3 -11l-4 -17q-2 -6 -5 -11 q-4 -7 -10 -10q-7 -3 -16 -5q-12 -2 -23 -2h-54q-28 0 -46 3q-16 3 -28 15q-10 10 -16 18q-4 5 -10 32q-7 28 -10 36l-359 1053q-17 51 -39 131q-15 57 -22 57q-4 0 -4 -25l2 -40q2 -40 2 -46q0 -39 -4 -90l-35 -884q0 -18 -1 -30t-1 -22q0 -20 11 -27t44 -7h142q27 0 34 -9 t7 -45v-67q0 -20 -9 -27q-8 -6 -39 -6h-520q-14 0 -23 -1t-20 -1q-18 0 -26 9q-9 11 -9 36z" />
<glyph unicode="N" horiz-adv-x="1812" d="M72 55v62q0 21 6 29t20 8h119q55 0 62 9q8 10 8 60v1120q0 27 -7 33q-8 6 -42 6h-127q-23 0 -31 11t-8 43v57q0 29 6 36t24 7h414q52 0 70 -6q19 -6 37 -33l626 -846q66 -90 78 -114q49 -88 55 -88q11 0 11 137v710q0 14 1 26t1 24q0 36 -31 36h-158q-22 0 -31 9 q-8 8 -8 45v61q0 43 43 43q2 0 28 -2t32 -2h467q30 0 37 -10q8 -11 8 -53q0 -16 1 -28t1 -24q0 -23 -9 -30q-11 -9 -38 -9h-119q-32 0 -43 -9q-10 -9 -10 -32q0 -11 1 -23t1 -30v-1237q0 -71 -39 -71h-62q-25 0 -46 8q-18 7 -26 15q-4 4 -22 29l-18 27l-764 1026 q-37 49 -84 132q-32 59 -41 59q-8 0 -8 -31q0 -3 0.5 -11t1 -22t0.5 -26q2 -62 2 -76v-854q0 -18 -1 -30t-1 -23q0 -29 13 -39t56 -10h138q18 0 24 -8t6 -37v-58q0 -32 -8 -43q-7 -10 -31 -10q-11 0 -21 1t-26 1h-483q-41 0 -48 7t-7 48z" />
<glyph unicode="O" horiz-adv-x="1761" d="M102 768q0 340 208 564t571 224q362 0 570 -224t208 -564q0 -336 -214 -562t-564 -226q-363 0 -571 224t-208 564zM420 768q0 -294 117 -469q117 -176 344 -176q239 0 350 173q110 171 110 472q0 295 -116 469q-117 176 -344 176t-344 -176q-117 -175 -117 -469z" />
<glyph unicode="P" horiz-adv-x="1484" d="M72 61v41q0 36 6 44t35 8h145q41 0 41 39q0 12 -1 24t-1 29v1077q0 41 -10 50q-11 9 -62 9h-106q-34 0 -41 7q-6 6 -6 41v73q0 37 41 37q2 0 26 -2t29 -2h672q287 0 431 -109q142 -108 142 -311q0 -209 -145 -335q-146 -126 -428 -126h-172q-17 0 -29 1t-25 1 q-41 0 -41 -43v-411q0 -34 11 -42q10 -7 55 -7h106q5 0 29 2t27 2q39 0 39 -35v-66q0 -42 -7 -49q-8 -8 -45 -8h-667q-35 0 -42 9q-7 8 -7 52zM573 893q0 -59 10 -72q9 -12 56 -12h201q128 0 197 83q69 82 69 224q0 266 -266 266h-201q-45 0 -55 -7q-11 -8 -11 -42v-440z " />
<glyph unicode="Q" horiz-adv-x="1781" d="M102 768q0 340 208 564t571 224q362 0 570 -224t208 -564q0 -205 -82 -373q-83 -171 -231 -276q-9 -7 -25 -16q-18 -10 -22 -15q-5 -7 -5 -14t17 -35q53 -74 108 -74q105 0 152 109q7 17 12 38q6 25 10 31q6 10 22 17q19 8 48 8q44 0 59 -6t15 -25q0 -2 -8 -55 q-33 -162 -120 -270q-88 -109 -206 -109q-104 0 -167 68q-62 67 -112 192q-12 26 -16 32q-6 7 -18 7l-46 -8q-67 -14 -163 -14q-363 0 -571 224t-208 564zM420 768q0 -190 49 -330q22 -61 27 -61q2 0 5 9t9 33q4 16 12 44q28 88 91 143q64 56 159 56q122 0 207 -84 q86 -84 164 -230q4 -7 13 -25q2 -5 5.5 -13t5.5 -11q9 -15 10 -17q5 -10 10 -13t9 -3q17 0 45 49q100 169 100 453q0 295 -116 469q-117 176 -344 176t-344 -176q-117 -175 -117 -469zM602 258q0 -40 45 -70q95 -65 234 -65q161 0 161 47q0 12 -38 76q-88 143 -228 143 q-108 0 -153 -74q-21 -29 -21 -57z" />
<glyph unicode="R" horiz-adv-x="1648" d="M72 53v62v10q0 25 12 27l18 2h134q46 0 53 9q8 10 8 58v1090q0 16 -2 34q0 4 -1 7.5t-2 7.5t-1 5q-1 7 -14 10q-12 3 -15 4q-1 0 -25 2q-14 1 -32 1h-74q-20 -2 -33 -2q-17 0 -22 10q-4 8 -4 44v61q0 43 51 43q11 0 21 -1t24 -1h754q290 0 421 -108q132 -109 132 -291 q0 -271 -258 -351q-64 -21 -64 -28q0 -4 10 -10q14 -8 32 -17q25 -12 38 -22q82 -55 121 -154q38 -98 40 -179q2 -85 20 -143q19 -61 69 -61q39 0 94 49q9 7 17 18q7 9 16 16q7 5 12 5q11 0 25 -14l28 -33q27 -29 27 -47q0 -13 -25 -47q-108 -139 -264 -139q-110 0 -174 38 q-65 39 -88 102q-23 66 -32 137q-7 54 -16 151q-7 74 -30 138q-22 62 -85 101t-169 39h-205q-41 0 -41 -31v-450q0 -31 7 -42q6 -9 28 -9h164q14 0 21 -7q6 -6 6 -28v-58q0 -45 -8 -53t-54 -8h-626q-24 0 -31 10q-8 11 -8 43zM573 897q0 -27 9 -38q8 -9 36 -9h304 q112 0 189 72t77 215q0 245 -266 245h-246q-19 0 -35 -1q-28 -2 -29 -2t-6.5 -1.5t-10.5 -3.5q-12 -4 -14 -12q0 -2 -1.5 -9.5t-2.5 -13.5q-4 -20 -4 -36v-406z" />
<glyph unicode="S" horiz-adv-x="1372" d="M90 27q0 10 1 20t1 25v381q0 12 -1 21t-1 18q0 18 9 24t38 6h56q33 0 46 -8q11 -7 14 -40t7 -46q39 -130 164 -222q124 -91 283 -91q183 0 265 73q83 74 83 191q0 89 -50 151t-129 95t-176 57q-80 20 -192 55q-88 28 -175 75q-79 43 -129 128t-50 205q0 203 146 307 t366 104q188 0 321 -96q38 -28 43 -28q11 0 33 34l20 33q17 28 31 32q17 5 62 5h41q27 0 35 -8t8 -37v-397q0 -28 -10 -45q-9 -15 -40 -15h-75q-21 0 -29 19q-8 20 -11 52q-3 30 -5 42q-39 122 -148 193t-235 71q-147 0 -221 -52t-74 -145q0 -80 50 -138q48 -55 130 -86 q75 -28 177 -55q108 -28 195 -59q101 -36 177 -83q80 -50 130 -142t50 -221q0 -212 -164 -337q-163 -124 -430 -124q-222 0 -369 115q-32 22 -39 22q-8 0 -30 -40q-2 -3 -5.5 -11t-5.5 -13q-9 -18 -12 -22q-4 -6 -12 -15q-7 -9 -22 -12q-14 -3 -33 -3h-56q-32 0 -43 8 q-10 7 -10 29z" />
<glyph unicode="T" horiz-adv-x="1484" d="M29 1055q0 13 1 24t1 27v387q0 43 69 43h1235q22 0 37 1t31 1q27 0 39 -12t12 -51v-353q0 -18 1 -32t1 -29q0 -24 -9 -36q-8 -11 -38 -11h-55q-45 0 -45 55v33q-11 170 -83 230q-73 61 -263 61q-57 0 -70 -11q-12 -10 -12 -59v-1083q0 -63 12 -75q11 -11 82 -11h139 q20 0 27 -9q6 -7 6 -39v-57q0 -32 -7 -40q-8 -9 -28 -9h-725q-34 0 -42 8q-7 7 -7 49v50q0 49 39 49q12 0 24 -1t29 -1h123q33 0 43 11t10 34q0 12 -1 24t-1 31v1089q0 31 -9 40q-10 10 -46 10h-27q-190 0 -263 -61q-72 -60 -83 -230v-41q0 -27 -10 -37t-47 -10h-58 q-32 0 -32 41z" />
<glyph unicode="U" horiz-adv-x="1699" d="M20 1421v88q0 17 7 22t32 5h639q13 0 22 1t19 1q29 0 29 -31v-67q0 -42 -9 -49q-11 -9 -57 -9h-133q-35 0 -41 -8t-6 -47v-692q0 -249 79 -365t290 -116q190 0 295 105q104 104 104 355v711q0 41 -9 49q-10 8 -54 8h-135q-38 0 -49 7q-9 6 -9 34v80q0 35 27 35q7 0 14 -1 t17 -1h532q28 0 42 -8q13 -7 13 -37v-33q0 -13 1 -23t1 -20q0 -17 -8 -25t-37 -8h-137q-31 0 -38 -9q-7 -8 -7 -50v-709q0 -312 -159 -478q-159 -167 -435 -167q-181 0 -304 46q-124 46 -190 138q-68 94 -94 201t-26 260v740q0 16 -7 22t-32 6h-119q-12 0 -20 -1t-17 -1 q-31 0 -31 41z" />
<glyph unicode="V" horiz-adv-x="1740" d="M-12 1501q0 21 9 28q8 7 40 7h586q15 0 25 1t22 1q37 0 37 -43v-86q0 -29 -31 -29q-9 0 -17 1t-20 1h-86q-61 0 -61 -18q0 -6 3 -13l9 -21q4 -9 10 -23l340 -832q22 -55 39 -113q22 -73 31 -73q10 0 34 80q6 21 39 98l340 813q2 6 16 31q12 23 14 27q5 13 5 20 q0 24 -69 24q-6 0 -38 -2t-34 -2q-53 0 -53 56v55q0 35 7 41t46 6h475q30 0 38 -9q7 -8 7 -52v-46q0 -31 -6 -38q-7 -9 -29 -9h-90q-13 0 -33 -2q-11 -1 -21 -5q-5 -2 -14 -11t-10 -12q-2 -4 -9 -21q-8 -17 -9 -22l-539 -1248q-5 -12 -9 -26q-5 -18 -9 -26q-4 -7 -12 -19 q-8 -11 -22 -16q-15 -5 -34 -5h-49q-22 0 -42 2q-14 1 -27 14q-10 10 -14 16q-3 4 -11 27q-8 22 -12 29l-551 1278q0 1 -2 6t-3 8q-3 9 -5 11l-1 3q-2 3 -4 5q-4 6 -7 7q-1 0 -4 1.5l-5 2.5q-6 3 -14 3h-19h-82q-40 0 -53 9q-10 7 -10 39v32q0 13 -1 22t-1 17z" />
<glyph unicode="W" horiz-adv-x="2498" d="M0 1423v76q0 39 35 39q11 0 21 -1t26 -1h606q17 0 23 -7t6 -30v-69q0 -52 -47 -52q-2 0 -30 2t-34 2q-74 0 -74 -22q0 -5 21 -62l258 -761q23 -70 31 -97q24 -94 32 -94q6 0 20 35q15 37 29 82l19 57l268 676q15 38 15 64q0 21 -17 75q-1 2 -2.5 8t-2.5 9q-3 12 -4 13 q-1 3 -6 9q-4 5 -13 7q-5 1 -21 1h-102q-36 0 -45 7q-8 6 -8 32v86q0 31 30 31q11 0 21 -1t22 -1h475q13 0 21 1t16 1q29 0 29 -39v-57q0 -40 -8 -50t-37 -10h-66q-24 0 -24 -14q0 -6 6 -22q7 -20 8 -23l225 -756q0 -1 15 -57q23 -83 24 -88q11 -33 17 -33q10 0 32 94 q16 61 33 109l252 723q19 47 19 51q0 16 -41 16h-103q-28 0 -38 8q-9 8 -9 27q0 11 1 21t1 24v49q0 27 29 27q8 0 17 -1t20 -1h442q42 0 54 -9t12 -40v-33q0 -12 1 -21t1 -18q0 -17 -10 -25t-37 -8h-111q-48 0 -61 -8q-11 -7 -23 -47l-440 -1270q-1 -3 -4 -12.5t-5 -16.5 q-7 -24 -10 -28q-5 -6 -18 -13q-14 -7 -37 -7h-49q-48 0 -61 8q-10 7 -23 49l-256 825q-31 111 -35 131q-12 68 -16 68q-6 0 -21 -72q-6 -24 -45 -129l-317 -803q-6 -11 -10 -24q-4 -15 -8 -23t-10 -15q-7 -9 -20 -12q-12 -3 -30 -3h-53q-19 0 -32 3q-4 1 -11.5 2.5 t-10.5 2.5q-8 2 -14 11q-7 11 -8 13q-6 18 -7 22q-2 7 -5 14.5t-3 8.5l-442 1266q-15 44 -31 51q-18 8 -80 8h-94q-36 0 -45 7q-8 6 -8 34z" />
<glyph unicode="X" horiz-adv-x="1802" d="M10 57v64q0 23 6 27q8 6 37 6h131q29 0 55 2q19 1 37 15q21 16 22 17l26 33l270 336q77 95 160 184q12 16 12 25q0 10 -25 35q-37 34 -82 94l-337 436q-4 4 -12 17t-11 15l-12 9q-8 7 -20 8q-16 2 -27 2h-82q-57 0 -67 10q-9 9 -9 66v53q0 27 29 27q10 0 19 -1t20 -1h569 q5 0 29 2t28 2q43 0 43 -37v-84q0 -24 -7 -30q-9 -7 -40 -7h-78q-61 0 -61 -10l33 -45l188 -239q61 -80 68 -95q20 -32 32 -32q13 0 31 30q23 39 88 121l170 215q29 35 29 45t-53 10h-86q-30 0 -39 7t-9 26v84q0 39 33 39q11 0 21 -1t22 -1h520q25 0 32 -9q7 -8 7 -44v-53 q0 -50 -39 -50q-12 0 -24 1t-29 1h-102q-17 0 -33 -2q-12 -2 -24 -9l-15 -10q-1 -1 -3 -3.5t-5.5 -7t-6.5 -8.5q-13 -16 -14 -19l-260 -332q-31 -38 -78 -92q-38 -38 -38 -61q0 -22 30 -52q53 -58 90 -104l369 -473q7 -8 14.5 -17.5t8.5 -10.5q7 -8 20 -15q18 -9 32 -10 q24 -2 48 -2h92q29 0 34 -8t5 -39v-41q0 -43 -9 -55q-8 -11 -40 -11h-658q-18 0 -24 7t-6 34v74q0 26 8 32q9 7 45 7h74q43 0 43 14q0 5 -8 16q-5 7 -22 24q-11 11 -19 21l-230 297q-10 11 -76 105q-10 18 -22 18q-10 0 -31 -35q-13 -23 -82 -114l-200 -250q-5 -7 -26 -28 t-28 -29q-10 -11 -10 -21q0 -18 59 -18h50q12 0 20 1t16 1q29 0 29 -33v-78q0 -30 -7 -38q-8 -9 -26 -9q-9 0 -19 1t-24 1h-514q-31 0 -38 9q-7 8 -7 48z" />
<glyph unicode="Y" horiz-adv-x="1669" d="M-10 1438v57q0 26 5 34q4 7 23 7h668q26 0 34 -8q7 -7 7 -45v-66q0 -22 -8 -28q-9 -7 -41 -7h-57q-70 0 -70 -12q0 -6 27 -47l217 -334q43 -66 73 -129q24 -51 33 -51t43 55q44 70 88 131l207 299q7 12 21 26q12 12 22 26q8 11 8 18q0 18 -55 18h-119q-38 0 -45 7 q-6 6 -6 45v65q0 25 8 31q7 6 43 6h539q15 0 19 -6q5 -7 5 -27v-78q0 -33 -4 -37q-6 -6 -35 -6h-94q-15 0 -22 -1t-18 -1q-7 0 -14 -4l-10 -5q-4 -2 -8 -7l-8 -8q-2 -2 -8 -11q-7 -10 -8 -14l-410 -586q-29 -40 -38 -69q-9 -30 -9 -94v-379q0 -31 12 -40t58 -9h135 q26 0 34 -10q7 -8 7 -46v-45q0 -33 -9 -43t-32 -10h-643q-12 0 -20 -1t-17 -1q-26 0 -26 35v86q0 22 8 28q9 7 39 7h123q34 0 45 8q10 7 10 33v317q0 82 -11 116q-13 39 -42 85l-398 594q-38 54 -57 63q-24 12 -92 12q-6 0 -38 -2t-34 -2q-55 0 -55 60z" />
<glyph unicode="Z" horiz-adv-x="1484" d="M61 37v53q0 20 1 28q0 4 2 11t2 11q1 8 4 17q1 4 8 14l8 12q0 1 1.5 3t4 5.5t4.5 6.5q3 5 13 15l874 1094q2 3 22 25q5 6 19 23q6 7 6 13q0 14 -82 14h-313q-168 0 -247 -54q-78 -53 -95 -181l-3 -36q-2 -25 -3 -32q-2 -8 -15 -16t-36 -8h-50q-26 0 -35 9q-10 10 -10 30 q0 11 1 22t1 27v356q0 39 43 39q15 0 28 -1t30 -1h1036q4 0 28 2t25 2q39 0 39 -37v-61q0 -32 -7 -54q-8 -25 -14 -35q-7 -12 -27 -33q-14 -16 -26 -30l-802 -1003q-17 -25 -38 -45q-22 -22 -34 -39q-10 -14 -10 -23q0 -26 141 -26h367q180 0 263 69t83 244v25q0 30 28 30 h54q12 0 20 1t16 1q27 0 27 -37v-413q0 -50 -9 -62t-44 -12h-1227q-12 0 -22 -1t-19 -1q-31 0 -31 39z" />
<glyph unicode="[" horiz-adv-x="706" d="M111 -260q0 13 1 26t1 31v1714q0 55 12 72q12 16 49 16q14 0 28 -1t36 -1h337q47 0 58 -14q12 -15 12 -78q0 -45 -8 -53t-55 -8h-123q-57 0 -68 -10q-12 -10 -12 -54v-1460q0 -47 17 -60q19 -14 87 -14h109q38 0 46 -8q7 -7 7 -53v-29q0 -45 -12 -54t-70 -9h-393 q-37 0 -48 11t-11 36z" />
<glyph unicode="\" horiz-adv-x="1064" d="M88 1575q0 22 45 22h74q10 0 24 -2q2 0 17 -4q5 -1 10 -9l6 -12l6 -16q4 -10 6 -18l650 -1696q9 -21 16 -35q16 -32 22 -47q9 -22 9 -39q0 -26 -29 -26h-74q-19 0 -34 3q-6 1 -13.5 3t-9.5 2q-7 1 -15 11t-11 14q-4 6 -9 21q-7 21 -8 26l-653 1732q-3 7 -12 25 q-10 21 -12 25q-5 13 -5 20z" />
<glyph unicode="]" horiz-adv-x="665" d="M20 -215q0 44 9 53q8 8 55 8h123q54 0 67 11t13 53v1460q0 48 -18 61q-17 13 -87 13h-108q-38 0 -46 8t-8 53v29q0 44 13 54q12 9 69 9h394q37 0 48 -11t11 -36q0 -12 -1 -25t-1 -32v-1714q0 -55 -12 -72q-12 -16 -49 -16q-14 0 -28 1t-36 1h-338q-46 0 -57 14 q-13 16 -13 78z" />
<glyph unicode="^" horiz-adv-x="1116" d="M113 1196q0 6 6 12q10 10 18 17q3 2 10.5 8.5t10.5 9.5l264 264q2 2 9 10.5t13 14.5q16 18 24 24q9 7 27 14t44 7h43q42 0 67 -25l289 -288q9 -9 27 -24q17 -14 27 -26q9 -10 9 -18q0 -13 -26 -26t-47 -13q-22 0 -82 45l-197 146q-67 49 -92 49q-26 0 -86 -45l-135 -101 q-14 -9 -36 -28q-25 -22 -38 -31q-15 -10 -36 -21q-20 -10 -42 -10q-16 0 -45 13q-26 12 -26 22z" />
<glyph unicode="_" horiz-adv-x="1146" d="M-10 -43q0 29 12 36q11 7 43 7h1081q25 0 28 -5q3 -4 3 -34v-80q0 -26 -5 -31q-4 -4 -44 -4h-1073q-29 0 -38 7q-7 6 -7 30v74z" />
<glyph unicode="`" horiz-adv-x="808" d="M297 1526q0 37 28 65q27 27 62 27q8 0 23 -4l376 -105q15 -3 28 -6q20 -5 30 -6t19 -12q9 -10 9 -25q0 -39 -36 -39q-2 0 -26 2t-28 2l-393 9q-31 1 -62 26q-30 24 -30 66z" />
<glyph unicode="a" horiz-adv-x="1241" d="M51 262q0 151 145 246q143 94 427 94q63 0 74 10q12 10 12 70v59q0 115 -38 173q-37 57 -153 57q-78 0 -126 -21t-48 -45q0 -8 10 -17q4 -3 11 -10t11 -10q10 -9 21 -34t11 -58q0 -66 -42 -103q-43 -38 -112 -38q-71 0 -117 41q-45 40 -45 108q0 134 137 223t340 89 q190 0 309 -98q117 -96 117 -277v-504q0 -34 20 -62t54 -28q35 0 57 31q9 12 12 17q4 8 8 14q5 8 7 9q5 3 8 3q8 0 31 -13q41 -23 41 -41q0 -9 -21 -47q-78 -131 -237 -131q-137 0 -205 84q-16 22 -24 34q-3 4 -5.5 8t-4 7t-3 5t-2.5 3q-5 5 -8 5q-5 0 -9 -7q-3 -5 -21 -23 q-10 -10 -34 -32q-102 -84 -249 -84q-170 0 -265 75q-94 75 -94 218zM332 293q0 -81 51 -125q50 -43 119 -43q207 0 207 256v61q0 39 -9 52q-7 10 -34 10h-43q-158 0 -225 -67q-66 -66 -66 -144z" />
<glyph unicode="b" horiz-adv-x="1347" d="M20 53v45q0 22 7 29q6 6 20 6h109q37 0 43 7q6 8 6 44v1229q0 36 -5 44q-4 7 -34 7h-92q-38 0 -45 6q-9 7 -9 35v51q0 26 9 35q8 8 26 8q11 0 20 -1t23 -1h336q25 0 31 -8q6 -7 6 -41v-590q0 -71 10 -71q5 0 14 16q6 11 21 41q12 24 25 37q101 113 270 113 q181 0 318 -151t137 -411q0 -259 -146 -411t-329 -152q-178 0 -279 148q-11 19 -14 26q-3 6 -8 15.5t-6 10.5q-4 9 -7 9q-6 0 -6 -55v-62q0 -42 -8 -52q-7 -9 -43 -9h-357q-27 0 -35 8t-8 45zM471 532q0 -174 76 -289q77 -116 186 -116q101 0 173 117q73 119 73 288 q0 170 -73 289q-72 117 -173 117q-109 0 -186 -116q-76 -115 -76 -290z" />
<glyph unicode="c" horiz-adv-x="1153" d="M82 512q0 240 145 412t385 172q216 0 335 -101q118 -100 118 -231q0 -84 -53 -137q-54 -54 -119 -54q-74 0 -116 39t-42 111q0 53 44 95t44 59q0 30 -50 57t-120 27q-139 0 -207 -111q-67 -110 -67 -297q0 -453 266 -453q190 0 273 203l5 15q3 9 5 13q1 2 5 8t7 7 q1 0 4.5 1.5t5.5 2.5q4 1 16 3q6 1 21 1h62q28 0 28 -22q0 -8 -24 -70q-114 -293 -432 -293q-252 0 -396 158q-143 156 -143 385z" />
<glyph unicode="d" horiz-adv-x="1347" d="M82 532q0 262 136 411q137 151 319 151q162 0 258 -101q14 -14 32 -42q19 -30 26 -41q9 -15 13 -15q11 0 11 104v433q0 20 -8 26t-38 6h-112q-18 0 -22 7q-5 8 -5 32v58q0 21 6 29q6 7 21 7h346q15 0 24 1t19 1q19 0 27 -8t8 -35v-1376q0 -32 6 -39q6 -8 31 -8h118 q17 0 23 -7q6 -8 6 -32v-33q0 -42 -8 -52q-7 -9 -39 -9h-338q-12 0 -20 -1t-17 -1q-28 0 -28 39v49q0 84 -11 84q-3 0 -15 -18q-9 -13 -27 -46q-14 -25 -29 -40q-92 -97 -238 -97q-184 0 -330 152q-145 151 -145 411zM369 532q0 -171 72 -288t173 -117q110 0 187 116 q76 115 76 289q0 175 -76 290q-77 116 -187 116q-101 0 -173 -117t-72 -289z" />
<glyph unicode="e" horiz-adv-x="1165" d="M82 512q0 262 129 423t393 161q109 0 191 -30q83 -30 132 -76q52 -49 82 -114q31 -68 45 -136q12 -60 17 -148v-23q0 -29 -9 -37q-10 -8 -40 -8h-610q-24 0 -31 -7q-8 -8 -8 -32v-16q7 -172 66 -265q58 -93 196 -93q180 0 256 178q0 3 7 25q8 25 15 32q8 8 27 8h74 q37 0 37 -28q0 -14 -21 -70q-113 -287 -420 -287q-249 0 -389 157q-139 155 -139 386zM379 684q0 -22 12 -26q13 -5 51 -5h281q65 0 65 43q0 4 -2 20q0 3 -1.5 11.5t-2.5 14.5t-2.5 15.5t-1.5 10.5q-28 207 -176 207q-173 0 -217 -248q-6 -27 -6 -43z" />
<glyph unicode="f" horiz-adv-x="880" d="M51 25v57q0 39 6 45t45 6h91q27 0 35 6t8 25v696q0 13 1 22t1 17q0 18 -10 26q-8 7 -40 7h-98q-24 0 -32 5q-7 4 -7 24v59q0 32 5 39q4 6 28 6h104q35 0 41 6q7 7 7 43v57q0 209 119 332q120 125 345 125q195 0 300 -69q106 -70 106 -179q0 -80 -48 -128t-120 -48 q-68 0 -111 40t-43 99q0 46 29 83t29 44q0 19 -37 32q-39 14 -100 14q-106 0 -155 -96q-48 -94 -48 -294v-24q0 -25 8 -31t43 -6h172q12 0 20 1t17 1q26 0 26 -35v-57q0 -29 -6 -36t-24 -7h-199q-41 0 -49 -9q-8 -10 -8 -55v-684q0 -33 9 -43t30 -10q10 0 20 1t25 1h131 q18 0 24 -7q7 -9 7 -36v-57q0 -19 -6 -27q-4 -6 -19 -6h-612q-11 0 -19 -1t-16 -1q-25 0 -25 27z" />
<glyph unicode="g" horiz-adv-x="1263" d="M41 -276q0 127 141 223q54 35 54 47q0 8 -56 47q-74 51 -74 131q0 105 121 168q56 29 56 35q0 3 -7 8q-1 1 -8.5 5.5t-13.5 9.5q-11 8 -31 24q-131 108 -131 285q0 170 124 279q125 110 325 110q148 0 262 -66q40 -24 47 -24t47 30q77 60 164 60q105 0 159 -56t54 -141 q0 -58 -40 -95q-41 -38 -89 -38q-50 0 -85 32q-34 31 -34 79q0 40 25 65q24 24 24 35q0 20 -33 20q-30 0 -71 -21t-41 -46q0 -13 16 -45q43 -79 43 -178q0 -171 -124 -280q-125 -110 -324 -110q-9 0 -59 4q-38 3 -54 3q-44 0 -88 -29q-43 -28 -43 -57q0 -38 42 -47t146 -9 q54 0 112 1t116 1q197 0 310 -79q114 -80 114 -273q0 -170 -151 -273q-150 -102 -423 -102q-252 0 -387 69t-135 198zM317 -209q0 -107 67 -157t212 -50q136 0 224 52q89 53 89 145q0 201 -202 201h-277q-29 0 -49 -10t-26 -20q-5 -8 -17 -42q-21 -57 -21 -119zM369 707 q0 -287 172 -287t172 287q0 286 -172 286t-172 -286z" />
<glyph unicode="h" horiz-adv-x="1413" d="M20 53v41q0 22 6 32q4 7 23 7h109q32 0 40 6q7 6 7 35v1231q0 11 1 19t1 16q0 24 -33 24h-98q-40 0 -48 8t-8 48v41q0 41 52 41q3 0 14.5 -1t19.5 -2q32 -2 35 -2h295q39 0 39 -45l-2 -28q-2 -28 -2 -29v-516q0 -94 10 -94q7 0 16 16q12 23 26 42q21 30 32 42 q107 111 270 111q353 0 353 -340v-580q0 -28 11 -35q13 -8 50 -8h74q9 0 15 1t13 1q21 0 21 -29v-53q0 -38 -6 -46q-6 -7 -41 -7h-473q-13 0 -23 -1t-20 -1q-31 0 -31 35v73q0 18 6 23q5 4 31 4h49q37 0 48 10t11 35q0 13 -1 25t-1 30v500q0 117 -28 166t-105 49 q-137 0 -222 -106t-85 -262v-359q0 -15 -1 -26t-1 -23q0 -20 8 -30q7 -9 33 -9h49q9 0 16 1t15 1q24 0 24 -28v-33q0 -13 1 -23t1 -20q0 -31 -24 -31h-533q-23 0 -30 10q-9 13 -9 43z" />
<glyph unicode="i" horiz-adv-x="696" d="M41 37v61q0 24 4 29q5 6 21 6h96q42 0 53 10q12 11 12 39q0 14 -1 29t-1 35v602q0 15 1 25t1 22q0 21 -9 29q-10 8 -38 8h-86q-38 0 -46 6q-7 6 -7 41v41q0 29 9 38t32 9q13 0 26 -1t29 -1h271q59 0 71 -9q13 -10 13 -57v-837q0 -17 7 -23q8 -6 31 -6h80q45 0 56 -8 q10 -7 10 -43v-27q0 -38 -7 -46q-7 -9 -34 -9h-522q-13 0 -23 -1t-18 -1q-31 0 -31 39zM174 1434q0 70 48 116q49 47 126 47t126 -47q48 -46 48 -116t-48 -117q-49 -47 -126 -47t-126 47q-48 47 -48 117z" />
<glyph unicode="j" horiz-adv-x="614" d="M-256 -268q0 80 48 128t120 48q68 0 111 -40t43 -99q0 -34 -11 -61q-11 -26 -22 -36q-1 -1 -10 -8.5t-13 -11.5q-10 -10 -10 -21q0 -20 19 -38q18 -17 55 -17q80 0 108 87q29 89 29 241q0 51 -3 156t-3 153v694q0 27 -27 27q-8 0 -17 -1t-20 -1h-73q-32 0 -40 5t-8 30v71 q0 29 37 29q14 0 26 -1t26 -1h294q52 0 60 -8t8 -60v-974q0 -112 -20 -202q-21 -96 -66 -178q-45 -83 -126 -131q-83 -49 -191 -49q-172 0 -248 76t-76 193zM154 1434q0 70 48 116q49 47 126 47t126 -47q48 -46 48 -116t-48 -117q-49 -47 -126 -47t-126 47q-48 47 -48 117z " />
<glyph unicode="k" horiz-adv-x="1323" d="M20 59v21q0 37 8 45t33 8h99q30 0 38 11q9 12 9 34q0 15 -1 29t-1 33v1167q0 40 -7 48q-8 9 -38 9h-115q-15 0 -19 6q-6 8 -6 29v55q0 27 7 36q6 7 24 7h361q38 0 49 -8q10 -7 10 -35v-786q0 -135 21 -135q4 0 11 3q5 2 16 11q14 12 20 16q14 10 26 21q16 14 31 25 l195 155q10 10 19 15q12 7 23 14q9 6 9 10q0 8 -35 8h-86q-31 0 -39 6t-8 29v76q0 27 9 36t30 9q12 0 24 -1t29 -1h410q12 0 22 1t21 1q34 0 34 -37v-78q0 -26 -6 -33q-6 -8 -24 -8h-88q-19 0 -28 -1q-4 0 -12 -0.5t-11 -1.5q-12 -2 -18 -5q-2 -1 -14 -5q-9 -3 -14 -8 q-7 -7 -11 -9q-1 0 -2.5 -2t-4.5 -5t-6 -5q-11 -10 -15 -11l-176 -145q-13 -13 -32 -27q-24 -17 -32 -27q-9 -11 -9 -22q0 -20 20 -41l340 -410l12 -16l13 -15q10 -10 13 -12q10 -7 20 -8q16 -2 28 -2h102q16 0 21 -6q4 -5 4 -29v-43q0 -38 -7 -46q-8 -9 -32 -9h-504 q-30 0 -38 7q-9 7 -9 28q0 8 1 17t1 22v18q0 29 7 35q8 6 44 6q48 0 48 12q0 4 -7 11l-16 16q-8 8 -16 18l-254 302q-47 57 -56 57q-14 0 -14 -113v-252q0 -36 9 -43q10 -8 55 -8h73q15 0 21 -6t6 -29v-37q0 -42 -8 -52q-7 -9 -43 -9h-492q-50 0 -61 9t-11 50z" />
<glyph unicode="l" horiz-adv-x="675" d="M18 106q0 27 37 27h80q47 0 59 11q13 12 13 40q0 12 -1 24t-1 30v1185q0 29 -7 35t-44 6h-103q-21 0 -25 6q-6 8 -6 33v62q0 34 35 34q11 0 21 -1t22 -1h295q53 0 67 -8q13 -7 13 -41q0 -16 -1 -32t-1 -43v-1235q0 -21 -1 -33t-1 -25q0 -27 13 -37t55 -10h79q30 0 34 -7 q5 -8 5 -40v-49q0 -39 -30 -39q-11 0 -21 1t-22 1h-504q-42 0 -49 10q-9 13 -9 60q0 12 -1 20t-1 16z" />
<glyph unicode="m" horiz-adv-x="1951" d="M51 33v55q0 16 6 20q7 5 29 5h86q30 0 37 7q8 8 8 25q0 10 -1 20t-1 23v730q0 20 -9 27q-8 7 -42 7h-86q-18 0 -22 7q-5 8 -5 32v27q0 32 9 40q8 7 55 7h307q43 0 51 -8t8 -47v-11q0 -86 8 -86q5 0 11 13q5 11 19 32q8 13 26 35q92 103 231 103q188 0 268 -105 q20 -26 30 -41q5 -8 11.5 -16.5t7.5 -10.5q5 -8 9 -8t9 9q1 2 8.5 11.5t12.5 16.5q17 23 35 43q95 101 236 101q174 0 253 -85t79 -255v-555q0 -18 -1 -29t-1 -20q0 -39 49 -39h92q13 0 20 -7t7 -28v-37q0 -25 -7 -34q-6 -7 -24 -7h-481q-13 0 -22 -1t-17 -1q-19 0 -25 8 q-6 7 -6 35v47q0 25 24 25h58q46 0 57 8q10 7 10 45v567q0 123 -22 179q-22 57 -90 57q-103 0 -176 -115q-72 -114 -72 -274v-375q0 -16 -1 -28t-1 -23q0 -23 10 -32t43 -9h37q22 0 30 -5q7 -4 7 -26v-29q0 -38 -6 -46q-6 -7 -41 -7h-428q-27 0 -33 8t-6 45v25q0 22 8 28 q9 7 39 7h29q49 0 49 39q0 9 -1 20t-1 29v532q0 121 -23 179q-23 57 -90 57q-114 0 -181 -112q-67 -113 -67 -277v-422q0 -33 7 -39q8 -6 44 -6h41q10 0 17 1t14 1q27 0 27 -33v-41q0 -43 -37 -43q-13 0 -25 1t-28 1h-430q-10 0 -18 -1t-15 -1q-27 0 -27 35z" />
<glyph unicode="n" horiz-adv-x="1443" d="M51 70v30q0 21 8 27q7 6 39 6h66q44 0 61 22t17 62q0 15 -3 53t-3 58v569q0 37 -31 37q-9 0 -17 -1t-20 -1h-82q-22 0 -29 5q-6 5 -6 19v72q0 24 5 31q4 6 24 6h350q13 0 22 1t17 1q18 0 26 -8q7 -7 7 -35v-45q0 -86 10 -86q4 0 12 12q2 3 24 34q17 23 30 38 q105 119 278 119q352 0 352 -340v-574q0 -34 10 -42q8 -7 52 -7h80q43 0 43 -35v-53q0 -30 -5 -38q-4 -7 -26 -7h-541q-13 0 -17 6q-5 7 -5 27v57q0 30 7 37q8 8 28 8q8 0 17 -1t21 -1h29q45 0 45 43q0 1 -2 29t-2 33v495q0 116 -29 166q-28 49 -104 49q-136 0 -221 -104 q-86 -106 -86 -264v-334q0 -21 -1 -34t-1 -26q0 -31 14 -42t59 -11q54 0 63 -9t9 -63v-28q0 -21 -8 -27q-7 -6 -39 -6h-479q-53 0 -60 9q-8 10 -8 61z" />
<glyph unicode="o" horiz-adv-x="1224" d="M82 502q0 259 139 426q140 168 391 168q248 0 390 -157q141 -156 141 -386q0 -257 -138 -420q-138 -164 -393 -164q-252 0 -391 153q-139 152 -139 380zM379 553q0 -461 233 -461q234 0 234 420q0 461 -234 461q-233 0 -233 -420z" />
<glyph unicode="p" horiz-adv-x="1347" d="M20 -418q0 24 7 33q6 8 22 8q9 0 17 -1t20 -1h70q53 0 53 64q0 4 -2 40t-2 42v1114q0 35 -6 43t-33 8h-113q-23 0 -27 3q-6 4 -6 19v66q0 29 7 38q6 7 28 7h371q30 0 37 -6q8 -6 8 -25v-92q0 -43 10 -43q7 0 16 12q2 2 20 32q13 21 18 26q102 125 276 125q181 0 318 -151 t137 -411q0 -259 -146 -411t-329 -152q-175 0 -275 142q-34 49 -45 49q-8 0 -8 -25q0 -17 4 -68t4 -96v-295q0 -37 12 -46t62 -9h53q9 0 16 1t15 1q26 0 26 -33v-36q0 -50 -8 -58t-57 -8h-543q-17 0 -21 6q-6 8 -6 31v57zM471 532q0 -174 76 -289q77 -116 186 -116 q101 0 173 117q73 119 73 288q0 170 -73 289q-72 117 -173 117q-109 0 -186 -116q-76 -115 -76 -290z" />
<glyph unicode="q" horiz-adv-x="1347" d="M82 532q0 262 136 411q137 151 319 151q189 0 292 -142q13 -18 17 -28q7 -17 14 -29q6 -10 10 -10q7 0 7 59v70q0 36 6 43q6 8 30 8h383q19 0 25 -7q6 -8 6 -36v-57q0 -20 -5 -27q-4 -6 -19 -6h-113q-28 0 -39 -8q-10 -7 -10 -29q0 -11 1 -21t1 -24v-1135q0 -17 -1 -29 t-1 -24q0 -23 10 -32q11 -9 43 -9h61q13 0 22 1t19 1q31 0 31 -35v-71q0 -31 -27 -31q-8 0 -16 1t-20 1h-547q-15 0 -20 6q-5 7 -5 27v53q0 32 6 39q6 8 27 8h88q41 0 53 9q13 10 13 36q0 12 -1 22t-1 25v381q0 78 -9 78q-4 0 -10 -13q-5 -11 -18 -34q-7 -12 -23 -35 q-99 -121 -260 -121q-184 0 -330 152q-145 151 -145 411zM369 532q0 -171 72 -288t173 -117q110 0 187 116q76 115 76 289q0 175 -76 290q-77 116 -187 116q-101 0 -173 -117t-72 -289z" />
<glyph unicode="r" horiz-adv-x="1042" d="M41 102q0 31 43 31h82q45 0 53 8t8 56v702q0 21 -7 27q-8 6 -38 6h-108q-22 0 -27 6q-4 5 -4 37v53q0 39 27 39q8 0 16 -1t20 -1h306q14 0 24 1t21 1q21 0 28 -10q9 -13 9 -41v-58q0 -38 8 -38q6 0 45 57q83 119 244 119q114 0 183 -60q68 -59 68 -164q0 -78 -48 -127 t-120 -49q-66 0 -116 42q-49 42 -49 104q0 59 20 83q21 25 21 29q0 21 -31 21q-56 0 -116 -72q-61 -73 -89 -178q-20 -73 -20 -225v-303q0 -47 7 -55q7 -9 40 -9h92q33 0 39 -6t6 -41v-61q0 -27 -31 -27q-10 0 -19 1t-20 1h-491q-13 0 -23 -1t-20 -1q-31 0 -31 39v29 q0 12 -1 20t-1 16z" />
<glyph unicode="s" horiz-adv-x="1024" d="M51 8v297q0 36 5 43q4 6 42 6h58q15 0 22 -4q9 -6 10 -8l2 -5q3 -5 4 -10t3 -11t2 -7q39 -98 127 -152q90 -55 182 -55q103 0 158 46t55 114q0 55 -47 93q-49 39 -118 57q-57 14 -153 46q-79 26 -152 60q-71 33 -118 103t-47 167q0 152 111 232q112 80 268 80 q144 0 235 -62q20 -14 27 -21l17 -17q5 -5 10 -5q4 0 39 56q16 26 23 30t44 4h53q15 0 19 -9q4 -8 4 -38v-264q0 -32 -8 -45q-7 -12 -39 -12h-49q-24 0 -39 19q-15 20 -24 51t-15 42q-44 66 -116 101q-73 35 -138 35q-180 0 -180 -134q0 -61 66 -99q65 -37 162 -63 q84 -23 189 -61q95 -35 161 -111q67 -78 67 -196q0 -336 -424 -336q-151 0 -270 72q-14 8 -20 13q-3 2 -7.5 5.5t-6.5 5.5q-5 5 -9 5q-7 0 -29 -31q0 -2 -7 -17q-1 -3 -2.5 -6t-3 -4.5t-1.5 -2.5t-2.5 -4t-3.5 -5q-3 -5 -6 -7q-4 -2 -7 -4q-4 -3 -9 -3q-7 0 -12 -1t-18 -1 h-45q-24 0 -32 6q-7 6 -7 22z" />
<glyph unicode="t" horiz-adv-x="815" d="M10 969v49q0 32 6 39q6 8 27 8h31q116 6 181 63t77 228v28q0 21 1 24q2 7 6 13q6 10 16 11q16 2 30 2h41q25 0 34 -7q7 -6 7 -24v-283q0 -38 7 -46q8 -9 34 -9h178q29 0 35 -7q6 -8 6 -42v-58q0 -17 -4 -21q-5 -5 -16 -5h-203q-28 0 -33 -5q-4 -4 -4 -36v-678 q0 -33 19 -56q20 -24 55 -24q39 0 90 60q1 1 7 9t9 13q8 13 12 17q6 6 13 6q9 0 28 -11l33 -18q15 -7 15 -23q0 -10 -23 -51q-92 -170 -279 -170q-245 0 -245 232v677q0 10 1 17t1 14q0 27 -35 27h-129q-20 0 -25 5q-4 4 -4 32z" />
<glyph unicode="u" horiz-adv-x="1443" d="M51 977v59q0 31 39 31q14 0 25 -1t24 -1h258q19 0 32 1t28 1q25 0 35 -11t10 -44v-680q0 -117 28 -166t105 -49q136 0 221 104q86 106 86 264v412q0 22 -5 29q-5 6 -19 6h-121q-30 0 -34 7q-5 8 -5 40v49q0 39 28 39q9 0 17 -1t20 -1h336q32 0 40 -11q9 -12 9 -55v-800 q0 -35 10 -52q8 -14 39 -14h111q16 0 20 -6q5 -7 5 -29v-28q0 -53 -9 -62q-8 -8 -61 -8h-332q-32 0 -40 11q-9 12 -9 55v65q0 59 -6 59q-4 0 -10 -11q-2 -3 -7.5 -13t-8.5 -16q-9 -17 -17 -29q-113 -152 -305 -152q-352 0 -352 340v578q0 33 -8 39q-7 6 -44 6h-78 q-40 0 -47 7q-8 8 -8 38z" />
<glyph unicode="v" horiz-adv-x="1267" d="M0 961v67q0 39 37 39q11 0 22 -1t27 -1h481q20 0 24 -7q5 -8 5 -34v-51q0 -29 -7 -35t-40 -6h-53q-37 0 -37 -12q0 -9 10 -35l195 -512q12 -33 20 -58q1 -15 9 -23q7 -7 14 -2q6 5 8 17q2 13 24 70l195 500q0 2 1.5 4t3 5.5t2.5 6.5q4 8 8 15q3 4 3 10q0 14 -43 14h-61 q-26 0 -33 5q-6 4 -6 26v69q0 35 27 35q8 0 16 -1t20 -1h369q29 0 29 -27q0 -7 -1 -15t-1 -19v-41q0 -25 -5 -28t-34 -3h-74q-19 0 -32 -5q-11 -4 -14 -9q-3 -4 -9 -23q-2 -7 -5 -15l-3 -8l-336 -856q0 -1 -1 -3l-2.5 -5t-2.5 -6q-3 -7 -6 -13t-5 -8q-7 -7 -9 -8 q-3 -1 -13 -3q-5 -1 -21 -1h-65q-23 0 -41 8q-16 7 -22 15q-5 6 -14 31q-10 28 -11 30l-359 807q0 2 -1.5 5.5t-4 9.5t-4.5 12q-7 20 -12 25q-7 7 -19 13q-14 7 -37 7h-65q-26 0 -34 5q-7 4 -7 24z" />
<glyph unicode="w" horiz-adv-x="1832" d="M0 983v49q0 35 29 35q8 0 16 -1t21 -1h499q13 0 22 1t19 1q31 0 31 -27v-61q0 -33 -6 -40t-35 -7h-72q-67 0 -67 -21q0 -10 14 -51l82 -266q31 -99 55 -201q18 -74 23 -74t26 82q16 59 48 158l155 457l4 12q2 8 3 11l3 9q2 5 6 7l2 1q3 2 5 3l9 3q2 1 6 1.5t6 0.5 q5 1 18 1h90q35 0 43 -29l182 -524q25 -76 49 -164q15 -55 19 -55q3 0 20 63l18 82q9 29 27 85.5t51.5 158t61.5 190.5q12 41 12 43q0 17 -57 17h-82q-28 0 -36 5q-7 4 -7 26v69q0 20 5 27q4 6 19 6h455q29 0 35 -7q6 -8 6 -42v-37q0 -35 -6 -41t-41 -6h-66h-21q-9 0 -17 -3 l-10 -4q-2 -1 -7 -9l-2 -4l-2 -4l-1 -1q-1 -1 -4 -14q-1 -4 -5 -16l-271 -828q0 -2 -1 -4.5t-2.5 -7t-2.5 -8.5q-4 -15 -6 -18l-6 -12q-4 -8 -9 -10q-13 -4 -14 -5q-7 -4 -19 -4h-28h-73q-23 0 -37 10q-16 11 -20 20q-6 15 -10 34q-4 23 -9 34l-164 481q-12 39 -39 141 q-4 15 -9 21q-5 7 -10 0q-6 -8 -10 -21q-29 -109 -39 -137l-178 -514l-2 -7q-3 -6 -5 -12q-5 -17 -6 -18l-6 -12q-4 -10 -9 -10q-4 0 -14 -5t-20 -5h-28h-69q-19 0 -31 3q-13 3 -20 12q-7 8 -10 16q-2 5 -7 25t-6 25l-273 836q-8 25 -16 30t-41 5h-92q-30 0 -34 7 q-5 8 -5 44z" />
<glyph unicode="x" horiz-adv-x="1257" d="M0 971v41q0 36 7 44q8 9 32 9h481q26 0 30 -7q5 -8 5 -38v-37q0 -39 -7 -45q-8 -6 -46 -6q-35 0 -35 -6q0 -2 3 -5q2 -2 8 -10q3 -4 9 -10l123 -147q34 -43 52 -43q12 0 57 51l110 127q29 34 29 35q0 8 -41 8q-40 0 -50 8q-9 8 -9 41v47q0 24 5 31q5 6 23 6h390 q20 0 20 -29v-65q0 -24 -8 -32q-7 -7 -43 -7h-58q-13 0 -22 -4q-7 -3 -13 -6q-4 -2 -12 -13q-5 -7 -10 -12l-207 -242q-51 -57 -51 -75q0 -19 39 -64l281 -332q7 -7 12 -15q7 -11 11 -13q2 -1 11 -10q6 -6 16 -8q8 -2 19 -3q16 -2 29 -2h24q33 0 38 -5t5 -38v-61 q0 -20 -7 -24q-8 -5 -31 -5h-435q-12 0 -21 -1t-20 -1q-30 0 -30 35v37q0 12 -1 20t-1 16q0 27 32 27q62 0 62 8q0 5 -25 35l-135 160q-39 45 -49 45q-12 0 -47 -41l-127 -147q-1 -3 -14 -16q-3 -3 -10.5 -10t-10.5 -10q-8 -10 -8 -16q0 -8 16 -8q13 0 23 1t20 1 q31 0 31 -33v-67q0 -26 -7 -30q-8 -5 -38 -5h-340q-13 0 -21 -1t-16 -1q-27 0 -27 31v82q0 24 25 24q7 0 14 -1t17 -1h49q25 0 43 6q19 6 25 11q5 4 20 23q3 4 6.5 8.5t5.5 7t3.5 5t2.5 3.5l211 245q43 49 43 66q0 18 -36 61l-283 336q-16 19 -25 23t-41 4q-2 0 -30 -2 t-29 -2q-41 0 -41 43z" />
<glyph unicode="y" horiz-adv-x="1306" d="M0 975v53q0 24 5 31q5 6 22 6h528q29 0 35 -6t6 -27v-69q0 -22 -4 -26q-5 -5 -21 -5h-45q-61 0 -61 -17q0 -3 24 -55l158 -354q43 -99 62 -150q23 -57 43 -57l36 49q12 33 23.5 63.5t19.5 51.5t13.5 37t9 25.5t4.5 11.5l135 344l17 39q0 12 -25 12h-86q-21 0 -27 7t-6 36 v49q0 27 8 35t27 8q12 0 22 -1t25 -1h299q12 0 20 1t15 1q25 0 25 -31v-61q0 -28 -5 -36q-4 -7 -26 -7h-74q-22 0 -33 -7t-15 -13q-3 -4 -9 -23l-8 -25l-426 -1073q-71 -181 -183 -258q-110 -76 -219 -76q-141 0 -222 85q-81 86 -81 196q0 93 44 154t132 61q74 0 114 -43 t40 -109q0 -61 -30 -94q-31 -34 -59 -45q-30 -12 -30 -22q0 -23 23 -41q24 -19 69 -19q174 0 291 297q12 35 12 55q0 22 -28 88l-394 865q0 1 -1 3l-2.5 5t-2.5 6q-3 7 -6 13t-6 9q-6 6 -10 7q-2 0 -4.5 0.5t-5.5 1.5t-5 1q-5 1 -22 1h-53q-13 0 -22 -1t-17 -1q-18 0 -26 8 q-7 7 -7 37z" />
<glyph unicode="z" horiz-adv-x="1146" d="M72 45v39q0 20 4 33q5 15 7 20q5 10 14 20q8 9 16 17l559 688l22 23q20 20 23 24q8 11 8 17q0 16 -53 16h-148q-153 0 -217 -53q-63 -53 -63 -164q0 -10 1 -18t1 -19q0 -37 -33 -37h-53q-28 0 -35 9q-8 10 -8 30q0 13 1 25t1 28v258q0 43 9 54q9 10 40 10h799q12 0 22 1 t21 1q32 0 32 -41v-37q0 -12 -2 -30q-1 -9 -7 -23q-4 -8 -8 -15q-6 -9 -12 -17q-3 -4 -8 -9.5t-6 -7.5l-544 -688q-41 -56 -41 -62q0 -14 80 -14h118q191 0 259 52q69 53 69 183q0 13 -1 21t-1 18q0 41 41 41h41q30 0 38 -6q7 -6 7 -29v-368q0 -21 -9 -28q-8 -7 -40 -7h-856 q-62 0 -75 6t-13 39z" />
<glyph unicode="{" horiz-adv-x="598" d="M72 -20q0 96 25 174q25 77 57 124q32 46 56 93q26 50 26 90q0 45 -23 66t-66 36q-23 7 -29 17q-5 8 -5 36v64q0 20 6 31q5 9 14 14q3 2 24 8q19 6 23 8q56 29 56 90q0 41 -26 91q-24 47 -56 93q-32 47 -57 124q-25 78 -25 174q0 228 313 274q43 8 80 8q72 0 72 -41v-57 q0 -18 -8 -28q-7 -9 -14 -10q-2 0 -5.5 -0.5t-9 -1t-10.5 -0.5q-14 -1 -27 -3q-119 -24 -119 -170q0 -69 35 -182t35 -219q0 -94 -60 -166q-12 -15 -28 -28q-22 -18 -25 -21q-8 -8 -8 -17q0 -15 24 -37q97 -86 97 -204q0 -107 -35 -220t-35 -182q0 -141 119 -170q4 0 8.5 -1 t11 -2t10.5 -2q20 -3 22 -4q6 -2 12 -8q7 -7 9 -20q1 -8 1 -34v-33q0 -23 -6 -33q-5 -8 -19 -8q-7 0 -14 1t-19 1q-196 7 -302 83q-105 75 -105 202z" />
<glyph unicode="|" horiz-adv-x="614" d="M215 -475v2036q0 26 5 31t34 5h102q28 0 35 -7q8 -8 8 -25v-2032q0 -32 -5 -39q-5 -6 -38 -6h-90q-36 0 -43 6q-8 6 -8 31z" />
<glyph unicode="}" horiz-adv-x="557" d="M20 -207q0 18 8 28q7 9 14 10q2 0 5.5 0.5t9 1t10.5 0.5q14 1 27 3q119 24 119 170q0 69 -35 182t-35 220q0 93 60 165q12 15 28 28q17 14 25 22t8 16q0 15 -24 37q-97 86 -97 205q0 106 35 219t35 182q0 141 -119 170q-5 1 -15 2.5t-14 2.5q-22 4 -23 4q-6 2 -12 8 t-8 20q-2 16 -2 35v32q0 23 6 33q5 8 19 8q7 0 14 -1t19 -1q196 -7 302 -83q105 -75 105 -201q0 -96 -25 -174q-25 -77 -57 -124q-32 -46 -56 -93q-25 -49 -25 -91q0 -45 22 -66t66 -36q24 -7 29 -16q5 -8 5 -37v-64q0 -20 -6 -30t-14 -15q-3 -2 -24 -8q-19 -6 -23 -8 q-55 -28 -55 -90q0 -41 25 -90q26 -51 56 -94q33 -48 57 -123q25 -78 25 -175q0 -228 -313 -274q-43 -8 -80 -8q-72 0 -72 41v57z" />
<glyph unicode="~" horiz-adv-x="1409" d="M182 748q0 1 19 79q30 115 113 177q82 61 196 61q66 0 118 -22q50 -21 79 -53q32 -35 53 -63q26 -34 56 -54q32 -21 75 -21q80 0 121 33q40 33 51 102q1 6 3 22q2 15 2 16t1.5 4l2.5 5q3 5 9 7q2 1 7.5 1.5t8.5 0.5q6 1 25 1h54q31 0 39 -4q10 -5 10 -22q0 -4 -1 -9 t-1 -14q-15 -148 -104 -231q-88 -82 -220 -82q-78 0 -132 21q-53 20 -83 54q-28 31 -51 63q-24 33 -55 53q-35 22 -80 22q-129 0 -150 -104q-2 -10 -2 -38q0 -29 -8 -40t-35 -11h-70q-51 0 -51 46z" />
<glyph unicode="&#xa1;" horiz-adv-x="653" d="M121 932q0 68 48 116t116 48q67 0 115 -48q49 -49 49 -116t-49 -116q-48 -48 -115 -48q-68 0 -116 48t-48 116zM123 -303q0 10 1 18t1 21q11 159 60 411q51 260 51 394v24q0 33 28 33h55q21 0 21 -35q0 -9 -1 -16t-1 -15q6 -127 53 -378q48 -255 58 -418v-39 q0 -85 -46 -140t-116 -55q-71 0 -118 55q-46 53 -46 140z" />
<glyph unicode="&#xa2;" horiz-adv-x="1153" d="M82 512q0 203 107 361q109 160 290 206q2 1 34 8q6 1 11.5 2.5t9.5 3t5 1.5q5 1 16 6q9 4 14 12t8 22l7 35q3 23 4 34q1 17 4 32q2 8 14 16q14 9 35 9h49q33 0 45 -5q10 -4 10 -18q0 -7 -3 -22t-3 -25q0 -5 -1.5 -18t-2.5 -21l-3 -31q-1 -7 -1 -16t1 -11q2 -5 6 -7 q2 -2 12 -4l18 -3q14 -2 25 -6q132 -39 202 -125q70 -87 70 -184q0 -84 -53 -137q-54 -54 -119 -54q-74 0 -116 39t-42 111q0 53 44 95t44 59q0 34 -59 61q-27 12 -41 12q-19 0 -25 -47l-98 -696l-7 -36q-5 -28 -5 -36q0 -35 57 -35q189 0 272 203l6 15q3 9 5 13q1 2 5 8 t7 7q1 0 4.5 1.5t5.5 2.5q4 1 16 3q6 1 21 1h62q28 0 28 -22q0 -8 -24 -70q-114 -293 -432 -293h-27q-21 0 -27 -7q-7 -8 -8 -34l-6 -41q0 -9 -1 -15q0 -2 -0.5 -5t-1 -4.5t-0.5 -2.5q-1 -1 -1.5 -4.5t-0.5 -5.5l-2 -8q-1 -1 -2 -3t-2 -3q-2 -3 -7 -5q-3 -1 -11 -3t-13 -2 h-17h-33h-32q-9 0 -19 3q-12 3 -13 7q-2 6 -2 14t4 37l9 58q2 16 2 30q0 12 -6 24q-4 8 -10 12q-7 5 -21 11q-21 9 -27 13q-125 68 -195 197q-69 128 -69 280zM379 553q0 -165 33 -264q21 -60 28 -60q8 0 23 93l78 544q4 33 4 43q0 23 -10 23q-9 0 -43 -29 q-113 -101 -113 -350z" />
<glyph unicode="&#xa3;" horiz-adv-x="1208" d="M-76 709v51q0 34 7 41q8 8 30 8h248q-4 6 -20 34l-20 37q-1 3 -3.5 7t-7 12.5t-7.5 14.5q-16 31 -19 39q-2 6 -14 38q-10 27 -14 44q-4 15 -7 43q-3 24 -3 48q0 210 165 325q166 116 421 116q228 0 355 -90q128 -90 128 -236q0 -83 -44 -130q-43 -46 -107 -46t-110 36 t-46 103q0 42 33 76t33 55q0 44 -66 74q-68 31 -176 31q-166 0 -221 -78q-56 -79 -56 -215q0 -104 86 -281q0 -2 1.5 -4t3 -5.5t2.5 -6.5t2.5 -6l2.5 -5t1 -3q1 -3 7 -11q3 -5 10 -9q5 -3 16 -5q14 -2 22 -2h217q13 0 23 1t18 1q31 0 31 -39v-70q0 -49 -39 -49q-13 0 -25 1 t-28 1h-148q-22 0 -34 -6q-11 -6 -13 -12q-1 -6 -3 -26q-1 -18 -3 -31q-15 -84 -62 -141q-48 -58 -124 -115q-73 -54 -109 -97q-90 -102 -90 -118q10 0 94 86q62 65 189 65q85 0 201 -45t179 -45q129 0 189 68q10 10 16 33q5 21 16 37q9 14 33 14h46q38 0 38 -29 q0 -12 -4 -37q-16 -172 -111 -250q-94 -78 -235 -78q-105 0 -250 62q-143 61 -211 61t-120 -24q-12 -5 -41 -37q-28 -31 -52 -31h-67q-43 0 -43 53q0 23 10 72q18 87 83 178q59 82 119 159q54 69 54 114q0 77 -17 98q-18 22 -91 22h-209q-44 0 -52 8t-8 46z" />
<glyph unicode="&#xa5;" horiz-adv-x="1669" d="M-10 1438v57q0 26 5 34q4 7 23 7h668q26 0 34 -8q7 -7 7 -45v-66q0 -22 -8 -28q-9 -7 -41 -7h-57q-70 0 -70 -12q0 -6 27 -47l217 -334q43 -66 73 -129q24 -51 33 -51t43 55q44 70 88 131l207 299q7 12 21 26q12 12 22 26q8 11 8 18q0 18 -55 18h-119q-38 0 -45 7 q-6 6 -6 45v65q0 25 8 31q7 6 43 6h539q15 0 19 -6q5 -7 5 -27v-78q0 -33 -4 -37q-6 -6 -35 -6h-94q-15 0 -22 -1t-18 -1q-7 0 -14 -4l-10 -5q-4 -2 -8 -7l-8 -8q-2 -2 -8 -11q-7 -10 -8 -14l-410 -586l-2 -4q-1 -4 -4 -4h205q25 0 28 -5q3 -4 3 -34v-79q0 -27 -6 -31 q-5 -4 -43 -4h-228v-154h246q25 0 28 -5t3 -34v-80q0 -25 -6 -30q-7 -5 -43 -5h-228v-73q0 -31 12 -40t58 -9h135q26 0 34 -10q7 -8 7 -46v-45q0 -33 -9 -43t-32 -10h-643q-12 0 -20 -1t-17 -1q-26 0 -26 35v86q0 22 8 28q9 7 39 7h123q34 0 45 8q10 7 10 33v81h-303 q-29 0 -38 7q-7 6 -7 30v74q0 29 12 36q11 7 43 7h293v82q0 36 -4 72h-299q-30 0 -38 6q-7 6 -7 31v73q0 28 12 36q11 7 43 7h223l-381 570q-38 54 -57 63q-24 12 -92 12q-6 0 -38 -2t-34 -2q-55 0 -55 60z" />
<glyph unicode="&#xa6;" horiz-adv-x="614" d="M215 326q0 10 5 12q6 2 34 2h102q43 0 43 -12v-822q0 -12 -5 -15t-38 -3h-90q-33 0 -43 2q-8 2 -8 12v824zM215 850v733q0 11 6 12q8 2 33 2h102q43 0 43 -12v-731q0 -12 -5 -14q-6 -2 -38 -2h-90q-51 0 -51 12z" />
<glyph unicode="&#xa7;" horiz-adv-x="1093" d="M18 283q0 79 50 123q49 43 102 43q57 0 97 -37t40 -93q0 -41 -33 -75q-32 -33 -32 -56q0 -36 82 -60t172 -24q108 0 185 33t77 101q0 64 -73 113q-70 47 -176 82q-109 36 -206 72q-103 38 -175 104q-73 67 -73 159q0 99 103 199q30 30 30 47q0 11 -11 19q-4 3 -8.5 6.5 t-12 9.5l-12.5 10q-21 17 -38 35q-51 62 -51 151q0 151 129 236q130 86 291 86q191 0 325 -75t134 -239q0 -81 -39 -118q-38 -37 -92 -37q-51 0 -104 34q-54 34 -54 85q0 41 33 75t33 56q0 38 -64 61t-149 23q-201 0 -201 -134q0 -64 73 -113q69 -46 175 -82 q110 -37 206 -72q103 -37 176 -104q72 -66 72 -159q0 -96 -90 -186q-47 -47 -47 -54q0 -8 47 -47q90 -73 90 -190q0 -101 -81 -176q-82 -77 -189 -111q-108 -35 -211 -35q-88 0 -173 17q-86 17 -159 50q-75 34 -121 98q-47 65 -47 149zM313 834q0 -30 11 -57t37 -47 q10 -8 26.5 -20t21.5 -16q17 -13 69 -32q17 -6 40.5 -14.5t30.5 -11.5q31 -11 82 -26q36 -10 55 -10q31 0 43 24t12 78q0 80 -72 125q-74 46 -214 91q-66 20 -86 20q-56 0 -56 -104z" />
<glyph unicode="&#xa8;" horiz-adv-x="819" d="M82 1546q0 68 48 116t116 48q67 0 115 -48q49 -49 49 -116q0 -66 -49 -115t-115 -49q-67 0 -116 49q-48 48 -48 115zM492 1546q0 68 48 116t115 48q68 0 116 -48t48 -116q0 -67 -48 -115q-49 -49 -116 -49q-66 0 -115 49q-48 48 -48 115z" />
<glyph unicode="&#xa9;" horiz-adv-x="1781" d="M82 768q0 326 237 557t572 231q334 0 571 -231q238 -232 238 -557t-238 -557q-237 -231 -571 -231q-335 0 -572 231t-237 557zM205 768q0 -285 201 -486q202 -202 485 -202t485 202q201 201 201 486t-201 486q-202 202 -485 202t-485 -202q-201 -201 -201 -486zM434 768 q0 209 135 341t357 132q139 0 223 -72q6 -5 12 -12q8 -10 10 -12q4 -4 9 -4q7 0 14 20l20 45q10 22 17 27q10 2 22 2q10 0 17 1t14 1q23 0 23 -33v-268q0 -11 -5 -16t-22 -5h-37q-20 0 -29 9q-8 8 -12 27q-6 24 -8 28q-33 77 -101 121q-69 45 -161 45q-130 0 -219 -109 q-88 -107 -88 -268q0 -166 78 -270q80 -107 217 -107q125 0 201 65q75 65 98 167q2 6 3 19t3 16q2 4 9 8t21 4h39q23 0 23 -17q0 -12 -2 -22q-21 -151 -128 -243q-108 -93 -280 -93q-218 0 -346 131q-127 130 -127 342z" />
<glyph unicode="&#xaa;" horiz-adv-x="722" d="M23 1145q0 89 86 146t256 57q39 0 46 7t7 42v35q0 68 -24 103q-24 34 -91 34q-45 0 -76 -13q-28 -12 -28 -26q0 -2 18 -23q19 -22 19 -55q0 -38 -26 -61t-67 -23t-69 25q-27 24 -27 65q0 80 83 133q85 54 204 54q114 0 185 -59t71 -167v-301q0 -22 11 -38q11 -17 32 -17 q23 0 35 18q18 27 20 27q11 0 27 -13t16 -20q0 -5 -12 -28q-47 -78 -141 -78q-82 0 -123 51l-29 37q-2 0 -5 -4q-4 -7 -13 -14q-14 -12 -21 -19q-63 -51 -149 -51q-102 0 -158 46q-57 47 -57 130zM190 1163q0 -48 31 -74t72 -26q125 0 125 154v36q0 24 -5 31q-5 6 -22 6h-26 q-95 0 -135 -40t-40 -87z" />
<glyph unicode="&#xab;" horiz-adv-x="1423" d="M51 793q0 15 4 23q3 6 10 13q6 6 16 11t15 10l574 399q3 2 9 7.5t9 8.5q9 7 18 13q7 4 13 4q12 0 26 -20l21 -31q12 -23 12 -31t-39 -43l-374 -317q-41 -35 -41 -49q0 -3 2 -9q1 -3 7 -9q1 -2 4.5 -5t5.5 -4q2 -2 14 -12q2 -2 6 -5t7 -5.5t5 -4.5l356 -299q3 -1 21 -14 q14 -10 22 -20q6 -7 6 -17q0 -11 -8 -22l-31 -48q-7 -14 -20 -14q-5 0 -13 5q-3 2 -9 7t-9 7l-16 12l-578 403q-1 0 -15 9q-5 3 -9.5 7t-5.5 4q-6 4 -10 13q-5 12 -5 23zM625 793q0 21 16 36l11 8q11 8 18 13l573 399q5 4 19 16q11 9 17 13q7 4 13 4q13 0 27 -20l20 -31 q13 -24 13 -31q0 -8 -39 -43l-375 -317q-41 -35 -41 -49q0 -3 2 -9q1 -3 7 -9q2 -2 5.5 -5t4.5 -4q2 -2 7.5 -6t7.5 -6q3 -2 8.5 -7.5t8.5 -7.5l357 -299q1 0 20 -14q17 -12 23 -20q6 -7 6 -17q0 -11 -8 -22l-31 -48q-7 -14 -21 -14q-5 0 -13 5q-3 2 -8.5 7t-8.5 7l-9 6 t-8 6l-577 403q-3 1 -16 9q-5 3 -9.5 7t-5.5 4q-5 3 -9 13q-5 12 -5 23z" />
<glyph unicode="&#xac;" horiz-adv-x="983" d="M131 1163v74q0 29 13 36t51 7h718q26 0 31 -4q6 -5 6 -19q16 0 17 -4q2 -6 2 -18v-6v-357q0 -17 -5 -22q-4 -4 -30 -4h-74q-29 0 -35 7q-6 8 -6 26v247h-637q-34 0 -43 7q-8 6 -8 30z" />
<glyph unicode="&#xad;" horiz-adv-x="942" d="M123 754v73q0 29 12 36q11 7 43 7h610q25 0 28 -5t3 -34v-79q0 -26 -6 -31q-5 -4 -43 -4h-602q-30 0 -38 6q-7 6 -7 31z" />
<glyph unicode="&#xae;" horiz-adv-x="1781" d="M82 768q0 326 237 557t572 231q334 0 571 -231q238 -232 238 -557t-238 -557q-237 -231 -571 -231q-335 0 -572 231t-237 557zM205 768q0 -285 201 -486q202 -202 485 -202t485 202q201 201 201 486t-201 486q-202 202 -485 202t-485 -202q-201 -201 -201 -486zM449 336 v37v4q0 11 2 15q1 3 16 3h80q27 0 32 6q5 7 5 35v654q0 15 -1 20q0 2 -0.5 6t-1.5 6q-1 4 -9 6q-6 1 -9 4q-1 1 -15 1h-20h-45q-15 -3 -18 -3q-16 0 -16 33v37q0 27 30 27q8 0 13 -1t14 -1h452q332 0 332 -240q0 -162 -155 -211q-37 -12 -37 -16q0 -2 6 -6q8 -6 18 -11 q16 -8 23 -12q62 -44 80 -125q17 -78 25 -140q7 -58 44 -58q19 0 58 30l12 13q10 10 14 10q7 0 15 -8l18 -21q16 -20 16 -27q0 -6 -16 -28q-66 -84 -158 -84q-88 0 -129 44t-47 105q-8 82 -11 124q-4 63 -44 107q-39 44 -125 44h-123q-24 0 -24 -19v-270q0 -22 4 -26 q5 -5 16 -5h98q17 0 17 -20v-35q0 -29 -4 -33t-33 -4h-377q-13 0 -17 6q-5 7 -5 27zM750 842q0 -20 4 -24q5 -5 22 -5h182q68 0 114 43t46 129q0 148 -160 148h-147h-18q-14 0 -16 -1q-3 -2 -10 -3q-8 -2 -9 -4t-5 -8q-3 -5 -3 -12v-20v-243z" />
<glyph unicode="&#xaf;" horiz-adv-x="983" d="M131 1163v74q0 29 13 36t51 7h718q26 0 31 -4q6 -4 6 -21v-14v-80q0 -27 -7 -31t-52 -4h-709q-34 0 -43 7q-8 6 -8 30z" />
<glyph unicode="&#xb0;" horiz-adv-x="655" d="M82 1393q0 102 72 174q71 71 174 71t174 -71t71 -174t-71 -174q-72 -72 -174 -72t-174 72t-72 174zM195 1393q0 -59 37 -96t96 -37q58 0 95 37q38 38 38 96q0 57 -38 95t-95 38q-58 0 -96 -38q-37 -37 -37 -95z" />
<glyph unicode="&#xb1;" d="M123 74v73q0 29 14 36t53 7h736q25 0 30 -4q7 -5 7 -20v-14v-80q0 -26 -8 -31q-7 -4 -52 -4h-725q-37 0 -46 6t-9 31zM123 713v41q0 25 5 33t24 8h278q32 0 39 9q8 10 8 48v252q0 31 7 37q8 6 42 6h49q35 0 35 -27q0 -7 -1 -15t-1 -20v-217q0 -12 -1 -22t-1 -19 q0 -32 43 -32h250q13 0 21 1t16 1q27 0 27 -35v-66q0 -37 -27 -37q-8 0 -16 1q-16 2 -21 2h-233q-10 0 -17 1t-14 1q-27 0 -27 -33v-281q0 -31 -7 -37t-42 -6h-45q-22 0 -30 6q-7 6 -7 23v278q0 30 -8 40t-29 10q-8 0 -18 -1t-23 -1h-225q-39 0 -45 6t-6 45z" />
<glyph unicode="&#xb2;" horiz-adv-x="962" d="M184 934l1 5q1 5 3.5 15.5t4.5 22.5q37 195 260 289q88 37 111 76q24 40 24 110q0 127 -123 127q-55 0 -96 -18t-41 -39q0 -8 18 -16q21 -9 38 -26q19 -19 19 -55q0 -42 -29 -68q-31 -28 -65 -28q-38 0 -70 29t-32 78q0 92 78 149t192 57q133 0 209 -51t76 -151 q0 -77 -73 -144q-69 -64 -218 -108q-82 -22 -145 -90q-41 -44 -41 -45l6 4q4 1 24 10q22 10 33 14q28 11 53 11q52 0 109 -27t96 -27q79 0 101 54l3 18t6 15t19 3h19q17 0 22 -3q4 -3 4 -15v-12q-10 -205 -182 -205q-64 0 -137 37t-115 37q-44 0 -67 -23q-9 -9 -12 -15 q-5 -10 -12 -14t-26 -4h-24q-21 0 -21 23z" />
<glyph unicode="&#xb3;" horiz-adv-x="921" d="M164 934q0 48 26 77t64 29q36 0 60 -21t24 -63q0 -33 -27 -54q-26 -20 -26 -32q0 -26 38 -50q36 -23 101 -23q149 0 149 188q0 172 -143 199q-7 1 -23 3q-4 0 -8.5 0.5t-7.5 1t-4 0.5q-4 1 -8 10q-4 8 -4 26q0 14 1 18t3 10t6 7q6 2 8 2q8 0 14 1t15 1q41 6 67 22 q27 16 39 42q13 27 17 48q4 20 4 54q0 149 -125 149q-41 0 -71 -20q-31 -21 -31 -41q0 -12 26 -32q27 -21 27 -54q0 -41 -24 -62q-23 -20 -60 -20t-64 24q-26 23 -26 68q0 81 66 141q65 59 182 59q121 0 197 -54q77 -54 77 -158q0 -128 -96 -177q-16 -7 -38 -12 q-21 -5 -33 -6q-11 -1 -11 -6t47 -23q156 -56 156 -221q0 -105 -82 -178q-83 -74 -217 -74q-142 0 -213 55q-72 56 -72 146z" />
<glyph unicode="&#xb4;" horiz-adv-x="808" d="M-106 1505l464 129q15 4 23 4q37 0 63 -26q27 -27 27 -66q0 -41 -30 -65q-32 -26 -62 -27l-481 -10z" />
<glyph unicode="&#xb5;" horiz-adv-x="1443" d="M51 977v59q0 31 39 31q14 0 25 -1t24 -1h258q19 0 32 1t28 1q25 0 35 -11t10 -44v-680q0 -117 28 -166t105 -49q136 0 221 104q86 106 86 264v412q0 22 -5 29q-5 6 -19 6h-121q-30 0 -34 7q-5 8 -5 40v49q0 39 28 39q9 0 17 -1t20 -1h336q32 0 40 -11q9 -12 9 -55v-770 q0 -18 -1 -30t-1 -25q0 -23 11 -32t40 -9h111q16 0 20 -6q5 -7 5 -29v-28q0 -53 -9 -62q-8 -8 -61 -8h-332q-32 0 -40 11q-9 12 -9 55v65q0 59 -6 59q-4 0 -10 -11q-2 -3 -7.5 -13t-8.5 -16q-9 -17 -17 -29q-113 -152 -305 -152q-114 0 -191 37q-11 5 -21 11q-16 10 -18 11 q-6 3 -10 3q-10 0 -10 -62v-213q0 -88 76 -88q16 0 44 20q26 19 66 19q52 0 83 -33q32 -34 32 -86q0 -53 -43 -87q-42 -33 -102 -33q-104 0 -181 76t-77 206v1137q0 33 -8 39q-7 6 -44 6h-78q-40 0 -47 7q-8 8 -8 38z" />
<glyph unicode="&#xb7;" horiz-adv-x="405" d="M82 850q0 68 48 116t116 48q67 0 115 -48q49 -49 49 -116t-49 -116q-48 -48 -115 -48q-68 0 -116 48t-48 116z" />
<glyph unicode="&#xb8;" horiz-adv-x="1126" d="M336 -184q0 8 10 21t28 31q17 18 25 28l148 188h184l-67 -86q-62 -79 -62 -88q0 -16 72 -45q21 -7 28 -10q138 -53 138 -142q0 -83 -96 -145q-95 -62 -295 -62h-37q-22 0 -32 10q-9 9 -9 40q0 49 7 62t32 13q10 0 22 -1t29 -1h41q172 0 172 64q0 94 -283 102 q-55 1 -55 21z" />
<glyph unicode="&#xb9;" d="M287 961v20q0 26 5 33q4 6 27 6h97q37 0 47 7t10 32q0 8 -1 17t-1 22v293q0 19 -6 24q-5 4 -33 4h-82q-9 0 -14 -1t-10 -1q-19 0 -19 27v33q0 20 4 24t27 4q87 1 138 22q49 20 83 85q3 3 7 18t14 23q8 6 22 6h19q16 0 16 -14v-562q0 -42 8 -53q7 -10 39 -10h74 q39 0 45 -6t6 -45q0 -23 -6 -30t-21 -7q-7 0 -15 1t-19 1h-424q-26 0 -31 4q-6 4 -6 23z" />
<glyph unicode="&#xba;" horiz-adv-x="1224" d="M283 1286q0 155 83 256q82 100 234 100t236 -94t84 -231q0 -152 -83 -252q-82 -98 -237 -98q-152 0 -234 91q-83 92 -83 228zM461 1317q0 -277 139 -277q141 0 141 252q0 277 -141 277q-139 0 -139 -252z" />
<glyph unicode="&#xbb;" horiz-adv-x="1423" d="M70 1200q0 12 8 23l31 47q7 14 20 14q5 0 13 -5q3 -2 9.5 -7t8.5 -6q4 -3 9.5 -7.5t6.5 -5.5l578 -403q1 0 15 -9q5 -3 9.5 -7t5.5 -4q6 -4 10 -13q5 -12 5 -22q0 -22 -17 -37q-2 -1 -11.5 -8.5t-16.5 -12.5l-574 -399q-8 -6 -18 -15q-12 -11 -18 -14q-7 -4 -13 -4 q-12 0 -27 21l-20 30q-12 21 -12 31q0 9 39 43l374 318q41 35 41 49q0 2 -2 8q-1 3 -7 9q-1 2 -5 5t-5 4q-8 8 -14 13q-3 3 -9.5 8t-8.5 6l-356 299q-3 1 -21 14q-14 10 -22 20q-6 7 -6 17zM643 1200q0 12 8 23l31 47q7 14 20 14q6 0 14 -5q3 -2 8.5 -6.5t8.5 -6.5l10 -7.5 t7 -5.5l577 -403q1 0 15 -9q4 -2 7 -4.5t5.5 -4t3.5 -2.5q5 -3 9 -13q5 -12 5 -22q0 -16 -4 -24t-9 -13q-3 -3 -17 -10q-8 -4 -15 -11l-573 -399q-1 -1 -8 -6t-11 -9q-15 -13 -17 -14q-7 -4 -13 -4q-12 0 -27 21l-21 30q-12 22 -12 31t39 43l375 318q41 35 41 49q0 2 -2 8 q-1 3 -7 9q-1 2 -5 5t-6 4q-8 8 -14 13q-12 10 -17 14l-357 299q-1 0 -20 14q-17 12 -23 20q-6 7 -6 17z" />
<glyph unicode="&#xbc;" horiz-adv-x="2048" d="M287 961v20q0 26 5 33q4 6 27 6h97q37 0 47 7t10 32q0 8 -1 17t-1 22v293q0 19 -6 24q-5 4 -33 4h-82q-9 0 -14 -1t-10 -1q-19 0 -19 27v33q0 20 4 24t27 4q87 1 138 22q49 20 83 85q3 3 7 18t14 23q8 6 22 6h19q16 0 16 -14v-562q0 -42 8 -53q7 -10 39 -10h74 q39 0 45 -6t6 -45q0 -23 -6 -30t-21 -7q-7 0 -15 1t-19 1h-424q-26 0 -31 4q-6 4 -6 23zM489 14q0 5 7 17q6 11 16 22q4 5 14 21l879 1413q1 2 3.5 6t3.5 7t3.5 7t3.5 6q1 5 7 10q5 5 12 7q1 0 6 1.5t9 2.5q12 2 22 2h49q37 0 37 -12q0 -4 -5 -11q-9 -12 -11 -14 q-3 -3 -11 -16l-870 -1417q-4 -6 -11 -19q-7 -14 -9 -17q-6 -9 -10 -13q-7 -7 -14 -10q-9 -4 -21 -5q-18 -2 -30 -2h-45q-35 0 -35 14zM1139 178q0 19 16 55q28 58 140 221q117 171 134 261q4 29 10 35q4 4 36 4h86q30 0 30 -21q0 -16 -6 -37q-16 -68 -71 -141 q-57 -76 -133 -152q-75 -75 -111 -124q-31 -36 -31 -46q0 -14 37 -14h162q22 0 27 5t5 32v98q0 19 7 31q6 10 25 19t26 14q44 29 67 76q0 1 1.5 4.5t2.5 5.5q0 2 1 3.5t2.5 3t1.5 2.5q2 4 6 5q6 2 12 2q7 0 11 -2l4 -4q2 -2 0 -10q-1 -5 -1 -10v-246q0 -19 5 -24t30 -5h37 q14 0 14 -20v-49q0 -17 -22 -17h-37q-19 0 -23 -3t-4 -15v-97q0 -9 -1 -14t-1 -12q0 -25 37 -25h31q26 0 26 -18l1 -47q0 -23 -17 -23q-5 0 -10 1t-14 1h-293q-23 0 -26 4t-3 25v39q0 12 4 15t21 3h38q28 0 35 5q6 5 6 26v106q0 31 -22 31q-6 0 -11 -1t-14 -1h-250 q-22 0 -28 7q-6 8 -6 38z" />
<glyph unicode="&#xbd;" horiz-adv-x="2048" d="M287 961v20q0 26 5 33q4 6 27 6h97q37 0 47 7t10 32q0 8 -1 17t-1 22v293q0 19 -6 24q-5 4 -33 4h-82q-9 0 -14 -1t-10 -1q-19 0 -19 27v33q0 20 4 24t27 4q87 1 138 22q49 20 83 85q3 3 7 18t14 23q8 6 22 6h19q16 0 16 -14v-562q0 -42 8 -53q7 -10 39 -10h74 q39 0 45 -6t6 -45q0 -23 -6 -30t-21 -7q-7 0 -15 1t-19 1h-424q-26 0 -31 4q-6 4 -6 23zM489 14q0 5 7 17q6 11 16 22q4 5 14 21l879 1413q1 2 3.5 6t3.5 7t3.5 7t3.5 6q1 5 7 10q5 5 12 7q1 0 6 1.5t9 2.5q12 2 22 2h49q37 0 37 -12q0 -4 -5 -11q-9 -12 -11 -14 q-3 -3 -11 -16l-870 -1417q-4 -6 -11 -19q-7 -14 -9 -17q-6 -9 -10 -13q-7 -7 -14 -10q-9 -4 -21 -5q-18 -2 -30 -2h-45q-35 0 -35 14zM1208 33l1 5q1 4 3 15.5t4 22.5q37 194 261 289q88 37 111 76q24 40 24 110q0 127 -123 127q-53 0 -96 -19q-41 -18 -41 -38q0 -9 18 -16 q21 -9 38 -26q19 -19 19 -55q0 -42 -29 -68q-31 -28 -65 -28q-38 0 -70 29t-32 78q0 92 78 149t192 57q133 0 209 -51t76 -151q0 -77 -73 -144q-69 -64 -218 -108q-82 -22 -145 -90q-41 -44 -41 -45l6 4q4 1 24 10q22 10 33 14q26 10 53 10q54 0 109 -26q57 -27 96 -27 q80 0 101 53q1 5 3 19q2 12 6 15t19 3h19q18 0 22 -3t4 -15v-12q-10 -205 -182 -205q-64 0 -137 37t-115 37q-44 0 -67 -23q-9 -9 -12 -15q-5 -10 -12 -14t-26 -4h-24q-21 0 -21 23z" />
<glyph unicode="&#xbe;" horiz-adv-x="2048" d="M164 934q0 48 26 77t64 29q36 0 60 -21t24 -63q0 -33 -27 -54q-26 -20 -26 -32q0 -26 38 -50q36 -23 101 -23q149 0 149 188q0 172 -143 199q-7 1 -23 3q-4 0 -8.5 0.5t-7.5 1t-4 0.5q-4 1 -8 10q-4 8 -4 26q0 14 1 18t3 10t6 7q6 2 8 2q8 0 14 1t15 1q41 6 67 22 q27 16 39 42q13 27 17 48q4 20 4 54q0 149 -125 149q-41 0 -71 -20q-31 -21 -31 -41q0 -12 26 -32q27 -21 27 -54q0 -41 -24 -62q-23 -20 -60 -20t-64 24q-26 23 -26 68q0 81 66 141q65 59 182 59q121 0 197 -54q77 -54 77 -158q0 -128 -96 -177q-16 -7 -38 -12 q-21 -5 -33 -6q-11 -1 -11 -6t47 -23q156 -56 156 -221q0 -105 -82 -178q-83 -74 -217 -74q-142 0 -213 55q-72 56 -72 146zM489 14q0 5 7 17q6 11 16 22q4 5 14 21l879 1413q1 2 3.5 6t3.5 7t3.5 7t3.5 6q1 5 7 10q5 5 12 7q1 0 6 1.5t9 2.5q12 2 22 2h49q37 0 37 -12 q0 -4 -5 -11q-9 -12 -11 -14q-3 -3 -11 -16l-870 -1417q-4 -6 -11 -19q-7 -14 -9 -17q-6 -9 -10 -13q-7 -7 -14 -10q-9 -4 -21 -5q-18 -2 -30 -2h-45q-35 0 -35 14zM1139 178q0 19 16 55q28 58 140 221q117 171 134 261q4 29 10 35q4 4 36 4h86q30 0 30 -21q0 -16 -6 -37 q-16 -68 -71 -141q-57 -76 -133 -152q-75 -75 -111 -124q-31 -36 -31 -46q0 -14 37 -14h162q22 0 27 5t5 32v98q0 19 7 31q6 10 25 19t26 14q44 29 67 76q0 1 1.5 4.5t2.5 5.5q0 2 1 3.5t2.5 3t1.5 2.5q2 4 6 5q6 2 12 2q7 0 11 -2l4 -4q2 -2 0 -10q-1 -5 -1 -10v-246 q0 -19 5 -24t30 -5h37q14 0 14 -20v-49q0 -17 -22 -17h-37q-19 0 -23 -3t-4 -15v-97q0 -9 -1 -14t-1 -12q0 -25 37 -25h31q26 0 26 -18l1 -47q0 -23 -17 -23q-5 0 -10 1t-14 1h-293q-23 0 -26 4t-3 25v39q0 12 4 15t21 3h38q28 0 35 5q6 5 6 26v106q0 31 -22 31q-6 0 -11 -1 t-14 -1h-250q-22 0 -28 7q-6 8 -6 38z" />
<glyph unicode="&#xbf;" horiz-adv-x="1126" d="M31 -61q0 138 105 252t280 165q8 1 26 6q6 1 22 7q3 1 12 8q8 6 9 18q2 16 2 33v117q0 32 13 42q12 9 59 9h53q41 0 41 -35q0 -11 -1 -21t-1 -26v-135q0 -16 -2 -34q0 -2 -4 -21q-2 -9 -9 -15q-9 -7 -11 -8q-1 0 -4 -1.5t-7.5 -3t-8.5 -2.5q-16 -5 -23 -9 q-263 -108 -263 -387q0 -126 58 -210q57 -83 184 -83q105 0 162 33t57 71q0 25 -41 78t-41 111q0 62 44 103q43 40 114 40q72 0 120 -50t48 -136q0 -140 -122 -248q-123 -109 -341 -109q-269 0 -399 117q-131 117 -131 324zM401 932q0 67 49 116q48 48 115 48q68 0 116 -48 t48 -116t-48 -116t-116 -48q-67 0 -115 48q-49 49 -49 116z" />
<glyph unicode="&#xc0;" horiz-adv-x="1945" d="M51 45v74q0 22 8 28q9 7 41 7h125q24 0 40 8t21 13t14 29q2 6 5 13l4.5 10.5t1.5 5.5l576 1274q1 5 6 15q1 3 3 8q1 3 2 4l1 2q1 1 2 3l2 4q3 5 6 8l3 1l4 4q3 4 11 6q5 2 12 3q10 2 16 2h22h61q23 0 39 -8q15 -7 20 -16t11 -30q6 -24 10 -30l496 -1241q3 -6 10 -30 q7 -21 10 -26q2 -2 7 -7.5t7 -8.5q9 -10 23 -13q15 -3 39 -3h121q12 0 20 1t17 1q26 0 26 -37v-68q0 -36 -5 -44q-4 -7 -34 -7h-722q-25 0 -31 8t-6 45v53q0 28 8 39t29 11q11 0 22 -1t27 -1h106q31 0 31 22q0 15 -15 45q-16 32 -16 33l-47 125q-15 39 -27 45q-15 6 -49 6 h-487q-71 0 -88 -10q-18 -11 -41 -58l-55 -124q-25 -55 -25 -64q0 -20 35 -20h131q20 0 25 -8q6 -10 6 -35v-66q0 -28 -8 -38q-8 -9 -27 -9q-9 0 -18 1t-21 1h-510q-19 0 -25 8q-6 7 -6 37zM575 1751q0 38 28 66q26 26 63 26q7 0 22 -4l377 -104q15 -3 28 -6q5 -1 15 -3.5 l14 -3.5q11 -2 20 -12q9 -11 9 -24q0 -39 -37 -39q-1 0 -25 2t-28 2l-393 8q-31 1 -63 27q-30 24 -30 65zM659 608q0 -24 95 -24h342q61 0 61 24q0 7 -5 20q-1 4 -5.5 13l-7.5 15q-2 5 -6.5 15.5t-6.5 14.5l-161 436q-27 72 -37 72t-45 -84l-191 -424q-33 -74 -33 -78z" />
<glyph unicode="&#xc1;" horiz-adv-x="1945" d="M51 45v74q0 22 8 28q9 7 41 7h125q24 0 40 8t21 13t14 29q2 6 5 13l4.5 10.5t1.5 5.5l576 1274q1 5 6 15q1 3 3 8q1 3 2 4l1 2q1 1 2 3l2 4q3 5 6 8l3 1l4 4q3 4 11 6q5 2 12 3q10 2 16 2h22h61q23 0 39 -8q15 -7 20 -16t11 -30q6 -24 10 -30l496 -1241q3 -6 10 -30 q7 -21 10 -26q2 -2 7 -7.5t7 -8.5q9 -10 23 -13q15 -3 39 -3h121q12 0 20 1t17 1q26 0 26 -37v-68q0 -36 -5 -44q-4 -7 -34 -7h-722q-25 0 -31 8t-6 45v53q0 28 8 39t29 11q11 0 22 -1t27 -1h106q31 0 31 22q0 15 -15 45q-16 32 -16 33l-47 125q-15 39 -27 45q-15 6 -49 6 h-487q-71 0 -88 -10q-18 -11 -41 -58l-55 -124q-25 -55 -25 -64q0 -20 35 -20h131q20 0 25 -8q6 -10 6 -35v-66q0 -28 -8 -38q-8 -9 -27 -9q-9 0 -18 1t-21 1h-510q-19 0 -25 8q-6 7 -6 37zM659 608q0 -24 95 -24h342q61 0 61 24q0 7 -5 20q-1 4 -5.5 13l-7.5 15 q-2 5 -6.5 15.5t-6.5 14.5l-161 436q-27 72 -37 72t-45 -84l-191 -424q-33 -74 -33 -78zM733 1731l465 129q15 4 23 4q36 0 63 -27t27 -65q0 -42 -30 -66q-32 -26 -62 -27l-482 -10z" />
<glyph unicode="&#xc2;" horiz-adv-x="1945" d="M51 45v74q0 22 8 28q9 7 41 7h125q24 0 40 8t21 13t14 29q2 6 5 13l4.5 10.5t1.5 5.5l576 1274q1 5 6 15q1 3 3 8q1 3 2 4l1 2q1 1 2 3l2 4q3 5 6 8l3 1l4 4q3 4 11 6q5 2 12 3q10 2 16 2h22h61q23 0 39 -8q15 -7 20 -16t11 -30q6 -24 10 -30l496 -1241q3 -6 10 -30 q7 -21 10 -26q2 -2 7 -7.5t7 -8.5q9 -10 23 -13q15 -3 39 -3h121q12 0 20 1t17 1q26 0 26 -37v-68q0 -36 -5 -44q-4 -7 -34 -7h-722q-25 0 -31 8t-6 45v53q0 28 8 39t29 11q11 0 22 -1t27 -1h106q31 0 31 22q0 15 -15 45q-16 32 -16 33l-47 125q-15 39 -27 45q-15 6 -49 6 h-487q-71 0 -88 -10q-18 -11 -41 -58l-55 -124q-25 -55 -25 -64q0 -20 35 -20h131q20 0 25 -8q6 -10 6 -35v-66q0 -28 -8 -38q-8 -9 -27 -9q-9 0 -18 1t-21 1h-510q-19 0 -25 8q-6 7 -6 37zM498 1749q0 6 6 12q10 10 18 17q3 2 10.5 8.5t10.5 9.5l264 264q2 2 9 10.5 t13 14.5q17 18 24 24q9 7 27 14t44 7h43q42 0 67 -25l289 -288q9 -9 27 -24q16 -14 27 -26q9 -11 9 -18q0 -13 -26 -26t-47 -13q-22 0 -82 45l-197 146q-67 49 -92 49q-26 0 -86 -45l-135 -101q-14 -9 -36 -28q-25 -22 -38 -31q-15 -11 -36 -21q-20 -10 -42 -10 q-18 0 -45 12q-26 12 -26 23zM659 608q0 -24 95 -24h342q61 0 61 24q0 7 -5 20q-1 4 -5.5 13l-7.5 15q-2 5 -6.5 15.5t-6.5 14.5l-161 436q-27 72 -37 72t-45 -84l-191 -424q-33 -74 -33 -78z" />
<glyph unicode="&#xc3;" horiz-adv-x="1945" d="M51 45v74q0 22 8 28q9 7 41 7h125q24 0 40 8t21 13t14 29q2 6 5 13l4.5 10.5t1.5 5.5l576 1274q1 5 6 15q1 3 3 8q1 3 2 4l1 2q1 1 2 3l2 4q3 5 6 8l3 1l4 4q3 4 11 6q5 2 12 3q10 2 16 2h22h61q23 0 39 -8q15 -7 20 -16t11 -30q6 -24 10 -30l496 -1241q3 -6 10 -30 q7 -21 10 -26q2 -2 7 -7.5t7 -8.5q9 -10 23 -13q15 -3 39 -3h121q12 0 20 1t17 1q26 0 26 -37v-68q0 -36 -5 -44q-4 -7 -34 -7h-722q-25 0 -31 8t-6 45v53q0 28 8 39t29 11q11 0 22 -1t27 -1h106q31 0 31 22q0 15 -15 45q-16 32 -16 33l-47 125q-15 39 -27 45q-15 6 -49 6 h-487q-71 0 -88 -10q-18 -11 -41 -58l-55 -124q-25 -55 -25 -64q0 -20 35 -20h131q20 0 25 -8q6 -10 6 -35v-66q0 -28 -8 -38q-8 -9 -27 -9q-9 0 -18 1t-21 1h-510q-19 0 -25 8q-6 7 -6 37zM420 1765q0 7 18 80q30 113 114 176q83 62 196 62q82 0 140 -34q59 -35 84 -73 t65 -72t91 -34q80 0 121 33t51 102q4 17 4 22q2 15 2 16t1.5 4l2.5 5q3 5 9 7q2 1 7 1.5t8 0.5q6 1 26 1h53q32 0 40 -4q9 -4 9 -22q0 -5 -1 -10t-1 -13q-15 -149 -103 -231t-220 -82q-78 0 -132 21q-53 20 -83 54q-33 37 -52 63q-24 33 -55 53q-35 22 -80 22 q-128 0 -149 -105q-2 -10 -2 -38q0 -26 -9 -39q-8 -11 -34 -11h-70q-51 0 -51 45zM659 608q0 -24 95 -24h342q61 0 61 24q0 7 -5 20q-1 4 -5.5 13l-7.5 15q-2 5 -6.5 15.5t-6.5 14.5l-161 436q-27 72 -37 72t-45 -84l-191 -424q-33 -74 -33 -78z" />
<glyph unicode="&#xc4;" horiz-adv-x="1945" d="M51 45v74q0 22 8 28q9 7 41 7h125q24 0 40 8t21 13t14 29q2 6 5 13l4.5 10.5t1.5 5.5l576 1274q1 5 6 15q1 3 3 8q1 3 2 4l1 2q1 1 2 3l2 4q3 5 6 8l3 1l4 4q3 4 11 6q5 2 12 3q10 2 16 2h22h61q23 0 39 -8q15 -7 20 -16t11 -30q6 -24 10 -30l496 -1241q3 -6 10 -30 q7 -21 10 -26q2 -2 7 -7.5t7 -8.5q9 -10 23 -13q15 -3 39 -3h121q12 0 20 1t17 1q26 0 26 -37v-68q0 -36 -5 -44q-4 -7 -34 -7h-722q-25 0 -31 8t-6 45v53q0 28 8 39t29 11q11 0 22 -1t27 -1h106q31 0 31 22q0 15 -15 45q-16 32 -16 33l-47 125q-15 39 -27 45q-15 6 -49 6 h-487q-71 0 -88 -10q-18 -11 -41 -58l-55 -124q-25 -55 -25 -64q0 -20 35 -20h131q20 0 25 -8q6 -10 6 -35v-66q0 -28 -8 -38q-8 -9 -27 -9q-9 0 -18 1t-21 1h-510q-19 0 -25 8q-6 7 -6 37zM614 1833q0 67 49 116q48 48 115 48q68 0 116 -48t48 -116t-48 -116t-116 -48 q-67 0 -115 48q-49 49 -49 116zM659 608q0 -24 95 -24h342q61 0 61 24q0 7 -5 20q-1 4 -5.5 13l-7.5 15q-2 5 -6.5 15.5t-6.5 14.5l-161 436q-27 72 -37 72t-45 -84l-191 -424q-33 -74 -33 -78zM1024 1833q0 68 48 116t116 48t116 -48t48 -116t-48 -116t-116 -48t-116 48 t-48 116z" />
<glyph unicode="&#xc5;" horiz-adv-x="1945" d="M51 45v74q0 22 8 28q9 7 41 7h125q24 0 40 8t21 13t14 29q2 6 5 13l4.5 10.5t1.5 5.5l576 1274q11 32 16 37q-87 15 -147 82t-60 160q0 102 72 174t174 72t174 -72t72 -174q0 -72 -37 -130q-38 -60 -98 -89q14 -1 30 -11q12 -7 17 -16q4 -7 9 -29q4 -20 9 -28l496 -1241 q3 -6 10 -30q7 -21 10 -26q2 -2 7 -7.5t7 -8.5q9 -10 23 -13q15 -3 39 -3h121q12 0 20 1t17 1q26 0 26 -37v-68q0 -36 -5 -44q-4 -7 -34 -7h-722q-25 0 -31 8t-6 45v53q0 28 8 39t29 11q11 0 22 -1t27 -1h106q31 0 31 22q0 15 -15 45q-16 32 -16 33l-47 125q-15 39 -27 45 q-15 6 -49 6h-487q-71 0 -88 -10q-18 -11 -41 -58l-55 -124q-25 -55 -25 -64q0 -20 35 -20h131q20 0 25 -8q6 -10 6 -35v-66q0 -28 -8 -38q-8 -9 -27 -9q-9 0 -18 1t-21 1h-510q-19 0 -25 8q-6 7 -6 37zM659 608q0 -24 95 -24h342q61 0 61 24q0 7 -5 20q-1 4 -5.5 13 l-7.5 15q-2 5 -6.5 15.5t-6.5 14.5l-161 436q-27 72 -37 72t-45 -84l-191 -424q-33 -74 -33 -78zM809 1786q0 -57 38 -95t95 -38t95 38t38 95t-38 95t-95 38t-95 -38t-38 -95z" />
<glyph unicode="&#xc6;" horiz-adv-x="2451" d="M0 0v154h260l854 1228h-61q-23 0 -32 7q-7 6 -7 22v84q0 29 7 35t40 6h1249q13 0 21 1t16 1q29 0 29 -37v-360q0 -16 1 -27t1 -22q0 -37 -43 -37h-62q-27 0 -35 8t-8 29v36q-11 140 -79 197q-69 57 -226 57h-307q-19 0 -32 1t-25 1q-25 0 -35 -11t-10 -48v-412 q0 -43 7 -50t50 -7h76q197 0 221 186q1 7 3 20q1 8 1 14q0 4 4 8q6 6 11 7t22 1h59q23 0 26 -1q5 -2 8 -8t3 -24v-535q0 -24 -7 -30q-9 -7 -40 -7h-37q-36 0 -43 7q-6 6 -10 43q-12 89 -67 143q-55 53 -154 53h-86q-32 0 -40 -5q-7 -4 -7 -30v-465q0 -59 10 -69t71 -10h308 q199 0 271 69q73 69 77 258v11q1 26 14 28q8 2 25 2h63q29 0 35 -6t6 -27v-417q0 -13 1 -22t1 -17q0 -18 -8 -26q-7 -7 -35 -7h-1257q-16 0 -26 -1t-21 -1q-37 0 -37 45v63q0 32 6 40t35 8h121q41 0 53 9t12 36q0 11 -1 21t-1 26v205h-584l-202 -297h161v-154h-614zM762 604 h477v694z" />
<glyph unicode="&#xc7;" horiz-adv-x="1628" d="M102 768q0 346 226 567t594 221q227 0 372 -120q4 -3 22 -21q5 -4 10.5 -10t6.5 -8q6 -6 13 -6q9 0 24 32l33 76q0 1 2 5.5t3 7.5l4 12l2 3q1 3 3 5q4 6 7 7q1 1 4.5 2t6.5 2q7 3 14 3h19q16 0 27 1t23 1q20 0 29 -10t9 -43v-448q0 -21 -7 -27t-36 -6h-61q-32 0 -47 12 t-22 46q-8 35 -13 46q-56 125 -170 202q-115 77 -268 77q-219 0 -366 -182q-146 -180 -146 -447q0 -272 131 -450q131 -177 360 -177q212 0 338 106q125 105 162 277q0 2 1 7l2 10t1 10q1 15 3 23q2 9 6 16q5 8 17 11t29 3h66q39 0 39 -29q0 -13 -4 -34q-33 -242 -203 -397 q-168 -153 -440 -164l-54 -68q-61 -77 -61 -88q0 -16 72 -45q21 -7 28 -10q138 -53 138 -142q0 -83 -96 -145q-95 -62 -296 -62h-36q-25 0 -33 10t-8 40q0 49 7 62t32 13q11 0 22 -1t29 -1h41q172 0 172 64q0 94 -283 102q-55 1 -55 21q0 8 10 21q11 13 28 31q18 18 25 28 l142 180q-307 44 -478 254q-172 211 -172 524z" />
<glyph unicode="&#xc8;" horiz-adv-x="1505" d="M72 43v63q0 32 6 40t35 8h120q42 0 54 9t12 36q0 11 -1 21t-1 26v1087q0 34 -7 41q-8 8 -30 8h-149q-23 0 -32 7q-7 6 -7 22v84q0 29 7 35q8 6 40 6h1249q13 0 21 1t16 1q29 0 29 -37v-360q0 -16 1 -27t1 -22q0 -37 -43 -37h-62q-27 0 -35 8t-8 29v36q-11 140 -79 197 q-69 57 -226 57h-307q-19 0 -32 1t-25 1q-25 0 -35 -11q-11 -13 -11 -48v-412q0 -42 8 -50q7 -7 50 -7h76q197 0 221 186q1 7 3 20q1 8 1 14q0 4 4 8q6 6 11 7t22 1h59q23 0 26 -1q5 -2 8 -8t3 -24v-535q0 -24 -7 -30q-9 -7 -40 -7h-37q-36 0 -43 7q-6 6 -10 43 q-12 89 -67 143q-55 53 -154 53h-86q-32 0 -40 -5t-8 -30v-465q0 -58 11 -69q10 -10 71 -10h308q199 0 271 69q73 69 77 258v11q1 26 14 28l25 2h63q29 0 35 -6t6 -27v-417q0 -13 1 -22t1 -17q0 -18 -8 -26q-7 -7 -35 -7h-1257q-16 0 -26 -1t-21 -1q-37 0 -37 45zM362 1751 q0 38 28 66q26 26 63 26q7 0 22 -4l377 -104q15 -3 28 -6q5 -1 15 -3.5l14 -3.5q11 -2 20 -12q9 -11 9 -24q0 -39 -37 -39q-1 0 -25 2t-28 2l-393 8q-31 1 -63 27q-30 24 -30 65z" />
<glyph unicode="&#xc9;" horiz-adv-x="1505" d="M72 43v63q0 32 6 40t35 8h120q42 0 54 9t12 36q0 11 -1 21t-1 26v1087q0 34 -7 41q-8 8 -30 8h-149q-23 0 -32 7q-7 6 -7 22v84q0 29 7 35q8 6 40 6h1249q13 0 21 1t16 1q29 0 29 -37v-360q0 -16 1 -27t1 -22q0 -37 -43 -37h-62q-27 0 -35 8t-8 29v36q-11 140 -79 197 q-69 57 -226 57h-307q-19 0 -32 1t-26 1q-24 0 -34 -11q-11 -13 -11 -48v-412q0 -42 8 -50q7 -7 50 -7h76q197 0 221 186q1 7 3 20q1 8 1 14q0 4 4 8q6 6 11 7t22 1h59q23 0 26 -1q5 -2 8 -8t3 -24v-535q0 -24 -7 -30q-9 -7 -40 -7h-37q-36 0 -43 7q-6 6 -10 43 q-12 89 -67 143q-55 53 -154 53h-86q-32 0 -40 -5t-8 -30v-465q0 -58 11 -69q10 -10 71 -10h308q199 0 271 69q73 69 77 258v11q1 26 14 28l25 2h63q29 0 35 -6t6 -27v-417q0 -13 1 -22t1 -17q0 -18 -8 -26q-7 -7 -35 -7h-1257q-16 0 -26 -1t-21 -1q-37 0 -37 45zM524 1731 l465 129q15 4 23 4q36 0 63 -27t27 -65q0 -42 -30 -66q-32 -26 -62 -27l-482 -10z" />
<glyph unicode="&#xca;" horiz-adv-x="1505" d="M72 43v63q0 32 6 40t35 8h120q42 0 54 9t12 36q0 11 -1 21t-1 26v1087q0 34 -7 41q-8 8 -30 8h-149q-23 0 -32 7q-7 6 -7 22v84q0 29 7 35q8 6 40 6h1249q13 0 21 1t16 1q29 0 29 -37v-360q0 -16 1 -27t1 -22q0 -37 -43 -37h-62q-27 0 -35 8t-8 29v36q-11 140 -79 197 q-69 57 -226 57h-307q-19 0 -32 1t-25 1q-25 0 -35 -11q-11 -13 -11 -48v-412q0 -42 8 -50q7 -7 50 -7h76q197 0 221 186q1 7 3 20q1 8 1 14q0 4 4 8q6 6 11 7t22 1h59q23 0 26 -1q5 -2 8 -8t3 -24v-535q0 -24 -7 -30q-9 -7 -40 -7h-37q-36 0 -43 7q-6 6 -10 43 q-12 89 -67 143q-55 53 -154 53h-86q-32 0 -40 -5t-8 -30v-465q0 -58 11 -69q10 -10 71 -10h308q199 0 271 69q73 69 77 258v11q1 26 14 28l25 2h63q29 0 35 -6t6 -27v-417q0 -13 1 -22t1 -17q0 -18 -8 -26q-7 -7 -35 -7h-1257q-16 0 -26 -1t-21 -1q-37 0 -37 45zM287 1749 q0 6 6 12q10 10 18 17q3 2 10.5 8.5t10.5 9.5l264 264q2 2 9 10.5t13 14.5q16 18 24 24q9 7 27 14t44 7h43q42 0 67 -25l289 -288q9 -9 27 -24q16 -14 27 -26q10 -12 10 -18q0 -13 -27 -26q-26 -13 -47 -13q-22 0 -82 45l-197 146q-67 49 -92 49q-26 0 -86 -45l-135 -101 q-14 -9 -36 -28q-25 -22 -38 -31q-15 -11 -36 -21q-20 -10 -42 -10q-18 0 -45 12q-26 12 -26 23z" />
<glyph unicode="&#xcb;" horiz-adv-x="1505" d="M72 43v63q0 32 6 40t35 8h120q42 0 54 9t12 36q0 11 -1 21t-1 26v1087q0 34 -7 41q-8 8 -30 8h-149q-23 0 -32 7q-7 6 -7 22v84q0 29 7 35q8 6 40 6h1249q13 0 21 1t16 1q29 0 29 -37v-360q0 -16 1 -27t1 -22q0 -37 -43 -37h-62q-27 0 -35 8t-8 29v36q-11 140 -79 197 q-69 57 -226 57h-307q-19 0 -32 1t-26 1q-24 0 -34 -11q-11 -13 -11 -48v-412q0 -42 8 -50q7 -7 50 -7h76q197 0 221 186q1 7 3 20q1 8 1 14q0 4 4 8q6 6 11 7t22 1h59q23 0 26 -1q5 -2 8 -8t3 -24v-535q0 -24 -7 -30q-9 -7 -40 -7h-37q-36 0 -43 7q-6 6 -10 43 q-12 89 -67 143q-55 53 -154 53h-86q-32 0 -40 -5t-8 -30v-465q0 -58 11 -69q10 -10 71 -10h308q199 0 271 69q73 69 77 258v11q1 26 14 28l25 2h63q29 0 35 -6t6 -27v-417q0 -13 1 -22t1 -17q0 -18 -8 -26q-7 -7 -35 -7h-1257q-16 0 -26 -1t-21 -1q-37 0 -37 45zM406 1833 q0 68 48 116t115 48q68 0 116 -48t48 -116t-48 -116t-116 -48q-67 0 -115 48t-48 116zM815 1833q0 68 48 116t116 48t116 -48t48 -116t-48 -116t-116 -48t-116 48t-48 116z" />
<glyph unicode="&#xcc;" horiz-adv-x="890" d="M35 1751q0 39 27 66q26 26 63 26q7 0 22 -4l377 -104q15 -3 28 -6q5 -1 11.5 -3t11 -3t7.5 -1q10 -1 19 -12t9 -24q0 -39 -37 -39q-1 0 -25 2t-28 2l-393 8q-30 1 -62 27q-30 24 -30 65zM70 1419q0 11 1 21t1 24q0 48 8 61q7 11 43 11h651q30 0 37 -6q8 -6 8 -33v-59 q0 -37 -10 -46q-12 -10 -55 -10h-129q-36 0 -44 -8t-8 -49v-1171h211q25 0 30 -7t5 -34v-74q0 -24 -5 -32q-4 -7 -23 -7h-691q-19 0 -23 7q-5 8 -5 32v84q0 21 6 26q7 5 37 5h151q22 0 26 6q5 7 5 35v1138q0 33 -6 41t-31 8h-141q-26 0 -39 9q-10 7 -10 28z" />
<glyph unicode="&#xcd;" horiz-adv-x="890" d="M70 1419q0 11 1 21t1 24q0 48 8 61q7 11 43 11h651q30 0 37 -6q8 -6 8 -33v-59q0 -37 -10 -46q-12 -10 -55 -10h-129q-36 0 -44 -8t-8 -49v-1171h211q25 0 30 -7t5 -34v-74q0 -24 -5 -32q-4 -7 -23 -7h-691q-19 0 -23 7q-5 8 -5 32v84q0 23 6 27q5 4 37 4h151q22 0 26 6 q5 7 5 35v1138q0 33 -6 41t-31 8h-141q-26 0 -39 9q-10 7 -10 28zM197 1731l465 129q15 4 22 4q37 0 64 -27q26 -26 26 -65q0 -42 -30 -66q-32 -26 -62 -27l-481 -10z" />
<glyph unicode="&#xce;" horiz-adv-x="890" d="M-41 1749q0 6 6 12q3 3 19 17t20 18l264 264q1 1 23 25q19 21 23 24q9 7 27 14t44 7h43q43 0 68 -25l288 -288q9 -9 27 -24q20 -17 28 -26q9 -11 9 -18q0 -13 -27 -26q-26 -13 -47 -13q-22 0 -82 45l-196 146q-67 49 -93 49t-86 -45l-135 -101q-14 -9 -36 -28 q-29 -25 -37 -31q-15 -11 -36 -21q-20 -10 -42 -10q-18 0 -45 12t-27 23zM70 1419q0 11 1 21t1 24q0 48 8 61q7 11 43 11h651q30 0 37 -6q8 -6 8 -33v-59q0 -37 -10 -46q-12 -10 -55 -10h-129q-36 0 -44 -8t-8 -49v-1171h211q25 0 30 -7t5 -34v-74q0 -24 -5 -32 q-4 -7 -23 -7h-691q-19 0 -23 7q-5 8 -5 32v84q0 23 6 27q5 4 37 4h151q22 0 26 6q5 7 5 35v1138q0 33 -6 41t-31 8h-141q-26 0 -39 9q-10 7 -10 28z" />
<glyph unicode="&#xcf;" horiz-adv-x="890" d="M70 1419q0 11 1 21t1 24q0 48 8 61q7 11 43 11h651q30 0 37 -6q8 -6 8 -33v-59q0 -37 -10 -46q-12 -10 -55 -10h-129q-36 0 -44 -8t-8 -49v-1171h211q25 0 30 -7t5 -34v-74q0 -24 -5 -32q-4 -7 -23 -7h-691q-19 0 -23 7q-5 8 -5 32v84q0 23 6 27q5 4 37 4h151q22 0 26 6 q5 7 5 35v1138q0 33 -6 41t-31 8h-141q-26 0 -39 9q-10 7 -10 28zM78 1833q0 68 48 116t116 48q67 0 115 -48q49 -49 49 -116t-49 -116q-48 -48 -115 -48q-68 0 -116 48t-48 116zM487 1833q0 67 49 116q48 48 115 48q68 0 116 -48t48 -116t-48 -116t-116 -48q-67 0 -115 48 q-49 49 -49 116z" />
<glyph unicode="&#xd0;" horiz-adv-x="1751" d="M72 37v57q0 42 7 50q8 10 38 10h137q47 0 47 61q0 5 -2 43t-2 41v418h-139q-30 0 -38 6q-7 6 -7 31v73q0 29 12 36q11 7 43 7h129v473q0 25 -6 32t-23 7h-155q-29 0 -35 8t-6 40v57q0 32 7 40q7 9 27 9h764q365 0 572 -215q207 -214 207 -553q0 -334 -213 -551t-566 -217 h-694q-3 0 -31 -2q-4 0 -9.5 -0.5t-8 -1t-5.5 -0.5h-5q-45 0 -45 41zM573 211q0 -39 12 -48t62 -9h223q254 0 358 156q103 155 103 458q0 614 -461 614h-270q-16 0 -21 -6q-6 -8 -6 -30v-476h205q25 0 28 -5t3 -34v-79q0 -26 -5 -31q-4 -4 -44 -4h-187v-506z" />
<glyph unicode="&#xd1;" horiz-adv-x="1812" d="M72 55v62q0 21 6 29t20 8h119q55 0 62 9q8 10 8 60v1120q0 27 -7 33q-8 6 -42 6h-127q-23 0 -31 11t-8 43v57q0 29 6 36t24 7h414q52 0 70 -6q19 -6 37 -33l626 -846q66 -90 78 -114q49 -88 55 -88q11 0 11 137v710q0 14 1 26t1 24q0 36 -31 36h-158q-22 0 -31 9 q-8 8 -8 45v61q0 43 43 43q2 0 28 -2t32 -2h467q30 0 37 -10q8 -11 8 -53q0 -16 1 -28t1 -24q0 -23 -9 -30q-11 -9 -38 -9h-119q-32 0 -43 -9q-10 -9 -10 -32q0 -11 1 -23t1 -30v-1237q0 -71 -39 -71h-62q-25 0 -46 8q-18 7 -26 15q-4 4 -22 29l-18 27l-764 1026 q-37 49 -84 132q-32 59 -41 59q-8 0 -8 -31q0 -3 0.5 -11t1 -22t0.5 -26q2 -62 2 -76v-854q0 -18 -1 -30t-1 -23q0 -29 13 -39t56 -10h138q18 0 24 -8t6 -37v-58q0 -32 -8 -43q-7 -10 -31 -10q-11 0 -21 1t-26 1h-483q-41 0 -48 7t-7 48zM383 1765q0 7 18 80q30 113 114 176 q83 62 196 62q82 0 140 -34q59 -35 84 -73t65 -72t92 -34q80 0 120 33q42 34 52 102q1 6 3 22q2 15 2 16t1.5 4l2.5 5q3 5 9 7q2 1 7 1.5t8 0.5q6 1 26 1h53q32 0 40 -4q9 -4 9 -22q0 -5 -1 -10t-1 -13q-15 -149 -103 -231t-220 -82q-78 0 -132 21q-53 20 -83 54 q-29 31 -51 63q-23 32 -56 53q-35 22 -80 22q-128 0 -149 -105q-2 -10 -2 -38t-8 -39t-35 -11h-70q-51 0 -51 45z" />
<glyph unicode="&#xd2;" horiz-adv-x="1761" d="M102 768q0 340 208 564t571 224q362 0 570 -224t208 -564q0 -336 -214 -562t-564 -226q-363 0 -571 224t-208 564zM420 768q0 -294 117 -469q117 -176 344 -176q239 0 350 173q110 171 110 472q0 295 -116 469q-117 176 -344 176t-344 -176q-117 -175 -117 -469z M471 1751q0 39 27 66q26 26 63 26q8 0 23 -4l377 -104q7 -1 27 -6q5 -1 11.5 -3t11 -3t7.5 -1q10 -1 19 -12q10 -12 10 -24q0 -39 -37 -39q-2 0 -26 2t-28 2l-393 8q-30 1 -62 27q-30 24 -30 65z" />
<glyph unicode="&#xd3;" horiz-adv-x="1761" d="M102 768q0 340 208 564t571 224q362 0 570 -224t208 -564q0 -336 -214 -562t-564 -226q-363 0 -571 224t-208 564zM420 768q0 -294 117 -469q117 -176 344 -176q239 0 350 173q110 171 110 472q0 295 -116 469q-117 176 -344 176t-344 -176q-117 -175 -117 -469z M631 1731l465 129q15 4 22 4q37 0 64 -27q26 -26 26 -65q0 -43 -29 -66q-32 -26 -63 -27l-481 -10z" />
<glyph unicode="&#xd4;" horiz-adv-x="1761" d="M102 768q0 340 208 564t571 224q362 0 570 -224t208 -564q0 -336 -214 -562t-564 -226q-363 0 -571 224t-208 564zM395 1749q0 6 6 12q3 3 19 17t20 18l265 264q2 2 9 10.5t13 14.5q17 18 24 24q10 8 26 14q18 7 44 7h43q43 0 68 -25l289 -288q14 -14 26 -24 q20 -17 28 -26q9 -11 9 -18q0 -13 -27 -26q-26 -13 -47 -13q-22 0 -82 45l-196 146q-67 49 -92 49q-26 0 -86 -45l-135 -101q-14 -9 -36 -28q-25 -22 -38 -31q-15 -11 -36 -21q-20 -10 -42 -10q-18 0 -45 12t-27 23zM420 768q0 -294 117 -469q117 -176 344 -176 q239 0 350 173q110 171 110 472q0 295 -116 469q-117 176 -344 176t-344 -176q-117 -175 -117 -469z" />
<glyph unicode="&#xd5;" horiz-adv-x="1761" d="M102 768q0 340 208 564t571 224q362 0 570 -224t208 -564q0 -336 -214 -562t-564 -226q-363 0 -571 224t-208 564zM317 1765q0 2 19 80q30 113 114 176q83 62 195 62q82 0 140 -34q59 -35 84 -73q23 -36 66 -72q40 -34 91 -34q80 0 121 33t51 102q1 6 3 22q2 15 2 16 t1.5 4l2.5 5q3 5 10 7q2 1 7 1.5t8 0.5q6 1 25 1h54q32 0 40 -4q9 -4 9 -22q0 -5 -1 -10t-1 -13q-15 -148 -104 -231q-88 -82 -220 -82q-78 0 -132 21q-53 20 -83 54q-29 31 -51 63q-24 33 -55 53q-35 22 -80 22q-129 0 -150 -105q-2 -10 -2 -38t-8 -39t-35 -11h-69 q-52 0 -52 45zM420 768q0 -294 117 -469q117 -176 344 -176q239 0 350 173q110 171 110 472q0 295 -116 469q-117 176 -344 176t-344 -176q-117 -175 -117 -469z" />
<glyph unicode="&#xd6;" horiz-adv-x="1761" d="M102 768q0 340 208 564t571 224q362 0 570 -224t208 -564q0 -336 -214 -562t-564 -226q-363 0 -571 224t-208 564zM420 768q0 -294 117 -469q117 -176 344 -176q239 0 350 173q110 171 110 472q0 295 -116 469q-117 176 -344 176t-344 -176q-117 -175 -117 -469z M512 1833q0 68 48 116t116 48t116 -48t48 -116t-48 -116t-116 -48t-116 48t-48 116zM922 1833q0 68 48 116t115 48q68 0 116 -48t48 -116t-48 -116t-116 -48q-67 0 -115 48t-48 116z" />
<glyph unicode="&#xd7;" d="M206 394q-2 9 11 22l184 184l7 7q2 2 4 5l2 2q22 22 22 33q0 13 -28 41l-172 170q-4 4 -7 8q-20 20 -20 29q0 11 24 35l35 35q14 14 27 14q7 0 14 -5q8 -6 15 -16q5 -7 12 -14l151 -151q2 -2 12 -14t12 -14q7 -7 12 -10q8 -5 14 -5q14 0 32 18l176 176q10 10 13 15 q8 13 15 17q8 5 15 5q13 0 27 -14l45 -47q17 -17 17 -29q0 -6 -6 -14t-16 -14q-11 -7 -15 -11l-164 -166q-1 -1 -13 -11q-14 -12 -15 -13q-5 -7 -5 -13q0 -10 14 -24q8 -8 41 -41.5t58 -58.5t57.5 -58t40.5 -41q20 -20 20 -31t-24 -35l-31 -32q-17 -17 -28 -17q-8 0 -15 5 q-6 4 -14 16q-5 7 -12 14l-175 174q-23 23 -36 23q-9 0 -17 -6q-6 -5 -18 -20q-7 -9 -17 -19l-159 -160q-27 -27 -37 -27q-8 0 -35 27l-31 29q-17 17 -19 27z" />
<glyph unicode="&#xd8;" horiz-adv-x="1761" d="M102 768q0 340 208 564t571 224q106 0 204 -22l33 86q1 7 8 25q2 6 5.5 13t3.5 8q1 4 8 14q7 11 14 12q2 0 9.5 2t13.5 3q15 3 34 3h56q43 0 43 -29q0 -12 -8 -31q-7 -16 -20 -41q-8 -14 -15 -34l-31 -82q200 -91 310 -283q110 -191 110 -432q0 -336 -214 -562t-564 -226 q-117 0 -201 20l-33 -88q-5 -10 -12 -39q-7 -27 -14 -41q-6 -12 -25 -25q-18 -12 -45 -12h-80q-45 0 -45 25q0 12 15 41q18 34 20 39l59 153q-198 92 -308 284q-110 193 -110 431zM420 768q0 -364 170 -532l440 1153q-68 24 -149 24q-227 0 -344 -176q-117 -175 -117 -469z M735 145q66 -22 146 -22q239 0 350 173q110 171 110 472q0 367 -170 535z" />
<glyph unicode="&#xd9;" horiz-adv-x="1699" d="M20 1421v88q0 17 7 22t32 5h639q13 0 22 1t19 1q29 0 29 -31v-67q0 -42 -9 -49q-11 -9 -57 -9h-133q-35 0 -41 -8t-6 -47v-692q0 -249 79 -365t290 -116q190 0 295 105q104 104 104 355v711q0 41 -9 49q-10 8 -54 8h-135q-38 0 -49 7q-9 6 -9 34v80q0 35 27 35q7 0 14 -1 t17 -1h532q28 0 42 -8q13 -7 13 -37v-33q0 -13 1 -23t1 -20q0 -17 -8 -25t-37 -8h-137q-31 0 -38 -9q-7 -8 -7 -50v-709q0 -312 -159 -478q-159 -167 -435 -167q-181 0 -304 46q-124 46 -190 138q-68 94 -94 201t-26 260v740q0 16 -7 22t-32 6h-119q-12 0 -20 -1t-17 -1 q-31 0 -31 41zM461 1751q0 39 27 66q26 26 63 26q7 0 22 -4l377 -104q15 -3 28 -6q5 -1 11.5 -3t11 -3t7.5 -1q10 -1 19 -12t9 -24q0 -39 -37 -39q-1 0 -25 2t-28 2l-393 8q-31 1 -63 27q-29 23 -29 65z" />
<glyph unicode="&#xda;" horiz-adv-x="1699" d="M20 1421v88q0 17 7 22t32 5h639q13 0 22 1t19 1q29 0 29 -31v-67q0 -42 -9 -49q-11 -9 -57 -9h-133q-35 0 -41 -8t-6 -47v-692q0 -249 79 -365t290 -116q190 0 295 105q104 104 104 355v711q0 41 -9 49q-10 8 -54 8h-135q-38 0 -49 7q-9 6 -9 34v80q0 35 27 35q7 0 14 -1 t17 -1h532q28 0 42 -8q13 -7 13 -37v-33q0 -13 1 -23t1 -20q0 -17 -8 -25t-37 -8h-137q-31 0 -38 -9q-7 -8 -7 -50v-709q0 -312 -159 -478q-159 -167 -435 -167q-181 0 -304 46q-124 46 -190 138q-68 94 -94 201t-26 260v740q0 16 -7 22t-32 6h-119q-12 0 -20 -1t-17 -1 q-31 0 -31 41zM621 1731l464 129q15 4 23 4q35 0 62 -27q28 -28 28 -65q0 -42 -30 -66q-32 -26 -62 -27l-481 -10z" />
<glyph unicode="&#xdb;" horiz-adv-x="1699" d="M20 1421v88q0 17 7 22t32 5h639q13 0 22 1t19 1q29 0 29 -31v-67q0 -42 -9 -49q-11 -9 -57 -9h-133q-35 0 -41 -8t-6 -47v-692q0 -249 79 -365t290 -116q190 0 295 105q104 104 104 355v711q0 41 -9 49q-10 8 -54 8h-135q-38 0 -49 7q-9 6 -9 34v80q0 35 27 35q7 0 14 -1 t17 -1h532q28 0 42 -8q13 -7 13 -37v-33q0 -13 1 -23t1 -20q0 -17 -8 -25t-37 -8h-137q-31 0 -38 -9q-7 -8 -7 -50v-709q0 -312 -159 -478q-159 -167 -435 -167q-181 0 -304 46q-124 46 -190 138q-68 94 -94 201t-26 260v740q0 16 -7 22t-32 6h-119q-12 0 -20 -1t-17 -1 q-31 0 -31 41zM383 1749q0 6 6 12q3 3 19 17t20 18l264 264q1 1 23 25q19 21 23 24q9 7 27 14t44 7h43q43 0 68 -25l288 -288q9 -9 27 -24q20 -17 28 -26q9 -11 9 -18q0 -13 -27 -26q-26 -13 -47 -13q-22 0 -82 45l-196 146q-67 49 -93 49t-86 -45l-135 -101q-14 -9 -36 -28 q-25 -22 -38 -31q-17 -12 -35 -21q-20 -10 -42 -10q-18 0 -45 12t-27 23z" />
<glyph unicode="&#xdc;" horiz-adv-x="1699" d="M20 1421v88q0 17 7 22t32 5h639q13 0 22 1t19 1q29 0 29 -31v-67q0 -42 -9 -49q-11 -9 -57 -9h-133q-35 0 -41 -8t-6 -47v-692q0 -249 79 -365t290 -116q190 0 295 105q104 104 104 355v711q0 41 -9 49q-10 8 -54 8h-135q-38 0 -49 7q-9 6 -9 34v80q0 35 27 35q7 0 14 -1 t17 -1h532q28 0 42 -8q13 -7 13 -37v-33q0 -13 1 -23t1 -20q0 -17 -8 -25t-37 -8h-137q-31 0 -38 -9q-7 -8 -7 -50v-709q0 -312 -159 -478q-159 -167 -435 -167q-181 0 -304 46q-124 46 -190 138q-68 94 -94 201t-26 260v740q0 16 -7 22t-32 6h-119q-12 0 -20 -1t-17 -1 q-31 0 -31 41zM502 1833q0 68 48 116t116 48q67 0 115 -48t48 -116t-48 -116t-115 -48q-68 0 -116 48t-48 116zM911 1833q0 68 48 116t116 48t116 -48t48 -116t-48 -116t-116 -48t-116 48t-48 116z" />
<glyph unicode="&#xdd;" horiz-adv-x="1669" d="M-10 1438v57q0 26 5 34q4 7 23 7h668q26 0 34 -8q7 -7 7 -45v-66q0 -22 -8 -28q-9 -7 -41 -7h-57q-70 0 -70 -12q0 -6 27 -47l217 -334q43 -66 73 -129q24 -51 33 -51t43 55q44 70 88 131l207 299q7 12 21 26q12 12 22 26q8 11 8 18q0 18 -55 18h-119q-38 0 -45 7 q-6 6 -6 45v65q0 25 8 31q7 6 43 6h539q15 0 19 -6q5 -7 5 -27v-78q0 -33 -4 -37q-6 -6 -35 -6h-94q-15 0 -22 -1t-18 -1q-7 0 -14 -4l-10 -5q-4 -2 -8 -7l-8 -8q-2 -2 -8 -11q-7 -10 -8 -14l-410 -586q-28 -38 -37 -69q-10 -33 -10 -94v-379q0 -31 12 -40t58 -9h135 q26 0 34 -10q7 -8 7 -46v-45q0 -33 -9 -43t-32 -10h-643q-12 0 -20 -1t-17 -1q-26 0 -26 35v86q0 22 8 28q9 7 39 7h123q34 0 45 8q10 7 10 33v317q0 82 -11 116q-13 39 -42 85l-398 594q-38 54 -57 63q-24 12 -92 12q-6 0 -38 -2t-34 -2q-55 0 -55 60zM586 1731l465 129 q15 4 22 4q37 0 64 -27q26 -26 26 -65q0 -43 -29 -66q-32 -26 -63 -27l-481 -10z" />
<glyph unicode="&#xe0;" horiz-adv-x="1241" d="M51 262q0 151 145 246q143 94 427 94q63 0 74 10q12 10 12 70v59q0 115 -38 173q-37 57 -153 57q-78 0 -126 -21t-48 -45q0 -8 10 -17q4 -3 11 -10t11 -10q10 -9 21 -34t11 -58q0 -66 -42 -103q-43 -38 -112 -38q-71 0 -117 41q-45 40 -45 108q0 134 137 223t340 89 q190 0 309 -98q117 -96 117 -277v-504q0 -34 20 -62t54 -28q35 0 57 31q9 12 12 17q4 8 8 14q5 8 7 9q5 3 8 3q8 0 31 -13q41 -23 41 -41q0 -9 -21 -47q-78 -131 -237 -131q-137 0 -205 84q-16 22 -24 34q-3 4 -5.5 8t-4 7t-3 5t-2.5 3q-5 5 -8 5q-5 0 -9 -7q-3 -5 -21 -23 q-10 -10 -34 -32q-102 -84 -249 -84q-170 0 -265 75q-94 75 -94 218zM201 1280q0 40 26 66t64 26q7 0 22 -4l377 -104q2 0 11.5 -2.5t16.5 -4.5q20 -5 30 -6t19 -12t9 -25q0 -38 -37 -38q-1 0 -25 2t-28 2l-393 8q-32 1 -63 26q-29 23 -29 66zM332 293q0 -81 51 -125 q50 -43 119 -43q207 0 207 256v61q0 39 -9 52q-7 10 -34 10h-43q-158 0 -225 -67q-66 -66 -66 -144z" />
<glyph unicode="&#xe1;" horiz-adv-x="1241" d="M51 262q0 151 145 246q143 94 427 94q63 0 74 10q12 10 12 70v59q0 115 -38 173q-37 57 -153 57q-78 0 -126 -21t-48 -45q0 -8 10 -17q4 -3 11 -10t11 -10q10 -9 21 -34t11 -58q0 -66 -42 -103q-43 -38 -112 -38q-71 0 -117 41q-45 40 -45 108q0 134 137 223t340 89 q190 0 309 -98q117 -96 117 -277v-504q0 -34 20 -62t54 -28q35 0 57 31q9 12 12 17q4 8 8 14q5 8 7 9q5 3 8 3q8 0 31 -13q41 -23 41 -41q0 -9 -21 -47q-78 -131 -237 -131q-137 0 -205 84q-16 22 -24 34q-3 4 -5.5 8t-4 7t-3 5t-2.5 3q-5 5 -8 5q-5 0 -9 -7q-3 -5 -21 -23 q-10 -10 -34 -32q-102 -84 -249 -84q-170 0 -265 75q-94 75 -94 218zM332 293q0 -81 51 -125q50 -43 119 -43q207 0 207 256v61q0 39 -9 52q-7 10 -34 10h-43q-158 0 -225 -67q-66 -66 -66 -144zM360 1260l465 129q15 4 23 4q36 0 63 -27t27 -66q0 -41 -30 -65 q-32 -26 -62 -27l-481 -10z" />
<glyph unicode="&#xe2;" horiz-adv-x="1241" d="M51 262q0 151 145 246q143 94 427 94q63 0 74 10q12 10 12 70v59q0 115 -38 173q-37 57 -153 57q-78 0 -126 -21t-48 -45q0 -8 10 -17q4 -3 11 -10t11 -10q10 -9 21 -34t11 -58q0 -66 -42 -103q-43 -38 -112 -38q-71 0 -117 41q-45 40 -45 108q0 134 137 223t340 89 q190 0 309 -98q117 -96 117 -277v-504q0 -34 20 -62t54 -28q35 0 57 31q9 12 12 17q4 8 8 14q5 8 7 9q5 3 8 3q8 0 31 -13q41 -23 41 -41q0 -9 -21 -47q-78 -131 -237 -131q-137 0 -205 84q-16 22 -24 34q-3 4 -5.5 8t-4 7t-3 5t-2.5 3q-5 5 -8 5q-5 0 -9 -7q-3 -5 -21 -23 q-10 -10 -34 -32q-102 -84 -249 -84q-170 0 -265 75q-94 75 -94 218zM125 1278q0 6 6 12q3 3 19 17t20 18l264 264q1 1 23 25q19 21 23 24q9 7 27 14t44 7h43q43 0 68 -25l288 -288q9 -9 27 -24q20 -17 28 -26q9 -10 9 -18q0 -12 -27 -26q-26 -13 -47 -13q-22 0 -82 45 l-196 146q-67 49 -93 49t-86 -45l-135 -101q-14 -9 -36 -28q-25 -22 -38 -31q-18 -12 -35 -21q-20 -10 -42 -10q-18 0 -45 12t-27 23zM332 293q0 -81 51 -125q50 -43 119 -43q207 0 207 256v61q0 39 -9 52q-7 10 -34 10h-43q-158 0 -225 -67q-66 -66 -66 -144z" />
<glyph unicode="&#xe3;" horiz-adv-x="1241" d="M6 1294q0 2 19 80q30 114 113 176t196 62q82 0 140 -34q59 -35 84 -73q23 -36 66 -72q40 -34 91 -34q81 0 121 33t51 102q1 8 3 21l2 17q0 1 1.5 4l2.5 5q3 5 9 7q2 1 7.5 1.5t8.5 0.5q6 1 25 1h53q32 0 40 -4q10 -5 10 -22q0 -5 -1 -10t-1 -13q-15 -148 -104 -231 q-88 -82 -220 -82q-78 0 -132 21q-53 20 -83 54q-28 32 -51 63q-23 32 -56 53q-35 22 -79 22q-129 0 -150 -105q-2 -10 -2 -38t-8 -39t-35 -11h-70q-51 0 -51 45zM51 262q0 151 145 246q143 94 427 94q63 0 74 10q12 10 12 70v59q0 115 -38 173q-37 57 -153 57 q-78 0 -126 -21t-48 -45q0 -8 10 -17q4 -3 11 -10t11 -10q10 -9 21 -34t11 -58q0 -66 -42 -103q-43 -38 -112 -38q-71 0 -117 41q-45 40 -45 108q0 134 137 223t340 89q190 0 309 -98q117 -96 117 -277v-504q0 -34 20 -62t54 -28q35 0 57 31q9 12 12 17q4 8 8 14q5 8 7 9 q5 3 8 3q8 0 31 -13q41 -23 41 -41q0 -9 -21 -47q-78 -131 -237 -131q-137 0 -205 84q-16 22 -24 34q-3 4 -5.5 8t-4 7t-3 5t-2.5 3q-5 5 -8 5q-5 0 -9 -7q-3 -5 -21 -23q-10 -10 -34 -32q-102 -84 -249 -84q-170 0 -265 75q-94 75 -94 218zM332 293q0 -81 51 -125 q50 -43 119 -43q207 0 207 256v61q0 39 -9 52q-7 10 -34 10h-43q-158 0 -225 -67q-66 -66 -66 -144z" />
<glyph unicode="&#xe4;" horiz-adv-x="1241" d="M51 262q0 151 145 246q143 94 427 94q63 0 74 10q12 10 12 70v59q0 115 -38 173q-37 57 -153 57q-78 0 -126 -21t-48 -45q0 -8 10 -17q4 -3 11 -10t11 -10q10 -9 21 -34t11 -58q0 -66 -42 -103q-43 -38 -112 -38q-71 0 -117 41q-45 40 -45 108q0 134 137 223t340 89 q190 0 309 -98q117 -96 117 -277v-504q0 -34 20 -62t54 -28q35 0 57 31q9 12 12 17q4 8 8 14q5 8 7 9q5 3 8 3q8 0 31 -13q41 -23 41 -41q0 -9 -21 -47q-78 -131 -237 -131q-137 0 -205 84q-16 22 -24 34q-3 4 -5.5 8t-4 7t-3 5t-2.5 3q-5 5 -8 5q-5 0 -9 -7q-3 -5 -21 -23 q-10 -10 -34 -32q-102 -84 -249 -84q-170 0 -265 75q-94 75 -94 218zM242 1362q0 68 48 116t116 48q67 0 115 -48t48 -116t-48 -116t-115 -48q-68 0 -116 48t-48 116zM332 293q0 -81 51 -125q50 -43 119 -43q207 0 207 256v61q0 39 -9 52q-7 10 -34 10h-43q-158 0 -225 -67 q-66 -66 -66 -144zM651 1362q0 68 48 116t116 48t116 -48t48 -116t-48 -116t-116 -48t-116 48t-48 116z" />
<glyph unicode="&#xe5;" horiz-adv-x="1241" d="M51 262q0 151 145 246q143 94 427 94q63 0 74 10q12 10 12 70v59q0 115 -38 173q-37 57 -153 57q-78 0 -126 -21t-48 -45q0 -8 10 -17q4 -3 11 -10t11 -10q10 -9 21 -34t11 -58q0 -66 -42 -103q-43 -38 -112 -38q-71 0 -117 41q-45 40 -45 108q0 134 137 223t340 89 q190 0 309 -98q117 -96 117 -277v-504q0 -34 20 -62t54 -28q35 0 57 31q9 12 12 17q4 8 8 14q5 8 7 9q5 3 8 3q8 0 31 -13q41 -23 41 -41q0 -9 -21 -47q-78 -131 -237 -131q-137 0 -205 84q-16 22 -24 34q-3 4 -5.5 8t-4 7t-3 5t-2.5 3q-5 5 -8 5q-5 0 -9 -7q-3 -5 -21 -23 q-10 -10 -34 -32q-102 -84 -249 -84q-170 0 -265 75q-94 75 -94 218zM324 1454q0 103 71 174q72 72 174 72t174 -72t72 -174t-72 -174t-174 -72t-174 72q-71 71 -71 174zM332 293q0 -81 51 -125q50 -43 119 -43q207 0 207 256v61q0 39 -9 52q-7 10 -34 10h-43 q-158 0 -225 -67q-66 -66 -66 -144zM436 1454q0 -57 38 -95t95 -38q58 0 96 38q37 37 37 95t-37 95q-38 38 -96 38q-57 0 -95 -38t-38 -95z" />
<glyph unicode="&#xe6;" horiz-adv-x="1792" d="M51 262q0 151 145 246q143 94 427 94h86v139q0 115 -38 173q-37 57 -153 57q-78 0 -126 -21t-48 -45q0 -8 10 -17q4 -3 11 -10t11 -10q10 -9 21 -34t11 -58q0 -66 -42 -103q-43 -38 -112 -38q-71 0 -117 41q-45 40 -45 108q0 130 140 221t317 91q249 0 338 -162 q113 162 364 162q117 0 203 -36t132 -88t73 -134q26 -80 34 -152q7 -64 7 -162h-703q5 -199 61 -306t204 -107q111 0 176 59t104 184h146q-94 -385 -451 -385q-296 0 -442 226q-49 -106 -156 -166t-229 -60q-170 0 -265 75q-94 75 -94 218zM332 293q0 -81 51 -125 q50 -43 119 -43q207 0 207 256v123h-86q-158 0 -225 -67q-66 -66 -66 -144zM1001 653h412q-5 151 -42 237q-37 85 -142 85q-201 0 -228 -322z" />
<glyph unicode="&#xe7;" horiz-adv-x="1153" d="M82 512q0 240 145 412t385 172q216 0 335 -101q118 -100 118 -231q0 -84 -53 -137q-54 -54 -119 -54q-74 0 -116 39t-42 111q0 53 44 95t44 59q0 30 -50 57t-120 27q-139 0 -207 -111q-67 -110 -67 -297q0 -453 266 -453q190 0 273 203l5 15q3 9 5 13q1 2 5 8t7 7 q1 0 4.5 1.5t5.5 2.5q4 1 16 3q6 1 21 1h62q28 0 28 -22q0 -8 -24 -70q-114 -293 -432 -293q-32 0 -72 4l-47 -61q-62 -79 -62 -88q0 -16 72 -45q25 -9 29 -10q137 -53 137 -142q0 -83 -95 -145t-296 -62h-37q-25 0 -33 10t-8 40q0 49 7 62t32 13q11 0 23 -1t28 -1h41 q172 0 172 64q0 94 -283 102q-55 1 -55 21q0 8 10 21t28 31q21 21 26 28l147 188h45q-164 52 -257 195q-91 140 -91 319z" />
<glyph unicode="&#xe8;" horiz-adv-x="1165" d="M82 512q0 262 129 423t393 161q109 0 191 -30q83 -30 132 -76q52 -49 82 -114q31 -68 45 -136q12 -60 17 -148v-23q0 -29 -9 -37q-10 -8 -40 -8h-610q-24 0 -31 -7q-8 -8 -8 -32v-16q7 -172 66 -265q58 -93 196 -93q180 0 256 178q0 3 7 25q8 25 15 32q8 8 27 8h74 q37 0 37 -28q0 -14 -21 -70q-113 -287 -420 -287q-249 0 -389 157q-139 155 -139 386zM205 1280q0 40 26 66t64 26q7 0 22 -4l377 -104q2 0 11.5 -2.5t16.5 -4.5q20 -5 30 -6t19 -12t9 -25q0 -38 -37 -38q-1 0 -25 2t-28 2l-393 8q-32 1 -63 26q-29 23 -29 66zM379 684 q0 -22 12 -26q13 -5 51 -5h281q65 0 65 43q0 4 -2 20q0 3 -1.5 11.5t-2.5 14.5t-2.5 15.5t-1.5 10.5q-28 207 -176 207q-173 0 -217 -248q-6 -27 -6 -43z" />
<glyph unicode="&#xe9;" horiz-adv-x="1165" d="M82 512q0 262 129 423t393 161q109 0 191 -30q83 -30 132 -76q52 -49 82 -114q31 -68 45 -136q12 -60 17 -148v-23q0 -29 -9 -37q-10 -8 -40 -8h-610q-24 0 -31 -7q-8 -8 -8 -32v-16q7 -172 66 -265q58 -93 196 -93q180 0 256 178q0 3 7 25q8 25 15 32q8 8 27 8h74 q37 0 37 -28q0 -14 -21 -70q-113 -287 -420 -287q-249 0 -389 157q-139 155 -139 386zM365 1260l464 129q15 4 23 4q36 0 63 -27t27 -66q0 -41 -30 -65q-32 -26 -62 -27l-481 -10zM379 684q0 -22 12 -26q13 -5 51 -5h281q65 0 65 43q0 4 -2 20q0 3 -1.5 11.5t-2.5 14.5 t-2.5 15.5t-1.5 10.5q-28 207 -176 207q-173 0 -217 -248q-6 -27 -6 -43z" />
<glyph unicode="&#xea;" horiz-adv-x="1165" d="M82 512q0 262 129 423t393 161q109 0 191 -30q83 -30 132 -76q52 -49 82 -114q31 -68 45 -136q12 -60 17 -148v-23q0 -29 -9 -37q-10 -8 -40 -8h-610q-24 0 -31 -7q-8 -8 -8 -32v-16q7 -172 66 -265q58 -93 196 -93q180 0 256 178q0 3 7 25q8 25 15 32q8 8 27 8h74 q37 0 37 -28q0 -14 -21 -70q-113 -287 -420 -287q-249 0 -389 157q-139 155 -139 386zM129 1278q0 6 6 12q3 3 19 17t20 18l264 264q1 1 23 25q19 21 23 24q9 7 27 14t44 7h43q43 0 68 -25l288 -288q9 -9 27 -24q20 -17 28 -26q9 -10 9 -18q0 -12 -27 -26q-26 -13 -47 -13 q-22 0 -82 45l-196 146q-67 49 -93 49t-86 -45l-135 -101q-14 -9 -36 -28q-29 -25 -37 -31q-15 -10 -36 -21q-20 -10 -42 -10q-18 0 -45 12t-27 23zM379 684q0 -22 12 -26q13 -5 51 -5h281q65 0 65 43q0 4 -2 20q0 3 -1.5 11.5t-2.5 14.5t-2.5 15.5t-1.5 10.5 q-28 207 -176 207q-173 0 -217 -248q-6 -27 -6 -43z" />
<glyph unicode="&#xeb;" horiz-adv-x="1165" d="M82 512q0 262 129 423t393 161q109 0 191 -30q83 -30 132 -76q52 -49 82 -114q31 -68 45 -136q12 -60 17 -148v-23q0 -29 -9 -37q-10 -8 -40 -8h-610q-24 0 -31 -7q-8 -8 -8 -32v-16q7 -172 66 -265q58 -93 196 -93q180 0 256 178q0 3 7 25q8 25 15 32q8 8 27 8h74 q37 0 37 -28q0 -14 -21 -70q-113 -287 -420 -287q-249 0 -389 157q-139 155 -139 386zM246 1362q0 68 48 116t116 48q67 0 115 -48t48 -116t-48 -116t-115 -48q-68 0 -116 48t-48 116zM379 684q0 -22 12 -26q13 -5 51 -5h281q65 0 65 43q0 4 -2 20q0 3 -1.5 11.5t-2.5 14.5 t-2.5 15.5t-1.5 10.5q-28 207 -176 207q-173 0 -217 -248q-6 -27 -6 -43zM655 1362q0 68 48 116t116 48t116 -48t48 -116t-48 -116t-116 -48t-116 48t-48 116z" />
<glyph unicode="&#xec;" horiz-adv-x="696" d="M-72 1751q0 38 28 66q26 26 62 26q8 0 23 -4l377 -104q8 -1 27 -6q5 -1 11.5 -3t11 -3t7.5 -1q11 -2 20 -12t9 -24q0 -39 -37 -39q-2 0 -26 2t-27 2l-394 8q-30 1 -62 27q-30 24 -30 65zM41 37v61q0 24 4 29q5 6 21 6h96q42 0 53 10q12 11 12 39q0 14 -1 29t-1 35v602 q0 15 1 25t1 22q0 21 -9 29q-10 8 -38 8h-86q-38 0 -46 6q-7 6 -7 41v41q0 29 9 38t32 9q13 0 26 -1t29 -1h271q59 0 71 -9q13 -10 13 -57v-837q0 -17 7 -23q8 -6 31 -6h80q45 0 56 -8q10 -7 10 -43v-27q0 -38 -7 -46q-7 -9 -34 -9h-522q-13 0 -23 -1t-18 -1q-31 0 -31 39z M174 1434q0 70 48 116q49 47 126 47t126 -47q48 -46 48 -116t-48 -117q-49 -47 -126 -47t-126 47q-48 47 -48 117z" />
<glyph unicode="&#xed;" horiz-adv-x="696" d="M41 37v61q0 24 4 29q5 6 21 6h96q42 0 53 10q12 11 12 39q0 14 -1 29t-1 35v602q0 15 1 25t1 22q0 21 -9 29q-10 8 -38 8h-86q-38 0 -46 6q-7 6 -7 41v41q0 29 9 38t32 9q13 0 26 -1t29 -1h271q59 0 71 -9q13 -10 13 -57v-837q0 -17 7 -23q8 -6 31 -6h80q45 0 56 -8 q10 -7 10 -43v-27q0 -38 -7 -46q-7 -9 -34 -9h-522q-13 0 -23 -1t-18 -1q-31 0 -31 39zM88 1731l465 129q15 4 22 4q36 0 63 -27q28 -28 28 -65q0 -42 -30 -66q-32 -26 -63 -27l-481 -10zM174 1434q0 70 48 116q49 47 126 47t126 -47q48 -46 48 -116t-48 -117 q-49 -47 -126 -47t-126 47q-48 47 -48 117z" />
<glyph unicode="&#xee;" horiz-adv-x="696" d="M-150 1749q0 5 7 12q10 10 18 17q3 2 10.5 8.5t10.5 9.5l264 264q2 2 9 10.5t13 14.5q16 18 24 24q10 8 26 14q18 7 44 7h43q43 0 68 -25l289 -288q14 -14 26 -24q20 -17 28 -26q9 -11 9 -18q0 -13 -26 -26t-47 -13q-22 0 -82 45l-197 146q-67 49 -92 49q-26 0 -86 -45 l-135 -101q-14 -9 -36 -28q-25 -22 -38 -31q-15 -11 -36 -21q-20 -10 -42 -10q-18 0 -45 12t-27 23zM41 37v61q0 24 4 29q5 6 21 6h96q42 0 53 10q12 11 12 39q0 14 -1 29t-1 35v602q0 15 1 25t1 22q0 21 -9 29q-10 8 -38 8h-86q-38 0 -46 6q-7 6 -7 41v41q0 29 9 38t32 9 q13 0 26 -1t29 -1h271q59 0 71 -9q13 -10 13 -57v-837q0 -17 7 -23q8 -6 31 -6h80q45 0 56 -8q10 -7 10 -43v-27q0 -38 -7 -46q-7 -9 -34 -9h-522q-13 0 -23 -1t-18 -1q-31 0 -31 39zM174 1434q0 70 48 116q49 47 126 47t126 -47q48 -46 48 -116t-48 -117q-49 -47 -126 -47 t-126 47q-48 47 -48 117z" />
<glyph unicode="&#xef;" horiz-adv-x="696" d="M-31 1833q0 68 48 116t116 48t116 -48t48 -116t-48 -116t-116 -48t-116 48t-48 116zM41 37v61q0 24 4 29q5 6 21 6h96q42 0 53 10q12 11 12 39q0 14 -1 29t-1 35v602q0 15 1 25t1 22q0 21 -9 29q-10 8 -38 8h-86q-38 0 -46 6q-7 6 -7 41v41q0 29 9 38t32 9q13 0 26 -1 t29 -1h271q59 0 71 -9q13 -10 13 -57v-837q0 -17 7 -23q8 -6 31 -6h80q45 0 56 -8q10 -7 10 -43v-27q0 -38 -7 -46q-7 -9 -34 -9h-522q-13 0 -23 -1t-18 -1q-31 0 -31 39zM174 1434q0 70 48 116q49 47 126 47t126 -47q48 -46 48 -116t-48 -117q-49 -47 -126 -47t-126 47 q-48 47 -48 117zM379 1833q0 68 48 116t116 48q67 0 115 -48q49 -49 49 -116t-49 -116q-48 -48 -115 -48q-68 0 -116 48t-48 116z" />
<glyph unicode="&#xf1;" horiz-adv-x="1443" d="M51 70v30q0 21 8 27q7 6 39 6h66q44 0 61 22t17 62q0 15 -3 53t-3 58v569q0 37 -31 37q-9 0 -17 -1t-20 -1h-82q-22 0 -29 5q-6 5 -6 19v72q0 24 5 31q4 6 24 6h350q13 0 22 1t17 1q18 0 26 -8q7 -7 7 -35v-45q0 -86 10 -86q4 0 12 12q2 3 24 34q17 23 30 38 q105 119 278 119q352 0 352 -340v-574q0 -34 10 -42q8 -7 52 -7h80q43 0 43 -35v-53q0 -30 -5 -38q-4 -7 -26 -7h-541q-13 0 -17 6q-5 7 -5 27v57q0 30 7 37q8 8 28 8q8 0 17 -1t21 -1h29q45 0 45 43q0 1 -2 29t-2 33v495q0 116 -29 166q-28 49 -104 49q-136 0 -221 -104 q-86 -106 -86 -264v-334q0 -21 -1 -34t-1 -26q0 -31 14 -42t59 -11q54 0 63 -9t9 -63v-28q0 -21 -8 -27q-7 -6 -39 -6h-479q-53 0 -60 9q-8 10 -8 61zM158 1294q0 6 18 80q30 113 114 176q83 62 195 62q83 0 141 -34q59 -35 84 -73t65 -72t91 -34q80 0 121 33t51 102 q2 8 3 21l2 17q0 1 2 4t3 5q3 5 9 7q2 1 7 1.5t8 0.5q6 1 26 1h53q32 0 40 -4q9 -5 9 -22q0 -5 -1 -10t-1 -13q-15 -149 -103 -231t-221 -82q-78 0 -132 21q-53 20 -83 54q-29 32 -51 63q-24 33 -55 53q-35 22 -80 22q-128 0 -149 -105q-2 -10 -2 -38q0 -26 -9 -39 q-8 -11 -34 -11h-70q-51 0 -51 45z" />
<glyph unicode="&#xf2;" horiz-adv-x="1224" d="M82 502q0 259 139 426q140 168 391 168q249 0 391 -157q140 -155 140 -386q0 -257 -138 -420q-138 -164 -393 -164q-252 0 -391 153q-139 152 -139 380zM203 1280q0 39 27 66q26 26 63 26q7 0 22 -4l377 -104q2 0 11.5 -2.5t16.5 -4.5q20 -5 30 -6t19 -12t9 -25 q0 -38 -37 -38q-1 0 -25 2t-28 2l-393 8q-32 1 -63 26q-29 23 -29 66zM379 553q0 -461 233 -461q234 0 234 420q0 461 -234 461q-233 0 -233 -420z" />
<glyph unicode="&#xf3;" horiz-adv-x="1224" d="M82 502q0 259 139 426q140 168 391 168q248 0 390 -157q141 -156 141 -386q0 -257 -138 -420q-138 -164 -393 -164q-252 0 -391 153q-139 152 -139 380zM362 1260l465 129q15 4 23 4q35 0 62 -27q28 -28 28 -66q0 -41 -30 -65q-32 -26 -62 -27l-481 -10zM379 553 q0 -461 233 -461q234 0 234 420q0 461 -234 461q-233 0 -233 -420z" />
<glyph unicode="&#xf4;" horiz-adv-x="1224" d="M82 502q0 259 139 426q140 168 391 168q249 0 391 -157q140 -155 140 -386q0 -257 -138 -420q-138 -164 -393 -164q-252 0 -391 153q-139 152 -139 380zM125 1278q0 6 6 12q3 3 19 17t20 18l264 264q1 1 23 25q19 21 23 24q9 7 27 14t44 7h43q43 0 68 -25l288 -288 q9 -9 27 -24q20 -17 28 -26q9 -10 9 -18q0 -12 -27 -26q-26 -13 -47 -13q-22 0 -82 45l-196 146q-67 49 -93 49t-86 -45l-135 -101q-14 -9 -36 -28q-25 -22 -38 -31q-18 -12 -35 -21q-20 -10 -42 -10q-18 0 -45 12t-27 23zM379 553q0 -461 233 -461q234 0 234 420 q0 461 -234 461q-233 0 -233 -420z" />
<glyph unicode="&#xf5;" horiz-adv-x="1224" d="M49 1294q0 2 19 80q30 114 113 176t196 62q82 0 140 -34q59 -35 84 -73q23 -36 66 -72q40 -34 91 -34q151 0 172 135q2 8 3 21l2 17q0 1 1.5 4l2.5 5q3 5 9 7q2 1 7.5 1.5t8.5 0.5q6 1 25 1h53q32 0 40 -4q10 -5 10 -22q0 -5 -1 -10t-1 -13q-15 -148 -104 -231 q-88 -82 -220 -82q-78 0 -132 21q-53 20 -83 54q-29 32 -51 63q-23 32 -56 53q-35 22 -79 22q-70 0 -105 -26q-34 -25 -45 -79q-2 -10 -2 -38t-8 -39t-35 -11h-70q-51 0 -51 45zM82 502q0 259 139 426q140 168 391 168q248 0 390 -157q141 -156 141 -386q0 -257 -138 -420 q-138 -164 -393 -164q-252 0 -391 153q-139 152 -139 380zM379 553q0 -461 233 -461q234 0 234 420q0 461 -234 461q-233 0 -233 -420z" />
<glyph unicode="&#xf6;" horiz-adv-x="1224" d="M82 502q0 259 139 426q140 168 391 168q248 0 390 -157q141 -156 141 -386q0 -257 -138 -420q-138 -164 -393 -164q-252 0 -391 153q-139 152 -139 380zM244 1362q0 68 48 116t116 48q67 0 115 -48t48 -116t-48 -116t-115 -48q-68 0 -116 48t-48 116zM379 553 q0 -461 233 -461q234 0 234 420q0 461 -234 461q-233 0 -233 -420zM653 1362q0 68 48 116t116 48t116 -48t48 -116t-48 -116t-116 -48t-116 48t-48 116z" />
<glyph unicode="&#xf7;" horiz-adv-x="1146" d="M102 754v73q0 28 17 36q15 7 59 7h826q26 0 33 -4t7 -18v-17v-79q0 -27 -7 -31t-58 -4h-815q-40 0 -51 6t-11 31zM420 430q0 68 48 116t116 48q67 0 115 -48q49 -49 49 -116t-49 -116q-48 -48 -115 -48q-68 0 -116 48t-48 116zM420 1157q0 68 48 116t116 48q67 0 115 -48 q49 -49 49 -116t-49 -116q-48 -48 -115 -48q-68 0 -116 48t-48 116z" />
<glyph unicode="&#xf8;" horiz-adv-x="2048" d="M82 502q0 259 139 426q140 168 391 168q62 0 127 -13l41 82q0 1 1.5 4t4 7.5t4.5 9.5q8 16 10 19q9 10 13 12q11 8 25 9q10 1 39 1h55q43 0 43 -23q0 -8 -8 -24q-6 -11 -20 -31l-15 -25l-47 -94q126 -70 191 -196q67 -129 67 -281q0 -257 -138 -420q-138 -164 -393 -164 q-128 0 -235 45l-68 -137q-4 -6 -12 -29q-7 -20 -14 -31q-7 -10 -25 -19t-45 -9h-80q-45 0 -45 18q0 9 15 30q12 17 20 30l119 235q-160 148 -160 400zM379 553q0 -90 8 -162l291 572q-33 10 -66 10q-233 0 -233 -420zM457 172q56 -80 155 -80q234 0 234 420q0 219 -53 334z " />
<glyph unicode="&#xf9;" horiz-adv-x="1443" d="M51 977v59q0 31 39 31q14 0 25 -1t24 -1h258q19 0 32 1t28 1q25 0 35 -11t10 -44v-680q0 -117 28 -166t105 -49q136 0 221 104q86 106 86 264v412q0 22 -5 29q-5 6 -19 6h-121q-30 0 -34 7q-5 8 -5 40v49q0 39 28 39q9 0 17 -1t20 -1h336q32 0 40 -11q9 -12 9 -55v-800 q0 -35 10 -52q8 -14 39 -14h111q16 0 20 -6q5 -7 5 -29v-28q0 -53 -9 -62q-8 -8 -61 -8h-332q-32 0 -40 11q-9 12 -9 55v65q0 59 -6 59q-4 0 -10 -11q-2 -3 -7.5 -13t-8.5 -16q-9 -17 -17 -29q-113 -152 -305 -152q-352 0 -352 340v578q0 33 -8 39q-7 6 -44 6h-77 q-41 0 -48 7q-8 8 -8 38zM219 1280q0 38 28 66q26 26 62 26q8 0 23 -4l377 -104q2 0 11 -2.5t16 -4.5q20 -5 30 -6t19 -12q10 -12 10 -25q0 -38 -37 -38q-2 0 -26 2t-27 2l-394 8q-31 1 -62 26q-30 24 -30 66z" />
<glyph unicode="&#xfa;" horiz-adv-x="1443" d="M51 977v59q0 31 39 31q14 0 25 -1t24 -1h258q19 0 32 1t28 1q25 0 35 -11t10 -44v-680q0 -117 28 -166t105 -49q136 0 221 104q86 106 86 264v412q0 22 -5 29q-5 6 -19 6h-121q-30 0 -34 7q-5 8 -5 40v49q0 39 28 39q9 0 17 -1t20 -1h336q32 0 40 -11q9 -12 9 -55v-800 q0 -35 10 -52q8 -14 39 -14h111q16 0 20 -6q5 -7 5 -29v-28q0 -53 -9 -62q-8 -8 -61 -8h-332q-32 0 -40 11q-9 12 -9 55v65q0 59 -6 59q-4 0 -10 -11q-2 -3 -7.5 -13t-8.5 -16q-9 -17 -17 -29q-113 -152 -305 -152q-352 0 -352 340v578q0 33 -8 39q-7 6 -44 6h-77 q-41 0 -48 7q-8 8 -8 38zM381 1260l465 129q15 4 22 4q37 0 64 -27q26 -26 26 -66q0 -42 -29 -65q-32 -26 -63 -27l-481 -10z" />
<glyph unicode="&#xfb;" horiz-adv-x="1443" d="M51 977v59q0 31 39 31q14 0 25 -1t24 -1h258q19 0 32 1t28 1q25 0 35 -11t10 -44v-680q0 -117 28 -166t105 -49q136 0 221 104q86 106 86 264v412q0 22 -5 29q-5 6 -19 6h-121q-30 0 -34 7q-5 8 -5 40v49q0 39 28 39q9 0 17 -1t20 -1h336q32 0 40 -11q9 -12 9 -55v-800 q0 -35 10 -52q8 -14 39 -14h111q16 0 20 -6q5 -7 5 -29v-28q0 -53 -9 -62q-8 -8 -61 -8h-332q-32 0 -40 11q-9 12 -9 55v65q0 59 -6 59q-4 0 -10 -11q-2 -3 -7.5 -13t-8.5 -16q-9 -17 -17 -29q-113 -152 -305 -152q-352 0 -352 340v578q0 33 -8 39q-7 6 -44 6h-77 q-41 0 -48 7q-8 8 -8 38zM143 1278q0 5 7 12q10 10 18 17q16 14 20 18l265 264q2 2 9 10.5t13 14.5q17 18 24 24q10 8 26 14q18 7 44 7h43q43 0 68 -25l289 -288q14 -14 26 -24q20 -17 28 -26q9 -10 9 -18q0 -13 -26 -26t-48 -13q-21 0 -81 45l-197 146q-67 49 -92 49 q-26 0 -86 -45l-135 -101q-14 -9 -36 -28q-25 -22 -38 -31q-15 -10 -36 -21q-20 -10 -42 -10q-18 0 -45 12t-27 23z" />
<glyph unicode="&#xfc;" horiz-adv-x="1443" d="M51 977v59q0 31 39 31q14 0 25 -1t24 -1h258q19 0 32 1t28 1q25 0 35 -11t10 -44v-680q0 -117 28 -166t105 -49q136 0 221 104q86 106 86 264v412q0 22 -5 29q-5 6 -19 6h-121q-30 0 -34 7q-5 8 -5 40v49q0 39 28 39q9 0 17 -1t20 -1h336q32 0 40 -11q9 -12 9 -55v-800 q0 -35 10 -52q8 -14 39 -14h111q16 0 20 -6q5 -7 5 -29v-28q0 -53 -9 -62q-8 -8 -61 -8h-332q-32 0 -40 11q-9 12 -9 55v65q0 59 -6 59q-4 0 -10 -11q-2 -3 -7.5 -13t-8.5 -16q-9 -17 -17 -29q-113 -152 -305 -152q-352 0 -352 340v578q0 33 -8 39q-7 6 -44 6h-78 q-40 0 -47 7q-8 8 -8 38zM262 1362q0 68 48 116t116 48t116 -48t48 -116t-48 -116t-116 -48t-116 48t-48 116zM672 1362q0 68 48 116t116 48q67 0 115 -48t48 -116t-48 -116t-115 -48q-68 0 -116 48t-48 116z" />
<glyph unicode="&#xfd;" horiz-adv-x="1306" d="M0 975v53q0 24 5 31q5 6 22 6h528q29 0 35 -6t6 -27v-69q0 -22 -4 -26q-5 -5 -21 -5h-45q-61 0 -61 -17q0 -3 24 -55l158 -354q43 -99 62 -150q23 -57 43 -57l36 49q12 33 23.5 63.5t19.5 51.5t13.5 37t9 25.5t4.5 11.5l135 344l17 39q0 12 -25 12h-86q-21 0 -27 7t-6 36 v49q0 27 8 35t27 8q12 0 22 -1t25 -1h299q12 0 20 1t15 1q25 0 25 -31v-61q0 -28 -5 -36q-4 -7 -26 -7h-74q-22 0 -33 -7t-15 -13q-3 -4 -9 -23l-8 -25l-426 -1073q-71 -181 -183 -258q-110 -76 -219 -76q-141 0 -222 85q-81 86 -81 196q0 93 44 154t132 61q74 0 114 -43 t40 -109q0 -61 -30 -94q-31 -34 -59 -45q-30 -12 -30 -22q0 -23 23 -41q24 -19 69 -19q174 0 291 297q12 35 12 55q0 22 -28 88l-394 865q0 1 -1 3l-2.5 5t-2.5 6q-3 7 -6 13t-6 9q-6 6 -10 7q-2 0 -4.5 0.5t-5.5 1.5t-5 1q-5 1 -22 1h-53q-13 0 -22 -1t-17 -1q-18 0 -26 8 q-7 7 -7 37zM424 1260l465 129q15 4 22 4q36 0 63 -27t27 -66q0 -42 -29 -65q-32 -26 -63 -27l-481 -10z" />
<glyph unicode="&#xff;" horiz-adv-x="1306" d="M0 975v53q0 24 5 31q5 6 22 6h528q29 0 35 -6t6 -27v-69q0 -22 -4 -26q-5 -5 -21 -5h-45q-61 0 -61 -17q0 -3 24 -55l158 -354q43 -99 62 -150q23 -57 43 -57l36 49q12 33 23.5 63.5t19.5 51.5t13.5 37t9 25.5t4.5 11.5l135 344l17 39q0 12 -25 12h-86q-21 0 -27 7t-6 36 v49q0 27 8 35t27 8q12 0 22 -1t25 -1h299q12 0 20 1t15 1q25 0 25 -31v-61q0 -28 -5 -36q-4 -7 -26 -7h-74q-22 0 -33 -7t-15 -13q-3 -4 -9 -23l-8 -25l-426 -1073q-71 -181 -183 -258q-110 -76 -219 -76q-141 0 -222 85q-81 86 -81 196q0 93 44 154t132 61q74 0 114 -43 t40 -109q0 -61 -30 -94q-31 -34 -59 -45q-30 -12 -30 -22q0 -23 23 -41q24 -19 69 -19q174 0 291 297q12 35 12 55q0 22 -28 88l-394 865q0 1 -1 3l-2.5 5t-2.5 6q-3 7 -6 13t-6 9q-6 6 -10 7q-2 0 -4.5 0.5t-5.5 1.5t-5 1q-5 1 -22 1h-53q-13 0 -22 -1t-17 -1q-18 0 -26 8 q-7 7 -7 37zM305 1362q0 68 48 116t116 48t116 -48t48 -116t-48 -116t-116 -48t-116 48t-48 116zM715 1362q0 68 48 116t116 48q67 0 115 -48t48 -116t-48 -116t-115 -48q-68 0 -116 48t-48 116z" />
<glyph unicode="&#x178;" horiz-adv-x="1669" d="M-10 1438v57q0 26 5 34q4 7 23 7h668q26 0 34 -8q7 -7 7 -45v-66q0 -22 -8 -28q-9 -7 -41 -7h-57q-70 0 -70 -12q0 -6 27 -47l217 -334q43 -66 73 -129q24 -51 33 -51t43 55q44 70 88 131l207 299q7 12 21 26q12 12 22 26q8 11 8 18q0 18 -55 18h-119q-38 0 -45 7 q-6 6 -6 45v65q0 25 8 31q7 6 43 6h539q15 0 19 -6q5 -7 5 -27v-78q0 -33 -4 -37q-6 -6 -35 -6h-94q-15 0 -22 -1t-18 -1q-7 0 -14 -4l-10 -5q-4 -2 -8 -7l-8 -8q-2 -2 -8 -11q-7 -10 -8 -14l-410 -586q-29 -40 -38 -69q-9 -30 -9 -94v-379q0 -31 12 -40t58 -9h135 q26 0 34 -10q7 -8 7 -46v-45q0 -33 -9 -43t-32 -10h-643q-12 0 -20 -1t-17 -1q-26 0 -26 35v86q0 22 8 28q9 7 39 7h123q34 0 45 8q10 7 10 33v317q0 82 -11 116q-13 39 -42 85l-398 594q-38 54 -57 63q-24 12 -92 12q-6 0 -38 -2t-34 -2q-55 0 -55 60zM467 1833 q0 68 48 116t116 48q67 0 115 -48q49 -49 49 -116t-49 -116q-48 -48 -115 -48q-68 0 -116 48t-48 116zM877 1833q0 68 48 116t115 48q68 0 116 -48t48 -116t-48 -116t-116 -48q-67 0 -115 48t-48 116z" />
<glyph unicode="&#x2dc;" horiz-adv-x="614" d="M-522 209q0 6 18 80q30 113 114 176q82 61 195 61q85 0 141 -33q59 -35 84 -73q26 -40 65 -73q40 -34 91 -34q80 0 121 33q40 33 51 103q2 7 3 21q1 13 3 16q0 1 1.5 4.5t2.5 5.5q3 5 9 7q2 1 7 1.5t8 0.5q6 1 26 1h53q32 0 40 -4q9 -4 9 -23q0 -4 -1 -9t-1 -13 q-15 -150 -103 -232t-220 -82q-76 0 -133 22q-53 20 -82 53q-30 33 -52 64q-24 33 -55 53q-33 21 -80 21q-128 0 -149 -104q-2 -10 -2 -38q0 -27 -9 -40q-7 -10 -34 -10h-70q-51 0 -51 45z" />
<glyph unicode="&#x2000;" horiz-adv-x="1065" />
<glyph unicode="&#x2001;" horiz-adv-x="2130" />
<glyph unicode="&#x2002;" horiz-adv-x="1065" />
<glyph unicode="&#x2003;" horiz-adv-x="2130" />
<glyph unicode="&#x2004;" horiz-adv-x="710" />
<glyph unicode="&#x2005;" horiz-adv-x="532" />
<glyph unicode="&#x2006;" horiz-adv-x="355" />
<glyph unicode="&#x2007;" horiz-adv-x="355" />
<glyph unicode="&#x2008;" horiz-adv-x="266" />
<glyph unicode="&#x2009;" horiz-adv-x="426" />
<glyph unicode="&#x200a;" horiz-adv-x="118" />
<glyph unicode="&#x2010;" horiz-adv-x="942" d="M123 754v73q0 29 12 36q11 7 43 7h610q25 0 28 -5t3 -34v-79q0 -26 -6 -31q-5 -4 -43 -4h-602q-30 0 -38 6q-7 6 -7 31z" />
<glyph unicode="&#x2011;" horiz-adv-x="942" d="M123 754v73q0 29 12 36q11 7 43 7h610q25 0 28 -5t3 -34v-79q0 -26 -6 -31q-5 -4 -43 -4h-602q-30 0 -38 6q-7 6 -7 31z" />
<glyph unicode="&#x2012;" horiz-adv-x="942" d="M123 754v73q0 29 12 36q11 7 43 7h610q25 0 28 -5t3 -34v-79q0 -26 -6 -31q-5 -4 -43 -4h-602q-30 0 -38 6q-7 6 -7 31z" />
<glyph unicode="&#x2013;" horiz-adv-x="1064" d="M123 754v73q0 29 13 36t50 7h719q26 0 31 -4q6 -5 6 -20v-15v-79q0 -27 -7 -31t-52 -4h-709q-36 0 -43 6q-8 6 -8 31z" />
<glyph unicode="&#x2014;" horiz-adv-x="1433" d="M123 754v73q0 29 20 36t74 7h1043q36 0 43 -3q8 -3 8 -17v-19v-79q0 -26 -9 -31q-8 -4 -75 -4h-1026q-51 0 -65 6q-13 6 -13 31z" />
<glyph unicode="&#x2018;" horiz-adv-x="542" d="M78 1300q0 132 99 224q100 92 233 110q14 2 26 2q17 0 23 -9t6 -38v-10q0 -9 -2 -19q-1 -2 -4 -13q-1 -4 -7 -8q-2 -1 -10 -4q-5 -2 -15 -3q-2 0 -17 -4q-69 -18 -125 -68t-66 -112q-4 -21 -3 -28q2 -8 7 -9q7 -2 21 4q35 14 78 14q64 0 101 -46q38 -47 38 -116 q0 -65 -52 -113q-53 -48 -126 -48q-205 0 -205 294z" />
<glyph unicode="&#x2019;" horiz-adv-x="542" d="M78 1065v10q0 10 2 20l4 12q1 4 7 8q3 2 9 4q5 2 16 3q2 0 17 4q69 18 125 68q55 49 66 113q4 20 3 27t-8 9q-6 2 -20 -4q-35 -14 -78 -14q-64 0 -101 46q-38 47 -38 116q0 66 52 114t126 48q205 0 205 -295q0 -132 -99 -224q-100 -92 -233 -110q-14 -2 -27 -2 q-16 0 -22 9t-6 38z" />
<glyph unicode="&#x201c;" horiz-adv-x="962" d="M57 1300q0 132 100 224t232 110q14 2 27 2q16 0 22 -9t6 -38v-10q0 -9 -2 -19q0 -2 -4 -13q-1 -4 -7 -8q-3 -2 -9 -4q-5 -2 -15 -3q-4 0 -18 -4q-69 -18 -125 -68q-54 -49 -65 -112q-4 -21 -3 -28q2 -8 7 -9q6 -2 20 4q35 14 78 14q64 0 101 -46q38 -47 38 -116 q0 -65 -52 -113t-126 -48q-205 0 -205 294zM518 1300q0 132 99 224q100 92 233 110q14 2 27 2q16 0 22 -9t6 -38v-10q0 -9 -2 -19q-1 -2 -4 -13q-1 -4 -7 -8q-3 -2 -9 -4q-5 -2 -16 -3q-2 0 -17 -4q-69 -18 -125 -68t-66 -112q-4 -21 -3 -28t8 -9q6 -2 20 4q35 14 78 14 q64 0 101 -46q38 -47 38 -116q0 -65 -52 -113q-53 -48 -126 -48q-205 0 -205 294z" />
<glyph unicode="&#x201d;" horiz-adv-x="962" d="M57 1065v10q0 10 2 20l4 12q1 3 8 8q3 2 9 4q5 2 15 3q4 0 18 4q69 18 125 68q54 48 65 113q4 20 3 27q-2 8 -7 9q-6 2 -20 -4q-35 -14 -78 -14q-65 0 -102 46q-38 47 -38 116q0 66 53 114q52 48 126 48q204 0 204 -295q0 -132 -99 -224q-100 -92 -232 -110 q-14 -2 -27 -2q-17 0 -23 9t-6 38zM518 1065v10q0 10 2 20l4 12q1 4 7 8q2 1 10 4q5 2 15 3q2 0 17 4q69 18 125 68q55 49 66 113q4 20 3 27q-2 8 -7 9q-7 2 -21 -4q-35 -14 -78 -14q-64 0 -101 46q-38 47 -38 116q0 66 52 114t126 48q205 0 205 -295q0 -132 -99 -224 q-100 -92 -233 -110q-14 -2 -26 -2q-17 0 -23 9t-6 38z" />
<glyph unicode="&#x202f;" horiz-adv-x="426" />
<glyph unicode="&#x205f;" horiz-adv-x="532" />
<glyph unicode="&#x25fc;" horiz-adv-x="1064" d="M0 0v1065h1065v-1065h-1065z" />
</font>
</defs>
</svg>
