<?xml version="1.0" standalone="no"?>
<!DOCTYPE svg PUBLIC "-//W3C//DTD SVG 1.1//EN" "http://www.w3.org/Graphics/SVG/1.1/DTD/svg11.dtd" >
<svg xmlns="http://www.w3.org/2000/svg" xmlns:xlink="http://www.w3.org/1999/xlink" version="1.1">
<metadata></metadata>
<defs>
<font id="betterfly_2_serifregular" horiz-adv-x="569" >
<font-face units-per-em="2048" ascent="1638" descent="-410" />
<missing-glyph horiz-adv-x="500" />
<glyph horiz-adv-x="0" />
<glyph horiz-adv-x="682" />
<glyph horiz-adv-x="0" />
<glyph unicode="&#x9;" />
<glyph horiz-adv-x="0" />
<glyph unicode=" " />
<glyph unicode="!" horiz-adv-x="643" d="M203 86q0 49 34.5 84t84.5 35q49 0 83.5 -35t34.5 -84t-34.5 -84t-83.5 -35t-84 35t-35 84zM213 1399q0 47 30.5 76.5t78.5 29.5q47 0 77.5 -29.5t30.5 -76.5q-2 -31 -6 -88.5t-8 -100.5l-64 -856h-61l-64 854q-4 43 -8 101.5t-6 89.5z" />
<glyph unicode="&#x22;" horiz-adv-x="909" d="M264 1384v33q0 45 14.5 66.5t47.5 21.5t47 -21.5t14 -66.5v-33q0 -23 -2 -30l-31 -461h-57l-31 459q-2 9 -2 32zM522 1384v33q0 45 14.5 66.5t47.5 21.5t47 -21.5t14 -66.5v-33q0 -23 -2 -30l-31 -461h-57l-31 459q-2 9 -2 32z" />
<glyph unicode="#" horiz-adv-x="1138" d="M-23 475l23 57h270l142 386h-273l23 57h270l178 493h66l-178 -493h323l178 493h66l-178 -493h272l-22 -57h-271l-141 -386h272l-22 -57h-270l-177 -485h-65l176 485h-324l-176 -485h-65l176 485h-273zM336 532h323l142 386h-324z" />
<glyph unicode="$" horiz-adv-x="1366" d="M35 20q59 98 111.5 257t66.5 274l41 -10q-6 -74 -6 -131q0 -96 25.5 -167t91.5 -137q90 -90 268 -98v654l-109 32q-344 109 -344 371q0 125 58.5 225.5t162 157.5t232.5 57v115h51v-119q47 -8 170 -53q86 -31 92 -29q18 4 29.5 43t9.5 97l45 8q12 -256 107 -500l-45 -8 q-51 152 -167 263.5t-241 129.5v-563l164 -51q356 -113 356 -406q0 -129 -68.5 -236.5t-187.5 -171t-264 -65.5v-141h-51v141q-78 2 -147.5 18.5t-137.5 57.5q-41 25 -100 74q-18 16 -33.5 27t-30.5 11q-14 0 -31.5 -23.5t-46.5 -78.5l-18 -33l-10 -4zM311 1186 q0 -111 76 -170.5t211 -100.5l35 -10v551q-129 -2 -225.5 -69.5t-96.5 -200.5zM684 8q158 2 250 89t92 233q0 104 -68.5 180t-197.5 113l-76 22v-637z" />
<glyph unicode="%" horiz-adv-x="1593" d="M94 1153q0 90 54.5 170t136.5 128t159 48q88 0 170 -50t133.5 -131t51.5 -169q0 -84 -50.5 -165t-130 -131t-163.5 -50q-93 0 -175.5 49t-134 130t-51.5 171zM258 1163q0 -168 44 -239.5t147 -71.5q100 0 143 72.5t43 244.5q0 145 -47 213t-148 68q-90 0 -136 -72.5 t-46 -214.5zM375 -14l788 1517l56 -28l-789 -1518zM795 311q0 90 54 170t136 128t160 48q88 0 170 -50t133 -131t51 -169q0 -84 -50 -165t-130 -131t-164 -50q-92 0 -175 49t-134 130t-51 171zM958 322q0 -168 44.5 -240t146.5 -72q100 0 143 73t43 245q0 145 -47 212.5 t-147 67.5q-90 0 -136.5 -72.5t-46.5 -213.5z" />
<glyph unicode="&#x26;" horiz-adv-x="1593" d="M143 426q0 174 99.5 289.5t267.5 212.5l20 -39q-100 -59 -145 -128t-45 -163q0 -117 53 -250t138 -222t171 -89q53 0 127 36t107 72l25 -47q-56 -47 -160.5 -92t-188.5 -45q-150 0 -256 72.5t-159.5 180.5t-53.5 212zM473 1192q0 84 39 154.5t105.5 111.5t144.5 41 q92 0 144 -57.5t52 -155.5t-49 -164.5t-129 -115.5l-18 43q74 47 110.5 98t36.5 137q0 78 -36.5 122t-102.5 44q-51 0 -87 -45t-36 -111q0 -43 21.5 -103.5t64.5 -152.5l371 -721q70 -123 117 -178t82 -55q94 0 90 195h49q2 -145 -64.5 -231.5t-183.5 -86.5 q-61 0 -105.5 28.5t-74 69.5t-74.5 117l-395 748q-39 86 -55.5 148.5t-16.5 119.5zM1049 893q0 41 24 72q14 18 40 29.5t56 11.5q39 0 75 -22.5t59 -72.5q41 -84 40 -198q0 -123 -51 -241t-141 -189l-25 43q103 83 103 204q0 78 -39 150t-84 102q-27 20 -42 50t-15 61z" />
<glyph unicode="'" d="M223 1384v33q0 45 14.5 66.5t47.5 21.5t47 -21.5t14 -66.5v-33q0 -23 -2 -30l-31 -461h-57l-31 459q-2 9 -2 32z" />
<glyph unicode="(" d="M152 770q0 377 147 723q43 100 99.5 195.5t80.5 123.5l49 -32q-162 -231 -238.5 -478t-76.5 -532t77 -531.5t238 -478.5l-49 -32q-24 28 -80.5 123.5t-99.5 195.5q-147 346 -147 723z" />
<glyph unicode=")" d="M41 -260q162 231 238.5 478t76.5 532t-76.5 531.5t-238.5 477.5l49 33q27 -31 83 -125t99 -194q145 -352 146 -723q0 -385 -146 -723q-45 -100 -101 -195.5t-81 -124.5z" />
<glyph unicode="*" horiz-adv-x="909" d="M119 1229q0 37 24.5 61.5t61.5 24.5q27 0 49 -18.5t59 -59.5q35 -39 57.5 -60.5t51.5 -39.5q0 45 -37 163q-18 55 -18 70q0 39 24.5 64.5t63.5 25.5t63.5 -25.5t24.5 -64.5q0 -12 -19 -67q-37 -119 -37 -166q29 18 51.5 39.5t57.5 60.5q37 41 59.5 59.5t49.5 18.5 q37 0 61.5 -24.5t24.5 -61.5q0 -51 -43 -74q-10 -4 -64 -18q-129 -29 -174 -52q45 -23 174 -51q53 -14 61 -18q45 -20 46 -74q0 -37 -25 -61.5t-61 -24.5q-27 0 -49.5 18.5t-59.5 59.5q-35 39 -57.5 60.5t-51.5 39.5q0 -39 18.5 -97t20.5 -67q18 -55 19 -69 q0 -39 -24.5 -64.5t-63.5 -25.5t-63.5 25.5t-24.5 64.5q0 14 18 71q2 8 20.5 66.5t18.5 95.5q-31 -18 -54.5 -40.5t-58.5 -61.5q-39 -41 -60.5 -58.5t-45.5 -17.5q-37 0 -61.5 24.5t-24.5 61.5q0 53 45 74q4 4 51 14q135 31 189 55q-39 16 -187 56q-51 10 -55 14 q-45 20 -45 74z" />
<glyph unicode="+" horiz-adv-x="1214" d="M104 463v57h471v473h62v-473h471v-57h-471v-473h-62v473h-471z" />
<glyph unicode="," d="M127 88q0 51 40 89t95 38q76 0 128 -64.5t52 -156.5q0 -111 -77.5 -219.5t-165.5 -163.5l-31 41q94 67 145.5 138t51.5 132q0 55 -27 90q-35 -45 -88 -45q-51 0 -87 35t-36 86z" />
<glyph unicode="-" horiz-adv-x="757" d="M188 379v135h381v-135h-381z" />
<glyph unicode="." d="M166 86q0 49 35 84t84 35t83.5 -35t34.5 -84t-34.5 -84t-83.5 -35t-84 35t-35 84z" />
<glyph unicode="/" horiz-adv-x="606" d="M-8 -6l561 1489l61 -19l-561 -1489z" />
<glyph unicode="0" horiz-adv-x="1064" d="M43 733q0 238 58.5 412t168 267t258.5 93q154 0 263.5 -92t168 -266t58.5 -414q0 -371 -127 -572.5t-363 -201.5q-229 0 -357 204t-128 570zM268 731q0 -287 24.5 -440.5t82 -217t164.5 -63.5q98 0 153.5 66.5t80 221.5t24.5 433q0 246 -18.5 397.5t-75 237.5t-164.5 86 q-125 0 -183.5 -90t-73 -233.5t-14.5 -397.5z" />
<glyph unicode="1" horiz-adv-x="1064" d="M172 1169q285 156 473 330h55l-4 -1323q0 -49 15.5 -72.5t59.5 -39t147 -31.5l-3 -49q-156 20 -329 20q-145 0 -346 -14l2 47q133 12 181 42t48 99v1112l-8 -6q-121 -76 -266 -156z" />
<glyph unicode="2" horiz-adv-x="1064" d="M14 -10v43q176 150 280.5 248t213.5 227q225 274 225 579q0 184 -61.5 273.5t-188.5 89.5q-115 0 -157.5 -66.5t-42.5 -148.5q0 -37 4 -45q16 -41 16 -88q0 -45 -19.5 -76t-58.5 -43q-8 -2 -22 -2q-49 0 -93 37t-44 102q0 10 4 39q33 147 148.5 243.5t264.5 96.5 q137 0 241.5 -52t163 -145.5t58.5 -214.5q0 -117 -43 -217t-111.5 -182t-177.5 -188q-168 -166 -358 -338h442q100 0 187.5 77.5t150.5 221.5h43q-90 -244 -108 -471h-957z" />
<glyph unicode="3" horiz-adv-x="1064" d="M43 342q0 63 43 101t92 38q8 0 25 -4q39 -12 58.5 -43t19.5 -76q0 -47 -17 -88q-4 -8 -4 -45q0 -82 43 -148.5t158 -66.5q152 0 218 100.5t66 327.5q0 182 -64.5 271.5t-199.5 89.5q-82 0 -164 -35l-14 49q51 23 109 37q160 43 227.5 127t67.5 240q0 115 -51.5 174 t-149.5 59q-115 0 -158 -66.5t-43 -148.5q0 -37 4 -45q16 -41 17 -88q0 -53 -27 -87t-74 -34q-49 0 -93 37t-44 102q0 10 4 39q18 96 78.5 174t149 122t186.5 44q127 0 220 -46t141 -119.5t48 -155.5q0 -129 -111.5 -216.5t-246.5 -123.5q117 -17 210 -75t145.5 -148.5 t52.5 -196.5q0 -121 -69 -226.5t-184.5 -168t-250.5 -62.5q-98 0 -186.5 44t-148.5 122t-79 174q-4 29 -4 41z" />
<glyph unicode="4" horiz-adv-x="983" d="M-23 348l725 1161l15 23h49l-4 -1129h106v-55h-106v-178q2 -53 17.5 -78.5t57.5 -37t136 -17.5v-49q-182 14 -320 14q-133 0 -340 -14v47q92 4 139.5 16t66 40t18.5 79v178h-560zM78 403h459v734z" />
<glyph unicode="5" horiz-adv-x="1064" d="M76 242q0 66 33.5 112.5t83.5 46.5q47 0 70.5 -31.5t23.5 -88.5q0 -43 -13 -97q-4 -25 -4 -34q0 -63 60.5 -101.5t142.5 -38.5q96 0 153.5 48t83 156t25.5 290q0 193 -60.5 279.5t-195.5 86.5q-131 0 -218 -65.5t-114 -186.5l-43 11l113 811h31l2 6l10 -6h10v-6 q170 -100 324 -101q174 0 291 131l24 -32q-68 -104 -163 -157.5t-209 -53.5q-135 0 -287 73l-70 -499q51 61 131 93t181 32q131 0 236.5 -58.5t165.5 -161t60 -229.5q0 -70 -25.5 -156t-78.5 -159q-68 -96 -170 -145.5t-234 -49.5q-129 0 -211.5 44t-120.5 109.5t-38 127.5z " />
<glyph unicode="6" horiz-adv-x="1064" d="M55 616q0 178 46 340t130 285q86 125 199 191.5t240 66.5q139 0 220 -82t81 -225q0 -74 -40 -121t-102 -47q-121 0 -120 113q0 33 24 82q16 29 24.5 53t8.5 63q0 68 -22.5 91.5t-86.5 23.5q-82 0 -169 -86t-134 -178q-37 -72 -64.5 -198t-27.5 -210q45 66 122 104t165 38 q135 0 240.5 -68t163 -176.5t57.5 -226.5q0 -127 -65.5 -240t-174 -180.5t-231.5 -67.5q-100 0 -186.5 38t-149.5 114q-147 172 -148 503zM268 573q0 -174 12.5 -273t51.5 -179q47 -111 207 -111q141 0 196 113q27 57 38 131t11 201q0 119 -17 200.5t-46 126.5 q-57 88 -176 88q-82 0 -146.5 -34.5t-101.5 -98.5q-29 -57 -29 -164z" />
<glyph unicode="7" horiz-adv-x="1064" d="M125 1073l4 395h856q-82 -317 -181 -638.5t-183 -553.5q-53 -152 -106.5 -219t-119.5 -67q-78 0 -78 80q0 84 91 229q162 262 278.5 501.5t192.5 487.5h-508q-78 0 -126 -51t-75 -164h-45z" />
<glyph unicode="8" horiz-adv-x="1064" d="M68 356q0 119 74.5 213.5t226.5 165.5l49 -30q-94 -59 -128 -144.5t-34 -218.5q0 -158 71.5 -245t202.5 -87q80 0 144.5 51.5t101.5 129t37 155.5q0 88 -24.5 139.5t-95 101.5t-230.5 132q-176 78 -253 166t-77 235q0 100 58.5 187.5t154.5 139.5t205 52q104 0 192 -42 t139.5 -114.5t51.5 -158.5q0 -104 -60.5 -181t-168.5 -149l-48 35q52 43 77.5 107.5t25.5 144.5q0 162 -50.5 235.5t-158.5 73.5q-117 0 -186.5 -71.5t-69.5 -190.5t74 -187q31 -33 91 -63.5t146 -69.5q35 -14 56 -26q139 -74 210.5 -136.5t98 -126t26.5 -153.5 q0 -131 -63.5 -237.5t-176 -167t-251.5 -60.5q-125 0 -224.5 51t-156.5 141.5t-57 202.5z" />
<glyph unicode="9" horiz-adv-x="1228" d="M117 1016q0 127 65.5 239.5t174 180t231.5 67.5q100 0 186 -38t150 -113q147 -172 147 -504q0 -207 -29.5 -372t-105.5 -281q-147 -229 -420 -230q-100 0 -183 40t-130 110.5t-47 156.5q0 74 40 121t101 47q121 0 121 -112q0 -33 -25 -82q-16 -29 -24.5 -53.5t-8.5 -63.5 q0 -59 35 -87t113 -28q100 0 160.5 37t89 87t51.5 120q41 125 53 424q-45 -63 -120.5 -100t-163.5 -37q-135 0 -241 67.5t-163 176t-57 227.5zM342 1010q0 -119 17.5 -201t46.5 -127q57 -88 176 -88q84 0 148.5 36t98.5 97q29 58 29 164q0 170 -12 270.5t-51 181.5 q-47 111 -207 111q-141 0 -197 -113q-27 -57 -38 -130.5t-11 -200.5z" />
<glyph unicode=":" d="M166 86q0 49 35 84t84 35t83.5 -35t34.5 -84t-34.5 -84t-83.5 -35t-84 35t-35 84zM166 793q0 49 35 83.5t84 34.5t83.5 -34.5t34.5 -83.5t-34.5 -84t-83.5 -35t-84 34.5t-35 84.5z" />
<glyph unicode=";" d="M127 88q0 51 40 89t95 38q76 0 128 -64.5t52 -156.5q0 -111 -77.5 -219.5t-165.5 -163.5l-31 41q94 68 145.5 138.5t51.5 131.5q0 55 -27 90q-35 -45 -88 -45q-51 0 -87 35t-36 86zM166 793q0 49 35 83.5t84 34.5t83.5 -34.5t34.5 -83.5t-34.5 -84t-83.5 -35t-84 34.5 t-35 84.5z" />
<glyph unicode="&#x3c;" horiz-adv-x="1214" d="M14 477v29l1184 491v-61l-1079 -444l1079 -445v-61z" />
<glyph unicode="=" horiz-adv-x="1214" d="M104 287v57h1004v-57h-1004zM104 639v57h1004v-57h-1004z" />
<glyph unicode="&#x3e;" horiz-adv-x="1214" d="M14 -14v61l1082 445l-1082 444v61l1184 -491v-29z" />
<glyph unicode="?" horiz-adv-x="833" d="M152 1264q0 53 34.5 110.5t97 94t140.5 36.5q127 0 198.5 -87t71.5 -238q0 -197 -219 -527q-123 -182 -117 -323l-51 -2q-6 84 24.5 169t86.5 187q55 109 84.5 215.5t29.5 233.5q0 168 -28.5 245.5t-91.5 77.5q-47 0 -80 -20.5t-33 -51.5q0 -23 23 -59q27 -49 26 -74 q0 -35 -26.5 -58.5t-65.5 -23.5q-47 0 -75.5 26t-28.5 69zM236 86q0 49 34.5 84t83.5 35t84 -35t35 -84t-35 -84t-84 -35t-83.5 35t-34.5 84z" />
<glyph unicode="@" horiz-adv-x="1705" d="M74 696q0 162 66.5 309.5t189.5 262.5t280.5 176t329.5 61q150 0 279 -45t223 -133q92 -84 141 -197.5t49 -240.5q0 -141 -61.5 -274.5t-159.5 -217.5t-203 -84q-92 0 -134 44t-54 114q-41 -78 -104.5 -118t-141.5 -40q-80 0 -146.5 40t-104.5 109.5t-38 153.5 q0 121 65.5 237t170 189.5t211.5 73.5q74 0 125 -32.5t73 -92.5l31 103h142l-144 -488q-20 -74 -20 -117q0 -49 27.5 -76.5t76.5 -27.5q76 0 151.5 76t126 193.5t50.5 232.5q0 111 -42 210t-120 175q-84 82 -203 125t-260 43q-160 0 -303 -60.5t-254 -173.5 q-102 -106 -158.5 -240.5t-56.5 -273.5q0 -137 51 -259t148 -214q100 -94 233 -143t285 -49q151 0 293.5 50t261.5 146l39 -53q-135 -96 -272.5 -152.5t-340.5 -56.5q-158 0 -302 51t-255 146q-119 100 -180 239.5t-61 298.5zM655 578q0 -90 38 -142.5t104 -52.5 q63 0 104 40t72 105q33 74 71.5 195t38.5 197q0 53 -37.5 90t-91.5 37q-76 0 -144.5 -75t-111.5 -186.5t-43 -207.5z" />
<glyph unicode="A" horiz-adv-x="1517" d="M-18 -10v49h15q101 -1 145 25q48 28 75 112l508 1329h61l41 -102l467 -1227q23 -53 45.5 -80.5t66.5 -42t124 -14.5v-49q-197 4 -313 4q-104 0 -338 -4v49q111 0 150.5 13.5t39.5 45.5q0 16 -18 72l-121 319q-27 88 -121 99h-328l11 49h303h5q52 0 52 39q0 23 -10 43 l-183 475l-391 -1026q-16 -39 -16 -59q0 -41 43 -53.5t147 -16.5v-49q-129 10 -231 10q-100 0 -229 -10z" />
<glyph unicode="B" horiz-adv-x="1339" d="M51 -10v49h18q115 1 161 25q48 26 49 98v1257h-228v49h369l127 5l123 2q229 0 366.5 -96.5t137.5 -260.5q0 -119 -88.5 -210t-229.5 -122q162 -28 273.5 -126.5t111.5 -247.5q0 -195 -143 -310q-151 -120 -425 -120h-5q-29 0 -111 4q-90 4 -137 4h-369zM504 164 q6 -80 36.5 -104.5t92.5 -28.5l45 -2q162 0 234.5 93t72.5 294q0 166 -68.5 254t-197.5 88h-180v49h143q129 0 187.5 72.5t58.5 234.5q0 164 -71 237.5t-224 73.5q-94 0 -129 -4v-1257z" />
<glyph unicode="C" horiz-adv-x="1478" d="M147 725q0 152 55.5 294t155.5 251q106 115 242.5 175t288.5 60q55 0 104 -13t113 -36q33 -12 64.5 -21.5t54.5 -9.5q35 0 49 9.5t37 33.5h45v-430h-41q-47 203 -143.5 310.5t-301.5 107.5q-104 0 -182 -33q-145 -63 -211 -215q-33 -80 -47 -155q-27 -131 -27 -328 q0 -401 129 -573q57 -74 140.5 -109t197.5 -35q160 0 252 54.5t137.5 143.5t83.5 240h41v-456h-45q-20 23 -36.5 33t-49.5 10q-35 0 -153 -31q-80 -20 -132.5 -31.5t-93.5 -11.5q-281 0 -485 201q-242 240 -242 565z" />
<glyph unicode="D" horiz-adv-x="1669" d="M51 1419v49h391q35 2 111 5.5t119 5.5q61 4 94 4q172 0 320.5 -53.5t248.5 -153.5q90 -92 138.5 -234.5t48.5 -312.5q0 -311 -211 -528q-223 -221 -572 -221q-41 0 -61 2l-96 8q-129 12 -172 12h-11l-342 -12v49q90 2 137.5 14.5t67 40t19.5 78.5l4 1110q0 55 -18.5 83 t-67.5 39t-148 15zM496 174q0 -84 44 -113.5t167 -29.5q127 0 234.5 59.5t186.5 171.5q66 92 102 210t36 249q0 170 -34 315.5t-99 233.5q-127 164 -383 164q-25 0 -82 -4q-72 -8 -119 -49.5t-45 -96.5z" />
<glyph unicode="E" horiz-adv-x="1441" d="M51 -10v49h14q107 -1 159 29q54 32 55 104l-3 1116q-2 72 -55 104q-47 28 -144 27h-26v49l1155 -2q25 -219 115 -471h-43q-172 416 -444 424h-330v-1247q0 -53 20.5 -81t71.5 -40t149 -14l201 -2q135 4 247 111.5t193 312.5l44 4q-90 -264 -109 -473h-1270zM553 762v35 h68q70 0 114 12q47 12 82 47q31 31 53 92q23 59 43 150h29q-29 -166 -29 -322q0 -166 29 -315h-31q-14 57 -24 114q-12 57 -39 99q-27 41 -74 63q-43 16 -121 21z" />
<glyph unicode="F" horiz-adv-x="1366" d="M55 -10v47q92 4 139.5 16.5t66 40t18.5 78.5l2 1116q-1 72 -53 102q-49 29 -157 29h-14v49l1149 -2q25 -219 115 -471h-43q-176 424 -444 424h-111q-90 0 -137 -11q-48 -11 -66 -39q-17 -25 -16 -71v-10l-2 -1116q2 -49 20.5 -74.5t66.5 -38t146 -20.5v-49 q-182 14 -329 14q-141 0 -351 -14zM528 727v49h99q96 0 178 84t113 217h40v-657h-40q-27 115 -92.5 211t-166.5 96h-131z" />
<glyph unicode="G" horiz-adv-x="1630" d="M147 725q0 330 238 571q213 209 489 209q66 0 117 -13t113 -36q33 -12 63.5 -21.5t55.5 -9.5q37 0 51 8.5t37 34.5h45v-430h-41q-27 174 -131.5 296t-311.5 122q-270 0 -383 -229q-86 -172 -86 -502q0 -465 177 -621q59 -53 123.5 -74.5t166.5 -21.5q152 0 248 96.5 t96 245.5q0 59 -18 95t-76 53q-46 15 -130 15q-19 0 -40 -1v49h645v-49h-18q-70 0 -107 -28q-40 -33 -40 -107l2 -29v-225q-10 2 -31 2q-49 0 -95 -20.5t-112 -59.5q-41 -25 -53 -31q-127 -61 -271 -61q-143 0 -257.5 50t-225.5 159q-117 119 -178.5 262t-61.5 301z" />
<glyph unicode="H" horiz-adv-x="1669" d="M55 -10v47q92 4 139.5 16.5t67.5 40.5q18 25 17 69v9l2 1116q-1 72 -53 102q-49 29 -157 29h-14v49h680v-49q-100 -2 -149 -13q-50 -11 -68 -38q-17 -24 -16 -70v-10l-2 -1116q2 -49 20.5 -74.5t66.5 -38t146 -20.5v-49q-182 14 -329 14q-141 0 -351 -14zM541 721v49 l551 4q39 0 56 16.5t17 55.5l2 440q0 72 -51 104q-48 30 -156 29h-14v49h680v-49q-98 -2 -147 -12t-68.5 -38t-19.5 -83l-2 -1114q2 -49 20 -74.5t66.5 -38t146.5 -20.5v-49q-182 14 -330 14q-141 0 -350 -14v47q92 4 139 16.5t65.5 40t18.5 78.5v444q0 49 -4 69t-19.5 28 t-54.5 8h-546z" />
<glyph unicode="I" horiz-adv-x="794" d="M61 -12v47q92 4 139.5 16t67.5 40q18 25 17 70v9l2 1116q1 74 -53 106q-47 28 -145 27h-26v49q172 -12 343 -12q172 0 337 12v-49q-100 -2 -148 -13q-47 -11 -67 -38q-18 -24 -18 -72v-10v-1116q2 -49 20.5 -74.5t65.5 -38t145 -20.5v-49q-182 14 -329 14 q-141 0 -351 -14z" />
<glyph unicode="J" horiz-adv-x="948" d="M18 193q0 76 42 125t106 49q49 0 82 -38t33 -71q0 -31 -23 -80q-20 -45 -20 -74q0 -43 27.5 -69.5t70.5 -26.5q123 0 123 189l2 1089q0 74 -53 106q-48 27 -145 27h-25v49q172 -12 342 -12q172 0 338 12v-49q-100 -2 -148.5 -13t-67.5 -38q-18 -24 -18 -72v-10v-911 q0 -203 -90 -309.5t-260 -106.5q-86 0 -159 30.5t-115 85t-42 118.5z" />
<glyph unicode="K" horiz-adv-x="1538" d="M55 -10v47q92 4 139.5 16.5t66 40t18.5 78.5l2 1114q-1 74 -55 106q-48 28 -145 27h-26v49q190 -10 342 -10q172 0 338 12v-49q-100 -4 -148 -15q-49 -11 -67 -39q-17 -25 -16 -71v-10l-2 -1114q2 -49 20.5 -74.5t66.5 -38t146 -20.5v-49q-182 14 -329 14 q-141 0 -351 -14zM504 760l512 532q45 47 45 80q0 49 -111 49l-39 -2v49q123 -6 244 -6q113 0 219 6v-49h-20q-76 -1 -136 -27q-68 -30 -151 -112l-379 -401l578 -701v2q84 -84 139 -112q51 -27 130 -27h11v-49q-188 10 -319 10q-121 0 -295 -10v49q16 -1 29 -1 q108 0 108 42q0 33 -55 84z" />
<glyph unicode="L" horiz-adv-x="1402" d="M55 -10v49h26q97 -1 145 27q54 32 53 106l2 1116q1 74 -53 106q-47 28 -145 27h-26v49q172 -12 342 -12q172 0 338 12v-49q-100 -2 -148 -13q-47 -11 -67 -38q-18 -24 -18 -72v-10l6 -1116q0 -53 19.5 -81t66.5 -39t141 -13h121q274 6 447 420h43q-92 -254 -117 -469 h-1176z" />
<glyph unicode="M" horiz-adv-x="1781" d="M43 -12v51q100 0 149.5 12t63.5 40t14 81v1114q0 55 -17 83t-64.5 38t-145.5 12v49h479l373 -1083l373 1083h471v-49h-17q-116 1 -162 -25q-50 -28 -49 -106l-2 -1116q2 -49 20.5 -74.5t67 -38t146.5 -20.5v-49q-182 14 -330 14q-141 0 -350 -14v47q92 4 139 17 q46 12 66 40q18 25 18 69v9v1194l-483 -1399l-481 1385v-1180q0 -78 49 -106q46 -27 161 -27h17v-51q-154 14 -258 14q-109 0 -248 -14z" />
<glyph unicode="N" horiz-adv-x="1478" d="M33 -12v51q100 0 149 12t63.5 40t14.5 81v1114q0 55 -17.5 83t-64.5 38t-145 12v49h454l680 -1095v913q0 53 -14 81t-63.5 40t-149.5 12v51q139 -14 248 -14q104 0 258 14v-51h-17q-116 -1 -161 -27q-49 -28 -49 -106v-1325h-58l-850 1354v-1143q-1 -78 49 -106 q46 -27 162 -27h17v-51q-154 14 -258 14q-109 0 -248 -14z" />
<glyph unicode="O" horiz-adv-x="1703" d="M135 733q0 215 95.5 392.5t259 278.5t364.5 101q203 0 367.5 -101t259 -278.5t94.5 -392.5q0 -211 -96.5 -388t-262 -281.5t-362.5 -104.5q-195 0 -360.5 104.5t-262 281.5t-96.5 388zM389 731q0 -262 48 -419.5t151.5 -229.5t277.5 -72q162 0 260.5 75t145.5 232.5 t47 413.5q0 350 -103.5 535.5t-349.5 185.5q-190 0 -295.5 -92t-143.5 -249t-38 -380z" />
<glyph unicode="P" horiz-adv-x="1327" d="M51 1419v49h395l109 2q82 4 119 5q160 0 285.5 -51.5t196.5 -141.5t71 -207q0 -121 -82 -212t-215 -138t-283 -47q-53 0 -94 8v49q55 -8 106 -8q152 0 232 89t80 259q0 193 -67.5 271.5t-231.5 78.5q-98 0 -133 -29.5t-35 -111.5l-2 -1112q2 -49 20.5 -74.5t66.5 -38 t146 -20.5v-49q-182 14 -329 14q-141 0 -351 -14v47q92 4 139.5 16.5t66 40t18.5 78.5v1114q0 55 -17.5 83t-64.5 38t-146 12z" />
<glyph unicode="Q" horiz-adv-x="1703" d="M135 733q0 215 95.5 392.5t259 278.5t364.5 101q203 0 367.5 -101t259 -278.5t94.5 -392.5q0 -229 -113.5 -417.5t-300.5 -282.5q-2 4 21 -27q35 -41 82 -117q65 -100 116.5 -148t126.5 -48q31 0 47 4l9 -43q-68 -10 -119 -10q-117 0 -221.5 63.5t-210.5 226.5l-25 37 q-63 -12 -133 -12q-195 0 -360.5 104.5t-262 281.5t-96.5 388zM389 731q0 -262 48 -419.5t151.5 -229.5t277.5 -72q54 0 95 8q-68 104 -124.5 157.5t-138.5 53.5q-16 0 -57 -8l-8 41q59 12 110 12q111 0 201 -50t174 -144q102 76 151.5 235.5t49.5 415.5q0 350 -103.5 535.5 t-349.5 185.5q-190 0 -295.5 -92t-143.5 -249t-38 -380z" />
<glyph unicode="R" horiz-adv-x="1478" d="M55 -10v47q92 4 139.5 16.5t66 40t18.5 78.5v1112q0 57 -17.5 86t-63.5 39t-143 10v49h396l124 5l72 2q143 0 230.5 -16.5t160.5 -76.5q63 -49 99.5 -117.5t36.5 -146.5q0 -106 -77 -200.5t-239 -126.5q115 -20 209 -77t127 -161q14 -47 19.5 -125t7.5 -96 q4 -119 16 -172q16 -68 43 -99.5t72 -31.5q31 0 59.5 13t46.5 36l33 -41q-37 -29 -79 -45.5t-116 -16.5q-152 0 -220 74t-83 252l-14 186q-12 160 -84 215.5t-197 55.5h-147v49h131q129 0 187.5 72.5t58.5 234.5t-67.5 237.5t-213.5 75.5q-69 -1 -107 -37q-36 -35 -36 -97 v-7l-2 -1114q2 -49 20.5 -74.5t66.5 -38t146 -20.5v-49q-182 14 -329 14q-141 0 -351 -14z" />
<glyph unicode="S" horiz-adv-x="1366" d="M35 20q59 98 111.5 257t66.5 274l41 -10q-6 -74 -6 -131q0 -96 25.5 -167t91.5 -137q96 -98 309 -98q162 0 257 87t95 235q0 104 -68.5 180t-197.5 113l-236 71q-344 109 -344 371q0 125 59.5 225.5t164 157.5t235.5 57q39 0 89 -15t126 -42q81 -29 91 -29h1q18 4 30 43 q10 33 9 80v17l45 8q12 -256 107 -500l-45 -8q-37 111 -110 202t-164 143t-179 52q-131 0 -229.5 -67.5t-98.5 -202.5q0 -111 76 -170.5t211 -100.5l250 -77q356 -113 356 -406q0 -131 -70.5 -238.5t-191.5 -171t-268 -63.5q-94 0 -172 14.5t-154 61.5q-41 25 -100 74 q-18 16 -33.5 27t-30.5 11q-14 0 -31.5 -23.5t-46.5 -78.5l-18 -33l-10 -4z" />
<glyph unicode="T" horiz-adv-x="1462" d="M-14 997q90 252 114 471l1194 -2q25 -219 115 -471h-43q-172 416 -444 424h-109l-2 -1247q2 -49 20.5 -74.5t66.5 -38t146 -20.5v-49q-182 14 -329 14q-141 0 -350 -14v47q92 4 139 17q46 12 66 40q18 25 18 69v9v1247l-115 2q-272 -8 -444 -424h-43z" />
<glyph unicode="U" horiz-adv-x="1554" d="M37 1419v49q145 -8 323 -8q201 0 357 8v-49q-100 -4 -149.5 -15t-67.5 -38q-16 -24 -15 -69v-11v-846q0 -227 78 -329.5t250 -102.5q123 0 206 36t140 114q47 61 65.5 130.5t18.5 188.5v809q-2 53 -16.5 81t-62.5 40t-148 12v51q139 -14 248 -14q104 0 258 14v-51h-17 q-115 -1 -161 -27q-50 -28 -50 -106v-850q0 -94 -20.5 -164.5t-75.5 -144.5q-125 -168 -422 -168q-256 0 -386 127t-130 375l2 825q-4 74 -57 106q-47 28 -143 27h-25z" />
<glyph unicode="V" horiz-adv-x="1478" d="M-53 1423v50q190 -12 383 -13q147 0 264 8v-49q-16 1 -30 1q-60 0 -91 -14q-39 -17 -39 -60q0 -27 10 -54l420 -1093l-90 -240h-63l-510 1325q-27 70 -93 106q-63 34 -151 33h-10zM856 326l363 964q10 31 10 47q0 83 -145 83q-16 0 -33 -1v49q123 -6 243 -6q111 0 219 6 v-49h-19q-168 0 -220 -137l-389 -1030z" />
<glyph unicode="W" horiz-adv-x="2199" d="M-53 1419v49q199 -10 360 -10q158 0 287 8v-49q-15 1 -29 1q-60 0 -92 -14q-39 -18 -39 -61q0 -27 10 -53l363 -1022l242 668l26 -76l-325 -901h-72l-473 1323q-27 70 -95 106q-61 32 -144 31h-19zM705 1421v49q147 -8 335 -8q180 0 312 11v-50q-15 1 -28 1 q-61 0 -93 -15q-39 -18 -39 -59q0 -25 12 -56l365 -1026l370 1022q10 31 11 47q0 83 -145 83q-16 0 -33 -1v49q122 -6 243 -6q113 0 219 6v-49h-19q-168 0 -220 -137l-482 -1323h-67l-477 1325q-27 70 -97 106q-62 32 -147 31h-20z" />
<glyph unicode="X" horiz-adv-x="1554" d="M47 1417v49q188 -10 336 -10q141 0 311 10v-49q-17 1 -31 1q-120 0 -120 -57q0 -28 24 -69l668 -1114q79 -137 253 -137h15v-49q-188 10 -336 10q-141 0 -311 -10v49q17 -1 31 -1q121 0 121 58q0 29 -25 68l-668 1114q-79 137 -253 137h-15zM68 -10v49h20q78 1 134 29 q62 32 110 110l309 520l31 -45l-289 -485q-18 -37 -18 -62q0 -68 132 -68q16 0 33 1v-49q-123 6 -243 6q-111 0 -219 -6zM803 924l227 366q18 37 19 62q0 68 -133 68q-16 0 -33 -1v49q123 -6 243 -6q113 0 220 6v-49h-20q-79 -1 -135 -29q-63 -32 -110 -110l-247 -401z" />
<glyph unicode="Y" horiz-adv-x="1441" d="M-14 1419v49q188 -10 336 -10q141 0 311 10v-49q-17 1 -31 1q-121 0 -121 -58q0 -27 25 -68l352 -610l-2 -512q2 -49 20.5 -74.5t66.5 -38t147 -20.5v-49q-182 14 -330 14q-141 0 -350 -14v47q92 4 139 16.5t67 40.5q17 24 17 69v9v442l-379 668q-79 137 -253 137h-15z M840 756l288 534q18 37 19 62q0 68 -133 68q-15 0 -33 -1v49q123 -6 244 -6q113 0 219 6v-49h-20q-79 0 -134 -29q-63 -32 -110 -108l-310 -577z" />
<glyph unicode="Z" horiz-adv-x="1327" d="M74 -10l878 1478h258l-886 -1478h-250zM94 997q84 236 113 471h719l-31 -49l-315 4q-272 -12 -443 -426h-43zM365 -10l22 49l473 -4q274 10 440 426h43q-90 -266 -108 -471h-870z" />
<glyph unicode="[" d="M240 -256v2052h276v-61h-215v-1930h215v-61h-276z" />
<glyph unicode="\" horiz-adv-x="606" d="M-8 1464l61 19l561 -1489l-61 -19z" />
<glyph unicode="]" d="M53 -195h215v1930h-215v61h277v-2052h-277v61z" />
<glyph unicode="_" horiz-adv-x="1024" d="M0 -154h1024v-63h-1024v63z" />
<glyph unicode="`" d="M-6 1436q0 27 26.5 54.5t53.5 27.5q41 0 112 -86l256 -312h-55l-352 252q-12 10 -26.5 28.5t-14.5 35.5z" />
<glyph unicode="a" horiz-adv-x="1517" d="M-18 -10v49h15q101 -1 145 25q48 28 75 112l508 1329h61l41 -102l467 -1227q23 -53 45.5 -80.5t66.5 -42t124 -14.5v-49q-197 4 -313 4q-104 0 -338 -4v49q111 0 150.5 13.5t39.5 45.5q0 16 -18 72l-121 319q-27 88 -121 99h-328l11 49h303h5q52 0 52 39q0 23 -10 43 l-183 475l-391 -1026q-16 -39 -16 -59q0 -41 43 -53.5t147 -16.5v-49q-129 10 -231 10q-100 0 -229 -10z" />
<glyph unicode="b" horiz-adv-x="1339" d="M51 -10v49h18q115 1 161 25q48 26 49 98v1257h-228v49h369l127 5l123 2q229 0 366.5 -96.5t137.5 -260.5q0 -119 -88.5 -210t-229.5 -122q162 -28 273.5 -126.5t111.5 -247.5q0 -195 -143 -310q-151 -120 -425 -120h-5q-29 0 -111 4q-90 4 -137 4h-369zM504 164 q6 -80 36.5 -104.5t92.5 -28.5l45 -2q162 0 234.5 93t72.5 294q0 166 -68.5 254t-197.5 88h-180v49h143q129 0 187.5 72.5t58.5 234.5q0 164 -71 237.5t-224 73.5q-94 0 -129 -4v-1257z" />
<glyph unicode="c" horiz-adv-x="1478" d="M147 725q0 152 55.5 294t155.5 251q106 115 242.5 175t288.5 60q55 0 104 -13t113 -36q33 -12 64.5 -21.5t54.5 -9.5q35 0 49 9.5t37 33.5h45v-430h-41q-47 203 -143.5 310.5t-301.5 107.5q-104 0 -182 -33q-145 -63 -211 -215q-33 -80 -47 -155q-27 -131 -27 -328 q0 -401 129 -573q57 -74 140.5 -109t197.5 -35q160 0 252 54.5t137.5 143.5t83.5 240h41v-456h-45q-20 23 -36.5 33t-49.5 10q-35 0 -153 -31q-80 -20 -132.5 -31.5t-93.5 -11.5q-281 0 -485 201q-242 240 -242 565z" />
<glyph unicode="d" horiz-adv-x="1669" d="M51 1419v49h391q35 2 111 5.5t119 5.5q61 4 94 4q172 0 320.5 -53.5t248.5 -153.5q90 -92 138.5 -234.5t48.5 -312.5q0 -311 -211 -528q-223 -221 -572 -221q-41 0 -61 2l-96 8q-129 12 -172 12h-11l-342 -12v49q90 2 137.5 14.5t67 40t19.5 78.5l4 1110q0 55 -18.5 83 t-67.5 39t-148 15zM496 174q0 -84 44 -113.5t167 -29.5q127 0 234.5 59.5t186.5 171.5q66 92 102 210t36 249q0 170 -34 315.5t-99 233.5q-127 164 -383 164q-25 0 -82 -4q-72 -8 -119 -49.5t-45 -96.5z" />
<glyph unicode="e" horiz-adv-x="1441" d="M51 -10v49h14q107 -1 159 29q54 32 55 104l-3 1116q-2 72 -55 104q-47 28 -144 27h-26v49l1155 -2q25 -219 115 -471h-43q-172 416 -444 424h-330v-1247q0 -53 20.5 -81t71.5 -40t149 -14l201 -2q135 4 247 111.5t193 312.5l44 4q-90 -264 -109 -473h-1270zM553 762v35 h68q70 0 114 12q47 12 82 47q31 31 53 92q23 59 43 150h29q-29 -166 -29 -322q0 -166 29 -315h-31q-14 57 -24 114q-12 57 -39 99q-27 41 -74 63q-43 16 -121 21z" />
<glyph unicode="f" horiz-adv-x="1366" d="M55 -10v47q92 4 139.5 16.5t66 40t18.5 78.5l2 1116q0 72 -53 102q-49 29 -157 29h-14v49l1149 -2q25 -219 115 -471h-43q-176 424 -444 424h-111q-90 0 -137 -11t-66 -39q-16 -25 -16 -71v-10l-2 -1116q2 -49 20.5 -74.5t66.5 -38t146 -20.5v-49q-182 14 -329 14 q-141 0 -351 -14zM528 727v49h99q96 0 178 84t113 217h40v-657h-40q-27 115 -92.5 211t-166.5 96h-131z" />
<glyph unicode="g" horiz-adv-x="1630" d="M147 725q0 330 238 571q213 209 489 209q66 0 117 -13t113 -36q33 -12 63.5 -21.5t55.5 -9.5q37 0 51 8.5t37 34.5h45v-430h-41q-27 174 -131.5 296t-311.5 122q-270 0 -383 -229q-86 -172 -86 -502q0 -465 177 -621q59 -53 123.5 -74.5t166.5 -21.5q152 0 248 96.5 t96 245.5q0 59 -18 95t-76 53q-46 15 -130 15q-19 0 -40 -1v49h645v-49h-18q-70 0 -107 -28q-40 -33 -40 -107l2 -29v-225q-10 2 -31 2q-49 0 -95 -20.5t-112 -59.5q-41 -25 -53 -31q-127 -61 -271 -61q-143 0 -257.5 50t-225.5 159q-117 119 -178.5 262t-61.5 301z" />
<glyph unicode="h" horiz-adv-x="1669" d="M55 -10v47q92 4 139.5 16.5t67.5 40.5q18 25 17 69v9l2 1116q-1 72 -53 102q-49 29 -157 29h-14v49h680v-49q-100 -2 -149 -13q-50 -11 -68 -38q-17 -24 -16 -70v-10l-2 -1116q2 -49 20.5 -74.5t66.5 -38t146 -20.5v-49q-182 14 -329 14q-141 0 -351 -14zM541 721v49 l551 4q39 0 56 16.5t17 55.5l2 440q0 72 -51 104q-48 30 -156 29h-14v49h680v-49q-98 -2 -147 -12t-68.5 -38t-19.5 -83l-2 -1114q2 -49 20 -74.5t66.5 -38t146.5 -20.5v-49q-182 14 -330 14q-141 0 -350 -14v47q92 4 139 16.5t65.5 40t18.5 78.5v444q0 49 -4 69t-19.5 28 t-54.5 8h-546z" />
<glyph unicode="i" horiz-adv-x="794" d="M61 -12v47q92 4 139.5 16t67.5 40q18 25 17 70v9l2 1116q1 74 -53 106q-47 28 -145 27h-26v49q172 -12 343 -12q172 0 337 12v-49q-100 -2 -148 -13q-47 -11 -67 -38q-18 -24 -18 -72v-10v-1116q2 -49 20.5 -74.5t65.5 -38t145 -20.5v-49q-182 14 -329 14 q-141 0 -351 -14z" />
<glyph unicode="j" horiz-adv-x="948" d="M18 193q0 76 42 125t106 49q49 0 82 -38t33 -71q0 -31 -23 -80q-20 -45 -20 -74q0 -43 27.5 -69.5t70.5 -26.5q123 0 123 189l2 1089q0 74 -53 106q-48 27 -145 27h-25v49q172 -12 342 -12q172 0 338 12v-49q-100 -2 -148.5 -13t-67.5 -38q-18 -24 -18 -72v-10v-911 q0 -203 -90 -309.5t-260 -106.5q-86 0 -159 30.5t-115 85t-42 118.5z" />
<glyph unicode="k" horiz-adv-x="1538" d="M55 -10v47q92 4 139.5 16.5t66 40t18.5 78.5l2 1114q-1 74 -55 106q-48 28 -145 27h-26v49q190 -10 342 -10q172 0 338 12v-49q-100 -4 -148 -15q-49 -11 -67 -39q-17 -25 -16 -71v-10l-2 -1114q2 -49 20.5 -74.5t66.5 -38t146 -20.5v-49q-182 14 -329 14 q-141 0 -351 -14zM504 760l512 532q45 47 45 80q0 49 -111 49l-39 -2v49q123 -6 244 -6q113 0 219 6v-49h-20q-76 -1 -136 -27q-68 -30 -151 -112l-379 -401l578 -701v2q84 -84 139 -112q51 -27 130 -27h11v-49q-188 10 -319 10q-121 0 -295 -10v49q16 -1 29 -1 q108 0 108 42q0 33 -55 84z" />
<glyph unicode="l" horiz-adv-x="1402" d="M55 -10v49h26q97 -1 145 27q54 32 53 106l2 1116q1 74 -53 106q-47 28 -145 27h-26v49q172 -12 342 -12q172 0 338 12v-49q-100 -2 -148 -13q-47 -11 -67 -38q-18 -24 -18 -72v-10l6 -1116q0 -53 19.5 -81t66.5 -39t141 -13h121q274 6 447 420h43q-92 -254 -117 -469 h-1176z" />
<glyph unicode="m" horiz-adv-x="1781" d="M43 -12v51q100 0 149.5 12t63.5 40t14 81v1114q0 55 -17 83t-64.5 38t-145.5 12v49h479l373 -1083l373 1083h471v-49h-17q-116 1 -162 -25q-50 -28 -49 -106l-2 -1116q2 -49 20.5 -74.5t67 -38t146.5 -20.5v-49q-182 14 -330 14q-141 0 -350 -14v47q92 4 139 17 q46 12 66 40q18 25 18 69v9v1194l-483 -1399l-481 1385v-1180q0 -78 49 -106q46 -27 161 -27h17v-51q-154 14 -258 14q-109 0 -248 -14z" />
<glyph unicode="n" horiz-adv-x="1478" d="M33 -12v51q100 0 149 12t63.5 40t14.5 81v1114q0 55 -17.5 83t-64.5 38t-145 12v49h454l680 -1095v913q0 53 -14 81t-63.5 40t-149.5 12v51q139 -14 248 -14q104 0 258 14v-51h-17q-116 -1 -161 -27q-49 -28 -49 -106v-1325h-58l-850 1354v-1143q-1 -78 49 -106 q46 -27 162 -27h17v-51q-154 14 -258 14q-109 0 -248 -14z" />
<glyph unicode="o" horiz-adv-x="1703" d="M135 733q0 215 95.5 392.5t259 278.5t364.5 101q203 0 367.5 -101t259 -278.5t94.5 -392.5q0 -211 -96.5 -388t-262 -281.5t-362.5 -104.5q-195 0 -360.5 104.5t-262 281.5t-96.5 388zM389 731q0 -262 48 -419.5t151.5 -229.5t277.5 -72q162 0 260.5 75t145.5 232.5 t47 413.5q0 350 -103.5 535.5t-349.5 185.5q-190 0 -295.5 -92t-143.5 -249t-38 -380z" />
<glyph unicode="p" horiz-adv-x="1327" d="M51 1419v49h395l109 2q82 4 119 5q160 0 285.5 -51.5t196.5 -141.5t71 -207q0 -121 -82 -212t-215 -138t-283 -47q-53 0 -94 8v49q55 -8 106 -8q152 0 232 89t80 259q0 193 -67.5 271.5t-231.5 78.5q-98 0 -133 -29.5t-35 -111.5l-2 -1112q2 -49 20.5 -74.5t66.5 -38 t146 -20.5v-49q-182 14 -329 14q-141 0 -351 -14v47q92 4 139.5 16.5t66 40t18.5 78.5v1114q0 55 -17.5 83t-64.5 38t-146 12z" />
<glyph unicode="q" horiz-adv-x="1703" d="M135 733q0 215 95.5 392.5t259 278.5t364.5 101q203 0 367.5 -101t259 -278.5t94.5 -392.5q0 -229 -113.5 -417.5t-300.5 -282.5q-2 4 21 -27q35 -41 82 -117q65 -100 116.5 -148t126.5 -48q31 0 47 4l9 -43q-68 -10 -119 -10q-117 0 -221.5 63.5t-210.5 226.5l-25 37 q-63 -12 -133 -12q-195 0 -360.5 104.5t-262 281.5t-96.5 388zM389 731q0 -262 48 -419.5t151.5 -229.5t277.5 -72q54 0 95 8q-68 104 -124.5 157.5t-138.5 53.5q-16 0 -57 -8l-8 41q59 12 110 12q111 0 201 -50t174 -144q102 76 151.5 235.5t49.5 415.5q0 350 -103.5 535.5 t-349.5 185.5q-190 0 -295.5 -92t-143.5 -249t-38 -380z" />
<glyph unicode="r" horiz-adv-x="1478" d="M55 -10v47q92 4 139.5 16.5t66 40t18.5 78.5v1112q0 57 -17.5 86t-63.5 39t-143 10v49h396l124 5l72 2q143 0 230.5 -16.5t160.5 -76.5q63 -49 99.5 -117.5t36.5 -146.5q0 -106 -77 -200.5t-239 -126.5q115 -20 209 -77t127 -161q14 -47 19.5 -125t7.5 -96 q4 -119 16 -172q16 -68 43 -99.5t72 -31.5q31 0 59.5 13t46.5 36l33 -41q-37 -29 -79 -45.5t-116 -16.5q-152 0 -220 74t-83 252l-14 186q-12 160 -84 215.5t-197 55.5h-147v49h131q129 0 187.5 72.5t58.5 234.5t-67.5 237.5t-213.5 75.5q-69 -1 -107 -37q-36 -35 -36 -97 v-7l-2 -1114q2 -49 20.5 -74.5t66.5 -38t146 -20.5v-49q-182 14 -329 14q-141 0 -351 -14z" />
<glyph unicode="s" horiz-adv-x="1366" d="M35 20q59 98 111.5 257t66.5 274l41 -10q-6 -74 -6 -131q0 -96 25.5 -167t91.5 -137q96 -98 309 -98q162 0 257 87t95 235q0 104 -68.5 180t-197.5 113l-236 71q-344 109 -344 371q0 125 59.5 225.5t164 157.5t235.5 57q39 0 89 -15t126 -42q81 -29 91 -29h1q18 4 30 43 q10 33 9 80v17l45 8q12 -256 107 -500l-45 -8q-37 111 -110 202t-164 143t-179 52q-131 0 -229.5 -67.5t-98.5 -202.5q0 -111 76 -170.5t211 -100.5l250 -77q356 -113 356 -406q0 -131 -70.5 -238.5t-191.5 -171t-268 -63.5q-94 0 -172 14.5t-154 61.5q-41 25 -100 74 q-18 16 -33.5 27t-30.5 11q-14 0 -31.5 -23.5t-46.5 -78.5l-18 -33l-10 -4z" />
<glyph unicode="t" horiz-adv-x="1462" d="M-14 997q90 252 114 471l1194 -2q25 -219 115 -471h-43q-172 416 -444 424h-109l-2 -1247q2 -49 20.5 -74.5t66.5 -38t146 -20.5v-49q-182 14 -329 14q-141 0 -350 -14v47q92 4 139 17q46 12 66 40q18 25 18 69v9v1247l-115 2q-272 -8 -444 -424h-43z" />
<glyph unicode="u" horiz-adv-x="1554" d="M37 1419v49q145 -8 323 -8q201 0 357 8v-49q-100 -4 -149.5 -15t-67.5 -38q-16 -24 -15 -69v-11v-846q0 -227 78 -329.5t250 -102.5q123 0 206 36t140 114q47 61 65.5 130.5t18.5 188.5v809q-2 53 -16.5 81t-62.5 40t-148 12v51q139 -14 248 -14q104 0 258 14v-51h-17 q-115 -1 -161 -27q-50 -28 -50 -106v-850q0 -94 -20.5 -164.5t-75.5 -144.5q-125 -168 -422 -168q-256 0 -386 127t-130 375l2 825q-4 74 -57 106q-47 28 -143 27h-25z" />
<glyph unicode="v" horiz-adv-x="1478" d="M-53 1423v50q190 -12 383 -13q147 0 264 8v-49q-16 1 -30 1q-60 0 -91 -14q-39 -17 -39 -60q0 -27 10 -54l420 -1093l-90 -240h-63l-510 1325q-27 70 -93 106q-63 34 -151 33h-10zM856 326l363 964q10 31 10 47q0 83 -145 83q-16 0 -33 -1v49q123 -6 243 -6q111 0 219 6 v-49h-19q-168 0 -220 -137l-389 -1030z" />
<glyph unicode="w" horiz-adv-x="2199" d="M-53 1419v49q199 -10 360 -10q158 0 287 8v-49q-15 1 -29 1q-60 0 -92 -14q-39 -18 -39 -61q0 -27 10 -53l363 -1022l242 668l26 -76l-325 -901h-72l-473 1323q-27 70 -95 106q-61 32 -144 31h-19zM705 1421v49q147 -8 335 -8q180 0 312 11v-50q-15 1 -28 1 q-61 0 -93 -15q-39 -18 -39 -59q0 -25 12 -56l365 -1026l370 1022q10 31 11 47q0 83 -145 83q-16 0 -33 -1v49q122 -6 243 -6q113 0 219 6v-49h-19q-168 0 -220 -137l-482 -1323h-67l-477 1325q-27 70 -97 106q-62 32 -147 31h-20z" />
<glyph unicode="x" horiz-adv-x="1554" d="M47 1417v49q188 -10 336 -10q141 0 311 10v-49q-17 1 -31 1q-120 0 -120 -57q0 -28 24 -69l668 -1114q79 -137 253 -137h15v-49q-188 10 -336 10q-141 0 -311 -10v49q17 -1 31 -1q121 0 121 58q0 29 -25 68l-668 1114q-79 137 -253 137h-15zM68 -10v49h20q78 1 134 29 q62 32 110 110l309 520l31 -45l-289 -485q-18 -37 -18 -62q0 -68 132 -68q16 0 33 1v-49q-123 6 -243 6q-111 0 -219 -6zM803 924l227 366q18 37 19 62q0 68 -133 68q-16 0 -33 -1v49q123 -6 243 -6q113 0 220 6v-49h-20q-79 -1 -135 -29q-63 -32 -110 -110l-247 -401z" />
<glyph unicode="y" horiz-adv-x="1441" d="M-14 1419v49q188 -10 336 -10q141 0 311 10v-49q-17 1 -31 1q-121 0 -121 -58q0 -27 25 -68l352 -610l-2 -512q2 -49 20.5 -74.5t66.5 -38t147 -20.5v-49q-182 14 -330 14q-141 0 -350 -14v47q92 4 139 16.5t67 40.5q17 24 17 69v9v442l-379 668q-79 137 -253 137h-15z M840 756l288 534q18 37 19 62q0 68 -133 68q-15 0 -33 -1v49q123 -6 244 -6q113 0 219 6v-49h-20q-79 0 -134 -29q-63 -32 -110 -108l-310 -577z" />
<glyph unicode="z" horiz-adv-x="1327" d="M74 -10l878 1478h258l-886 -1478h-250zM94 997q84 236 113 471h719l-31 -49l-315 4q-272 -12 -443 -426h-43zM365 -10l22 49l473 -4q274 10 440 426h43q-90 -266 -108 -471h-870z" />
<glyph unicode="{" horiz-adv-x="681" d="M59 715v28q117 23 175.5 55.5t81 91t22.5 165.5v219q0 115 6 180.5t32.5 124.5t86.5 107q39 33 87 46t91 18t59 7v-59q-131 -4 -196.5 -51.5t-85 -122t-19.5 -191.5v-159q0 -173 -11 -248.5t-60 -126.5q-53 -51 -140 -70q86 -18 140 -70q49 -51 60 -126.5t11 -247.5v-160 q0 -117 19.5 -191.5t85 -122t196.5 -51.5v-59q-16 2 -66 8t-94 21.5t-77 42.5q-59 47 -86 106.5t-33 125t-6 179.5v219q0 106 -22.5 165t-81 91.5t-175.5 55.5z" />
<glyph unicode="}" horiz-adv-x="681" d="M-18 -240q131 4 196.5 51.5t85 122t19.5 191.5v160q0 172 11 247.5t60 126.5q53 51 140 70q-86 18 -140 70q-49 51 -60 126.5t-11 248.5v159q0 117 -19.5 191.5t-85 122t-196.5 51.5v59q12 -2 64 -8t95 -21.5t78 -41.5q59 -45 86 -104.5t33 -126t6 -181.5v-219 q0 -107 22.5 -165.5t81 -91t175.5 -55.5v-28q-117 -23 -175.5 -55.5t-81 -91t-22.5 -165.5v-219q0 -115 -6 -181t-32.5 -125.5t-86.5 -104.5q-45 -35 -92 -47.5t-90 -17.5t-55 -7v59z" />
<glyph unicode="~" horiz-adv-x="1214" d="M18 322q39 131 101.5 212.5t193.5 81.5q37 0 93.5 -15t89.5 -28l254 -96q72 -29 104.5 -38t58.5 -9q82 0 134.5 62.5t89.5 173.5h59q-41 -129 -102.5 -213t-188.5 -84q-23 0 -59 6q-37 6 -121 39l-250 96q-98 45 -174 45q-66 0 -108.5 -34t-66.5 -81t-48 -118h-60z" />
<glyph unicode="&#xa0;" />
<glyph unicode="&#xa1;" horiz-adv-x="643" d="M203 797q0 49 34.5 83.5t84.5 34.5q49 0 83.5 -34.5t34.5 -83.5t-34.5 -84t-83.5 -35t-84 35t-35 84zM213 -516q2 31 6 88t8 100l64 856h61l64 -854q4 -43 8 -101t6 -89q0 -47 -30.5 -77t-77.5 -30t-78 30t-31 77z" />
<glyph unicode="&#xa2;" horiz-adv-x="1064" d="M111 434q0 133 64.5 242.5t177 174t245.5 64.5q57 0 90 -8l66 164l47 -14l-66 -162q98 -27 151.5 -85t53.5 -138q0 -49 -31.5 -79t-85.5 -30q-47 0 -77.5 21.5t-30.5 56.5q0 27 14 74q14 37 14 63q0 33 -32 58l-297 -744q61 -82 182 -82q143 0 208.5 63.5t100.5 170.5 l49 -11q-33 -131 -126 -201.5t-234 -70.5q-119 0 -215 45l-74 -186l-47 14l78 193q-111 57 -168 162.5t-57 244.5zM336 428q0 -188 47 -283l283 711q-35 10 -74 10q-57 0 -99 -12t-75 -51q-82 -96 -82 -375z" />
<glyph unicode="&#xa3;" horiz-adv-x="1290" d="M139 760v49h197q-27 68 -40 120t-13 111q0 123 61.5 228.5t165.5 168t227 62.5q86 0 161 -31.5t118 -86t43 -117.5q0 -133 -125 -134q-39 0 -63.5 23t-24.5 57q0 18 7 41t15 43q2 6 11.5 26.5t9.5 39.5q0 39 -41 64.5t-107 25.5q-121 0 -177 -89t-56 -284v-35 q0 -33 6 -112l8 -121h357v-49h-353q37 -375 37 -430q0 -82 -14 -129q213 -35 319 -35q82 0 129 11t72 40t41 84l43 -18q-51 -147 -120.5 -234.5t-192.5 -87.5q-70 0 -119 19.5t-109 58.5l-100 70q-45 -66 -91 -92.5t-114 -26.5q-66 0 -107.5 33.5t-41.5 89.5q0 53 48 89 t120 36q49 0 176 -29q6 47 6 82q0 59 -22.5 131t-69.5 184q-33 76 -62 154h-215zM207 113q0 -39 27.5 -59.5t76.5 -20.5q45 0 84 21.5t78 80.5q-76 53 -164 53q-43 0 -72.5 -21.5t-29.5 -53.5z" />
<glyph unicode="&#xa4;" horiz-adv-x="1138" d="M117 319l129 132q-58 69 -80.5 143t-22.5 137q0 76 28 149.5t77 131.5l-131 131l41 41l131 -131q123 104 280 104q152 0 279 -104l133 131l41 -41l-131 -131q55 -66 79.5 -143.5t24.5 -137.5q0 -66 -23.5 -140.5t-80.5 -139.5l131 -132l-41 -40l-133 131 q-55 -51 -128 -78t-153 -27q-150 0 -278 105l-131 -131zM205 731q0 -98 49 -182t133 -133t182 -49t182.5 49t133.5 133t49 182t-49 182t-133 133.5t-183 49.5q-98 0 -182 -49.5t-133 -133.5t-49 -182z" />
<glyph unicode="&#xa5;" horiz-adv-x="1138" d="M-115 1421v49q188 -10 336 -10q141 0 311 10v-49q-152 8 -151 -57q0 -27 25 -68l2 -2l258 -587l229 585q12 29 12 51q0 76 -172 76l2 49q143 -4 215 -4q127 0 244 6v-51q-12 2 -39 2q-141 0 -207 -139l-145 -371h256v-49h-277l-77 -205h354v-49h-363l7 -438 q0 -49 18 -74.5t66.5 -39t146.5 -21.5v-51q-178 18 -375 18q-135 0 -305 -10v47q92 2 140 14.5t67.5 40t17.5 78.5v436h-377v49h367l-94 205h-273v49h250l-200 373q-82 143 -269 137z" />
<glyph unicode="&#xa7;" horiz-adv-x="1064" d="M104 514q0 117 54.5 201t128.5 135l41 -29q-133 -86 -133 -200q0 -63 47 -130t125 -112q115 -78 237 -150q98 -59 121 -75q88 -59 128 -103.5t53.5 -90.5t13.5 -126q0 -98 -53.5 -195.5t-148.5 -160t-216 -62.5q-109 0 -197 44t-138 122t-50 172q0 72 32.5 115t86.5 43 q57 0 86.5 -27.5t29.5 -81.5q0 -37 -24 -98q-23 -53 -23 -80q0 -33 24.5 -70.5t69.5 -63.5t101 -26q119 0 194.5 80t75.5 205q0 80 -39 141.5t-121 112.5l-321 195q-100 61 -142.5 132.5t-42.5 182.5zM180 1130q0 102 55.5 188.5t148.5 136.5t204 50q147 0 241.5 -72.5 t94.5 -187.5q0 -74 -31 -108.5t-96 -34.5q-100 0 -101 92q0 35 4.5 52.5t14.5 41.5q8 16 12 30.5t4 39.5q0 51 -34.5 74.5t-108.5 23.5q-119 0 -189.5 -67.5t-70.5 -178.5q0 -82 44 -139t130 -110l276 -168q100 -61 141.5 -128t41.5 -171q0 -106 -49.5 -185.5t-133.5 -154.5 l-37 30q60 49 86.5 99.5t26.5 107.5q0 70 -27.5 114t-95.5 87l-76 45q-152 90 -223.5 135t-116.5 82q-63 63 -99 124.5t-36 151.5z" />
<glyph unicode="&#xa8;" d="M-10 1356q0 35 35.5 69.5t68.5 34.5q35 0 70 -34.5t35 -69.5q0 -33 -35 -69t-70 -36q-33 0 -68.5 36t-35.5 69zM371 1356q0 35 35.5 69.5t68.5 34.5q35 0 70 -34.5t35 -69.5q0 -33 -35 -69t-70 -36q-33 0 -68.5 36t-35.5 69z" />
<glyph unicode="&#xa9;" horiz-adv-x="1705" d="M82 733q0 154 59.5 295t167.5 250q109 109 250 168t295 59t295 -59.5t250 -167.5q109 -109 168 -250t59 -295t-59.5 -295t-167.5 -250q-109 -109 -250 -168t-295 -59t-295 59.5t-250 167.5q-109 109 -168 250.5t-59 294.5zM143 733q0 -143 54.5 -272t154.5 -230 q100 -100 229.5 -154t272.5 -54t272 54t230 154q100 100 154.5 229.5t54.5 272.5t-54.5 272.5t-154.5 229.5t-229.5 154.5t-272.5 54.5t-272 -54.5t-230 -154.5q-100 -100 -154.5 -229t-54.5 -273zM428 739q0 129 59.5 237.5t163 171t226.5 62.5q33 0 67.5 -9t63.5 -19 q47 -18 69 -19q18 0 26.5 4t15.5 11.5t9 9.5h33v-266h-33q-27 131 -89 191.5t-175 60.5q-162 0 -218 -120t-56 -315q0 -223 64.5 -324.5t209.5 -101.5q96 0 150.5 32t81 85t49.5 145h33v-282h-33q-14 16 -23.5 21t-25.5 5q-23 0 -88 -18q-102 -27 -140 -27q-168 0 -297 123 q-143 147 -143 342z" />
<glyph unicode="&#xab;" horiz-adv-x="833" d="M113 446q0 125 85 203t242 99l11 -43q-99 -23 -145 -84.5t-46 -174.5t46 -174t145 -84l-11 -43q-158 20 -242.5 98.5t-84.5 202.5zM385 446q0 125 85 203t243 99l10 -43q-98 -23 -144.5 -84.5t-46.5 -174.5t46.5 -174t144.5 -84l-10 -43q-158 20 -243 98.5t-85 202.5z " />
<glyph unicode="&#xad;" horiz-adv-x="757" d="M178 369v155h402v-155h-402z" />
<glyph unicode="&#xae;" horiz-adv-x="1003" d="M111 1114q0 106 53 195.5t142 142.5t196 53q106 0 195 -53t142.5 -142t53.5 -196q0 -106 -53.5 -195.5t-142.5 -142.5t-195 -53t-195.5 53t-142.5 142.5t-53 195.5zM152 1114q0 -94 48 -174t128 -128t174 -48t174 48t128 128t48 174t-48 174t-128 128t-174 48t-174 -48 t-128 -128t-48 -174zM322 907v29h63v364h-63v29h116h27q10 2 29 2q39 0 63.5 -5t46.5 -21q41 -35 41 -80q0 -63 -70 -90q61 -14 76 -64q6 -25 6 -57l7 -51q4 -16 8 -23.5t14 -7.5q16 0 23 10l16 -2l4 -6l-2 -14q-2 -2 -18 -11q-12 -6 -37 -6q-45 0 -65.5 21.5t-24.5 74.5 l-4 54q-2 35 -18.5 50t-51.5 15h-47v-182h63v-29h-202zM461 1147h41q33 0 46 18.5t13 59.5q0 43 -17.5 60.5t-56.5 17.5h-20h-6v-156z" />
<glyph unicode="&#xaf;" d="M-12 1223v84h594v-84h-594z" />
<glyph unicode="&#xb1;" horiz-adv-x="1214" d="M104 -10v57h1004v-57h-1004zM104 528v58h471v407h62v-407h471v-58h-471v-403h-62v403h-471z" />
<glyph unicode="&#xb4;" d="M178 1120l203 262q99 125 158 125q29 0 49 -20q20 -18 20 -43q0 -31 -26.5 -67t-71.5 -66l-119 -82q-39 -25 -160 -109h-53z" />
<glyph unicode="&#xb6;" horiz-adv-x="1214" d="M43 1032q0 125 63.5 226.5t172.5 150.5q84 37 164.5 48t199.5 11h533v-49h-160v-1773q2 -49 20.5 -75t66.5 -38t146 -20v-50q-156 12 -420 13q-283 0 -450 -13v48q92 4 139 16t66.5 39.5t17.5 79.5v938q-82 2 -152.5 12t-146.5 37q-115 47 -187.5 157.5t-72.5 241.5z M653 -352q-4 -102 82 -97q74 14 84 105v1763h-166v-1771z" />
<glyph unicode="&#xb7;" d="M166 541q0 49 35 83.5t84 34.5t83.5 -34.5t34.5 -83.5t-34.5 -84t-83.5 -35t-84 35t-35 84z" />
<glyph unicode="&#xb8;" d="M166 -436l29 41q37 -27 65.5 -41.5t71.5 -14.5q94 0 94 152q0 125 -86 125q-29 0 -45 -7t-39 -24l-41 45l162 170h69l-129 -133q35 10 68 10q37 0 79 -20.5t70.5 -63.5t28.5 -104q0 -90 -63.5 -147.5t-161.5 -57.5q-45 0 -90 18.5t-82 51.5z" />
<glyph unicode="&#xbb;" horiz-adv-x="833" d="M111 188q98 23 144 84.5t46 173.5q0 113 -46 174.5t-144 84.5l10 43q158 -20 243 -98.5t85 -203.5t-85 -202.5t-243 -98.5zM383 188q98 23 144 84.5t46 173.5q0 113 -46 174.5t-144 84.5l10 43q158 -20 243 -98.5t85 -203.5t-85 -202.5t-243 -98.5z" />
<glyph unicode="&#xbf;" horiz-adv-x="833" d="M129 -287q0 197 219 527q123 182 117 323l51 2q6 -84 -24.5 -169t-85.5 -187q-55 -109 -85 -215.5t-30 -233.5q0 -168 28.5 -245.5t92.5 -77.5q47 0 79.5 20.5t32.5 50.5q0 23 -22 60q-27 49 -27 74q0 35 26.5 58.5t65.5 23.5q47 0 76 -26t29 -69q0 -53 -35 -110.5 t-97.5 -94t-140.5 -36.5q-127 0 -198.5 87t-71.5 238zM350 807q0 49 35 84t84 35t84 -35t35 -84t-35 -84t-84 -35t-84 35t-35 84z" />
<glyph unicode="&#xc0;" horiz-adv-x="1517" d="M-18 -10v49q113 -2 160.5 25.5t74.5 111.5l508 1329h61l41 -102l467 -1227q23 -53 45.5 -80.5t66.5 -42t124 -14.5v-49q-197 4 -313 4q-104 0 -338 -4v49q111 0 150.5 13.5t39.5 45.5q0 16 -18 72l-121 319q-27 88 -121 99h-328l11 49h303q57 -2 57 39q0 23 -10 43 l-183 475l-391 -1026q-16 -39 -16 -59q0 -41 43 -53.5t147 -16.5v-49q-129 10 -231 10q-100 0 -229 -10zM301 1928q0 27 26.5 54.5t53.5 27.5q41 0 112 -86l256 -312h-55l-352 252q-12 10 -26.5 28.5t-14.5 35.5z" />
<glyph unicode="&#xc1;" horiz-adv-x="1517" d="M-18 -10v49q113 -2 160.5 25.5t74.5 111.5l508 1329h61l41 -102l467 -1227q23 -53 45.5 -80.5t66.5 -42t124 -14.5v-49q-197 4 -313 4q-104 0 -338 -4v49q111 0 150.5 13.5t39.5 45.5q0 16 -18 72l-121 319q-27 88 -121 99h-328l11 49h303q57 -2 57 39q0 23 -10 43 l-183 475l-391 -1026q-16 -39 -16 -59q0 -41 43 -53.5t147 -16.5v-49q-129 10 -231 10q-100 0 -229 -10zM706 1612l203 262q99 125 158 125q29 0 49 -20q20 -18 20 -43q0 -31 -26.5 -67t-71.5 -66l-119 -82q-39 -25 -160 -109h-53z" />
<glyph unicode="&#xc2;" horiz-adv-x="1517" d="M-18 -10v49q113 -2 160.5 25.5t74.5 111.5l508 1329h61l41 -102l467 -1227q23 -53 45.5 -80.5t66.5 -42t124 -14.5v-49q-197 4 -313 4q-104 0 -338 -4v49q111 0 150.5 13.5t39.5 45.5q0 16 -18 72l-121 319q-27 88 -121 99h-328l11 49h303q57 -2 57 39q0 23 -10 43 l-183 475l-391 -1026q-16 -39 -16 -59q0 -41 43 -53.5t147 -16.5v-49q-129 10 -231 10q-100 0 -229 -10zM434 1612l267 363h63l289 -363h-53l-277 213l-235 -213h-54z" />
<glyph unicode="&#xc3;" horiz-adv-x="1517" d="M-18 -10v49q113 -2 160.5 25.5t74.5 111.5l508 1329h61l41 -102l467 -1227q23 -53 45.5 -80.5t66.5 -42t124 -14.5v-49q-197 4 -313 4q-104 0 -338 -4v49q111 0 150.5 13.5t39.5 45.5q0 16 -18 72l-121 319q-27 88 -121 99h-328l11 49h303q57 -2 57 39q0 23 -10 43 l-183 475l-391 -1026q-16 -39 -16 -59q0 -41 43 -53.5t147 -16.5v-49q-129 10 -231 10q-100 0 -229 -10zM430 1661q12 92 73.5 158t135.5 66q43 0 121 -37l24 -13q45 -23 76 -35t59 -12q49 0 84 36t41 67h49q-4 -37 -28.5 -90.5t-72.5 -96.5t-118 -43q-39 0 -71.5 12.5 t-79.5 39.5q-4 2 -23 10q-35 18 -56.5 26.5t-45.5 8.5q-45 0 -78 -27t-41 -70h-49z" />
<glyph unicode="&#xc4;" horiz-adv-x="1517" d="M-18 -10v49q113 -2 160.5 25.5t74.5 111.5l508 1329h61l41 -102l467 -1227q23 -53 45.5 -80.5t66.5 -42t124 -14.5v-49q-197 4 -313 4q-104 0 -338 -4v49q111 0 150.5 13.5t39.5 45.5q0 16 -18 72l-121 319q-27 88 -121 99h-328l11 49h303q57 -2 57 39q0 23 -10 43 l-183 475l-391 -1026q-16 -39 -16 -59q0 -41 43 -53.5t147 -16.5v-49q-129 10 -231 10q-100 0 -229 -10zM457 1807q0 35 35.5 69.5t68.5 34.5q35 0 70 -34.5t35 -69.5q0 -33 -35 -69t-70 -36q-33 0 -68.5 36t-35.5 69zM838 1807q0 35 35.5 69.5t68.5 34.5q35 0 70 -34.5 t35 -69.5q0 -33 -35 -69t-70 -36q-33 0 -68.5 36t-35.5 69z" />
<glyph unicode="&#xc5;" horiz-adv-x="1517" d="M-18 -10v49q113 -2 160.5 25.5t74.5 111.5l508 1329h61l41 -102l467 -1227q23 -53 45.5 -80.5t66.5 -42t124 -14.5v-49q-197 4 -313 4q-104 0 -338 -4v49q111 0 150.5 13.5t39.5 45.5q0 16 -18 72l-121 319q-27 88 -121 99h-328l11 49h303q57 -2 57 39q0 23 -10 43 l-183 475l-391 -1026q-16 -39 -16 -59q0 -41 43 -53.5t147 -16.5v-49q-129 10 -231 10q-100 0 -229 -10zM524 1823q0 59 32 104.5t78 69t89 23.5q41 0 88 -23.5t78.5 -68.5t31.5 -105q0 -76 -60.5 -135t-137.5 -59q-78 0 -138.5 59t-60.5 135zM635 1823q0 -82 20.5 -116.5 t67.5 -34.5t67.5 34.5t20.5 116.5q0 84 -19.5 119t-68.5 35t-68.5 -35t-19.5 -119z" />
<glyph unicode="&#xc6;" horiz-adv-x="1994" d="M-88 -8v49q113 -2 166 25.5t102 113.5l703 1202l28 -41l-684 -1173q-31 -45 -30 -74q0 -29 41 -40t135 -13v-49q-129 10 -232 10q-102 0 -229 -10zM512 594l31 49h368l2 -49h-401zM717 -10v49q119 -2 173 29.5t54 103.5l-2 1116q0 72 -53 103.5t-172 27.5v49l1155 -2 q25 -219 115 -471h-43q-176 424 -445 424h-330v-1247q0 -53 20.5 -81t72 -40t149.5 -14l201 -2q135 4 246.5 111.5t193.5 312.5l43 4q-90 -264 -108 -473h-1270zM1235 762v35h68q70 0 114 12q47 12 82 47q31 31 53 92q23 59 43 150h29q-29 -166 -29 -322q0 -166 29 -315h-31 q-14 57 -24 114q-12 57 -39 99q-27 41 -74 63q-43 16 -121 21z" />
<glyph unicode="&#xc7;" horiz-adv-x="1478" d="M147 725q0 152 55.5 294t155.5 251q106 115 242.5 175t288.5 60q55 0 104 -13t113 -36q33 -12 64.5 -21.5t54.5 -9.5q35 0 49 9.5t37 33.5h45v-430h-41q-47 203 -143.5 310.5t-301.5 107.5q-104 0 -182 -33q-145 -63 -211 -215q-33 -80 -47 -155q-27 -131 -27 -328 q0 -401 129 -573q57 -74 140.5 -109t197.5 -35q160 0 252 54.5t137.5 143.5t83.5 240h41v-456h-45q-20 23 -36.5 33t-49.5 10q-35 0 -153 -31q-80 -20 -132.5 -31.5t-93.5 -11.5q-281 0 -485 201q-242 240 -242 565zM680 -499l29 41q37 -27 65.5 -41.5t71.5 -14.5 q94 0 94 152q0 125 -86 125q-29 0 -45 -7t-39 -24l-41 45l131 137l6 -14q2 6 12.5 12.5t26.5 6.5q14 0 21 -2l-95 -103q35 10 68 10q37 0 79 -20.5t70.5 -63.5t28.5 -104q0 -90 -63.5 -147.5t-161.5 -57.5q-45 0 -90 18.5t-82 51.5z" />
<glyph unicode="&#xc8;" horiz-adv-x="1441" d="M51 -10v49q119 -2 173.5 29.5t54.5 103.5l-3 1116q-2 72 -55 103.5t-170 27.5v49l1155 -2q25 -219 115 -471h-43q-172 416 -444 424h-330v-1247q0 -53 20.5 -81t71.5 -40t149 -14l201 -2q135 4 247 111.5t193 312.5l44 4q-90 -264 -109 -473h-1270zM295 1928 q0 27 26.5 54.5t53.5 27.5q41 0 112 -86l256 -312h-55l-352 252q-12 10 -26.5 28.5t-14.5 35.5zM553 762v35h68q70 0 114 12q47 12 82 47q31 31 53 92q23 59 43 150h29q-29 -166 -29 -322q0 -166 29 -315h-31q-14 57 -24 114q-12 57 -39 99q-27 41 -74 63q-43 16 -121 21z " />
<glyph unicode="&#xc9;" horiz-adv-x="1441" d="M51 -10v49q119 -2 173.5 29.5t54.5 103.5l-3 1116q-2 72 -55 103.5t-170 27.5v49l1155 -2q25 -219 115 -471h-43q-172 416 -444 424h-330v-1247q0 -53 20.5 -81t71.5 -40t149 -14l201 -2q135 4 247 111.5t193 312.5l44 4q-90 -264 -109 -473h-1270zM553 762v35h68 q70 0 114 12q47 12 82 47q31 31 53 92q23 59 43 150h29q-29 -166 -29 -322q0 -166 29 -315h-31q-14 57 -24 114q-12 57 -39 99q-27 41 -74 63q-43 16 -121 21zM700 1612l203 262q99 125 158 125q29 0 49 -20q20 -18 20 -43q0 -31 -26.5 -67t-71.5 -66l-119 -82 q-39 -25 -160 -109h-53z" />
<glyph unicode="&#xca;" horiz-adv-x="1441" d="M51 -10v49q119 -2 173.5 29.5t54.5 103.5l-3 1116q-2 72 -55 103.5t-170 27.5v49l1155 -2q25 -219 115 -471h-43q-172 416 -444 424h-330v-1247q0 -53 20.5 -81t71.5 -40t149 -14l201 -2q135 4 247 111.5t193 312.5l44 4q-90 -264 -109 -473h-1270zM428 1612l267 363h63 l289 -363h-53l-277 213l-235 -213h-54zM553 762v35h68q70 0 114 12q47 12 82 47q31 31 53 92q23 59 43 150h29q-29 -166 -29 -322q0 -166 29 -315h-31q-14 57 -24 114q-12 57 -39 99q-27 41 -74 63q-43 16 -121 21z" />
<glyph unicode="&#xcb;" horiz-adv-x="1441" d="M51 -10v49q119 -2 173.5 29.5t54.5 103.5l-3 1116q-2 72 -55 103.5t-170 27.5v49l1155 -2q25 -219 115 -471h-43q-172 416 -444 424h-330v-1247q0 -53 20.5 -81t71.5 -40t149 -14l201 -2q135 4 247 111.5t193 312.5l44 4q-90 -264 -109 -473h-1270zM451 1807 q0 35 35.5 69.5t68.5 34.5q35 0 70 -34.5t35 -69.5q0 -33 -35 -69t-70 -36q-33 0 -68.5 36t-35.5 69zM553 762v35h68q70 0 114 12q47 12 82 47q31 31 53 92q23 59 43 150h29q-29 -166 -29 -322q0 -166 29 -315h-31q-14 57 -24 114q-12 57 -39 99q-27 41 -74 63 q-43 16 -121 21zM832 1807q0 35 35.5 69.5t68.5 34.5q35 0 70 -34.5t35 -69.5q0 -33 -35 -69t-70 -36q-33 0 -68.5 36t-35.5 69z" />
<glyph unicode="&#xcc;" horiz-adv-x="794" d="M57 -10v49h228v1380h-228v49h680v-49h-227v-1380h227v-49h-680zM106 1855q0 27 27 54.5t53 27.5q41 0 113 -86l256 -311h-55l-353 252q-12 10 -26.5 28.5t-14.5 34.5z" />
<glyph unicode="&#xcd;" horiz-adv-x="794" d="M61 -12v47q92 4 139.5 16t67 40t17.5 79l2 1116q0 74 -53.5 105.5t-170.5 27.5v49q172 -12 343 -12q172 0 337 12v-49q-100 -2 -148 -13t-67.5 -38t-17.5 -82v-1116q2 -49 20.5 -74.5t65.5 -38t145 -20.5v-49q-182 14 -329 14q-141 0 -351 -14zM377 1612l203 262 q99 125 158 125q29 0 49 -20q20 -18 20 -43q0 -31 -26.5 -67t-71.5 -66l-119 -82q-39 -25 -160 -109h-53z" />
<glyph unicode="&#xce;" horiz-adv-x="794" d="M61 -12v47q92 4 139.5 16t67 40t17.5 79l2 1116q0 74 -53.5 105.5t-170.5 27.5v49q172 -12 343 -12q172 0 337 12v-49q-100 -2 -148 -13t-67.5 -38t-17.5 -82v-1116q2 -49 20.5 -74.5t65.5 -38t145 -20.5v-49q-182 14 -329 14q-141 0 -351 -14zM104 1612l267 363h63 l289 -363h-53l-277 213l-235 -213h-54z" />
<glyph unicode="&#xcf;" horiz-adv-x="794" d="M57 -10v49h228v1380h-228v49h680v-49h-227v-1380h227v-49h-680zM102 1735q0 34 36 69t69 35q35 0 69.5 -35t34.5 -69q0 -33 -34.5 -69t-69.5 -36q-33 0 -69 36t-36 69zM483 1735q0 34 36 69t69 35q35 0 69.5 -35t34.5 -69q0 -33 -34.5 -69t-69.5 -36q-33 0 -69 36t-36 69 z" />
<glyph unicode="&#xd0;" horiz-adv-x="1669" d="M-10 731v49h293l2 502q0 55 -18.5 83t-67.5 39t-148 15v49h391q35 2 111 5.5t119 5.5q61 4 94 4q172 0 320.5 -53.5t248.5 -153.5q90 -92 138.5 -234.5t48.5 -312.5q0 -311 -211 -528q-223 -221 -572 -221q-41 0 -61 2l-96 8q-147 14 -183 12l-342 -12v49 q90 2 137.5 14.5t67 40t19.5 78.5l2 559h-293zM496 174q0 -84 44 -113.5t167 -29.5q127 0 234.5 59.5t186.5 171.5q66 92 102 210t36 249q0 170 -34 315.5t-99 233.5q-127 164 -383 164q-25 0 -82 -4q-72 -8 -119 -49.5t-45 -96.5l-4 -504h307v-49h-307z" />
<glyph unicode="&#xd1;" horiz-adv-x="1478" d="M33 -12v51q100 0 149 12t63.5 40t14.5 81v1114q0 55 -17.5 83t-64.5 38t-145 12v49h454l680 -1095v913q0 53 -14 81t-63.5 40t-149.5 12v51q139 -14 248 -14q104 0 258 14v-51q-129 2 -178 -26.5t-49 -106.5v-1325h-58l-850 1354v-1143q0 -78 49.5 -106.5t178.5 -26.5 v-51q-154 14 -258 14q-109 0 -248 -14zM442 1634q12 92 73.5 158t135.5 66q43 0 121 -37l24 -13q45 -23 76 -35t59 -12q49 0 84 36t41 67h49q-4 -37 -28.5 -90.5t-72.5 -96.5t-118 -43q-39 0 -71.5 12.5t-79.5 39.5q-4 2 -23 10q-35 18 -56.5 26.5t-45.5 8.5q-45 0 -78 -27 t-41 -70h-49z" />
<glyph unicode="&#xd2;" horiz-adv-x="1703" d="M129 731q0 154 60.5 296t172.5 257q102 104 232.5 162.5t257.5 58.5q135 0 265 -58t235 -165q109 -109 166 -252t57 -299q0 -141 -55.5 -281.5t-153.5 -248.5q-104 -117 -237.5 -179.5t-276.5 -62.5q-147 0 -282.5 61.5t-235.5 174.5q-96 109 -150.5 249t-54.5 287z M385 731q0 -192 25.5 -325.5t78.5 -219.5q57 -90 145.5 -134t217.5 -44t217 44t145 134q53 86 79 219.5t26 325.5q0 330 -88 504q-113 221 -379 221t-379 -221q-88 -174 -88 -504zM561 1855q0 33 23.5 57.5t56.5 24.5q35 0 53 -18q2 -2 60 -68l256 -311h-56l-352 252 q-18 12 -29.5 26.5t-11.5 36.5z" />
<glyph unicode="&#xd3;" horiz-adv-x="1703" d="M129 731q0 154 60.5 296t172.5 257q102 104 232.5 162.5t257.5 58.5q135 0 265 -58t235 -165q109 -109 166 -252t57 -299q0 -141 -55.5 -281.5t-153.5 -248.5q-104 -117 -237.5 -179.5t-276.5 -62.5q-147 0 -282.5 61.5t-235.5 174.5q-96 109 -150.5 249t-54.5 287z M385 731q0 -192 25.5 -325.5t78.5 -219.5q57 -90 145.5 -134t217.5 -44t217 44t145 134q53 86 79 219.5t26 325.5q0 330 -88 504q-113 221 -379 221t-379 -221q-88 -174 -88 -504zM743 1540l256 311q58 66 60 68q18 18 53 18q33 0 56.5 -24.5t23.5 -57.5q0 -23 -11.5 -37 t-29.5 -26l-352 -252h-56z" />
<glyph unicode="&#xd4;" horiz-adv-x="1703" d="M135 733q0 215 95.5 392.5t259 278.5t364.5 101q203 0 367.5 -101t259 -278.5t94.5 -392.5q0 -211 -96.5 -388t-262 -281.5t-362.5 -104.5q-195 0 -360.5 104.5t-262 281.5t-96.5 388zM389 731q0 -262 48 -419.5t151.5 -229.5t277.5 -72q162 0 260.5 75t145.5 232.5 t47 413.5q0 350 -103.5 535.5t-349.5 185.5q-190 0 -295.5 -92t-143.5 -249t-38 -380zM559 1612l267 363h63l289 -363h-53l-277 213l-235 -213h-54z" />
<glyph unicode="&#xd5;" horiz-adv-x="1703" d="M129 731q0 154 60.5 296t172.5 257q102 104 232.5 162.5t257.5 58.5q135 0 265 -58t235 -165q109 -109 166 -252t57 -299q0 -141 -55.5 -281.5t-153.5 -248.5q-104 -117 -237.5 -179.5t-276.5 -62.5q-147 0 -282.5 61.5t-235.5 174.5q-96 109 -150.5 249t-54.5 287z M385 731q0 -192 25.5 -325.5t78.5 -219.5q57 -90 145.5 -134t217.5 -44t217 44t145 134q53 86 79 219.5t26 325.5q0 330 -88 504q-113 221 -379 221t-379 -221q-88 -174 -88 -504zM520 1589q12 92 73.5 157.5t135.5 65.5q43 0 121 -36l24 -13q45 -23 76 -35t60 -12 q49 0 83.5 36t41.5 67h49q-4 -37 -29 -90.5t-73 -96.5t-117 -43q-39 0 -72 12.5t-80 38.5l-22 11q-35 18 -56.5 26.5t-46.5 8.5q-45 0 -77.5 -27t-41.5 -70h-49z" />
<glyph unicode="&#xd6;" horiz-adv-x="1703" d="M129 731q0 154 60.5 296t172.5 257q102 104 232.5 162.5t257.5 58.5q135 0 265 -58t235 -165q109 -109 166 -252t57 -299q0 -141 -55.5 -281.5t-153.5 -248.5q-104 -117 -237.5 -179.5t-276.5 -62.5q-147 0 -282.5 61.5t-235.5 174.5q-96 109 -150.5 249t-54.5 287z M385 731q0 -192 25.5 -325.5t78.5 -219.5q57 -90 145.5 -134t217.5 -44t217 44t145 134q53 86 79 219.5t26 325.5q0 330 -88 504q-113 221 -379 221t-379 -221q-88 -174 -88 -504zM557 1735q0 43 30.5 73.5t74.5 30.5q43 0 73.5 -30.5t30.5 -73.5t-30.5 -74t-73.5 -31 t-74 31t-31 74zM938 1735q0 43 30.5 73.5t73.5 30.5t74 -30.5t31 -73.5t-31 -74t-74 -31t-73.5 31t-30.5 74z" />
<glyph unicode="&#xd7;" horiz-adv-x="1214" d="M139 68l424 424l-424 423l41 43l426 -426l426 426l41 -43l-424 -423l424 -424l-41 -43l-426 426l-426 -426z" />
<glyph unicode="&#xd8;" horiz-adv-x="1703" d="M135 733q0 215 95.5 392.5t259 278.5t364.5 101q131 0 246 -43l90 183l51 -27l-88 -178q193 -90 307.5 -278.5t114.5 -428.5q0 -211 -96.5 -388t-262 -281.5t-362.5 -104.5q-201 0 -373 111l-67 -140l-49 29l71 145q-139 106 -220 271.5t-81 357.5zM389 731 q0 -362 94 -530l590 1206q-90 45 -207 45q-190 0 -295.5 -92t-143.5 -249t-38 -380zM520 147q55 -72 140 -104.5t206 -32.5q162 0 260.5 75t145.5 232.5t47 413.5q0 238 -46 399.5t-151 243.5z" />
<glyph unicode="&#xd9;" horiz-adv-x="1554" d="M37 1419v49q145 -8 323 -8q201 0 357 8v-49q-100 -4 -149.5 -15t-67 -38t-15.5 -80v-846q0 -227 78 -329.5t250 -102.5q123 0 206 36t140 114q47 61 65.5 130.5t18.5 188.5v809q-2 53 -16.5 81t-62.5 40t-148 12v51q139 -14 248 -14q104 0 258 14v-51 q-129 2 -178.5 -26.5t-49.5 -106.5v-850q0 -94 -20.5 -164.5t-75.5 -144.5q-125 -168 -422 -168q-256 0 -386 127t-130 375l2 825q-4 74 -57 105.5t-168 27.5zM428 1928q0 27 26.5 54.5t53.5 27.5q41 0 112 -86l256 -312h-55l-352 252q-12 10 -26.5 28.5t-14.5 35.5z" />
<glyph unicode="&#xda;" horiz-adv-x="1554" d="M37 1419v49q145 -8 323 -8q201 0 357 8v-49q-100 -4 -149.5 -15t-67 -38t-15.5 -80v-846q0 -227 78 -329.5t250 -102.5q123 0 206 36t140 114q47 61 65.5 130.5t18.5 188.5v809q-2 53 -16.5 81t-62.5 40t-148 12v51q139 -14 248 -14q104 0 258 14v-51 q-129 2 -178.5 -26.5t-49.5 -106.5v-850q0 -94 -20.5 -164.5t-75.5 -144.5q-125 -168 -422 -168q-256 0 -386 127t-130 375l2 825q-4 74 -57 105.5t-168 27.5zM833 1612l203 262q99 125 158 125q29 0 49 -20q20 -18 20 -43q0 -31 -26.5 -67t-71.5 -66l-119 -82 q-39 -25 -160 -109h-53z" />
<glyph unicode="&#xdb;" horiz-adv-x="1554" d="M37 1419v49q145 -8 323 -8q201 0 357 8v-49q-100 -4 -149.5 -15t-67 -38t-15.5 -80v-846q0 -227 78 -329.5t250 -102.5q123 0 206 36t140 114q47 61 65.5 130.5t18.5 188.5v809q-2 53 -16.5 81t-62.5 40t-148 12v51q139 -14 248 -14q104 0 258 14v-51 q-129 2 -178.5 -26.5t-49.5 -106.5v-850q0 -94 -20.5 -164.5t-75.5 -144.5q-125 -168 -422 -168q-256 0 -386 127t-130 375l2 825q-4 74 -57 105.5t-168 27.5zM561 1612l267 363h63l289 -363h-53l-277 213l-235 -213h-54z" />
<glyph unicode="&#xdc;" horiz-adv-x="1554" d="M37 1419v49q145 -8 323 -8q201 0 357 8v-49q-100 -4 -149.5 -15t-67 -38t-15.5 -80v-846q0 -227 78 -329.5t250 -102.5q123 0 206 36t140 114q47 61 65.5 130.5t18.5 188.5v809q-2 53 -16.5 81t-62.5 40t-148 12v51q139 -14 248 -14q104 0 258 14v-51 q-129 2 -178.5 -26.5t-49.5 -106.5v-850q0 -94 -20.5 -164.5t-75.5 -144.5q-125 -168 -422 -168q-256 0 -386 127t-130 375l2 825q-4 74 -57 105.5t-168 27.5zM584 1807q0 35 35.5 69.5t68.5 34.5q35 0 70 -34.5t35 -69.5q0 -33 -35 -69t-70 -36q-33 0 -68.5 36t-35.5 69z M965 1807q0 35 35.5 69.5t68.5 34.5q35 0 70 -34.5t35 -69.5q0 -33 -35 -69t-70 -36q-33 0 -68.5 36t-35.5 69z" />
<glyph unicode="&#xdd;" horiz-adv-x="1441" d="M-14 1419v49q188 -10 336 -10q141 0 311 10v-49q-152 8 -152 -57q0 -27 25 -68l352 -610l-2 -512q2 -49 20.5 -74.5t66.5 -38t147 -20.5v-49q-182 14 -330 14q-141 0 -350 -14v47q92 4 139 16.5t66.5 40t17.5 78.5v442l-379 668q-82 143 -268 137zM745 1612l203 262 q99 125 158 125q29 0 49 -20q20 -18 20 -43q0 -31 -26.5 -67t-71.5 -66l-119 -82q-39 -25 -160 -109h-53zM840 756l288 534q18 37 19 62q0 76 -166 67v49q123 -6 244 -6q113 0 219 6v-49q-92 4 -154.5 -28.5t-109.5 -108.5l-310 -577z" />
<glyph unicode="&#xde;" horiz-adv-x="1327" d="M57 -12v47q92 4 139.5 17.5t66 41t16.5 78.5l2 1116q0 74 -53.5 105.5t-170.5 27.5v49q172 -12 342 -12q172 0 338 12v-49q-100 -2 -148 -13t-67.5 -38t-17.5 -82v-1114q2 -49 21.5 -74.5t66.5 -38t145 -18.5v-49q-158 10 -288 10q-188 0 -392 -16zM561 436v45 q74 -4 98 -4q152 0 232 89t80 259q0 135 -34 210t-110.5 108t-214.5 33h-51v45l62 2q35 0 51 2q156 4 281.5 -46.5t198.5 -142.5t73 -211q0 -121 -82 -212t-215 -138t-283 -47q-47 0 -86 8z" />
<glyph unicode="&#xdf;" horiz-adv-x="1304" d="M-10 -10v49q131 -2 179 24.5t48 98.5l-4 917q0 113 23.5 201t74.5 170q70 109 184.5 164t229.5 55q160 0 249 -80t89 -223q0 -131 -96 -238l-84 -92q-27 -25 -40.5 -45t-13.5 -51q0 -68 84 -143l197 -170q154 -131 154 -297q0 -117 -58.5 -200t-151.5 -126t-194 -43 q-127 0 -229.5 52.5t-102.5 158.5q0 68 33 109t88 41q47 0 75 -27t28 -74q0 -43 -23 -80q-16 -23 -16 -49q0 -47 43 -63.5t118 -16.5q217 0 218 215q0 84 -37 140.5t-119 126.5l-180 159q-59 53 -85 98.5t-26 96.5t25.5 93t85.5 85l98 78q78 59 114 125.5t36 148.5 q0 109 -68 170.5t-184 61.5q-162 0 -236 -112t-74 -298v-1210h-452z" />
<glyph unicode="&#xe0;" horiz-adv-x="1517" d="M-18 -10v49q113 -2 160.5 25.5t74.5 111.5l508 1329h61l41 -102l467 -1227q23 -53 45.5 -80.5t66.5 -42t124 -14.5v-49q-197 4 -313 4q-104 0 -338 -4v49q111 0 150.5 13.5t39.5 45.5q0 16 -18 72l-121 319q-27 88 -121 99h-328l11 49h303q57 -2 57 39q0 23 -10 43 l-183 475l-391 -1026q-16 -39 -16 -59q0 -41 43 -53.5t147 -16.5v-49q-129 10 -231 10q-100 0 -229 -10zM301 1928q0 27 26.5 54.5t53.5 27.5q41 0 112 -86l256 -312h-55l-352 252q-12 10 -26.5 28.5t-14.5 35.5z" />
<glyph unicode="&#xe1;" horiz-adv-x="1517" d="M-18 -10v49q113 -2 160.5 25.5t74.5 111.5l508 1329h61l41 -102l467 -1227q23 -53 45.5 -80.5t66.5 -42t124 -14.5v-49q-197 4 -313 4q-104 0 -338 -4v49q111 0 150.5 13.5t39.5 45.5q0 16 -18 72l-121 319q-27 88 -121 99h-328l11 49h303q57 -2 57 39q0 23 -10 43 l-183 475l-391 -1026q-16 -39 -16 -59q0 -41 43 -53.5t147 -16.5v-49q-129 10 -231 10q-100 0 -229 -10zM706 1612l203 262q99 125 158 125q29 0 49 -20q20 -18 20 -43q0 -31 -26.5 -67t-71.5 -66l-119 -82q-39 -25 -160 -109h-53z" />
<glyph unicode="&#xe2;" horiz-adv-x="1517" d="M-18 -10v49q113 -2 160.5 25.5t74.5 111.5l508 1329h61l41 -102l467 -1227q23 -53 45.5 -80.5t66.5 -42t124 -14.5v-49q-197 4 -313 4q-104 0 -338 -4v49q111 0 150.5 13.5t39.5 45.5q0 16 -18 72l-121 319q-27 88 -121 99h-328l11 49h303q57 -2 57 39q0 23 -10 43 l-183 475l-391 -1026q-16 -39 -16 -59q0 -41 43 -53.5t147 -16.5v-49q-129 10 -231 10q-100 0 -229 -10zM434 1612l267 363h63l289 -363h-53l-277 213l-235 -213h-54z" />
<glyph unicode="&#xe3;" horiz-adv-x="1517" d="M-18 -10v49q113 -2 160.5 25.5t74.5 111.5l508 1329h61l41 -102l467 -1227q23 -53 45.5 -80.5t66.5 -42t124 -14.5v-49q-197 4 -313 4q-104 0 -338 -4v49q111 0 150.5 13.5t39.5 45.5q0 16 -18 72l-121 319q-27 88 -121 99h-328l11 49h303q57 -2 57 39q0 23 -10 43 l-183 475l-391 -1026q-16 -39 -16 -59q0 -41 43 -53.5t147 -16.5v-49q-129 10 -231 10q-100 0 -229 -10zM430 1661q12 92 73.5 158t135.5 66q43 0 121 -37l24 -13q45 -23 76 -35t59 -12q49 0 84 36t41 67h49q-4 -37 -28.5 -90.5t-72.5 -96.5t-118 -43q-39 0 -71.5 12.5 t-79.5 39.5q-4 2 -23 10q-35 18 -56.5 26.5t-45.5 8.5q-45 0 -78 -27t-41 -70h-49z" />
<glyph unicode="&#xe4;" horiz-adv-x="1517" d="M-18 -10v49q113 -2 160.5 25.5t74.5 111.5l508 1329h61l41 -102l467 -1227q23 -53 45.5 -80.5t66.5 -42t124 -14.5v-49q-197 4 -313 4q-104 0 -338 -4v49q111 0 150.5 13.5t39.5 45.5q0 16 -18 72l-121 319q-27 88 -121 99h-328l11 49h303q57 -2 57 39q0 23 -10 43 l-183 475l-391 -1026q-16 -39 -16 -59q0 -41 43 -53.5t147 -16.5v-49q-129 10 -231 10q-100 0 -229 -10zM457 1807q0 35 35.5 69.5t68.5 34.5q35 0 70 -34.5t35 -69.5q0 -33 -35 -69t-70 -36q-33 0 -68.5 36t-35.5 69zM838 1807q0 35 35.5 69.5t68.5 34.5q35 0 70 -34.5 t35 -69.5q0 -33 -35 -69t-70 -36q-33 0 -68.5 36t-35.5 69z" />
<glyph unicode="&#xe5;" horiz-adv-x="1517" d="M-18 -10v49q113 -2 160.5 25.5t74.5 111.5l508 1329h61l41 -102l467 -1227q23 -53 45.5 -80.5t66.5 -42t124 -14.5v-49q-197 4 -313 4q-104 0 -338 -4v49q111 0 150.5 13.5t39.5 45.5q0 16 -18 72l-121 319q-27 88 -121 99h-328l11 49h303q57 -2 57 39q0 23 -10 43 l-183 475l-391 -1026q-16 -39 -16 -59q0 -41 43 -53.5t147 -16.5v-49q-129 10 -231 10q-100 0 -229 -10zM524 1823q0 59 32 104.5t78 69t89 23.5q41 0 88 -23.5t78.5 -68.5t31.5 -105q0 -76 -60.5 -135t-137.5 -59q-78 0 -138.5 59t-60.5 135zM635 1823q0 -82 20.5 -116.5 t67.5 -34.5t67.5 34.5t20.5 116.5q0 84 -19.5 119t-68.5 35t-68.5 -35t-19.5 -119z" />
<glyph unicode="&#xe6;" horiz-adv-x="1994" d="M-88 -8v49q113 -2 166 25.5t102 113.5l703 1202l28 -41l-684 -1173q-31 -45 -30 -74q0 -29 41 -40t135 -13v-49q-129 10 -232 10q-102 0 -229 -10zM512 594l31 49h368l2 -49h-401zM717 -10v49q119 -2 173 29.5t54 103.5l-2 1116q0 72 -53 103.5t-172 27.5v49l1155 -2 q25 -219 115 -471h-43q-176 424 -445 424h-330v-1247q0 -53 20.5 -81t72 -40t149.5 -14l201 -2q135 4 246.5 111.5t193.5 312.5l43 4q-90 -264 -108 -473h-1270zM1235 762v35h68q70 0 114 12q47 12 82 47q31 31 53 92q23 59 43 150h29q-29 -166 -29 -322q0 -166 29 -315h-31 q-14 57 -24 114q-12 57 -39 99q-27 41 -74 63q-43 16 -121 21z" />
<glyph unicode="&#xe7;" horiz-adv-x="1478" d="M147 725q0 152 55.5 294t155.5 251q106 115 242.5 175t288.5 60q55 0 104 -13t113 -36q33 -12 64.5 -21.5t54.5 -9.5q35 0 49 9.5t37 33.5h45v-430h-41q-47 203 -143.5 310.5t-301.5 107.5q-104 0 -182 -33q-145 -63 -211 -215q-33 -80 -47 -155q-27 -131 -27 -328 q0 -401 129 -573q57 -74 140.5 -109t197.5 -35q160 0 252 54.5t137.5 143.5t83.5 240h41v-456h-45q-20 23 -36.5 33t-49.5 10q-35 0 -153 -31q-80 -20 -132.5 -31.5t-93.5 -11.5q-281 0 -485 201q-242 240 -242 565zM701 -502l29 41q37 -27 65.5 -41.5t71.5 -14.5 q94 0 94 152q0 125 -86 125q-29 0 -45 -7t-39 -24l-41 45l162 170h69l-129 -133q35 10 68 10q37 0 79 -20.5t70.5 -63.5t28.5 -104q0 -90 -63.5 -147.5t-161.5 -57.5q-45 0 -90 18.5t-82 51.5z" />
<glyph unicode="&#xe8;" horiz-adv-x="1441" d="M51 -10v49q119 -2 173.5 29.5t54.5 103.5l-3 1116q-2 72 -55 103.5t-170 27.5v49l1155 -2q25 -219 115 -471h-43q-172 416 -444 424h-330v-1247q0 -53 20.5 -81t71.5 -40t149 -14l201 -2q135 4 247 111.5t193 312.5l44 4q-90 -264 -109 -473h-1270zM295 1928 q0 27 26.5 54.5t53.5 27.5q41 0 112 -86l256 -312h-55l-352 252q-12 10 -26.5 28.5t-14.5 35.5zM553 762v35h68q70 0 114 12q47 12 82 47q31 31 53 92q23 59 43 150h29q-29 -166 -29 -322q0 -166 29 -315h-31q-14 57 -24 114q-12 57 -39 99q-27 41 -74 63q-43 16 -121 21z " />
<glyph unicode="&#xe9;" horiz-adv-x="1441" d="M51 -10v49q119 -2 173.5 29.5t54.5 103.5l-3 1116q-2 72 -55 103.5t-170 27.5v49l1155 -2q25 -219 115 -471h-43q-172 416 -444 424h-330v-1247q0 -53 20.5 -81t71.5 -40t149 -14l201 -2q135 4 247 111.5t193 312.5l44 4q-90 -264 -109 -473h-1270zM553 762v35h68 q70 0 114 12q47 12 82 47q31 31 53 92q23 59 43 150h29q-29 -166 -29 -322q0 -166 29 -315h-31q-14 57 -24 114q-12 57 -39 99q-27 41 -74 63q-43 16 -121 21zM700 1612l203 262q99 125 158 125q29 0 49 -20q20 -18 20 -43q0 -31 -26.5 -67t-71.5 -66l-119 -82 q-39 -25 -160 -109h-53z" />
<glyph unicode="&#xea;" horiz-adv-x="1441" d="M51 -10v49q119 -2 173.5 29.5t54.5 103.5l-3 1116q-2 72 -55 103.5t-170 27.5v49l1155 -2q25 -219 115 -471h-43q-172 416 -444 424h-330v-1247q0 -53 20.5 -81t71.5 -40t149 -14l201 -2q135 4 247 111.5t193 312.5l44 4q-90 -264 -109 -473h-1270zM428 1612l267 363h63 l289 -363h-53l-277 213l-235 -213h-54zM553 762v35h68q70 0 114 12q47 12 82 47q31 31 53 92q23 59 43 150h29q-29 -166 -29 -322q0 -166 29 -315h-31q-14 57 -24 114q-12 57 -39 99q-27 41 -74 63q-43 16 -121 21z" />
<glyph unicode="&#xeb;" horiz-adv-x="1441" d="M51 -10v49q119 -2 173.5 29.5t54.5 103.5l-3 1116q-2 72 -55 103.5t-170 27.5v49l1155 -2q25 -219 115 -471h-43q-172 416 -444 424h-330v-1247q0 -53 20.5 -81t71.5 -40t149 -14l201 -2q135 4 247 111.5t193 312.5l44 4q-90 -264 -109 -473h-1270zM451 1807 q0 35 35.5 69.5t68.5 34.5q35 0 70 -34.5t35 -69.5q0 -33 -35 -69t-70 -36q-33 0 -68.5 36t-35.5 69zM553 762v35h68q70 0 114 12q47 12 82 47q31 31 53 92q23 59 43 150h29q-29 -166 -29 -322q0 -166 29 -315h-31q-14 57 -24 114q-12 57 -39 99q-27 41 -74 63 q-43 16 -121 21zM832 1807q0 35 35.5 69.5t68.5 34.5q35 0 70 -34.5t35 -69.5q0 -33 -35 -69t-70 -36q-33 0 -68.5 36t-35.5 69z" />
<glyph unicode="&#xec;" horiz-adv-x="794" d="M-29 1928q0 27 26.5 54.5t53.5 27.5q41 0 112 -86l256 -312h-55l-352 252q-12 10 -26.5 28.5t-14.5 35.5zM61 -12v47q92 4 139.5 16t67 40t17.5 79l2 1116q0 74 -53.5 105.5t-170.5 27.5v49q172 -12 343 -12q172 0 337 12v-49q-100 -2 -148 -13t-67.5 -38t-17.5 -82 v-1116q2 -49 20.5 -74.5t65.5 -38t145 -20.5v-49q-182 14 -329 14q-141 0 -351 -14z" />
<glyph unicode="&#xed;" horiz-adv-x="794" d="M61 -12v47q92 4 139.5 16t67 40t17.5 79l2 1116q0 74 -53.5 105.5t-170.5 27.5v49q172 -12 343 -12q172 0 337 12v-49q-100 -2 -148 -13t-67.5 -38t-17.5 -82v-1116q2 -49 20.5 -74.5t65.5 -38t145 -20.5v-49q-182 14 -329 14q-141 0 -351 -14zM377 1612l203 262 q99 125 158 125q29 0 49 -20q20 -18 20 -43q0 -31 -26.5 -67t-71.5 -66l-119 -82q-39 -25 -160 -109h-53z" />
<glyph unicode="&#xee;" horiz-adv-x="794" d="M61 -12v47q92 4 139.5 16t67 40t17.5 79l2 1116q0 74 -53.5 105.5t-170.5 27.5v49q172 -12 343 -12q172 0 337 12v-49q-100 -2 -148 -13t-67.5 -38t-17.5 -82v-1116q2 -49 20.5 -74.5t65.5 -38t145 -20.5v-49q-182 14 -329 14q-141 0 -351 -14zM104 1612l267 363h63 l289 -363h-53l-277 213l-235 -213h-54z" />
<glyph unicode="&#xef;" horiz-adv-x="794" d="M61 -12v47q92 4 139.5 16t67 40t17.5 79l2 1116q0 74 -53.5 105.5t-170.5 27.5v49q172 -12 343 -12q172 0 337 12v-49q-100 -2 -148 -13t-67.5 -38t-17.5 -82v-1116q2 -49 20.5 -74.5t65.5 -38t145 -20.5v-49q-182 14 -329 14q-141 0 -351 -14zM127 1807q0 35 35.5 69.5 t68.5 34.5q35 0 70 -34.5t35 -69.5q0 -33 -35 -69t-70 -36q-33 0 -68.5 36t-35.5 69zM508 1807q0 35 35.5 69.5t68.5 34.5q35 0 70 -34.5t35 -69.5q0 -33 -35 -69t-70 -36q-33 0 -68.5 36t-35.5 69z" />
<glyph unicode="&#xf0;" horiz-adv-x="1669" d="M-10 731v49h293l2 502q0 55 -18.5 83t-67.5 39t-148 15v49h391q35 2 111 5.5t119 5.5q61 4 94 4q172 0 320.5 -53.5t248.5 -153.5q90 -92 138.5 -234.5t48.5 -312.5q0 -311 -211 -528q-223 -221 -572 -221q-41 0 -61 2l-96 8q-147 14 -183 12l-342 -12v49 q90 2 137.5 14.5t67 40t19.5 78.5l2 559h-293zM496 174q0 -84 44 -113.5t167 -29.5q127 0 234.5 59.5t186.5 171.5q66 92 102 210t36 249q0 170 -34 315.5t-99 233.5q-127 164 -383 164q-25 0 -82 -4q-72 -8 -119 -49.5t-45 -96.5l-4 -504h307v-49h-307z" />
<glyph unicode="&#xf1;" horiz-adv-x="1478" d="M33 -12v51q100 0 149 12t63.5 40t14.5 81v1114q0 55 -17.5 83t-64.5 38t-145 12v49h454l680 -1095v913q0 53 -14 81t-63.5 40t-149.5 12v51q139 -14 248 -14q104 0 258 14v-51q-129 2 -178 -26.5t-49 -106.5v-1325h-58l-850 1354v-1143q0 -78 49.5 -106.5t178.5 -26.5 v-51q-154 14 -258 14q-109 0 -248 -14zM443 1634q12 92 73.5 158t135.5 66q43 0 121 -37l24 -13q45 -23 76 -35t59 -12q49 0 84 36t41 67h49q-4 -37 -28.5 -90.5t-72.5 -96.5t-118 -43q-39 0 -71.5 12.5t-79.5 39.5q-4 2 -23 10q-35 18 -56.5 26.5t-45.5 8.5q-45 0 -78 -27 t-41 -70h-49z" />
<glyph unicode="&#xf2;" horiz-adv-x="1703" d="M135 733q0 215 95.5 392.5t259 278.5t364.5 101q203 0 367.5 -101t259 -278.5t94.5 -392.5q0 -211 -96.5 -388t-262 -281.5t-362.5 -104.5q-195 0 -360.5 104.5t-262 281.5t-96.5 388zM389 731q0 -262 48 -419.5t151.5 -229.5t277.5 -72q162 0 260.5 75t145.5 232.5 t47 413.5q0 350 -103.5 535.5t-349.5 185.5q-190 0 -295.5 -92t-143.5 -249t-38 -380zM426 1928q0 27 26.5 54.5t53.5 27.5q41 0 112 -86l256 -312h-55l-352 252q-12 10 -26.5 28.5t-14.5 35.5z" />
<glyph unicode="&#xf3;" horiz-adv-x="1703" d="M135 733q0 215 95.5 392.5t259 278.5t364.5 101q203 0 367.5 -101t259 -278.5t94.5 -392.5q0 -211 -96.5 -388t-262 -281.5t-362.5 -104.5q-195 0 -360.5 104.5t-262 281.5t-96.5 388zM389 731q0 -262 48 -419.5t151.5 -229.5t277.5 -72q162 0 260.5 75t145.5 232.5 t47 413.5q0 350 -103.5 535.5t-349.5 185.5q-190 0 -295.5 -92t-143.5 -249t-38 -380zM831 1612l203 262q99 125 158 125q29 0 49 -20q20 -18 20 -43q0 -31 -26.5 -67t-71.5 -66l-119 -82q-39 -25 -160 -109h-53z" />
<glyph unicode="&#xf4;" horiz-adv-x="1703" d="M135 733q0 215 95.5 392.5t259 278.5t364.5 101q203 0 367.5 -101t259 -278.5t94.5 -392.5q0 -211 -96.5 -388t-262 -281.5t-362.5 -104.5q-195 0 -360.5 104.5t-262 281.5t-96.5 388zM389 731q0 -262 48 -419.5t151.5 -229.5t277.5 -72q162 0 260.5 75t145.5 232.5 t47 413.5q0 350 -103.5 535.5t-349.5 185.5q-190 0 -295.5 -92t-143.5 -249t-38 -380zM559 1612l267 363h63l289 -363h-53l-277 213l-235 -213h-54z" />
<glyph unicode="&#xf5;" horiz-adv-x="1703" d="M135 733q0 215 95.5 392.5t259 278.5t364.5 101q203 0 367.5 -101t259 -278.5t94.5 -392.5q0 -211 -96.5 -388t-262 -281.5t-362.5 -104.5q-195 0 -360.5 104.5t-262 281.5t-96.5 388zM389 731q0 -262 48 -419.5t151.5 -229.5t277.5 -72q162 0 260.5 75t145.5 232.5 t47 413.5q0 350 -103.5 535.5t-349.5 185.5q-190 0 -295.5 -92t-143.5 -249t-38 -380zM555 1661q12 92 73.5 158t135.5 66q43 0 121 -37l24 -13q45 -23 76 -35t59 -12q49 0 84 36t41 67h49q-4 -37 -28.5 -90.5t-72.5 -96.5t-118 -43q-39 0 -71.5 12.5t-79.5 39.5 q-4 2 -23 10q-35 18 -56.5 26.5t-45.5 8.5q-45 0 -78 -27t-41 -70h-49z" />
<glyph unicode="&#xf6;" horiz-adv-x="1703" d="M135 733q0 215 95.5 392.5t259 278.5t364.5 101q203 0 367.5 -101t259 -278.5t94.5 -392.5q0 -211 -96.5 -388t-262 -281.5t-362.5 -104.5q-195 0 -360.5 104.5t-262 281.5t-96.5 388zM389 731q0 -262 48 -419.5t151.5 -229.5t277.5 -72q162 0 260.5 75t145.5 232.5 t47 413.5q0 350 -103.5 535.5t-349.5 185.5q-190 0 -295.5 -92t-143.5 -249t-38 -380zM582 1807q0 35 35.5 69.5t68.5 34.5q35 0 70 -34.5t35 -69.5q0 -33 -35 -69t-70 -36q-33 0 -68.5 36t-35.5 69zM963 1807q0 35 35.5 69.5t68.5 34.5q35 0 70 -34.5t35 -69.5 q0 -33 -35 -69t-70 -36q-33 0 -68.5 36t-35.5 69z" />
<glyph unicode="&#xf7;" horiz-adv-x="1214" d="M104 463v57h1004v-57h-1004zM487 166q0 49 35 84t84 35t84 -35t35 -84t-35 -84t-84 -35t-84 35t-35 84zM487 817q0 49 35 84t84 35t84 -35t35 -84t-35 -84t-84 -35t-84 35t-35 84z" />
<glyph unicode="&#xf8;" horiz-adv-x="1703" d="M135 733q0 215 95.5 392.5t259 278.5t364.5 101q131 0 246 -43l90 183l51 -27l-88 -178q193 -90 307.5 -278.5t114.5 -428.5q0 -211 -96.5 -388t-262 -281.5t-362.5 -104.5q-201 0 -373 111l-67 -140l-49 29l71 145q-139 106 -220 271.5t-81 357.5zM389 731 q0 -362 94 -530l590 1206q-90 45 -207 45q-190 0 -295.5 -92t-143.5 -249t-38 -380zM520 147q55 -72 140 -104.5t206 -32.5q162 0 260.5 75t145.5 232.5t47 413.5q0 238 -46 399.5t-151 243.5z" />
<glyph unicode="&#xf9;" horiz-adv-x="1554" d="M37 1419v49q145 -8 323 -8q201 0 357 8v-49q-100 -4 -149.5 -15t-67 -38t-15.5 -80v-846q0 -227 78 -329.5t250 -102.5q123 0 206 36t140 114q47 61 65.5 130.5t18.5 188.5v809q-2 53 -16.5 81t-62.5 40t-148 12v51q139 -14 248 -14q104 0 258 14v-51 q-129 2 -178.5 -26.5t-49.5 -106.5v-850q0 -94 -20.5 -164.5t-75.5 -144.5q-125 -168 -422 -168q-256 0 -386 127t-130 375l2 825q-4 74 -57 105.5t-168 27.5zM428 1928q0 27 26.5 54.5t53.5 27.5q41 0 112 -86l256 -312h-55l-352 252q-12 10 -26.5 28.5t-14.5 35.5z" />
<glyph unicode="&#xfa;" horiz-adv-x="1554" d="M37 1419v49q145 -8 323 -8q201 0 357 8v-49q-100 -4 -149.5 -15t-67 -38t-15.5 -80v-846q0 -227 78 -329.5t250 -102.5q123 0 206 36t140 114q47 61 65.5 130.5t18.5 188.5v809q-2 53 -16.5 81t-62.5 40t-148 12v51q139 -14 248 -14q104 0 258 14v-51 q-129 2 -178.5 -26.5t-49.5 -106.5v-850q0 -94 -20.5 -164.5t-75.5 -144.5q-125 -168 -422 -168q-256 0 -386 127t-130 375l2 825q-4 74 -57 105.5t-168 27.5zM833 1612l203 262q99 125 158 125q29 0 49 -20q20 -18 20 -43q0 -31 -26.5 -67t-71.5 -66l-119 -82 q-39 -25 -160 -109h-53z" />
<glyph unicode="&#xfb;" horiz-adv-x="1554" d="M37 1419v49q145 -8 323 -8q201 0 357 8v-49q-100 -4 -149.5 -15t-67 -38t-15.5 -80v-846q0 -227 78 -329.5t250 -102.5q123 0 206 36t140 114q47 61 65.5 130.5t18.5 188.5v809q-2 53 -16.5 81t-62.5 40t-148 12v51q139 -14 248 -14q104 0 258 14v-51 q-129 2 -178.5 -26.5t-49.5 -106.5v-850q0 -94 -20.5 -164.5t-75.5 -144.5q-125 -168 -422 -168q-256 0 -386 127t-130 375l2 825q-4 74 -57 105.5t-168 27.5zM561 1612l267 363h63l289 -363h-53l-277 213l-235 -213h-54z" />
<glyph unicode="&#xfc;" horiz-adv-x="1554" d="M37 1419v49q145 -8 323 -8q201 0 357 8v-49q-100 -4 -149.5 -15t-67 -38t-15.5 -80v-846q0 -227 78 -329.5t250 -102.5q123 0 206 36t140 114q47 61 65.5 130.5t18.5 188.5v809q-2 53 -16.5 81t-62.5 40t-148 12v51q139 -14 248 -14q104 0 258 14v-51 q-129 2 -178.5 -26.5t-49.5 -106.5v-850q0 -94 -20.5 -164.5t-75.5 -144.5q-125 -168 -422 -168q-256 0 -386 127t-130 375l2 825q-4 74 -57 105.5t-168 27.5zM584 1807q0 35 35.5 69.5t68.5 34.5q35 0 70 -34.5t35 -69.5q0 -33 -35 -69t-70 -36q-33 0 -68.5 36t-35.5 69z M965 1807q0 35 35.5 69.5t68.5 34.5q35 0 70 -34.5t35 -69.5q0 -33 -35 -69t-70 -36q-33 0 -68.5 36t-35.5 69z" />
<glyph unicode="&#xfd;" horiz-adv-x="1441" d="M-14 1419v49q188 -10 336 -10q141 0 311 10v-49q-152 8 -152 -57q0 -27 25 -68l352 -610l-2 -512q2 -49 20.5 -74.5t66.5 -38t147 -20.5v-49q-182 14 -330 14q-141 0 -350 -14v47q92 4 139 16.5t66.5 40t17.5 78.5v442l-379 668q-82 143 -268 137zM745 1612l203 262 q99 125 158 125q29 0 49 -20q20 -18 20 -43q0 -31 -26.5 -67t-71.5 -66l-119 -82q-39 -25 -160 -109h-53zM840 756l288 534q18 37 19 62q0 76 -166 67v49q123 -6 244 -6q113 0 219 6v-49q-92 4 -154.5 -28.5t-109.5 -108.5l-310 -577z" />
<glyph unicode="&#xfe;" horiz-adv-x="1327" d="M57 -12v47q92 4 139.5 17.5t66 41t16.5 78.5l2 1116q0 74 -53.5 105.5t-170.5 27.5v49q172 -12 342 -12q172 0 338 12v-49q-100 -2 -148 -13t-67.5 -38t-17.5 -82v-1114q2 -49 21.5 -74.5t66.5 -38t145 -18.5v-49q-158 10 -288 10q-188 0 -392 -16zM561 436v45 q74 -4 98 -4q152 0 232 89t80 259q0 135 -34 210t-110.5 108t-214.5 33h-51v45l62 2q35 0 51 2q156 4 281.5 -46.5t198.5 -142.5t73 -211q0 -121 -82 -212t-215 -138t-283 -47q-47 0 -86 8z" />
<glyph unicode="&#xff;" horiz-adv-x="1441" d="M-14 1419v49q188 -10 336 -10q141 0 311 10v-49q-152 8 -152 -57q0 -27 25 -68l352 -610l-2 -512q2 -49 20.5 -74.5t66.5 -38t147 -20.5v-49q-182 14 -330 14q-141 0 -350 -14v47q92 4 139 16.5t66.5 40t17.5 78.5v442l-379 668q-82 143 -268 137zM496 1807 q0 35 35.5 69.5t68.5 34.5q35 0 70 -34.5t35 -69.5q0 -33 -35 -69t-70 -36q-33 0 -68.5 36t-35.5 69zM840 756l288 534q18 37 19 62q0 76 -166 67v49q123 -6 244 -6q113 0 219 6v-49q-92 4 -154.5 -28.5t-109.5 -108.5l-310 -577zM877 1807q0 35 35.5 69.5t68.5 34.5 q35 0 70 -34.5t35 -69.5q0 -33 -35 -69t-70 -36q-33 0 -68.5 36t-35.5 69z" />
<glyph unicode="&#x152;" horiz-adv-x="2199" d="M33 764q0 207 92 378t252 269t352 98q55 0 162 -20q106 -20 160 -21l821 -2q25 -219 115 -471h-43q-176 424 -445 424h-330v-1247q0 -53 20.5 -81t72 -40t149.5 -14l201 -2q135 4 246.5 111.5t193.5 312.5l43 4q-90 -264 -108 -473h-932q-72 0 -183 -15q-80 -10 -176 -14 h-6h-14q-180 10 -326.5 119.5t-231.5 290t-85 393.5zM287 762q0 -276 40 -437t129 -236t240 -79q111 0 179.5 45t68.5 117l-2 1116q0 78 -56.5 125t-148.5 47q-233 0 -341.5 -169t-108.5 -529zM1225 758v49h78q92 0 143 24.5t84 87t63 189.5h43q-31 -168 -30 -330 q0 -164 30 -327h-43q-29 115 -51 174t-70.5 96t-136.5 37h-110z" />
<glyph unicode="&#x153;" horiz-adv-x="2199" d="M33 764q0 207 92 378t252 269t352 98q55 0 162 -20q106 -20 160 -21l821 -2q25 -219 115 -471h-43q-176 424 -445 424h-330v-1247q0 -53 20.5 -81t72 -40t149.5 -14l201 -2q135 4 246.5 111.5t193.5 312.5l43 4q-90 -264 -108 -473h-932q-72 0 -183 -15q-80 -10 -176 -14 h-6h-14q-180 10 -326.5 119.5t-231.5 290t-85 393.5zM287 762q0 -276 40 -437t129 -236t240 -79q111 0 179.5 45t68.5 117l-2 1116q0 78 -56.5 125t-148.5 47q-233 0 -341.5 -169t-108.5 -529zM1225 758v49h78q92 0 143 24.5t84 87t63 189.5h43q-31 -168 -30 -330 q0 -164 30 -327h-43q-29 115 -51 174t-70.5 96t-136.5 37h-110z" />
<glyph unicode="&#x178;" horiz-adv-x="1441" d="M-14 1419v49q188 -10 336 -10q141 0 311 10v-49q-152 8 -152 -57q0 -27 25 -68l352 -610l-2 -512q2 -49 20.5 -74.5t66.5 -38t147 -20.5v-49q-182 14 -330 14q-141 0 -350 -14v47q92 4 139 16.5t66.5 40t17.5 78.5v442l-379 668q-82 143 -268 137zM496 1807 q0 35 35.5 69.5t68.5 34.5q35 0 70 -34.5t35 -69.5q0 -33 -35 -69t-70 -36q-33 0 -68.5 36t-35.5 69zM840 756l288 534q18 37 19 62q0 76 -166 67v49q123 -6 244 -6q113 0 219 6v-49q-92 4 -154.5 -28.5t-109.5 -108.5l-310 -577zM877 1807q0 35 35.5 69.5t68.5 34.5 q35 0 70 -34.5t35 -69.5q0 -33 -35 -69t-70 -36q-33 0 -68.5 36t-35.5 69z" />
<glyph unicode="&#x2c6;" d="M-25 1120l267 363h63l289 -363h-53l-277 213l-235 -213h-54z" />
<glyph unicode="&#x2dc;" d="M-47 1169q12 92 73.5 158t135.5 66q43 0 121 -37l24 -13q45 -23 76 -35t59 -12q49 0 84 36t41 67h49q-4 -37 -28.5 -90.5t-72.5 -96.5t-118 -43q-39 0 -71.5 12.5t-79.5 39.5q-4 2 -23 10q-35 18 -56.5 26.5t-45.5 8.5q-45 0 -78 -27t-41 -70h-49z" />
<glyph unicode="&#x2000;" horiz-adv-x="1010" />
<glyph unicode="&#x2001;" horiz-adv-x="2020" />
<glyph unicode="&#x2002;" horiz-adv-x="1010" />
<glyph unicode="&#x2003;" horiz-adv-x="2020" />
<glyph unicode="&#x2004;" horiz-adv-x="673" />
<glyph unicode="&#x2005;" horiz-adv-x="505" />
<glyph unicode="&#x2006;" horiz-adv-x="336" />
<glyph unicode="&#x2007;" horiz-adv-x="336" />
<glyph unicode="&#x2008;" horiz-adv-x="252" />
<glyph unicode="&#x2009;" horiz-adv-x="404" />
<glyph unicode="&#x200a;" horiz-adv-x="112" />
<glyph unicode="&#x2010;" horiz-adv-x="757" d="M188 379v135h381v-135h-381z" />
<glyph unicode="&#x2011;" horiz-adv-x="757" d="M188 379v135h381v-135h-381z" />
<glyph unicode="&#x2012;" horiz-adv-x="757" d="M188 379v135h381v-135h-381z" />
<glyph unicode="&#x2013;" horiz-adv-x="1024" d="M-10 422v49h1044v-49h-1044z" />
<glyph unicode="&#x2014;" horiz-adv-x="2048" d="M256 422v49h1536v-49h-1536z" />
<glyph unicode="&#x2018;" d="M127 1126q0 74 39 151t96 138.5t109 93.5l30 -41q-92 -63 -144 -135.5t-52 -134.5q0 -57 26 -90q35 45 88 45q51 0 87 -35t36 -86t-40 -89t-95 -38q-76 0 -128 63.5t-52 157.5z" />
<glyph unicode="&#x2019;" d="M127 1378q0 51 40 89t95 38q76 0 128 -64.5t52 -156.5q0 -111 -77.5 -219.5t-165.5 -163.5l-31 41q94 68 145.5 138.5t51.5 131.5q0 55 -27 91q-35 -45 -88 -46q-51 0 -87 35t-36 86z" />
<glyph unicode="&#x201a;" d="M131 84q0 51 38 87t91 36q88 0 133 -66.5t45 -140.5q0 -113 -73.5 -216t-163.5 -161l-29 37q82 66 135 131.5t53 136.5q0 45 -24 84q-37 -45 -88 -45t-84 33t-33 84z" />
<glyph unicode="&#x201c;" horiz-adv-x="909" d="M111 1133q0 115 71.5 212t165.5 164l29 -36q-82 -66 -135.5 -131.5t-53.5 -137.5q0 -45 25 -84q37 45 88 45t84 -32.5t33 -83.5t-38 -87t-91 -36q-92 0 -135 65.5t-43 141.5zM492 1133q0 115 71.5 212t165.5 164l29 -36q-82 -66 -135.5 -131.5t-53.5 -137.5q0 -45 25 -84 q37 45 88 45t84 -32.5t33 -83.5t-38 -87t-91 -36q-92 0 -135 65.5t-43 141.5z" />
<glyph unicode="&#x201d;" horiz-adv-x="909" d="M111 1382q0 51 37.5 87t91.5 36q88 0 133 -66.5t45 -140.5q0 -113 -74 -216t-164 -160l-28 36q81 66 134.5 131.5t53.5 137.5q0 45 -25 84q-37 -45 -88 -45t-83.5 32.5t-32.5 83.5zM492 1382q0 51 37.5 87t91.5 36q88 0 133 -66.5t45 -140.5q0 -113 -74 -216t-164 -160 l-29 36q82 66 135.5 131.5t53.5 137.5q0 45 -25 84q-37 -45 -88 -45t-83.5 32.5t-32.5 83.5z" />
<glyph unicode="&#x201e;" horiz-adv-x="909" d="M111 84q0 51 37.5 87t91.5 36q88 0 133 -66.5t45 -140.5q0 -113 -74 -216t-164 -161l-28 37q81 66 134.5 131.5t53.5 136.5q0 45 -25 84q-37 -45 -88 -45t-83.5 33t-32.5 84zM492 84q0 51 37.5 87t91.5 36q88 0 133 -66.5t45 -140.5q0 -113 -74 -216t-164 -161l-29 37 q82 66 135.5 131.5t53.5 136.5q0 45 -25 84q-37 -45 -88 -45t-83.5 33t-32.5 84z" />
<glyph unicode="&#x2022;" horiz-adv-x="1024" d="M137 729q0 102 50.5 188.5t136.5 136.5t188 50t188 -50t136.5 -136.5t50.5 -188.5t-50.5 -188t-136.5 -136.5t-188 -50.5t-188 50.5t-136.5 136.5t-50.5 188z" />
<glyph unicode="&#x2026;" horiz-adv-x="2048" d="M223 86q0 49 35 84t84 35t84 -35t35 -84t-35 -84t-84 -35t-84 35t-35 84zM905 86q0 49 35 84t84 35t84 -35t35 -84t-35 -84t-84 -35t-84 35t-35 84zM1587 86q0 49 35 84t84 35t84 -35t35 -84t-35 -84t-84 -35t-84 35t-35 84z" />
<glyph unicode="&#x202f;" horiz-adv-x="404" />
<glyph unicode="&#x2039;" d="M117 446q0 125 85 203t242 99l11 -43q-99 -23 -145 -84.5t-46 -174.5t46 -174t145 -84l-11 -43q-158 20 -242.5 98.5t-84.5 202.5z" />
<glyph unicode="&#x203a;" d="M115 188q98 23 144 84.5t46 173.5q0 113 -46 174.5t-144 84.5l10 43q158 -20 243 -98.5t85 -203.5t-85 -202.5t-243 -98.5z" />
<glyph unicode="&#x205f;" horiz-adv-x="505" />
<glyph unicode="&#x20ac;" horiz-adv-x="1351" d="M-10 608l14 49h96q-2 23 -2 68q0 70 13 137h-121l16 49h113q51 209 190 359q106 115 242.5 175t288.5 60q55 0 104 -13t113 -36q84 -31 119 -31t50 9.5t36 33.5h45v-430h-41q-47 203 -143.5 310.5t-301.5 107.5q-115 0 -182 -33q-141 -59 -209 -215q-33 -70 -49 -155 q-12 -63 -19 -142h592l-16 -49h-580q-4 -86 -4 -137v-68h508l-16 -49h-488q16 -311 127 -456q111 -143 336 -144q160 0 252 54.5t137 143.5t84 240h41v-456h-45q-18 23 -35.5 33t-50.5 10q-35 0 -153 -31q-80 -20 -132.5 -31.5t-93.5 -11.5q-281 0 -485 201 q-197 197 -234 448h-116z" />
<glyph unicode="&#x2122;" horiz-adv-x="2009" d="M141 1237v231h705v-231h-37q-27 100 -72 144t-123 44h-51v-733h117v-43h-371v43h115v733h-51q-78 0 -124 -45t-71 -143h-37zM889 649v43h115v733h-115v43h268l195 -571l196 571h262v-43h-114v-733h114v-43h-370v43h116v656l-256 -730l-251 721v-647h116v-43h-276z" />
<glyph unicode="&#x25fc;" horiz-adv-x="1464" d="M0 0v1464h1464v-1464h-1464z" />
</font>
</defs>
</svg>
