<?xml version="1.0" standalone="no"?>
<!DOCTYPE svg PUBLIC "-//W3C//DTD SVG 1.1//EN" "http://www.w3.org/Graphics/SVG/1.1/DTD/svg11.dtd" >
<svg>
<metadata>
Created by FontForge 20110222 at Fri May 29 21:51:16 2015
 By www-data
Copyright 1997, 1998, 1999, 2003 , 2004Adobe Systems Incorporated. All Rights Reserved. Bickham Script is a trademark of Adobe Systems Incorporated in the United States and/or other countries.
</metadata>
<defs>
<font id="BickhamScriptPro-Regular" horiz-adv-x="191" >
  <font-face 
    font-family="Bickham Script Pro"
    font-weight="400"
    font-style="italic"
    font-stretch="normal"
    units-per-em="1000"
    panose-1="3 3 4 2 4 7 7 13 13 6"
    ascent="680"
    descent="-320"
    x-height="171"
    cap-height="432"
    bbox="-2225.38 -1073 3480.33 1275"
    underline-thickness="30"
    underline-position="-90"
    slope="-39"
    stemh="10"
    stemv="43"
    unicode-range="U+0020-FB06"
  />
<missing-glyph horiz-adv-x="500" 
d="M0 0v700h500v-700h-500zM250 395l170 255h-340zM280 350l170 -255v510zM80 50h340l-170 255zM50 605v-510l170 255z" />
    <glyph glyph-name="O_n" unicode="On" horiz-adv-x="745" 
d="M356 143c43 54 69 98 74 147c4 30 -13 51 -39 54c-46 5 -98 -26 -146 -86c-48 -61 -55 -132 11 -148c17 -4 53 -1 79 9c4 4 12 13 21 24zM662 83c-16 -19 -28 -36 -33 -44c-8 -13 -8 -19 -4 -22c5 -4 16 0 24 4c12 6 26 14 48 31c17 13 37 31 48 41c8 7 11 8 13 6
s-1 -6 -8 -13c-9 -9 -39 -36 -60 -52c-20 -15 -59 -40 -90 -40c-19 0 -31 9 -30 26c1 22 23 47 42 70c15 18 30 35 42 49c4 5 6 11 1 14s-16 -1 -26 -6c-18 -9 -46 -26 -78 -51c-44 -34 -68 -57 -112 -91c-9 -7 -15 -9 -26 -9c-14 0 -21 2 -13 16c10 19 28 46 44 67
s24 31 41 52c6 8 10 15 7 19c-5 6 -28 2 -56 -8c-20 -7 -39 -15 -57 -22c-69 -78 -179 -138 -266 -135c-38 1 -92 15 -100 81c-7 65 30 150 102 222c77 76 184 123 288 118c41 -2 92 -23 97 -79c2 -19 -6 -39 -15 -49c-4 -5 -12 -11 -14 -8c-1 3 2 3 8 12s13 25 10 44
c-7 50 -54 66 -86 67c-89 4 -197 -74 -249 -132c-67 -76 -101 -164 -93 -217c6 -37 37 -49 62 -50c59 -2 127 31 203 114c-20 -6 -54 -9 -72 -5c-73 14 -78 100 -21 172c43 53 105 83 159 77c35 -4 62 -29 57 -80c-3 -38 -18 -88 -60 -140c17 8 33 15 49 21
c27 10 53 19 74 18c20 -1 25 -12 25 -23c0 -12 -11 -28 -21 -42c-15 -20 -36 -47 -47 -63l1 -1c24 20 57 49 92 75s79 54 109 54c21 0 33 -10 31 -27c-3 -18 -24 -41 -40 -61z" />
    <glyph glyph-name="O_r" unicode="Or" horiz-adv-x="613" 
d="M326 110c57 71 99 131 104 180c4 30 -13 51 -39 54c-46 5 -104 -29 -152 -89c-76 -95 -94 -187 -28 -203c24 -5 47 -2 67 6c4 4 40 42 48 52zM564 52c22 17 34 27 47 39c7 7 13 10 15 8c3 -3 -4 -9 -12 -17c-12 -11 -32 -29 -57 -48c-21 -16 -56 -40 -89 -40
c-21 0 -32 11 -31 26c1 22 26 50 48 71c24 23 62 50 65 57c4 11 -15 9 -40 8c-10 0 -18 0 -23 2c-8 -9 -36 -28 -63 -46c-23 -16 -76 -44 -110 -55c-60 -49 -126 -74 -201 -72c-38 1 -92 15 -100 81c-7 65 30 150 102 222c77 76 184 123 288 118c41 -2 92 -23 97 -79
c2 -19 -6 -39 -15 -49c-4 -5 -12 -11 -14 -8c-1 3 2 3 8 12s13 25 10 44c-7 50 -54 66 -86 67c-89 4 -197 -74 -249 -132c-67 -76 -101 -164 -93 -217c6 -37 37 -49 62 -50c59 -2 100 18 145 53c-12 -4 -34 -8 -58 -3c-73 14 -69 120 6 215c43 53 122 99 176 93
c35 -4 62 -29 57 -80c-3 -38 -25 -103 -92 -176c-8 -8 -23 -22 -28 -26c28 12 72 37 94 51c28 18 49 34 56 41c-9 6 -10 20 0 32c8 10 22 17 38 17c8 0 16 -4 18 -10c-7 -5 -11 -8 -17 -14c-13 -14 -10 -21 3 -22c28 -1 57 -2 57 -20c0 -14 -24 -35 -46 -61
c-17 -20 -29 -37 -34 -47c-5 -9 -5 -16 -1 -19s12 -1 22 4c11 6 29 17 45 30z" />
    <glyph glyph-name="d_d" unicode="dd" horiz-adv-x="576" 
d="M170 161c-20 0 -56 -27 -92 -63c-41 -40 -58 -66 -56 -79c1 -7 6 -10 13 -10c19 0 57 22 84 47c32 28 68 71 69 87c1 13 -7 18 -18 18zM459 161c-20 0 -56 -27 -92 -63c-41 -40 -58 -66 -56 -79c1 -7 6 -10 13 -10c19 0 57 22 84 47c32 28 68 71 69 87c1 13 -7 18 -18 18
zM435 -6c-19 0 -28 9 -29 21c-1 11 5 25 14 36l-1 1c-28 -24 -71 -56 -109 -58c-22 -1 -45 7 -42 40c1 14 10 31 28 52l-1 1c-1 -1 -6 -5 -9 -8c-12 -10 -29 -25 -54 -45c-18 -14 -52 -40 -85 -40c-19 0 -29 9 -30 21c-1 11 5 25 14 36l-1 1c-28 -24 -72 -56 -109 -58h-1
c-22 -1 -45 8 -41 40c2 15 10 31 28 52l-1 1c-3 -3 -7 -7 -13 -12c-4 -3 -7 -5 -9 -3c-2 3 5 11 16 21c3 3 18 15 28 22c11 8 28 19 48 29c41 20 71 31 99 27c19 -3 25 -21 21 -34h1c25 36 70 91 100 123c38 41 94 96 131 117c14 8 28 12 43 12c8 0 14 -3 17 -7
c-31 -7 -64 -36 -146 -126c-17 -19 -45 -52 -84 -101c-32 -40 -75 -99 -84 -115c-7 -11 -7 -19 -4 -22c6 -6 20 0 30 6c9 5 26 17 39 28c18 15 35 29 42 35c8 7 25 20 36 28s28 19 48 29c41 20 71 31 99 27c19 -3 25 -20 21 -34h1c32 46 68 92 119 151c34 40 80 86 126 120
c16 12 36 21 49 21c10 0 14 -4 15 -7c-34 -14 -79 -63 -133 -124c-30 -34 -78 -94 -116 -143c-31 -40 -74 -99 -83 -115c-7 -11 -8 -20 -3 -23s15 0 23 4c10 5 29 18 45 31c21 17 37 31 48 41c6 5 11 10 14 7s-2 -8 -13 -18c-13 -12 -37 -33 -56 -48
c-20 -16 -53 -40 -86 -40z" />
    <glyph glyph-name="f_b" unicode="fb" horiz-adv-x="463" 
d="M-234 -385c6 -3 14 1 25 10c26 21 94 110 139 182c85 135 113 206 136 271h-1c-63 -82 -149 -198 -202 -279c-34 -51 -81 -122 -97 -159c-5 -13 -5 -22 0 -25zM97 118c39 29 130 57 167 67c36 45 69 81 97 112c55 60 133 125 189 163c-11 14 -28 24 -65 24
c-48 0 -92 -26 -147 -79c-52 -50 -163 -184 -241 -287zM321 196c36 11 114 34 181 56c54 18 144 56 189 83c52 31 95 69 96 113c1 42 -27 68 -80 65c-52 -3 -99 -26 -143 -56c5 -12 8 -29 5 -45c-2 -13 -6 -19 -7 -18c-2 1 1 2 1 19c0 14 -3 27 -8 37
c-25 -20 -76 -67 -103 -98c-36 -40 -76 -86 -131 -156zM257 6c20 2 35 9 48 17c17 11 32 24 46 42c-12 -6 -46 -15 -62 -19c-36 -9 -57 -18 -56 -31c1 -8 11 -10 24 -9zM59 132l-1 1c-12 -9 -35 -30 -53 -47c-6 -5 -9 -6 -11 -4s0 5 6 11c24 23 59 52 78 65
c45 60 124 154 194 221c68 66 159 115 220 115c38 0 58 -14 67 -27c40 26 90 52 147 55c61 3 92 -27 91 -74c-1 -50 -45 -89 -100 -122c-46 -28 -136 -63 -193 -83c-70 -24 -154 -47 -192 -59c-27 -34 -66 -88 -87 -118l1 -1c28 29 64 57 94 77c23 15 59 32 88 29
c22 -2 34 -15 31 -38c-4 -29 -27 -65 -67 -95c-41 -31 -82 -42 -115 -43c-22 0 -40 3 -40 20c1 19 27 28 65 38c28 7 59 15 77 23c10 11 27 36 32 50c4 11 7 30 -10 30c-18 0 -51 -17 -87 -45c-44 -34 -73 -63 -111 -101c-8 -8 -18 -13 -29 -14c-20 -1 -19 5 -14 16
c6 14 25 45 41 67s60 79 74 94c-25 -7 -123 -36 -174 -76c-17 -56 -52 -152 -145 -300c-35 -55 -111 -162 -151 -190c-15 -11 -27 -15 -37 -13c-15 3 -23 15 -18 40c11 53 80 168 151 267c41 57 149 195 178 231z" />
    <glyph glyph-name="f_f_r" unicode="ffr" horiz-adv-x="526" 
d="M311 166c19 0 44 1 63 2c18 1 24 3 34 3c16 0 22 -12 21 -23c-1 -12 -11 -28 -21 -42c-15 -20 -22 -29 -30 -40l2 -2c17 17 38 39 57 57c24 23 55 50 83 50c21 0 31 -10 27 -27c-5 -22 -41 -51 -62 -39c-7 4 10 18 16 34c3 7 3 11 -1 13c-3 2 -9 0 -19 -7
c-13 -9 -32 -26 -54 -46c-28 -26 -57 -56 -96 -94c-7 -7 -15 -9 -26 -9c-14 0 -21 2 -13 16c10 19 25 43 44 67c16 21 24 31 41 52c3 3 9 11 9 18s-8 8 -17 8c-20 0 -47 -1 -66 -2c-25 -32 -53 -66 -74 -93c-41 -107 -79 -188 -148 -302c-33 -55 -77 -119 -118 -150
c-13 -10 -28 -17 -41 -14c-14 3 -21 14 -16 38c11 54 78 170 149 267c30 41 74 100 106 141c26 34 57 72 89 112c-39 -1 -78 -1 -102 -2c-23 -29 -44 -57 -64 -83c-44 -57 -79 -107 -118 -161c-23 -31 -58 -83 -100 -153c-25 -42 -57 -102 -72 -140c-6 -16 -7 -26 -13 -26
c-15 -1 -8 46 -3 63c10 37 62 153 131 251c25 36 53 75 99 134c12 41 4 64 14 87c11 25 23 36 79 40c46 60 123 153 190 218c63 61 150 112 211 112c33 0 50 -14 57 -23c55 40 126 81 195 81c81 0 130 -51 122 -106c-2 -12 -6 -22 -9 -21c-2 1 2 8 3 21c3 43 -44 87 -119 87
c-84 0 -137 -31 -184 -71c7 -11 12 -27 12 -43c0 -6 -2 -17 -4 -17s0 4 -2 16c-2 13 -7 28 -14 37c-5 -4 -10 -8 -14 -12c-42 -39 -105 -114 -173 -199c-12 -15 -46 -58 -61 -78zM21 56c22 30 44 60 72 96c-30 -2 -50 -7 -60 -32c-9 -20 -4 -34 -12 -64zM-59 -384
c6 -3 13 0 25 9c26 20 65 73 109 144c65 105 105 193 141 276c-64 -82 -124 -164 -179 -246c-33 -50 -80 -122 -96 -159c-5 -12 -5 -22 0 -24zM156 163c25 1 64 1 102 2c23 28 65 78 106 126c55 64 100 107 170 162c5 4 11 8 16 12c-9 9 -27 19 -55 19
c-48 0 -82 -26 -137 -79c-41 -40 -126 -144 -202 -242z" />
    <glyph glyph-name="f_h" unicode="fh" horiz-adv-x="485" 
d="M-234 -385c6 -3 14 1 25 10c26 21 94 110 139 182c85 135 113 206 136 271h-1c-63 -82 -149 -198 -202 -279c-34 -51 -81 -122 -97 -159c-5 -13 -5 -22 0 -25zM97 118c39 29 130 57 167 67c36 45 69 81 97 112c55 60 133 125 189 163c-11 14 -28 24 -65 24
c-48 0 -92 -26 -147 -79c-52 -50 -166 -187 -241 -287zM321 196c36 11 114 34 181 56c54 18 144 56 189 83c52 31 95 69 96 113c1 42 -27 68 -80 65c-52 -3 -99 -26 -143 -56c5 -13 7 -29 4 -45c-1 -6 -4 -18 -6 -18c-1 0 1 5 1 16c0 16 -3 30 -8 40
c-25 -20 -76 -67 -103 -98c-36 -40 -76 -86 -131 -156zM81 162c45 60 119 148 189 215c70 68 161 117 222 117c38 0 58 -14 67 -27c40 26 90 52 147 55c61 3 92 -27 91 -74c-1 -50 -45 -89 -100 -122c-46 -28 -136 -63 -193 -83c-70 -24 -154 -47 -192 -59
c-29 -37 -83 -110 -103 -141l1 -1c24 20 57 49 92 75s79 54 109 54c21 0 33 -10 31 -27c-2 -16 -24 -41 -40 -61c-16 -19 -28 -36 -33 -44c-8 -13 -8 -19 -4 -22c5 -4 16 0 24 4c12 6 26 14 48 31c17 13 37 31 48 41c8 7 11 8 13 6s-1 -6 -8 -13c-9 -9 -39 -36 -60 -52
c-20 -15 -59 -40 -90 -40c-19 0 -31 9 -30 26c1 22 23 47 42 70c15 18 30 35 42 49c4 5 6 11 1 14s-19 -2 -26 -6c-18 -9 -46 -26 -78 -51c-44 -34 -68 -57 -112 -91c-9 -7 -15 -9 -26 -9c-14 0 -19 2 -13 16s25 45 41 67s44 58 73 94c-26 -8 -122 -36 -173 -76
c-16 -54 -52 -152 -145 -300c-35 -55 -111 -162 -151 -190c-15 -11 -27 -15 -37 -13c-13 2 -23 15 -18 40c11 53 80 168 151 267c41 57 149 195 178 231l-1 1c-12 -9 -35 -30 -53 -47c-6 -5 -9 -6 -11 -4s0 5 6 11c24 23 59 52 81 69z" />
    <glyph glyph-name="f_j" unicode="fj" horiz-adv-x="306" 
d="M-629 -494c-182 -5 -251 78 -251 175c0 41 24 91 57 120c8 7 17 12 18 10c2 -3 -6 -5 -16 -17c-23 -26 -39 -68 -39 -113c0 -89 67 -171 231 -166c98 3 182 38 261 97c-8 12 -18 37 -9 66c0 -25 7 -46 17 -60c91 69 176 170 268 289c25 31 57 73 100 130
c12 41 5 64 14 87c10 26 29 37 79 39c18 23 48 60 71 88c61 76 118 138 187 195c85 68 160 100 230 102c101 2 145 -45 145 -97c0 -31 -18 -57 -36 -72c-7 -6 -13 -7 -14 -6c-1 2 2 4 8 10c14 15 23 38 23 63c0 50 -35 96 -126 93c-67 -2 -133 -40 -211 -114
c-59 -57 -97 -104 -148 -169c-34 -42 -49 -60 -73 -91c38 1 69 2 93 2c17 0 38 1 52 3s18 -9 7 -16c-27 -17 -46 -43 -63 -66c-16 -21 -61 -89 -131 -186c-49 -68 -116 -152 -178 -215c-70 -72 -146 -113 -220 -113c-22 0 -51 6 -69 21c-87 -54 -179 -86 -277 -89z
M-280 -417h1c54 0 113 37 180 111c73 80 168 215 226 297c46 65 85 119 103 139c13 14 24 21 32 25v1c-43 0 -81 0 -113 -2c-15 -20 -34 -47 -64 -86c-44 -58 -86 -114 -125 -165c-100 -131 -196 -233 -302 -302c13 -12 43 -18 62 -18zM21 53c21 28 45 63 72 99
c-30 -2 -52 -7 -61 -32c-7 -20 -3 -37 -11 -67zM340 251c-4 6 -5 21 0 34c6 15 21 19 38 19c16 0 21 -11 10 -26c-13 -16 -37 -27 -48 -27z" />
    <glyph glyph-name="r_s" unicode="rs" horiz-adv-x="499" 
d="M297 1h1c19 0 44 16 66 54c18 29 36 89 47 102v1c-10 -10 -30 -25 -48 -38c-13 -9 -40 -25 -50 -30c1 -3 1 -8 0 -11c-3 -9 -9 -15 -22 -23c-8 -5 -22 -16 -23 -30c-1 -16 11 -25 29 -25zM387 9c-18 -8 -54 -18 -84 -18c-53 0 -64 32 -60 60c2 11 5 19 11 27
c-8 -1 -25 0 -35 4c-21 9 -28 30 -22 54c-11 -6 -38 -27 -50 -37c-29 -25 -62 -56 -101 -94c-7 -7 -15 -9 -26 -9c-14 0 -21 2 -13 16c10 19 28 46 44 67c11 15 29 38 40 52c7 9 9 14 7 17c-3 4 -9 2 -15 -1c-12 -6 -27 -17 -39 -27c-13 -11 -29 -25 -43 -38
c-10 -9 -14 -12 -17 -9c-2 3 3 8 15 19s34 32 52 46c27 21 47 33 68 33c19 0 25 -11 25 -22c0 -14 -11 -29 -21 -43c-8 -11 -22 -29 -30 -40l2 -2c11 11 38 37 61 56c16 13 32 26 49 37c15 10 25 13 30 14c9 2 18 1 22 -1c3 -2 7 -10 -4 -16c-29 -16 -37 -26 -38 -36
s1 -22 16 -28c10 -4 20 -4 30 -3c6 7 20 15 34 15c6 0 11 -2 14 -5c15 9 36 22 53 34c18 13 36 28 59 48c2 4 9 12 16 17c11 8 22 11 29 11c23 0 8 -13 -5 -21c-9 -6 -19 -10 -24 -15c-8 -8 -7 -16 -7 -27c1 -28 3 -54 -9 -82c-6 -14 -20 -33 -32 -41c11 4 28 12 44 22
c28 17 49 35 66 50c5 4 10 9 13 6c2 -2 -2 -8 -11 -16c-10 -9 -29 -25 -51 -40s-44 -26 -63 -34z" />
    <glyph glyph-name="r_s_t" unicode="rst" horiz-adv-x="595" 
d="M407 -15h-1c-8 0 -13 0 -1 23c14 26 45 73 68 109c7 19 7 24 11 34s14 16 28 17c23 31 83 98 116 133c-18 -7 -33 -9 -52 -9c-70 0 -112 25 -160 27c-60 2 -89 -23 -95 -58s12 -56 25 -65c6 -4 7 -6 6 -8s-4 -1 -10 2c-17 9 -43 30 -39 70c4 35 33 77 113 74
c59 -2 108 -33 163 -33c20 0 38 2 59 11l7 7c25 25 56 47 73 47c10 0 12 -4 13 -6c-11 -26 -43 -50 -57 -59c-23 -26 -94 -107 -114 -133c23 1 72 1 88 1c10 0 15 -2 14 -6c-2 -5 -7 -5 -18 -5c-22 0 -69 0 -92 -1c-8 -9 -50 -70 -67 -93c-11 -28 -32 -52 -49 -66
c-7 -6 -19 -13 -29 -13zM123 106c-8 -11 -22 -29 -30 -40l2 -2c11 11 38 37 61 56c16 13 29 23 46 34c6 11 19 18 29 19c8 1 19 -1 23 -5s2 -12 -11 -20c-10 -6 -19 -12 -17 -21s18 -16 43 -15c17 1 37 6 59 16c20 9 39 27 49 37c2 4 9 13 17 19c11 9 23 11 30 11
c23 0 8 -13 -5 -21c-9 -6 -21 -12 -26 -17c-8 -8 -7 -16 -7 -27c1 -28 0 -52 -9 -72c-6 -14 -17 -28 -33 -40c-17 -13 -51 -27 -81 -27c-47 0 -63 27 -59 52s23 41 44 41c12 0 20 -8 20 -18c0 -9 -6 -18 -18 -24c-17 -8 -23 -12 -23 -22s12 -19 30 -19c20 0 45 16 67 54
c18 29 33 75 44 88l-1 1c-10 -10 -24 -19 -37 -25c-23 -11 -42 -16 -63 -17c-29 -1 -45 7 -52 12c-9 7 -13 17 -14 27c-15 -11 -40 -30 -54 -42c-29 -25 -62 -56 -101 -94c-7 -7 -15 -9 -26 -9c-14 0 -21 2 -13 16c10 19 26 43 44 67c11 15 29 38 40 52c7 9 9 14 7 17
c-3 4 -9 2 -15 -1c-12 -6 -27 -17 -39 -27c-13 -11 -29 -25 -43 -38c-10 -9 -14 -12 -17 -9c-2 3 3 8 15 19s34 32 52 46c27 21 47 33 68 33c19 0 25 -11 25 -22c0 -12 -8 -25 -21 -43z" />
    <glyph glyph-name="s_f_e" unicode="sfe" horiz-adv-x="602" 
d="M-5 -385c6 -2 14 1 25 10c26 21 94 110 139 182c85 135 113 206 136 271h-1c-63 -82 -149 -198 -202 -279c-34 -51 -81 -122 -97 -159c-6 -14 -5 -23 0 -25zM119 21c12 4 28 12 44 22c28 17 53 39 66 50c21 19 50 43 77 65c2 2 4 4 6 7c-8 8 -13 24 -11 31
c3 10 12 15 21 12c4 -1 6 -11 7 -20c44 55 94 120 119 151c-47 -4 -133 -13 -171 -22c-99 -24 -124 -66 -125 -89c-1 -14 2 -22 6 -28c2 -3 4 -5 6 -6c0 0 4 4 6 5c9 6 19 8 26 8c23 0 8 -13 -5 -21c-9 -6 -19 -10 -24 -15c-8 -8 -7 -16 -7 -27c1 -28 3 -54 -9 -82
c-6 -14 -20 -33 -32 -41zM509 353c40 7 109 31 168 68c64 40 112 98 115 133c1 17 -7 29 -28 29c-25 0 -61 -21 -111 -68c-33 -31 -117 -129 -144 -162zM391 81c-12 5 -23 11 -31 17c-10 8 -19 18 -24 30c-13 -17 -25 -32 -25 -32c-16 -53 -52 -149 -146 -299
c-35 -55 -111 -162 -151 -190c-15 -11 -27 -15 -37 -13c-13 2 -23 15 -18 40c11 53 80 169 151 267c41 55 145 191 174 227l-1 1c-19 -16 -37 -32 -48 -42c-6 -6 -33 -29 -55 -44s-44 -26 -63 -34c-18 -8 -54 -18 -84 -18c-53 0 -64 32 -60 60c4 29 27 53 51 52
c14 -1 21 -11 19 -22c-2 -10 -9 -18 -22 -25c-9 -5 -22 -16 -23 -30c-1 -16 11 -25 29 -25c20 0 45 16 67 54c18 29 36 89 47 102v1c-10 -10 -31 -26 -48 -38c-14 -10 -30 -20 -38 -24c-4 -2 -8 -4 -10 -1c-1 3 0 5 5 8c10 6 26 16 42 28c18 13 36 28 59 48c2 3 7 10 10 12
c-3 1 -7 3 -11 7c-8 8 -14 19 -14 35c0 40 30 73 131 93c60 12 132 18 189 23c35 41 77 87 113 122c74 72 148 121 198 121c31 0 44 -21 42 -44c-3 -37 -52 -91 -131 -138c-58 -34 -130 -59 -177 -68c-44 -55 -88 -112 -142 -183c-5 -6 -11 -14 -16 -21c5 -13 13 -23 24 -32
c8 -6 18 -12 30 -16c13 15 35 36 66 53c29 16 62 29 89 29c21 0 31 -14 30 -27c-2 -26 -33 -49 -64 -61c-32 -12 -62 -15 -80 -15c-12 -17 -13 -32 -13 -39c0 -14 8 -23 23 -23c22 0 51 10 91 36c19 13 45 34 61 48c6 5 9 6 11 4c2 -3 -1 -7 -8 -13c-13 -12 -41 -36 -59 -48
c-42 -28 -82 -43 -116 -43c-37 0 -55 16 -55 41c0 11 5 32 18 49zM444 80c11 -1 40 2 62 13c33 17 41 39 41 53c0 7 -3 12 -12 12s-24 -9 -44 -27c-18 -17 -38 -39 -47 -51z" />
    <glyph glyph-name="s_s" unicode="ss" horiz-adv-x="457" 
d="M255 1h1c19 0 44 16 66 54c18 29 36 89 47 102v1c-10 -10 -32 -27 -48 -38c-14 -10 -41 -26 -50 -31c0 0 1 -5 0 -9c-2 -9 -9 -17 -22 -24c-9 -5 -22 -16 -23 -30c-1 -16 11 -25 29 -25zM408 43c-22 -15 -44 -26 -63 -34c-18 -8 -54 -18 -84 -18c-51 0 -65 29 -59 62
c-8 -5 -16 -10 -25 -15c-24 -13 -41 -21 -60 -29c-18 -8 -54 -18 -84 -18h-1c-52 0 -63 32 -59 60s28 51 52 51c14 0 20 -11 18 -21c-2 -9 -9 -17 -22 -25c-8 -5 -22 -16 -23 -30c-1 -16 11 -25 29 -25c20 0 36 10 60 39c34 41 60 125 76 143v1c-20 -22 -44 -44 -68 -62
c-13 -10 -30 -21 -39 -26c-5 -3 -9 -5 -11 -2s2 7 5 9c12 8 27 17 42 28c23 17 50 42 81 74c3 4 11 13 16 17c11 9 22 11 29 11c23 0 8 -13 -5 -21c-9 -6 -19 -10 -24 -15c-8 -8 -7 -16 -7 -27c1 -28 -9 -72 -22 -99c-10 -20 -29 -42 -41 -50c12 4 36 15 52 24
c13 7 25 14 34 21c8 20 26 37 46 37c6 0 14 -3 16 -6c17 10 38 23 53 34c18 13 36 28 59 48c4 6 9 12 16 17c12 9 22 11 29 11c23 0 8 -13 -5 -21c-9 -6 -19 -10 -24 -15c-8 -8 -7 -16 -7 -27c1 -28 3 -54 -9 -82c-6 -14 -20 -33 -32 -41c12 4 28 12 44 22
c28 17 49 35 66 50c5 4 10 9 13 6c2 -2 -2 -8 -11 -16c-10 -9 -29 -25 -51 -40z" />
    <glyph glyph-name="w_h" unicode="wh" horiz-adv-x="749" 
d="M555 96c-44 -34 -68 -57 -112 -91c-9 -7 -15 -9 -26 -9c-14 0 -20 2 -14 16s26 45 42 67c6 8 26 34 40 53c-4 -3 -10 -7 -14 -9c-29 -16 -50 -23 -64 -24s-25 2 -31 6c-20 -26 -57 -57 -64 -62c-43 -32 -81 -50 -112 -50c-25 0 -35 13 -35 29c0 10 4 23 13 36
c9 14 20 27 31 40c14 18 20 28 24 37c3 7 1 13 -4 13c-7 0 -26 -12 -51 -29s-57 -40 -82 -63c-7 -7 -35 -33 -45 -43c-12 -11 -25 -22 -33 -22h-1c-6 0 -13 4 -14 12c-1 7 4 12 9 18c15 18 33 38 49 58c14 18 29 39 37 55c3 6 3 12 0 14c-4 3 -11 1 -15 -1
c-11 -5 -27 -17 -39 -27c-16 -13 -37 -32 -42 -37c-4 -4 -8 -6 -10 -4s0 6 4 10c6 6 39 36 53 47c24 19 49 35 70 35c19 0 30 -10 28 -34c-1 -13 -9 -28 -20 -44c44 35 84 58 92 62c19 9 30 11 41 11c10 0 22 -6 21 -20c-1 -15 -9 -31 -28 -56c-16 -22 -25 -34 -34 -51
c-3 -5 -8 -19 0 -26c6 -4 16 -3 28 2c15 6 41 22 57 35c11 9 42 36 63 62c-4 5 -8 23 -5 36c3 16 12 26 25 26c8 0 15 -5 15 -15c0 -13 -11 -34 -18 -44c2 -3 12 -6 23 -5c14 1 33 7 63 24c9 5 20 12 28 18c40 52 75 96 119 146c58 67 180 195 232 231c28 20 56 40 85 40
c26 0 34 -18 31 -36c-8 -48 -104 -128 -205 -212c-61 -50 -130 -98 -204 -163c-17 -19 -60 -81 -83 -115l1 -1c24 20 57 49 92 75s79 54 109 54c21 0 33 -10 31 -27c-3 -18 -24 -41 -40 -61c-16 -19 -28 -36 -33 -44c-8 -13 -8 -19 -4 -22c5 -4 16 0 24 4c12 6 26 14 48 31
c17 13 37 31 48 41c8 7 11 8 13 6s-1 -6 -8 -13c-9 -9 -39 -36 -60 -52c-20 -15 -59 -40 -90 -40c-19 0 -31 9 -30 26c1 22 23 47 42 70c15 18 30 35 42 49c4 5 6 11 1 14s-16 -1 -26 -6c-18 -9 -46 -26 -78 -51zM572 184c95 83 133 108 179 148c96 83 185 163 189 207
c1 13 -6 19 -17 19c-17 0 -44 -20 -65 -40c-33 -33 -81 -81 -133 -143c-73 -87 -99 -119 -153 -191z" />
    <glyph glyph-name="y_g" unicode="yg" horiz-adv-x="555" 
d="M327 9h1c18 0 56 22 83 47c32 28 68 71 69 87c1 13 -7 18 -18 18c-20 0 -56 -27 -92 -63c-38 -37 -57 -63 -56 -79c1 -7 6 -10 13 -10zM61 -93l152 205l-1 1c-20 -17 -55 -44 -81 -64c-41 -31 -77 -55 -107 -55c-21 0 -33 11 -32 29c1 11 6 25 18 40c21 28 46 56 71 80
c-7 -3 -29 -19 -44 -31s-25 -20 -35 -29c-8 -7 -12 -10 -15 -8c-2 2 0 6 11 16s47 40 71 56c26 18 39 22 58 22c21 0 23 -3 11 -16c-13 -14 -32 -37 -52 -62c-16 -21 -32 -43 -37 -54c-4 -8 -4 -15 -1 -18c4 -4 13 -2 23 3c22 12 44 27 75 51c48 37 76 62 108 87
c8 6 14 11 29 11c17 0 25 -2 14 -15c-16 -21 -40 -51 -60 -78c-19 -26 -85 -121 -127 -175c-126 -162 -214 -240 -285 -290c15 -13 46 -26 90 -29c76 -4 154 29 235 106c53 51 113 140 167 215c16 23 68 93 101 141l-1 1c-25 -21 -67 -51 -105 -53c-22 -1 -45 7 -41 40
c1 12 13 41 32 61c18 19 43 38 63 48c35 18 70 30 98 28c21 -1 27 -18 25 -34h1c22 25 33 34 48 34c19 0 24 -4 13 -16c-18 -21 -32 -38 -52 -66c-44 -62 -96 -137 -135 -193c-75 -107 -137 -175 -195 -223c-90 -74 -176 -102 -254 -98c-57 3 -83 16 -100 31
c-94 -64 -184 -97 -291 -100c-182 -5 -251 75 -251 172c0 51 26 96 57 123c11 9 17 12 18 10c2 -3 -4 -3 -16 -17c-23 -27 -39 -68 -39 -113c0 -89 67 -171 231 -166c104 3 193 43 277 110c-10 16 -17 41 -8 65c-1 -24 7 -43 17 -58c84 68 164 163 251 275z" />
    <glyph glyph-name="r_scaron" unicode="r&#x161;" horiz-adv-x="499" 
d="M297 1h1c19 0 44 16 66 54c18 29 36 89 47 102v1c-10 -10 -30 -25 -48 -38c-13 -9 -40 -25 -50 -30c1 -3 1 -8 0 -11c-3 -9 -9 -15 -22 -23c-8 -5 -22 -16 -23 -30c-1 -16 11 -25 29 -25zM387 9c-18 -8 -54 -18 -84 -18c-53 0 -64 32 -60 60c2 11 5 19 11 27
c-8 -1 -25 0 -35 4c-21 9 -28 30 -22 54c-11 -6 -38 -27 -50 -37c-29 -25 -62 -56 -101 -94c-7 -7 -15 -9 -26 -9c-14 0 -21 2 -13 16c10 19 28 46 44 67c11 15 29 38 40 52c7 9 9 14 7 17c-3 4 -9 2 -15 -1c-12 -6 -27 -17 -39 -27c-13 -11 -29 -25 -43 -38
c-10 -9 -14 -12 -17 -9c-2 3 3 8 15 19s34 32 52 46c27 21 47 33 68 33c19 0 25 -11 25 -22c0 -14 -11 -29 -21 -43c-8 -11 -22 -29 -30 -40l2 -2c11 11 38 37 61 56c16 13 32 26 49 37c15 10 25 13 30 14c9 2 18 1 22 -1c3 -2 7 -10 -4 -16c-29 -16 -37 -26 -38 -36
s1 -22 16 -28c10 -4 20 -4 30 -3c6 7 20 15 34 15c6 0 11 -2 14 -5c15 9 36 22 53 34c18 13 36 28 59 48c2 4 9 12 16 17c11 8 22 11 29 11c23 0 8 -13 -5 -21c-9 -6 -19 -10 -24 -15c-8 -8 -7 -16 -7 -27c1 -28 3 -54 -9 -82c-6 -14 -20 -33 -32 -41c11 4 28 12 44 22
c28 17 49 35 66 50c5 4 10 9 13 6c2 -2 -2 -8 -11 -16c-10 -9 -29 -25 -51 -40s-44 -26 -63 -34zM475 270h-1c-2 0 -4 4 -5 7c-11 24 -23 49 -34 66c-3 4 -3 6 -2 7c2 2 8 -1 11 -3c10 -7 29 -23 43 -42c39 23 88 42 105 47c3 1 8 2 9 -1c1 -2 -4 -4 -7 -6
c-32 -19 -85 -52 -109 -70c-4 -3 -6 -5 -10 -5z" />
    <glyph glyph-name="ydieresis_gcommaaccent" unicode="&#xff;&#x123;" horiz-adv-x="552" 
d="M472 218c-9 0 -13 2 -13 9c0 2 2 8 6 15c25 29 61 55 79 65c6 3 11 6 12 5c2 -3 -2 -6 -7 -11c-12 -13 -26 -27 -33 -44c-5 -9 1 -11 -2 -20c-4 -11 -24 -18 -42 -19zM269 231c-4 5 -4 19 0 30c5 14 19 17 35 17c14 0 19 -10 8 -23c-11 -15 -33 -24 -43 -24zM169 231
c-4 5 -4 19 0 30c6 14 18 17 34 17c14 0 19 -10 9 -23c-11 -15 -33 -24 -43 -24zM327 9h1c18 0 56 22 83 47c32 28 68 71 69 87c1 13 -7 18 -18 18c-20 0 -56 -27 -92 -63c-38 -37 -57 -63 -56 -79c1 -7 6 -10 13 -10zM61 -93l152 205l-1 1c-20 -17 -55 -44 -81 -64
c-41 -31 -77 -55 -107 -55c-21 0 -33 11 -32 29c1 11 6 25 18 40c21 28 46 56 71 80c-7 -3 -29 -19 -44 -31s-25 -20 -35 -29c-8 -7 -12 -10 -15 -8c-2 2 0 6 11 16s47 40 71 56c26 18 39 22 58 22c21 0 23 -3 11 -16c-13 -14 -32 -37 -52 -62c-16 -21 -32 -43 -37 -54
c-4 -8 -4 -15 -1 -18c4 -4 13 -2 23 3c22 12 44 27 75 51c48 37 76 62 108 87c8 6 14 11 29 11c17 0 25 -2 14 -15c-16 -21 -40 -51 -60 -78c-19 -26 -85 -121 -127 -175c-126 -162 -214 -240 -285 -290c15 -13 46 -26 90 -29c76 -4 154 29 235 106c53 51 113 140 167 215
c16 23 68 93 101 141l-1 1c-25 -21 -67 -51 -105 -53c-22 -1 -45 7 -41 40c1 12 13 41 32 61c18 19 43 38 63 48c35 18 70 30 98 28c21 -1 27 -18 25 -34h1c22 25 33 34 48 34c19 0 24 -4 13 -16c-18 -21 -32 -38 -52 -66c-44 -62 -96 -137 -135 -193
c-75 -107 -137 -175 -195 -223c-90 -74 -176 -102 -254 -98c-57 3 -83 16 -100 31c-94 -64 -184 -97 -291 -100c-182 -5 -251 75 -251 172c0 51 26 96 57 123c11 9 17 12 18 10c2 -3 -4 -3 -16 -17c-23 -27 -39 -68 -39 -113c0 -89 67 -171 231 -166c104 3 193 43 277 110
c-10 16 -17 41 -8 65c-1 -24 7 -43 17 -58c84 68 164 163 251 275z" />
    <glyph glyph-name=".notdef" horiz-adv-x="500" 
d="M0 0v700h500v-700h-500zM250 395l170 255h-340zM280 350l170 -255v510zM80 50h340l-170 255zM50 605v-510l170 255z" />
    <glyph glyph-name="space" unicode=" " horiz-adv-x="153" 
 />
    <glyph glyph-name="exclam" unicode="!" horiz-adv-x="239" 
d="M305 339c16 0 18 -2 -7 -35c-51 -67 -167 -191 -206 -230c-6 -6 -11 -8 -13 -7c-4 2 1 9 6 16c56 74 114 154 160 224c20 29 39 32 60 32zM67 44c16 0 22 -11 10 -26c-12 -16 -37 -27 -47 -27c-5 7 -6 22 -1 34c6 15 19 19 38 19z" />
    <glyph glyph-name="quotedbl" unicode="&#x22;" horiz-adv-x="190" 
d="M187 340c18 0 24 -8 6 -23c-29 -26 -61 -53 -78 -66c-5 -4 -10 -6 -11 -5c-2 1 -1 3 4 11c13 20 29 46 40 64c6 10 22 19 39 19zM266 340c18 0 25 -8 6 -23c-29 -26 -61 -53 -78 -66c-5 -4 -9 -6 -11 -5s0 5 4 11c14 20 29 46 41 64c6 10 22 19 38 19z" />
    <glyph glyph-name="numbersign" unicode="#" horiz-adv-x="356" 
d="M246 281c14 0 18 -3 -6 -32c-19 -22 -36 -43 -52 -62c30 0 59 -1 92 -2c14 19 40 52 57 76c13 16 19 27 38 27c15 0 18 -3 -6 -32c-20 -25 -43 -52 -59 -71h51c6 0 16 0 16 -4s-10 -4 -16 -4h-58c-18 -22 -36 -45 -55 -67c20 0 63 -1 65 -1c6 0 16 0 16 -4s-9 -4 -16 -4
h-72c-32 -40 -62 -77 -88 -108c-2 -3 -11 -12 -16 -9c-3 2 0 8 5 15c19 27 46 63 75 102c-34 -1 -64 -1 -99 -2c-33 -41 -66 -81 -93 -113c-4 -5 -13 -12 -17 -9c-2 2 -1 7 5 15c21 28 50 67 80 107h-41c-10 0 -23 0 -24 6c0 6 12 7 21 7h53c16 21 32 43 48 63h-50
c-9 0 -23 0 -24 5c-1 7 12 8 21 8c22 0 42 -1 62 -1c15 20 34 45 50 66c13 16 18 28 37 28zM180 175l-52 -64c32 0 63 0 97 -1c16 23 33 45 49 66c-27 0 -61 -1 -94 -1z" />
    <glyph glyph-name="dollar" unicode="$" horiz-adv-x="245" 
d="M248 272l-66 -100c5 -16 21 -54 10 -86c-15 -45 -65 -68 -100 -68c-4 0 -9 0 -13 1c0 0 -19 -29 -26 -40c-4 -6 -8 -8 -11 -7s-3 5 2 13c6 9 23 36 23 36c-30 8 -47 30 -42 56c4 21 19 30 34 29c12 -1 19 -12 16 -24c-4 -16 -17 -19 -18 -30c-1 -8 4 -17 17 -21l74 113
c-9 23 -12 54 -4 74c14 40 55 62 94 63c0 0 7 10 12 18c13 20 17 24 23 22c4 -1 2 -7 -9 -24c-6 -9 -11 -17 -11 -17c23 -5 40 -21 33 -46c-5 -15 -17 -23 -28 -22c-15 2 -17 14 -12 25c6 13 14 17 14 24c-1 6 -8 10 -12 11zM176 187l57 86c-24 0 -50 -17 -58 -40
c-5 -15 -4 -31 1 -46zM154 130l-69 -102c3 -1 8 -1 10 -1c26 0 50 18 61 40c9 18 7 40 -2 63z" />
    <glyph glyph-name="percent" unicode="%" horiz-adv-x="392" 
d="M240 -6c-23 0 -38 16 -35 39c3 21 16 44 38 67c23 24 55 39 76 43c4 1 12 1 12 -1s-6 -2 -16 -9c-14 -9 -28 -24 -46 -46c-17 -23 -31 -45 -34 -64c-2 -11 1 -18 10 -20c17 -2 38 16 57 43c19 26 31 44 38 69c4 13 3 18 0 22c-2 3 -6 4 -6 5c0 2 8 3 14 1
c14 -5 20 -20 16 -38c-4 -20 -17 -42 -41 -68c-25 -25 -60 -43 -83 -43zM306 250c-18 -10 -39 -17 -59 -19s-34 2 -44 6c3 -7 3 -18 1 -27c-5 -19 -16 -39 -41 -64c-24 -26 -60 -44 -82 -44c-23 0 -38 16 -35 39s16 45 38 68c22 24 55 39 76 43c5 1 11 1 11 -1s-7 -3 -16 -9
c-13 -9 -28 -25 -45 -47c-17 -23 -31 -45 -34 -63c-2 -11 1 -19 10 -20c17 -2 38 16 57 43c19 25 30 44 38 69c4 12 2 18 0 21c-2 4 -7 4 -6 6s8 3 14 1c3 -1 7 -3 8 -4c9 -5 25 -11 50 -9c25 3 55 16 80 34c14 15 24 27 43 27c13 0 11 -4 -17 -32
c-80 -78 -178 -181 -283 -302c-5 -5 -12 -11 -16 -8c-2 2 2 9 7 15c91 108 177 204 245 277z" />
    <glyph glyph-name="ampersand" unicode="&#x26;" horiz-adv-x="452" 
d="M506 299c29 0 45 -17 40 -41c-4 -18 -21 -37 -38 -33c-14 3 -12 18 -10 31c2 11 -2 20 -14 21c-21 3 -52 -16 -110 -67c-38 -34 -81 -79 -121 -115c24 -34 53 -82 40 -143c-16 -73 -89 -126 -164 -126c-36 0 -55 18 -60 28c-4 8 -5 15 -2 17c3 0 2 -5 8 -13
c8 -10 24 -20 54 -20c53 0 99 37 115 90c14 49 3 101 -18 143c-46 -38 -104 -76 -155 -76c-22 0 -42 14 -36 44c7 33 42 60 85 86c22 13 43 23 64 35c-5 18 -8 41 -4 60c7 34 36 73 75 73c20 0 34 -19 24 -49c-12 -31 -37 -55 -69 -77c8 -22 23 -41 37 -63
c41 38 82 82 120 117c50 45 96 78 139 78zM253 277c-21 0 -42 -27 -48 -56c-3 -16 -2 -31 3 -46c26 19 50 42 60 70c6 18 0 32 -15 32zM105 22c25 0 72 25 115 59c-13 23 -25 47 -33 71c-23 -16 -42 -28 -59 -42c-27 -22 -42 -41 -46 -62c-4 -19 10 -26 23 -26z" />
    <glyph glyph-name="quoteright" unicode="&#x2019;" horiz-adv-x="91" 
d="M177 349v-1c0 -3 -2 -9 -7 -15c-25 -29 -64 -55 -79 -65c-6 -4 -10 -7 -12 -5c-2 3 2 5 8 11c12 12 25 27 33 43c5 9 0 14 3 21c5 11 22 17 41 19c9 1 13 -3 13 -8z" />
    <glyph glyph-name="parenleft" unicode="(" horiz-adv-x="239" 
d="M72 -92c-2 0 -4 3 -5 9c-8 37 -20 184 78 320c121 170 267 213 337 225c5 1 9 1 9 -1s-3 -3 -9 -5c-72 -21 -199 -82 -303 -228c-92 -132 -106 -262 -105 -311c0 -4 1 -9 -2 -9z" />
    <glyph glyph-name="parenright" unicode=")" horiz-adv-x="239" 
d="M-107 -86c0 2 3 2 9 4c74 25 185 92 278 236c84 129 87 254 83 304c0 3 -1 8 1 8c3 0 4 -3 5 -7c14 -53 33 -179 -54 -315c-109 -169 -246 -220 -313 -232c-5 -1 -9 -1 -9 2z" />
    <glyph glyph-name="asterisk" unicode="*" horiz-adv-x="231" 
d="M302 340c0 -3 -7 -4 -17 -4c-16 0 -35 0 -57 1c8 -17 16 -38 19 -48c2 -7 5 -14 1 -15c-2 -1 -6 3 -9 7c-7 9 -21 29 -32 48c-21 -20 -41 -39 -54 -50c-8 -7 -14 -11 -16 -8c-3 3 2 10 7 16c10 12 27 34 45 53c-17 3 -35 7 -48 10c-7 2 -13 3 -13 9c1 4 6 5 16 5
c9 0 28 -1 46 -3c-8 16 -14 31 -19 45c-2 6 -4 14 0 17c3 2 8 -3 13 -10c6 -8 19 -28 29 -46c18 18 45 42 51 47c10 8 15 12 18 10c3 -3 -2 -10 -7 -17c-11 -15 -27 -35 -41 -51c18 -3 39 -6 53 -9c6 -1 15 -3 15 -7z" />
    <glyph glyph-name="plus" unicode="+" horiz-adv-x="356" 
d="M287 250c18 0 23 -3 0 -32c-38 -46 -42 -50 -71 -84c42 -1 80 -2 113 -3c9 0 16 -1 16 -5s-9 -5 -16 -5c-38 -1 -80 -2 -127 -3c-40 -46 -84 -97 -103 -118c-6 -6 -12 -14 -16 -11c-3 2 0 8 5 15c24 33 54 73 84 113c-32 0 -66 -1 -105 -1c-23 0 -25 4 -23 10
c3 10 12 13 21 13c39 -1 80 -3 120 -4c26 36 35 48 65 87c12 16 19 28 37 28z" />
    <glyph glyph-name="comma" unicode="," horiz-adv-x="105" 
d="M68 35c0 -4 -2 -10 -8 -17c-27 -33 -67 -61 -87 -73c-9 -5 -12 -6 -13 -5c-2 3 2 5 8 12c12 13 28 30 37 49c5 9 -1 14 2 22c4 13 25 21 46 21c9 0 15 -2 15 -9z" />
    <glyph glyph-name="hyphen" unicode="-" horiz-adv-x="245" 
d="M150 117c33 0 46 -27 45 -52c0 -4 -1 -5 -2 -5c-2 0 -2 0 -4 3c-7 11 -18 16 -40 16c-26 0 -42 -9 -75 -9c-11 0 -29 5 -35 13c-1 2 -1 4 0 5s3 1 4 0c4 -2 9 -4 16 -4c18 0 35 10 50 19c10 7 25 14 41 14z" />
    <glyph glyph-name="period" unicode="." horiz-adv-x="105" 
d="M50 44c17 0 22 -11 10 -26c-12 -16 -36 -27 -47 -27c-5 7 -5 22 -1 34c5 14 20 19 38 19z" />
    <glyph glyph-name="slash" unicode="/" horiz-adv-x="239" 
d="M371 380c16 0 19 -3 -11 -35c-84 -90 -271 -292 -393 -424c-5 -5 -12 -8 -15 -6c-3 3 3 10 8 16c119 136 293 338 361 419c17 19 29 30 50 30z" />
    <glyph glyph-name="zero" unicode="0" horiz-adv-x="266" 
d="M65 -9h-1c-37 0 -60 22 -56 65c4 49 39 97 67 127c37 42 93 72 131 80c10 2 21 1 21 -2c0 -2 -8 0 -21 -9c-24 -16 -58 -51 -88 -89c-33 -40 -62 -89 -68 -124c-5 -23 2 -36 18 -37c31 -3 68 34 107 82c32 41 61 91 73 134c5 17 3 28 -3 34c-6 7 -13 7 -12 9
c1 3 14 3 23 -1c18 -8 33 -34 23 -70c-10 -38 -39 -82 -75 -120c-45 -49 -100 -79 -139 -79z" />
    <glyph glyph-name="one" unicode="1" horiz-adv-x="187" 
d="M178 222c-20 -13 -45 -28 -66 -39c-22 -11 -47 -15 -48 -11s2 1 48 25c30 16 62 33 87 50c11 7 32 19 41 19c7 0 7 -6 -7 -22c-64 -77 -110 -139 -157 -205c-25 -35 -26 -37 -72 -46c-19 -3 -24 -2 5 36c51 67 152 183 169 193z" />
    <glyph glyph-name="two" unicode="2" horiz-adv-x="249" 
d="M32 40c12 3 17 4 34 3c23 -2 47 -15 63 -15c24 0 42 7 71 38c3 3 6 6 8 5c3 -2 0 -7 -1 -8c-26 -34 -60 -69 -101 -69c-18 0 -40 6 -56 14c-14 7 -25 9 -41 9c-10 0 -24 -5 -32 -10c-7 -4 -18 -12 -22 -13c-3 -1 -4 1 -2 6c2 6 9 10 17 15c15 10 56 29 93 51
c66 39 135 98 149 142c7 23 -5 39 -25 39c-23 0 -48 -9 -69 -26c-15 -12 -31 -31 -35 -49c-5 -24 7 -35 26 -30c4 1 6 2 7 0s-4 -5 -7 -6c-5 -2 -15 -4 -23 -3c-22 3 -26 19 -23 33c5 22 26 45 49 63c29 22 65 37 98 37c45 0 61 -27 51 -64c-13 -43 -59 -76 -111 -108
c-40 -23 -86 -42 -118 -54z" />
    <glyph glyph-name="three" unicode="3" horiz-adv-x="252" 
d="M161 149c16 -1 28 -6 36 -12c15 -12 16 -33 10 -51c-9 -28 -35 -52 -67 -69c-29 -16 -64 -26 -98 -26c-36 1 -67 16 -62 49c4 25 26 41 50 41c17 0 26 -11 23 -23c-2 -9 -9 -14 -19 -21c-6 -4 -15 -11 -17 -19c-3 -12 9 -19 31 -18c28 1 72 18 108 88c11 22 13 49 -4 51
c-8 1 -18 -3 -26 -7c-6 -3 -13 -7 -14 -5c-2 4 5 11 17 16c58 24 92 57 92 86c0 11 -9 19 -24 19c-14 0 -34 -5 -48 -15s-24 -22 -29 -37c-3 -9 -4 -16 -3 -21s4 -6 2 -8c-2 -1 -7 0 -10 5c-4 6 -5 15 -2 26c5 17 23 35 41 46c22 13 51 22 80 22c28 0 41 -14 41 -31
c0 -21 -13 -39 -38 -55c-18 -11 -41 -22 -70 -31z" />
    <glyph glyph-name="four" unicode="4" horiz-adv-x="273" 
d="M318 267h1c9 0 7 -3 1 -11c-66 -82 -121 -159 -153 -204c12 -1 28 -2 39 -4c10 -2 16 -6 14 -11c-1 -3 -5 -1 -18 0c-15 1 -31 2 -42 2c-34 -43 -53 -69 -79 -106c-15 -21 -29 -26 -50 -30c-22 -4 -30 -5 -2 35c25 35 48 64 75 101c-32 0 -55 -1 -78 -3
c-16 -1 -30 -3 -41 -5c-5 -1 -13 -3 -13 2c-1 4 8 12 15 17c20 16 74 57 126 93c67 46 113 75 162 107c21 13 34 17 43 17zM257 222l-1 1c-35 -20 -94 -59 -137 -90c-44 -32 -84 -61 -113 -85v-1c28 4 82 5 108 5c36 48 114 144 143 170z" />
    <glyph glyph-name="five" unicode="5" horiz-adv-x="258" 
d="M213 273h1c2 0 5 -4 8 -7c7 -7 17 -13 28 -17s21 -5 34 -5c11 0 22 4 26 7c3 2 6 5 8 4s1 -5 -3 -10c-5 -7 -14 -14 -25 -19c-15 -7 -38 -11 -60 -10c-19 1 -37 8 -47 15c-17 -22 -54 -62 -74 -81l1 -1c13 6 29 11 49 11c34 0 67 -18 56 -64c-14 -64 -97 -105 -170 -105
c-37 0 -69 14 -63 49c4 22 24 39 43 39c14 0 23 -8 22 -22c-1 -9 -6 -15 -13 -21c-6 -5 -13 -11 -14 -19c-1 -10 9 -17 25 -17c52 0 109 43 123 106c6 27 -4 43 -25 43c-13 0 -24 -3 -32 -7c-6 -3 -12 -7 -19 -13c-5 -4 -10 -9 -15 -6c-6 5 2 14 10 20c15 12 32 29 55 54
c24 26 45 51 60 69c3 4 7 7 11 7z" />
    <glyph glyph-name="six" unicode="6" horiz-adv-x="261" 
d="M19 43v1c0 46 28 104 77 154c70 72 178 123 244 122c31 0 53 -14 61 -32c3 -7 2 -12 0 -13c-3 -1 -5 4 -7 7c-12 20 -30 26 -53 26c-59 0 -127 -50 -205 -133c-40 -42 -86 -104 -86 -147c0 -18 8 -29 25 -29c27 1 64 35 94 78c29 41 40 82 18 87c-20 3 -40 -9 -51 -17
c-4 -3 -6 -4 -8 -2c-1 2 2 6 7 10c15 12 42 24 63 21c44 -6 49 -64 11 -116c-34 -47 -92 -70 -133 -70c-37 0 -57 25 -57 53z" />
    <glyph glyph-name="seven" unicode="7" horiz-adv-x="215" 
d="M256 238c-31 -12 -87 -26 -127 -25c-20 0 -42 10 -39 31c2 16 17 24 25 28s18 6 23 6c1 0 2 -1 2 -1c1 -2 -2 -4 -4 -8c-8 -14 0 -29 41 -30c33 -1 72 5 94 11c4 2 16 5 16 1c1 -4 -5 -6 -11 -7c-78 -66 -188 -186 -253 -264c-6 -6 -31 -11 -53 -14c-34 -5 -34 -3 -9 22
c102 99 219 199 295 250z" />
    <glyph glyph-name="eight" unicode="8" horiz-adv-x="245" 
d="M239 304h-1c-27 0 -55 -22 -61 -48c-6 -28 2 -52 14 -81c8 -22 16 -45 15 -68c-4 -64 -77 -120 -145 -116c-38 3 -65 28 -55 67c11 44 62 80 111 99c8 3 22 8 23 4c1 -3 -8 -5 -18 -12c-33 -22 -56 -48 -67 -85c-11 -36 2 -57 28 -58c48 -4 82 45 82 87
c0 20 -8 41 -16 61c-10 25 -13 45 -12 65c3 53 67 101 121 100c38 -1 57 -28 49 -61c-8 -38 -55 -63 -82 -76c-13 -6 -26 -10 -27 -7c-1 4 9 8 15 12c30 19 48 42 55 71c6 25 -5 46 -29 46z" />
    <glyph glyph-name="nine" unicode="9" horiz-adv-x="267" 
d="M-86 -92h1c37 0 81 15 133 57c39 30 93 90 122 131c45 65 66 102 69 131c2 15 -3 25 -15 27c-25 6 -67 -24 -102 -74c-28 -40 -34 -78 -12 -84c16 -4 37 8 49 17c7 5 12 11 14 8c2 -1 -3 -9 -13 -17c-18 -14 -40 -24 -62 -20c-43 7 -49 62 -11 114s107 72 142 65
c27 -5 40 -27 41 -50c2 -33 -19 -88 -57 -137c-73 -96 -197 -180 -297 -180c-29 0 -52 14 -58 31c-2 6 -2 13 1 13c3 1 3 -3 5 -7c8 -15 29 -25 50 -25z" />
    <glyph glyph-name="colon" unicode=":" horiz-adv-x="163" 
d="M60 44h1c16 0 21 -11 9 -26c-12 -16 -36 -27 -47 -27c-5 7 -5 22 -1 34c5 14 20 19 38 19zM108 143h1c16 0 21 -11 9 -26c-12 -16 -36 -27 -47 -27c-5 6 -5 22 0 34c6 15 19 19 37 19z" />
    <glyph glyph-name="semicolon" unicode=";" horiz-adv-x="163" 
d="M79 35v-1c0 -3 -2 -9 -8 -16c-27 -33 -67 -61 -87 -73c-7 -4 -12 -6 -13 -5c-2 3 2 6 8 12c13 14 28 30 37 49c5 9 -1 14 2 22c4 13 24 21 46 21c10 0 15 -3 15 -9zM107 143h1c17 0 22 -11 10 -26c-12 -16 -36 -27 -47 -27c-5 6 -5 22 0 34c6 15 19 19 36 19z" />
    <glyph glyph-name="less" unicode="&#x3c;" horiz-adv-x="282" 
d="M39 129v1c0 4 6 7 23 13c96 36 176 65 234 86c5 2 13 4 13 0c0 -2 -5 -6 -15 -10c-62 -27 -132 -58 -210 -92c53 -33 98 -61 140 -87c2 -1 9 -6 7 -9c-3 -4 -8 -2 -12 0c-45 23 -98 50 -167 86c-4 2 -13 7 -13 12z" />
    <glyph glyph-name="equal" unicode="=" horiz-adv-x="331" 
d="M343 161v-1c0 -4 -9 -5 -15 -5c-72 -2 -148 -3 -248 -4c-14 0 -15 5 -13 12c4 8 10 12 23 12c92 -3 170 -6 237 -9c6 0 16 -1 16 -5zM306 97v-1c0 -3 -9 -5 -15 -5c-72 -2 -147 -2 -248 -4c-14 0 -15 6 -12 13s9 12 22 11c92 -3 170 -6 237 -8c6 0 16 -2 16 -6z" />
    <glyph glyph-name="greater" unicode="&#x3e;" horiz-adv-x="282" 
d="M265 130v-1c0 -4 -7 -7 -23 -13c-96 -36 -176 -65 -233 -87c-6 -2 -12 -3 -13 0s5 7 14 11c60 26 132 58 210 92c-53 33 -133 81 -140 86c-4 3 -8 7 -6 10s8 2 11 0c45 -23 98 -50 168 -86c7 -3 12 -7 12 -12z" />
    <glyph glyph-name="question" unicode="?" horiz-adv-x="239" 
d="M256 337h1c38 0 58 -29 47 -66c-14 -46 -58 -76 -117 -104c-23 -11 -44 -22 -62 -33c-19 -11 -32 -23 -35 -32c-5 -9 -7 -30 -19 -30c-7 0 -2 18 2 25c9 18 26 38 55 55c70 42 112 79 129 123c9 23 1 41 -21 43c-23 2 -49 -8 -70 -25c-30 -22 -49 -60 -38 -80
c3 -6 9 -7 8 -9s-7 -2 -11 -1c-19 4 -20 24 -16 38c6 22 27 42 51 60c30 22 64 36 96 36zM67 44h1c15 0 21 -11 9 -26c-12 -16 -37 -27 -47 -27c-5 7 -6 22 -1 34c6 15 20 19 38 19z" />
    <glyph glyph-name="at" unicode="@" horiz-adv-x="495" 
d="M318 264h1c70 0 107 -38 104 -83c-1 -17 -10 -36 -20 -51c2 -5 4 -12 4 -19c0 -18 -5 -38 -20 -56c-34 -40 -91 -69 -164 -67c-136 3 -165 116 -98 193c39 45 111 83 193 83zM318 256h-1c-68 0 -133 -47 -161 -85c-61 -77 -47 -171 69 -174c68 -2 122 28 153 64
c13 16 21 37 21 49c0 4 0 8 -1 11c-3 -4 -6 -8 -9 -11c-17 -18 -48 -44 -81 -44c-23 0 -35 8 -37 22c-1 7 2 16 8 24h-1c-24 -23 -54 -45 -77 -45c-15 0 -31 5 -29 28c2 17 16 43 50 68c23 16 64 33 86 29c14 -2 19 -14 16 -23h1c15 17 23 23 34 24c14 0 16 -3 9 -11
c-21 -26 -47 -57 -57 -75c-10 -16 -5 -28 11 -28c19 0 45 20 59 37c5 6 9 13 12 19c-2 5 -4 8 -7 12s-4 5 -3 7s3 1 6 -2s5 -5 8 -9c5 12 9 26 10 39c1 38 -27 74 -89 74zM302 184h-1c-12 0 -35 -18 -60 -42c-24 -25 -36 -42 -36 -54c0 -4 3 -7 8 -7c13 0 36 16 54 32
c21 19 46 48 48 59c1 8 -5 12 -13 12z" />
    <glyph glyph-name="A" unicode="A" horiz-adv-x="690" 
d="M21 56v1c0 35 26 60 52 61c23 2 37 -11 37 -30c0 -15 -9 -24 -23 -34c-10 -7 -18 -14 -18 -25c0 -21 33 -38 98 -33c78 7 153 49 208 87c-19 17 -55 62 -55 113c1 60 47 106 119 105c54 -2 92 -45 104 -72c13 13 35 33 47 44c53 48 100 88 150 115c38 21 81 38 120 38
c19 0 30 -6 35 -10c6 -5 10 -12 7 -14c-2 -1 -4 2 -11 7c-4 3 -14 6 -22 6c-11 0 -22 -3 -32 -11c-22 -18 -58 -61 -81 -94c-62 -86 -130 -189 -187 -282c16 1 36 7 56 17c21 11 47 31 63 46c5 5 8 5 10 3s-1 -6 -8 -13c-14 -13 -37 -32 -62 -45c-21 -11 -45 -17 -64 -18
c-14 -15 -24 -22 -39 -25c-29 -6 -28 7 -24 14c3 6 6 11 8 15c-18 2 -48 11 -65 18c-22 9 -46 23 -59 35c-38 -27 -127 -85 -221 -92c-78 -6 -143 18 -143 73zM558 99c23 36 86 127 121 172c61 80 115 123 161 145v1c-23 -2 -60 -16 -95 -35c-47 -26 -95 -68 -134 -103
c-24 -22 -43 -40 -63 -59c5 -14 11 -34 13 -65c1 -18 0 -38 -3 -56zM440 286h-1c-52 0 -80 -45 -82 -92c-2 -42 20 -83 33 -99c21 17 46 38 73 62c24 21 48 43 71 64c-20 37 -53 65 -94 65zM397 86c11 -13 33 -26 52 -35c16 -7 47 -17 65 -19c8 14 26 41 30 48
c7 14 8 46 6 74c-2 24 -5 43 -11 58c-24 -22 -48 -44 -70 -64c-27 -24 -50 -44 -72 -62z" />
    <glyph glyph-name="B" unicode="B" horiz-adv-x="640" 
d="M401 -9c-38 0 -81 11 -81 49c0 32 32 56 62 56c17 0 31 -8 31 -24s-14 -24 -26 -29c-10 -4 -22 -9 -24 -20c-3 -17 20 -24 38 -24c65 0 140 71 144 153c3 49 -39 65 -58 63c-12 -2 -18 -3 -29 -3c-13 0 -25 2 -24 8c1 7 17 8 27 8c13 0 21 -2 30 -3c43 6 88 45 99 91
c8 32 1 57 -22 71c-8 -8 -16 -15 -23 -23c-37 -37 -72 -85 -124 -154c-92 -125 -201 -230 -317 -230c-62 0 -106 21 -106 76c0 58 46 142 165 229c114 83 252 122 356 122c14 0 27 -1 39 -3c35 25 68 43 96 54c29 12 65 21 99 21c32 0 59 -10 70 -27c3 -5 4 -8 2 -9
s-3 2 -6 5c-11 13 -35 23 -65 23c-29 0 -64 -8 -94 -22c-23 -10 -51 -28 -79 -51c37 -14 63 -41 55 -82c-9 -55 -79 -88 -127 -95v-1c61 -10 90 -45 88 -86c-4 -84 -95 -143 -196 -143zM38 55c0 -39 21 -66 65 -66c92 0 155 92 232 193c65 85 138 156 185 194
c8 7 17 13 25 19c-9 2 -20 3 -32 3c-96 0 -227 -39 -333 -120c-109 -84 -142 -171 -142 -223z" />
    <glyph glyph-name="C" unicode="C" horiz-adv-x="390" 
d="M266 466c48 0 96 -24 123 -63c14 4 35 8 53 9c63 4 127 -14 116 -75c-11 -62 -116 -92 -192 -92c-56 0 -115 13 -151 40c-76 -68 -130 -159 -130 -224c0 -58 36 -81 86 -81c59 0 106 26 145 52c26 18 50 39 62 50c14 13 19 17 22 14c2 -2 -3 -8 -8 -13
c-24 -22 -50 -45 -72 -60c-41 -29 -92 -54 -151 -57c-83 -3 -141 27 -144 101c-3 88 81 183 164 243c-14 18 -25 40 -25 63c0 56 48 93 102 93zM368 255c73 0 142 35 153 84c10 46 -22 67 -75 66c-15 0 -41 -5 -53 -10c8 -14 15 -37 17 -55c2 -16 0 -26 -3 -25
c-2 1 -1 6 -4 20c-4 20 -15 43 -24 55c-53 -20 -113 -59 -156 -98c35 -26 91 -37 145 -37zM258 453c-43 0 -81 -31 -81 -81c0 -19 7 -39 20 -56c54 36 120 67 176 83c-31 34 -73 54 -115 54z" />
    <glyph glyph-name="D" unicode="D" horiz-adv-x="673" 
d="M356 272v1c0 28 -18 45 -44 46c-27 1 -52 -13 -65 -26s-15 -21 -18 -20c-2 1 1 11 12 23c12 14 40 34 74 32c30 -1 56 -21 56 -57c0 -37 -23 -77 -60 -108c-39 -32 -93 -54 -154 -51c-73 4 -117 36 -116 98c2 120 176 212 346 212c83 0 170 -21 222 -67c12 8 40 25 65 35
c27 11 61 20 98 20c27 0 46 -8 56 -15c7 -5 11 -13 9 -15c-3 -1 -3 3 -14 10c-8 5 -26 11 -51 11c-32 0 -65 -9 -93 -21c-27 -12 -51 -28 -60 -36c60 -66 58 -161 11 -231c-56 -83 -179 -121 -280 -121c-52 0 -110 3 -137 5c-28 -3 -71 -6 -99 -6c-90 0 -159 -1 -158 18
c2 19 64 22 145 19c36 -1 93 -8 134 -15c83 24 133 103 194 175c48 57 117 125 165 157c-45 46 -134 68 -207 68c-158 0 -302 -98 -304 -211c0 -44 24 -77 75 -80c57 -3 105 20 141 52c35 32 57 70 57 98zM250 11c14 -3 60 -9 84 -9c102 0 190 44 254 132
c47 66 56 150 17 200c-35 -33 -79 -106 -123 -162c-78 -94 -146 -135 -232 -161z" />
    <glyph glyph-name="E" unicode="E" horiz-adv-x="390" 
d="M225 263c0 20 10 42 22 59c-25 19 -43 45 -43 74c0 40 31 66 74 68c39 2 90 -17 122 -55c22 4 50 7 74 6c68 -3 103 -31 103 -63c0 -45 -70 -81 -150 -81c-52 0 -102 9 -140 28c-5 -7 -11 -18 -15 -30s-5 -22 -3 -32c11 2 35 4 49 3c29 -1 56 -8 54 -25
c-2 -14 -30 -19 -55 -19c-31 0 -67 10 -80 27c-27 -10 -63 -33 -91 -60c-32 -30 -57 -71 -59 -110c-2 -47 33 -73 82 -73c59 0 108 26 147 52c26 18 59 47 71 58c8 7 11 8 13 6s1 -5 -9 -14c-13 -12 -49 -44 -71 -59c-41 -29 -92 -54 -151 -57c-86 -4 -143 26 -143 89
c-1 73 80 146 206 175c-5 8 -7 20 -7 33zM425 281c66 0 127 26 128 71c2 24 -17 52 -76 55c-21 0 -45 -4 -68 -12c6 -12 11 -28 13 -44c2 -17 1 -26 -2 -26c-2 0 -1 5 -5 20c-4 16 -13 32 -22 44c-25 -12 -51 -31 -73 -51c-6 -5 -20 -20 -28 -31c36 -18 85 -26 133 -26z
M381 405c-25 31 -68 52 -105 50c-34 -2 -63 -22 -63 -58c0 -25 16 -47 40 -67c5 7 15 17 21 22c28 24 65 42 107 53zM271 230c4 -16 27 -24 47 -25c19 -1 36 3 36 13c0 9 -20 13 -36 14c-11 1 -34 0 -47 -2z" />
    <glyph glyph-name="F" unicode="F" horiz-adv-x="546" 
d="M347 401c-94 0 -176 -32 -194 -107c-8 -37 3 -87 66 -114c10 -4 14 -3 13 -6s-9 -2 -19 1c-59 21 -85 73 -78 126c10 74 92 132 217 131c42 0 108 -13 170 -30c33 -9 68 -19 102 -28c26 14 70 28 110 28c35 0 63 -10 62 -31c-1 -17 -24 -28 -57 -28c-41 0 -72 4 -111 10
c-20 -14 -57 -52 -79 -79c-31 -38 -51 -67 -79 -102c23 -1 64 1 85 8c9 11 28 38 46 34c16 -4 3 -16 -20 -37c-21 -18 -34 -32 -46 -46c-6 -7 -8 -12 -10 -11c-4 1 0 12 4 20c5 11 14 23 18 28c-18 -5 -52 -7 -86 -7c-7 -9 -15 -18 -23 -27c-83 -90 -184 -152 -298 -152
c-57 0 -118 17 -120 70c-1 25 17 50 48 50c18 0 32 -14 30 -31c-2 -11 -8 -18 -15 -25c-9 -9 -13 -16 -13 -23c1 -22 37 -32 68 -32c74 0 147 39 200 97c25 27 43 49 61 74c-22 0 -43 0 -55 -1c-21 -1 -26 -5 -26 1c1 4 10 7 34 9c11 1 38 1 54 1c14 19 29 37 51 62
c48 52 114 106 145 124c-23 5 -51 12 -86 20c-40 9 -115 23 -169 23zM733 393c-32 0 -65 -11 -87 -25c37 -10 76 -16 97 -16c23 0 42 7 43 20s-20 21 -53 21z" />
    <glyph glyph-name="G" unicode="G" horiz-adv-x="449" 
d="M577 367c0 -55 -56 -111 -124 -147c-59 -30 -132 -43 -189 -43c-32 0 -67 6 -90 14c-29 -42 -49 -85 -53 -127c-3 -35 15 -59 46 -60c53 -1 107 41 164 101c16 16 33 31 48 31c19 0 23 -4 13 -16c-18 -22 -31 -40 -50 -66c-17 -22 -29 -39 -59 -78v-1c24 13 59 34 95 61
c26 19 47 36 70 56c6 5 11 10 14 7c2 -2 -1 -7 -13 -18s-38 -32 -60 -48c-41 -31 -84 -56 -117 -74c-48 -69 -60 -86 -124 -161c-79 -92 -181 -162 -236 -162c-21 0 -45 9 -42 42c5 58 101 124 155 158c89 55 113 63 192 112c19 26 83 115 83 115c-41 -41 -91 -70 -134 -73
c-57 -5 -100 17 -104 72c-3 42 20 100 63 153c-32 21 -55 55 -55 95c0 79 74 125 156 125c45 0 91 -14 124 -49c59 26 113 39 148 39s79 -12 79 -58zM565 369c0 37 -37 45 -67 45c-36 0 -83 -13 -136 -44c11 -16 20 -39 23 -54c4 -20 2 -29 0 -29c-3 -1 -2 8 -8 25
c-6 19 -17 37 -29 50c-33 -22 -68 -50 -104 -86c-24 -24 -46 -51 -64 -78c26 -8 55 -12 83 -12c56 0 117 14 178 47c63 33 124 95 124 136zM219 423c-71 0 -139 -41 -139 -113c0 -37 22 -68 51 -88c20 23 56 60 89 85c38 29 76 53 113 71c-33 30 -72 45 -114 45zM206 -68
c-58 -38 -90 -49 -182 -109c-53 -34 -129 -101 -128 -147c0 -17 9 -24 23 -26c16 -2 37 5 62 20c34 21 84 70 128 129c37 49 69 91 97 133z" />
    <glyph glyph-name="H" unicode="H" horiz-adv-x="650" 
d="M528 383c-38 -14 -106 -12 -214 -8c-116 4 -218 -41 -218 -140c0 -34 24 -80 73 -96c9 -3 13 -2 12 -5s-12 -3 -19 -1c-51 15 -84 59 -86 104c-3 91 73 163 225 159c68 -2 205 -20 237 -2c14 8 26 16 33 12c6 -4 -3 -8 -13 -18c-25 -24 -47 -47 -72 -79
c-30 -37 -51 -67 -70 -91h143c16 19 35 42 84 87c47 44 99 81 126 96s67 30 100 30c37 0 58 -18 63 -32c3 -8 2 -14 -1 -15c-2 -1 -2 3 -5 9c-8 16 -24 28 -56 28s-66 -16 -91 -34c-26 -19 -51 -42 -91 -85c-26 -28 -56 -65 -70 -84c27 -1 62 -2 80 -4c8 -1 23 -2 23 -5
c0 -4 -15 -3 -22 -3c-35 0 -68 0 -91 -1c-45 -57 -109 -140 -109 -177c0 -12 9 -17 19 -17c17 0 40 9 71 31c14 10 42 34 57 47c6 5 10 7 12 5s0 -5 -6 -11c-13 -12 -42 -37 -58 -49c-15 -11 -54 -40 -93 -40c-29 0 -48 15 -48 44c0 52 70 137 95 167l-141 -1
c-97 -119 -186 -222 -328 -222c-48 0 -100 21 -100 78c0 27 22 53 52 52c20 -1 34 -16 32 -37c-1 -12 -7 -22 -16 -30s-13 -16 -13 -25c2 -21 29 -29 50 -29c107 0 204 140 261 213c-16 0 -39 -1 -74 -2c-7 0 -21 -1 -19 5c1 4 15 5 29 6c18 2 45 3 74 4
c53 64 132 139 173 166z" />
    <glyph glyph-name="I" unicode="I" horiz-adv-x="440" 
d="M613 413c-22 -6 -52 -12 -83 -20c-62 -16 -110 -33 -147 -55c-29 -17 -65 -51 -65 -81c0 -17 12 -26 27 -26c10 0 20 4 27 9c5 3 8 7 10 5s0 -5 -5 -10c-6 -6 -21 -14 -36 -14c-30 0 -47 19 -47 42c0 38 37 70 87 93c40 20 98 36 147 47c38 9 71 14 92 23c7 3 14 7 20 6
c8 -2 5 -13 -2 -16c-32 -14 -66 -54 -93 -92c-25 -36 -62 -95 -90 -132c-113 -145 -225 -210 -351 -210c-59 0 -122 21 -122 78c0 27 20 60 56 60c21 0 36 -14 34 -35c-1 -10 -8 -21 -19 -30c-8 -8 -19 -15 -19 -30c0 -19 27 -33 67 -33c108 0 202 83 296 201
c32 40 75 96 102 128c32 37 79 77 114 92z" />
    <glyph glyph-name="J" unicode="J" horiz-adv-x="335" 
d="M161 -21c16 6 35 15 54 26c18 10 41 25 67 44c17 13 32 25 51 42c8 7 13 12 16 9s-3 -9 -13 -18c-17 -15 -37 -32 -56 -46c-19 -15 -56 -38 -70 -45c-26 -14 -43 -22 -60 -29c-17 -21 -45 -56 -71 -83c-67 -71 -151 -139 -224 -175c-35 -17 -68 -27 -95 -27
c-19 0 -56 6 -56 42c0 42 64 94 171 146c57 28 124 56 207 87c68 92 137 176 192 238c30 34 89 90 154 142c33 27 65 47 84 60c7 5 11 7 11 9c0 3 -3 5 -10 5c-53 1 -128 -15 -212 -59c-91 -48 -161 -122 -161 -180c0 -22 9 -39 28 -44c14 -4 17 2 18 -2c1 -3 -8 -7 -18 -6
c-31 3 -51 28 -51 64c0 55 47 137 178 194c51 22 147 47 222 42c9 -1 25 -3 22 -15c-1 -4 -9 -10 -18 -17c-14 -11 -38 -33 -60 -54c-44 -43 -82 -85 -124 -135c-64 -76 -146 -177 -176 -215zM73 -63c-64 -23 -149 -59 -197 -83c-98 -50 -147 -99 -143 -136
c2 -17 17 -24 33 -25c25 -3 57 7 84 20c60 30 116 89 175 161c13 16 34 44 48 63z" />
    <glyph glyph-name="K" unicode="K" horiz-adv-x="606" 
d="M834 367c0 -46 -66 -82 -124 -77c-14 1 -29 6 -36 10c-3 2 -4 4 -3 6c1 1 4 0 6 -1c8 -3 19 -6 32 -7c53 -5 116 27 116 69c0 27 -23 42 -49 42c-59 0 -96 -54 -140 -110c-46 -60 -105 -94 -151 -108c11 -7 22 -22 25 -36c5 -20 -1 -40 -16 -62c-19 -29 -36 -49 -36 -70
c0 -8 5 -17 18 -17c16 0 37 11 72 38c22 17 34 27 46 38c7 6 16 15 19 12s-4 -10 -7 -13c-13 -12 -31 -28 -55 -47c-28 -23 -62 -44 -94 -44c-31 0 -47 16 -48 39c0 26 17 53 35 78c16 23 36 43 36 60c0 9 -3 15 -7 20c-8 -4 -21 -6 -30 -6c-12 0 -29 4 -28 14
c1 11 18 14 32 13c11 -1 24 -6 30 -10c52 20 79 70 123 120c58 65 110 100 174 100c33 0 60 -18 60 -51zM-21 60c0 26 22 52 52 51c21 -1 35 -14 33 -36c-1 -12 -8 -23 -17 -31c-9 -9 -13 -15 -13 -25c0 -20 29 -29 50 -29c107 0 207 146 260 211c33 42 89 106 128 132v1
c-52 -34 -113 -44 -137 -44c-64 -1 -115 21 -107 68c3 24 22 44 36 53c9 6 22 10 28 10c9 0 8 -5 0 -12c-9 -8 -23 -25 -26 -52c-3 -33 21 -57 70 -57c63 0 141 37 195 84c9 9 22 19 26 16c6 -5 -1 -11 -9 -19c-16 -16 -37 -41 -62 -73c-30 -37 -58 -80 -79 -105
c-97 -120 -186 -222 -328 -222c-48 0 -100 21 -100 79zM442 188h1c6 0 18 3 23 5c-4 4 -13 7 -21 8c-9 1 -21 -1 -21 -6s8 -7 18 -7z" />
    <glyph glyph-name="L" unicode="L" horiz-adv-x="599" 
d="M252 350c0 51 53 98 147 98c74 0 122 -22 159 -52c25 10 61 19 90 19c54 2 99 -25 90 -70c-13 -65 -136 -98 -195 -105c-34 -4 -79 -4 -110 0c-66 -96 -113 -142 -177 -185c13 -2 45 -10 75 -18c36 -9 82 -18 103 -18c58 0 102 19 163 72c5 4 10 10 13 7s-3 -9 -9 -15
c-73 -68 -108 -97 -173 -97c-38 0 -80 9 -108 20c-33 13 -70 30 -83 33c-24 -19 -74 -50 -135 -51c-40 -1 -61 7 -60 23c2 33 91 52 149 51c15 0 35 -2 47 -4c55 51 80 115 138 191c-66 14 -124 50 -124 101zM438 249c30 -4 70 -3 106 2c59 8 151 43 165 102
c7 33 -19 55 -61 54c-23 0 -60 -12 -79 -24c7 -9 14 -21 19 -34c9 -26 6 -37 4 -37s-1 10 -15 35c-6 11 -17 23 -23 28c-39 -22 -79 -73 -116 -126zM261 353c0 -47 56 -81 121 -95c46 58 112 113 159 132c-28 19 -77 44 -147 44c-85 0 -133 -39 -133 -81zM224 44
c-15 4 -36 8 -57 7c-42 -1 -79 -18 -80 -36c-1 -13 15 -17 32 -16c31 0 79 20 105 45z" />
    <glyph glyph-name="M" unicode="M" horiz-adv-x="828" 
d="M85 -30h-1c-55 0 -115 15 -118 72c-1 33 24 68 60 68c23 0 40 -14 38 -34c-2 -16 -12 -26 -22 -34c-9 -9 -17 -14 -19 -25c-4 -20 22 -35 72 -35c86 0 221 62 326 140c92 67 180 157 279 249c-48 9 -111 16 -198 16c-109 0 -214 -41 -233 -131c-8 -40 4 -90 68 -112
c8 -3 13 -2 12 -5s-8 -4 -19 -1c-58 17 -88 68 -83 121c10 93 101 154 257 148c83 -3 160 -19 205 -26c5 5 12 12 19 18c9 8 22 19 32 18c15 -2 13 -10 -1 -26c-5 -6 -9 -10 -14 -16c25 -4 54 -6 73 -5c27 1 68 4 103 18c34 14 55 30 67 46c13 16 6 22 11 24
c7 2 8 -14 3 -25c-6 -13 -15 -27 -38 -50c-48 -50 -120 -128 -167 -187c-52 -65 -106 -136 -107 -173c0 -8 5 -13 13 -13c16 0 44 15 76 41c20 16 37 31 48 41c5 4 9 8 12 5c2 -3 -2 -7 -9 -14c-13 -12 -31 -28 -56 -48c-20 -16 -54 -39 -82 -40c-25 -1 -44 8 -45 37
c-1 36 31 83 74 138c40 52 115 134 166 177h-1c-67 -50 -135 -106 -201 -163c-76 -66 -134 -118 -191 -172c-12 -11 -17 -19 -26 -13c-8 7 -3 19 3 27c58 81 158 249 212 316h-1c-37 -36 -167 -165 -256 -230c-99 -74 -237 -142 -341 -142zM568 96c39 35 119 105 188 161
c55 45 103 82 155 118v1c-29 -11 -66 -15 -96 -16c-23 0 -52 2 -77 5c-49 -70 -121 -204 -170 -269z" />
    <glyph glyph-name="N" unicode="N" horiz-adv-x="645" 
d="M-88 48v1c0 33 28 61 56 61c25 0 39 -14 39 -33c-1 -13 -6 -23 -18 -33c-9 -9 -18 -15 -20 -27c-2 -19 18 -33 68 -33c81 0 190 45 281 115c91 69 166 152 217 249c4 8 13 23 19 32c9 12 25 30 40 31c12 1 15 -5 10 -13c-10 -14 -19 -35 -24 -56c-7 -31 -9 -76 -13 -122
c-6 -77 -16 -122 -28 -151h1c64 93 154 210 221 281s134 123 195 123c42 0 61 -30 62 -56c0 -5 0 -10 -3 -10c-2 0 -3 6 -5 10c-6 16 -26 27 -57 27c-70 0 -136 -53 -184 -103c-94 -98 -194 -239 -263 -339c-7 -9 -15 -22 -25 -16c-9 5 -6 17 -2 27c19 53 28 97 33 160
c6 64 6 112 17 142h-1c-40 -77 -126 -166 -204 -225c-96 -72 -203 -117 -288 -119c-59 -1 -124 17 -124 77z" />
    <glyph glyph-name="O" unicode="O" horiz-adv-x="407" 
d="M136 52c0 -17 4 -28 11 -38c3 -4 5 -5 4 -7s-5 0 -8 3c-10 10 -15 21 -17 43c-3 42 15 107 65 171c72 89 169 148 227 142c35 -4 44 -34 40 -72c-3 -38 -32 -108 -75 -161c-68 -83 -179 -151 -270 -148c-38 1 -92 15 -100 81c-7 65 30 150 102 222c77 76 198 135 302 130
c38 -2 71 -19 74 -55c2 -19 -6 -39 -15 -49c-4 -5 -12 -11 -14 -8c-1 3 2 3 8 12s13 25 10 44c-3 26 -31 42 -63 43c-89 4 -211 -86 -263 -144c-67 -76 -101 -164 -93 -217c6 -37 37 -49 62 -50c69 -3 148 52 228 152c43 54 83 123 88 172c3 22 -5 36 -22 38
c-51 5 -140 -58 -207 -142c-48 -61 -74 -123 -74 -162z" />
    <glyph glyph-name="P" unicode="P" horiz-adv-x="567" 
d="M394 282c0 25 -18 44 -42 45c-28 1 -53 -14 -65 -25c-13 -12 -16 -21 -19 -20c-2 1 2 13 14 26c11 11 36 31 73 29c29 -1 55 -20 55 -57c0 -74 -96 -163 -201 -159c-70 2 -113 29 -111 90c4 117 165 210 347 210c77 0 128 -19 158 -37c17 13 46 30 70 40
c23 10 64 21 101 21c32 0 62 -9 73 -27c2 -4 3 -8 0 -9c-2 0 -2 2 -6 6c-12 13 -36 21 -66 21s-66 -8 -95 -21c-27 -12 -52 -28 -66 -39c37 -31 69 -90 20 -160c-40 -59 -116 -72 -150 -75c-17 -1 -41 0 -50 3c-67 -72 -134 -104 -168 -118v-1c28 -5 78 -15 101 -15
c29 0 57 5 81 22c10 7 11 10 13 8c2 -1 1 -7 -9 -16c-23 -20 -56 -34 -96 -34c-44 0 -92 10 -128 19c-41 -15 -102 -21 -154 -21c-36 0 -91 5 -91 33c0 26 40 42 103 39c43 -2 119 -18 161 -28c56 33 101 85 160 156c48 59 115 141 182 186c-21 16 -79 38 -142 38
c-165 0 -298 -81 -307 -206c-3 -40 19 -73 69 -76c100 -4 185 94 185 152zM442 154c8 -2 22 -3 37 -1c47 6 90 35 120 78c38 54 26 109 2 133c-46 -40 -104 -142 -138 -185c-10 -13 -17 -21 -21 -25zM212 15c-35 7 -94 20 -130 22c-49 4 -86 2 -86 -16c0 -19 51 -23 78 -23
c51 0 111 7 138 17z" />
    <glyph glyph-name="Q" unicode="Q" horiz-adv-x="500" 
d="M391 280c0 19 -19 37 -47 36c-21 -1 -39 -10 -50 -19c-14 -12 -16 -19 -19 -18c-3 2 2 11 13 22c10 10 33 25 60 25c34 0 61 -17 61 -54c0 -24 -15 -55 -45 -82c-36 -32 -89 -51 -139 -51c-45 0 -78 23 -81 68c-3 51 35 110 81 145c57 45 138 66 187 66
c64 0 135 -27 137 -98c2 -74 -63 -138 -128 -183c-54 -37 -160 -86 -215 -103v-1c34 -8 81 -21 114 -21c63 0 118 25 176 77c8 8 12 9 14 7c2 -3 -5 -10 -8 -13c-60 -55 -120 -97 -191 -97c-55 0 -107 14 -152 27c-41 -14 -95 -25 -146 -25c-35 0 -82 6 -82 32s40 44 109 44
c43 0 106 -12 151 -25c50 20 129 60 200 122c61 52 108 107 108 170c0 52 -28 78 -87 78c-53 0 -118 -28 -176 -76c-49 -42 -80 -86 -78 -126c2 -38 30 -59 67 -59c44 0 91 26 124 56c25 22 42 48 42 76zM143 20c-33 7 -80 17 -111 20c-43 3 -87 -1 -87 -19
c0 -19 42 -23 69 -23c49 0 104 13 129 22z" />
    <glyph glyph-name="R" unicode="R" horiz-adv-x="659" 
d="M770 439c-26 0 -61 -9 -85 -19c-22 -9 -46 -22 -58 -31c21 -14 69 -58 44 -118c-22 -51 -92 -72 -133 -72v-1c17 -7 33 -22 35 -42s-10 -43 -20 -57c-18 -28 -36 -49 -36 -70c0 -8 5 -17 19 -17c16 0 39 13 72 38c21 16 37 30 48 40c6 6 11 10 14 7c2 -2 -1 -6 -7 -12
c-12 -12 -29 -27 -53 -46c-29 -23 -62 -43 -93 -43c-32 0 -48 16 -48 40c-1 25 18 55 35 77c19 24 36 43 35 62c0 12 -10 19 -18 23c-6 -1 -15 -2 -22 -1c-9 1 -14 3 -18 5c-7 -10 -20 -28 -28 -38c-73 -89 -132 -120 -187 -144c13 -3 37 -7 49 -8c27 -2 52 3 73 17
c15 10 15 13 17 12s1 -8 -9 -17c-27 -24 -60 -33 -94 -33c-24 0 -60 9 -77 14c-40 -12 -103 -18 -151 -17c-36 0 -91 8 -91 33c0 26 40 42 103 39c43 -3 113 -22 164 -34c37 18 81 58 146 145c87 114 157 182 206 214c-23 14 -62 27 -125 27c-127 0 -262 -77 -287 -184
c-13 -53 4 -99 52 -103c23 -2 25 4 27 1s-10 -11 -29 -11c-60 2 -102 45 -89 114c21 113 172 192 326 192c70 0 117 -15 139 -26c16 12 44 26 64 34c21 9 57 19 91 19c30 0 61 -9 72 -26c5 -8 5 -15 3 -15c-3 0 -1 2 -9 11c-12 13 -37 21 -67 21zM614 377
c-21 -17 -43 -44 -65 -75c-22 -30 -43 -63 -63 -90c4 0 10 0 19 -1c8 -1 14 -3 20 -5c44 3 90 31 108 74c18 42 5 79 -19 97zM208 10c-35 7 -91 23 -127 26c-49 5 -86 2 -86 -16c0 -16 51 -22 78 -23c49 -1 108 5 135 13z" />
    <glyph glyph-name="S" unicode="S" horiz-adv-x="545" 
d="M383 216c55 23 103 44 156 65c36 55 76 100 116 128c21 14 43 23 62 24c16 1 36 -5 34 -27c-3 -33 -58 -76 -125 -104c-7 -3 -19 -8 -27 -11c-19 -35 -35 -69 -51 -99c-77 -150 -193 -209 -323 -218c-53 -3 -119 3 -163 34c-37 -33 -68 -66 -80 -93c-3 -6 -5 -10 -8 -9
s-1 9 0 12c10 29 38 65 75 100c-21 19 -40 52 -37 94c8 98 135 150 209 155c53 5 133 -7 162 -51zM605 305c5 2 13 5 18 7c55 23 113 61 117 94c2 14 -10 20 -23 18c-14 -2 -30 -12 -46 -28c-18 -17 -46 -57 -66 -91zM249 70c-24 0 -53 6 -76 21c-21 -14 -40 -27 -60 -42
c-12 -9 -22 -17 -33 -26c37 -36 101 -44 154 -40c106 9 183 78 255 210c15 26 29 51 44 73v1c-49 -20 -94 -39 -143 -62c4 -9 6 -20 6 -31c-2 -67 -82 -104 -147 -104zM247 80c55 0 123 36 126 93c0 9 -1 17 -3 24c-21 -10 -43 -20 -67 -31c-33 -16 -78 -40 -122 -69
c22 -12 47 -17 66 -17zM367 208c-23 45 -97 55 -146 50c-70 -5 -167 -49 -174 -142c-2 -34 8 -63 22 -80c8 8 20 18 31 26c19 14 35 25 58 40c-11 10 -19 23 -21 38c-1 5 0 10 3 10c2 0 2 -4 3 -8c4 -14 13 -25 24 -34c43 26 90 50 134 70z" />
    <glyph glyph-name="T" unicode="T" horiz-adv-x="620" 
d="M716 513c-56 0 -102 -22 -127 -51c-7 -8 -11 -15 -15 -27c-3 -9 -2 -14 -5 -14c-2 0 -3 5 -2 13c1 10 7 24 15 34c25 33 73 58 135 58c84 0 144 -39 130 -108c-11 -57 -86 -84 -183 -81c-8 0 -18 1 -25 -1c-19 -7 -48 -29 -76 -62c-42 -50 -61 -91 -113 -140
c-73 -67 -165 -104 -230 -117v-1c22 -2 90 -9 159 -9c85 1 138 12 195 49c17 11 33 25 43 34c6 5 10 8 13 6c3 -3 -1 -7 -8 -13c-11 -10 -28 -25 -45 -37c-57 -40 -119 -58 -212 -58c-77 0 -159 9 -195 14c-28 -6 -79 -10 -107 -11c-36 -1 -100 -1 -97 17c4 20 44 25 83 25
c42 0 112 -8 149 -13c34 6 94 30 136 65c57 48 81 90 137 149c49 53 100 89 154 105v1c-41 4 -83 11 -136 21s-108 22 -161 24c-89 5 -167 -26 -175 -91c-5 -45 40 -77 95 -79c61 -1 102 24 105 63c1 10 -1 21 -7 29c-2 3 -6 5 -4 6c2 2 7 0 11 -3c7 -4 20 -16 20 -34
c1 -44 -60 -70 -125 -70c-63 1 -112 37 -106 91c7 73 95 115 198 112c51 -1 113 -12 166 -21c47 -8 106 -17 169 -21c87 -4 151 17 159 64c8 44 -39 82 -118 82z" />
    <glyph glyph-name="U" unicode="U" horiz-adv-x="553" 
d="M407 134c-54 -54 -165 -143 -230 -143c-31 0 -48 15 -44 46c6 42 50 95 127 181c63 72 100 117 111 153c8 30 -18 40 -43 40c-51 0 -118 -32 -174 -87c-41 -40 -80 -90 -80 -130c0 -24 12 -41 36 -41c17 0 28 5 36 10c10 6 12 12 15 10s-5 -11 -12 -16
c-10 -7 -23 -13 -41 -13c-29 1 -47 19 -50 49c-3 45 27 103 77 149c61 56 144 78 193 78c47 0 82 -18 81 -57c-1 -44 -47 -100 -97 -157c-78 -87 -122 -139 -127 -172c-3 -16 4 -23 14 -24c24 -3 73 27 110 54c61 45 95 79 147 140c29 33 105 117 183 178c17 13 60 43 81 41
c18 -3 12 -24 -6 -45c-22 -24 -53 -47 -75 -63c-32 -24 -51 -37 -91 -70c-8 -9 -20 -24 -32 -39c-50 -66 -108 -141 -108 -178c0 -12 8 -17 20 -17c16 0 41 14 64 31c14 10 35 27 49 40c9 8 17 15 20 12c2 -3 -1 -6 -10 -15c-18 -17 -39 -34 -53 -45
c-17 -13 -51 -40 -88 -40c-29 0 -47 15 -47 44s21 64 44 96zM574 277c19 15 40 29 59 43c30 20 56 44 66 54c20 22 26 36 19 39c-11 4 -33 -15 -54 -38c-29 -30 -60 -63 -90 -98z" />
    <glyph glyph-name="V" unicode="V" horiz-adv-x="482" 
d="M94 3c54 3 121 18 189 49c56 24 133 76 173 111c60 52 99 97 122 138c4 7 6 17 5 25c0 11 -5 32 -11 56c-4 15 -6 40 12 40c20 0 32 -18 29 -50c-2 -21 -13 -53 -25 -75c-25 -49 -63 -103 -117 -150c-57 -52 -119 -87 -181 -112c-75 -29 -150 -42 -218 -44
c-16 -4 -37 -8 -52 -9c-28 -2 -46 -1 -46 7c0 11 20 16 38 17c21 1 39 1 62 -2c44 19 103 63 170 132c53 54 114 131 123 200c7 53 -20 76 -60 76c-51 0 -108 -27 -149 -59c-43 -34 -76 -86 -81 -127c-4 -34 8 -63 43 -65c38 -3 78 32 106 62c22 24 42 60 44 81
c1 10 0 19 -4 26c-3 4 -5 5 -4 7s5 0 8 -3s13 -15 12 -38c-2 -27 -19 -59 -42 -84c-26 -28 -77 -62 -122 -59c-44 3 -66 32 -62 75c5 40 39 92 92 132c48 36 108 61 161 61c57 0 120 -22 111 -105c-8 -66 -75 -143 -132 -196c-51 -48 -133 -95 -194 -117z" />
    <glyph glyph-name="W" unicode="W" horiz-adv-x="601" 
d="M305 412c-50 0 -107 -27 -149 -59c-43 -34 -75 -86 -80 -127c-4 -34 7 -62 43 -64c38 -2 78 31 106 61c22 24 42 60 44 81c1 10 0 18 -5 26c-2 4 -4 5 -3 7s5 0 8 -3s13 -15 11 -38c-1 -27 -19 -59 -41 -84c-26 -28 -77 -62 -122 -59s-67 32 -62 75c5 40 39 92 92 132
c48 36 108 61 160 61c57 0 121 -22 111 -105c-6 -61 -113 -195 -179 -261v-1c32 22 65 47 114 83c42 30 92 67 124 92c12 34 26 70 44 99c24 38 50 57 71 57c18 0 31 -16 23 -40c-13 -41 -64 -76 -91 -102c-15 -62 -34 -146 -66 -189v-1c34 33 120 105 180 159
c96 87 131 152 137 187c2 14 1 27 -6 34c-7 6 -14 4 -13 7c1 2 7 3 10 3c29 0 43 -23 41 -49c-5 -41 -48 -104 -159 -195c-79 -65 -157 -130 -222 -192c-6 -6 -16 -15 -28 -15c-10 0 -10 9 -4 17c34 46 55 145 78 202v1c-19 -16 -80 -62 -129 -98
c-42 -30 -131 -95 -168 -119c-6 -4 -14 -10 -21 -10c-12 0 -15 8 -6 19c38 40 83 90 127 152s83 129 91 180c8 52 -20 76 -61 76zM527 261c19 18 63 50 76 83c7 19 0 31 -13 31c-15 0 -30 -22 -36 -36c-11 -23 -21 -56 -27 -78z" />
    <glyph glyph-name="X" unicode="X" horiz-adv-x="488" 
d="M475 314c40 35 127 102 202 102c29 0 49 -18 43 -44c-10 -49 -86 -78 -114 -82c-7 -1 -14 -2 -15 1c0 3 4 3 15 6c36 10 76 38 83 75c3 18 -6 32 -23 33c-71 2 -171 -98 -246 -193c-49 -63 -87 -124 -96 -164c-6 -29 3 -41 24 -41s51 16 80 36c14 10 40 32 56 46
c9 8 14 13 17 10s-4 -9 -11 -16c-13 -12 -43 -38 -57 -48c-13 -10 -56 -42 -100 -44c-48 -1 -64 21 -60 58c2 18 11 35 18 46v1c-62 -57 -138 -110 -231 -110c-48 0 -93 15 -97 62c-2 32 20 68 61 68c20 0 34 -11 33 -29c-1 -14 -9 -22 -20 -31s-21 -17 -22 -31
c-1 -23 23 -30 48 -30c111 0 217 108 286 196c50 63 98 143 106 175c8 35 -15 45 -39 45c-51 0 -118 -32 -174 -87c-41 -40 -81 -90 -80 -130c0 -24 12 -41 36 -41c19 0 28 5 36 10s11 11 14 10c4 -2 -4 -11 -11 -16c-10 -7 -23 -13 -40 -13c-29 0 -49 19 -51 49
c-1 46 25 105 77 149c63 54 143 78 193 78c47 0 77 -18 76 -57c-1 -17 -5 -32 -17 -49z" />
    <glyph glyph-name="Y" unicode="Y" horiz-adv-x="499" 
d="M421 148c-63 -66 -179 -157 -244 -157c-31 0 -48 15 -44 46c6 42 50 95 127 181c63 72 100 117 111 153c8 30 -18 40 -43 40c-51 0 -118 -32 -174 -87c-41 -40 -80 -90 -80 -130c0 -24 12 -41 36 -41c16 0 29 5 36 10c8 5 12 12 15 10s-5 -11 -12 -16
c-10 -7 -23 -13 -41 -13c-28 0 -48 19 -50 49c-2 44 27 104 77 149c61 55 144 78 193 78c47 0 82 -18 81 -57c-1 -44 -47 -100 -97 -157c-78 -87 -122 -139 -127 -172c-3 -16 4 -23 14 -24c24 -3 73 27 110 54c61 45 108 93 147 140c73 88 106 126 157 178
c24 23 53 43 74 41c20 -2 18 -25 3 -45c-19 -24 -46 -47 -66 -63c-30 -24 -47 -37 -81 -70c-37 -50 -94 -128 -130 -178c-39 -55 -64 -92 -87 -123c102 3 160 -46 148 -121c-2 -11 -7 -21 -11 -20c-2 1 1 4 3 19c8 71 -46 117 -146 112c-30 -43 -56 -76 -107 -136
c-79 -92 -180 -162 -236 -162c-18 0 -45 8 -42 42c5 58 96 139 148 175c65 43 138 73 192 84c51 73 115 167 146 211zM566 278c18 15 34 28 51 42c26 21 49 43 58 54c18 22 21 36 13 39c-11 4 -30 -15 -48 -38c-25 -30 -48 -62 -74 -97zM269 -74c-51 -11 -117 -40 -178 -82
c-51 -35 -127 -119 -127 -168c0 -18 11 -25 21 -26c17 -2 37 5 62 20c34 21 86 73 128 129c24 32 59 80 94 127z" />
    <glyph glyph-name="Z" unicode="Z" horiz-adv-x="457" 
d="M433 324c-46 -25 -87 -40 -129 -40c-38 0 -86 11 -82 56c5 48 79 82 132 84c7 0 15 0 15 -4c0 -3 -6 -2 -15 -3c-35 -2 -70 -27 -73 -63c-2 -28 19 -39 38 -41c31 -3 78 5 129 31c13 14 34 36 55 53c17 14 34 22 47 20c8 -1 7 -11 -2 -21c-20 -22 -45 -38 -74 -54
c-25 -25 -68 -63 -115 -102c-41 -34 -81 -66 -106 -83v-1h12c70 0 121 -36 124 -112c23 12 57 39 68 49c6 5 10 7 12 5c3 -3 -6 -11 -10 -15c-11 -11 -44 -37 -69 -50c-3 -78 -61 -154 -139 -220c-114 -96 -270 -173 -359 -172c-39 1 -60 16 -63 46c-6 71 115 141 211 190
c115 60 199 85 293 140c6 29 9 79 -13 104c-21 23 -64 25 -85 22c-20 -15 -38 -28 -61 -43c-38 -25 -65 -34 -73 -21c-7 12 18 36 57 53c23 10 48 18 72 22c25 18 64 48 104 82c33 27 72 62 99 88zM330 3c-89 -52 -185 -85 -284 -138c-93 -50 -211 -110 -206 -178
c2 -25 24 -36 51 -36c80 0 215 69 310 167c65 67 111 128 129 185zM215 140c-13 -2 -33 -8 -52 -17c-29 -13 -48 -29 -45 -35s23 3 49 20c19 12 37 24 48 32z" />
    <glyph glyph-name="bracketleft" unicode="[" horiz-adv-x="239" 
d="M485 463l-4 -7c-16 -1 -40 -3 -62 -6c-21 -3 -25 -4 -39 -22c-44 -58 -120 -161 -187 -245c-56 -71 -135 -166 -187 -228c-19 -22 -16 -27 7 -30c24 -2 59 -6 59 -6l-5 -6h-111c18 24 112 159 203 274c88 111 198 241 228 276h98z" />
    <glyph glyph-name="backslash" unicode="\" horiz-adv-x="239" 
d="M139 -86h-1c-4 0 -5 5 -7 13c-40 178 -68 294 -96 414c-3 14 1 28 10 39c13 14 16 -6 21 -30c21 -103 43 -240 76 -417c2 -11 2 -19 -3 -19z" />
    <glyph glyph-name="bracketright" unicode="]" horiz-adv-x="239" 
d="M-33 -87h-98l5 7c16 1 39 3 62 6c21 3 25 4 38 22c44 58 120 161 187 245c56 71 135 166 187 228c20 23 16 27 -6 30c-25 2 -59 6 -59 6l4 6h111c-17 -24 -111 -159 -202 -273c-88 -111 -198 -242 -229 -277z" />
    <glyph glyph-name="asciicircum" unicode="^" horiz-adv-x="307" 
d="M206 252h1c3 0 7 -7 10 -11c25 -38 42 -62 70 -96c3 -4 6 -8 4 -9c-3 -3 -10 2 -14 5c-20 15 -52 39 -80 70c-34 -25 -120 -67 -145 -78c-3 -1 -8 -4 -10 -1s5 7 8 9c46 30 113 80 143 103c5 4 9 8 13 8z" />
    <glyph glyph-name="underscore" unicode="_" horiz-adv-x="500" 
d="M445 -105v-30h-509v30h509z" />
    <glyph glyph-name="quoteleft" unicode="&#x2018;" horiz-adv-x="91" 
d="M97 280v1c0 3 2 8 6 14c18 28 49 55 66 66c6 4 10 5 11 4c3 -2 -1 -4 -6 -9c-13 -14 -24 -30 -27 -45c-2 -10 0 -12 -2 -20c-2 -10 -19 -19 -33 -20c-11 -1 -15 2 -15 9z" />
    <glyph glyph-name="a" unicode="a" horiz-adv-x="287" 
d="M195 133c24 25 41 38 57 38c21 1 23 -4 13 -16c-13 -15 -35 -40 -56 -66c-13 -16 -26 -33 -35 -49c-7 -12 -7 -20 -3 -23c5 -4 15 0 23 4c10 5 29 18 45 31c21 17 37 31 48 41c6 5 11 10 14 7s-2 -8 -13 -18c-13 -12 -37 -33 -56 -48c-20 -16 -53 -40 -86 -40
c-19 0 -28 9 -29 21c-1 11 5 25 14 36l-1 1c-26 -23 -72 -56 -110 -58c-22 -1 -45 8 -41 40c2 15 10 31 28 52l-1 1c-3 -3 -7 -7 -13 -12c-4 -3 -7 -5 -9 -3c-2 3 3 9 14 19c3 3 20 17 30 24s27 18 46 28c39 20 74 32 100 28c20 -3 27 -21 21 -38zM170 161
c-20 0 -56 -27 -92 -63c-41 -40 -58 -66 -56 -79c1 -7 6 -10 13 -10c19 0 57 22 84 47c32 28 68 71 69 87c1 13 -7 18 -18 18z" />
    <glyph glyph-name="b" unicode="b" horiz-adv-x="298" 
d="M271 133c-4 -29 -27 -65 -67 -95c-41 -31 -82 -42 -115 -43c-22 0 -40 3 -40 20c1 19 27 28 65 38c28 7 59 15 77 23c10 11 27 36 32 50c4 11 7 30 -10 30c-18 0 -51 -17 -87 -45c-44 -34 -73 -63 -111 -101c-8 -8 -18 -13 -29 -14c-20 -1 -19 5 -14 16c9 20 24 42 41 67
c9 13 18 26 29 39h-1c-14 -12 -27 -24 -36 -32c-6 -5 -9 -6 -11 -4s0 5 5 10c16 14 41 37 64 56c36 46 76 97 122 150c57 68 179 193 232 231c27 20 56 40 85 40c26 0 34 -18 31 -36c-8 -48 -104 -128 -205 -212c-61 -50 -145 -110 -204 -163c-17 -21 -67 -92 -67 -92l1 -1
c29 30 64 57 94 77c20 13 59 33 88 29c22 -2 34 -15 31 -38zM89 6c20 2 35 9 48 17c17 11 32 24 46 42c-12 -6 -46 -15 -62 -19c-36 -9 -57 -18 -56 -31c1 -8 11 -10 24 -9zM140 184c95 83 134 107 179 148c96 86 185 163 189 207c1 13 -6 19 -17 19c-17 0 -44 -20 -65 -40
c-34 -33 -81 -81 -133 -143c-73 -87 -99 -119 -153 -191z" />
    <glyph glyph-name="c" unicode="c" horiz-adv-x="214" 
d="M40 -9h-1c-37 0 -55 15 -53 42c2 20 13 41 29 60l-1 1c-3 -3 -11 -10 -17 -15s-11 -8 -13 -6c-2 3 2 7 6 11c13 12 22 19 37 30c11 8 31 21 48 30c34 18 66 31 92 27c23 -4 31 -19 27 -38s-21 -34 -34 -34c-17 0 -17 14 -8 29c11 19 15 31 3 33c-11 2 -34 -13 -62 -42
c-27 -27 -53 -65 -56 -89c-2 -15 7 -23 23 -23c13 0 48 6 92 36c19 13 44 34 60 48c6 5 9 6 11 4c2 -3 -2 -7 -8 -13c-13 -12 -41 -36 -59 -48c-35 -24 -82 -43 -116 -43z" />
    <glyph glyph-name="d" unicode="d" horiz-adv-x="287" 
d="M170 161c-20 0 -56 -27 -92 -63c-41 -40 -58 -66 -56 -79c1 -7 6 -10 13 -10c19 0 57 22 84 47c32 28 68 71 69 87c1 13 -7 18 -18 18zM74 143c35 18 72 32 100 28c19 -3 26 -19 22 -34h1c31 45 77 102 128 161c35 41 76 84 119 124c11 11 23 17 37 17c10 0 14 -3 15 -7
c-27 -26 -77 -81 -114 -124c-33 -38 -67 -79 -125 -153c-31 -40 -74 -99 -83 -115c-7 -12 -7 -20 -3 -23c5 -4 15 0 23 4c10 5 29 18 45 31c21 17 37 31 48 41c6 5 11 10 14 7s-2 -8 -13 -18c-13 -12 -37 -33 -56 -48c-20 -16 -53 -40 -86 -40c-19 0 -28 9 -29 21
c-1 11 5 25 14 36l-1 1c-26 -23 -72 -56 -110 -58c-22 -1 -45 8 -41 40c2 15 10 31 28 52l-1 1c-3 -3 -7 -7 -13 -12c-4 -3 -7 -5 -9 -3c-2 3 5 11 16 21c3 3 18 15 28 22s26 18 46 28z" />
    <glyph glyph-name="e" unicode="e" horiz-adv-x="213" 
d="M59 6c13 0 47 7 91 37c19 13 42 31 61 48c6 5 9 6 11 4c2 -3 -2 -8 -8 -13c-13 -12 -45 -38 -63 -50c-42 -28 -79 -41 -113 -41c-37 0 -54 14 -53 40c1 20 10 38 30 62l-1 1c-3 -3 -14 -13 -20 -18c-5 -4 -8 -5 -10 -3c-2 3 2 7 6 11c13 12 22 19 37 30c11 8 30 20 49 30
c29 15 59 28 86 28h1c22 0 30 -14 29 -27c-2 -26 -34 -46 -64 -61c-29 -14 -63 -26 -86 -32c-4 -8 -6 -17 -6 -23c0 -15 8 -23 23 -23zM48 63c20 5 47 16 68 30c25 17 40 38 41 52c1 9 -3 14 -12 14s-24 -10 -44 -29c-16 -15 -41 -47 -53 -67z" />
    <glyph glyph-name="f" unicode="f" horiz-adv-x="171" 
d="M505 569h1c23 0 31 -17 28 -36c-8 -48 -104 -127 -205 -211c-60 -50 -139 -110 -198 -163c-52 -64 -82 -104 -118 -155c10 2 29 8 43 14s34 15 56 29s45 33 57 44c4 4 13 12 16 9s-6 -11 -9 -14c-14 -14 -40 -35 -65 -51c-28 -17 -60 -30 -79 -37c-11 -4 -20 -9 -25 -16
c-7 -10 -9 -16 -14 -32c-16 -52 -49 -130 -84 -190c-32 -56 -76 -118 -116 -148c-15 -12 -30 -18 -43 -16s-21 14 -16 38c11 54 78 170 149 267c51 70 117 156 176 231l-1 1c-12 -9 -35 -30 -53 -47c-6 -5 -9 -6 -11 -4s0 5 6 11c24 23 59 52 81 69c45 56 82 102 111 137
c77 90 180 194 231 231c25 18 54 39 82 39zM149 185c94 82 127 108 172 148c96 86 185 163 189 207c1 12 -5 18 -16 18c-16 0 -40 -20 -62 -40c-33 -31 -78 -80 -130 -142c-74 -87 -99 -120 -153 -191zM-9 -25c-64 -82 -71 -94 -126 -176c-33 -50 -80 -122 -96 -159
c-6 -13 -5 -21 0 -24c6 -3 13 0 25 9c26 20 67 71 109 144c38 65 75 163 88 206z" />
    <glyph glyph-name="g" unicode="g" horiz-adv-x="284" 
d="M53 -62c-59 -39 -107 -63 -200 -125c-84 -56 -158 -125 -162 -177c-1 -15 5 -24 15 -27c16 -5 45 5 63 16c45 27 104 79 183 180c40 51 81 105 101 133zM170 161c-20 0 -56 -27 -92 -63c-41 -40 -58 -66 -56 -79c1 -7 6 -10 13 -10c19 0 57 22 84 47c32 28 68 71 69 87
c1 13 -7 18 -18 18zM74 143c36 19 74 32 100 28c20 -3 25 -18 23 -34h1c22 25 33 34 48 34c19 0 24 -4 13 -16c-18 -21 -32 -40 -52 -66c-17 -22 -52 -71 -82 -111c22 13 66 40 96 63c22 17 41 32 62 51c5 5 10 7 12 5c3 -3 -5 -10 -10 -15c-15 -14 -36 -31 -59 -49
c-36 -27 -78 -53 -110 -71c-43 -63 -108 -147 -137 -179c-67 -74 -147 -137 -206 -168c-26 -14 -50 -21 -69 -21c-25 0 -52 8 -47 42c8 60 124 144 202 195c92 59 134 81 203 124c18 25 51 70 67 94l-1 1c-27 -23 -71 -54 -108 -56c-22 -1 -44 7 -41 40c2 15 10 31 28 52
l-1 1c-3 -3 -7 -7 -13 -12c-4 -3 -7 -5 -9 -3c-2 3 5 11 16 21c3 3 18 15 28 22s26 18 46 28z" />
    <glyph glyph-name="h" unicode="h" horiz-adv-x="317" 
d="M140 184c95 83 133 108 179 148c96 83 185 163 189 207c1 13 -6 19 -17 19c-17 0 -44 -20 -65 -40c-33 -33 -81 -81 -133 -143c-73 -87 -99 -119 -153 -191zM262 34c-20 -15 -59 -40 -90 -40c-20 0 -31 9 -30 26c1 22 23 47 42 70c15 18 30 34 42 49c4 5 6 11 1 14
s-16 -1 -26 -6c-18 -9 -46 -26 -78 -51c-44 -34 -68 -57 -112 -91c-9 -7 -15 -9 -26 -9c-14 0 -20 2 -13 16c10 19 24 42 41 67c8 12 18 25 30 40v1c-15 -13 -27 -24 -38 -34c-6 -5 -9 -6 -11 -3c-1 3 2 6 5 9c4 4 42 37 65 56c34 45 76 99 121 150c58 67 180 195 232 231
c28 20 56 40 85 40c26 0 34 -18 31 -36c-8 -48 -104 -128 -205 -212c-61 -50 -130 -98 -204 -163c-17 -19 -59 -80 -83 -115l1 -1c24 20 57 49 92 75s79 54 109 54c21 0 33 -10 31 -27c-3 -18 -24 -41 -40 -61c-16 -19 -27 -34 -33 -44c-7 -12 -8 -19 -4 -22c5 -4 16 0 24 4
c12 6 25 13 48 31c17 13 37 31 48 41c8 7 11 8 13 6s-1 -6 -8 -13c-9 -9 -39 -36 -60 -52z" />
    <glyph glyph-name="i" unicode="i" horiz-adv-x="162" 
d="M220 304h1c13 0 19 -11 7 -26c-12 -16 -37 -27 -47 -27c-5 6 -6 21 -1 34c6 15 21 19 40 19zM81 143c-7 -3 -28 -18 -43 -30s-26 -21 -36 -30c-8 -7 -12 -10 -15 -8c-2 2 0 6 11 16s47 40 71 56c26 18 39 22 58 22c21 0 23 -3 11 -16c-18 -20 -34 -39 -54 -64
c-17 -21 -29 -39 -35 -49c-6 -11 -7 -18 -3 -22c5 -4 14 -2 24 3s27 16 44 30c21 17 30 25 46 40c9 8 13 12 16 9s-8 -13 -11 -16c-12 -12 -37 -34 -57 -50s-54 -41 -87 -41c-21 0 -30 10 -30 26c0 13 7 26 15 38c20 31 59 72 75 86z" />
    <glyph glyph-name="j" unicode="j" horiz-adv-x="167" 
d="M94 150c-1 0 -8 -3 -16 -8s-25 -17 -40 -29s-26 -21 -36 -30c-8 -7 -12 -10 -15 -8c-2 2 0 6 11 16s47 40 71 56c23 16 39 22 58 22c22 0 21 -3 11 -15c-17 -20 -34 -41 -52 -64c-23 -30 -58 -76 -89 -116c28 14 71 41 105 66c21 15 49 38 63 51c4 4 12 11 15 8
c3 -2 -2 -8 -11 -16c-15 -14 -43 -37 -64 -52c-34 -25 -83 -55 -116 -73c-43 -62 -104 -143 -133 -175c-95 -105 -211 -189 -278 -189c-18 0 -48 8 -42 42c9 59 120 141 198 192c91 60 122 73 201 125c17 24 44 62 69 95c47 62 74 91 90 102zM-76 -65
c-57 -39 -100 -60 -193 -122c-85 -56 -158 -125 -162 -177c-1 -17 6 -23 15 -26c16 -5 44 4 64 16c44 27 103 78 182 179c40 50 74 100 94 130zM211 304h1c16 0 21 -11 9 -26s-37 -26 -47 -26c-5 5 -6 21 -1 33c7 16 20 19 38 19z" />
    <glyph glyph-name="k" unicode="k" horiz-adv-x="312" 
d="M43 119v1c-15 -13 -27 -24 -38 -34c-6 -5 -9 -6 -11 -3c-1 3 2 6 5 9c4 4 42 37 64 56c34 45 76 99 122 150c58 67 172 186 232 231c29 21 56 40 85 40c26 0 34 -18 31 -36c-8 -48 -104 -128 -205 -212c-61 -50 -145 -110 -204 -163c-17 -19 -67 -91 -80 -110l2 -1
c28 25 52 48 86 74c18 14 47 33 66 41c17 7 34 10 50 9c27 -2 42 -21 33 -40c-7 -13 -24 -18 -47 -21c-20 -3 -37 -5 -43 -14s-9 -23 -8 -41c2 -24 7 -35 17 -37c7 -1 15 2 26 8c9 5 22 13 38 26c21 17 36 30 48 41c1 1 10 9 13 6c3 -4 -7 -12 -10 -15
c-13 -12 -35 -32 -59 -51c-19 -15 -55 -39 -86 -39c-20 0 -35 13 -34 47c1 26 14 47 22 55c9 9 27 15 41 17c11 2 23 5 31 14c6 7 11 24 -1 29c-7 3 -20 0 -31 -5c-26 -12 -46 -26 -76 -50c-43 -36 -91 -81 -110 -95c-10 -7 -15 -10 -26 -10c-16 0 -20 3 -14 16
c9 20 24 42 41 67c12 17 20 27 30 40zM140 184c95 83 133 108 179 148c95 83 185 163 189 207c1 13 -6 19 -17 19c-17 0 -44 -20 -65 -40c-33 -33 -81 -81 -133 -143c-46 -55 -74 -88 -153 -191z" />
    <glyph glyph-name="l" unicode="l" horiz-adv-x="168" 
d="M47 122l-1 1c-15 -13 -30 -27 -41 -37c-6 -5 -9 -6 -11 -3c-1 3 2 6 5 9c4 4 42 37 73 63c26 33 75 94 118 143c34 40 75 84 119 124c12 11 23 17 36 17c10 0 15 -4 15 -7c-19 -19 -107 -116 -149 -166c-67 -81 -139 -174 -160 -220c-3 -7 -9 -21 -2 -27c7 -5 22 1 31 6
c13 7 27 17 41 28c18 14 31 25 44 37c4 4 12 11 15 8c2 -2 -1 -6 -7 -12c-12 -12 -37 -34 -61 -52c-20 -15 -57 -40 -90 -40c-20 0 -32 9 -31 27c1 24 26 63 56 101z" />
    <glyph glyph-name="m" unicode="m" horiz-adv-x="512" 
d="M51 138c27 21 47 33 68 33c19 0 25 -11 25 -22c0 -12 -8 -25 -21 -43c-15 -20 -36 -47 -47 -63l1 -1c24 20 57 49 92 75s79 54 108 54c25 0 35 -12 32 -29c-3 -16 -22 -37 -39 -57s-27 -32 -36 -44l1 -1c23 20 59 51 94 77s79 54 109 54c22 0 33 -11 31 -27
c-3 -18 -24 -41 -40 -61c-16 -19 -27 -35 -33 -44c-8 -12 -8 -19 -4 -22c5 -4 16 0 24 4c12 6 26 14 48 31c17 13 37 31 48 41c6 5 10 9 13 6c2 -2 -1 -6 -8 -13c-9 -9 -39 -36 -60 -52c-20 -15 -59 -40 -90 -40c-20 0 -31 9 -30 26c1 23 25 49 42 70c15 18 29 34 42 49
c4 5 6 11 1 14s-16 -1 -26 -6c-18 -9 -46 -26 -78 -51c-44 -34 -68 -57 -112 -91c-9 -7 -16 -9 -26 -9c-16 0 -19 3 -13 16c10 21 35 56 53 78c17 21 35 39 42 49c4 5 5 12 -1 14s-14 -1 -25 -6c-18 -9 -48 -27 -78 -51c-44 -34 -68 -57 -112 -91c-9 -7 -15 -9 -26 -9
c-14 0 -21 2 -13 16c7 13 29 46 44 67s29 38 40 52c7 9 9 14 7 17c-3 4 -9 2 -15 -1c-12 -6 -27 -17 -39 -27c-13 -11 -29 -25 -43 -38c-10 -9 -14 -12 -17 -9c-2 3 3 8 15 19s34 32 52 46z" />
    <glyph glyph-name="n" unicode="n" horiz-adv-x="352" 
d="M207 -6c-19 0 -31 9 -30 26c1 22 23 47 42 70c15 18 30 35 42 49c4 5 6 11 1 14s-16 -1 -26 -6c-18 -9 -46 -26 -78 -51c-44 -34 -68 -57 -112 -91c-9 -7 -15 -9 -26 -9c-14 0 -21 2 -13 16c7 13 28 46 44 67c11 15 29 38 40 52c7 9 9 14 7 17c-3 4 -9 2 -15 -1
c-12 -6 -27 -17 -39 -27c-13 -11 -29 -25 -43 -38c-10 -9 -14 -12 -17 -9c-2 3 3 8 15 19s34 32 52 46c27 21 47 33 68 33c19 0 25 -11 25 -22c0 -12 -8 -25 -21 -43c-15 -20 -36 -47 -47 -63l1 -1c24 20 57 49 92 75s79 54 109 54c21 0 33 -10 31 -27
c-3 -18 -24 -41 -40 -61c-16 -19 -28 -36 -33 -44c-8 -13 -8 -19 -4 -22c5 -4 16 0 24 4c12 6 26 14 48 31c17 13 37 31 48 41c8 7 11 8 13 6s-1 -6 -8 -13c-9 -9 -39 -36 -60 -52c-20 -15 -59 -40 -90 -40z" />
    <glyph glyph-name="o" unicode="o" horiz-adv-x="249" 
d="M21 100c-7 -6 -11 -10 -18 -16s-11 -8 -13 -6c-2 3 3 8 7 12c7 7 21 18 31 25c13 9 27 18 48 29c29 15 60 26 83 27c7 0 15 0 15 -4c0 -2 -3 -2 -11 -6c-24 -11 -44 -28 -72 -55c-29 -29 -56 -68 -58 -88c-1 -10 3 -17 14 -17c22 0 62 27 93 61c1 10 5 25 18 42
c11 15 25 23 32 26c3 7 3 18 3 23c0 11 -4 14 -1 16c4 2 10 -2 14 -6c8 -8 14 -20 12 -35c-3 -24 -26 -53 -57 -81c4 -2 15 -1 19 0c9 2 20 7 34 17c13 9 21 16 32 26c9 8 14 13 17 10s-3 -9 -13 -18c-9 -8 -19 -17 -32 -26c-16 -11 -28 -16 -38 -18c-9 -2 -21 -2 -27 2
c-26 -20 -73 -49 -114 -49c-31 0 -50 15 -49 44c1 20 13 44 32 64z" />
    <glyph glyph-name="p" unicode="p" horiz-adv-x="327" 
d="M101 173c-46 -42 -84 -77 -100 -91c-8 -7 -13 -12 -16 -9s4 10 14 19c22 20 49 45 68 63c19 17 58 53 91 83c11 10 25 20 39 20c22 0 16 -5 -1 -25c-59 -69 -160 -200 -257 -331c-88 -119 -112 -152 -179 -257c-8 -13 -8 -18 -6 -20c3 -3 8 0 13 6c13 15 49 67 78 108
c21 30 67 91 115 155c41 54 83 108 121 153c26 30 61 65 88 85s60 39 86 39c22 0 32 -10 30 -26c-2 -17 -23 -39 -41 -60c-16 -18 -29 -33 -35 -43c-8 -13 -7 -20 -3 -23c5 -4 15 -3 27 3s28 16 46 30s33 27 46 39c5 5 12 11 15 8s-5 -10 -8 -13c-11 -11 -41 -37 -61 -52
c-21 -16 -56 -40 -90 -40c-25 0 -34 14 -32 29c3 21 26 47 44 67c16 18 36 40 43 50c4 6 4 11 0 13s-14 -1 -22 -5c-32 -16 -65 -41 -104 -83c-31 -34 -92 -110 -145 -181c-44 -59 -91 -121 -121 -165c-32 -47 -68 -98 -86 -113c-8 -7 -19 -12 -29 -10c-11 2 -17 10 -17 21
c0 23 18 54 38 84c37 56 68 100 140 197c48 66 160 212 211 275z" />
    <glyph glyph-name="q" unicode="q" horiz-adv-x="273" 
d="M174 171c20 -4 27 -21 21 -38c24 25 36 38 51 38c19 0 27 -4 16 -16c-18 -21 -45 -51 -65 -77c-18 -22 -58 -74 -133 -177c-88 -120 -110 -151 -177 -256c-7 -11 -8 -18 -5 -20s9 1 15 8c10 11 46 61 73 101c26 37 62 87 113 154c42 54 78 94 119 137c23 24 57 55 68 65
c8 7 14 11 16 9c3 -3 -1 -7 -12 -17c-14 -12 -37 -34 -57 -55c-38 -39 -86 -94 -126 -145c-64 -84 -87 -118 -119 -164c-32 -45 -62 -89 -85 -110c-9 -9 -20 -14 -29 -13c-11 1 -19 7 -19 21c0 17 17 46 41 85c36 57 64 98 136 196c46 64 85 115 114 154l-1 1
c-25 -24 -72 -56 -109 -58c-22 -1 -45 8 -41 40c2 15 10 31 28 52l-1 1c-3 -3 -7 -7 -13 -12c-4 -3 -7 -5 -9 -3c-2 3 5 11 16 21c3 3 18 15 28 22s26 18 46 28c36 19 74 32 100 28zM170 161c-20 0 -56 -27 -92 -63c-41 -40 -58 -66 -56 -79c1 -7 6 -10 13 -10
c19 0 57 22 84 47c32 28 68 71 69 87c1 13 -7 18 -18 18z" />
    <glyph glyph-name="r" unicode="r" horiz-adv-x="206" 
d="M171 145v-1c0 -13 -24 -34 -46 -60c-17 -20 -29 -37 -34 -47c-5 -9 -5 -16 -1 -19s11 -2 22 4s29 17 45 30c22 17 34 27 47 39c7 7 13 10 15 8c3 -3 -4 -9 -12 -17c-12 -11 -32 -29 -57 -48c-21 -16 -56 -40 -89 -40c-21 0 -32 11 -31 26c1 22 26 50 48 71
c24 23 62 50 65 57c4 11 -15 8 -40 8c-10 0 -18 0 -23 2c-8 -9 -22 -23 -38 -38c-17 -16 -29 -27 -40 -37c-9 -8 -13 -10 -15 -8s1 7 11 16c12 11 21 19 39 36c14 13 27 26 35 35c-9 6 -10 20 0 32c8 10 22 17 38 17c8 0 17 -4 18 -10c-7 -5 -11 -8 -17 -14
c-13 -14 -10 -21 3 -22c28 -1 57 -2 57 -20z" />
    <glyph glyph-name="s" unicode="s" horiz-adv-x="229" 
d="M119 21c11 4 28 12 44 22c28 17 49 35 66 50c5 4 10 9 13 6c2 -2 -2 -8 -11 -16c-10 -9 -29 -25 -51 -40s-44 -26 -63 -34c-18 -8 -54 -18 -84 -18c-53 0 -64 32 -60 60c4 29 27 53 51 52c14 -1 21 -11 19 -22c-2 -10 -9 -18 -22 -25c-9 -5 -22 -16 -23 -30
c-1 -16 11 -25 29 -25c20 0 45 16 67 54c18 29 36 89 47 102v1c-10 -10 -31 -26 -48 -38c-14 -10 -30 -20 -38 -24c-4 -2 -8 -4 -10 -1c-1 3 0 5 5 8c10 6 26 16 42 28c18 13 36 28 59 48c2 4 9 12 16 17c11 8 22 11 29 11c23 0 8 -13 -5 -21c-9 -6 -19 -10 -24 -15
c-8 -8 -7 -16 -7 -27c1 -28 3 -54 -9 -82c-6 -14 -20 -33 -32 -41z" />
    <glyph glyph-name="t" unicode="t" horiz-adv-x="167" 
d="M44 120c-16 -13 -28 -24 -40 -35c-7 -6 -10 -7 -12 -5s0 6 7 12c27 24 54 48 73 65c-13 0 -24 -1 -36 -1c-7 0 -12 0 -11 5c1 4 11 5 27 6c13 1 24 1 28 1c31 38 71 82 94 104c18 18 42 41 63 41c10 0 14 -3 15 -6c-12 -11 -38 -39 -61 -65s-41 -48 -61 -74
c23 1 41 1 57 1c8 0 15 -1 14 -6c-1 -6 -10 -5 -18 -5c-22 0 -38 0 -61 -1c-20 -24 -54 -75 -72 -110c-6 -11 -9 -25 -1 -29c6 -3 17 0 25 4c12 6 29 17 45 30c18 14 35 30 47 40c5 4 11 10 14 7c2 -2 0 -5 -7 -12c-11 -11 -40 -37 -61 -53c-18 -14 -54 -41 -92 -41
c-23 0 -31 13 -30 28c2 25 25 61 54 99z" />
    <glyph glyph-name="u" unicode="u" horiz-adv-x="322" 
d="M81 143c-7 -3 -28 -18 -43 -30s-26 -21 -36 -30c-8 -7 -12 -10 -15 -8c-2 2 0 6 11 16s47 40 71 56c26 18 39 22 58 22c21 0 23 -3 11 -16c-13 -14 -32 -37 -52 -62c-16 -21 -32 -43 -37 -54c-4 -8 -4 -15 -1 -18c4 -4 13 -3 23 2c22 12 44 28 75 52c48 37 76 62 108 87
c8 6 14 11 29 11c17 0 27 -2 15 -16c-18 -22 -33 -38 -53 -64c-17 -21 -30 -39 -37 -51c-6 -10 -7 -19 -3 -22c5 -4 13 -2 23 3s29 17 45 30c20 16 37 31 48 41c6 6 12 10 14 7c3 -2 -5 -10 -8 -13c-12 -12 -37 -33 -61 -52c-18 -14 -53 -40 -86 -40c-20 0 -31 9 -31 24
c0 14 7 28 16 41c11 16 30 35 47 52l-1 1c-20 -16 -54 -43 -80 -63c-41 -31 -77 -55 -107 -55c-21 0 -34 10 -33 28c1 14 10 29 19 41c20 27 40 51 71 80z" />
    <glyph glyph-name="v" unicode="v" horiz-adv-x="296" 
d="M222 45c-16 0 -29 8 -32 19c-11 -7 -25 -15 -42 -24c-30 -16 -61 -31 -96 -42c-9 -3 -26 -7 -34 -7c-7 0 -14 2 -15 12c-1 6 4 12 9 18c14 16 33 38 49 58c14 18 29 39 37 55c3 6 3 12 0 14c-4 3 -11 1 -15 -1c-11 -5 -27 -17 -39 -27c-16 -13 -37 -32 -42 -37
c-4 -4 -8 -6 -10 -4s0 6 4 10c6 6 39 36 53 47c24 19 49 35 70 35c19 0 31 -11 28 -35c-2 -18 -17 -42 -35 -64c-21 -27 -46 -51 -57 -61c26 7 60 23 90 39c10 5 34 19 44 27c1 19 13 43 23 57c18 26 35 40 48 37c12 -3 11 -21 3 -36c-7 -12 -23 -38 -64 -65
c2 -10 11 -15 22 -16c14 -1 31 4 48 16c12 9 21 17 25 21c5 5 12 11 15 8c2 -2 -4 -9 -10 -15s-12 -11 -24 -20c-17 -12 -34 -19 -53 -19z" />
    <glyph glyph-name="w" unicode="w" horiz-adv-x="427" 
d="M23 -7h-1c-20 0 -28 14 -26 31s17 43 37 67c15 18 38 41 59 59c-14 -6 -37 -23 -52 -35s-28 -23 -40 -34c-9 -8 -13 -10 -15 -8s2 8 13 18s46 40 70 56c26 18 38 22 65 22c21 0 24 -3 11 -16c-18 -18 -40 -40 -60 -64c-17 -21 -29 -39 -34 -52c-3 -8 -3 -14 0 -17
c5 -5 15 -2 25 3c12 6 29 17 59 41c43 34 67 55 101 84c9 7 18 14 32 14c18 0 27 -2 15 -16c-18 -21 -26 -31 -45 -56c-16 -22 -27 -38 -33 -51c-4 -8 -7 -21 0 -26c6 -4 16 -2 28 2c17 6 42 21 58 32c13 9 22 17 29 25c0 21 14 48 24 62c18 26 35 40 48 37
c11 -3 12 -20 3 -36c-11 -18 -33 -44 -63 -69c3 -7 11 -11 20 -12c13 -1 33 6 50 18c9 6 23 18 25 20c5 5 11 9 13 7s-1 -7 -9 -15c-5 -5 -11 -10 -25 -20c-17 -12 -39 -20 -55 -19c-12 0 -23 6 -27 14c-8 -7 -18 -14 -25 -19c-38 -27 -78 -47 -113 -47c-25 0 -35 13 -35 29
c0 10 5 23 13 36s22 30 36 46l-1 1c-21 -18 -53 -44 -75 -62c-25 -20 -67 -50 -100 -50z" />
    <glyph glyph-name="x" unicode="x" horiz-adv-x="285" 
d="M95 49c-16 -24 -45 -55 -75 -55c-24 0 -40 11 -38 37c1 21 19 41 39 41c15 0 24 -12 19 -25c-4 -11 -17 -14 -19 -25c-1 -8 4 -12 10 -12c24 0 49 34 72 67c15 21 28 41 32 57c3 13 -1 20 -12 22c-24 4 -54 -18 -75 -34c-17 -13 -33 -27 -46 -39c-8 -7 -14 -13 -17 -10
c-2 2 3 9 12 17c16 15 40 35 56 47c19 15 50 34 80 34c21 0 51 -14 42 -54h1c21 24 52 54 79 54c21 0 32 -16 28 -35c-3 -15 -17 -27 -32 -27c-8 0 -16 4 -15 15c1 8 8 11 10 19c1 4 -2 8 -8 8c-10 0 -23 -10 -38 -24c-10 -9 -22 -22 -38 -44c-11 -14 -22 -33 -25 -45
c-4 -14 -2 -25 10 -28c19 -4 53 13 81 34c22 16 42 35 54 46c5 5 8 5 10 3s0 -5 -6 -11c-13 -12 -32 -30 -53 -46c-23 -17 -58 -42 -94 -42c-31 0 -52 19 -44 55z" />
    <glyph glyph-name="y" unicode="y" horiz-adv-x="315" 
d="M213 112l-1 1c-20 -17 -55 -44 -81 -64c-41 -31 -77 -55 -107 -55c-21 0 -33 11 -32 29c1 11 7 25 18 40c21 28 46 56 71 80c-7 -3 -29 -19 -44 -31s-25 -20 -35 -29c-8 -7 -12 -10 -15 -8c-2 2 0 6 11 16s47 40 71 56c26 18 39 22 58 22c21 0 23 -3 11 -16
c-13 -14 -32 -37 -52 -62c-17 -21 -32 -43 -37 -54c-4 -8 -4 -15 -1 -18c4 -4 13 -2 23 3c22 12 44 27 75 51c48 37 76 62 108 87c8 6 14 11 29 11c17 0 25 -2 14 -15c-16 -21 -39 -51 -59 -78c-17 -22 -57 -74 -132 -177c-88 -120 -163 -232 -177 -256
c-8 -13 -8 -18 -5 -20s8 0 15 8c10 11 45 61 73 101c23 32 61 87 113 154c41 52 85 103 128 146c15 15 48 46 61 58c3 3 11 10 14 7c2 -3 -3 -8 -11 -16c-13 -12 -34 -32 -58 -56c-38 -39 -86 -94 -126 -145c-47 -62 -88 -119 -119 -164c-32 -45 -60 -87 -85 -110
c-9 -8 -19 -14 -29 -13c-11 1 -19 7 -19 21c0 17 18 48 41 85c36 57 64 98 135 196c48 66 96 133 156 215z" />
    <glyph glyph-name="z" unicode="z" horiz-adv-x="244" 
d="M50 36c8 2 17 3 26 2c20 -2 40 -12 48 -34c16 9 40 25 59 39c23 17 48 38 61 50c6 5 11 9 14 6c2 -2 -2 -7 -13 -17c-12 -11 -35 -30 -56 -46c-22 -16 -44 -30 -63 -41c1 -3 2 -9 2 -15c0 -71 -100 -182 -162 -236c-84 -75 -198 -149 -257 -149c-32 0 -42 18 -42 35
c0 49 66 111 155 179c78 58 147 100 195 129c28 17 53 33 76 47c3 27 -8 44 -27 44c-30 0 -56 -22 -72 -37c-3 -3 -8 -9 -12 -5s-1 12 3 17c7 9 24 20 42 30c38 20 64 30 98 49c35 21 57 38 73 56c2 2 5 7 4 9s-4 1 -6 0c-25 -14 -65 -27 -90 -27c-23 0 -41 6 -49 19
c-17 -19 -37 -40 -53 -55c-7 -6 -9 -6 -11 -4s1 6 6 11c15 14 38 38 54 57c-1 8 1 20 10 31s22 15 33 15c8 0 17 -3 17 -10c-4 -2 -13 -5 -16 -16c-2 -8 2 -20 28 -20c28 0 58 7 81 17c8 3 17 5 20 1c5 -5 -3 -19 -6 -23c-14 -19 -42 -44 -86 -68c-34 -18 -60 -27 -84 -40z
M-287 -394h1c55 0 151 78 225 157c53 55 138 160 152 211c-21 -14 -46 -29 -69 -44c-48 -30 -120 -75 -194 -131c-78 -59 -132 -119 -137 -166c-1 -13 2 -27 22 -27z" />
    <glyph glyph-name="braceleft" unicode="{" horiz-adv-x="295" 
d="M555 463l-6 -8c-11 0 -24 1 -40 1c-53 0 -88 -9 -115 -38c-44 -50 -60 -123 -126 -181c-27 -24 -61 -30 -90 -31c16 -16 23 -54 -2 -88c-31 -43 -66 -83 -88 -114c-25 -38 -16 -65 32 -78c14 -4 31 -6 44 -7l-6 -6c-11 0 -31 1 -49 5c-61 13 -83 54 -24 132
c18 24 51 63 72 97c22 35 4 60 -18 65v1c26 0 76 10 99 33c42 42 63 89 88 128c35 56 78 91 173 91c29 0 56 -2 56 -2z" />
    <glyph glyph-name="bar" unicode="|" horiz-adv-x="144" 
d="M82 750v-1000h-20v1000h20z" />
    <glyph glyph-name="braceright" unicode="}" horiz-adv-x="295" 
d="M253 458l5 5c12 0 32 0 49 -4c62 -13 84 -54 24 -133c-18 -24 -49 -57 -70 -91c-22 -34 -4 -57 20 -61v-1c-31 4 -77 -15 -102 -42c-41 -43 -64 -89 -88 -128c-36 -56 -78 -91 -173 -91c-30 0 -57 2 -57 2l6 7h40c48 0 89 8 115 38c44 50 60 123 126 181
c27 23 69 39 99 40c-19 13 -32 45 -7 79c32 42 67 83 88 114c25 38 16 64 -31 78c-15 4 -31 6 -44 7z" />
    <glyph glyph-name="asciitilde" unicode="~" horiz-adv-x="307" 
d="M226 214h1c58 0 76 -34 81 -61c1 -4 0 -6 -2 -6s-2 3 -4 6c-9 14 -25 28 -78 28c-37 0 -78 -23 -120 -23c-35 0 -47 24 -51 32c-1 3 -2 6 0 8c2 1 3 0 5 -4c5 -7 15 -15 32 -15c47 0 91 35 136 35z" />
    <glyph glyph-name="exclamdown" unicode="&#xa1;" horiz-adv-x="239" 
d="M151 118h-1c-15 0 -21 11 -9 26c12 16 37 27 47 27c5 -7 6 -22 1 -34c-6 -15 -20 -19 -38 -19zM-87 -177h-1c-15 0 -17 2 8 35c51 67 167 191 206 230c6 6 11 8 13 7c4 -2 -1 -9 -6 -16c-56 -74 -114 -154 -160 -224c-20 -29 -39 -32 -60 -32z" />
    <glyph glyph-name="cent" unicode="&#xa2;" horiz-adv-x="207" 
d="M188 209l-101 -152c5 -1 15 1 19 2c18 5 38 13 62 34c4 3 9 8 12 5s-1 -7 -6 -12c-20 -20 -59 -44 -96 -44c0 0 -32 -47 -44 -63c-3 -4 -6 -8 -10 -7s-1 7 2 12c9 15 38 59 38 59c-28 2 -42 18 -40 42c2 31 27 64 48 85c27 25 73 50 108 52c0 0 10 15 17 25
c13 20 18 25 24 22c4 -2 2 -7 -10 -25c-6 -10 -15 -23 -15 -23c25 -3 37 -15 35 -34c-2 -18 -19 -36 -32 -36c-15 0 -17 11 -10 28c5 12 7 25 -1 30zM75 61l99 151c-12 0 -34 -13 -54 -35c-26 -27 -53 -65 -53 -96c0 -9 4 -17 8 -20z" />
    <glyph glyph-name="sterling" unicode="&#xa3;" horiz-adv-x="510" 
d="M631 301v-1c0 -21 -41 -58 -105 -74c-35 -8 -62 -11 -86 -11c-8 -9 -19 -22 -28 -33c-13 -15 -24 -27 -38 -43c24 0 31 0 61 -1c5 0 14 0 14 -4c0 -3 -9 -4 -14 -4c-35 -1 -45 -1 -70 -1c-40 -41 -88 -69 -131 -92c28 -6 63 -16 101 -16s66 6 93 23c8 5 10 8 12 6
s0 -6 -4 -10c-17 -16 -56 -50 -123 -50c-30 0 -69 12 -111 27c-39 -19 -95 -26 -149 -26c-32 0 -92 7 -90 29c1 27 68 37 130 36c26 0 64 -3 130 -17c34 21 62 57 93 90c-40 -1 -68 -1 -124 -1c-13 0 -20 1 -20 6s6 8 19 8c51 -1 90 -2 133 -3c12 13 23 27 36 41
c9 10 24 27 32 35c-57 4 -93 33 -93 74c0 24 19 44 41 50c7 2 11 1 11 -1s-4 -2 -9 -4c-22 -8 -33 -27 -33 -45c0 -37 40 -60 81 -61h14c59 60 144 96 195 96c21 0 32 -8 32 -23zM621 300v1c0 6 -4 14 -22 14c-47 0 -96 -26 -150 -87c28 3 55 8 81 16c55 17 91 39 91 56z
M55 -1h1c45 0 105 7 135 22c-41 11 -89 17 -123 18c-47 1 -95 -1 -97 -18c-2 -18 69 -22 84 -22z" />
    <glyph glyph-name="fraction" unicode="&#x2044;" horiz-adv-x="140" 
d="M240 300h1c13 0 11 -4 -17 -32c-80 -78 -178 -181 -284 -302c-4 -5 -11 -11 -15 -8c-2 2 0 7 7 15c100 119 195 225 266 300c14 15 23 27 42 27z" />
    <glyph glyph-name="yen" unicode="&#xa5;" horiz-adv-x="371" 
d="M187 126c56 49 130 108 182 140c72 43 126 53 163 50c10 -1 25 -6 22 -12c-2 -3 -4 3 -19 3c-31 0 -85 -21 -156 -63c-51 -31 -128 -83 -172 -119c38 0 79 0 129 -1c6 0 17 -1 17 -4c0 -5 -11 -5 -17 -5c-50 -1 -103 -2 -145 -2c-6 -4 -16 -11 -21 -15
c-2 -2 -14 -14 -22 -23c47 -1 100 -2 125 -3c2 0 18 0 18 -4s-16 -4 -18 -4c-37 -1 -80 -1 -137 -1c-19 -21 -46 -48 -76 -76c-5 -5 -14 -11 -19 -8c-3 2 1 9 6 15c16 21 37 47 53 69c-19 0 -45 -1 -65 -1c-10 0 -25 -1 -25 5c0 7 10 10 26 10c13 0 41 0 73 -1
c11 14 15 19 18 23c4 5 10 13 11 15c-27 0 -59 -1 -97 -1c-10 0 -25 0 -25 6c0 7 10 10 26 10c38 -1 70 -2 103 -3c18 27 42 67 52 91c15 33 18 53 16 67c-1 9 -9 20 -30 20c-26 0 -55 -17 -70 -32c-2 -2 -6 -6 -8 -5s0 5 3 8c20 22 54 43 91 43c27 0 44 -10 51 -24
c11 -23 2 -53 -5 -73c-14 -36 -41 -74 -58 -95z" />
    <glyph glyph-name="florin" unicode="&#x192;" horiz-adv-x="281" 
d="M460 352v-1c0 -5 -2 -11 -5 -11s-2 4 -3 12c-4 23 -32 28 -42 28c-29 0 -66 -5 -120 -68c-26 -29 -60 -76 -86 -114c-11 -15 -19 -27 -22 -32c33 -1 68 -1 114 -2c4 0 11 0 11 -4s-7 -4 -11 -4c-52 0 -85 0 -121 -1c-17 -23 -42 -58 -67 -88c-39 -47 -87 -92 -137 -124
c-54 -34 -97 -47 -150 -47c-30 0 -52 13 -60 31c-3 6 -3 12 0 13c3 0 3 -2 6 -7c9 -16 34 -25 54 -25c43 0 87 13 139 54c38 30 80 83 119 134c9 11 28 38 42 58h-35c-7 0 -19 0 -19 6c0 7 10 7 17 7h45c38 51 64 84 89 113c87 98 152 111 192 110c24 0 50 -13 50 -38z" />
    <glyph glyph-name="section" unicode="&#xa7;" horiz-adv-x="356" 
d="M42 -104h-1c-47 0 -77 29 -70 64c5 23 21 33 38 31c12 -1 20 -12 17 -25c-3 -15 -20 -21 -20 -34c0 -12 11 -25 40 -25c32 0 59 14 72 43s4 56 -7 86c-10 26 -15 57 -7 79c14 45 59 70 103 70c-7 23 -9 48 -3 67c15 44 60 70 106 69c32 -1 58 -22 49 -52
c-4 -14 -18 -26 -31 -24c-16 2 -17 18 -13 27c7 15 16 19 15 27s-12 13 -24 13c-32 1 -59 -19 -70 -45c-9 -25 -4 -46 6 -71c13 -31 24 -60 14 -90c-16 -46 -65 -71 -106 -74c6 -21 10 -44 3 -65c-17 -49 -68 -71 -111 -71zM210 175c-34 2 -66 -19 -76 -44
c-9 -25 -4 -46 6 -71c3 -7 5 -13 7 -18c31 2 59 16 72 45c11 24 5 46 -4 74c-2 6 -4 11 -5 14z" />
    <glyph glyph-name="currency" unicode="&#xa4;" horiz-adv-x="320" 
d="M284 171v-1c0 -40 -30 -84 -61 -109c11 -16 20 -31 27 -45c3 -7 5 -13 0 -15c-4 -2 -7 1 -14 9c-11 13 -22 28 -30 39c-21 -16 -51 -29 -76 -30c-27 -1 -45 11 -56 23c-15 -9 -33 -21 -47 -30c-11 -7 -17 -10 -20 -7s1 9 9 15c13 10 28 22 47 37c-3 6 -6 18 -6 31
c0 41 31 82 60 105c-10 17 -18 31 -26 45c-4 7 -6 13 0 15c4 2 8 -3 13 -9c11 -14 22 -27 30 -38c23 16 55 28 79 28c26 0 44 -9 55 -22c15 11 31 22 40 28s16 9 19 7c5 -3 -3 -10 -7 -14c-7 -7 -23 -21 -42 -36c4 -8 6 -16 6 -26zM245 172v1c0 28 -14 48 -42 48
c-57 -1 -108 -88 -108 -140c0 -30 11 -52 40 -51c58 1 110 90 110 142z" />
    <glyph glyph-name="quotesingle" unicode="'" horiz-adv-x="109" 
d="M188 340c16 0 22 -8 5 -23c-30 -26 -62 -53 -79 -66c-5 -4 -9 -6 -10 -5c-3 1 0 7 3 11c13 20 29 46 41 64c6 10 20 19 40 19z" />
    <glyph glyph-name="quotedblleft" unicode="&#x201c;" horiz-adv-x="179" 
d="M97 280v1c0 3 2 8 6 14c18 28 49 55 66 66c6 4 10 5 11 4c3 -2 -1 -4 -6 -9c-13 -14 -24 -30 -27 -45c-2 -10 0 -12 -2 -20c-2 -10 -19 -19 -33 -20c-11 -1 -15 2 -15 9zM176 280v1c0 3 2 8 6 14c18 28 49 55 66 66c6 4 10 5 11 4c3 -2 -1 -4 -6 -9
c-13 -14 -24 -30 -27 -45c-2 -10 0 -12 -2 -20c-2 -10 -19 -19 -33 -20c-11 -1 -15 2 -15 9z" />
    <glyph glyph-name="guillemotleft" unicode="&#xab;" horiz-adv-x="279" 
d="M104 4h-1c-2 0 -4 5 -5 7c-8 19 -29 56 -42 76c-2 4 -6 7 -4 12c1 3 4 5 10 8c20 11 69 40 92 55c3 2 7 5 8 4c3 -2 1 -6 -3 -11c-12 -14 -45 -46 -72 -62c11 -28 19 -61 20 -80c0 -3 0 -9 -3 -9zM188 4h-1c-2 0 -4 5 -5 7c-7 19 -29 56 -42 76c-2 4 -6 7 -4 12
c1 3 7 6 11 8c20 11 69 40 91 55c3 2 7 5 9 4c2 -2 1 -6 -3 -11c-12 -14 -46 -46 -73 -62c11 -28 19 -65 20 -80c0 -3 0 -9 -3 -9z" />
    <glyph glyph-name="guilsinglleft" unicode="&#x2039;" horiz-adv-x="196" 
d="M105 4h-1c-2 0 -3 3 -5 7c-9 19 -29 56 -42 76c-2 4 -6 7 -4 12c1 3 4 5 10 8c20 11 70 41 92 55c6 4 8 5 9 4c2 -2 0 -6 -4 -11c-12 -14 -45 -46 -72 -62c11 -28 19 -65 19 -80c0 -3 0 -9 -2 -9z" />
    <glyph glyph-name="guilsinglright" unicode="&#x203a;" horiz-adv-x="196" 
d="M82 166h1c2 0 4 -5 5 -7c8 -19 29 -56 41 -76c2 -3 6 -8 5 -12s-6 -5 -11 -8c-39 -21 -73 -43 -91 -55c-4 -3 -8 -5 -10 -3s0 5 4 10c12 14 46 46 73 62c-11 28 -19 65 -20 79c0 4 0 10 3 10z" />
    <glyph glyph-name="endash" unicode="&#x2013;" horiz-adv-x="356" 
d="M322 99v-1c0 -4 -9 -5 -15 -5c-71 -2 -147 -5 -238 -6c-18 0 -24 3 -23 12c1 7 5 14 21 13c93 -3 169 -6 239 -8c9 0 16 -1 16 -5z" />
    <glyph glyph-name="dagger" unicode="&#x2020;" horiz-adv-x="356" 
d="M363 194v-1c0 -4 -13 -5 -23 -5c-29 -1 -62 -2 -92 -3c-70 -84 -164 -199 -228 -276c-5 -7 -18 -19 -24 -17c-5 3 3 16 8 22c52 69 137 183 202 269h-61c-17 0 -32 2 -33 10c0 9 17 13 31 13c17 0 46 0 77 -2c24 32 43 59 56 76c18 23 27 36 53 40c21 3 27 -4 -9 -46
c-13 -17 -33 -42 -59 -72c29 0 61 -2 79 -3c10 -1 23 -1 23 -5z" />
    <glyph glyph-name="daggerdbl" unicode="&#x2021;" horiz-adv-x="356" 
d="M371 211v-1c0 -4 -9 -4 -22 -5c-16 -1 -58 -2 -88 -3c-25 -30 -56 -67 -86 -104c34 -2 63 -3 93 -5c12 -1 22 -1 22 -5c0 -6 -10 -5 -22 -6c-43 -2 -73 -2 -108 -3c-50 -60 -101 -124 -140 -170c-7 -8 -17 -19 -23 -16c-5 2 1 12 8 22c29 40 77 103 122 164h-53
s-32 1 -33 9c-1 10 13 14 30 14c16 0 42 -1 72 -3c26 37 52 72 75 102c-27 -1 -50 -1 -64 -1c-23 0 -33 2 -33 10c-1 9 12 13 30 13s48 -1 82 -2c17 24 32 44 43 59c17 22 26 36 53 40c21 3 27 -4 -9 -47c-11 -13 -26 -32 -45 -54c27 -1 53 -2 73 -3c14 -1 23 -1 23 -5z" />
    <glyph glyph-name="periodcentered" unicode="&#xb7;" horiz-adv-x="126" 
d="M93 162h1c16 0 21 -11 10 -26c-13 -16 -37 -27 -48 -27c-4 6 -5 22 0 34c6 15 20 19 37 19z" />
    <glyph glyph-name="paragraph" unicode="&#xb6;" horiz-adv-x="417" 
d="M567 400h1c26 0 41 -7 41 -15c0 -6 -5 -9 -11 -9c-10 0 -13 6 -19 11c-5 4 -12 6 -21 5c-31 -3 -67 -28 -113 -82c10 -3 19 -8 24 -12s6 -7 5 -8c-2 -2 -5 0 -8 2c-6 4 -14 8 -27 12c-15 -18 -31 -38 -49 -62c-40 -53 -107 -136 -140 -170c-57 -57 -105 -89 -154 -90
c-6 0 -12 1 -15 2c-39 -26 -70 -38 -106 -38c-47 0 -80 23 -73 57c5 23 23 33 39 31c11 -1 20 -11 17 -25c-4 -18 -19 -22 -20 -34c-1 -11 14 -20 38 -20c43 0 86 29 111 50c33 28 64 64 98 107c-65 8 -100 84 -43 149c52 57 149 67 219 65c22 -1 43 -4 60 -8
c47 46 99 82 146 82zM380 314c-4 1 -8 1 -13 1c-67 0 -133 -14 -179 -75c-51 -66 -30 -114 3 -121c1 1 6 7 9 11c45 58 130 165 180 184zM89 -10c2 -1 6 -2 9 -2c27 0 60 21 107 69c41 42 74 88 124 152c26 33 55 71 87 102c-5 1 -11 2 -14 2s-8 0 -10 -1
c-31 -10 -85 -81 -142 -152c-58 -72 -116 -137 -147 -160c-4 -3 -11 -8 -14 -10z" />
    <glyph glyph-name="bullet" unicode="&#x2022;" horiz-adv-x="256" 
d="M152 198h1c27 0 49 -23 49 -51s-22 -50 -50 -50c-29 0 -51 22 -51 50s22 51 51 51z" />
    <glyph glyph-name="quotesinglbase" unicode="&#x201a;" horiz-adv-x="141" 
d="M73 36v-1c0 -3 -2 -9 -7 -15c-25 -29 -60 -55 -79 -65c-7 -4 -10 -5 -11 -4c-2 2 4 7 7 10c12 12 25 27 33 43c5 9 0 14 3 23c5 11 22 16 41 16c8 0 13 -2 13 -7z" />
    <glyph glyph-name="quotedblbase" unicode="&#x201e;" horiz-adv-x="228" 
d="M73 36v-1c0 -3 -2 -9 -7 -15c-25 -29 -60 -55 -79 -65c-7 -4 -10 -5 -11 -4c-2 2 4 7 7 10c12 12 25 27 33 43c5 9 0 14 3 23c5 11 22 16 41 16c8 0 13 -2 13 -7zM161 36v-1c0 -3 -2 -9 -7 -15c-25 -29 -60 -55 -79 -65c-7 -4 -10 -5 -11 -4c-2 2 4 7 7 10
c12 12 25 27 33 43c5 9 0 14 3 23c5 11 22 16 41 16c8 0 13 -2 13 -7z" />
    <glyph glyph-name="quotedblright" unicode="&#x201d;" horiz-adv-x="179" 
d="M177 349v-1c0 -3 -2 -9 -7 -15c-25 -29 -64 -55 -79 -65c-6 -4 -10 -7 -12 -5c-2 3 2 5 8 11c12 12 25 27 33 43c5 9 0 14 3 21c5 11 22 17 41 19c9 1 13 -3 13 -8zM265 349v-1c0 -3 -2 -9 -7 -15c-25 -29 -64 -55 -79 -65c-6 -4 -10 -7 -12 -5c-2 3 2 5 8 11
c12 12 25 27 33 43c5 9 0 14 3 21c5 11 22 17 41 19c9 1 13 -3 13 -8z" />
    <glyph glyph-name="guillemotright" unicode="&#xbb;" horiz-adv-x="279" 
d="M165 166h1c2 0 3 -3 5 -7c8 -19 29 -56 42 -76c2 -4 5 -8 4 -12c-1 -3 -3 -4 -10 -8c-20 -11 -70 -40 -92 -55c-3 -2 -6 -5 -8 -4c-3 2 -1 6 3 11c11 14 45 46 72 62c-11 28 -19 65 -20 79c0 4 0 10 3 10zM83 166h1c2 0 4 -5 5 -7c8 -19 29 -56 41 -76c3 -5 6 -8 5 -12
c-1 -3 -4 -4 -11 -8c-20 -11 -70 -40 -91 -55c-4 -3 -7 -6 -9 -4s-1 6 3 11c12 14 46 46 73 62c-11 28 -20 65 -20 79c0 5 0 10 3 10z" />
    <glyph glyph-name="ellipsis" unicode="&#x2026;" horiz-adv-x="378" 
d="M60 44h1c14 0 20 -11 8 -26c-12 -16 -36 -27 -47 -27c-5 7 -5 22 -1 34c5 16 19 19 39 19zM187 44h1c14 0 20 -11 8 -26c-12 -16 -36 -27 -47 -27c-5 7 -5 22 -1 34c6 16 20 19 39 19zM314 44h1c14 0 20 -11 8 -26c-12 -16 -36 -27 -47 -27c-5 7 -5 22 -1 34
c6 16 20 19 39 19z" />
    <glyph glyph-name="perthousand" unicode="&#x2030;" horiz-adv-x="548" 
d="M240 -6h-1c-22 0 -37 16 -34 39c3 21 16 44 38 67c23 24 55 39 76 43c4 1 12 1 12 -1s-6 -2 -16 -9c-14 -9 -28 -23 -46 -46c-17 -23 -31 -45 -34 -64c-2 -11 1 -18 10 -20c17 -2 38 16 57 43c19 26 31 44 38 69c3 11 3 18 0 22c-2 3 -6 4 -6 5c0 2 8 3 14 1
c14 -5 20 -20 16 -38c-4 -20 -15 -42 -41 -68c-25 -25 -60 -43 -83 -43zM306 250c-18 -10 -39 -17 -59 -19s-34 2 -44 6c3 -7 3 -18 1 -27c-5 -19 -16 -39 -40 -64c-24 -26 -61 -44 -83 -44c-23 0 -38 16 -35 39s16 45 38 68c22 24 55 39 76 43c5 1 11 1 11 -1s-7 -3 -16 -9
c-13 -9 -28 -25 -45 -47c-17 -23 -31 -45 -34 -63c-2 -11 1 -19 10 -20c17 -2 38 16 57 43c19 25 30 44 38 69c4 12 2 18 0 21c-2 4 -7 4 -6 6s8 3 14 1c3 -1 7 -3 8 -4c9 -5 25 -11 50 -9c25 3 55 16 80 34c14 15 24 27 43 27c13 0 11 -4 -17 -32
c-80 -78 -178 -181 -283 -302c-5 -5 -12 -11 -16 -8c-2 2 2 9 7 15c91 108 177 204 245 277zM396 -6h-1c-22 0 -37 16 -34 39c3 21 16 44 38 67c23 24 55 39 76 43c4 1 12 1 12 -1s-6 -2 -16 -9c-14 -9 -28 -23 -46 -46c-17 -23 -31 -45 -34 -64c-2 -11 1 -18 10 -20
c17 -2 38 16 57 43c19 26 31 44 38 69c3 11 3 18 0 22c-2 3 -6 4 -6 5c0 2 8 3 14 1c14 -5 20 -20 16 -38c-4 -20 -16 -41 -41 -68c-25 -25 -60 -43 -83 -43z" />
    <glyph glyph-name="questiondown" unicode="&#xbf;" horiz-adv-x="239" 
d="M-35 -175h-1c-38 0 -58 29 -47 66c14 46 58 76 117 104c23 11 44 22 62 33c19 11 32 23 35 32c5 9 7 30 19 30c7 0 2 -18 -2 -25c-9 -18 -26 -38 -55 -55c-70 -42 -112 -79 -129 -123c-9 -23 -1 -41 21 -43c23 -2 49 8 70 25c30 22 49 60 38 80c-3 6 -9 7 -8 9s7 2 11 1
c19 -4 20 -24 16 -38c-6 -22 -27 -42 -51 -60c-30 -22 -64 -36 -96 -36zM154 118h-1c-15 0 -21 11 -9 26c12 16 37 27 47 27c5 -7 6 -22 1 -34c-6 -15 -20 -19 -38 -19z" />
    <glyph glyph-name="grave" unicode="`" horiz-adv-x="307" 
d="M191 342h1c7 0 9 -5 11 -10c11 -26 32 -62 50 -86c2 -3 5 -7 2 -9s-7 2 -10 4c-18 15 -53 45 -66 67c-2 3 -5 9 -5 15c0 10 9 19 17 19z" />
    <glyph glyph-name="acute" unicode="&#xb4;" horiz-adv-x="307" 
d="M317 334h1c2 0 5 -2 7 -5c6 -10 2 -24 -7 -33c-15 -15 -63 -46 -83 -57c-6 -3 -10 -5 -12 -3c-2 3 1 6 5 10c19 18 54 54 75 79c4 5 8 9 14 9z" />
    <glyph glyph-name="circumflex" unicode="&#x2c6;" horiz-adv-x="307" 
d="M264 321h1c2 0 4 -4 5 -7c11 -24 23 -49 34 -66c3 -4 3 -6 2 -7c-2 -2 -8 1 -11 3c-10 7 -29 23 -43 42c-39 -23 -88 -42 -105 -47c-3 -1 -8 -2 -9 1c-1 2 4 4 7 6c32 19 85 52 109 70c4 3 6 5 10 5z" />
    <glyph glyph-name="tilde" unicode="&#x2dc;" horiz-adv-x="307" 
d="M269 251h-1c-23 0 -40 25 -63 27c-19 2 -32 -12 -40 -22c-4 -5 -5 -7 -8 -6c-2 1 -3 4 1 12c12 21 33 41 59 40s38 -26 62 -28c18 -1 33 15 40 24c2 3 5 6 8 5s1 -7 -1 -11c-8 -16 -29 -41 -57 -41z" />
    <glyph glyph-name="macron" unicode="&#xaf;" horiz-adv-x="307" 
d="M319 277v-1c0 -1 -1 -3 -4 -6c-11 -10 -16 -11 -20 -11c-46 1 -101 1 -134 0c-8 0 -13 0 -8 6c8 10 15 11 29 13c33 4 88 6 124 4c9 -1 13 -2 13 -5z" />
    <glyph glyph-name="breve" unicode="&#x2d8;" horiz-adv-x="307" 
d="M182 314h1c1 0 1 -3 3 -8c6 -16 23 -29 47 -31c40 -4 63 13 89 34c4 3 6 5 9 4c3 -2 2 -6 -1 -10c-25 -33 -60 -59 -104 -54c-28 3 -50 27 -50 54c0 7 2 11 6 11z" />
    <glyph glyph-name="dotaccent" unicode="&#x2d9;" horiz-adv-x="307" 
d="M268 300h1c15 0 20 -10 9 -23c-12 -15 -35 -25 -43 -25c-5 5 -6 19 -2 31c5 14 18 17 35 17z" />
    <glyph glyph-name="dieresis" unicode="&#xa8;" horiz-adv-x="307" 
d="M201 298h1c13 0 18 -10 8 -23c-11 -15 -33 -24 -43 -24c-4 5 -5 19 0 30c5 14 18 17 34 17zM301 298h1c13 0 18 -10 7 -23c-11 -15 -33 -24 -43 -24c-4 5 -4 19 0 30c5 14 19 17 35 17z" />
    <glyph glyph-name="ring" unicode="&#x2da;" horiz-adv-x="307" 
d="M250 335h1c23 0 43 -22 43 -45c0 -25 -20 -44 -44 -44c-25 0 -44 19 -44 44c0 23 19 45 44 45zM250 317h-1c-15 0 -25 -13 -25 -27c0 -15 10 -26 26 -26c15 0 26 11 26 26c0 14 -11 27 -26 27z" />
    <glyph glyph-name="cedilla" unicode="&#xb8;" horiz-adv-x="307" 
d="M26 -98h1c22 0 43 13 44 31c1 15 -9 24 -30 23c-11 -1 -17 -7 -20 -4c-2 3 2 7 4 9c9 10 29 29 42 40l8 -5c-8 -6 -27 -24 -32 -30c3 1 10 2 14 2c28 0 47 -12 44 -38c-3 -25 -35 -44 -74 -42c-33 1 -50 15 -57 25c-6 8 -6 14 -3 15s4 -3 8 -7c8 -9 22 -19 51 -19z" />
    <glyph glyph-name="hungarumlaut" unicode="&#x2dd;" horiz-adv-x="307" 
d="M269 314h1c5 0 11 -4 12 -11c1 -5 -2 -12 -13 -19c-16 -11 -53 -33 -78 -44c-8 -4 -10 -4 -11 -2c-1 3 3 5 8 9c22 18 39 34 59 56c7 8 15 11 22 11zM343 314h1c5 0 10 -4 11 -11c1 -5 -3 -13 -12 -19c-18 -13 -54 -33 -78 -44c-8 -4 -11 -4 -12 -2c-1 3 4 5 9 9
c22 18 38 34 58 56c8 8 15 11 23 11z" />
    <glyph glyph-name="ogonek" unicode="&#x2db;" horiz-adv-x="307" 
d="M91 1h11c-40 -21 -70 -48 -77 -68c-4 -13 2 -22 14 -23c18 -1 33 8 45 15c3 2 8 6 10 3s-1 -6 -4 -9c-19 -18 -46 -33 -73 -31c-21 2 -36 18 -29 40c9 26 54 54 103 73z" />
    <glyph glyph-name="caron" unicode="&#x2c7;" horiz-adv-x="307" 
d="M229 240h-1c-2 0 -4 4 -5 7c-11 24 -23 49 -34 66c-3 4 -3 6 -2 7c2 2 8 -1 11 -3c10 -7 29 -23 43 -42c39 23 88 42 105 47c3 1 8 2 9 -1c1 -2 -4 -4 -7 -6c-32 -19 -85 -52 -109 -70c-4 -3 -6 -5 -10 -5z" />
    <glyph glyph-name="emdash" unicode="&#x2014;" horiz-adv-x="552" 
d="M518 99v-1c0 -3 -7 -5 -14 -5c-71 -2 -344 -5 -435 -6c-18 0 -24 3 -23 12c1 7 5 14 21 13c93 -2 366 -7 435 -8c10 0 16 -2 16 -5z" />
    <glyph glyph-name="AE" unicode="&#xc6;" horiz-adv-x="913" 
d="M885 216v1c0 8 -24 12 -38 13c-13 1 -34 1 -47 -1c5 -14 27 -24 45 -25c19 -1 40 3 40 12zM578 105c9 23 26 55 73 85c32 21 77 36 112 42c-10 17 -13 64 23 105c32 37 92 62 131 69v1c-8 1 -16 1 -25 1c-47 0 -94 -14 -132 -33c-50 -25 -107 -63 -148 -98
c-23 -19 -41 -36 -61 -55c10 -20 27 -66 27 -117zM440 285h-1c-52 0 -80 -45 -82 -92c-2 -42 20 -83 33 -99c38 31 97 85 145 132c-21 35 -54 59 -95 59zM569 54c-1 8 0 21 2 31c-3 70 -21 111 -29 129c-51 -48 -104 -95 -145 -129c15 -16 54 -37 103 -41c22 -2 53 3 69 10z
M843 23c-37 -26 -84 -49 -143 -51c-64 -3 -121 18 -130 72c-15 -7 -45 -12 -70 -11c-57 3 -98 25 -116 42c-37 -27 -126 -85 -220 -92c-78 -6 -143 18 -143 73c0 36 26 61 52 62c23 2 37 -12 37 -31c-1 -15 -9 -23 -23 -33c-10 -7 -19 -14 -18 -25c0 -21 33 -38 98 -33
c78 7 153 49 207 87c-19 15 -54 62 -54 113c1 60 47 106 119 105c43 -2 83 -30 105 -67c22 21 39 36 59 53c43 37 104 77 151 99c41 19 86 31 139 31c14 0 34 -4 43 -7c13 2 40 5 59 4c68 -3 108 -30 108 -62c0 -51 -76 -77 -148 -70c-29 3 -49 15 -56 24c-3 4 -4 6 -2 7
s2 -1 7 -5c7 -6 25 -16 49 -18c62 -5 127 16 127 60c0 27 -22 56 -82 56c-25 0 -54 -7 -82 -21c-26 -12 -52 -32 -74 -54c-14 -15 -43 -48 -43 -94c11 2 33 3 49 2c29 -1 56 -7 56 -24c0 -14 -30 -19 -55 -19c-31 0 -67 11 -81 28c-63 -20 -122 -62 -139 -142
c-12 -61 17 -95 80 -95c51 0 94 21 130 45c26 18 59 47 71 58c8 7 11 8 13 6s1 -5 -9 -14c-13 -12 -49 -44 -71 -59z" />
    <glyph glyph-name="ordfeminine" unicode="&#xaa;" horiz-adv-x="263" 
d="M293 388c16 17 24 23 35 24c14 0 16 -3 9 -11c-21 -26 -47 -56 -62 -82c-5 -9 -5 -15 -2 -17s9 -1 16 3c8 4 20 12 31 21c16 13 26 22 35 30c5 4 8 7 10 5c3 -3 -2 -7 -6 -11c-7 -7 -22 -21 -42 -37c-19 -15 -37 -26 -56 -26c-12 0 -21 5 -22 15s3 21 9 29h-1
c-18 -16 -51 -43 -77 -44c-15 -1 -31 4 -29 27c2 17 16 43 50 68c23 16 64 33 86 29c14 -2 19 -14 16 -23zM272 403h-1c-12 0 -35 -17 -60 -42c-24 -25 -36 -43 -36 -52c0 -6 4 -8 8 -8c13 0 36 15 57 35c22 19 45 44 45 55c0 8 -4 12 -13 12z" />
    <glyph glyph-name="Lslash" unicode="&#x141;" horiz-adv-x="599" 
d="M256 55c13 -2 45 -10 75 -18c36 -9 82 -18 103 -18c58 0 102 19 163 72c5 4 11 10 13 7c3 -2 -4 -10 -6 -12c-73 -68 -111 -100 -176 -100c-38 0 -80 9 -108 20c-33 13 -70 30 -83 33c-24 -19 -74 -50 -135 -51c-40 -1 -61 7 -60 23c2 33 91 52 149 51c15 0 40 -2 47 -4
c26 24 50 59 65 82c-25 -9 -43 -16 -49 -18c-9 -3 -17 -6 -19 -1c-2 6 5 10 14 13c11 4 64 21 64 21c18 29 37 60 63 94c-66 14 -124 50 -124 101s53 98 147 98c74 0 122 -22 159 -52c25 10 61 19 90 19c54 2 99 -25 90 -70c-13 -65 -136 -98 -195 -105
c-34 -3 -79 -4 -110 0c-17 -25 -34 -47 -49 -66c25 7 47 14 69 21c4 1 11 4 12 1s-4 -6 -9 -8c-13 -5 -70 -25 -85 -30c-38 -45 -73 -75 -115 -103zM438 249c30 -4 71 -2 106 2c56 7 151 43 165 102c7 33 -19 55 -61 54c-23 0 -60 -12 -79 -24c7 -9 14 -21 19 -34
c9 -26 6 -37 4 -37s0 6 -15 35c-6 11 -17 23 -23 28c-39 -22 -79 -73 -116 -126zM261 353c0 -47 56 -81 121 -95c46 58 112 113 159 132c-28 19 -77 44 -147 44c-85 0 -133 -39 -133 -81zM224 44c-15 4 -36 8 -57 7c-42 -1 -79 -18 -80 -36c-1 -13 15 -17 32 -16
c31 0 79 20 105 45z" />
    <glyph glyph-name="Oslash" unicode="&#xd8;" horiz-adv-x="407" 
d="M449 398l-356 -397c8 -4 20 -7 30 -7c69 -3 148 52 228 152c43 54 78 112 88 169c2 10 2 25 0 33c-3 14 -7 18 -5 19c3 1 8 -4 14 -19c5 -13 10 -33 8 -54c-2 -38 -30 -108 -73 -161c-68 -83 -180 -151 -270 -148c-6 0 -20 1 -31 4c0 0 -59 -61 -72 -74
c-3 -3 -8 -8 -11 -5c-2 3 1 7 5 12c12 14 64 71 64 71c-25 9 -49 30 -55 73c-7 65 31 149 102 222c79 81 199 136 302 130c6 0 19 -2 25 -4c21 23 39 45 59 68c6 7 13 11 18 8c4 -3 1 -10 -4 -16c-19 -22 -37 -44 -57 -66c19 -9 32 -28 33 -45c2 -19 -7 -38 -16 -48
c-5 -6 -11 -11 -13 -9c-1 1 2 2 8 12s13 25 10 44c-1 13 -9 28 -31 36zM82 8l351 395c-4 1 -12 2 -16 2c-89 4 -211 -86 -263 -144c-67 -76 -101 -164 -93 -217c3 -18 11 -29 21 -36z" />
    <glyph glyph-name="OE" unicode="&#x152;" horiz-adv-x="675" 
d="M749 406h-1c-30 0 -71 -15 -94 -30c-31 -19 -58 -44 -68 -57c21 -17 58 -31 106 -31c65 0 121 18 129 63c5 27 -13 55 -72 55zM556 230c4 -16 27 -24 47 -25c19 -1 36 3 36 13c0 9 -20 13 -36 14c-11 1 -34 0 -47 -2zM454 -34c-90 -3 -146 27 -143 98
c-61 -49 -135 -81 -198 -79c-38 1 -92 15 -100 81c-7 65 32 149 102 222c79 83 198 136 302 130c49 -3 78 -24 81 -55c2 -23 -7 -40 -15 -49c-5 -6 -14 -11 -15 -8s3 3 9 12c5 7 13 23 11 44c-2 26 -32 41 -71 43c-89 4 -200 -75 -263 -144s-101 -164 -93 -217
c6 -37 37 -49 62 -50c69 -3 148 52 228 152c43 54 83 123 88 172c3 22 -5 38 -22 40s-23 -6 -24 -3c-2 3 11 11 25 11c35 0 44 -34 40 -72c-2 -23 -14 -60 -32 -96c27 13 56 24 91 32c-5 8 -7 20 -7 33c2 33 17 59 39 80c-5 6 -10 20 -10 34c0 16 6 29 10 28
c3 -1 -2 -5 -2 -28c0 -10 4 -22 9 -28c21 18 47 36 87 49c32 10 66 17 101 17c68 0 104 -28 100 -64c-6 -47 -81 -72 -153 -72c-52 0 -93 18 -111 33c-8 -11 -18 -27 -23 -43c-4 -14 -4 -23 -3 -32c12 2 35 4 50 3c29 -1 53 -8 53 -25c0 -14 -30 -19 -55 -19
c-31 0 -67 10 -80 27c-28 -10 -62 -33 -91 -60c-32 -30 -57 -71 -59 -110c-2 -47 33 -73 83 -73c59 0 107 26 146 52c26 18 59 47 71 58c8 7 11 8 13 6s1 -5 -9 -14c-13 -12 -49 -44 -71 -59c-41 -29 -92 -54 -151 -57z" />
    <glyph glyph-name="ordmasculine" unicode="&#xba;" horiz-adv-x="263" 
d="M194 287h-1c-21 0 -34 11 -33 30c1 23 17 44 34 58c24 21 58 34 83 37c6 1 11 0 11 -2s-4 -3 -8 -5c-15 -8 -33 -21 -50 -38c-20 -19 -39 -46 -40 -60c-1 -7 2 -12 9 -12c16 0 43 17 65 41c1 7 4 17 13 30c8 10 17 16 22 17c3 6 3 13 2 18c-1 7 -3 9 0 10s7 -2 9 -4
c6 -6 10 -14 9 -25c-2 -16 -17 -35 -39 -54c3 -2 8 -2 13 -1s13 5 23 12s18 14 23 19c4 4 8 7 10 5s0 -5 -5 -10c-9 -9 -14 -13 -22 -19c-12 -9 -22 -14 -28 -15c-8 -2 -16 -1 -20 1c-19 -13 -52 -33 -80 -33z" />
    <glyph glyph-name="ae" unicode="&#xe6;" horiz-adv-x="353" 
d="M199 6c13 0 47 7 91 37c19 13 45 34 61 48c6 5 9 6 11 4c2 -3 -1 -7 -8 -13c-13 -12 -41 -36 -59 -48c-42 -28 -83 -43 -115 -43c-37 0 -53 15 -52 41c0 7 3 17 7 23h-1c-24 -23 -74 -59 -114 -61c-22 -1 -45 8 -41 40c2 15 10 31 28 52l-1 1c-3 -3 -6 -6 -11 -10
c-6 -5 -9 -6 -11 -4c-2 3 3 8 9 14c9 8 21 18 31 25c11 8 30 21 50 31c36 19 76 26 100 27c15 1 34 -2 33 -6c-1 -6 -17 -3 -37 -8c-20 -4 -56 -22 -92 -58c-38 -37 -58 -66 -56 -79c1 -8 6 -10 13 -10c19 0 57 22 84 47c58 52 93 97 112 111c11 9 19 12 29 13
c12 1 17 1 8 -10c-3 -4 -14 -16 -19 -20c22 15 38 22 54 22c21 0 30 -13 29 -27c-2 -26 -34 -46 -64 -61c-29 -14 -63 -26 -86 -32c-4 -8 -6 -17 -6 -23c0 -15 8 -23 23 -23zM188 63c20 5 47 16 68 30c25 17 40 38 41 52c1 8 -3 14 -12 14s-23 -9 -43 -28
c-16 -15 -42 -48 -54 -68z" />
    <glyph glyph-name="dotlessi" unicode="&#x131;" horiz-adv-x="162" 
d="M81 143c-7 -3 -29 -19 -44 -31s-25 -20 -35 -29c-8 -7 -12 -10 -15 -8c-2 2 0 6 11 16s47 40 71 56c26 18 39 22 58 22c21 0 23 -3 11 -16c-18 -20 -33 -39 -53 -64c-17 -21 -30 -39 -36 -49c-6 -11 -7 -18 -3 -22c5 -4 14 -2 24 3s27 16 44 30c21 17 30 25 46 40
c9 8 13 12 16 9s-8 -13 -11 -16c-12 -12 -37 -34 -57 -50s-54 -41 -87 -41c-21 0 -30 10 -30 26c0 13 7 26 15 38c20 31 59 72 75 86z" />
    <glyph glyph-name="lslash" unicode="&#x142;" horiz-adv-x="168" 
d="M177 322c-5 -1 -14 -4 -16 2s5 10 15 13c18 5 40 11 64 17c21 23 45 46 69 68c11 10 23 17 36 17c10 0 14 -3 15 -7c-9 -9 -33 -35 -60 -64c35 8 63 14 86 19c5 1 10 2 11 -1s-2 -4 -9 -6c-36 -10 -68 -19 -102 -28c-43 -45 -78 -89 -117 -138
c-50 -63 -97 -125 -118 -169c-4 -10 -8 -21 -2 -26s20 0 31 6c9 5 25 16 39 27c19 15 38 31 51 43c4 4 8 7 11 4c2 -2 0 -5 -6 -11c-13 -12 -41 -37 -63 -54c-20 -16 -57 -40 -90 -40c-20 0 -32 9 -31 27c1 25 27 64 55 101h-1c-14 -12 -32 -28 -40 -36c-5 -5 -9 -6 -11 -4
c-2 3 2 7 7 12c19 17 47 41 71 61c41 53 102 127 150 179z" />
    <glyph glyph-name="oslash" unicode="&#xf8;" horiz-adv-x="249" 
d="M179 166h-1c-14 0 -45 -17 -87 -59c-21 -20 -42 -48 -53 -73c-3 -7 -5 -14 -5 -19c48 45 114 109 156 148c-2 2 -5 3 -10 3zM46 1h1c23 0 63 28 93 61c1 10 5 25 18 42c11 15 25 23 32 26c3 7 4 16 3 23c-43 -40 -110 -103 -157 -147c2 -3 5 -5 10 -5zM28 115
c13 9 27 18 48 29c31 17 64 26 89 28c12 1 22 0 30 -3c8 8 20 19 30 29c18 17 23 22 27 19s2 -7 -16 -24c-1 -1 -13 -12 -31 -29c10 -8 15 -22 13 -36c-3 -24 -26 -53 -57 -81c4 -2 15 -1 19 0c9 2 20 7 34 17c13 9 21 16 32 26c9 8 14 13 17 10s-3 -9 -13 -18
c-9 -8 -19 -17 -32 -26c-16 -11 -28 -16 -38 -18c-9 -2 -21 -2 -27 2c-30 -23 -75 -49 -113 -49c-6 0 -12 0 -17 2c-17 -16 -31 -29 -38 -36c-5 -5 -10 -8 -12 -5c-1 1 0 5 6 11c7 7 19 19 34 33c-16 6 -24 21 -23 39c1 20 13 44 32 64l-1 1c-7 -6 -11 -10 -18 -16
s-11 -8 -13 -6c-2 3 3 8 7 12c7 7 21 18 31 25z" />
    <glyph glyph-name="oe" unicode="&#x153;" horiz-adv-x="364" 
d="M199 63c20 5 47 16 68 30c25 17 40 38 41 52c1 8 -3 14 -12 14s-23 -9 -43 -28c-16 -15 -42 -47 -54 -68zM28 115c13 9 29 19 48 29c26 14 60 26 83 27c7 0 15 0 15 -4c0 -2 -3 -2 -11 -6c-24 -11 -48 -30 -72 -55c-28 -28 -55 -66 -58 -88c-1 -10 3 -17 14 -17
c22 0 55 23 93 61c23 23 43 49 50 68c3 7 4 18 3 25s-4 12 -1 14s10 -2 14 -6c7 -7 13 -18 12 -28c1 1 4 3 7 5c28 18 62 32 89 32c22 0 30 -14 29 -27c-2 -26 -34 -46 -64 -61c-29 -14 -63 -26 -86 -32c-4 -8 -6 -17 -6 -23c0 -15 8 -23 23 -23c13 0 47 7 91 37
c19 13 45 34 61 48c6 5 9 6 11 4c2 -3 -1 -7 -8 -13c-13 -12 -41 -36 -59 -48c-42 -28 -82 -43 -118 -43c-37 0 -52 15 -52 37c-30 -20 -65 -37 -97 -37c-31 0 -50 15 -49 44c1 20 13 44 32 64l-1 1c-7 -6 -11 -10 -18 -16s-11 -8 -13 -6c-2 3 3 8 7 12c7 7 21 18 31 25z
" />
    <glyph glyph-name="germandbls" unicode="&#xdf;" horiz-adv-x="339" 
d="M229 21c15 5 34 16 56 30c23 15 42 31 52 40c4 4 12 11 15 8c3 -4 -8 -13 -12 -17c-10 -9 -28 -24 -50 -39c-23 -15 -45 -26 -64 -34c-17 -8 -57 -18 -87 -18c-45 0 -60 31 -54 59c7 32 29 53 53 51c13 -1 19 -12 17 -21c-2 -10 -10 -17 -23 -25c-8 -5 -21 -15 -22 -29
c-1 -15 10 -25 27 -25c21 0 46 14 66 49c15 25 22 68 14 98c-8 29 -24 57 -6 85c14 21 68 29 115 58c45 28 64 59 68 83c3 20 -9 31 -22 32c-28 3 -66 -12 -120 -75c-26 -30 -72 -100 -111 -155c-38 -54 -78 -115 -136 -188c-45 -57 -132 -146 -209 -146
c-52 0 -70 16 -72 32s9 27 24 27s21 -16 27 -27c7 -13 15 -22 26 -22c49 0 89 38 162 139c33 45 65 97 94 140v1c-22 -18 -46 -40 -52 -46c-4 -4 -10 -8 -12 -5c-1 2 1 6 7 12c15 14 47 43 80 71c31 43 75 105 100 134c84 98 156 122 194 117c35 -3 49 -35 38 -67
c-7 -22 -30 -47 -65 -66c-46 -26 -114 -35 -126 -54c-15 -24 14 -54 27 -80c18 -33 23 -60 12 -88c-6 -15 -19 -31 -31 -39z" />
    <glyph glyph-name="logicalnot" unicode="&#xac;" horiz-adv-x="457" 
d="M80 159v1c0 4 11 6 19 6c84 0 202 4 297 7c16 1 20 -10 15 -15c-33 -37 -78 -88 -103 -120c-7 -9 -15 -17 -20 -13c-3 2 0 10 6 19c18 26 51 73 72 101c-101 3 -191 5 -267 7c-7 0 -19 2 -19 7z" />
    <glyph glyph-name="mu" unicode="&#xb5;" horiz-adv-x="322" 
d="M71 21c22 12 44 28 75 52c48 37 76 62 108 87c8 6 14 11 29 11c17 0 27 -2 15 -16c-18 -22 -33 -38 -53 -64c-17 -21 -30 -39 -37 -51c-6 -10 -7 -19 -3 -22c5 -4 13 -2 23 3s29 17 45 30c20 16 37 31 48 41c6 6 12 10 14 7c3 -2 -5 -10 -8 -13c-12 -12 -37 -33 -61 -52
c-18 -14 -53 -40 -86 -40c-20 0 -31 9 -31 24c0 14 7 28 16 41c11 16 30 35 47 52l-1 1c-20 -16 -54 -43 -80 -63c-41 -31 -77 -55 -104 -55c-12 0 -21 5 -24 13c-6 -9 -14 -23 -19 -33c-8 -15 -17 -37 -20 -56c-1 -5 -1 -15 0 -20c1 -4 -2 -7 -8 -4c-7 4 -13 12 -13 28
c0 15 6 35 16 56c13 27 36 64 49 82c9 14 42 54 74 83c-8 -3 -30 -19 -45 -31s-25 -20 -35 -29c-8 -7 -12 -10 -15 -8c-2 2 0 6 11 16s47 40 71 56c26 18 39 22 58 22c21 0 23 -3 11 -16c-13 -14 -32 -37 -52 -62c-16 -21 -32 -43 -37 -54c-4 -8 -4 -15 -1 -18
c4 -4 13 -3 23 2z" />
    <glyph glyph-name="trademark" unicode="&#x2122;" horiz-adv-x="487" 
d="M270 293c-3 -28 -5 -48 -6 -67c-1 -20 4 -23 15 -23v-10h-45v10c12 0 16 3 19 24c3 22 5 39 7 58c2 13 -2 17 -18 20v9h49c5 -14 12 -31 21 -51c5 -11 11 -24 16 -35l38 86h48v-9c-18 -1 -19 -11 -18 -22c3 -28 5 -48 7 -61c2 -15 5 -18 17 -19v-10h-65v10
c15 1 19 5 18 20c-1 21 -2 40 -5 72l-20 -45c-9 -19 -16 -35 -24 -54l-10 -3c-9 22 -14 33 -23 54c-8 19 -13 30 -21 46zM231 281l-10 -2c-6 25 -11 24 -37 24v-25v-50c0 -19 4 -25 20 -25v-10h-70v10c17 0 21 6 21 25v50v25c-27 0 -33 1 -38 -24l-10 2l4 33h116z" />
    <glyph glyph-name="Eth" unicode="&#xd0;" horiz-adv-x="673" 
d="M482 173c19 0 40 0 65 -1c4 0 10 -1 10 -4s-8 -3 -10 -3c-30 -1 -52 -1 -73 -1c-74 -89 -140 -127 -224 -153c14 -3 60 -9 84 -9c102 0 190 44 254 132c47 66 56 150 17 200c-35 -33 -78 -105 -123 -161zM407 161h-35c-6 0 -16 0 -16 6c0 7 9 7 15 7h46c4 5 8 9 12 14
c48 57 117 125 165 157c-45 46 -134 68 -207 68c-158 0 -302 -98 -304 -211c0 -44 24 -77 75 -80c55 -4 105 20 141 52c35 32 57 70 57 98c0 29 -18 46 -44 47c-27 1 -52 -13 -65 -26c-12 -13 -15 -21 -18 -20c-2 1 1 11 12 23c12 14 40 34 74 32c30 -1 56 -21 56 -57
c0 -37 -23 -77 -60 -108c-39 -32 -93 -54 -154 -51c-73 4 -117 36 -116 98c2 120 176 212 346 212c83 0 170 -21 222 -67c12 8 40 25 65 35c25 9 61 20 98 20c27 0 46 -8 56 -15c7 -5 11 -13 9 -15c-3 -1 -3 3 -14 10c-8 5 -26 11 -51 11c-32 0 -65 -9 -93 -21
c-27 -12 -51 -28 -60 -36c60 -66 58 -161 11 -231c-56 -83 -179 -121 -280 -121c-52 0 -110 2 -137 5c-28 -3 -71 -6 -99 -6c-90 0 -159 -1 -158 18c2 19 64 22 145 19c36 -1 93 -8 134 -15c73 21 120 85 172 148z" />
    <glyph glyph-name="onehalf" unicode="&#xbd;" horiz-adv-x="407" 
d="M239 25c7 1 13 2 22 1c14 -1 27 -9 37 -9c14 0 23 4 37 20c2 2 4 4 6 3s1 -3 0 -4c-18 -23 -35 -42 -60 -42c-11 0 -25 4 -36 8c-9 3 -15 5 -25 5c-6 0 -14 -1 -19 -5c-4 -3 -8 -7 -11 -8c-2 -1 -5 1 -3 4c1 2 5 6 10 9c9 6 33 18 56 31c40 23 79 55 86 81
c4 14 -2 23 -15 23c-14 0 -26 -5 -39 -15c-9 -7 -16 -15 -19 -26c-3 -14 3 -21 14 -19c3 1 5 1 5 0c0 -2 -2 -3 -4 -4s-10 -4 -16 -3c-14 2 -14 14 -12 22c3 13 15 27 29 38c17 13 39 22 58 22c27 0 40 -16 34 -38c-8 -26 -36 -46 -67 -65c-24 -14 -52 -25 -68 -29zM356 300
c13 0 11 -4 -17 -32c-79 -78 -178 -181 -283 -302c-4 -5 -12 -11 -16 -8c-2 2 2 9 7 15c100 119 195 225 266 300c14 15 24 27 43 27zM160 236c-12 -7 -28 -17 -40 -23c-13 -6 -25 -6 -26 -3s1 0 29 15c18 9 37 20 52 30c8 5 20 11 25 11s9 -1 -1 -13
c-38 -46 -66 -84 -94 -123c-16 -21 -19 -23 -46 -28c-12 -2 -15 -1 2 22c31 40 88 107 99 112z" />
    <glyph glyph-name="plusminus" unicode="&#xb1;" horiz-adv-x="359" 
d="M299 276h1c17 0 23 -3 -1 -32c-15 -18 -35 -41 -53 -63c42 -1 80 -2 113 -3c6 0 15 -1 16 -5c0 -4 -9 -5 -15 -5c-39 -1 -81 -2 -127 -2c-26 -29 -39 -43 -59 -65c-7 -7 -15 -14 -19 -11c-2 2 -1 8 5 16c15 23 13 19 42 59c-33 -1 -71 -1 -104 -1c-24 0 -26 3 -24 10
c3 9 8 12 21 12c39 -1 81 -3 120 -4c14 20 33 47 47 66c12 16 18 28 37 28zM303 66v-1c0 -4 -9 -5 -15 -5c-72 -2 -147 -3 -248 -4c-13 0 -14 5 -12 12c3 7 9 12 23 12c91 -3 169 -6 237 -9c6 0 15 -1 15 -5z" />
    <glyph glyph-name="Thorn" unicode="&#xde;" horiz-adv-x="586" 
d="M210 96c-53 -31 -129 -84 -163 -110c-40 -32 -81 -68 -81 -88c0 -9 8 -12 15 -12c40 2 100 45 229 210zM476 358c30 7 60 17 74 22c26 10 80 33 82 57c1 14 -7 22 -25 21c-32 -2 -65 -32 -82 -49c-13 -12 -32 -33 -49 -51zM368 224c58 51 114 94 160 94
c27 0 54 -16 54 -59c0 -26 -14 -62 -47 -104c-73 -94 -198 -148 -260 -140c-30 3 -42 17 -38 22c3 3 9 -10 37 -12c55 -6 156 63 222 148c75 95 50 131 20 131c-34 0 -109 -56 -169 -110c-69 -86 -131 -166 -214 -238c-46 -41 -104 -79 -149 -82c-17 0 -30 6 -30 24
c0 24 39 59 85 96c40 31 126 89 185 123c13 16 42 56 66 85c27 33 80 94 120 132v1c-29 -5 -58 -9 -87 -9c-62 0 -120 12 -120 57c0 31 34 53 66 59c22 4 33 2 33 -2c0 -2 -12 1 -31 -5c-19 -7 -44 -24 -43 -53c2 -37 45 -47 94 -47c32 0 66 5 99 11c24 26 51 49 75 67
c31 24 75 53 112 54c22 1 36 -11 35 -30c-2 -32 -59 -54 -93 -66c-17 -6 -46 -15 -81 -24c-34 -39 -88 -106 -101 -123z" />
    <glyph glyph-name="onequarter" unicode="&#xbc;" horiz-adv-x="389" 
d="M183 52c0 3 7 7 13 11c16 11 42 27 65 41c30 18 46 27 65 38c21 11 36 15 41 15c6 0 5 -2 3 -5c-29 -38 -51 -68 -66 -89c7 0 16 -1 24 -3c7 -2 12 -5 11 -7s-4 -1 -14 -1h-28c-7 -9 -22 -29 -34 -47c-7 -10 -19 -12 -30 -14c-13 -1 -15 0 -4 17s19 27 32 44
c-13 0 -28 0 -43 -1c-12 -1 -21 -2 -28 -3c-4 -1 -7 0 -7 4zM332 137c-19 -11 -42 -24 -65 -38c-26 -16 -45 -29 -59 -37v-1c17 2 46 3 61 3zM355 300c13 0 11 -4 -17 -32c-79 -78 -178 -181 -283 -302c-4 -5 -12 -11 -16 -8c-2 2 2 9 7 15c100 119 195 225 266 300
c14 15 24 27 43 27zM160 236c-12 -7 -28 -17 -40 -23c-13 -6 -25 -6 -26 -3s1 0 29 15c18 9 37 20 52 30c8 5 20 11 25 11s9 -1 -1 -13c-38 -46 -66 -84 -94 -123c-16 -21 -19 -23 -46 -28c-12 -2 -15 -1 2 22c31 40 88 107 99 112z" />
    <glyph glyph-name="divide" unicode="&#xf7;" horiz-adv-x="319" 
d="M217 215h1c13 0 18 -11 8 -24s-33 -24 -43 -24c-4 6 -5 19 0 31c6 14 18 17 34 17zM311 129v-1c0 -3 -9 -5 -16 -5c-71 -2 -134 -2 -235 -3c-14 0 -15 5 -12 12s9 12 22 12c92 -4 157 -7 225 -9c6 0 16 -1 16 -6zM167 90h1c13 0 18 -11 8 -24s-33 -23 -43 -23
c-4 5 -5 18 0 30c6 14 18 17 34 17z" />
    <glyph glyph-name="brokenbar" unicode="&#xa6;" horiz-adv-x="144" 
d="M82 675v-350h-20v350h20zM62 175h20v-350h-20v350z" />
    <glyph glyph-name="degree" unicode="&#xb0;" horiz-adv-x="155" 
d="M124 264h1c23 0 44 -20 44 -45c0 -24 -21 -44 -45 -44c-25 0 -45 20 -45 44c0 25 20 45 45 45zM124 249h-1c-15 0 -29 -14 -29 -30s14 -29 30 -29s30 13 30 29s-14 30 -30 30z" />
    <glyph glyph-name="thorn" unicode="&#xfe;" horiz-adv-x="327" 
d="M67 155c19 17 45 41 69 65c11 14 40 47 66 78c34 40 75 84 119 124c11 11 23 17 37 17c9 0 14 -2 14 -7c-27 -28 -101 -110 -176 -199c-59 -69 -160 -200 -257 -331c-88 -119 -112 -152 -179 -257c-8 -13 -8 -18 -6 -20c4 -3 8 1 13 6c13 15 50 67 78 108
c21 28 67 91 115 155c41 54 83 108 121 153c26 30 61 65 88 85c28 20 60 39 86 39c22 0 33 -10 30 -26c-2 -17 -23 -39 -41 -60c-16 -18 -29 -33 -35 -43c-8 -13 -7 -20 -3 -23c5 -4 15 -3 27 3s28 16 46 30s35 29 48 41c5 5 10 9 13 6s-5 -10 -8 -13
c-11 -11 -40 -37 -61 -52c-21 -16 -56 -40 -90 -40c-25 0 -34 14 -32 29c3 21 26 48 44 67c16 18 36 40 43 50c5 7 4 11 0 13s-14 -1 -22 -5c-32 -15 -65 -41 -104 -83c-31 -34 -92 -110 -145 -181c-44 -59 -91 -121 -121 -165c-32 -47 -68 -98 -86 -113
c-8 -7 -19 -12 -29 -10c-11 2 -17 10 -17 21c0 23 18 54 38 84c53 78 68 100 140 197c48 66 161 213 211 275c-46 -42 -83 -76 -100 -91c-8 -7 -13 -11 -16 -8c-2 2 2 8 10 15c22 20 53 48 72 66z" />
    <glyph glyph-name="threequarters" unicode="&#xbe;" horiz-adv-x="420" 
d="M149 197c8 0 16 -3 21 -7c9 -7 10 -19 6 -31c-5 -16 -20 -32 -39 -42c-18 -9 -39 -15 -60 -15c-24 1 -43 9 -40 30c2 14 16 27 30 27c13 0 18 -7 17 -14c-1 -5 -4 -8 -11 -13c-4 -3 -10 -6 -11 -11c-1 -7 5 -11 16 -11c17 1 46 12 65 50c6 13 8 28 -3 29
c-5 0 -9 -2 -15 -5c-5 -3 -8 -3 -9 -1s2 6 11 10c34 14 55 32 55 48c0 7 -5 12 -15 12c-8 0 -18 -3 -29 -10c-8 -5 -14 -13 -16 -18s-2 -9 -1 -12c1 -4 2 -5 1 -6c-2 -1 -5 0 -8 4c-1 2 -3 8 -1 15c3 10 13 20 24 27c13 8 32 14 49 14s28 -8 28 -19c0 -13 -7 -24 -22 -33
c-11 -7 -25 -13 -43 -18zM214 52c0 3 7 7 13 11c16 11 42 27 65 41c30 18 46 27 65 38c21 11 36 15 41 15c6 0 5 -2 3 -5c-29 -38 -51 -68 -66 -89c7 0 16 -1 24 -3c7 -2 12 -5 11 -7s-4 -1 -14 -1h-28c-7 -9 -22 -29 -34 -47c-7 -10 -19 -12 -30 -14c-13 -1 -15 0 -4 17
s19 27 32 44c-13 0 -28 0 -43 -1c-12 -1 -21 -2 -28 -3c-4 -1 -7 0 -7 4zM364 136l-1 1c-19 -11 -42 -24 -65 -38c-24 -15 -45 -29 -59 -37v-1c17 2 46 3 61 3c18 22 48 60 64 72zM386 300c13 0 11 -4 -17 -32c-79 -78 -178 -181 -283 -302c-4 -5 -12 -11 -16 -8
c-2 2 2 9 7 15c100 119 195 225 266 300c14 15 24 27 43 27z" />
    <glyph glyph-name="registered" unicode="&#xae;" horiz-adv-x="453" 
d="M366 286v-1c0 -69 -62 -126 -132 -126c-71 0 -134 57 -134 127s63 128 134 128c70 0 132 -58 132 -128zM344 286v1c0 60 -51 110 -111 110c-61 0 -111 -50 -111 -111c0 -60 50 -110 111 -110c60 0 111 50 111 110zM319 231v-10h-24c-14 0 -25 7 -41 29
c-7 10 -12 19 -16 27c0 0 -5 -1 -11 -1c-4 0 -9 1 -9 1v-17c0 -20 2 -27 22 -27v-11h-73v11c19 0 21 7 21 28v56c0 19 -3 23 -21 23v11h69c27 0 51 -8 51 -34c0 -14 -10 -24 -23 -30c5 -9 11 -20 20 -32c8 -11 22 -22 35 -24zM218 339v-51c25 -1 38 6 38 28
c0 16 -12 25 -38 23z" />
    <glyph glyph-name="minus" unicode="&#x2212;" horiz-adv-x="331" 
d="M322 129c0 -4 -9 -6 -15 -6c-72 -2 -147 -2 -248 -3c-14 0 -15 5 -12 12s9 12 22 12c92 -4 170 -7 237 -9c6 0 16 -1 16 -6z" />
    <glyph glyph-name="eth" unicode="&#xf0;" horiz-adv-x="262" 
d="M52 2c30 0 67 31 92 60c16 17 41 59 41 81c1 11 -3 18 -16 18c-24 0 -59 -31 -81 -55c-26 -26 -51 -68 -52 -87c0 -13 8 -17 16 -17zM159 171h15c19 -4 26 -23 22 -39c14 19 38 72 40 112c0 7 0 14 -1 20c-27 -9 -51 -17 -88 -30c-4 -1 -9 -3 -11 0s2 7 9 10
c25 10 61 24 88 35c-9 41 -37 73 -78 75c-12 1 -18 -2 -18 0c-1 3 5 7 18 8c48 4 89 -28 108 -72c14 5 31 12 46 17c4 2 13 3 16 -3c2 -6 -7 -10 -13 -12c-16 -6 -31 -12 -44 -16c3 -12 5 -24 5 -37c0 -83 -68 -164 -105 -194c-32 -25 -78 -54 -125 -54c-29 0 -49 16 -49 43
c0 26 11 46 28 65l-1 1c-7 -6 -11 -10 -18 -16s-11 -8 -13 -6c-2 3 3 8 7 12c7 7 21 18 31 25c13 9 27 18 48 29c29 15 60 26 83 27z" />
    <glyph glyph-name="multiply" unicode="&#xd7;" horiz-adv-x="314" 
d="M174 140c47 36 88 68 100 77c22 16 33 25 51 23c18 -1 20 -4 -18 -31c-20 -15 -71 -49 -128 -88c6 -28 13 -58 20 -88c3 -12 3 -17 0 -19c-5 -2 -7 3 -10 11c-7 20 -18 52 -29 83c-45 -30 -91 -62 -129 -87c-9 -6 -20 -13 -22 -9c-2 2 2 7 12 14c21 16 78 58 133 99
c-12 33 -23 64 -28 79c-6 15 -4 25 9 33c12 7 17 3 20 -11c5 -22 11 -52 19 -86z" />
    <glyph glyph-name="copyright" unicode="&#xa9;" horiz-adv-x="509" 
d="M267 290h1c86 0 161 -68 161 -155s-75 -154 -162 -154s-163 67 -163 154s76 155 163 155zM266 272h-1c-74 0 -135 -63 -135 -138s61 -135 136 -135s137 60 137 135s-62 138 -137 138zM341 163h-15c-1 24 -14 42 -44 42c-36 0 -60 -26 -60 -69c0 -44 24 -71 58 -71
c31 0 44 20 50 37h12c-1 -6 -2 -14 -4 -24s-3 -14 -14 -19c-10 -4 -34 -8 -46 -8c-55 0 -96 26 -96 82s49 86 100 86c20 0 36 -3 45 -8c10 -5 14 -12 14 -26v-22z" />
    <glyph glyph-name="Aacute" unicode="&#xc1;" horiz-adv-x="690" 
d="M21 56v1c0 35 26 60 52 61c23 2 37 -11 37 -30c0 -15 -9 -24 -23 -34c-10 -7 -18 -14 -18 -25c0 -21 33 -38 98 -33c78 7 153 49 208 87c-19 17 -55 62 -55 113c1 60 47 106 119 105c54 -2 92 -45 104 -72c13 13 35 33 47 44c53 48 100 88 150 115c38 21 81 38 120 38
c19 0 30 -6 35 -10c6 -5 10 -12 7 -14c-2 -1 -4 2 -11 7c-4 3 -14 6 -22 6c-11 0 -22 -3 -32 -11c-22 -18 -58 -61 -81 -94c-62 -86 -130 -189 -187 -282c16 1 36 7 56 17c21 11 47 31 63 46c5 5 8 5 10 3s-1 -6 -8 -13c-14 -13 -37 -32 -62 -45c-21 -11 -45 -17 -64 -18
c-14 -15 -24 -22 -39 -25c-29 -6 -28 7 -24 14c3 6 6 11 8 15c-18 2 -48 11 -65 18c-22 9 -46 23 -59 35c-38 -27 -127 -85 -221 -92c-78 -6 -143 18 -143 73zM558 99c23 36 86 127 121 172c61 80 115 123 161 145v1c-23 -2 -60 -16 -95 -35c-47 -26 -95 -68 -134 -103
c-24 -22 -43 -40 -63 -59c5 -14 11 -34 13 -65c1 -18 0 -38 -3 -56zM440 286h-1c-52 0 -80 -45 -82 -92c-2 -42 20 -83 33 -99c21 17 46 38 73 62c24 21 48 43 71 64c-20 37 -53 65 -94 65zM397 86c11 -13 33 -26 52 -35c16 -7 47 -17 65 -19c8 14 26 41 30 48
c7 14 8 46 6 74c-2 24 -5 43 -11 58c-24 -22 -48 -44 -70 -64c-27 -24 -50 -44 -72 -62zM775 480c-1 3 4 6 8 8c46 19 92 48 120 66c5 3 8 4 13 4c6 0 9 -5 10 -11c2 -11 -4 -21 -21 -30c-25 -12 -91 -31 -118 -37c-3 -1 -11 -3 -12 0z" />
    <glyph glyph-name="Acircumflex" unicode="&#xc2;" horiz-adv-x="690" 
d="M21 56v1c0 35 26 60 52 61c23 2 37 -11 37 -30c0 -15 -9 -24 -23 -34c-10 -7 -18 -14 -18 -25c0 -21 33 -38 98 -33c78 7 153 49 208 87c-19 17 -55 62 -55 113c1 60 47 106 119 105c54 -2 92 -45 104 -72c13 13 35 33 47 44c53 48 100 88 150 115c38 21 81 38 120 38
c19 0 30 -6 35 -10c6 -5 10 -12 7 -14c-2 -1 -4 2 -11 7c-4 3 -14 6 -22 6c-11 0 -22 -3 -32 -11c-22 -18 -58 -61 -81 -94c-62 -86 -130 -189 -187 -282c16 1 36 7 56 17c21 11 47 31 63 46c5 5 8 5 10 3s-1 -6 -8 -13c-14 -13 -37 -32 -62 -45c-21 -11 -45 -17 -64 -18
c-14 -15 -24 -22 -39 -25c-29 -6 -28 7 -24 14c3 6 6 11 8 15c-18 2 -48 11 -65 18c-22 9 -46 23 -59 35c-38 -27 -127 -85 -221 -92c-78 -6 -143 18 -143 73zM558 99c23 36 86 127 121 172c61 80 115 123 161 145v1c-23 -2 -60 -16 -95 -35c-47 -26 -95 -68 -134 -103
c-24 -22 -43 -40 -63 -59c5 -14 11 -34 13 -65c1 -18 0 -38 -3 -56zM440 286h-1c-52 0 -80 -45 -82 -92c-2 -42 20 -83 33 -99c21 17 46 38 73 62c24 21 48 43 71 64c-20 37 -53 65 -94 65zM397 86c11 -13 33 -26 52 -35c16 -7 47 -17 65 -19c8 14 26 41 30 48
c7 14 8 46 6 74c-2 24 -5 43 -11 58c-24 -22 -48 -44 -70 -64c-27 -24 -50 -44 -72 -62zM764 470c-4 -1 -10 -3 -11 1c-1 3 5 6 7 7c32 19 85 51 109 70c3 2 6 4 10 4c3 0 5 -3 6 -6c11 -25 24 -49 34 -66c2 -4 4 -6 3 -8c-3 -2 -10 2 -12 3c-10 6 -27 19 -43 36
c-33 -17 -79 -33 -103 -41z" />
    <glyph glyph-name="Adieresis" unicode="&#xc4;" horiz-adv-x="690" 
d="M21 56v1c0 35 26 60 52 61c23 2 37 -11 37 -30c0 -15 -9 -24 -23 -34c-10 -7 -18 -14 -18 -25c0 -21 33 -38 98 -33c78 7 153 49 208 87c-19 17 -55 62 -55 113c1 60 47 106 119 105c54 -2 92 -45 104 -72c13 13 35 33 47 44c53 48 100 88 150 115c38 21 81 38 120 38
c19 0 30 -6 35 -10c6 -5 10 -12 7 -14c-2 -1 -4 2 -11 7c-4 3 -14 6 -22 6c-11 0 -22 -3 -32 -11c-22 -18 -58 -61 -81 -94c-62 -86 -130 -189 -187 -282c16 1 36 7 56 17c21 11 47 31 63 46c5 5 8 5 10 3s-1 -6 -8 -13c-14 -13 -37 -32 -62 -45c-21 -11 -45 -17 -64 -18
c-14 -15 -24 -22 -39 -25c-29 -6 -28 7 -24 14c3 6 6 11 8 15c-18 2 -48 11 -65 18c-22 9 -46 23 -59 35c-38 -27 -127 -85 -221 -92c-78 -6 -143 18 -143 73zM558 99c23 36 86 127 121 172c61 80 115 123 161 145v1c-23 -2 -60 -16 -95 -35c-47 -26 -95 -68 -134 -103
c-24 -22 -43 -40 -63 -59c5 -14 11 -34 13 -65c1 -18 0 -38 -3 -56zM440 286h-1c-52 0 -80 -45 -82 -92c-2 -42 20 -83 33 -99c21 17 46 38 73 62c24 21 48 43 71 64c-20 37 -53 65 -94 65zM397 86c11 -13 33 -26 52 -35c16 -7 47 -17 65 -19c8 14 26 41 30 48
c7 14 8 46 6 74c-2 24 -5 43 -11 58c-24 -22 -48 -44 -70 -64c-27 -24 -50 -44 -72 -62zM887 482c-4 6 -5 20 0 33c6 15 21 19 38 19c16 0 22 -11 10 -26s-36 -26 -48 -26zM778 482c-5 6 -6 20 -1 33c6 15 20 19 37 19c16 0 21 -11 10 -26c-12 -15 -37 -26 -46 -26z" />
    <glyph glyph-name="Agrave" unicode="&#xc0;" horiz-adv-x="690" 
d="M21 56v1c0 35 26 60 52 61c23 2 37 -11 37 -30c0 -15 -9 -24 -23 -34c-10 -7 -18 -14 -18 -25c0 -21 33 -38 98 -33c78 7 153 49 208 87c-19 17 -55 62 -55 113c1 60 47 106 119 105c54 -2 92 -45 104 -72c13 13 35 33 47 44c53 48 100 88 150 115c38 21 81 38 120 38
c19 0 30 -6 35 -10c6 -5 10 -12 7 -14c-2 -1 -4 2 -11 7c-4 3 -14 6 -22 6c-11 0 -22 -3 -32 -11c-22 -18 -58 -61 -81 -94c-62 -86 -130 -189 -187 -282c16 1 36 7 56 17c21 11 47 31 63 46c5 5 8 5 10 3s-1 -6 -8 -13c-14 -13 -37 -32 -62 -45c-21 -11 -45 -17 -64 -18
c-14 -15 -24 -22 -39 -25c-29 -6 -28 7 -24 14c3 6 6 11 8 15c-18 2 -48 11 -65 18c-22 9 -46 23 -59 35c-38 -27 -127 -85 -221 -92c-78 -6 -143 18 -143 73zM558 99c23 36 86 127 121 172c61 80 115 123 161 145v1c-23 -2 -60 -16 -95 -35c-47 -26 -95 -68 -134 -103
c-24 -22 -43 -40 -63 -59c5 -14 11 -34 13 -65c1 -18 0 -38 -3 -56zM440 286h-1c-52 0 -80 -45 -82 -92c-2 -42 20 -83 33 -99c21 17 46 38 73 62c24 21 48 43 71 64c-20 37 -53 65 -94 65zM397 86c11 -13 33 -26 52 -35c16 -7 47 -17 65 -19c8 14 26 41 30 48
c7 14 8 46 6 74c-2 24 -5 43 -11 58c-24 -22 -48 -44 -70 -64c-27 -24 -50 -44 -72 -62zM793 524c-14 9 -19 22 -12 34c2 3 6 7 11 7s8 -2 13 -6c22 -19 56 -45 90 -69c4 -3 8 -5 6 -8c-3 -4 -9 -1 -12 0c-23 8 -77 30 -96 42z" />
    <glyph glyph-name="Aring" unicode="&#xc5;" horiz-adv-x="690" 
d="M21 56v1c0 35 26 60 52 61c23 2 37 -11 37 -30c0 -15 -9 -24 -23 -34c-10 -7 -18 -14 -18 -25c0 -21 33 -38 98 -33c78 7 153 49 208 87c-19 17 -55 62 -55 113c1 60 47 106 119 105c54 -2 92 -45 104 -72c13 13 35 33 47 44c53 48 100 88 150 115c38 21 81 38 120 38
c19 0 30 -6 35 -10c6 -5 10 -12 7 -14c-2 -1 -4 2 -11 7c-4 3 -14 6 -22 6c-11 0 -22 -3 -32 -11c-22 -18 -58 -61 -81 -94c-62 -86 -130 -189 -187 -282c16 1 36 7 56 17c21 11 47 31 63 46c5 5 8 5 10 3s-1 -6 -8 -13c-14 -13 -37 -32 -62 -45c-21 -11 -45 -17 -64 -18
c-14 -15 -24 -22 -39 -25c-29 -6 -28 7 -24 14c3 6 6 11 8 15c-18 2 -48 11 -65 18c-22 9 -46 23 -59 35c-38 -27 -127 -85 -221 -92c-78 -6 -143 18 -143 73zM558 99c23 36 86 127 121 172c61 80 115 123 161 145v1c-23 -2 -60 -16 -95 -35c-47 -26 -95 -68 -134 -103
c-24 -22 -43 -40 -63 -59c5 -14 11 -34 13 -65c1 -18 0 -38 -3 -56zM440 286h-1c-52 0 -80 -45 -82 -92c-2 -42 20 -83 33 -99c21 17 46 38 73 62c24 21 48 43 71 64c-20 37 -53 65 -94 65zM397 86c11 -13 33 -26 52 -35c16 -7 47 -17 65 -19c8 14 26 41 30 48
c7 14 8 46 6 74c-2 24 -5 43 -11 58c-24 -22 -48 -44 -70 -64c-27 -24 -50 -44 -72 -62zM869 478c-25 0 -43 19 -43 44c0 23 18 45 43 45s44 -22 44 -45c0 -25 -20 -44 -44 -44zM869 498c14 0 25 11 25 25c0 12 -11 24 -25 24c-15 0 -24 -12 -24 -24c0 -14 9 -25 24 -25z
" />
    <glyph glyph-name="Atilde" unicode="&#xc3;" horiz-adv-x="690" 
d="M21 56v1c0 35 26 60 52 61c23 2 37 -11 37 -30c0 -15 -9 -24 -23 -34c-10 -7 -18 -14 -18 -25c0 -21 33 -38 98 -33c78 7 153 49 208 87c-19 17 -55 62 -55 113c1 60 47 106 119 105c54 -2 92 -45 104 -72c13 13 35 33 47 44c53 48 100 88 150 115c38 21 81 38 120 38
c19 0 30 -6 35 -10c6 -5 10 -12 7 -14c-2 -1 -4 2 -11 7c-4 3 -14 6 -22 6c-11 0 -22 -3 -32 -11c-22 -18 -58 -61 -81 -94c-62 -86 -130 -189 -187 -282c16 1 36 7 56 17c21 11 47 31 63 46c5 5 8 5 10 3s-1 -6 -8 -13c-14 -13 -37 -32 -62 -45c-21 -11 -45 -17 -64 -18
c-14 -15 -24 -22 -39 -25c-29 -6 -28 7 -24 14c3 6 6 11 8 15c-18 2 -48 11 -65 18c-22 9 -46 23 -59 35c-38 -27 -127 -85 -221 -92c-78 -6 -143 18 -143 73zM558 99c23 36 86 127 121 172c61 80 115 123 161 145v1c-23 -2 -60 -16 -95 -35c-47 -26 -95 -68 -134 -103
c-24 -22 -43 -40 -63 -59c5 -14 11 -34 13 -65c1 -18 0 -38 -3 -56zM440 286h-1c-52 0 -80 -45 -82 -92c-2 -42 20 -83 33 -99c21 17 46 38 73 62c24 21 48 43 71 64c-20 37 -53 65 -94 65zM397 86c11 -13 33 -26 52 -35c16 -7 47 -17 65 -19c8 14 26 41 30 48
c7 14 8 46 6 74c-2 24 -5 43 -11 58c-24 -22 -48 -44 -70 -64c-27 -24 -50 -44 -72 -62zM778 482c-2 1 -2 5 1 11c13 24 33 41 60 40c24 -1 39 -21 61 -23c18 -1 32 10 40 19c3 3 5 7 8 5c3 -1 1 -6 -1 -10c-14 -26 -31 -42 -57 -42c-24 0 -41 21 -64 23
c-19 2 -34 -8 -41 -18c-2 -3 -4 -7 -7 -5z" />
    <glyph glyph-name="Ccedilla" unicode="&#xc7;" horiz-adv-x="390" 
d="M25 67c-3 88 81 183 164 243c-14 18 -25 40 -25 63c0 56 48 93 102 93c48 0 96 -24 123 -63c14 4 35 8 53 9c63 4 127 -14 116 -75c-11 -62 -116 -92 -192 -92c-56 0 -115 13 -151 40c-76 -68 -130 -159 -130 -224c0 -58 36 -81 86 -81c59 0 106 26 145 52
c26 18 50 39 62 50c14 13 19 17 22 14c2 -2 -3 -8 -8 -13c-24 -22 -50 -45 -72 -60c-41 -29 -92 -54 -151 -57c-20 0 -38 0 -56 4c-6 -5 -19 -17 -22 -22c3 1 8 2 11 2c29 0 50 -14 46 -37c-3 -24 -35 -44 -73 -42c-33 1 -50 15 -57 25c-6 8 -6 13 -3 15c3 1 3 -2 8 -7
c10 -7 22 -16 49 -16c18 1 38 10 41 27c2 13 -6 24 -26 23c-10 -1 -15 -6 -18 -3c-3 2 0 6 3 9c9 9 22 21 30 28c-45 12 -74 43 -77 95zM368 255c73 0 142 35 153 84c10 46 -22 67 -75 66c-15 0 -41 -5 -53 -10c8 -14 15 -37 17 -55c1 -16 0 -25 -3 -25c-2 1 -1 6 -4 20
c-4 20 -15 43 -24 55c-53 -20 -113 -59 -156 -98c35 -26 91 -37 145 -37zM258 453c-43 0 -81 -31 -81 -81c0 -19 7 -39 20 -56c54 36 120 67 176 83c-31 34 -73 54 -115 54z" />
    <glyph glyph-name="Eacute" unicode="&#xc9;" horiz-adv-x="390" 
d="M225 263c0 20 10 42 22 59c-25 19 -43 45 -43 74c0 40 31 66 74 68c39 2 90 -17 122 -55c22 4 50 7 74 6c68 -3 103 -31 103 -63c0 -45 -70 -81 -150 -81c-52 0 -102 9 -140 28c-5 -7 -11 -18 -15 -30s-5 -22 -3 -32c11 2 35 4 49 3c29 -1 56 -8 54 -25
c-2 -14 -30 -19 -55 -19c-31 0 -67 10 -80 27c-27 -10 -63 -33 -91 -60c-32 -30 -57 -71 -59 -110c-2 -47 33 -73 82 -73c59 0 108 26 147 52c26 18 59 47 71 58c8 7 11 8 13 6s1 -5 -9 -14c-13 -12 -49 -44 -71 -59c-41 -29 -92 -54 -151 -57c-86 -4 -143 26 -143 89
c-1 73 80 146 206 175c-5 8 -7 20 -7 33zM425 281c66 0 127 26 128 71c2 24 -17 52 -76 55c-21 0 -45 -4 -68 -12c6 -12 11 -28 13 -44c2 -17 1 -26 -2 -26c-2 0 -1 5 -5 20c-4 16 -13 32 -22 44c-25 -12 -51 -31 -73 -51c-6 -5 -20 -20 -28 -31c36 -18 85 -26 133 -26z
M381 405c-25 31 -68 52 -105 50c-34 -2 -63 -22 -63 -58c0 -25 16 -47 40 -67c5 7 15 17 21 22c28 24 65 42 107 53zM271 230c4 -16 27 -24 47 -25c19 -1 36 3 36 13c0 9 -20 13 -36 14c-11 1 -34 0 -47 -2zM444 480c-1 3 4 6 8 8c46 19 92 48 120 66c5 3 8 4 13 4
c6 0 9 -5 10 -11c2 -11 -4 -21 -21 -30c-25 -12 -91 -31 -118 -37c-3 -1 -11 -3 -12 0z" />
    <glyph glyph-name="Ecircumflex" unicode="&#xca;" horiz-adv-x="390" 
d="M225 263c0 20 10 42 22 59c-25 19 -43 45 -43 74c0 40 31 66 74 68c39 2 90 -17 122 -55c22 4 50 7 74 6c68 -3 103 -31 103 -63c0 -45 -70 -81 -150 -81c-52 0 -102 9 -140 28c-5 -7 -11 -18 -15 -30s-5 -22 -3 -32c11 2 35 4 49 3c29 -1 56 -8 54 -25
c-2 -14 -30 -19 -55 -19c-31 0 -67 10 -80 27c-27 -10 -63 -33 -91 -60c-32 -30 -57 -71 -59 -110c-2 -47 33 -73 82 -73c59 0 108 26 147 52c26 18 59 47 71 58c8 7 11 8 13 6s1 -5 -9 -14c-13 -12 -49 -44 -71 -59c-41 -29 -92 -54 -151 -57c-86 -4 -143 26 -143 89
c-1 73 80 146 206 175c-5 8 -7 20 -7 33zM425 281c66 0 127 26 128 71c2 24 -17 52 -76 55c-21 0 -45 -4 -68 -12c6 -12 11 -28 13 -44c2 -17 1 -26 -2 -26c-2 0 -1 5 -5 20c-4 16 -13 32 -22 44c-25 -12 -51 -31 -73 -51c-6 -5 -20 -20 -28 -31c36 -18 85 -26 133 -26z
M381 405c-25 31 -68 52 -105 50c-34 -2 -63 -22 -63 -58c0 -25 16 -47 40 -67c5 7 15 17 21 22c28 24 65 42 107 53zM271 230c4 -16 27 -24 47 -25c19 -1 36 3 36 13c0 9 -20 13 -36 14c-11 1 -34 0 -47 -2zM436 470c-4 -1 -10 -3 -11 1c-1 3 5 6 7 7c32 19 85 51 109 70
c3 2 6 4 10 4c3 0 5 -3 6 -6c11 -25 24 -49 34 -66c2 -4 4 -6 3 -8c-3 -2 -10 2 -12 3c-10 6 -27 19 -43 36c-33 -17 -79 -33 -103 -41z" />
    <glyph glyph-name="Edieresis" unicode="&#xcb;" horiz-adv-x="390" 
d="M225 263c0 20 10 42 22 59c-25 19 -43 45 -43 74c0 40 31 66 74 68c39 2 90 -17 122 -55c22 4 50 7 74 6c68 -3 103 -31 103 -63c0 -45 -70 -81 -150 -81c-52 0 -102 9 -140 28c-5 -7 -11 -18 -15 -30s-5 -22 -3 -32c11 2 35 4 49 3c29 -1 56 -8 54 -25
c-2 -14 -30 -19 -55 -19c-31 0 -67 10 -80 27c-27 -10 -63 -33 -91 -60c-32 -30 -57 -71 -59 -110c-2 -47 33 -73 82 -73c59 0 108 26 147 52c26 18 59 47 71 58c8 7 11 8 13 6s1 -5 -9 -14c-13 -12 -49 -44 -71 -59c-41 -29 -92 -54 -151 -57c-86 -4 -143 26 -143 89
c-1 73 80 146 206 175c-5 8 -7 20 -7 33zM425 281c66 0 127 26 128 71c2 24 -17 52 -76 55c-21 0 -45 -4 -68 -12c6 -12 11 -28 13 -44c2 -17 1 -26 -2 -26c-2 0 -1 5 -5 20c-4 16 -13 32 -22 44c-25 -12 -51 -31 -73 -51c-6 -5 -20 -20 -28 -31c36 -18 85 -26 133 -26z
M381 405c-25 31 -68 52 -105 50c-34 -2 -63 -22 -63 -58c0 -25 16 -47 40 -67c5 7 15 17 21 22c28 24 65 42 107 53zM271 230c4 -16 27 -24 47 -25c19 -1 36 3 36 13c0 9 -20 13 -36 14c-11 1 -34 0 -47 -2zM553 482c-4 6 -5 20 0 33c6 15 21 19 38 19c16 0 22 -11 10 -26
s-36 -26 -48 -26zM444 482c-5 6 -6 20 -1 33c6 15 20 19 37 19c16 0 21 -11 10 -26c-12 -15 -37 -26 -46 -26z" />
    <glyph glyph-name="Egrave" unicode="&#xc8;" horiz-adv-x="390" 
d="M225 263c0 20 10 42 22 59c-25 19 -43 45 -43 74c0 40 31 66 74 68c39 2 90 -17 122 -55c22 4 50 7 74 6c68 -3 103 -31 103 -63c0 -45 -70 -81 -150 -81c-52 0 -102 9 -140 28c-5 -7 -11 -18 -15 -30s-5 -22 -3 -32c11 2 35 4 49 3c29 -1 56 -8 54 -25
c-2 -14 -30 -19 -55 -19c-31 0 -67 10 -80 27c-27 -10 -63 -33 -91 -60c-32 -30 -57 -71 -59 -110c-2 -47 33 -73 82 -73c59 0 108 26 147 52c26 18 59 47 71 58c8 7 11 8 13 6s1 -5 -9 -14c-13 -12 -49 -44 -71 -59c-41 -29 -92 -54 -151 -57c-86 -4 -143 26 -143 89
c-1 73 80 146 206 175c-5 8 -7 20 -7 33zM425 281c66 0 127 26 128 71c2 24 -17 52 -76 55c-21 0 -45 -4 -68 -12c6 -12 11 -28 13 -44c2 -17 1 -26 -2 -26c-2 0 -1 5 -5 20c-4 16 -13 32 -22 44c-25 -12 -51 -31 -73 -51c-6 -5 -20 -20 -28 -31c36 -18 85 -26 133 -26z
M381 405c-25 31 -68 52 -105 50c-34 -2 -63 -22 -63 -58c0 -25 16 -47 40 -67c5 7 15 17 21 22c28 24 65 42 107 53zM271 230c4 -16 27 -24 47 -25c19 -1 36 3 36 13c0 9 -20 13 -36 14c-11 1 -34 0 -47 -2zM434 524c-14 9 -19 22 -12 34c2 3 6 7 11 7s8 -2 13 -6
c22 -19 56 -45 90 -69c4 -3 8 -5 6 -8c-3 -4 -9 -1 -12 0c-23 8 -77 30 -96 42z" />
    <glyph glyph-name="Iacute" unicode="&#xcd;" horiz-adv-x="440" 
d="M613 413c-22 -6 -52 -12 -83 -20c-62 -16 -110 -33 -147 -55c-29 -17 -65 -51 -65 -81c0 -17 12 -26 27 -26c10 0 20 4 27 9c5 3 8 7 10 5s0 -5 -5 -10c-6 -6 -21 -14 -36 -14c-30 0 -47 19 -47 42c0 38 37 70 87 93c40 20 98 36 147 47c38 9 71 14 92 23c7 3 14 7 20 6
c8 -2 5 -13 -2 -16c-32 -14 -66 -54 -93 -92c-25 -36 -62 -95 -90 -132c-113 -145 -225 -210 -351 -210c-59 0 -122 21 -122 78c0 27 20 60 56 60c21 0 36 -14 34 -35c-1 -10 -8 -21 -19 -30c-8 -8 -19 -15 -19 -30c0 -19 27 -33 67 -33c108 0 202 83 296 201
c32 40 75 96 102 128c32 37 79 77 114 92zM535 480c-1 3 4 6 8 8c46 19 92 48 120 66c5 3 8 4 13 4c6 0 9 -5 10 -11c2 -11 -4 -21 -21 -30c-25 -12 -91 -31 -118 -37c-3 -1 -11 -3 -12 0z" />
    <glyph glyph-name="Icircumflex" unicode="&#xce;" horiz-adv-x="440" 
d="M613 413c-22 -6 -52 -12 -83 -20c-62 -16 -110 -33 -147 -55c-29 -17 -65 -51 -65 -81c0 -17 12 -26 27 -26c10 0 20 4 27 9c5 3 8 7 10 5s0 -5 -5 -10c-6 -6 -21 -14 -36 -14c-30 0 -47 19 -47 42c0 38 37 70 87 93c40 20 98 36 147 47c38 9 71 14 92 23c7 3 14 7 20 6
c8 -2 5 -13 -2 -16c-32 -14 -66 -54 -93 -92c-25 -36 -62 -95 -90 -132c-113 -145 -225 -210 -351 -210c-59 0 -122 21 -122 78c0 27 20 60 56 60c21 0 36 -14 34 -35c-1 -10 -8 -21 -19 -30c-8 -8 -19 -15 -19 -30c0 -19 27 -33 67 -33c108 0 202 83 296 201
c32 40 75 96 102 128c32 37 79 77 114 92zM540 470c-4 -1 -10 -3 -11 1c-1 3 5 6 7 7c32 19 85 51 109 70c3 2 6 4 10 4c3 0 5 -3 6 -6c11 -25 24 -49 34 -66c2 -4 4 -6 3 -8c-3 -2 -10 2 -12 3c-10 6 -27 19 -43 36c-33 -17 -79 -33 -103 -41z" />
    <glyph glyph-name="Idieresis" unicode="&#xcf;" horiz-adv-x="440" 
d="M613 413c-22 -6 -52 -12 -83 -20c-62 -16 -110 -33 -147 -55c-29 -17 -65 -51 -65 -81c0 -17 12 -26 27 -26c10 0 20 4 27 9c5 3 8 7 10 5s0 -5 -5 -10c-6 -6 -21 -14 -36 -14c-30 0 -47 19 -47 42c0 38 37 70 87 93c40 20 98 36 147 47c38 9 71 14 92 23c7 3 14 7 20 6
c8 -2 5 -13 -2 -16c-32 -14 -66 -54 -93 -92c-25 -36 -62 -95 -90 -132c-113 -145 -225 -210 -351 -210c-59 0 -122 21 -122 78c0 27 20 60 56 60c21 0 36 -14 34 -35c-1 -10 -8 -21 -19 -30c-8 -8 -19 -15 -19 -30c0 -19 27 -33 67 -33c108 0 202 83 296 201
c32 40 75 96 102 128c32 37 79 77 114 92zM665 482c-4 6 -5 20 0 33c6 15 21 19 38 19c16 0 22 -11 10 -26s-36 -26 -48 -26zM556 482c-5 6 -6 20 -1 33c6 15 20 19 37 19c16 0 21 -11 10 -26c-12 -15 -37 -26 -46 -26z" />
    <glyph glyph-name="Igrave" unicode="&#xcc;" horiz-adv-x="440" 
d="M613 413c-22 -6 -52 -12 -83 -20c-62 -16 -110 -33 -147 -55c-29 -17 -65 -51 -65 -81c0 -17 12 -26 27 -26c10 0 20 4 27 9c5 3 8 7 10 5s0 -5 -5 -10c-6 -6 -21 -14 -36 -14c-30 0 -47 19 -47 42c0 38 37 70 87 93c40 20 98 36 147 47c38 9 71 14 92 23c7 3 14 7 20 6
c8 -2 5 -13 -2 -16c-32 -14 -66 -54 -93 -92c-25 -36 -62 -95 -90 -132c-113 -145 -225 -210 -351 -210c-59 0 -122 21 -122 78c0 27 20 60 56 60c21 0 36 -14 34 -35c-1 -10 -8 -21 -19 -30c-8 -8 -19 -15 -19 -30c0 -19 27 -33 67 -33c108 0 202 83 296 201
c32 40 75 96 102 128c32 37 79 77 114 92zM548 524c-14 9 -19 22 -12 34c2 3 6 7 11 7s8 -2 13 -6c22 -19 56 -45 90 -69c4 -3 8 -5 6 -8c-3 -4 -9 -1 -12 0c-23 8 -77 30 -96 42z" />
    <glyph glyph-name="Ntilde" unicode="&#xd1;" horiz-adv-x="645" 
d="M-88 48v1c0 33 28 61 56 61c25 0 39 -14 39 -33c-1 -13 -6 -23 -18 -33c-9 -9 -18 -15 -20 -27c-2 -19 18 -33 68 -33c81 0 190 45 281 115c91 69 166 152 217 249c4 8 13 23 19 32c9 12 25 30 40 31c12 1 15 -5 10 -13c-10 -14 -19 -35 -24 -56c-7 -31 -9 -76 -13 -122
c-6 -77 -16 -122 -28 -151h1c64 93 154 210 221 281s134 123 195 123c42 0 61 -30 62 -56c0 -5 0 -10 -3 -10c-2 0 -3 6 -5 10c-6 16 -26 27 -57 27c-70 0 -136 -53 -184 -103c-94 -98 -194 -239 -263 -339c-7 -9 -15 -22 -25 -16c-9 5 -6 17 -2 27c19 53 28 97 33 160
c6 64 6 112 17 142h-1c-40 -77 -126 -166 -204 -225c-96 -72 -203 -117 -288 -119c-59 -1 -124 17 -124 77zM671 482c-2 1 -2 5 1 11c13 24 33 41 60 40c24 -1 39 -21 61 -23c18 -1 32 10 40 19c3 3 5 7 8 5c3 -1 1 -6 -1 -10c-14 -26 -31 -42 -57 -42c-24 0 -41 21 -64 23
c-19 2 -34 -8 -41 -18c-2 -3 -4 -7 -7 -5z" />
    <glyph glyph-name="Oacute" unicode="&#xd3;" horiz-adv-x="407" 
d="M136 52c0 -17 4 -28 11 -38c3 -4 5 -5 4 -7s-5 0 -8 3c-10 10 -15 21 -17 43c-3 42 15 107 65 171c72 89 169 148 227 142c35 -4 44 -34 40 -72c-3 -38 -32 -108 -75 -161c-68 -83 -179 -151 -270 -148c-38 1 -92 15 -100 81c-7 65 30 150 102 222c77 76 198 135 302 130
c38 -2 71 -19 74 -55c2 -19 -6 -39 -15 -49c-4 -5 -12 -11 -14 -8c-1 3 2 3 8 12s13 25 10 44c-3 26 -31 42 -63 43c-89 4 -211 -86 -263 -144c-67 -76 -101 -164 -93 -217c6 -37 37 -49 62 -50c69 -3 148 52 228 152c43 54 83 123 88 172c3 22 -5 36 -22 38
c-51 5 -140 -58 -207 -142c-48 -61 -74 -123 -74 -162zM359 480c-1 3 4 6 8 8c46 19 92 48 120 66c5 3 8 4 13 4c6 0 9 -5 10 -11c2 -11 -4 -21 -21 -30c-25 -12 -91 -31 -118 -37c-3 -1 -11 -3 -12 0z" />
    <glyph glyph-name="Ocircumflex" unicode="&#xd4;" horiz-adv-x="407" 
d="M136 52c0 -17 4 -28 11 -38c3 -4 5 -5 4 -7s-5 0 -8 3c-10 10 -15 21 -17 43c-3 42 15 107 65 171c72 89 169 148 227 142c35 -4 44 -34 40 -72c-3 -38 -32 -108 -75 -161c-68 -83 -179 -151 -270 -148c-38 1 -92 15 -100 81c-7 65 30 150 102 222c77 76 198 135 302 130
c38 -2 71 -19 74 -55c2 -19 -6 -39 -15 -49c-4 -5 -12 -11 -14 -8c-1 3 2 3 8 12s13 25 10 44c-3 26 -31 42 -63 43c-89 4 -211 -86 -263 -144c-67 -76 -101 -164 -93 -217c6 -37 37 -49 62 -50c69 -3 148 52 228 152c43 54 83 123 88 172c3 22 -5 36 -22 38
c-51 5 -140 -58 -207 -142c-48 -61 -74 -123 -74 -162zM343 470c-4 -1 -10 -3 -11 1c-1 3 5 6 7 7c32 19 85 51 109 70c3 2 6 4 10 4c3 0 5 -3 6 -6c11 -25 24 -49 34 -66c2 -4 4 -6 3 -8c-3 -2 -10 2 -12 3c-10 6 -27 19 -43 36c-33 -17 -79 -33 -103 -41z" />
    <glyph glyph-name="Odieresis" unicode="&#xd6;" horiz-adv-x="407" 
d="M136 52c0 -17 4 -28 11 -38c3 -4 5 -5 4 -7s-5 0 -8 3c-10 10 -15 21 -17 43c-3 42 15 107 65 171c72 89 169 148 227 142c35 -4 44 -34 40 -72c-3 -38 -32 -108 -75 -161c-68 -83 -179 -151 -270 -148c-38 1 -92 15 -100 81c-7 65 30 150 102 222c77 76 198 135 302 130
c38 -2 71 -19 74 -55c2 -19 -6 -39 -15 -49c-4 -5 -12 -11 -14 -8c-1 3 2 3 8 12s13 25 10 44c-3 26 -31 42 -63 43c-89 4 -211 -86 -263 -144c-67 -76 -101 -164 -93 -217c6 -37 37 -49 62 -50c69 -3 148 52 228 152c43 54 83 123 88 172c3 22 -5 36 -22 38
c-51 5 -140 -58 -207 -142c-48 -61 -74 -123 -74 -162zM472 482c-4 6 -5 20 0 33c6 15 21 19 38 19c16 0 22 -11 10 -26s-36 -26 -48 -26zM363 482c-5 6 -6 20 -1 33c6 15 20 19 37 19c16 0 21 -11 10 -26c-12 -15 -37 -26 -46 -26z" />
    <glyph glyph-name="Ograve" unicode="&#xd2;" horiz-adv-x="407" 
d="M136 52c0 -17 4 -28 11 -38c3 -4 5 -5 4 -7s-5 0 -8 3c-10 10 -15 21 -17 43c-3 42 15 107 65 171c72 89 169 148 227 142c35 -4 44 -34 40 -72c-3 -38 -32 -108 -75 -161c-68 -83 -179 -151 -270 -148c-38 1 -92 15 -100 81c-7 65 30 150 102 222c77 76 198 135 302 130
c38 -2 71 -19 74 -55c2 -19 -6 -39 -15 -49c-4 -5 -12 -11 -14 -8c-1 3 2 3 8 12s13 25 10 44c-3 26 -31 42 -63 43c-89 4 -211 -86 -263 -144c-67 -76 -101 -164 -93 -217c6 -37 37 -49 62 -50c69 -3 148 52 228 152c43 54 83 123 88 172c3 22 -5 36 -22 38
c-51 5 -140 -58 -207 -142c-48 -61 -74 -123 -74 -162zM380 524c-14 9 -19 22 -12 34c2 3 6 7 11 7s8 -2 13 -6c22 -19 56 -45 90 -69c4 -3 8 -5 6 -8c-3 -4 -9 -1 -12 0c-23 8 -77 30 -96 42z" />
    <glyph glyph-name="Otilde" unicode="&#xd5;" horiz-adv-x="407" 
d="M136 52c0 -17 4 -28 11 -38c3 -4 5 -5 4 -7s-5 0 -8 3c-10 10 -15 21 -17 43c-3 42 15 107 65 171c72 89 169 148 227 142c35 -4 44 -34 40 -72c-3 -38 -32 -108 -75 -161c-68 -83 -179 -151 -270 -148c-38 1 -92 15 -100 81c-7 65 30 150 102 222c77 76 198 135 302 130
c38 -2 71 -19 74 -55c2 -19 -6 -39 -15 -49c-4 -5 -12 -11 -14 -8c-1 3 2 3 8 12s13 25 10 44c-3 26 -31 42 -63 43c-89 4 -211 -86 -263 -144c-67 -76 -101 -164 -93 -217c6 -37 37 -49 62 -50c69 -3 148 52 228 152c43 54 83 123 88 172c3 22 -5 36 -22 38
c-51 5 -140 -58 -207 -142c-48 -61 -74 -123 -74 -162zM357 482c-2 1 -2 5 1 11c13 24 33 41 60 40c24 -1 39 -21 61 -23c18 -1 32 10 40 19c3 3 5 7 8 5c3 -1 1 -6 -1 -10c-14 -26 -31 -42 -57 -42c-24 0 -41 21 -64 23c-19 2 -34 -8 -41 -18c-2 -3 -4 -7 -7 -5z" />
    <glyph glyph-name="Scaron" unicode="&#x160;" horiz-adv-x="545" 
d="M383 216c55 23 103 44 156 65c36 55 76 100 116 128c21 14 43 23 62 24c16 1 36 -5 34 -27c-3 -33 -58 -76 -125 -104c-7 -3 -19 -8 -27 -11c-19 -35 -35 -69 -51 -99c-77 -150 -193 -209 -323 -218c-53 -3 -119 3 -163 34c-37 -33 -68 -66 -80 -93c-3 -6 -5 -10 -8 -9
s-1 9 0 12c10 29 38 65 75 100c-21 19 -40 52 -37 94c8 98 135 150 209 155c53 5 133 -7 162 -51zM605 305c5 2 13 5 18 7c55 23 113 61 117 94c2 14 -10 20 -23 18c-14 -2 -30 -12 -46 -28c-18 -17 -46 -57 -66 -91zM249 70c-24 0 -53 6 -76 21c-21 -14 -40 -27 -60 -42
c-12 -9 -22 -17 -33 -26c37 -36 101 -44 154 -40c106 9 183 78 255 210c15 26 29 51 44 73v1c-49 -20 -94 -39 -143 -62c4 -9 6 -20 6 -31c-2 -67 -82 -104 -147 -104zM247 80c55 0 123 36 126 93c0 9 -1 17 -3 24c-21 -10 -43 -20 -67 -31c-33 -16 -78 -40 -122 -69
c22 -12 47 -17 66 -17zM367 208c-23 45 -97 55 -146 50c-70 -5 -167 -49 -174 -142c-2 -34 8 -63 22 -80c8 8 20 18 31 26c19 14 35 25 58 40c-11 10 -19 23 -21 38c-1 5 0 10 3 10c2 0 2 -4 3 -8c4 -14 13 -25 24 -34c43 26 90 50 134 70zM735 484c-3 0 -4 2 -6 6
c-10 23 -24 49 -34 66c-2 3 -4 7 -3 8c3 2 7 0 12 -3c10 -6 27 -19 43 -36c33 17 79 33 103 41c4 1 9 2 10 -1s-1 -4 -6 -7c-32 -19 -85 -51 -109 -70c-4 -3 -6 -4 -10 -4z" />
    <glyph glyph-name="Uacute" unicode="&#xda;" horiz-adv-x="553" 
d="M407 134c-54 -54 -165 -143 -230 -143c-31 0 -48 15 -44 46c6 42 50 95 127 181c63 72 100 117 111 153c8 30 -18 40 -43 40c-51 0 -118 -32 -174 -87c-41 -40 -80 -90 -80 -130c0 -24 12 -41 36 -41c17 0 28 5 36 10c10 6 12 12 15 10s-5 -11 -12 -16
c-10 -7 -23 -13 -41 -13c-29 1 -47 19 -50 49c-3 45 27 103 77 149c61 56 144 78 193 78c47 0 82 -18 81 -57c-1 -44 -47 -100 -97 -157c-78 -87 -122 -139 -127 -172c-3 -16 4 -23 14 -24c24 -3 73 27 110 54c61 45 95 79 147 140c29 33 105 117 183 178c17 13 60 43 81 41
c18 -3 12 -24 -6 -45c-22 -24 -53 -47 -75 -63c-32 -24 -51 -37 -91 -70c-8 -9 -20 -24 -32 -39c-50 -66 -108 -141 -108 -178c0 -12 8 -17 20 -17c16 0 41 14 64 31c14 10 35 27 49 40c9 8 17 15 20 12c2 -3 -1 -6 -10 -15c-18 -17 -39 -34 -53 -45
c-17 -13 -51 -40 -88 -40c-29 0 -47 15 -47 44s21 64 44 96zM574 277c19 15 40 29 59 43c30 20 56 44 66 54c20 22 26 36 19 39c-11 4 -33 -15 -54 -38c-29 -30 -60 -63 -90 -98zM509 468c-1 3 4 6 8 8c46 19 92 48 120 66c5 3 8 4 13 4c6 0 9 -5 10 -11
c2 -11 -4 -21 -21 -30c-25 -12 -91 -31 -118 -37c-3 -1 -11 -3 -12 0z" />
    <glyph glyph-name="Ucircumflex" unicode="&#xdb;" horiz-adv-x="553" 
d="M407 134c-54 -54 -165 -143 -230 -143c-31 0 -48 15 -44 46c6 42 50 95 127 181c63 72 100 117 111 153c8 30 -18 40 -43 40c-51 0 -118 -32 -174 -87c-41 -40 -80 -90 -80 -130c0 -24 12 -41 36 -41c17 0 28 5 36 10c10 6 12 12 15 10s-5 -11 -12 -16
c-10 -7 -23 -13 -41 -13c-29 1 -47 19 -50 49c-3 45 27 103 77 149c61 56 144 78 193 78c47 0 82 -18 81 -57c-1 -44 -47 -100 -97 -157c-78 -87 -122 -139 -127 -172c-3 -16 4 -23 14 -24c24 -3 73 27 110 54c61 45 95 79 147 140c29 33 105 117 183 178c17 13 60 43 81 41
c18 -3 12 -24 -6 -45c-22 -24 -53 -47 -75 -63c-32 -24 -51 -37 -91 -70c-8 -9 -20 -24 -32 -39c-50 -66 -108 -141 -108 -178c0 -12 8 -17 20 -17c16 0 41 14 64 31c14 10 35 27 49 40c9 8 17 15 20 12c2 -3 -1 -6 -10 -15c-18 -17 -39 -34 -53 -45
c-17 -13 -51 -40 -88 -40c-29 0 -47 15 -47 44s21 64 44 96zM574 277c19 15 40 29 59 43c30 20 56 44 66 54c20 22 26 36 19 39c-11 4 -33 -15 -54 -38c-29 -30 -60 -63 -90 -98zM475 470c-4 -1 -10 -3 -11 1c-1 3 5 6 7 7c32 19 85 51 109 70c3 2 6 4 10 4c3 0 5 -3 6 -6
c11 -25 24 -49 34 -66c2 -4 4 -6 3 -8c-3 -2 -10 2 -12 3c-10 6 -27 19 -43 36c-33 -17 -79 -33 -103 -41z" />
    <glyph glyph-name="Udieresis" unicode="&#xdc;" horiz-adv-x="553" 
d="M407 134c-54 -54 -165 -143 -230 -143c-31 0 -48 15 -44 46c6 42 50 95 127 181c63 72 100 117 111 153c8 30 -18 40 -43 40c-51 0 -118 -32 -174 -87c-41 -40 -80 -90 -80 -130c0 -24 12 -41 36 -41c17 0 28 5 36 10c10 6 12 12 15 10s-5 -11 -12 -16
c-10 -7 -23 -13 -41 -13c-29 1 -47 19 -50 49c-3 45 27 103 77 149c61 56 144 78 193 78c47 0 82 -18 81 -57c-1 -44 -47 -100 -97 -157c-78 -87 -122 -139 -127 -172c-3 -16 4 -23 14 -24c24 -3 73 27 110 54c61 45 95 79 147 140c29 33 105 117 183 178c17 13 60 43 81 41
c18 -3 12 -24 -6 -45c-22 -24 -53 -47 -75 -63c-32 -24 -51 -37 -91 -70c-8 -9 -20 -24 -32 -39c-50 -66 -108 -141 -108 -178c0 -12 8 -17 20 -17c16 0 41 14 64 31c14 10 35 27 49 40c9 8 17 15 20 12c2 -3 -1 -6 -10 -15c-18 -17 -39 -34 -53 -45
c-17 -13 -51 -40 -88 -40c-29 0 -47 15 -47 44s21 64 44 96zM574 277c19 15 40 29 59 43c30 20 56 44 66 54c20 22 26 36 19 39c-11 4 -33 -15 -54 -38c-29 -30 -60 -63 -90 -98zM604 482c-4 6 -5 20 0 33c6 15 21 19 38 19c16 0 22 -11 10 -26s-36 -26 -48 -26zM495 482
c-5 6 -6 20 -1 33c6 15 20 19 37 19c16 0 21 -11 10 -26c-12 -15 -37 -26 -46 -26z" />
    <glyph glyph-name="Ugrave" unicode="&#xd9;" horiz-adv-x="553" 
d="M407 134c-54 -54 -165 -143 -230 -143c-31 0 -48 15 -44 46c6 42 50 95 127 181c63 72 100 117 111 153c8 30 -18 40 -43 40c-51 0 -118 -32 -174 -87c-41 -40 -80 -90 -80 -130c0 -24 12 -41 36 -41c17 0 28 5 36 10c10 6 12 12 15 10s-5 -11 -12 -16
c-10 -7 -23 -13 -41 -13c-29 1 -47 19 -50 49c-3 45 27 103 77 149c61 56 144 78 193 78c47 0 82 -18 81 -57c-1 -44 -47 -100 -97 -157c-78 -87 -122 -139 -127 -172c-3 -16 4 -23 14 -24c24 -3 73 27 110 54c61 45 95 79 147 140c29 33 105 117 183 178c17 13 60 43 81 41
c18 -3 12 -24 -6 -45c-22 -24 -53 -47 -75 -63c-32 -24 -51 -37 -91 -70c-8 -9 -20 -24 -32 -39c-50 -66 -108 -141 -108 -178c0 -12 8 -17 20 -17c16 0 41 14 64 31c14 10 35 27 49 40c9 8 17 15 20 12c2 -3 -1 -6 -10 -15c-18 -17 -39 -34 -53 -45
c-17 -13 -51 -40 -88 -40c-29 0 -47 15 -47 44s21 64 44 96zM574 277c19 15 40 29 59 43c30 20 56 44 66 54c20 22 26 36 19 39c-11 4 -33 -15 -54 -38c-29 -30 -60 -63 -90 -98zM494 512c-14 9 -19 22 -12 34c2 3 6 7 11 7s8 -2 13 -6c22 -19 56 -45 90 -69c4 -3 8 -5 6 -8
c-3 -4 -9 -1 -12 0c-23 8 -77 30 -96 42z" />
    <glyph glyph-name="Yacute" unicode="&#xdd;" horiz-adv-x="499" 
d="M421 148c-63 -66 -179 -157 -244 -157c-31 0 -48 15 -44 46c6 42 50 95 127 181c63 72 100 117 111 153c8 30 -18 40 -43 40c-51 0 -118 -32 -174 -87c-41 -40 -80 -90 -80 -130c0 -24 12 -41 36 -41c16 0 29 5 36 10c8 5 12 12 15 10s-5 -11 -12 -16
c-10 -7 -23 -13 -41 -13c-28 0 -48 19 -50 49c-2 44 27 104 77 149c61 55 144 78 193 78c47 0 82 -18 81 -57c-1 -44 -47 -100 -97 -157c-78 -87 -122 -139 -127 -172c-3 -16 4 -23 14 -24c24 -3 73 27 110 54c61 45 108 93 147 140c73 88 106 126 157 178
c24 23 53 43 74 41c20 -2 18 -25 3 -45c-19 -24 -46 -47 -66 -63c-30 -24 -47 -37 -81 -70c-37 -50 -94 -128 -130 -178c-39 -55 -64 -92 -87 -123c102 3 160 -46 148 -121c-2 -11 -7 -21 -11 -20c-2 1 1 4 3 19c8 71 -46 117 -146 112c-30 -43 -56 -76 -107 -136
c-79 -92 -180 -162 -236 -162c-18 0 -45 8 -42 42c5 58 96 139 148 175c65 43 138 73 192 84c51 73 115 167 146 211zM566 278c18 15 34 28 51 42c26 21 49 43 58 54c18 22 21 36 13 39c-11 4 -30 -15 -48 -38c-25 -30 -48 -62 -74 -97zM269 -74c-51 -11 -117 -40 -178 -82
c-51 -35 -127 -119 -127 -168c0 -18 11 -25 21 -26c17 -2 37 5 62 20c34 21 86 73 128 129c24 32 59 80 94 127zM486 480c-1 3 4 6 8 8c46 19 92 48 120 66c5 3 8 4 13 4c6 0 9 -5 10 -11c2 -11 -4 -21 -21 -30c-25 -12 -91 -31 -118 -37c-3 -1 -11 -3 -12 0z" />
    <glyph glyph-name="Ydieresis" unicode="&#x178;" horiz-adv-x="499" 
d="M421 148c-63 -66 -179 -157 -244 -157c-31 0 -48 15 -44 46c6 42 50 95 127 181c63 72 100 117 111 153c8 30 -18 40 -43 40c-51 0 -118 -32 -174 -87c-41 -40 -80 -90 -80 -130c0 -24 12 -41 36 -41c16 0 29 5 36 10c8 5 12 12 15 10s-5 -11 -12 -16
c-10 -7 -23 -13 -41 -13c-28 0 -48 19 -50 49c-2 44 27 104 77 149c61 55 144 78 193 78c47 0 82 -18 81 -57c-1 -44 -47 -100 -97 -157c-78 -87 -122 -139 -127 -172c-3 -16 4 -23 14 -24c24 -3 73 27 110 54c61 45 108 93 147 140c73 88 106 126 157 178
c24 23 53 43 74 41c20 -2 18 -25 3 -45c-19 -24 -46 -47 -66 -63c-30 -24 -47 -37 -81 -70c-37 -50 -94 -128 -130 -178c-39 -55 -64 -92 -87 -123c102 3 160 -46 148 -121c-2 -11 -7 -21 -11 -20c-2 1 1 4 3 19c8 71 -46 117 -146 112c-30 -43 -56 -76 -107 -136
c-79 -92 -180 -162 -236 -162c-18 0 -45 8 -42 42c5 58 96 139 148 175c65 43 138 73 192 84c51 73 115 167 146 211zM566 278c18 15 34 28 51 42c26 21 49 43 58 54c18 22 21 36 13 39c-11 4 -30 -15 -48 -38c-25 -30 -48 -62 -74 -97zM269 -74c-51 -11 -117 -40 -178 -82
c-51 -35 -127 -119 -127 -168c0 -18 11 -25 21 -26c17 -2 37 5 62 20c34 21 86 73 128 129c24 32 59 80 94 127zM593 482c-4 6 -5 20 0 33c6 15 21 19 38 19c16 0 22 -11 10 -26s-36 -26 -48 -26zM484 482c-5 6 -6 20 -1 33c6 15 20 19 37 19c16 0 21 -11 10 -26
c-12 -15 -37 -26 -46 -26z" />
    <glyph glyph-name="Zcaron" unicode="&#x17d;" horiz-adv-x="457" 
d="M433 324c-46 -25 -87 -40 -129 -40c-38 0 -86 11 -82 56c5 48 79 82 132 84c7 0 15 0 15 -4c0 -3 -6 -2 -15 -3c-35 -2 -70 -27 -73 -63c-2 -28 19 -39 38 -41c31 -3 78 5 129 31c13 14 34 36 55 53c17 14 34 22 47 20c8 -1 7 -11 -2 -21c-20 -22 -45 -38 -74 -54
c-25 -25 -68 -63 -115 -102c-41 -34 -81 -66 -106 -83v-1h12c70 0 121 -36 124 -112c23 12 57 39 68 49c6 5 10 7 12 5c3 -3 -6 -11 -10 -15c-11 -11 -44 -37 -69 -50c-3 -78 -61 -154 -139 -220c-114 -96 -270 -173 -359 -172c-39 1 -60 16 -63 46c-6 71 115 141 211 190
c115 60 199 85 293 140c6 29 9 79 -13 104c-21 23 -64 25 -85 22c-20 -15 -38 -28 -61 -43c-38 -25 -65 -34 -73 -21c-7 12 18 36 57 53c23 10 48 18 72 22c25 18 64 48 104 82c33 27 72 62 99 88zM330 3c-89 -52 -185 -85 -284 -138c-93 -50 -211 -110 -206 -178
c2 -25 24 -36 51 -36c80 0 215 69 310 167c65 67 111 128 129 185zM215 140c-13 -2 -33 -8 -52 -17c-29 -13 -48 -29 -45 -35s23 3 49 20c19 12 37 24 48 32zM445 466c-3 0 -4 2 -6 6c-10 23 -24 49 -34 66c-2 3 -4 7 -3 8c3 2 7 0 12 -3c10 -6 27 -19 43 -36
c33 17 79 33 103 41c4 1 9 2 10 -1s-1 -4 -6 -7c-32 -19 -85 -51 -109 -70c-4 -3 -6 -4 -10 -4z" />
    <glyph glyph-name="aacute" unicode="&#xe1;" horiz-adv-x="287" 
d="M273 344h1c2 0 5 -2 7 -5c6 -10 2 -24 -7 -33c-15 -15 -63 -46 -83 -57c-6 -3 -10 -5 -12 -3c-2 3 1 6 5 10c19 18 54 54 75 79c4 5 8 9 14 9zM195 133c24 25 41 38 57 38c21 1 23 -4 13 -16c-13 -15 -35 -40 -56 -66c-13 -16 -26 -33 -35 -49c-7 -12 -7 -20 -3 -23
c5 -4 15 0 23 4c10 5 29 18 45 31c21 17 37 31 48 41c6 5 11 10 14 7s-2 -8 -13 -18c-13 -12 -37 -33 -56 -48c-20 -16 -53 -40 -86 -40c-19 0 -28 9 -29 21c-1 11 5 25 14 36l-1 1c-26 -23 -72 -56 -110 -58c-22 -1 -45 8 -41 40c2 15 10 31 28 52l-1 1
c-3 -3 -7 -7 -13 -12c-4 -3 -7 -5 -9 -3c-2 3 3 9 14 19c3 3 20 17 30 24s27 18 46 28c39 20 74 32 100 28c20 -3 27 -21 21 -38zM170 161c-20 0 -56 -27 -92 -63c-41 -40 -58 -66 -56 -79c1 -7 6 -10 13 -10c19 0 57 22 84 47c32 28 68 71 69 87c1 13 -7 18 -18 18z" />
    <glyph glyph-name="acircumflex" unicode="&#xe2;" horiz-adv-x="287" 
d="M242 321h1c2 0 4 -4 5 -7c11 -24 23 -49 34 -66c3 -4 3 -6 2 -7c-2 -2 -8 1 -11 3c-10 7 -29 23 -43 42c-39 -23 -88 -42 -105 -47c-3 -1 -8 -2 -9 1c-1 2 4 4 7 6c32 19 85 52 109 70c4 3 6 5 10 5zM195 133c24 25 41 38 57 38c21 1 23 -4 13 -16
c-13 -15 -35 -40 -56 -66c-13 -16 -26 -33 -35 -49c-7 -12 -7 -20 -3 -23c5 -4 15 0 23 4c10 5 29 18 45 31c21 17 37 31 48 41c6 5 11 10 14 7s-2 -8 -13 -18c-13 -12 -37 -33 -56 -48c-20 -16 -53 -40 -86 -40c-19 0 -28 9 -29 21c-1 11 5 25 14 36l-1 1
c-26 -23 -72 -56 -110 -58c-22 -1 -45 8 -41 40c2 15 10 31 28 52l-1 1c-3 -3 -7 -7 -13 -12c-4 -3 -7 -5 -9 -3c-2 3 3 9 14 19c3 3 20 17 30 24s27 18 46 28c39 20 74 32 100 28c20 -3 27 -21 21 -38zM170 161c-20 0 -56 -27 -92 -63c-41 -40 -58 -66 -56 -79
c1 -7 6 -10 13 -10c19 0 57 22 84 47c32 28 68 71 69 87c1 13 -7 18 -18 18z" />
    <glyph glyph-name="adieresis" unicode="&#xe4;" horiz-adv-x="287" 
d="M188 298h1c13 0 18 -10 8 -23c-11 -15 -33 -24 -43 -24c-4 5 -5 19 0 30c5 14 18 17 34 17zM288 298h1c13 0 18 -10 7 -23c-11 -15 -33 -24 -43 -24c-4 5 -4 19 0 30c5 14 19 17 35 17zM195 133c24 25 41 38 57 38c21 1 23 -4 13 -16c-13 -15 -35 -40 -56 -66
c-13 -16 -26 -33 -35 -49c-7 -12 -7 -20 -3 -23c5 -4 15 0 23 4c10 5 29 18 45 31c21 17 37 31 48 41c6 5 11 10 14 7s-2 -8 -13 -18c-13 -12 -37 -33 -56 -48c-20 -16 -53 -40 -86 -40c-19 0 -28 9 -29 21c-1 11 5 25 14 36l-1 1c-26 -23 -72 -56 -110 -58
c-22 -1 -45 8 -41 40c2 15 10 31 28 52l-1 1c-3 -3 -7 -7 -13 -12c-4 -3 -7 -5 -9 -3c-2 3 3 9 14 19c3 3 20 17 30 24s27 18 46 28c39 20 74 32 100 28c20 -3 27 -21 21 -38zM170 161c-20 0 -56 -27 -92 -63c-41 -40 -58 -66 -56 -79c1 -7 6 -10 13 -10c19 0 57 22 84 47
c32 28 68 71 69 87c1 13 -7 18 -18 18z" />
    <glyph glyph-name="agrave" unicode="&#xe0;" horiz-adv-x="287" 
d="M166 352h1c7 0 9 -5 11 -10c11 -26 32 -62 50 -86c2 -3 5 -7 2 -9s-7 2 -10 4c-18 15 -53 45 -66 67c-2 3 -5 9 -5 15c0 10 9 19 17 19zM195 133c24 25 41 38 57 38c21 1 23 -4 13 -16c-13 -15 -35 -40 -56 -66c-13 -16 -26 -33 -35 -49c-7 -12 -7 -20 -3 -23
c5 -4 15 0 23 4c10 5 29 18 45 31c21 17 37 31 48 41c6 5 11 10 14 7s-2 -8 -13 -18c-13 -12 -37 -33 -56 -48c-20 -16 -53 -40 -86 -40c-19 0 -28 9 -29 21c-1 11 5 25 14 36l-1 1c-26 -23 -72 -56 -110 -58c-22 -1 -45 8 -41 40c2 15 10 31 28 52l-1 1
c-3 -3 -7 -7 -13 -12c-4 -3 -7 -5 -9 -3c-2 3 3 9 14 19c3 3 20 17 30 24s27 18 46 28c39 20 74 32 100 28c20 -3 27 -21 21 -38zM170 161c-20 0 -56 -27 -92 -63c-41 -40 -58 -66 -56 -79c1 -7 6 -10 13 -10c19 0 57 22 84 47c32 28 68 71 69 87c1 13 -7 18 -18 18z" />
    <glyph glyph-name="aring" unicode="&#xe5;" horiz-adv-x="287" 
d="M218 335h1c23 0 43 -22 43 -45c0 -25 -20 -44 -44 -44c-25 0 -44 19 -44 44c0 23 19 45 44 45zM218 317h-1c-15 0 -25 -13 -25 -27c0 -15 10 -26 26 -26c15 0 26 11 26 26c0 14 -11 27 -26 27zM195 133c24 25 41 38 57 38c21 1 23 -4 13 -16c-13 -15 -35 -40 -56 -66
c-13 -16 -26 -33 -35 -49c-7 -12 -7 -20 -3 -23c5 -4 15 0 23 4c10 5 29 18 45 31c21 17 37 31 48 41c6 5 11 10 14 7s-2 -8 -13 -18c-13 -12 -37 -33 -56 -48c-20 -16 -53 -40 -86 -40c-19 0 -28 9 -29 21c-1 11 5 25 14 36l-1 1c-26 -23 -72 -56 -110 -58
c-22 -1 -45 8 -41 40c2 15 10 31 28 52l-1 1c-3 -3 -7 -7 -13 -12c-4 -3 -7 -5 -9 -3c-2 3 3 9 14 19c3 3 20 17 30 24s27 18 46 28c39 20 74 32 100 28c20 -3 27 -21 21 -38zM170 161c-20 0 -56 -27 -92 -63c-41 -40 -58 -66 -56 -79c1 -7 6 -10 13 -10c19 0 57 22 84 47
c32 28 68 71 69 87c1 13 -7 18 -18 18z" />
    <glyph glyph-name="atilde" unicode="&#xe3;" horiz-adv-x="287" 
d="M238 251h-1c-23 0 -40 25 -63 27c-19 2 -32 -12 -40 -22c-4 -5 -5 -7 -8 -6c-2 1 -3 4 1 12c12 21 33 41 59 40s38 -26 62 -28c18 -1 33 15 40 24c2 3 5 6 8 5s1 -7 -1 -11c-8 -16 -29 -41 -57 -41zM195 133c24 25 41 38 57 38c21 1 23 -4 13 -16
c-13 -15 -35 -40 -56 -66c-13 -16 -26 -33 -35 -49c-7 -12 -7 -20 -3 -23c5 -4 15 0 23 4c10 5 29 18 45 31c21 17 37 31 48 41c6 5 11 10 14 7s-2 -8 -13 -18c-13 -12 -37 -33 -56 -48c-20 -16 -53 -40 -86 -40c-19 0 -28 9 -29 21c-1 11 5 25 14 36l-1 1
c-26 -23 -72 -56 -110 -58c-22 -1 -45 8 -41 40c2 15 10 31 28 52l-1 1c-3 -3 -7 -7 -13 -12c-4 -3 -7 -5 -9 -3c-2 3 3 9 14 19c3 3 20 17 30 24s27 18 46 28c39 20 74 32 100 28c20 -3 27 -21 21 -38zM170 161c-20 0 -56 -27 -92 -63c-41 -40 -58 -66 -56 -79
c1 -7 6 -10 13 -10c19 0 57 22 84 47c32 28 68 71 69 87c1 13 -7 18 -18 18z" />
    <glyph glyph-name="ccedilla" unicode="&#xe7;" horiz-adv-x="214" 
d="M40 -9h-8c-7 -5 -21 -19 -26 -25c3 1 9 2 13 2c28 0 49 -15 45 -38c-4 -25 -35 -44 -74 -42c-33 1 -50 15 -57 25c-6 8 -6 13 -3 15c3 1 4 -3 8 -7c8 -9 22 -19 51 -19h1c22 0 43 13 44 31c1 15 -11 24 -32 23c-11 -1 -15 -7 -18 -4c-2 2 1 6 4 9c10 11 29 29 33 32
c-25 4 -37 18 -35 40c2 20 13 41 29 60l-1 1c-3 -3 -11 -10 -17 -15s-11 -8 -13 -6c-2 3 2 7 6 11c13 12 22 19 37 30c11 8 31 21 48 30c34 18 66 31 92 27c23 -4 31 -19 27 -38s-21 -34 -34 -34c-17 0 -17 14 -8 29c11 19 15 31 3 33c-11 2 -34 -13 -62 -42
c-27 -27 -53 -65 -56 -89c-2 -15 7 -23 23 -23c13 0 48 6 92 36c19 13 44 34 60 48c6 5 9 6 11 4c2 -3 -1 -7 -8 -13c-13 -12 -41 -36 -59 -48c-35 -24 -82 -43 -116 -43z" />
    <glyph glyph-name="eacute" unicode="&#xe9;" horiz-adv-x="213" 
d="M240 344h1c2 0 5 -2 7 -5c6 -10 2 -24 -7 -33c-15 -15 -63 -46 -83 -57c-6 -3 -10 -5 -12 -3c-2 3 1 6 5 10c19 18 54 54 75 79c4 5 8 9 14 9zM59 6c13 0 47 7 91 37c19 13 42 31 61 48c6 5 9 6 11 4c2 -3 -2 -8 -8 -13c-13 -12 -45 -38 -63 -50
c-42 -28 -79 -41 -113 -41c-37 0 -54 14 -53 40c1 20 10 38 30 62l-1 1c-3 -3 -14 -13 -20 -18c-5 -4 -8 -5 -10 -3c-2 3 2 7 6 11c13 12 22 19 37 30c11 8 30 20 49 30c29 15 59 28 86 28h1c22 0 30 -14 29 -27c-2 -26 -34 -46 -64 -61c-29 -14 -63 -26 -86 -32
c-4 -8 -6 -17 -6 -23c0 -15 8 -23 23 -23zM48 63c20 5 47 16 68 30c25 17 40 38 41 52c1 9 -3 14 -12 14s-24 -10 -44 -29c-16 -15 -41 -47 -53 -67z" />
    <glyph glyph-name="ecircumflex" unicode="&#xea;" horiz-adv-x="213" 
d="M205 321h1c2 0 4 -4 5 -7c11 -24 23 -49 34 -66c3 -4 3 -6 2 -7c-2 -2 -8 1 -11 3c-10 7 -29 23 -43 42c-39 -23 -88 -42 -105 -47c-3 -1 -8 -2 -9 1c-1 2 4 4 7 6c32 19 85 52 109 70c4 3 6 5 10 5zM59 6c13 0 47 7 91 37c19 13 42 31 61 48c6 5 9 6 11 4
c2 -3 -2 -8 -8 -13c-13 -12 -45 -38 -63 -50c-42 -28 -79 -41 -113 -41c-37 0 -54 14 -53 40c1 20 10 38 30 62l-1 1c-3 -3 -14 -13 -20 -18c-5 -4 -8 -5 -10 -3c-2 3 2 7 6 11c13 12 22 19 37 30c11 8 30 20 49 30c29 15 59 28 86 28h1c22 0 30 -14 29 -27
c-2 -26 -34 -46 -64 -61c-29 -14 -63 -26 -86 -32c-4 -8 -6 -17 -6 -23c0 -15 8 -23 23 -23zM48 63c20 5 47 16 68 30c25 17 40 38 41 52c1 9 -3 14 -12 14s-24 -10 -44 -29c-16 -15 -41 -47 -53 -67z" />
    <glyph glyph-name="edieresis" unicode="&#xeb;" horiz-adv-x="213" 
d="M143 298h1c13 0 18 -10 8 -23c-11 -15 -33 -24 -43 -24c-4 5 -5 19 0 30c5 14 18 17 34 17zM243 298h1c13 0 18 -10 7 -23c-11 -15 -33 -24 -43 -24c-4 5 -4 19 0 30c5 14 19 17 35 17zM59 6c13 0 47 7 91 37c19 13 42 31 61 48c6 5 9 6 11 4c2 -3 -2 -8 -8 -13
c-13 -12 -45 -38 -63 -50c-42 -28 -79 -41 -113 -41c-37 0 -54 14 -53 40c1 20 10 38 30 62l-1 1c-3 -3 -14 -13 -20 -18c-5 -4 -8 -5 -10 -3c-2 3 2 7 6 11c13 12 22 19 37 30c11 8 30 20 49 30c29 15 59 28 86 28h1c22 0 30 -14 29 -27c-2 -26 -34 -46 -64 -61
c-29 -14 -63 -26 -86 -32c-4 -8 -6 -17 -6 -23c0 -15 8 -23 23 -23zM48 63c20 5 47 16 68 30c25 17 40 38 41 52c1 9 -3 14 -12 14s-24 -10 -44 -29c-16 -15 -41 -47 -53 -67z" />
    <glyph glyph-name="egrave" unicode="&#xe8;" horiz-adv-x="213" 
d="M142 349h1c7 0 9 -5 11 -10c11 -26 32 -62 50 -86c2 -3 5 -7 2 -9s-7 2 -10 4c-18 15 -53 45 -66 67c-2 3 -5 9 -5 15c0 10 9 19 17 19zM59 6c13 0 47 7 91 37c19 13 42 31 61 48c6 5 9 6 11 4c2 -3 -2 -8 -8 -13c-13 -12 -45 -38 -63 -50c-42 -28 -79 -41 -113 -41
c-37 0 -54 14 -53 40c1 20 10 38 30 62l-1 1c-3 -3 -14 -13 -20 -18c-5 -4 -8 -5 -10 -3c-2 3 2 7 6 11c13 12 22 19 37 30c11 8 30 20 49 30c29 15 59 28 86 28h1c22 0 30 -14 29 -27c-2 -26 -34 -46 -64 -61c-29 -14 -63 -26 -86 -32c-4 -8 -6 -17 -6 -23
c0 -15 8 -23 23 -23zM48 63c20 5 47 16 68 30c25 17 40 38 41 52c1 9 -3 14 -12 14s-24 -10 -44 -29c-16 -15 -41 -47 -53 -67z" />
    <glyph glyph-name="iacute" unicode="&#xed;" horiz-adv-x="162" 
d="M212 344h1c2 0 5 -2 7 -5c6 -10 2 -24 -7 -33c-15 -15 -63 -46 -83 -57c-6 -3 -10 -5 -12 -3c-2 3 1 6 5 10c19 18 54 54 75 79c4 5 8 9 14 9zM81 143c-7 -3 -29 -19 -44 -31s-25 -20 -35 -29c-8 -7 -12 -10 -15 -8c-2 2 0 6 11 16s47 40 71 56c26 18 39 22 58 22
c21 0 23 -3 11 -16c-18 -20 -33 -39 -53 -64c-17 -21 -30 -39 -36 -49c-6 -11 -7 -18 -3 -22c5 -4 14 -2 24 3s27 16 44 30c21 17 30 25 46 40c9 8 13 12 16 9s-8 -13 -11 -16c-12 -12 -37 -34 -57 -50s-54 -41 -87 -41c-21 0 -30 10 -30 26c0 13 7 26 15 38
c20 31 59 72 75 86z" />
    <glyph glyph-name="icircumflex" unicode="&#xee;" horiz-adv-x="162" 
d="M191 321h1c2 0 4 -4 5 -7c11 -24 23 -49 34 -66c3 -4 3 -6 2 -7c-2 -2 -8 1 -11 3c-10 7 -29 23 -43 42c-39 -23 -88 -42 -105 -47c-3 -1 -8 -2 -9 1c-1 2 4 4 7 6c32 19 85 52 109 70c4 3 6 5 10 5zM81 143c-7 -3 -29 -19 -44 -31s-25 -20 -35 -29c-8 -7 -12 -10 -15 -8
c-2 2 0 6 11 16s47 40 71 56c26 18 39 22 58 22c21 0 23 -3 11 -16c-18 -20 -33 -39 -53 -64c-17 -21 -30 -39 -36 -49c-6 -11 -7 -18 -3 -22c5 -4 14 -2 24 3s27 16 44 30c21 17 30 25 46 40c9 8 13 12 16 9s-8 -13 -11 -16c-12 -12 -37 -34 -57 -50s-54 -41 -87 -41
c-21 0 -30 10 -30 26c0 13 7 26 15 38c20 31 59 72 75 86z" />
    <glyph glyph-name="idieresis" unicode="&#xef;" horiz-adv-x="162" 
d="M118 298h1c13 0 18 -10 8 -23c-11 -15 -33 -24 -43 -24c-4 5 -5 19 0 30c5 14 18 17 34 17zM218 298h1c13 0 18 -10 7 -23c-11 -15 -33 -24 -43 -24c-4 5 -4 19 0 30c5 14 19 17 35 17zM81 143c-7 -3 -29 -19 -44 -31s-25 -20 -35 -29c-8 -7 -12 -10 -15 -8
c-2 2 0 6 11 16s47 40 71 56c26 18 39 22 58 22c21 0 23 -3 11 -16c-18 -20 -33 -39 -53 -64c-17 -21 -30 -39 -36 -49c-6 -11 -7 -18 -3 -22c5 -4 14 -2 24 3s27 16 44 30c21 17 30 25 46 40c9 8 13 12 16 9s-8 -13 -11 -16c-12 -12 -37 -34 -57 -50s-54 -41 -87 -41
c-21 0 -30 10 -30 26c0 13 7 26 15 38c20 31 59 72 75 86z" />
    <glyph glyph-name="igrave" unicode="&#xec;" horiz-adv-x="162" 
d="M132 345h1c7 0 9 -5 11 -10c11 -26 32 -62 50 -86c2 -3 5 -7 2 -9s-7 2 -10 4c-18 15 -53 45 -66 67c-2 3 -5 9 -5 15c0 10 9 19 17 19zM81 143c-7 -3 -29 -19 -44 -31s-25 -20 -35 -29c-8 -7 -12 -10 -15 -8c-2 2 0 6 11 16s47 40 71 56c26 18 39 22 58 22
c21 0 23 -3 11 -16c-18 -20 -33 -39 -53 -64c-17 -21 -30 -39 -36 -49c-6 -11 -7 -18 -3 -22c5 -4 14 -2 24 3s27 16 44 30c21 17 30 25 46 40c9 8 13 12 16 9s-8 -13 -11 -16c-12 -12 -37 -34 -57 -50s-54 -41 -87 -41c-21 0 -30 10 -30 26c0 13 7 26 15 38
c20 31 59 72 75 86z" />
    <glyph glyph-name="ntilde" unicode="&#xf1;" horiz-adv-x="352" 
d="M279 251h-1c-23 0 -40 25 -63 27c-19 2 -32 -12 -40 -22c-4 -5 -5 -7 -8 -6c-2 1 -3 4 1 12c12 21 33 41 59 40s38 -26 62 -28c18 -1 33 15 40 24c2 3 5 6 8 5s1 -7 -1 -11c-8 -16 -29 -41 -57 -41zM207 -6c-19 0 -31 9 -30 26c1 22 23 47 42 70c15 18 30 35 42 49
c4 5 6 11 1 14s-16 -1 -26 -6c-18 -9 -46 -26 -78 -51c-44 -34 -68 -57 -112 -91c-9 -7 -15 -9 -26 -9c-14 0 -21 2 -13 16c7 13 28 46 44 67c11 15 29 38 40 52c7 9 9 14 7 17c-3 4 -9 2 -15 -1c-12 -6 -27 -17 -39 -27c-13 -11 -29 -25 -43 -38c-10 -9 -14 -12 -17 -9
c-2 3 3 8 15 19s34 32 52 46c27 21 47 33 68 33c19 0 25 -11 25 -22c0 -12 -8 -25 -21 -43c-15 -20 -36 -47 -47 -63l1 -1c24 20 57 49 92 75s79 54 109 54c21 0 33 -10 31 -27c-3 -18 -24 -41 -40 -61c-16 -19 -28 -36 -33 -44c-8 -13 -8 -19 -4 -22c5 -4 16 0 24 4
c12 6 26 14 48 31c17 13 37 31 48 41c8 7 11 8 13 6s-1 -6 -8 -13c-9 -9 -39 -36 -60 -52c-20 -15 -59 -40 -90 -40z" />
    <glyph glyph-name="oacute" unicode="&#xf3;" horiz-adv-x="249" 
d="M264 344h1c2 0 5 -2 7 -5c6 -10 2 -24 -7 -33c-15 -15 -63 -46 -83 -57c-6 -3 -10 -5 -12 -3c-2 3 1 6 5 10c19 18 54 54 75 79c4 5 8 9 14 9zM21 100c-7 -6 -11 -10 -18 -16s-11 -8 -13 -6c-2 3 3 8 7 12c7 7 21 18 31 25c13 9 27 18 48 29c29 15 60 26 83 27
c7 0 15 0 15 -4c0 -2 -3 -2 -11 -6c-24 -11 -44 -28 -72 -55c-29 -29 -56 -68 -58 -88c-1 -10 3 -17 14 -17c22 0 62 27 93 61c1 10 5 25 18 42c11 15 25 23 32 26c3 7 3 18 3 23c0 11 -4 14 -1 16c4 2 10 -2 14 -6c8 -8 14 -20 12 -35c-3 -24 -26 -53 -57 -81
c4 -2 15 -1 19 0c9 2 20 7 34 17c13 9 21 16 32 26c9 8 14 13 17 10s-3 -9 -13 -18c-9 -8 -19 -17 -32 -26c-16 -11 -28 -16 -38 -18c-9 -2 -21 -2 -27 2c-26 -20 -73 -49 -114 -49c-31 0 -50 15 -49 44c1 20 13 44 32 64z" />
    <glyph glyph-name="ocircumflex" unicode="&#xf4;" horiz-adv-x="249" 
d="M225 321h1c2 0 4 -4 5 -7c11 -24 23 -49 34 -66c3 -4 3 -6 2 -7c-2 -2 -8 1 -11 3c-10 7 -29 23 -43 42c-39 -23 -88 -42 -105 -47c-3 -1 -8 -2 -9 1c-1 2 4 4 7 6c32 19 85 52 109 70c4 3 6 5 10 5zM21 100c-7 -6 -11 -10 -18 -16s-11 -8 -13 -6c-2 3 3 8 7 12
c7 7 21 18 31 25c13 9 27 18 48 29c29 15 60 26 83 27c7 0 15 0 15 -4c0 -2 -3 -2 -11 -6c-24 -11 -44 -28 -72 -55c-29 -29 -56 -68 -58 -88c-1 -10 3 -17 14 -17c22 0 62 27 93 61c1 10 5 25 18 42c11 15 25 23 32 26c3 7 3 18 3 23c0 11 -4 14 -1 16c4 2 10 -2 14 -6
c8 -8 14 -20 12 -35c-3 -24 -26 -53 -57 -81c4 -2 15 -1 19 0c9 2 20 7 34 17c13 9 21 16 32 26c9 8 14 13 17 10s-3 -9 -13 -18c-9 -8 -19 -17 -32 -26c-16 -11 -28 -16 -38 -18c-9 -2 -21 -2 -27 2c-26 -20 -73 -49 -114 -49c-31 0 -50 15 -49 44c1 20 13 44 32 64z" />
    <glyph glyph-name="odieresis" unicode="&#xf6;" horiz-adv-x="249" 
d="M170 298h1c13 0 18 -10 8 -23c-11 -15 -33 -24 -43 -24c-4 5 -5 19 0 30c5 14 18 17 34 17zM270 298h1c13 0 18 -10 7 -23c-11 -15 -33 -24 -43 -24c-4 5 -4 19 0 30c5 14 19 17 35 17zM21 100c-7 -6 -11 -10 -18 -16s-11 -8 -13 -6c-2 3 3 8 7 12c7 7 21 18 31 25
c13 9 27 18 48 29c29 15 60 26 83 27c7 0 15 0 15 -4c0 -2 -3 -2 -11 -6c-24 -11 -44 -28 -72 -55c-29 -29 -56 -68 -58 -88c-1 -10 3 -17 14 -17c22 0 62 27 93 61c1 10 5 25 18 42c11 15 25 23 32 26c3 7 3 18 3 23c0 11 -4 14 -1 16c4 2 10 -2 14 -6c8 -8 14 -20 12 -35
c-3 -24 -26 -53 -57 -81c4 -2 15 -1 19 0c9 2 20 7 34 17c13 9 21 16 32 26c9 8 14 13 17 10s-3 -9 -13 -18c-9 -8 -19 -17 -32 -26c-16 -11 -28 -16 -38 -18c-9 -2 -21 -2 -27 2c-26 -20 -73 -49 -114 -49c-31 0 -50 15 -49 44c1 20 13 44 32 64z" />
    <glyph glyph-name="ograve" unicode="&#xf2;" horiz-adv-x="249" 
d="M166 349h1c7 0 9 -5 11 -10c11 -26 32 -62 50 -86c2 -3 5 -7 2 -9s-7 2 -10 4c-18 15 -53 45 -66 67c-2 3 -5 9 -5 15c0 10 9 19 17 19zM21 100c-7 -6 -11 -10 -18 -16s-11 -8 -13 -6c-2 3 3 8 7 12c7 7 21 18 31 25c13 9 27 18 48 29c29 15 60 26 83 27c7 0 15 0 15 -4
c0 -2 -3 -2 -11 -6c-24 -11 -44 -28 -72 -55c-29 -29 -56 -68 -58 -88c-1 -10 3 -17 14 -17c22 0 62 27 93 61c1 10 5 25 18 42c11 15 25 23 32 26c3 7 3 18 3 23c0 11 -4 14 -1 16c4 2 10 -2 14 -6c8 -8 14 -20 12 -35c-3 -24 -26 -53 -57 -81c4 -2 15 -1 19 0
c9 2 20 7 34 17c13 9 21 16 32 26c9 8 14 13 17 10s-3 -9 -13 -18c-9 -8 -19 -17 -32 -26c-16 -11 -28 -16 -38 -18c-9 -2 -21 -2 -27 2c-26 -20 -73 -49 -114 -49c-31 0 -50 15 -49 44c1 20 13 44 32 64z" />
    <glyph glyph-name="otilde" unicode="&#xf5;" horiz-adv-x="249" 
d="M230 251h-1c-23 0 -40 25 -63 27c-19 2 -32 -12 -40 -22c-4 -5 -5 -7 -8 -6c-2 1 -3 4 1 12c12 21 33 41 59 40s38 -26 62 -28c18 -1 33 15 40 24c2 3 5 6 8 5s1 -7 -1 -11c-8 -16 -29 -41 -57 -41zM21 100c-7 -6 -11 -10 -18 -16s-11 -8 -13 -6c-2 3 3 8 7 12
c7 7 21 18 31 25c13 9 27 18 48 29c29 15 60 26 83 27c7 0 15 0 15 -4c0 -2 -3 -2 -11 -6c-24 -11 -44 -28 -72 -55c-29 -29 -56 -68 -58 -88c-1 -10 3 -17 14 -17c22 0 62 27 93 61c1 10 5 25 18 42c11 15 25 23 32 26c3 7 3 18 3 23c0 11 -4 14 -1 16c4 2 10 -2 14 -6
c8 -8 14 -20 12 -35c-3 -24 -26 -53 -57 -81c4 -2 15 -1 19 0c9 2 20 7 34 17c13 9 21 16 32 26c9 8 14 13 17 10s-3 -9 -13 -18c-9 -8 -19 -17 -32 -26c-16 -11 -28 -16 -38 -18c-9 -2 -21 -2 -27 2c-26 -20 -73 -49 -114 -49c-31 0 -50 15 -49 44c1 20 13 44 32 64z" />
    <glyph glyph-name="scaron" unicode="&#x161;" horiz-adv-x="229" 
d="M190 277h-1c-2 0 -4 4 -5 7c-11 24 -23 49 -34 66c-3 4 -3 6 -2 7c2 2 8 -1 11 -3c10 -7 29 -23 43 -42c39 23 88 42 105 47c3 1 8 2 9 -1c1 -2 -4 -4 -7 -6c-32 -19 -85 -52 -109 -70c-4 -3 -6 -5 -10 -5zM119 21c11 4 28 12 44 22c28 17 49 35 66 50c5 4 10 9 13 6
c2 -2 -2 -8 -11 -16c-10 -9 -29 -25 -51 -40s-44 -26 -63 -34c-18 -8 -54 -18 -84 -18c-53 0 -64 32 -60 60c4 29 27 53 51 52c14 -1 21 -11 19 -22c-2 -10 -9 -18 -22 -25c-9 -5 -22 -16 -23 -30c-1 -16 11 -25 29 -25c20 0 45 16 67 54c18 29 36 89 47 102v1
c-10 -10 -31 -26 -48 -38c-14 -10 -30 -20 -38 -24c-4 -2 -8 -4 -10 -1c-1 3 0 5 5 8c10 6 26 16 42 28c18 13 36 28 59 48c2 4 9 12 16 17c11 8 22 11 29 11c23 0 8 -13 -5 -21c-9 -6 -19 -10 -24 -15c-8 -8 -7 -16 -7 -27c1 -28 3 -54 -9 -82c-6 -14 -20 -33 -32 -41z" />
    <glyph glyph-name="uacute" unicode="&#xfa;" horiz-adv-x="322" 
d="M290 344h1c2 0 5 -2 7 -5c6 -10 2 -24 -7 -33c-15 -15 -63 -46 -83 -57c-6 -3 -10 -5 -12 -3c-2 3 1 6 5 10c19 18 54 54 75 79c4 5 8 9 14 9zM81 143c-7 -3 -28 -18 -43 -30s-26 -21 -36 -30c-8 -7 -12 -10 -15 -8c-2 2 0 6 11 16s47 40 71 56c26 18 39 22 58 22
c21 0 23 -3 11 -16c-13 -14 -32 -37 -52 -62c-16 -21 -32 -43 -37 -54c-4 -8 -4 -15 -1 -18c4 -4 13 -3 23 2c22 12 44 28 75 52c48 37 76 62 108 87c8 6 14 11 29 11c17 0 27 -2 15 -16c-18 -22 -33 -38 -53 -64c-17 -21 -30 -39 -37 -51c-6 -10 -7 -19 -3 -22
c5 -4 13 -2 23 3s29 17 45 30c20 16 37 31 48 41c6 6 12 10 14 7c3 -2 -5 -10 -8 -13c-12 -12 -37 -33 -61 -52c-18 -14 -53 -40 -86 -40c-20 0 -31 9 -31 24c0 14 7 28 16 41c11 16 30 35 47 52l-1 1c-20 -16 -54 -43 -80 -63c-41 -31 -77 -55 -107 -55
c-21 0 -34 10 -33 28c1 14 10 29 19 41c20 27 40 51 71 80z" />
    <glyph glyph-name="ucircumflex" unicode="&#xfb;" horiz-adv-x="322" 
d="M264 326h1c2 0 4 -4 5 -7c11 -24 23 -49 34 -66c3 -4 3 -6 2 -7c-2 -2 -8 1 -11 3c-10 7 -29 23 -43 42c-39 -23 -88 -42 -105 -47c-3 -1 -8 -2 -9 1c-1 2 4 4 7 6c32 19 85 52 109 70c4 3 6 5 10 5zM81 143c-7 -3 -28 -18 -43 -30s-26 -21 -36 -30c-8 -7 -12 -10 -15 -8
c-2 2 0 6 11 16s47 40 71 56c26 18 39 22 58 22c21 0 23 -3 11 -16c-13 -14 -32 -37 -52 -62c-16 -21 -32 -43 -37 -54c-4 -8 -4 -15 -1 -18c4 -4 13 -3 23 2c22 12 44 28 75 52c48 37 76 62 108 87c8 6 14 11 29 11c17 0 27 -2 15 -16c-18 -22 -33 -38 -53 -64
c-17 -21 -30 -39 -37 -51c-6 -10 -7 -19 -3 -22c5 -4 13 -2 23 3s29 17 45 30c20 16 37 31 48 41c6 6 12 10 14 7c3 -2 -5 -10 -8 -13c-12 -12 -37 -33 -61 -52c-18 -14 -53 -40 -86 -40c-20 0 -31 9 -31 24c0 14 7 28 16 41c11 16 30 35 47 52l-1 1
c-20 -16 -54 -43 -80 -63c-41 -31 -77 -55 -107 -55c-21 0 -34 10 -33 28c1 14 10 29 19 41c20 27 40 51 71 80z" />
    <glyph glyph-name="udieresis" unicode="&#xfc;" horiz-adv-x="322" 
d="M206 298h1c13 0 18 -10 8 -23c-11 -15 -33 -24 -43 -24c-4 5 -5 19 0 30c5 14 18 17 34 17zM306 298h1c13 0 18 -10 7 -23c-11 -15 -33 -24 -43 -24c-4 5 -4 19 0 30c5 14 19 17 35 17zM81 143c-7 -3 -28 -18 -43 -30s-26 -21 -36 -30c-8 -7 -12 -10 -15 -8
c-2 2 0 6 11 16s47 40 71 56c26 18 39 22 58 22c21 0 23 -3 11 -16c-13 -14 -32 -37 -52 -62c-16 -21 -32 -43 -37 -54c-4 -8 -4 -15 -1 -18c4 -4 13 -3 23 2c22 12 44 28 75 52c48 37 76 62 108 87c8 6 14 11 29 11c17 0 27 -2 15 -16c-18 -22 -33 -38 -53 -64
c-17 -21 -30 -39 -37 -51c-6 -10 -7 -19 -3 -22c5 -4 13 -2 23 3s29 17 45 30c20 16 37 31 48 41c6 6 12 10 14 7c3 -2 -5 -10 -8 -13c-12 -12 -37 -33 -61 -52c-18 -14 -53 -40 -86 -40c-20 0 -31 9 -31 24c0 14 7 28 16 41c11 16 30 35 47 52l-1 1
c-20 -16 -54 -43 -80 -63c-41 -31 -77 -55 -107 -55c-21 0 -34 10 -33 28c1 14 10 29 19 41c20 27 40 51 71 80z" />
    <glyph glyph-name="ugrave" unicode="&#xf9;" horiz-adv-x="322" 
d="M167 342h1c7 0 9 -5 11 -10c11 -26 32 -62 50 -86c2 -3 5 -7 2 -9s-7 2 -10 4c-18 15 -53 45 -66 67c-2 3 -5 9 -5 15c0 10 9 19 17 19zM81 143c-7 -3 -28 -18 -43 -30s-26 -21 -36 -30c-8 -7 -12 -10 -15 -8c-2 2 0 6 11 16s47 40 71 56c26 18 39 22 58 22
c21 0 23 -3 11 -16c-13 -14 -32 -37 -52 -62c-16 -21 -32 -43 -37 -54c-4 -8 -4 -15 -1 -18c4 -4 13 -3 23 2c22 12 44 28 75 52c48 37 76 62 108 87c8 6 14 11 29 11c17 0 27 -2 15 -16c-18 -22 -33 -38 -53 -64c-17 -21 -30 -39 -37 -51c-6 -10 -7 -19 -3 -22
c5 -4 13 -2 23 3s29 17 45 30c20 16 37 31 48 41c6 6 12 10 14 7c3 -2 -5 -10 -8 -13c-12 -12 -37 -33 -61 -52c-18 -14 -53 -40 -86 -40c-20 0 -31 9 -31 24c0 14 7 28 16 41c11 16 30 35 47 52l-1 1c-20 -16 -54 -43 -80 -63c-41 -31 -77 -55 -107 -55
c-21 0 -34 10 -33 28c1 14 10 29 19 41c20 27 40 51 71 80z" />
    <glyph glyph-name="yacute" unicode="&#xfd;" horiz-adv-x="315" 
d="M289 339h1c2 0 5 -2 7 -5c6 -10 2 -24 -7 -33c-15 -15 -63 -46 -83 -57c-6 -3 -10 -5 -12 -3c-2 3 1 6 5 10c19 18 54 54 75 79c4 5 8 9 14 9zM213 112l-1 1c-20 -17 -55 -44 -81 -64c-41 -31 -77 -55 -107 -55c-21 0 -33 11 -32 29c1 11 7 25 18 40c21 28 46 56 71 80
c-7 -3 -29 -19 -44 -31s-25 -20 -35 -29c-8 -7 -12 -10 -15 -8c-2 2 0 6 11 16s47 40 71 56c26 18 39 22 58 22c21 0 23 -3 11 -16c-13 -14 -32 -37 -52 -62c-17 -21 -32 -43 -37 -54c-4 -8 -4 -15 -1 -18c4 -4 13 -2 23 3c22 12 44 27 75 51c48 37 76 62 108 87
c8 6 14 11 29 11c17 0 25 -2 14 -15c-16 -21 -39 -51 -59 -78c-17 -22 -57 -74 -132 -177c-88 -120 -163 -232 -177 -256c-8 -13 -8 -18 -5 -20s8 0 15 8c10 11 45 61 73 101c23 32 61 87 113 154c41 52 85 103 128 146c15 15 48 46 61 58c3 3 11 10 14 7
c2 -3 -3 -8 -11 -16c-13 -12 -34 -32 -58 -56c-38 -39 -86 -94 -126 -145c-47 -62 -88 -119 -119 -164c-32 -45 -60 -87 -85 -110c-9 -8 -19 -14 -29 -13c-11 1 -19 7 -19 21c0 17 18 48 41 85c36 57 64 98 135 196c48 66 96 133 156 215z" />
    <glyph glyph-name="ydieresis" unicode="&#xff;" horiz-adv-x="315" 
d="M198 298h1c13 0 18 -10 8 -23c-11 -15 -33 -24 -43 -24c-4 5 -5 19 0 30c5 14 18 17 34 17zM298 298h1c13 0 18 -10 7 -23c-11 -15 -33 -24 -43 -24c-4 5 -4 19 0 30c5 14 19 17 35 17zM213 112l-1 1c-20 -17 -55 -44 -81 -64c-41 -31 -77 -55 -107 -55
c-21 0 -33 11 -32 29c1 11 7 25 18 40c21 28 46 56 71 80c-7 -3 -29 -19 -44 -31s-25 -20 -35 -29c-8 -7 -12 -10 -15 -8c-2 2 0 6 11 16s47 40 71 56c26 18 39 22 58 22c21 0 23 -3 11 -16c-13 -14 -32 -37 -52 -62c-17 -21 -32 -43 -37 -54c-4 -8 -4 -15 -1 -18
c4 -4 13 -2 23 3c22 12 44 27 75 51c48 37 76 62 108 87c8 6 14 11 29 11c17 0 25 -2 14 -15c-16 -21 -39 -51 -59 -78c-17 -22 -57 -74 -132 -177c-88 -120 -163 -232 -177 -256c-8 -13 -8 -18 -5 -20s8 0 15 8c10 11 45 61 73 101c23 32 61 87 113 154
c41 52 85 103 128 146c15 15 48 46 61 58c3 3 11 10 14 7c2 -3 -3 -8 -11 -16c-13 -12 -34 -32 -58 -56c-38 -39 -86 -94 -126 -145c-47 -62 -88 -119 -119 -164c-32 -45 -60 -87 -85 -110c-9 -8 -19 -14 -29 -13c-11 1 -19 7 -19 21c0 17 18 48 41 85c36 57 64 98 135 196
c48 66 96 133 156 215z" />
    <glyph glyph-name="zcaron" unicode="&#x17e;" horiz-adv-x="244" 
d="M171 250h-1c-2 0 -4 4 -5 7c-11 24 -23 49 -34 66c-3 4 -3 6 -2 7c2 2 8 -1 11 -3c10 -7 29 -23 43 -42c39 23 88 42 105 47c3 1 8 2 9 -1c1 -2 -4 -4 -7 -6c-32 -19 -85 -52 -109 -70c-4 -3 -6 -5 -10 -5zM50 36c8 2 17 3 26 2c20 -2 40 -12 48 -34c16 9 40 25 59 39
c23 17 48 38 61 50c6 5 11 9 14 6c2 -2 -2 -7 -13 -17c-12 -11 -35 -30 -56 -46c-22 -16 -44 -30 -63 -41c1 -3 2 -9 2 -15c0 -71 -100 -182 -162 -236c-84 -75 -198 -149 -257 -149c-32 0 -42 18 -42 35c0 49 66 111 155 179c78 58 147 100 195 129c28 17 53 33 76 47
c3 27 -8 44 -27 44c-30 0 -56 -22 -72 -37c-3 -3 -8 -9 -12 -5s-1 12 3 17c7 9 24 20 42 30c38 20 64 30 98 49c35 21 57 38 73 56c2 2 5 7 4 9s-4 1 -6 0c-25 -14 -65 -27 -90 -27c-23 0 -41 6 -49 19c-17 -19 -37 -40 -53 -55c-7 -6 -9 -6 -11 -4s1 6 6 11
c15 14 38 38 54 57c-1 8 1 20 10 31s22 15 33 15c8 0 17 -3 17 -10c-4 -2 -13 -5 -16 -16c-2 -8 2 -20 28 -20c28 0 58 7 81 17c8 3 17 5 20 1c5 -5 -3 -19 -6 -23c-14 -19 -42 -44 -86 -68c-34 -18 -60 -27 -84 -40zM-287 -394h1c55 0 151 78 225 157
c53 55 138 160 152 211c-21 -14 -46 -29 -69 -44c-48 -30 -120 -75 -194 -131c-78 -59 -132 -119 -137 -166c-1 -13 2 -27 22 -27z" />
    <glyph glyph-name="Euro" unicode="&#x20ac;" horiz-adv-x="400" 
d="M171 -34c-66 -2 -125 22 -125 81c0 14 4 35 7 42c-4 0 -18 -1 -31 -1c-15 0 -16 4 -12 11c3 5 9 9 22 9c11 0 21 -1 27 -1c3 7 11 22 17 30c-10 0 -31 -1 -53 -1c-16 0 -17 4 -15 10c4 8 11 10 27 10c20 -1 38 -2 51 -2c19 27 54 62 90 89c53 38 138 82 209 82
c51 0 88 -25 92 -62c3 -27 -8 -48 -24 -48c-13 0 -18 11 -14 28c3 12 11 21 11 31c0 24 -26 42 -63 42c-66 0 -138 -52 -184 -95c-23 -21 -44 -50 -56 -68c70 -1 109 -3 145 -5c1 0 15 -1 15 -4s-14 -4 -15 -4c-41 -2 -95 -2 -154 -2c-5 -8 -15 -25 -18 -33
c59 -1 92 -2 141 -4c2 0 17 -1 17 -5c0 -3 -13 -4 -16 -4c-52 -2 -74 -2 -148 -2c-6 -16 -10 -33 -10 -48c0 -46 29 -63 69 -63c38 0 83 17 114 39c17 12 38 30 49 41c4 4 7 6 9 5c3 -2 -1 -8 -4 -11c-8 -9 -32 -31 -49 -43c-33 -23 -74 -42 -121 -44z" />
    <glyph glyph-name="a.begin1" unicode="&#xe07b;" horiz-adv-x="288" 
d="M21 -6c-22 -1 -44 7 -41 40c3 24 23 59 72 95c33 24 90 48 123 42c20 -3 27 -21 21 -38c24 25 41 38 57 38c21 1 23 -4 13 -16c-13 -15 -35 -40 -56 -66c-13 -16 -26 -33 -35 -49c-7 -12 -7 -20 -3 -23c5 -4 15 0 23 4c10 5 29 18 45 31c21 17 37 31 48 41
c6 5 11 10 14 7s-2 -8 -13 -18c-13 -12 -37 -33 -56 -48c-20 -16 -53 -40 -86 -40c-19 0 -28 9 -29 21c-1 11 5 25 14 36l-1 1c-26 -23 -72 -56 -110 -58zM171 161c-20 0 -56 -27 -92 -63c-41 -40 -58 -66 -56 -79c1 -7 6 -10 13 -10c19 0 57 22 84 47c32 28 68 71 69 87
c1 13 -7 18 -18 18z" />
    <glyph glyph-name="a.begin2" unicode="&#xe07c;" horiz-adv-x="344" 
d="M196 133c24 25 41 38 56 38h1c21 1 23 -4 13 -16c-13 -15 -35 -40 -56 -66c-17 -20 -27 -34 -35 -49c-6 -11 -8 -20 -6 -27c3 -9 11 -12 18 -12c17 0 32 9 49 17c32 16 61 31 85 30h1c21 -1 34 -15 35 -34c1 -21 -15 -31 -19 -34c-2 -1 -4 -3 -5 -2s-1 2 1 4
c2 3 5 8 5 17c-1 24 -17 32 -35 32s-36 -6 -73 -24c-16 -8 -39 -19 -62 -20h-1c-18 -1 -37 7 -42 26c-3 12 0 29 6 38l-1 1c-26 -23 -72 -56 -110 -58c-22 -1 -44 7 -41 40c3 24 23 59 72 95c33 24 90 48 123 42c20 -3 27 -21 21 -38zM171 161c-20 0 -56 -27 -92 -63
c-41 -40 -58 -66 -56 -79c1 -7 6 -10 13 -10c19 0 57 22 84 47c32 28 68 71 69 87c1 13 -7 18 -18 18z" />
    <glyph glyph-name="a.end1" unicode="&#xe07d;" horiz-adv-x="377" 
d="M170 161c-20 0 -56 -27 -92 -63c-41 -40 -58 -66 -56 -79c1 -7 6 -10 13 -10c19 0 57 22 84 47c32 28 68 71 69 87c1 13 -7 18 -18 18zM74 143c36 19 74 32 100 28c20 -4 27 -21 21 -38c24 25 41 38 57 38c21 1 23 -4 13 -16c-13 -15 -35 -39 -56 -66
c-18 -23 -28 -41 -33 -54c-4 -11 -3 -18 -1 -23c3 -7 11 -10 19 -11c27 -2 56 8 85 24c24 14 60 43 82 80c11 17 18 37 20 52c2 10 0 14 2 14c3 0 4 -9 4 -14c-1 -17 -6 -37 -16 -56c-20 -37 -57 -70 -87 -87c-28 -16 -66 -30 -111 -27c-29 2 -41 16 -44 28
c-3 11 -2 25 2 36l-1 1c-26 -23 -72 -56 -110 -58c-22 -1 -44 7 -41 40c2 16 10 31 28 52l-1 1c-3 -3 -7 -7 -13 -12c-4 -3 -7 -5 -9 -3c-2 3 3 9 14 19c3 3 20 17 30 24c11 8 27 18 46 28z" />
    <glyph glyph-name="a.end2" unicode="&#xe07e;" horiz-adv-x="376" 
d="M170 161c-20 0 -56 -27 -92 -63c-41 -40 -58 -66 -56 -79c1 -7 6 -10 13 -10c19 0 57 22 84 47c32 28 68 71 69 87c1 13 -7 18 -18 18zM28 115c10 7 27 18 46 28c36 19 74 32 100 28c20 -4 27 -21 21 -38c24 25 41 38 57 38c21 1 23 -4 13 -16c-13 -15 -35 -40 -56 -66
c-17 -20 -27 -34 -35 -49c-6 -11 -8 -20 -6 -27c3 -9 11 -12 18 -12c17 0 32 9 49 17c32 16 61 31 86 30c21 -1 34 -15 35 -34c1 -21 -15 -31 -19 -34c-2 -1 -4 -3 -5 -2s-1 2 1 4c2 3 5 8 5 17c-1 24 -17 32 -35 32s-36 -6 -73 -24c-16 -8 -39 -19 -63 -20
c-18 -1 -37 7 -42 26c-3 12 0 29 6 38l-1 1c-26 -23 -72 -56 -110 -58c-22 -1 -45 8 -41 40c2 15 10 31 28 52l-1 1c-3 -3 -7 -7 -13 -12c-4 -3 -7 -5 -9 -3c-2 3 3 9 14 19c3 3 20 17 30 24z" />
    <glyph glyph-name="a.end3" unicode="&#xe07f;" horiz-adv-x="432" 
d="M170 161c-20 0 -56 -27 -92 -63c-41 -40 -58 -66 -56 -79c1 -7 6 -10 13 -10c19 0 57 22 84 47c32 28 68 71 69 87c1 13 -7 18 -18 18zM28 115c10 7 27 18 46 28c36 19 74 32 100 28c20 -4 27 -21 21 -38c24 25 41 38 57 38c21 1 23 -4 13 -16c-13 -15 -36 -41 -54 -64
c-21 -26 -31 -44 -31 -61c0 -18 9 -32 44 -31c40 1 102 27 131 45c65 41 83 77 85 100c1 11 0 19 -4 26c3 3 7 5 14 5c14 0 19 -16 18 -26c-2 -31 -37 -68 -111 -114c-26 -16 -89 -45 -144 -48c-53 -3 -82 12 -82 43c0 7 1 19 7 28l-1 1c-30 -30 -79 -63 -117 -65
c-22 -1 -45 8 -41 40c2 15 10 31 28 52l-1 1c-3 -3 -7 -7 -13 -12c-4 -3 -7 -5 -9 -3c-2 3 3 9 14 19c3 3 20 17 30 24z" />
    <glyph glyph-name="a.end4" unicode="&#xe080;" horiz-adv-x="482" 
d="M170 161c-20 0 -56 -27 -92 -63c-41 -40 -58 -66 -56 -79c1 -7 6 -10 13 -10c19 0 57 22 84 47c32 28 68 71 69 87c1 13 -7 18 -18 18zM28 115c10 7 27 18 46 28c36 19 74 32 100 28c20 -4 27 -21 21 -38c24 25 41 38 57 38c21 1 23 -4 13 -16c-13 -15 -36 -41 -54 -64
c-17 -21 -30 -45 -30 -64c0 -18 8 -35 44 -35c40 0 89 19 119 34c38 19 86 58 110 90c22 30 49 75 49 120c0 21 -4 24 -1 26s10 -9 10 -26c0 -57 -25 -99 -47 -128c-28 -37 -70 -69 -118 -93c-28 -14 -77 -34 -125 -36c-64 -2 -91 24 -91 52c0 10 2 19 7 27l-1 1
c-30 -30 -79 -63 -117 -65c-22 -1 -45 8 -41 40c2 15 10 31 28 52l-1 1c-3 -3 -7 -7 -13 -12c-4 -3 -7 -5 -9 -3c-2 3 3 9 14 19c3 3 20 17 30 24z" />
    <glyph glyph-name="a.end5" unicode="&#xe081;" horiz-adv-x="417" 
d="M170 161c-20 0 -56 -27 -92 -63c-41 -40 -58 -66 -56 -79c1 -7 6 -10 13 -10c19 0 57 22 84 47c32 28 68 71 69 87c1 13 -7 18 -18 18zM28 115c10 7 27 18 46 28c36 19 74 32 100 28c20 -4 27 -21 21 -38c24 25 41 38 57 38c21 1 23 -4 13 -16c-13 -15 -35 -40 -56 -66
c-17 -20 -31 -39 -40 -55c-7 -12 -7 -22 -4 -26c3 -5 11 -7 19 -7c35 0 66 10 95 24c38 18 79 54 104 86c21 27 39 66 39 113c0 87 -61 120 -126 120c-17 0 -32 -4 -42 -8c-5 -2 -9 -4 -11 -2c-1 2 2 5 8 8c12 6 32 11 51 11c72 0 150 -34 150 -128c0 -54 -30 -96 -52 -123
c-28 -35 -69 -64 -118 -88c-28 -14 -73 -27 -118 -26c-31 1 -42 14 -44 26s2 25 11 36l-1 1c-26 -23 -72 -55 -110 -57c-22 -1 -45 8 -41 40c2 15 10 31 28 52l-1 1c-3 -3 -7 -7 -13 -12c-4 -3 -7 -5 -9 -3c-2 3 3 9 14 19c3 3 20 17 30 24z" />
    <glyph glyph-name="a.end6" unicode="&#xe082;" horiz-adv-x="587" 
d="M305 -21c84 8 163 47 200 70c52 34 96 84 101 132c3 25 -10 46 -40 46c-65 0 -127 -56 -173 -107c-17 -19 -57 -72 -88 -141zM170 161c-20 0 -56 -27 -92 -63c-41 -40 -58 -66 -56 -79c1 -7 6 -10 13 -10c19 0 57 22 84 47c32 28 68 71 69 87c1 13 -7 18 -18 18zM28 115
c10 7 27 18 46 28c39 20 74 32 100 28c20 -3 27 -21 21 -38c24 25 41 38 57 38c21 1 23 -4 13 -16c-13 -15 -36 -41 -54 -64c-17 -21 -26 -37 -30 -48c-9 -24 -10 -47 15 -57c24 -10 62 -11 99 -8c31 74 74 129 92 148c48 53 111 111 186 111c37 0 60 -24 57 -56
c-5 -56 -64 -105 -117 -139c-40 -25 -126 -64 -211 -72c-20 -45 -33 -109 -33 -149c0 -7 -2 -9 -4 -9s-4 3 -4 10c0 46 13 103 31 147c-41 -3 -86 -5 -123 5c-29 8 -40 26 -40 47c0 15 5 29 9 37l-1 1c-30 -30 -79 -63 -117 -65c-22 -1 -45 8 -41 40c2 15 10 31 28 52l-1 1
c-3 -3 -7 -7 -13 -12c-4 -3 -7 -5 -9 -3c-2 3 3 9 14 19c3 3 20 17 30 24z" />
    <glyph glyph-name="a.end7" unicode="&#xe083;" horiz-adv-x="513" 
d="M170 161c-20 0 -56 -27 -92 -63c-41 -40 -58 -66 -56 -79c1 -7 6 -10 13 -10c19 0 57 22 84 47c32 28 68 71 69 87c1 13 -7 18 -18 18zM28 115c10 7 27 18 46 28c39 20 74 32 100 28c20 -3 27 -21 21 -38c24 25 41 38 57 38c21 1 23 -4 13 -16c-13 -15 -35 -40 -56 -66
c-17 -20 -27 -34 -35 -49c-6 -11 -8 -20 -6 -27c3 -9 11 -13 24 -13c30 0 59 11 89 23c69 28 108 42 154 41c36 -1 56 -19 56 -45c0 -30 -31 -56 -44 -63c-4 -2 -6 -3 -7 -2s1 3 3 6c6 8 13 24 13 38c0 35 -23 47 -55 47c-31 0 -62 -9 -130 -35c-21 -8 -66 -23 -103 -23
c-25 1 -39 11 -43 26c-3 12 0 29 6 38l-1 1c-26 -23 -72 -56 -110 -58c-22 -1 -45 8 -41 40c2 15 10 31 28 52l-1 1c-3 -3 -7 -7 -13 -12c-4 -3 -7 -5 -9 -3c-2 3 3 9 14 19c3 3 20 17 30 24z" />
    <glyph glyph-name="a.end8" unicode="&#xe084;" horiz-adv-x="622" 
d="M170 161c-20 0 -56 -27 -92 -63c-41 -40 -58 -66 -56 -79c1 -7 6 -10 13 -10c19 0 57 22 84 47c32 28 68 71 69 87c1 13 -7 18 -18 18zM28 115c10 7 27 18 46 28c39 20 74 32 100 28c20 -3 27 -21 21 -38c24 25 41 38 57 38c21 1 23 -4 13 -16c-13 -15 -36 -41 -54 -64
c-17 -21 -30 -43 -30 -60c0 -18 13 -24 29 -24c21 0 48 8 92 33c24 14 66 45 88 64c44 37 100 82 159 82c49 0 83 -30 82 -77c-1 -33 -23 -54 -34 -63c-4 -3 -7 -5 -8 -4s2 4 5 7c9 9 22 31 22 54c0 41 -37 54 -78 54c-49 0 -105 -33 -144 -64c-16 -13 -67 -51 -88 -63
c-36 -21 -82 -39 -116 -39c-38 0 -60 12 -60 39c0 7 3 21 8 28l-1 1c-30 -30 -79 -63 -117 -65c-22 -1 -45 8 -41 40c2 15 10 31 28 52l-1 1c-3 -3 -7 -7 -13 -12c-4 -3 -7 -5 -9 -3c-2 3 3 9 14 19c3 3 20 17 30 24z" />
    <glyph glyph-name="b.alt1" unicode="&#xe0c8;" horiz-adv-x="257" 
d="M140 184c95 83 134 107 179 148c96 86 185 163 189 207c1 13 -6 19 -17 19c-17 0 -44 -20 -65 -40c-33 -33 -81 -81 -133 -143c-73 -87 -99 -119 -153 -191zM63 148c36 46 76 97 122 150c57 68 181 194 232 231c29 21 56 40 85 40c26 0 34 -18 31 -36
c-8 -48 -104 -128 -205 -212c-61 -50 -145 -110 -204 -163c-17 -21 -31 -39 -52 -69c-9 -12 -28 -42 -31 -65c-2 -13 3 -21 14 -22c12 -1 36 9 56 24c19 14 37 30 56 57c-2 7 -3 22 1 39c4 19 21 51 39 51c12 0 17 -17 9 -41s-22 -46 -31 -56c6 -7 15 -10 24 -10
c7 0 16 2 24 7c7 4 13 10 21 17c6 6 9 7 11 5s1 -5 -5 -11c-3 -3 -15 -14 -24 -19s-19 -8 -28 -8c-11 0 -22 4 -29 11c-22 -22 -40 -36 -62 -51c-24 -16 -48 -26 -70 -26h-1c-30 0 -48 15 -48 40c0 27 14 49 25 63c5 6 13 16 19 23l-1 1c-14 -12 -27 -24 -36 -32
c-6 -5 -9 -6 -11 -4s0 5 5 10c16 14 41 37 64 56z" />
    <glyph glyph-name="b.alt2" unicode="&#xe0cd;" horiz-adv-x="298" 
d="M89 6c20 2 35 9 48 17c17 11 32 24 46 42c-12 -6 -46 -15 -62 -19c-36 -9 -57 -18 -56 -31c1 -8 11 -10 24 -9zM63 148c14 18 54 70 79 99c54 66 98 106 168 161c58 44 140 99 220 99c81 0 129 -51 123 -106c-1 -13 -7 -22 -10 -21c-2 1 2 8 3 21c3 43 -44 80 -119 80
c-97 0 -153 -35 -206 -83c-42 -39 -105 -112 -169 -199c-44 -60 -73 -101 -95 -133l1 -1c29 30 64 57 94 77c23 15 59 32 88 29c22 -2 34 -15 31 -38c-4 -29 -27 -65 -67 -95c-41 -31 -82 -42 -115 -43c-22 0 -40 3 -40 20c1 19 27 28 65 38c28 7 59 15 77 23
c10 11 27 36 32 50c4 11 7 30 -10 30c-18 0 -51 -17 -87 -45c-44 -34 -73 -63 -111 -101c-8 -8 -18 -13 -29 -14c-20 -1 -19 5 -14 16c9 20 24 42 41 67c9 13 18 26 29 39h-1c-14 -12 -27 -24 -36 -32c-6 -5 -9 -6 -11 -4s0 5 5 10c16 14 41 37 64 56z" />
    <glyph glyph-name="b.alt3" unicode="&#xe0ce;" horiz-adv-x="298" 
d="M176 234c78 30 177 81 267 154c88 72 112 117 112 148c0 13 -8 19 -17 20c-20 3 -47 -6 -80 -30c-40 -29 -102 -85 -156 -144c-47 -52 -78 -90 -126 -148zM89 6c20 2 35 9 48 17c17 11 32 24 46 42c-12 -6 -46 -15 -62 -19c-36 -9 -57 -18 -56 -31c1 -8 11 -10 24 -9z
M63 148c16 20 31 40 49 60c-16 -4 -33 -5 -53 -4c-57 3 -80 36 -80 68c0 27 14 43 22 49c1 1 6 4 7 3s-1 -3 -4 -6c-6 -6 -18 -22 -16 -44c2 -29 31 -54 73 -58c22 -2 44 0 59 4c21 26 41 51 61 74c66 77 163 172 253 232c35 24 78 43 109 43c26 0 43 -15 43 -38
c0 -45 -62 -105 -171 -182c-71 -51 -160 -96 -249 -131c-15 -21 -88 -121 -109 -152l1 -1c29 30 64 57 94 77c20 13 59 32 88 29c22 -2 34 -15 31 -38c-4 -29 -27 -65 -67 -95c-41 -31 -82 -42 -115 -43c-22 0 -40 3 -40 20c1 19 27 28 65 38c28 7 59 15 77 23
c10 11 27 36 32 50c4 12 7 30 -10 30c-18 0 -51 -17 -87 -45c-44 -34 -73 -63 -111 -101c-8 -8 -18 -13 -29 -14c-20 -1 -19 5 -14 16c9 20 24 42 41 67c9 13 18 26 29 39h-1c-14 -12 -27 -24 -36 -32c-6 -5 -9 -6 -11 -4s0 5 5 10c16 14 41 37 64 56z" />
    <glyph glyph-name="b.alt4" unicode="&#xe0cf;" horiz-adv-x="311" 
d="M183 228c64 16 143 44 257 127c98 71 128 139 128 181c0 13 -8 19 -17 20c-20 3 -47 -6 -80 -30c-40 -29 -102 -85 -156 -144c-47 -52 -84 -96 -132 -154zM112 -5c-25 0 -41 5 -48 20c-3 8 -4 22 8 38c-14 -13 -28 -27 -44 -43c-8 -8 -18 -13 -29 -14
c-20 -1 -19 5 -14 16c7 14 24 42 41 67c19 28 65 89 96 128c-13 -3 -30 -5 -50 -3c-57 4 -80 36 -80 68c0 27 15 43 22 49c2 2 5 4 6 3s1 -2 -3 -6c-6 -6 -18 -22 -16 -44c2 -29 32 -53 73 -58c23 -3 42 -1 57 3c21 26 43 52 63 75c66 77 163 172 253 232
c35 24 78 43 109 43c26 0 43 -15 43 -38c0 -45 -43 -109 -151 -186c-113 -81 -194 -111 -272 -130c-15 -21 -85 -118 -106 -149l1 -1c26 27 64 57 94 77c23 14 59 32 88 29c22 -2 34 -15 31 -38c-4 -29 -31 -65 -62 -92c-35 -29 -84 -46 -110 -46zM111 8c21 2 51 17 85 57
c17 20 35 47 40 61c4 10 7 30 -10 30c-18 0 -51 -17 -87 -45c-22 -17 -40 -32 -58 -49c-10 -15 -13 -32 -3 -44c7 -8 18 -11 33 -10z" />
    <glyph glyph-name="b.alt5" unicode="&#xe0d0;" horiz-adv-x="257" 
d="M190 256c61 3 172 40 250 94c90 62 132 130 132 169c0 26 -14 37 -35 37c-26 0 -58 -9 -114 -57c-38 -30 -84 -73 -124 -117c-48 -52 -84 -93 -109 -126zM179 68c-15 -16 -26 -25 -43 -38c-31 -22 -60 -39 -89 -39h-1c-30 0 -50 16 -48 44c0 22 13 44 25 59
c6 8 18 22 21 26l-1 1c-15 -14 -29 -27 -38 -35c-6 -5 -9 -6 -11 -4c-2 3 1 6 6 11c18 16 40 37 62 59c20 25 55 70 73 92c-12 -1 -53 1 -77 6c-84 18 -139 63 -132 141c7 79 94 126 172 126c60 0 115 -33 115 -88c0 -7 -1 -17 -4 -25c-2 -5 -4 -7 -6 -6c-1 1 0 3 1 7
c2 7 2 15 2 22c-3 51 -59 78 -108 78c-75 0 -138 -44 -144 -114c-6 -67 30 -112 106 -130c29 -7 69 -7 83 -6c21 26 62 73 91 103c47 49 112 108 171 149c50 35 104 62 144 62c25 0 56 -9 54 -52c-2 -48 -57 -111 -155 -176c-78 -52 -195 -93 -266 -96
c-19 -22 -87 -117 -108 -150c-8 -13 -32 -48 -34 -71c-1 -13 4 -22 16 -22c19 0 47 15 75 40c15 13 28 29 36 41c-2 7 -3 22 1 39c4 19 21 51 39 51c12 0 17 -17 9 -41s-22 -46 -31 -56c6 -7 15 -10 24 -10c7 0 16 2 24 7c7 4 13 10 21 17c6 6 9 7 11 5s1 -5 -5 -11
c-3 -3 -15 -14 -24 -19s-19 -8 -28 -8c-11 0 -22 4 -29 11z" />
    <glyph glyph-name="b.alt6" unicode="&#xe0d1;" horiz-adv-x="298" 
d="M89 6c20 2 35 9 48 17c17 11 32 24 46 42c-12 -6 -46 -15 -62 -19c-36 -9 -57 -18 -56 -31c1 -8 11 -10 24 -9zM63 148c14 18 54 70 79 99c63 75 165 176 238 230c124 93 247 159 396 163c157 4 259 -77 254 -182c-1 -19 -9 -37 -12 -34s3 9 3 34c2 90 -77 159 -261 152
c-164 -5 -253 -53 -351 -125c-53 -40 -129 -122 -217 -233c-37 -46 -113 -154 -135 -186l1 -1c29 30 64 57 94 77c20 13 59 32 88 29c22 -2 34 -15 31 -38c-4 -29 -27 -65 -67 -95c-41 -31 -82 -42 -115 -43c-22 0 -40 3 -40 20c1 19 27 28 65 38c28 7 59 15 77 23
c10 11 27 36 32 50c4 11 7 30 -10 30c-18 0 -51 -17 -87 -45c-44 -34 -73 -63 -111 -101c-8 -8 -18 -13 -29 -14c-20 -1 -19 5 -14 16c9 20 24 42 41 67c9 13 18 26 29 39h-1c-14 -12 -27 -24 -36 -32c-6 -5 -9 -6 -11 -4s0 5 5 10c16 14 41 37 64 56z" />
    <glyph glyph-name="b.alt7" unicode="&#xe0d2;" horiz-adv-x="298" 
d="M842 392h1c158 0 313 42 322 158c6 87 -103 151 -299 145c-163 -5 -312 -84 -382 -135c-44 -32 -94 -80 -146 -134c135 -8 349 -34 504 -34zM89 6c20 2 35 9 48 17c17 11 32 24 46 42c-12 -6 -46 -15 -62 -19c-36 -9 -57 -18 -56 -31c1 -8 11 -10 24 -9zM63 148
c15 18 49 62 70 88c43 52 111 131 165 181c-109 3 -210 -16 -243 -78c-22 -38 -15 -91 25 -111c3 -2 9 -4 8 -6s-11 0 -15 2c-44 20 -64 75 -40 118c40 75 155 91 275 86c45 42 94 82 150 124c129 99 298 171 449 174c171 4 278 -77 270 -176c-11 -142 -200 -190 -395 -178
c-136 8 -320 37 -451 44c-39 -45 -117 -137 -183 -225c-16 -21 -70 -94 -91 -125l1 -1c29 30 64 57 94 77c20 13 59 32 88 29c22 -2 34 -15 31 -38c-4 -29 -27 -65 -67 -95c-41 -31 -82 -42 -115 -43c-22 0 -40 3 -40 20c1 19 27 28 65 38c28 7 59 15 77 23
c10 11 27 36 32 50c4 11 7 30 -10 30c-18 0 -51 -17 -87 -45c-44 -34 -73 -63 -111 -101c-8 -8 -18 -13 -29 -14c-20 -1 -19 5 -14 16c9 20 24 42 41 67c9 13 18 26 29 39h-1c-14 -12 -27 -24 -36 -32c-6 -5 -9 -6 -11 -4s0 5 5 10c16 14 41 37 64 56z" />
    <glyph glyph-name="b.alt8" unicode="&#xe0d3;" horiz-adv-x="298" 
d="M89 6c20 2 35 9 48 17c17 11 32 24 46 42c-12 -6 -46 -15 -62 -19c-36 -9 -57 -18 -56 -31c1 -8 11 -10 24 -9zM63 148c14 18 54 70 79 99c101 119 221 242 339 324c148 102 304 173 502 173c131 0 353 -50 343 -240c-7 -154 -188 -254 -369 -254c-90 0 -206 31 -222 123
c-16 90 71 152 133 165c18 3 33 3 33 -2c0 -3 -10 0 -31 -5c-63 -15 -127 -82 -113 -155c14 -81 115 -117 200 -117c179 0 332 94 340 245c9 177 -184 231 -315 231c-185 0 -338 -73 -481 -179c-101 -74 -248 -237 -305 -306c-38 -45 -117 -152 -139 -184l1 -1
c29 30 64 57 94 77c20 13 59 32 88 29c22 -2 34 -15 31 -38c-4 -29 -27 -65 -67 -95c-41 -31 -82 -42 -115 -43c-22 0 -40 3 -40 20c1 19 27 28 65 38c28 7 59 15 77 23c10 11 27 36 32 50c4 11 7 30 -10 30c-18 0 -51 -17 -87 -45c-44 -34 -73 -63 -111 -101
c-8 -8 -18 -13 -29 -14c-20 -1 -19 5 -14 16c9 20 24 42 41 67c9 13 18 26 29 39h-1c-14 -12 -27 -24 -36 -32c-6 -5 -9 -6 -11 -4s0 5 5 10c16 14 41 37 64 56z" />
    <glyph glyph-name="b.alt9" unicode="&#xe0d4;" horiz-adv-x="298" 
d="M854 355h1c186 0 394 63 397 182c2 59 -38 101 -97 126c2 -11 4 -24 4 -35c0 -31 -16 -48 -25 -56c-6 -5 -11 -7 -13 -5c-1 1 5 5 8 8c10 9 23 25 23 53c0 13 -2 26 -6 38c-55 20 -124 27 -202 25c-194 -4 -357 -85 -478 -175c49 -112 228 -161 388 -161zM458 540
c136 90 298 157 486 160c75 1 145 -6 200 -25c-37 89 -178 138 -315 138c-188 0 -379 -98 -375 -240c0 -12 2 -24 4 -33zM89 6c20 2 35 9 48 17c17 11 32 24 46 42c-12 -6 -46 -15 -62 -19c-36 -9 -57 -18 -56 -31c1 -8 11 -10 24 -9zM63 148c14 18 54 70 79 99
c43 51 119 137 209 212c31 26 64 51 99 75c-3 12 -5 25 -5 38c-3 150 193 259 383 259c168 0 296 -59 326 -159c66 -25 109 -69 107 -134c-3 -125 -214 -204 -408 -204c-164 0 -344 62 -395 176c-22 -16 -42 -33 -61 -49c-97 -84 -156 -154 -201 -211
c-36 -45 -117 -152 -139 -184l1 -1c29 30 64 57 94 77c20 13 58 32 88 29c22 -2 34 -15 31 -38c-4 -29 -27 -65 -67 -95c-41 -31 -82 -42 -115 -43c-22 0 -40 3 -40 20c1 19 27 28 65 38c28 7 59 15 77 23c10 11 27 36 32 50c4 11 7 30 -10 30c-18 0 -51 -17 -87 -45
c-44 -34 -73 -63 -111 -101c-8 -8 -18 -13 -29 -14c-20 -1 -19 5 -14 16c9 20 24 42 41 67c9 13 18 26 29 39h-1c-14 -12 -27 -24 -36 -32c-6 -5 -9 -6 -11 -4s0 5 5 10c16 14 41 37 64 56z" />
    <glyph glyph-name="b.alt10" unicode="&#xe0c9;" horiz-adv-x="298" 
d="M98 8c21 2 51 17 85 57c17 20 35 47 40 61c4 10 7 30 -10 30c-18 0 -51 -17 -87 -45c-22 -17 -40 -32 -58 -49c-10 -15 -13 -32 -3 -44c7 -8 18 -11 33 -10zM184 234c90 8 187 22 275 39c161 31 325 93 447 157c141 74 305 190 295 333c-6 82 -80 125 -154 125
c-190 0 -414 -172 -590 -352c-91 -93 -169 -176 -257 -282c-5 -6 -10 -13 -16 -20zM63 148c14 19 36 46 54 69c-171 -11 -391 2 -391 154c0 42 25 84 66 110c8 5 19 10 20 7s-5 -7 -10 -10c-42 -27 -56 -65 -56 -104c0 -126 178 -157 381 -145c8 12 16 21 20 26
c88 103 178 203 264 287c209 204 440 354 635 354c78 0 158 -45 164 -132c10 -151 -155 -267 -295 -341c-132 -70 -289 -127 -454 -159c-91 -18 -186 -32 -287 -42c-39 -50 -99 -130 -117 -156l1 -1c29 30 72 63 94 77c23 15 58 32 88 29c22 -2 34 -15 31 -38
c-4 -29 -33 -68 -62 -92c-40 -33 -86 -45 -112 -46c-19 -1 -39 5 -46 20c-3 8 -4 23 8 38c-14 -13 -28 -27 -44 -43c-8 -8 -18 -13 -29 -14c-20 -1 -19 5 -14 16c9 20 27 47 41 67c9 13 18 26 29 39h-1c-14 -12 -27 -24 -36 -32c-6 -5 -9 -6 -11 -4s0 5 5 10
c16 14 41 37 64 56z" />
    <glyph glyph-name="b.alt11" unicode="&#xe0ca;" horiz-adv-x="311" 
d="M-297 -47c-1 -3 -15 1 -21 3c-71 28 -104 107 -74 169c51 105 225 138 411 148c56 3 112 7 167 12c80 92 160 181 238 257c209 204 438 356 644 356c75 0 152 -42 159 -122c11 -130 -126 -228 -269 -303c-133 -70 -318 -126 -484 -157c-76 -14 -156 -26 -239 -36
c-7 -8 -15 -17 -22 -26c-45 -54 -112 -144 -134 -176l2 -3c28 27 54 47 84 67c23 15 58 32 88 29c22 -2 34 -15 31 -38c-4 -29 -30 -66 -62 -92c-40 -33 -86 -45 -112 -46c-19 -1 -39 5 -46 20c-3 8 -5 21 8 38c-14 -13 -28 -27 -44 -43c-8 -8 -18 -13 -29 -14
c-20 -1 -19 5 -14 16c9 20 36 62 52 84c28 38 96 127 123 159c5 6 11 13 16 19c-51 -5 -104 -9 -158 -12c-200 -11 -328 -50 -375 -136c-30 -54 -17 -136 48 -165c5 -2 13 -5 12 -8zM111 8c21 2 51 17 85 57c17 20 35 47 40 61c4 10 7 30 -10 30c-18 0 -51 -17 -87 -45
c-22 -17 -40 -32 -58 -49c-10 -15 -13 -32 -3 -44c7 -8 18 -11 33 -10zM245 291c77 9 153 20 227 34c164 31 355 91 477 155c142 74 280 165 269 295c-7 78 -79 115 -150 115c-202 0 -422 -174 -598 -354c-80 -82 -150 -156 -225 -245z" />
    <glyph glyph-name="b.alt12" unicode="&#xe0cb;" horiz-adv-x="298" 
d="M98 8c21 2 51 17 85 57c17 20 35 47 40 61c4 10 7 30 -10 30c-18 0 -51 -17 -87 -45c-22 -17 -40 -32 -58 -49c-10 -15 -13 -32 -3 -44c7 -8 18 -11 33 -10zM63 148c29 39 93 118 117 146c97 114 156 175 256 271c220 211 513 380 792 379c183 -1 394 -65 405 -262
c10 -173 -191 -335 -459 -343c-197 -6 -349 70 -349 195c0 150 196 259 386 259c99 0 227 -35 228 -131c0 -11 -4 -26 -8 -25c-3 1 1 3 1 22c-2 87 -119 115 -220 115c-188 0 -377 -103 -377 -239c0 -122 151 -179 343 -174c262 7 454 154 446 320c-9 186 -223 252 -394 252
c-278 0 -549 -174 -752 -376c-101 -100 -208 -217 -282 -307c-41 -50 -117 -152 -139 -184l1 -1c27 28 64 57 94 77c23 15 58 32 88 29c22 -2 34 -15 31 -38c-4 -29 -30 -66 -62 -92c-40 -33 -86 -45 -112 -46c-19 -1 -39 5 -46 20c-3 8 -5 21 8 38c-14 -13 -28 -27 -44 -43
c-8 -8 -18 -13 -29 -14c-20 -1 -19 5 -14 16c9 20 28 48 41 67c9 13 18 26 29 39h-1c-14 -12 -27 -24 -36 -32c-6 -5 -9 -6 -11 -4s0 5 5 10c16 14 41 37 64 56z" />
    <glyph glyph-name="b.alt13" unicode="&#xe0cc;" horiz-adv-x="295" 
d="M98 8c21 2 51 17 85 57c17 20 35 47 40 61c4 10 7 30 -10 30c-18 0 -51 -17 -87 -45c-22 -17 -40 -32 -58 -49c-10 -15 -13 -32 -3 -44c7 -8 18 -11 33 -10zM237 300c223 26 502 101 731 212c253 124 493 306 493 462c0 73 -60 106 -122 109c-115 6 -252 -46 -390 -127
c-147 -87 -289 -204 -385 -302c-114 -117 -214 -224 -327 -354zM63 148c13 17 76 98 108 136c-34 -3 -66 -4 -96 -4c-229 0 -601 65 -585 369c10 184 218 312 450 318c261 7 358 -109 358 -219c0 -118 -129 -213 -269 -220c-13 -1 -32 0 -32 5c0 3 12 1 30 2
c136 6 262 101 262 212c0 104 -93 216 -350 210c-238 -6 -414 -139 -422 -306c-14 -298 336 -362 558 -362c32 0 68 2 104 5c124 144 234 261 341 365c116 112 268 230 421 314c140 77 281 127 396 120c72 -4 136 -39 136 -120c0 -167 -244 -345 -500 -473
c-238 -115 -518 -188 -745 -211c-55 -66 -139 -176 -171 -223l1 -1c26 27 64 57 94 77c23 15 59 32 88 29c22 -2 34 -15 31 -38c-4 -29 -30 -66 -62 -92c-40 -33 -86 -45 -112 -46c-19 -1 -39 5 -46 20c-3 8 -5 21 8 38c-14 -13 -28 -27 -44 -43c-8 -8 -18 -13 -29 -14
c-20 -1 -19 5 -14 16c9 20 27 47 41 67c9 13 18 26 29 39h-1c-14 -12 -27 -24 -36 -32c-6 -5 -9 -6 -11 -4s0 5 5 10c16 14 41 37 64 56z" />
    <glyph glyph-name="b.begin" unicode="&#xe0d5;" horiz-adv-x="311" 
d="M102 6c20 2 35 9 48 17c17 11 32 24 46 42c-12 -6 -46 -15 -62 -19c-36 -9 -57 -18 -56 -31c1 -8 11 -10 24 -9zM224 266c-70 -84 -126 -158 -154 -200l1 -1c29 30 64 57 94 77c20 13 59 32 88 29c22 -2 34 -15 31 -38c-4 -29 -27 -65 -67 -95c-41 -31 -82 -42 -115 -43
c-22 0 -40 3 -40 20c1 19 27 28 65 38c28 7 59 15 77 23c10 11 27 36 32 50c4 11 7 30 -10 30c-18 0 -51 -17 -87 -45c-44 -34 -73 -63 -111 -101c-8 -8 -18 -13 -29 -14c-20 -1 -19 5 -14 16c7 16 26 46 41 67c13 18 35 48 58 77c44 56 75 92 118 142c41 47 92 97 128 124
c18 13 35 17 48 17c10 0 15 -4 15 -7c-33 -17 -115 -101 -169 -166z" />
    <glyph glyph-name="b.end" unicode="&#xe0d6;" horiz-adv-x="297" 
d="M89 6c20 2 35 9 48 17c17 11 32 24 46 42c-12 -6 -46 -15 -62 -19c-36 -9 -57 -18 -56 -31c1 -8 11 -10 24 -9zM-1 92c22 20 52 46 70 61c26 33 73 91 120 145c41 47 92 97 128 124c18 13 35 17 48 17c10 0 15 -4 15 -7c-33 -17 -115 -101 -169 -166
c-70 -83 -126 -158 -154 -200l1 -1c29 30 62 56 94 77c24 16 60 32 88 29c22 -2 34 -15 31 -38c-2 -15 -8 -30 -19 -46c20 7 76 32 105 52c4 3 8 5 10 1c1 -3 -2 -6 -9 -11c-23 -17 -87 -45 -115 -54c-11 -13 -25 -26 -39 -37c-41 -31 -82 -42 -115 -43c-22 0 -40 3 -40 20
c1 19 27 28 65 38c31 8 59 15 77 23c10 11 27 36 32 50c4 11 7 30 -10 30c-18 0 -51 -17 -87 -45c-44 -34 -73 -63 -111 -101c-8 -8 -18 -13 -29 -14c-20 -1 -19 5 -14 16c9 20 29 50 41 67c9 13 18 26 29 39h-1c-14 -12 -27 -24 -36 -32c-6 -5 -9 -6 -11 -4s0 5 5 10z" />
    <glyph glyph-name="c.begin" unicode="&#xe0f5;" horiz-adv-x="214" 
d="M155 161c-11 2 -34 -13 -62 -42c-27 -27 -53 -65 -56 -89c-2 -15 7 -23 23 -23c13 0 48 6 92 36c19 13 44 34 60 48c6 5 9 6 11 4c2 -3 -1 -7 -8 -13c-13 -12 -41 -36 -59 -48c-35 -24 -82 -43 -116 -43c-38 0 -56 15 -54 42c2 31 29 66 53 85c30 26 91 59 128 53
c23 -4 31 -19 27 -38s-21 -34 -34 -34c-17 0 -17 14 -8 29c11 19 15 31 3 33z" />
    <glyph glyph-name="c.end1" unicode="&#xe0f6;" horiz-adv-x="323" 
d="M155 161c-11 2 -34 -13 -62 -42c-33 -34 -54 -71 -55 -96c-1 -19 6 -42 44 -42c40 0 84 17 114 33c37 20 90 63 114 95c23 30 50 75 50 120c0 21 -5 24 -2 26s9 -8 9 -26c0 -57 -23 -99 -46 -128c-27 -35 -77 -72 -122 -96c-32 -17 -76 -34 -124 -36
c-64 -2 -91 20 -89 64c1 20 13 41 29 60l-1 1c-3 -3 -11 -10 -17 -15s-11 -8 -13 -6c-2 3 2 7 6 11c13 12 22 19 37 30c11 8 31 21 48 30c34 18 66 31 92 27c23 -4 31 -19 27 -38s-21 -34 -34 -34c-17 0 -17 14 -8 29c11 19 15 31 3 33z" />
    <glyph glyph-name="c.end2" unicode="&#xe0f7;" horiz-adv-x="325" 
d="M155 161c-11 2 -34 -13 -62 -42c-27 -27 -52 -65 -52 -89c0 -19 11 -30 30 -30c20 0 49 6 91 23c45 18 72 34 102 34c23 0 39 -12 40 -33s-18 -35 -22 -38c-1 -1 -4 -3 -5 -2s0 3 1 4c2 3 7 11 7 20c0 24 -17 32 -35 32s-44 -8 -83 -24c-47 -20 -83 -28 -113 -28h-1
c-43 0 -63 18 -63 45c0 20 9 41 25 60l-1 1c-3 -3 -11 -10 -17 -15s-11 -8 -13 -6c-2 3 2 7 6 11c13 12 22 19 37 30c11 8 31 21 48 30c34 18 66 31 92 27c23 -4 31 -19 27 -38s-21 -34 -34 -34c-17 0 -17 14 -8 29c11 19 15 31 3 33z" />
    <glyph glyph-name="c.end3" unicode="&#xe0f8;" horiz-adv-x="413" 
d="M212 12c31 11 63 24 91 38c67 34 151 95 161 146c5 25 -11 36 -28 37c-39 2 -82 -25 -115 -52c-48 -39 -95 -105 -109 -169zM155 161c-11 2 -34 -13 -62 -42c-29 -29 -52 -59 -52 -89c0 -21 10 -42 59 -41c30 1 66 9 103 20c11 67 60 138 113 180c35 28 80 55 122 52
c24 -2 41 -18 36 -47c-9 -52 -95 -115 -169 -152c-29 -15 -62 -29 -95 -39c-3 -17 -4 -34 -1 -50c2 -11 4 -16 1 -17s-6 8 -8 19c-3 14 -3 30 -1 45c-37 -11 -73 -19 -105 -20c-75 -2 -103 16 -106 53c-1 20 9 41 25 60l-1 1c-3 -3 -11 -10 -17 -15s-11 -8 -13 -6
c-2 3 2 7 6 11c13 12 22 19 37 30c11 8 31 21 48 30c34 18 66 31 92 27c23 -4 31 -19 27 -38s-21 -34 -34 -34c-17 0 -17 14 -8 29c11 19 15 31 3 33z" />
    <glyph glyph-name="c.end4" unicode="&#xe0f9;" horiz-adv-x="443" 
d="M170 -24c84 8 163 47 200 70c52 34 96 84 101 132c3 25 -10 46 -40 46c-65 0 -127 -56 -173 -107c-17 -19 -57 -72 -88 -141zM155 161c-11 2 -36 -11 -64 -39c-29 -29 -49 -62 -50 -92c-1 -24 11 -39 26 -46c19 -9 50 -13 93 -9c31 74 74 129 92 148
c48 53 116 111 188 111c35 0 58 -24 55 -56c-5 -56 -64 -105 -117 -139c-40 -25 -126 -64 -211 -72c-20 -45 -33 -94 -32 -146c0 -7 -1 -9 -3 -9h-1c-1 0 -3 3 -3 10c-1 53 12 100 29 144c-50 -5 -91 -4 -122 5c-27 8 -47 25 -45 62c1 20 12 44 25 60l-1 1
c-3 -3 -11 -10 -17 -15s-11 -8 -13 -6c-2 3 2 7 6 11c13 12 22 19 37 30c11 8 31 21 48 30c34 18 66 31 92 27c23 -4 31 -19 27 -38s-21 -34 -34 -34c-17 0 -17 14 -8 29c11 19 15 31 3 33z" />
    <glyph glyph-name="c.end5" unicode="&#xe0fa;" horiz-adv-x="293" 
d="M155 161c-11 2 -34 -13 -62 -42c-29 -29 -52 -59 -52 -89c0 -21 10 -32 43 -31c40 1 102 27 131 45c65 41 83 77 85 100c1 11 0 19 -4 26c5 3 10 4 14 4c14 0 19 -15 18 -25c-2 -31 -34 -69 -111 -114c-27 -16 -89 -46 -144 -48c-53 -2 -83 11 -83 47c0 20 9 40 25 59
l-1 1c-3 -3 -11 -10 -17 -15s-11 -8 -13 -6c-2 3 2 7 6 11c13 12 22 19 37 30c11 8 31 21 48 30c34 18 66 31 92 27c23 -4 31 -19 27 -38s-21 -34 -34 -34c-17 0 -17 14 -8 29c11 19 15 31 3 33z" />
    <glyph glyph-name="c.end6" unicode="&#xe0fb;" horiz-adv-x="353" 
d="M155 161c-11 2 -34 -13 -62 -42c-33 -34 -54 -69 -56 -93c-2 -26 14 -44 55 -44c49 0 99 18 129 34c37 20 82 55 104 89c20 31 36 72 36 121c0 91 -58 126 -123 126c-17 0 -31 -3 -42 -8c-5 -2 -10 -5 -11 -3c-1 1 2 4 7 7c8 5 28 12 47 13c78 3 155 -35 155 -134
c0 -54 -30 -100 -52 -129c-28 -37 -69 -67 -118 -93c-28 -15 -83 -34 -135 -36c-64 -2 -105 12 -103 64c1 20 13 41 29 60l-1 1c-3 -3 -11 -10 -17 -15s-11 -8 -13 -6c-2 3 2 7 6 11c13 12 22 19 37 30c11 8 31 21 48 30c34 18 66 31 92 27c23 -4 31 -19 27 -38
s-21 -34 -34 -34c-17 0 -17 14 -8 29c11 19 15 31 3 33z" />
    </font>
</defs>
</svg>
