<?xml version="1.0" standalone="no"?>
<!DOCTYPE svg PUBLIC "-//W3C//DTD SVG 1.1//EN" "http://www.w3.org/Graphics/SVG/1.1/DTD/svg11.dtd" >
<svg>
<metadata>
Created by FontForge 20110222 at Fri May 29 22:00:11 2015
 By www-data
Copyright 1997, 1998, 1999, 2003 , 2004Adobe Systems Incorporated. All Rights Reserved. Bickham Script is a trademark of Adobe Systems Incorporated in the United States and/or other countries.
</metadata>
<defs>
<font id="BickhamScriptPro-Semibold" horiz-adv-x="198" >
  <font-face 
    font-family="Bickham Script Pro"
    font-weight="600"
    font-style="italic"
    font-stretch="normal"
    units-per-em="1000"
    panose-1="3 3 6 2 4 7 7 13 13 6"
    ascent="680"
    descent="-320"
    x-height="173"
    cap-height="432"
    bbox="-2218.38 -1073 3499.27 1275"
    underline-thickness="30"
    underline-position="-90"
    slope="-39"
    stemh="15"
    stemv="64"
    unicode-range="U+0020-FB06"
  />
<missing-glyph horiz-adv-x="500" 
d="M0 0v700h500v-700h-500zM250 395l170 255h-340zM280 350l170 -255v510zM80 50h340l-170 255zM50 605v-510l170 255z" />
    <glyph glyph-name="O_n" unicode="On" horiz-adv-x="838" 
d="M385 143c43 54 77 105 82 154c3 26 -11 45 -37 48c-46 5 -98 -27 -146 -87c-48 -61 -61 -133 5 -148c19 -4 49 -1 75 9c4 4 12 13 21 24zM756 83c-15 -19 -25 -32 -31 -41c-7 -12 -8 -19 -3 -23c5 -3 16 0 25 5c14 7 29 16 43 28c15 12 39 33 50 42c6 6 9 8 12 5
c2 -2 0 -5 -5 -10c-11 -11 -43 -40 -64 -55c-21 -16 -60 -41 -95 -41c-38 -1 -46 18 -43 36c2 18 16 36 36 61c15 17 30 35 41 49c4 5 5 11 -1 13c-6 3 -17 -1 -29 -7c-19 -10 -46 -27 -74 -48c-46 -34 -72 -55 -114 -89c-11 -9 -21 -11 -42 -12c-26 -1 -31 2 -25 16
c10 19 28 45 46 67c16 22 28 36 42 54c5 7 8 14 5 17c-6 6 -27 2 -55 -8c-20 -7 -37 -15 -55 -22c-69 -78 -188 -138 -275 -135c-46 1 -109 17 -124 82c-16 82 45 172 97 221c95 90 227 136 332 126c55 -6 90 -34 93 -79c2 -21 -5 -42 -17 -55c-5 -6 -12 -10 -14 -8
c-1 2 2 3 8 12c9 12 14 31 12 50c-3 37 -36 67 -82 67c-99 3 -210 -82 -265 -141c-58 -61 -107 -153 -93 -216c6 -31 28 -49 65 -50c59 -2 122 31 198 114c-20 -6 -48 -10 -68 -6c-73 14 -76 100 -19 172c43 53 111 85 164 80c37 -4 62 -31 57 -82c-3 -38 -17 -87 -59 -139
c17 8 33 15 49 21c33 12 65 21 86 20c28 0 36 -12 36 -25c0 -14 -12 -31 -22 -44c-15 -20 -32 -41 -46 -59l2 -1c20 17 57 46 94 73c34 25 82 56 125 56c27 0 41 -11 39 -30c-2 -18 -21 -41 -37 -61z" />
    <glyph glyph-name="O_r" unicode="Or" horiz-adv-x="679" 
d="M353 109c48 59 109 139 114 188c3 26 -11 45 -37 48c-46 5 -108 -40 -156 -100c-58 -72 -91 -171 -30 -190c19 -5 41 -4 65 4c9 9 36 39 44 50zM631 52c22 18 36 30 48 41c4 4 11 9 14 7c3 -3 -4 -9 -10 -15c-12 -13 -35 -33 -59 -51c-21 -16 -53 -40 -92 -41
c-39 -2 -51 14 -50 30c0 22 20 46 45 68c27 23 62 50 65 57c4 11 -16 10 -39 8c-10 -1 -18 0 -24 2c-8 -9 -35 -28 -62 -46c-23 -15 -76 -44 -110 -55c-63 -48 -136 -78 -212 -75c-50 1 -109 19 -123 85c-16 82 44 172 96 221c95 90 227 136 332 126c55 -6 90 -34 93 -79
c2 -21 -5 -42 -17 -55c-5 -6 -12 -10 -14 -8c-1 2 2 3 8 12c9 12 14 31 12 50c-3 37 -41 67 -86 67c-93 3 -199 -75 -261 -141c-58 -61 -105 -152 -93 -216c6 -31 28 -52 65 -53c59 -2 110 31 142 57c-17 -4 -37 -6 -59 -1c-70 18 -65 120 11 211c49 57 128 101 181 96
c37 -4 64 -31 59 -82c-3 -38 -24 -94 -71 -150c-18 -22 -39 -43 -52 -53c31 13 75 38 97 52c28 18 49 34 56 41c-9 6 -11 21 1 34c8 10 25 18 42 18c14 0 24 -4 28 -10c-7 -5 -13 -10 -19 -16c-13 -16 -10 -22 3 -23c26 -2 62 -2 63 -20c0 -14 -12 -24 -39 -58
c-13 -16 -26 -33 -34 -47c-6 -9 -6 -16 -2 -20s13 -2 22 3c13 6 28 16 45 29z" />
    <glyph glyph-name="d_d" unicode="dd" horiz-adv-x="673" 
d="M196 163h-1c-19 0 -56 -29 -93 -65c-38 -38 -57 -66 -55 -79c1 -7 6 -10 13 -10c19 0 57 22 84 47c31 28 69 73 70 89c1 13 -7 18 -18 18zM534 163h-1c-19 0 -57 -29 -93 -65c-39 -38 -57 -66 -56 -79c1 -7 6 -10 13 -10c19 0 57 22 84 47c32 28 70 73 71 89
c1 13 -7 18 -18 18zM522 -9c-23 0 -36 9 -39 24c-3 12 3 26 10 35l-1 1c-27 -24 -75 -60 -121 -60c-32 -1 -55 9 -54 39c0 17 10 35 28 56l-1 2c-2 -2 -6 -5 -9 -8c-12 -10 -34 -30 -55 -47c-35 -26 -63 -42 -95 -42c-24 0 -37 9 -40 24c-2 12 4 26 11 35l-1 1
c-28 -24 -76 -60 -122 -60h-1h1c-32 -1 -55 9 -54 39c1 16 13 38 31 57l-1 1c-1 -1 -7 -6 -11 -9c-6 -6 -11 -8 -13 -6c-2 3 2 8 10 15c7 8 26 22 35 28c18 13 36 23 63 35c30 14 65 25 98 23c28 -1 36 -19 31 -35l1 -1c31 44 69 89 98 122c39 43 93 96 131 117
c15 9 34 15 54 15c18 0 28 -6 31 -10c-31 -7 -66 -37 -146 -126c-19 -21 -52 -60 -85 -101s-74 -96 -85 -115c-5 -8 -5 -16 -2 -19c6 -5 18 -2 27 3c10 4 26 16 41 28c20 16 35 28 43 35s25 20 36 28c19 13 38 24 65 36c30 14 64 25 98 23c28 -1 35 -19 31 -35l1 -1
c33 47 76 100 127 159c38 42 89 93 130 118c16 10 37 18 55 18c19 0 28 -6 31 -10c-32 -9 -89 -65 -143 -125c-30 -34 -66 -80 -117 -143c-33 -41 -73 -94 -86 -115c-5 -8 -5 -17 -1 -20c5 -3 16 -1 25 3c10 4 27 16 43 29c21 17 37 31 48 42c4 3 11 9 14 6s-3 -9 -9 -15
c-13 -12 -41 -37 -60 -52c-36 -27 -63 -42 -96 -42z" />
    <glyph glyph-name="f_b" unicode="fb" horiz-adv-x="543" 
d="M-207 -385c6 -2 14 1 25 10c26 21 94 110 139 182c85 135 113 206 136 271h-1c-63 -82 -149 -198 -202 -279c-34 -51 -81 -122 -97 -159c-5 -13 -5 -22 0 -25zM124 118c39 29 130 57 167 67c36 45 69 81 97 112c55 60 133 123 189 161c-11 14 -28 27 -65 27
c-48 0 -92 -27 -147 -80c-52 -50 -165 -186 -241 -287zM374 196c36 11 114 34 181 56c54 18 144 56 189 83c52 31 95 69 96 113c1 42 -27 68 -80 65c-54 -3 -115 -37 -159 -71c5 -12 6 -29 3 -45c-2 -9 -6 -19 -7 -18c-2 0 1 4 1 17c0 15 -3 29 -8 39
c-23 -20 -57 -52 -85 -83c-36 -41 -76 -86 -131 -156zM311 6c19 2 35 9 48 17c17 11 32 24 46 42c-12 -6 -46 -14 -62 -19c-36 -10 -54 -18 -53 -31c1 -8 10 -10 21 -9zM56 129l-1 1c-10 -9 -36 -32 -46 -41c-8 -7 -12 -10 -15 -8c-2 3 -1 6 6 12c20 18 58 50 79 67
c45 60 119 152 191 216c88 79 177 118 243 118c42 0 66 -16 75 -29c46 27 110 54 171 57s92 -27 91 -74c-1 -50 -43 -90 -98 -123c-46 -28 -133 -61 -192 -81c-70 -24 -157 -48 -195 -60c-28 -36 -59 -79 -80 -109l2 -1c23 21 57 49 87 68c21 14 59 33 97 32
c34 0 48 -17 46 -40c-3 -31 -26 -65 -64 -94c-40 -31 -95 -47 -135 -47h-1c-28 0 -46 5 -46 22c0 19 24 27 63 38c28 8 61 15 79 23c9 11 26 35 31 50c4 11 8 30 -9 30c-18 0 -51 -17 -87 -45c-44 -34 -72 -59 -112 -101c-8 -9 -23 -12 -39 -13c-28 -2 -37 1 -29 15
c10 19 26 43 43 68c14 22 47 64 71 93c-26 -8 -123 -36 -174 -76c-19 -64 -46 -152 -139 -300c-35 -55 -116 -161 -156 -189c-15 -11 -35 -17 -52 -13c-14 3 -28 15 -26 40c5 47 67 158 146 266c41 57 146 192 175 228z" />
    <glyph glyph-name="f_f_r" unicode="ffr" horiz-adv-x="647" 
d="M364 165c14 0 55 1 77 2c24 1 37 4 48 4c18 0 22 -13 21 -23c-2 -12 -11 -27 -21 -42c-15 -20 -26 -33 -34 -44l2 -2c12 12 40 40 63 60c26 23 64 55 98 56c28 0 44 -12 40 -35c-6 -30 -69 -64 -89 -48c-10 9 9 23 24 46c4 6 3 11 -1 13c-5 3 -13 -1 -22 -6
c-13 -9 -34 -25 -60 -48c-28 -25 -59 -55 -98 -93c-6 -6 -23 -8 -40 -9c-26 -1 -31 1 -24 16c7 16 26 44 43 67c16 21 26 34 40 52c4 6 8 13 6 19c-1 5 -10 6 -21 6c-17 0 -44 0 -60 -1c-25 -32 -51 -64 -72 -91c-41 -107 -73 -190 -142 -304c-33 -55 -83 -118 -124 -149
c-16 -12 -40 -19 -56 -15c-14 3 -29 14 -25 43c7 50 74 165 145 262c30 41 74 100 106 141c26 34 57 72 89 112c-39 -1 -78 -1 -102 -2c-23 -29 -44 -57 -64 -83c-44 -57 -82 -111 -118 -161c-23 -32 -58 -83 -100 -153c-25 -42 -57 -102 -72 -140c-7 -17 -7 -26 -13 -26
c-15 -1 -18 35 -15 56c6 54 52 158 116 256c16 25 55 79 99 136c12 41 5 64 14 87c10 26 24 37 80 41c46 60 123 152 190 217c72 70 162 112 223 112c36 0 63 -9 75 -22c65 42 156 82 225 82c90 0 122 -53 114 -108c-2 -12 -6 -22 -9 -21c-2 1 2 8 3 21c3 43 -44 87 -119 87
c-84 0 -137 -26 -198 -84c5 -11 7 -30 5 -45c-1 -6 -5 -17 -7 -17c-1 0 1 5 0 16c0 13 -4 27 -9 36c-6 -5 -13 -13 -20 -19c-40 -41 -102 -118 -176 -211c-8 -11 -27 -34 -35 -44zM21 56c21 29 45 61 72 96c-30 -2 -50 -7 -60 -32c-8 -20 -4 -34 -12 -64zM-6 -384
c6 -3 13 0 25 9c26 20 65 73 109 144c65 105 105 193 141 276c-64 -82 -124 -164 -179 -246c-33 -50 -80 -122 -96 -159c-5 -12 -5 -22 0 -24zM183 163c25 1 64 1 102 2c14 17 34 41 54 64c76 93 143 158 212 213c7 6 20 16 26 20c-11 12 -31 22 -55 22
c-48 0 -82 -26 -137 -79c-41 -40 -126 -144 -202 -242z" />
    <glyph glyph-name="f_h" unicode="fh" horiz-adv-x="564" 
d="M-207 -385c6 -2 14 1 25 10c26 21 94 110 139 182c85 135 113 206 136 271h-1c-63 -82 -149 -198 -202 -279c-34 -51 -81 -122 -97 -159c-5 -13 -5 -22 0 -25zM124 118c39 29 130 57 167 67c36 45 69 81 97 112c55 60 133 123 189 161c-11 14 -28 27 -65 27
c-48 0 -92 -27 -147 -80c-52 -50 -166 -187 -241 -287zM374 196c36 11 114 34 181 56c54 18 144 56 189 83c52 31 95 69 96 113c1 42 -27 68 -80 65c-54 -3 -115 -37 -159 -71c5 -13 5 -29 2 -45c-1 -6 -4 -18 -6 -18c-1 0 1 5 1 16c0 16 -3 30 -8 40
c-23 -20 -57 -52 -85 -83c-36 -41 -76 -86 -131 -156zM82 164c45 60 115 147 187 212c89 79 178 118 244 118c42 0 66 -16 75 -29c46 27 110 54 171 57s92 -27 91 -74c-1 -50 -43 -90 -98 -123c-46 -28 -131 -61 -190 -81c-70 -24 -159 -48 -197 -60
c-29 -37 -79 -106 -100 -138l2 -1c20 17 53 45 88 72c31 23 81 57 125 57c26 0 40 -11 39 -30c-2 -17 -22 -41 -38 -61c-15 -19 -25 -32 -31 -41c-7 -12 -8 -19 -2 -23c5 -3 16 0 24 5c14 7 30 18 44 28c15 12 39 33 49 42c7 6 10 8 12 5c2 -2 1 -5 -4 -10
c-11 -11 -44 -40 -64 -55c-22 -16 -61 -41 -96 -41c-37 -1 -45 18 -43 36s16 36 37 61c13 17 29 35 40 49c4 5 5 11 -1 13c-5 3 -17 -1 -29 -7c-19 -10 -45 -27 -72 -49c-44 -35 -69 -57 -111 -91c-9 -7 -29 -9 -40 -9c-16 -1 -33 2 -27 16s26 45 42 67s43 58 72 94
c-26 -8 -122 -36 -173 -76c-16 -54 -46 -152 -139 -300c-35 -55 -116 -161 -156 -189c-15 -11 -35 -17 -52 -13c-13 3 -28 15 -26 40c5 47 67 158 146 266c41 57 146 192 175 228l-1 1c-10 -9 -36 -32 -46 -41c-8 -7 -12 -10 -15 -8c-2 3 -1 6 6 12c20 18 60 53 82 71z" />
    <glyph glyph-name="f_j" unicode="fj" horiz-adv-x="355" 
d="M-629 -494c-182 -5 -254 76 -254 173c0 45 25 93 59 122c8 7 18 12 19 10c2 -3 -6 -5 -16 -17c-23 -27 -39 -68 -39 -113c0 -89 67 -172 231 -166c96 3 185 38 274 107c-8 12 -16 38 -7 67c0 -25 7 -46 17 -60c77 61 161 159 253 278c25 31 57 73 100 130
c12 41 5 64 14 87c10 26 27 37 80 40c18 23 46 59 69 87c61 76 116 131 185 188c85 68 182 107 260 109c101 2 148 -44 148 -96c0 -31 -21 -58 -39 -72c-7 -6 -13 -8 -14 -7c-1 2 2 4 8 10c14 15 23 38 23 63c0 50 -35 96 -126 93c-67 -2 -133 -40 -211 -114
c-54 -52 -98 -105 -149 -169c-34 -42 -48 -61 -72 -91c38 1 69 2 93 2c17 0 64 1 78 3s18 -9 7 -16c-27 -17 -46 -43 -63 -66c-16 -21 -61 -89 -131 -186c-49 -68 -115 -150 -178 -213c-79 -80 -170 -115 -244 -115c-26 0 -61 7 -81 24c-87 -54 -191 -89 -294 -92z
M-253 -417h1c54 0 113 37 180 111c73 80 168 215 226 297c46 65 85 119 103 139c13 14 23 21 32 25v1c-43 0 -81 0 -113 -2c-15 -20 -35 -46 -65 -85c-44 -58 -85 -114 -124 -165c-100 -131 -205 -233 -310 -299c16 -15 51 -22 70 -22zM21 54c21 28 45 62 72 98
c-30 -2 -51 -7 -60 -32c-8 -20 -4 -36 -12 -66zM366 240c-5 8 -7 29 -1 44c9 20 27 24 50 24c20 0 27 -14 13 -33c-16 -20 -48 -35 -62 -35z" />
    <glyph glyph-name="r_s" unicode="rs" horiz-adv-x="582" 
d="M360 2h1c20 0 43 16 64 51c21 33 36 91 47 106v1c-9 -9 -32 -26 -48 -36c-17 -11 -44 -27 -58 -33c2 -3 3 -8 3 -11c-1 -9 -6 -16 -17 -25c-8 -6 -19 -18 -19 -30c0 -16 13 -23 27 -23zM461 6c-24 -8 -65 -15 -96 -15c-54 0 -75 30 -74 59c1 11 4 21 10 28
c-18 -2 -38 -1 -51 5c-21 9 -30 26 -28 49c-11 -5 -35 -23 -47 -33c-30 -26 -63 -53 -102 -91c-10 -9 -25 -11 -42 -12c-26 -1 -31 2 -24 16c10 19 28 45 45 67c15 20 29 38 42 54c5 7 7 12 3 15c-3 3 -8 1 -15 -3c-10 -5 -24 -16 -37 -26c-14 -11 -29 -24 -44 -38
c-9 -8 -14 -11 -17 -8c-1 2 1 6 10 14c13 13 34 32 52 45c21 16 57 42 88 42c27 0 36 -11 36 -25v-1c0 -14 -12 -31 -22 -43c-10 -14 -24 -31 -33 -42l2 -2c11 11 39 36 67 59c16 13 34 27 51 37c12 8 24 13 30 14c12 3 25 3 33 1c11 -3 16 -12 5 -18
c-29 -16 -38 -28 -39 -37c-2 -10 -1 -22 13 -28c8 -4 21 -4 31 -2c8 8 20 14 33 15c8 0 14 -1 19 -5c16 8 42 23 59 35c22 15 44 32 61 47c2 4 9 14 16 22c9 8 20 12 29 12c23 0 24 -12 1 -27c-9 -6 -17 -9 -24 -15c-8 -8 -5 -19 -1 -29c11 -26 15 -54 3 -82
c-6 -16 -17 -30 -28 -38c11 4 26 11 42 21c28 18 52 40 65 51c5 4 10 9 13 6c2 -2 1 -6 -6 -12c-12 -11 -35 -31 -59 -48s-46 -26 -70 -34z" />
    <glyph glyph-name="r_s_t" unicode="rst" horiz-adv-x="685" 
d="M481 -15h-1c-8 0 -12 0 0 23c14 26 45 73 68 109c3 17 3 26 7 36s14 17 34 17c19 26 80 96 114 131c-18 -7 -39 -9 -58 -9c-70 0 -126 25 -174 27c-60 2 -89 -23 -95 -58s12 -56 25 -65c6 -4 7 -6 6 -8s-4 -1 -10 2c-21 11 -52 31 -48 71c5 41 42 77 122 73
c59 -3 122 -33 177 -33c20 0 44 2 65 11l8 8c22 21 50 43 70 48c16 5 37 3 42 -3c-14 -32 -47 -56 -65 -68c-23 -26 -89 -103 -109 -129c23 1 72 2 88 2c10 0 15 -2 14 -6c-2 -5 -7 -5 -18 -5c-22 0 -69 -1 -92 -2c-8 -9 -44 -62 -61 -85c-14 -35 -43 -59 -64 -72
c-12 -7 -35 -15 -45 -15zM148 105c-10 -14 -24 -31 -33 -42l2 -2c11 11 39 36 67 59c16 13 35 26 48 35c5 9 18 20 31 21c18 3 36 -1 41 -6c4 -4 3 -11 -10 -20c-8 -6 -18 -14 -18 -23c-1 -16 18 -25 44 -23c17 2 43 10 63 22c18 11 37 29 47 39c2 4 9 14 15 19
c9 8 19 12 30 13c24 1 22 -14 9 -22c-9 -6 -25 -14 -30 -19c-8 -8 -3 -15 0 -26c8 -26 7 -52 -4 -73c-12 -24 -40 -42 -61 -52c-23 -11 -58 -19 -92 -19c-54 0 -66 27 -63 49c3 28 26 46 51 46c16 0 26 -10 26 -22s-6 -22 -20 -29c-19 -9 -27 -12 -27 -20c0 -7 8 -14 24 -14
c23 0 55 24 83 63c20 28 37 67 51 84l-2 1c-10 -10 -23 -20 -35 -27c-22 -13 -48 -21 -69 -23c-32 -2 -63 3 -74 16c-8 8 -12 19 -12 30c-11 -7 -42 -30 -55 -41c-30 -26 -63 -53 -102 -91c-10 -9 -25 -11 -42 -12c-26 -1 -31 2 -24 16c10 19 27 44 45 67c15 20 29 38 42 54
c5 7 7 12 3 15c-3 3 -9 1 -15 -3c-10 -5 -24 -16 -37 -26c-14 -11 -29 -24 -44 -38c-9 -8 -14 -11 -17 -8c-1 2 1 6 10 14c13 13 34 32 52 45c21 16 57 42 88 42c27 0 36 -11 36 -25s-11 -30 -22 -44z" />
    <glyph glyph-name="s_f_e" unicode="sfe" horiz-adv-x="684" 
d="M48 -385c6 -2 14 1 25 10c26 21 94 110 139 182c85 135 113 206 136 271h-1c-63 -82 -149 -198 -202 -279c-34 -51 -81 -122 -97 -159c-5 -13 -5 -22 0 -25zM146 21c12 5 28 13 44 23c28 17 53 38 66 49c21 19 50 43 77 65c2 2 3 4 5 7c-8 8 -12 24 -10 31
c3 10 12 15 21 12c4 -1 6 -11 7 -20c44 55 94 120 119 151c-47 -4 -139 -15 -171 -22c-109 -24 -147 -61 -151 -87c-1 -13 1 -21 5 -27c2 -3 5 -5 5 -6l5 5c8 8 19 11 28 11c23 0 23 -12 1 -27c-9 -6 -19 -10 -24 -15c-8 -8 -6 -19 -1 -29c11 -26 14 -54 3 -82
c-7 -16 -18 -30 -29 -39zM561 353c48 11 114 34 178 73c64 41 101 92 104 125c1 17 -7 29 -28 29c-25 0 -59 -15 -114 -68c-31 -29 -100 -109 -140 -159zM444 82c-12 4 -23 10 -31 16c-10 8 -19 18 -24 30c-13 -17 -25 -32 -25 -32c-15 -53 -45 -149 -139 -299
c-35 -55 -116 -161 -156 -189c-15 -11 -35 -17 -52 -13c-14 3 -28 15 -26 40c4 47 67 157 146 266c41 57 145 191 174 227l-1 1c-19 -16 -37 -32 -48 -42c-6 -6 -33 -29 -55 -44s-49 -29 -73 -37s-63 -15 -94 -15c-53 0 -80 30 -78 59c2 33 27 53 49 52c20 0 29 -10 29 -22
c-1 -9 -6 -16 -18 -25c-9 -7 -18 -17 -18 -30c0 -16 13 -23 27 -23c21 0 44 16 65 51c21 33 36 91 47 106l-1 1c-8 -9 -31 -27 -45 -37c-15 -11 -36 -25 -45 -30c-4 -2 -9 -5 -11 -2s1 6 6 9c13 8 28 19 44 31c22 16 43 33 60 48c2 4 6 11 9 15c-1 0 -6 3 -10 7
c-8 7 -14 19 -14 35c0 40 33 77 135 93c67 10 154 15 211 20c31 39 72 86 108 120c90 85 178 120 228 120c31 0 47 -21 45 -44c-3 -37 -37 -82 -120 -131c-62 -37 -140 -60 -189 -72c-44 -55 -88 -112 -142 -183c-5 -6 -11 -14 -16 -21c5 -13 13 -24 24 -33
c8 -6 18 -12 30 -16c11 15 38 39 68 55c35 18 75 31 110 31c32 0 45 -14 44 -30c-2 -27 -31 -46 -62 -58s-73 -20 -97 -21c-8 -11 -12 -27 -12 -35c0 -14 9 -22 24 -22c24 0 62 12 100 37c19 13 45 34 58 46c8 7 11 7 13 5s-1 -7 -10 -15c-13 -12 -37 -33 -59 -47
c-42 -27 -90 -43 -126 -44c-56 -2 -75 18 -75 43c0 14 8 35 18 48zM519 76c14 0 44 4 69 21c28 19 36 38 38 51c2 8 -2 15 -11 15c-10 0 -29 -9 -55 -37c-21 -22 -34 -40 -41 -50z" />
    <glyph glyph-name="s_s" unicode="ss" horiz-adv-x="511" 
d="M290 2h1c20 0 42 16 64 51c20 33 36 91 47 106l-1 1c-9 -9 -35 -29 -49 -39s-42 -27 -54 -34c0 -1 1 -6 1 -7c0 -9 -6 -16 -18 -25c-8 -6 -18 -17 -18 -30c0 -16 13 -23 27 -23zM461 40c-25 -17 -47 -26 -71 -34s-60 -15 -91 -15c-52 0 -79 27 -78 57
c-5 -3 -15 -8 -25 -13c-24 -13 -41 -21 -64 -29c-24 -8 -61 -15 -92 -15h-1c-52 0 -77 27 -76 59s27 51 49 52c19 0 28 -10 28 -22c0 -9 -6 -17 -18 -25c-8 -7 -18 -17 -18 -30c0 -16 13 -23 27 -23c21 0 41 14 63 46c26 37 51 111 70 136l-1 1c-21 -23 -48 -48 -65 -60
c-15 -12 -36 -27 -45 -32c-5 -3 -10 -5 -12 -2s1 6 6 9c12 8 29 19 44 31c28 22 61 55 81 73c2 4 9 15 16 22c9 9 20 12 29 12c23 0 23 -11 1 -27c-9 -6 -19 -10 -24 -15c-8 -8 -5 -18 -1 -29c8 -28 3 -68 -9 -96c-8 -18 -26 -41 -38 -49c12 4 30 11 46 20c11 6 21 12 30 18
c6 26 28 42 48 42c10 0 19 -3 23 -8c16 10 38 24 54 35c22 16 46 35 63 50c2 5 8 14 16 22c9 9 20 12 29 12c23 0 23 -12 1 -27c-9 -6 -19 -10 -24 -15c-8 -8 -6 -19 -1 -29c10 -25 14 -54 3 -82c-7 -16 -18 -30 -29 -38c11 4 26 11 42 21c28 18 52 40 65 51c5 4 10 9 13 6
c2 -2 1 -6 -6 -12c-11 -11 -34 -31 -58 -48z" />
    <glyph glyph-name="w_h" unicode="wh" horiz-adv-x="852" 
d="M633 96c-44 -35 -69 -57 -111 -91c-9 -7 -29 -8 -40 -9c-26 -1 -31 2 -25 16c8 17 25 44 41 67c11 15 31 40 42 54c-6 -5 -14 -11 -19 -14c-30 -18 -51 -26 -67 -27c-14 -2 -25 0 -31 4c-18 -22 -48 -47 -55 -52c-46 -36 -88 -53 -124 -53c-34 0 -52 12 -52 31
c0 10 4 23 13 36c9 14 20 27 31 40c12 15 20 27 24 35c4 10 1 15 -4 15c-7 0 -26 -12 -51 -29c-26 -18 -57 -40 -82 -63c-7 -7 -36 -33 -48 -43c-13 -10 -30 -23 -51 -23h-1c-9 0 -17 4 -18 13c-1 7 4 12 9 18c15 18 33 38 48 58c15 18 33 43 39 58c2 7 1 12 -2 14
c-4 3 -11 1 -17 -3c-13 -7 -25 -17 -35 -25c-15 -13 -31 -27 -39 -35c-9 -9 -13 -12 -16 -10c-2 2 -1 6 7 14c7 7 30 28 45 41c20 17 51 41 86 41c33 0 45 -14 43 -38c-1 -12 -8 -28 -19 -43c44 35 84 58 92 62c19 9 36 18 63 17c15 -1 27 -10 25 -26c-1 -15 -9 -31 -28 -56
c-16 -22 -25 -34 -34 -51c-3 -7 -8 -20 0 -26c6 -4 18 -2 28 2c15 6 44 23 60 36c11 9 36 30 54 52c-9 9 -14 28 -10 43c5 22 21 33 36 33c14 0 21 -10 19 -21c-2 -19 -16 -39 -28 -52c3 -3 12 -4 23 -3c16 1 35 8 66 27c10 6 23 16 31 22c36 47 75 97 117 146
c80 95 182 189 242 230c38 26 71 41 99 41c23 0 33 -16 31 -36c-5 -57 -96 -139 -193 -212c-63 -47 -168 -118 -203 -149c-20 -24 -55 -75 -91 -126l2 -1c20 17 53 45 88 72c31 23 81 57 125 57h1c26 0 40 -11 39 -30c-2 -18 -21 -41 -37 -61c-16 -19 -26 -32 -31 -41
c-8 -12 -8 -19 -3 -23c5 -3 16 0 25 5c14 7 30 18 43 28c15 12 39 33 49 42c7 6 10 8 13 5c2 -2 0 -5 -5 -10c-11 -11 -44 -40 -64 -55c-21 -16 -60 -41 -95 -41c-38 -1 -46 18 -44 36c3 18 17 36 37 61c14 17 29 35 41 49c4 5 3 12 -3 13c-7 2 -16 -1 -29 -7
c-19 -10 -45 -27 -72 -49zM655 192c55 46 128 101 174 140c97 82 180 166 184 207c2 13 -4 19 -16 19c-16 0 -46 -20 -67 -40c-34 -33 -77 -82 -128 -143c-60 -72 -101 -122 -147 -183z" />
    <glyph glyph-name="y_g" unicode="yg" horiz-adv-x="651" 
d="M400 9h1c18 0 56 22 83 47c32 28 70 72 71 88c1 13 -7 19 -18 19c-20 0 -58 -29 -94 -65c-38 -37 -57 -65 -56 -79c1 -7 6 -10 13 -10zM98 -79l150 199l-1 1l-22 -20c-19 -16 -47 -38 -66 -53c-32 -24 -76 -57 -120 -57c-29 0 -41 13 -40 31c0 13 6 26 17 41
c22 31 58 73 81 87c-14 -5 -34 -18 -57 -36c-15 -12 -30 -25 -40 -34c-7 -6 -11 -8 -14 -6c-2 2 0 6 8 14c10 9 43 38 72 56c26 18 50 27 78 27c32 0 37 -3 26 -16c-16 -18 -35 -41 -55 -66c-17 -21 -30 -40 -38 -55c-4 -7 -5 -14 -2 -17c4 -3 13 -1 24 4c22 12 44 27 75 51
c44 35 71 62 105 90c9 7 15 11 54 11c26 0 30 -2 19 -16c-15 -21 -36 -45 -56 -72c-27 -36 -96 -129 -137 -182c-126 -162 -240 -251 -303 -293c16 -19 45 -39 108 -41c86 -3 171 35 255 116c54 51 121 145 189 242c26 36 62 87 83 119l-1 1c-25 -22 -71 -56 -117 -56
c-31 -1 -55 9 -53 39c0 15 11 42 34 66c22 24 52 43 79 55c28 13 64 24 98 23c29 0 36 -20 33 -34h1c26 27 31 31 62 31c27 0 30 -5 21 -15c-18 -21 -33 -40 -52 -67c-39 -54 -90 -129 -135 -193c-74 -106 -153 -186 -211 -230c-92 -71 -196 -109 -286 -106
c-73 2 -106 22 -122 40c-93 -57 -206 -91 -313 -94c-182 -5 -257 69 -257 171c0 49 28 95 63 124c11 8 17 12 18 10c2 -3 -4 -4 -16 -17c-23 -27 -39 -68 -39 -113c0 -89 67 -171 231 -166c104 3 203 36 297 106c-10 16 -13 46 -3 69c-1 -24 6 -44 16 -59
c84 68 171 177 259 290z" />
    <glyph glyph-name="r_scaron" unicode="r&#x161;" horiz-adv-x="582" 
d="M360 2h1c20 0 43 16 64 51c21 33 36 91 47 106v1c-9 -9 -32 -26 -48 -36c-17 -11 -44 -27 -58 -33c2 -3 3 -8 3 -11c-1 -9 -6 -16 -17 -25c-8 -6 -19 -18 -19 -30c0 -16 13 -23 27 -23zM461 6c-24 -8 -65 -15 -96 -15c-54 0 -75 30 -74 59c1 11 4 21 10 28
c-18 -2 -38 -1 -51 5c-21 9 -30 26 -28 49c-11 -5 -35 -23 -47 -33c-30 -26 -63 -53 -102 -91c-10 -9 -25 -11 -42 -12c-26 -1 -31 2 -24 16c10 19 28 45 45 67c15 20 29 38 42 54c5 7 7 12 3 15c-3 3 -8 1 -15 -3c-10 -5 -24 -16 -37 -26c-14 -11 -29 -24 -44 -38
c-9 -8 -14 -11 -17 -8c-1 2 1 6 10 14c13 13 34 32 52 45c21 16 57 42 88 42c27 0 36 -11 36 -25v-1c0 -14 -12 -31 -22 -43c-10 -14 -24 -31 -33 -42l2 -2c11 11 39 36 67 59c16 13 34 27 51 37c12 8 24 13 30 14c12 3 25 3 33 1c11 -3 16 -12 5 -18
c-29 -16 -38 -28 -39 -37c-2 -10 -1 -22 13 -28c8 -4 21 -4 31 -2c8 8 20 14 33 15c8 0 14 -1 19 -5c16 8 42 23 59 35c22 15 44 32 61 47c2 4 9 14 16 22c9 8 20 12 29 12c23 0 24 -12 1 -27c-9 -6 -17 -9 -24 -15c-8 -8 -5 -19 -1 -29c11 -26 15 -54 3 -82
c-6 -16 -17 -30 -28 -38c11 4 26 11 42 21c28 18 52 40 65 51c5 4 10 9 13 6c2 -2 1 -6 -6 -12c-12 -11 -35 -31 -59 -48s-46 -26 -70 -34zM536 267h-1c-2 0 -5 4 -6 7c-11 29 -25 57 -36 74c-3 4 -4 6 -3 7c2 3 8 1 13 -1c14 -7 37 -22 52 -38c35 19 76 34 104 42
c5 2 12 3 13 0s-3 -6 -7 -8c-31 -18 -91 -56 -118 -78c-3 -3 -7 -6 -11 -5z" />
    <glyph glyph-name="ydieresis_gcommaaccent" unicode="&#xff;&#x123;" horiz-adv-x="650" 
d="M547 219c-9 0 -13 2 -13 9c0 4 2 9 6 15c25 31 63 61 81 71c6 3 11 6 12 5c2 -3 -2 -6 -7 -11c-12 -13 -26 -28 -33 -45c-5 -9 2 -15 0 -24c-4 -10 -25 -17 -46 -20zM292 225c-4 5 -5 23 0 36c5 16 23 20 41 20c17 0 22 -12 10 -27c-14 -17 -39 -27 -51 -29zM186 225
c-5 5 -6 23 -1 36c6 16 23 20 41 20c17 0 22 -12 10 -27c-14 -17 -39 -27 -50 -29zM400 9h1c18 0 56 22 83 47c32 28 70 72 71 88c1 13 -7 19 -18 19c-20 0 -58 -29 -94 -65c-38 -37 -57 -65 -56 -79c1 -7 6 -10 13 -10zM98 -79l150 199l-1 1l-22 -20
c-19 -16 -47 -38 -66 -53c-32 -24 -76 -57 -120 -57c-29 0 -41 13 -40 31c0 13 6 26 17 41c22 31 58 73 81 87c-14 -5 -34 -18 -57 -36c-15 -12 -30 -25 -40 -34c-7 -6 -11 -8 -14 -6c-2 2 0 6 8 14c10 9 43 38 72 56c26 18 50 27 78 27c32 0 37 -3 26 -16
c-16 -18 -35 -41 -55 -66c-17 -21 -30 -40 -38 -55c-4 -7 -5 -14 -2 -17c4 -3 13 -1 24 4c22 12 44 27 75 51c44 35 71 62 105 90c9 7 15 11 54 11c26 0 30 -2 19 -16c-15 -21 -36 -45 -56 -72c-27 -36 -96 -129 -137 -182c-126 -162 -240 -251 -303 -293
c16 -19 45 -39 108 -41c86 -3 171 35 255 116c54 51 121 145 189 242c26 36 62 87 83 119l-1 1c-25 -22 -71 -56 -117 -56c-31 -1 -55 9 -53 39c0 15 11 42 34 66c22 24 52 43 79 55c28 13 64 24 98 23c29 0 36 -20 33 -34h1c26 27 31 31 62 31c27 0 30 -5 21 -15
c-18 -21 -33 -40 -52 -67c-39 -54 -90 -129 -135 -193c-74 -106 -153 -186 -211 -230c-92 -71 -196 -109 -286 -106c-73 2 -106 22 -122 40c-93 -57 -206 -91 -313 -94c-182 -5 -257 69 -257 171c0 49 28 95 63 124c11 8 17 12 18 10c2 -3 -4 -4 -16 -17
c-23 -27 -39 -68 -39 -113c0 -89 67 -171 231 -166c104 3 203 36 297 106c-10 16 -13 46 -3 69c-1 -24 6 -44 16 -59c84 68 171 177 259 290z" />
    <glyph glyph-name=".notdef" horiz-adv-x="500" 
d="M0 0v700h500v-700h-500zM250 395l170 255h-340zM280 350l170 -255v510zM80 50h340l-170 255zM50 605v-510l170 255z" />
    <glyph glyph-name="space" unicode=" " horiz-adv-x="153" 
 />
    <glyph glyph-name="exclam" unicode="!" horiz-adv-x="264" 
d="M329 339c16 0 18 -3 -7 -35c-52 -66 -147 -150 -216 -209c-6 -5 -12 -8 -15 -6c-2 1 0 5 8 15c61 78 93 123 139 192c20 30 51 43 91 43zM70 57c20 0 27 -14 13 -32c-16 -20 -48 -33 -60 -34c-5 8 -7 27 -1 43c7 19 25 23 48 23z" />
    <glyph glyph-name="quotedbl" unicode="&#x22;" horiz-adv-x="225" 
d="M192 357c20 0 24 -9 5 -26c-42 -37 -70 -60 -90 -76c-5 -4 -10 -7 -12 -6c-3 2 0 7 4 13c14 23 34 54 47 74c7 12 25 21 46 21zM294 357c20 0 24 -9 5 -26c-43 -37 -70 -60 -90 -76c-5 -4 -10 -7 -12 -6c-3 2 0 7 4 13c14 23 34 54 47 74c7 12 25 21 46 21z" />
    <glyph glyph-name="numbersign" unicode="#" horiz-adv-x="380" 
d="M267 281c11 0 15 -2 -9 -32c-18 -21 -33 -40 -49 -59c26 0 52 -1 84 -3c14 19 39 51 57 74c17 21 23 28 45 28c16 0 18 -4 -7 -33c-20 -24 -43 -51 -59 -69c16 -1 37 -1 56 -2c6 0 17 -1 17 -4c0 -4 -10 -4 -16 -4c-22 -1 -48 -1 -66 -2c-18 -22 -33 -42 -52 -64
c19 0 54 -1 69 -1c7 0 16 0 16 -4s-9 -5 -15 -5c-28 -1 -58 -2 -80 -2c-32 -38 -62 -72 -92 -106c-4 -4 -11 -12 -16 -9c-3 2 1 9 5 15c25 34 46 61 73 99c-30 -1 -59 -1 -94 -2c-36 -41 -70 -80 -97 -110c-4 -5 -13 -12 -17 -9c-2 2 1 8 6 15c25 35 48 65 78 104h-49
c-14 0 -21 3 -21 9s7 10 24 10h59c16 21 28 37 44 57h-57c-15 0 -22 4 -22 8c0 7 9 11 24 11c22 0 48 -1 68 -1c15 20 32 43 47 63c16 21 23 28 46 28zM197 172l-48 -58c26 0 54 -1 89 -2c16 22 31 41 47 62c-25 -1 -55 -2 -88 -2z" />
    <glyph glyph-name="dollar" unicode="$" horiz-adv-x="254" 
d="M261 270l-72 -99c11 -28 23 -62 8 -94c-19 -38 -70 -58 -114 -60c-2 0 -6 0 -8 1c0 0 -16 -22 -23 -30c-4 -5 -8 -8 -11 -6c-3 1 -3 5 2 13c4 7 16 24 16 24c-31 5 -54 28 -48 57c4 20 20 31 35 29c12 -2 19 -11 16 -24c-4 -16 -17 -20 -18 -31c-1 -9 4 -19 21 -22
l74 103c-11 33 -16 62 -8 86c14 40 59 65 119 63c0 0 8 10 13 18c14 20 20 23 25 20c6 -3 3 -7 -9 -24c-6 -9 -12 -16 -12 -16c20 -7 36 -22 30 -45c-4 -13 -17 -23 -28 -22c-15 3 -17 15 -12 25c6 13 14 17 14 24c-1 5 -5 8 -10 10zM183 189l61 83c-24 0 -51 -19 -59 -41
c-6 -16 -5 -29 -2 -42zM145 112l-63 -85c3 -1 8 0 9 0c21 3 39 14 50 33c9 18 8 36 4 52z" />
    <glyph glyph-name="percent" unicode="%" horiz-adv-x="429" 
d="M277 -6c-29 0 -44 15 -44 39c0 22 12 47 31 67c23 23 66 44 93 44c4 1 10 0 10 -2s-6 -3 -15 -9c-16 -11 -30 -25 -46 -46c-17 -23 -31 -47 -34 -64c-2 -11 1 -18 10 -20c17 -2 38 16 57 43c19 26 33 51 38 69c3 10 3 17 0 21c-2 4 -6 4 -6 6c1 2 8 3 14 1
c12 -4 20 -16 18 -31c-1 -22 -15 -50 -43 -79c-25 -26 -61 -39 -83 -39zM318 248c-17 -8 -37 -15 -55 -17c-20 -2 -33 1 -43 6c3 -6 4 -16 2 -25c-4 -19 -19 -45 -43 -70c-25 -26 -60 -40 -82 -40c-30 0 -44 16 -45 39c0 20 11 46 32 68c23 24 58 40 91 44c8 1 12 0 12 -2
s-8 -4 -16 -9c-14 -9 -28 -24 -46 -47c-17 -23 -31 -47 -34 -63c-2 -11 1 -19 10 -20c17 -2 38 16 58 43c19 25 30 44 37 69c4 10 2 18 0 21c-2 4 -7 4 -6 6s7 3 13 1c5 -2 8 -4 11 -5c12 -7 24 -10 48 -8c25 3 54 13 80 34c15 12 24 25 43 27c17 2 28 -1 -1 -28
c-82 -76 -194 -185 -299 -306c-4 -5 -11 -13 -15 -10c-3 3 1 10 6 17c86 109 174 208 242 275z" />
    <glyph glyph-name="ampersand" unicode="&#x26;" horiz-adv-x="476" 
d="M531 299c32 0 51 -19 45 -47c-4 -21 -24 -42 -43 -38c-16 3 -15 21 -12 37c2 13 -3 23 -16 24c-22 2 -49 -14 -106 -65c-38 -34 -82 -76 -122 -113c24 -34 53 -86 41 -145c-14 -73 -89 -127 -187 -127c-38 0 -57 19 -62 29c-3 7 -5 16 -2 17s2 -5 8 -13
c8 -10 24 -21 54 -21c59 0 108 52 119 111c7 41 -1 78 -19 113c-44 -36 -101 -66 -154 -66c-23 0 -47 13 -41 45s43 63 83 86c25 13 47 24 66 34c-5 17 -8 39 -3 60c8 34 49 76 99 73c21 -1 38 -19 29 -48c-10 -31 -52 -55 -77 -72c8 -21 25 -46 40 -67c41 37 83 81 121 116
c52 47 95 77 139 77zM277 277c-23 0 -44 -27 -50 -56c-3 -16 -2 -28 1 -39c19 13 51 34 64 63c7 17 0 32 -15 32zM129 27c20 0 56 12 95 44c-13 23 -30 58 -37 79c-19 -13 -41 -28 -55 -42c-16 -15 -31 -34 -33 -53c-1 -16 8 -28 30 -28z" />
    <glyph glyph-name="quoteright" unicode="&#x2019;" horiz-adv-x="122" 
d="M185 347v-1c0 -3 -4 -10 -8 -15c-27 -33 -72 -64 -92 -78c-7 -5 -12 -7 -13 -5c-2 3 2 6 8 12c13 13 28 30 37 48c5 10 -5 20 -1 28c3 8 28 18 54 20c10 1 15 -3 15 -9z" />
    <glyph glyph-name="parenleft" unicode="(" horiz-adv-x="270" 
d="M103 -92c-2 -1 -4 2 -5 8c-9 31 -46 195 53 334c121 170 292 201 360 212c6 1 11 1 11 -1c1 -2 -2 -3 -9 -5c-73 -22 -206 -82 -309 -228c-93 -132 -100 -262 -99 -311c0 -5 1 -8 -2 -9z" />
    <glyph glyph-name="parenright" unicode=")" horiz-adv-x="270" 
d="M-107 -86c0 2 3 2 9 4c73 25 191 92 285 236c84 129 79 249 76 304c0 3 -1 8 1 8c3 0 4 -2 6 -7c14 -43 57 -192 -30 -327c-109 -169 -288 -212 -336 -220c-5 -1 -11 -1 -11 2z" />
    <glyph glyph-name="asterisk" unicode="*" horiz-adv-x="231" 
d="M304 339c0 -5 -10 -6 -20 -6c-18 0 -37 0 -53 1c6 -13 15 -31 19 -44c3 -8 6 -20 -1 -22c-4 -2 -8 2 -14 11s-20 30 -29 47c-18 -18 -39 -38 -53 -51c-8 -8 -16 -11 -20 -8s-1 11 7 22c10 12 27 33 43 50c-13 2 -32 5 -44 8c-10 2 -18 5 -18 12c0 6 8 8 21 8
c8 0 28 -1 43 -3c-6 12 -14 30 -19 42c-3 9 -6 19 0 22c6 4 13 -4 19 -13c6 -7 17 -26 27 -44c16 16 38 36 49 46s17 12 22 9c4 -3 2 -12 -6 -22c-10 -13 -28 -33 -40 -46c16 -2 39 -5 49 -8c10 -2 18 -5 18 -11z" />
    <glyph glyph-name="plus" unicode="+" horiz-adv-x="368" 
d="M294 250c18 0 27 -3 3 -32c-15 -18 -40 -47 -69 -82c39 -2 76 -3 108 -5c8 -1 14 -1 13 -5s-10 -5 -18 -6c-37 -2 -73 -3 -120 -4c-40 -45 -84 -94 -105 -116c-8 -9 -14 -13 -18 -11c-4 1 -1 9 3 15c23 34 50 71 78 111h-100c-22 0 -23 5 -21 11c4 11 12 15 24 14
c38 -1 73 -2 113 -3c26 35 48 65 63 85c13 19 25 28 46 28z" />
    <glyph glyph-name="comma" unicode="," horiz-adv-x="138" 
d="M93 52c0 -6 -4 -14 -12 -23c-32 -37 -77 -69 -99 -83c-9 -6 -14 -8 -15 -6c-2 3 4 6 10 13c14 14 31 34 41 54c5 10 -4 21 -1 30c4 11 30 22 60 24c10 1 16 -2 16 -9z" />
    <glyph glyph-name="hyphen" unicode="-" horiz-adv-x="256" 
d="M157 125c37 0 51 -28 49 -58c0 -4 -1 -6 -3 -6s-3 1 -5 3c-9 12 -21 15 -44 15c-28 0 -46 -10 -83 -10c-13 0 -31 5 -38 14c-2 2 -2 5 -1 6s3 0 6 -1c6 -2 12 -2 18 -1c20 2 35 11 53 22c14 9 31 16 48 16z" />
    <glyph glyph-name="period" unicode="." horiz-adv-x="138" 
d="M70 61c22 0 29 -15 13 -34c-17 -21 -50 -34 -63 -36c-6 8 -7 29 -1 45c7 20 28 25 51 25z" />
    <glyph glyph-name="slash" unicode="/" horiz-adv-x="239" 
d="M397 383c14 0 18 -6 -13 -38c-86 -90 -284 -291 -417 -425c-5 -5 -11 -8 -15 -5c-3 3 1 8 8 16c120 138 283 327 351 408c24 28 54 44 86 44z" />
    <glyph glyph-name="zero" unicode="0" horiz-adv-x="296" 
d="M85 -9h-1c-55 0 -75 33 -70 75c5 40 33 86 63 116c48 49 108 80 154 83c13 1 22 -1 21 -4c0 -1 -10 -3 -24 -13c-29 -20 -56 -47 -86 -85c-33 -40 -62 -87 -68 -120c-4 -22 1 -37 17 -39c28 -5 70 32 108 80c32 41 64 94 74 134c5 16 2 29 -3 34c-5 7 -11 8 -13 9
c0 2 6 4 12 3c31 1 50 -32 40 -74c-9 -41 -34 -81 -73 -123c-46 -49 -102 -76 -151 -76z" />
    <glyph glyph-name="one" unicode="1" horiz-adv-x="210" 
d="M193 224c-29 -19 -58 -37 -84 -50s-57 -17 -59 -13c-2 5 6 3 59 30c31 15 65 34 89 49c28 16 55 29 68 29s6 -10 -11 -31c-68 -82 -116 -147 -152 -198c-27 -38 -26 -41 -96 -52c-20 -3 -19 2 7 36c49 63 147 176 179 200z" />
    <glyph glyph-name="two" unicode="2" horiz-adv-x="281" 
d="M39 43c13 3 27 4 41 4c34 0 65 -16 84 -16c23 0 41 7 70 38c2 3 6 7 9 5s0 -5 -2 -8c-29 -36 -62 -75 -103 -75c-22 0 -43 7 -59 14c-15 7 -37 15 -53 15c-21 0 -43 -6 -54 -14c-11 -7 -16 -14 -19 -15s-8 0 -5 7c2 5 10 11 16 15c24 16 68 36 107 56
c69 36 135 92 149 136c7 23 -6 39 -28 39c-23 1 -48 -7 -69 -24c-17 -12 -31 -30 -35 -48c-4 -22 11 -34 30 -29c2 0 4 1 5 -1s-3 -5 -6 -6c-6 -3 -16 -5 -24 -4c-26 3 -31 20 -29 34c4 21 24 43 53 63c28 20 70 37 107 37c45 0 77 -21 66 -67c-11 -43 -55 -75 -110 -102
c-52 -24 -109 -42 -141 -54z" />
    <glyph glyph-name="three" unicode="3" horiz-adv-x="264" 
d="M161 149c19 -1 38 -5 51 -15c17 -12 24 -33 16 -55c-11 -31 -43 -54 -73 -66c-31 -13 -71 -22 -111 -22c-40 1 -72 19 -67 52c3 24 26 44 53 44c20 0 28 -13 26 -24c-1 -11 -8 -17 -19 -24c-6 -4 -18 -10 -20 -18c-3 -13 9 -22 31 -21c28 1 74 23 108 88
c11 22 13 49 -4 51c-7 1 -16 -2 -25 -6c-8 -3 -13 -9 -15 -6c-3 5 3 12 16 17c58 21 98 57 97 85c0 11 -9 18 -24 19c-17 1 -37 -4 -53 -14c-14 -9 -26 -24 -30 -37c-4 -10 -3 -17 -1 -22s6 -6 3 -8c-2 -1 -11 -1 -17 4c-8 6 -11 16 -8 26c5 18 25 33 47 45
c26 14 55 24 89 24c45 0 59 -19 60 -36c1 -25 -20 -48 -59 -62c-24 -9 -43 -14 -71 -19z" />
    <glyph glyph-name="four" unicode="4" horiz-adv-x="298" 
d="M339 267h1c10 0 9 -3 3 -11c-60 -72 -132 -171 -156 -204c11 -1 28 -2 38 -4s17 -6 15 -11c-2 -3 -6 -1 -19 -1c-15 1 -32 1 -44 1c-20 -26 -47 -61 -69 -92c-20 -28 -26 -35 -79 -42c-21 -3 -22 1 2 35c24 35 46 62 73 98c-32 0 -58 0 -80 -2c-16 -1 -29 -3 -42 -5
c-5 -1 -12 -3 -13 3c-1 4 10 14 16 18c36 27 79 60 133 96c50 35 87 60 132 87c41 25 61 34 89 34zM273 231l-2 2c-35 -20 -97 -62 -147 -97c-43 -30 -89 -64 -121 -89v-1c27 4 86 6 112 6c37 49 131 153 158 179z" />
    <glyph glyph-name="five" unicode="5" horiz-adv-x="270" 
d="M195 276h1c2 0 7 -4 11 -7c13 -7 23 -12 38 -16c12 -3 27 -5 39 -5c9 0 20 3 28 6c4 2 7 5 9 4s1 -5 -3 -12c-5 -9 -19 -21 -31 -27c-15 -9 -40 -15 -61 -14c-27 1 -50 8 -60 15c-13 -17 -38 -46 -65 -72l1 -1c13 9 35 16 56 16c47 0 90 -23 81 -69
c-13 -63 -116 -103 -189 -103c-40 0 -80 15 -76 51c3 26 26 43 50 43c14 0 29 -7 28 -25c0 -11 -8 -18 -17 -24c-7 -5 -13 -11 -14 -19c0 -10 12 -17 30 -17c52 0 108 46 119 106c5 27 -13 42 -32 43c-12 1 -22 -2 -30 -6s-14 -9 -20 -15s-12 -11 -17 -7s1 14 10 22
c12 11 32 30 53 54c23 26 38 48 53 72c2 4 4 7 8 7z" />
    <glyph glyph-name="six" unicode="6" horiz-adv-x="290" 
d="M22 53v1c0 40 27 93 77 143c70 72 176 128 261 123c31 -2 52 -14 60 -32c3 -6 2 -12 0 -13c-3 -1 -4 3 -7 7c-12 20 -30 26 -52 26c-57 0 -130 -52 -208 -134c-40 -43 -77 -99 -82 -141c-2 -18 5 -31 22 -32c28 -2 64 32 93 76c28 41 36 78 15 84c-17 5 -37 -7 -48 -14
c-4 -3 -7 -5 -9 -2c-1 2 1 5 8 10c15 11 40 23 63 21c52 -3 67 -59 30 -112c-33 -47 -102 -75 -150 -73c-55 2 -73 31 -73 62z" />
    <glyph glyph-name="seven" unicode="7" horiz-adv-x="225" 
d="M271 233c-37 -16 -92 -32 -132 -32c-37 0 -55 16 -50 40c4 16 17 26 26 31s20 7 26 7c1 0 4 0 4 -1c1 -3 -3 -4 -5 -9c-5 -13 5 -27 50 -27c39 0 81 6 102 12c10 5 19 7 20 2c1 -3 -3 -6 -14 -11c-105 -100 -185 -181 -259 -265c-6 -6 -37 -11 -59 -14
c-36 -5 -47 -2 -21 22c93 86 211 177 312 245z" />
    <glyph glyph-name="eight" unicode="8" horiz-adv-x="269" 
d="M256 304h-1c-28 0 -55 -22 -60 -48c-5 -28 4 -55 16 -81c13 -29 23 -55 16 -84c-12 -55 -85 -100 -150 -100c-49 1 -80 23 -72 67c6 37 49 75 111 99c6 2 23 8 24 4c1 -3 -11 -7 -18 -12c-31 -21 -53 -48 -62 -85c-9 -36 3 -56 30 -58c44 -5 80 42 80 87
c0 21 -10 40 -18 61c-12 26 -17 40 -15 64c4 55 75 101 133 101c45 0 68 -27 62 -61c-7 -39 -48 -63 -86 -77c-10 -4 -24 -9 -25 -6c-1 4 9 8 15 12c27 18 45 42 51 71c5 25 -7 46 -31 46z" />
    <glyph glyph-name="nine" unicode="9" horiz-adv-x="287" 
d="M-85 -92h1c37 0 80 17 134 57c43 32 94 88 122 129c46 66 65 102 68 133c2 15 -2 28 -15 29c-27 4 -67 -26 -102 -76c-27 -40 -32 -77 -12 -83c16 -5 37 7 49 16c7 5 12 11 14 8c2 -2 -1 -8 -12 -16c-18 -14 -39 -24 -63 -21c-52 6 -63 61 -27 112c38 53 109 73 150 70
c32 -1 58 -21 62 -53c4 -34 -15 -92 -58 -147c-74 -95 -217 -177 -309 -170c-29 2 -50 13 -58 31c-2 6 -2 12 1 13s4 -3 6 -7c8 -15 28 -25 49 -25z" />
    <glyph glyph-name="colon" unicode=":" horiz-adv-x="174" 
d="M74 61h1c21 0 27 -15 12 -34c-17 -21 -50 -34 -63 -36c-6 8 -7 29 -1 45c7 20 28 25 51 25zM130 163h1c21 0 27 -15 12 -34c-17 -21 -50 -34 -63 -36c-6 7 -7 29 0 45c7 20 27 25 50 25z" />
    <glyph glyph-name="semicolon" unicode=";" horiz-adv-x="174" 
d="M96 52v-1c0 -5 -4 -13 -11 -22c-32 -37 -78 -70 -100 -83c-8 -5 -13 -8 -14 -6c-2 3 3 7 9 13c15 14 32 34 41 54c5 10 -3 21 0 30c4 11 30 22 60 24c10 1 15 -2 15 -9zM130 163h1c21 0 27 -15 12 -34c-17 -21 -50 -34 -63 -36c-6 7 -7 29 0 45c7 20 27 25 50 25z" />
    <glyph glyph-name="less" unicode="&#x3c;" horiz-adv-x="282" 
d="M39 129v1c0 4 6 7 23 13c96 36 176 65 234 86c5 2 11 4 13 0s-3 -8 -12 -12c-60 -28 -117 -55 -195 -90c44 -29 88 -60 122 -83c6 -4 10 -9 7 -13c-3 -3 -8 -2 -12 0c-45 23 -98 50 -167 86c-6 3 -13 7 -13 12z" />
    <glyph glyph-name="equal" unicode="=" horiz-adv-x="393" 
d="M406 173v-1c0 -3 -6 -5 -19 -6c-67 -2 -186 -5 -285 -6c-23 0 -25 7 -23 14c3 12 12 17 26 17c82 -3 215 -8 286 -11c7 0 15 -2 15 -7zM366 106v-1c0 -4 -8 -7 -19 -7c-86 -2 -185 -4 -285 -6c-24 0 -25 8 -23 14c3 12 12 18 25 17c83 -3 215 -8 288 -11c6 0 14 -2 14 -6
z" />
    <glyph glyph-name="greater" unicode="&#x3e;" horiz-adv-x="282" 
d="M268 130v-1c0 -4 -5 -7 -21 -13c-98 -36 -172 -64 -235 -87c-5 -2 -12 -4 -13 1c-1 3 1 7 12 12c60 28 118 55 194 90c-43 29 -89 60 -120 83c-6 5 -10 9 -8 13c2 3 9 2 13 0c47 -25 98 -50 166 -86c7 -3 12 -7 12 -12z" />
    <glyph glyph-name="question" unicode="?" horiz-adv-x="264" 
d="M248 337h1c46 0 71 -25 64 -63c-8 -45 -53 -80 -122 -105c-27 -10 -50 -18 -71 -30c-15 -9 -27 -19 -32 -29c-4 -14 -7 -29 -18 -29c-6 0 -8 17 -1 31c10 18 29 35 57 52c67 43 100 76 111 113c7 22 -3 40 -25 40s-43 -8 -64 -24c-30 -21 -44 -60 -32 -80c3 -5 8 -7 8 -9
s-6 -2 -11 -1c-22 4 -29 20 -25 38c6 22 29 44 53 60c27 18 65 36 107 36zM70 57h1c19 0 26 -14 12 -32c-16 -20 -48 -33 -60 -34c-5 8 -7 27 -1 43c8 19 26 23 48 23z" />
    <glyph glyph-name="at" unicode="@" horiz-adv-x="501" 
d="M314 275h1c78 0 128 -42 127 -89c-1 -18 -9 -38 -23 -56c2 -4 5 -13 5 -22c0 -19 -6 -42 -23 -63c-35 -43 -107 -73 -191 -71c-149 4 -192 119 -122 207c46 57 132 94 226 94zM314 266h-1c-79 0 -141 -47 -176 -91c-67 -84 -52 -188 76 -192c75 -1 142 31 177 71
c16 19 22 39 22 53c0 5 -1 10 -1 11c-10 -11 -21 -20 -31 -27c-21 -16 -56 -33 -85 -33c-25 0 -31 11 -33 20c-1 7 2 17 7 25h-1c-19 -18 -51 -41 -84 -42c-22 0 -40 7 -38 30c2 20 21 47 61 72c22 14 59 28 87 27c21 -1 24 -14 23 -25h1c19 22 27 22 43 22
c21 0 23 -1 15 -11c-20 -25 -50 -61 -62 -82c-4 -8 -3 -16 5 -18c11 -3 40 9 57 23c13 10 22 21 30 35c-2 5 -6 11 -10 15c-3 3 -5 5 -4 7c1 1 6 -1 10 -4c3 -2 5 -5 8 -8c5 12 9 27 9 43c0 41 -36 79 -105 79zM297 182h-1c-13 0 -39 -21 -65 -46c-26 -26 -38 -43 -38 -55
c0 -4 4 -7 8 -7c14 0 35 12 58 32s48 48 50 63c1 9 -5 13 -12 13z" />
    <glyph glyph-name="A" unicode="A" horiz-adv-x="713" 
d="M17 56v1c0 40 30 64 56 65c27 1 44 -13 42 -35c0 -13 -11 -23 -24 -33c-9 -7 -17 -14 -17 -25c0 -21 30 -38 93 -33c78 7 147 46 202 84c-27 21 -62 65 -61 116c1 60 48 111 121 111c57 0 93 -35 115 -77c14 14 28 27 43 40c53 51 103 93 153 120c38 20 90 38 129 38
c32 0 46 -7 51 -12c7 -6 9 -13 6 -14c-2 -1 -3 3 -10 7c-5 4 -14 6 -22 6c-11 0 -23 -4 -32 -11c-23 -18 -59 -61 -82 -94c-62 -86 -129 -188 -186 -281c15 1 38 8 58 19c21 11 40 26 56 40c8 8 13 11 16 9c3 -3 -1 -8 -9 -15c-14 -13 -36 -31 -60 -43
c-21 -11 -46 -19 -66 -20c-14 -16 -29 -22 -64 -26c-29 -4 -27 7 -23 14c2 5 6 11 8 15c-19 2 -47 9 -70 17c-22 9 -45 21 -61 33c-37 -27 -121 -82 -215 -89c-78 -6 -147 18 -147 73zM556 97c34 52 87 130 123 174c67 85 136 129 191 147v1c-40 0 -90 -18 -125 -37
c-47 -26 -95 -67 -134 -102c-22 -21 -46 -44 -62 -60c7 -18 11 -39 12 -60c1 -23 -1 -46 -5 -63zM440 286h-1c-52 0 -79 -45 -81 -92c-2 -42 14 -78 31 -98c20 15 46 37 73 60c25 22 49 44 72 65c-20 37 -53 65 -94 65zM396 87c9 -11 34 -27 53 -36c16 -7 45 -16 66 -19
c8 14 21 35 25 42c7 14 11 51 10 80c-1 23 -5 43 -11 57c-24 -22 -49 -44 -71 -64c-26 -23 -52 -44 -72 -60z" />
    <glyph glyph-name="B" unicode="B" horiz-adv-x="695" 
d="M432 -9c-46 0 -90 17 -83 61c6 33 38 55 70 55c19 0 34 -10 33 -28c0 -18 -15 -29 -30 -36c-11 -5 -24 -10 -26 -22c-2 -15 18 -22 36 -22c65 0 146 71 150 153c3 49 -46 65 -64 63c-7 -2 -17 -4 -25 -4c-15 0 -23 3 -22 10s15 8 24 8c12 0 22 -2 29 -4
c42 6 92 46 105 91c8 28 -1 56 -28 71c-7 -6 -13 -12 -19 -18c-36 -37 -72 -90 -124 -159c-92 -125 -230 -230 -349 -230c-50 0 -106 10 -115 68s35 145 166 235c120 82 276 128 392 125c7 0 19 -1 23 -1c41 25 77 42 108 53c33 12 73 20 107 19s60 -12 70 -27
c3 -4 4 -8 1 -9c-1 0 -2 2 -5 5c-11 13 -35 22 -65 22s-66 -6 -97 -20c-27 -11 -55 -30 -78 -50c51 -13 86 -42 78 -86c-11 -58 -89 -89 -151 -93v-1c69 -5 115 -40 112 -86c-5 -84 -107 -143 -223 -143zM49 52c0 -39 24 -63 62 -63c91 0 155 92 232 193
c65 85 139 153 187 193c9 7 20 15 30 21c-3 1 -12 2 -19 2c-100 2 -246 -39 -351 -122c-108 -85 -141 -169 -141 -224z" />
    <glyph glyph-name="C" unicode="C" horiz-adv-x="408" 
d="M271 470h1c58 0 105 -26 130 -63c13 3 35 6 54 6c57 2 126 -17 119 -75c-7 -68 -121 -98 -197 -98c-56 0 -121 11 -159 38c-67 -60 -119 -145 -119 -208c0 -52 26 -90 98 -87c56 2 106 29 142 54c24 16 46 37 63 52c11 9 16 12 18 10c2 -3 -2 -8 -12 -17
c-22 -20 -46 -42 -68 -58c-34 -23 -85 -54 -155 -59c-97 -6 -163 27 -166 105c-3 87 61 175 158 243c-15 18 -25 39 -25 63c0 56 52 94 118 94zM379 250h1c67 0 141 30 151 92c5 44 -27 63 -75 63c-17 0 -38 -3 -50 -7c8 -14 13 -35 14 -55c1 -21 -2 -34 -4 -33s-1 10 -4 28
c-3 20 -12 42 -22 55c-52 -17 -125 -67 -164 -108c37 -25 101 -35 153 -35zM271 456h-1c-56 0 -104 -29 -104 -80c0 -19 7 -42 20 -57c67 42 135 69 198 84c-21 29 -67 53 -113 53z" />
    <glyph glyph-name="D" unicode="D" horiz-adv-x="733" 
d="M365 272v1c0 27 -19 44 -44 45c-26 1 -49 -12 -64 -26c-14 -12 -16 -20 -19 -19c-2 1 3 12 15 25c11 11 37 33 73 31c29 -1 56 -21 59 -57c3 -39 -18 -82 -57 -114c-37 -30 -101 -48 -160 -45c-69 2 -131 35 -131 96c0 120 181 214 354 214c107 0 180 -27 232 -63
c14 8 39 22 67 32c33 12 66 19 102 19c30 0 49 -9 58 -16c8 -6 10 -14 8 -15s-2 4 -13 11c-9 5 -26 10 -50 10c-32 0 -65 -9 -94 -21c-26 -11 -50 -26 -61 -35c73 -62 96 -160 55 -232c-65 -112 -223 -122 -323 -122c-53 0 -121 5 -148 8c-22 -4 -84 -7 -112 -7
c-90 0 -160 -3 -158 16c2 20 59 22 142 20c34 0 90 -7 138 -14c84 23 133 101 193 175c59 72 138 134 183 162c-44 35 -117 63 -219 63c-158 0 -296 -100 -297 -212c-1 -49 26 -77 75 -80c55 -3 106 21 141 53c34 32 55 69 55 97zM253 11c30 -5 80 -10 104 -10
c101 0 203 41 264 134c45 66 48 150 8 200c-41 -40 -80 -107 -126 -162c-77 -96 -160 -136 -250 -162z" />
    <glyph glyph-name="E" unicode="E" horiz-adv-x="413" 
d="M229 268v1c0 21 10 44 22 59c-24 18 -42 44 -41 72c2 39 37 65 88 65c44 0 92 -18 125 -53c17 2 48 5 76 4c67 -3 109 -31 108 -64c-2 -45 -76 -81 -155 -81c-52 0 -99 8 -142 27c-5 -7 -11 -18 -14 -29c-4 -13 -4 -25 -3 -31c8 1 30 3 50 2c31 -1 55 -7 53 -25
c-2 -14 -30 -20 -55 -20c-43 0 -76 10 -95 27c-23 -9 -51 -27 -75 -49c-27 -25 -53 -65 -58 -96c-13 -62 25 -96 90 -93c56 3 103 27 139 51c25 17 55 45 70 57c5 5 10 8 13 5c2 -2 -1 -7 -11 -15c-17 -16 -49 -43 -72 -59c-33 -22 -93 -54 -158 -59
c-106 -7 -164 36 -150 113c15 85 129 135 207 152c-8 10 -12 26 -12 39zM450 281h1c60 0 126 27 128 71c2 25 -18 53 -77 55c-25 1 -52 -6 -68 -12c4 -7 13 -25 15 -42c4 -20 1 -33 -2 -32c-2 1 0 5 -7 27c-3 13 -12 30 -22 41c-18 -9 -40 -22 -59 -37
c-15 -11 -33 -31 -44 -45c37 -18 86 -26 135 -26zM402 408c-29 28 -68 48 -105 48c-46 0 -74 -22 -76 -56c-1 -24 14 -48 36 -65c12 15 32 30 62 43c27 15 59 25 83 30zM295 230c4 -15 27 -24 47 -25c19 -1 35 3 36 13c1 9 -15 13 -35 14c-15 1 -35 0 -48 -2z" />
    <glyph glyph-name="F" unicode="F" horiz-adv-x="577" 
d="M342 393h-1c-94 0 -176 -26 -194 -100c-8 -38 3 -88 66 -115c10 -4 14 -3 13 -6s-10 -2 -19 1c-59 21 -89 73 -83 126c10 74 97 137 222 135c42 0 107 -11 169 -28c36 -10 80 -22 122 -32c37 16 78 28 115 28c35 0 66 -11 63 -33c-1 -21 -34 -30 -82 -30
c-32 0 -69 4 -91 7c-21 -18 -48 -48 -68 -72c-32 -38 -51 -67 -80 -102c24 -1 56 1 76 8c16 21 38 38 55 34c16 -4 10 -19 -13 -37c-21 -17 -35 -28 -52 -46c-8 -8 -13 -16 -16 -16c-5 0 -2 16 2 25c5 12 11 22 16 28c-18 -5 -42 -7 -76 -7c-6 -8 -13 -17 -23 -27
c-86 -96 -216 -153 -317 -153c-69 0 -125 26 -126 75c0 30 21 60 58 60c28 0 42 -19 41 -39c-2 -14 -7 -22 -16 -32c-8 -8 -13 -15 -13 -24c0 -19 22 -29 52 -30c76 -3 137 32 196 97c25 27 43 49 61 74c-22 0 -43 0 -55 -1c-24 -1 -31 -6 -30 -1c1 4 10 10 38 12
c11 1 38 0 54 0c14 19 30 39 51 62c43 46 100 92 145 119c-27 4 -68 12 -100 19c-42 8 -111 21 -160 21zM751 392h-1c-30 0 -63 -13 -83 -26c38 -10 71 -14 90 -14c25 0 47 8 48 19c1 13 -22 21 -54 21z" />
    <glyph glyph-name="G" unicode="G" horiz-adv-x="498" 
d="M626 367c1 -57 -52 -111 -125 -149c-65 -33 -161 -48 -235 -43c-25 1 -48 6 -69 13c-25 -36 -48 -82 -52 -124c-3 -35 15 -59 47 -60c52 -1 106 41 164 101c16 16 33 31 72 31c19 0 23 -3 13 -16c-16 -21 -31 -40 -50 -66c-17 -22 -29 -39 -59 -78v-1c21 11 67 39 100 64
c22 17 47 38 65 54c6 4 11 10 14 7s-2 -9 -13 -19c-15 -14 -36 -31 -59 -48c-37 -28 -85 -56 -118 -74c-48 -69 -60 -86 -123 -161c-80 -92 -197 -162 -267 -162c-30 0 -51 13 -49 42c5 58 100 124 155 158c89 54 124 60 202 110c20 25 86 117 86 117
c-50 -49 -99 -73 -154 -74c-64 -1 -99 25 -104 73c-6 54 20 108 60 157c-27 18 -57 53 -57 95c0 81 78 125 164 125c50 0 100 -16 139 -47c55 19 121 35 172 34c39 0 81 -13 81 -59zM614 368c0 38 -36 47 -67 47c-36 0 -99 -13 -156 -44c10 -16 18 -37 21 -52
c4 -18 5 -38 1 -38c-3 -1 -1 6 -14 36c-6 15 -19 35 -27 42c-33 -22 -67 -47 -104 -83c-25 -25 -49 -56 -66 -81c18 -5 37 -8 59 -9c60 -3 155 19 224 56c63 34 130 86 129 126zM225 423h-1c-73 0 -142 -35 -142 -109c0 -38 26 -70 51 -88c21 25 55 59 89 83
c41 30 93 58 129 72c-33 26 -79 42 -126 42zM228 -72c-58 -37 -87 -45 -180 -105c-52 -33 -124 -96 -127 -146c-1 -19 9 -27 23 -28c14 -2 37 4 62 20c33 21 86 75 128 130c37 51 64 88 94 129z" />
    <glyph glyph-name="H" unicode="H" horiz-adv-x="687" 
d="M557 384c-46 -16 -136 -13 -223 -10c-130 4 -228 -38 -237 -126c-4 -39 7 -88 72 -109c10 -3 13 -3 12 -6s-9 -3 -19 0c-59 17 -101 67 -96 120c8 96 101 158 262 146c86 -6 208 -20 235 -5c14 8 25 16 32 12s-2 -8 -12 -18c-26 -24 -47 -47 -73 -79
c-29 -37 -50 -65 -69 -90l131 1c20 23 43 47 72 74c37 36 89 80 139 106c37 20 80 34 121 34c36 0 59 -17 65 -35c3 -8 2 -14 -1 -15c-2 -1 -2 3 -5 9c-8 16 -26 28 -58 28c-30 0 -65 -17 -89 -34c-26 -18 -50 -42 -91 -85c-27 -29 -53 -60 -71 -84c26 0 63 -1 81 -3
c9 -1 23 -1 22 -5c-1 -5 -13 -4 -21 -4c-35 0 -69 0 -92 -1c-45 -57 -112 -144 -108 -178c1 -12 11 -16 19 -16c17 0 40 9 71 31c14 10 38 31 54 44c7 7 13 11 15 8c4 -3 -2 -8 -6 -12c-16 -14 -41 -36 -57 -48c-14 -10 -53 -40 -99 -40c-39 0 -66 14 -67 46
c-2 52 68 132 95 165l-130 -2c-97 -119 -210 -221 -352 -221c-48 0 -104 21 -104 78c0 30 23 56 56 56c24 0 40 -18 38 -41c-1 -12 -7 -22 -16 -30s-13 -16 -13 -25c1 -21 23 -29 44 -29c107 0 203 138 260 211c-16 0 -43 0 -73 -1c-7 0 -20 -1 -19 6c0 3 10 4 29 6
c24 3 50 4 74 5c38 45 117 130 202 166z" />
    <glyph glyph-name="I" unicode="I" horiz-adv-x="483" 
d="M644 415c-21 -5 -84 -17 -114 -24c-47 -11 -99 -29 -145 -55c-33 -19 -64 -50 -64 -79c0 -17 11 -25 25 -25c10 0 20 4 26 8c5 3 8 7 10 5c2 -3 0 -6 -5 -11c-7 -6 -22 -13 -36 -14c-31 -2 -58 14 -58 43c0 38 38 72 88 94c42 20 109 36 157 46c38 8 98 17 116 23
c12 4 21 7 27 6c8 -1 7 -12 -2 -16c-32 -13 -66 -50 -95 -91c-33 -47 -60 -95 -89 -133c-112 -145 -235 -210 -378 -210c-73 0 -125 25 -125 77c0 35 27 67 63 67c32 0 44 -23 40 -44c-2 -10 -9 -22 -22 -32c-11 -10 -20 -18 -20 -31c0 -15 21 -27 58 -27
c108 0 208 84 296 201c43 57 76 99 104 128c38 38 89 78 143 94z" />
    <glyph glyph-name="J" unicode="J" horiz-adv-x="374" 
d="M200 -22c16 7 35 16 54 27c18 10 41 25 67 44c17 13 33 26 53 44c6 5 11 10 14 7s-3 -9 -12 -17c-18 -17 -38 -33 -57 -47c-19 -15 -56 -38 -70 -45c-26 -14 -43 -22 -60 -29c-17 -21 -46 -57 -71 -84c-67 -71 -133 -127 -212 -166c-36 -19 -88 -36 -132 -34
c-19 0 -59 5 -62 41c-5 45 58 96 177 146c58 25 119 47 202 78c68 91 149 191 200 247c38 41 99 100 150 138c37 27 84 54 102 63c15 7 19 9 19 11s-3 4 -10 4c-53 1 -152 -15 -236 -59c-91 -48 -161 -122 -161 -180c0 -22 9 -40 28 -44c12 -3 17 2 18 -2c1 -3 -8 -6 -18 -6
c-31 2 -59 24 -63 64c-6 55 37 128 144 177c73 34 199 63 292 59c11 0 25 -4 22 -15c-1 -4 -7 -10 -16 -17c-15 -12 -40 -32 -62 -54c-34 -34 -90 -96 -122 -135c-64 -76 -148 -179 -178 -216zM82 -72c-64 -23 -141 -54 -191 -75c-104 -46 -147 -99 -144 -135
c2 -19 16 -27 32 -28c44 -5 91 22 134 55c43 29 82 72 128 129c14 18 27 35 41 54z" />
    <glyph glyph-name="K" unicode="K" horiz-adv-x="670" 
d="M901 367c0 -47 -68 -82 -126 -77c-14 1 -30 6 -36 10c-3 2 -4 4 -3 6c1 1 4 0 6 -1c6 -3 19 -6 30 -7c55 -5 116 27 116 70c0 26 -23 41 -49 41c-60 0 -96 -54 -138 -110c-46 -61 -115 -93 -169 -106c19 -7 34 -21 41 -37c7 -18 0 -40 -14 -63c-19 -30 -37 -50 -37 -69
c0 -10 6 -17 19 -17c17 0 45 15 75 40c21 17 41 35 49 42c7 5 12 9 15 6s-4 -8 -9 -13c-12 -12 -32 -29 -51 -45c-29 -23 -65 -48 -108 -48s-59 20 -60 42c-2 27 14 54 31 76c18 23 36 43 36 60c0 9 -3 15 -7 20c-8 -3 -21 -6 -30 -6c-14 0 -29 4 -28 14c1 11 19 13 32 13
c10 0 22 -3 34 -8c50 24 76 69 119 118c58 65 129 101 202 100c31 -1 61 -18 60 -51zM-21 59v1c0 39 29 64 61 64c23 -1 41 -15 41 -40c-1 -14 -8 -25 -19 -38c-9 -9 -13 -16 -13 -27c0 -21 23 -29 44 -29c105 0 201 142 260 211c55 63 105 102 156 131v1
c-58 -33 -129 -44 -165 -44c-78 0 -129 20 -125 67c1 24 18 43 34 53c11 7 28 12 46 12c9 0 10 -3 2 -12c-7 -7 -23 -23 -26 -52c-3 -30 19 -57 70 -57c69 0 163 28 225 84c7 7 26 21 32 19c14 -3 3 -16 -11 -25c-20 -12 -41 -38 -66 -70c-28 -37 -58 -80 -79 -105
c-95 -120 -216 -222 -358 -222c-49 0 -109 21 -109 78zM483 188h1c4 0 16 2 21 5c-4 3 -11 6 -19 7c-11 1 -21 -1 -21 -5c0 -5 8 -7 18 -7z" />
    <glyph glyph-name="L" unicode="L" horiz-adv-x="599" 
d="M252 350v1c0 50 53 103 147 103c74 0 123 -25 158 -54c25 9 60 15 93 15c60 1 113 -26 107 -70c-9 -66 -134 -97 -214 -106c-33 -3 -69 -3 -99 0c-64 -96 -140 -152 -178 -177c14 -2 45 -10 87 -21c27 -7 65 -13 83 -13c60 0 107 13 164 66c3 2 8 7 11 4s-3 -9 -9 -14
c-68 -67 -109 -98 -174 -98c-34 0 -65 7 -100 20s-75 30 -91 33c-31 -23 -75 -50 -135 -51c-41 -1 -61 8 -60 23c1 33 88 56 149 57c25 1 42 -1 54 -2c50 50 76 125 120 185c-60 13 -113 48 -113 99zM449 248c30 -3 60 -1 95 3c56 7 168 42 177 102c4 36 -28 54 -66 54
c-27 0 -61 -11 -81 -26c6 -8 12 -18 16 -32c7 -23 4 -37 2 -37c-3 0 0 9 -15 35c-5 10 -13 19 -18 24c-35 -24 -73 -70 -110 -123zM262 351v-1c0 -45 54 -79 109 -91c55 80 122 119 167 135c-28 19 -74 40 -144 40c-85 0 -132 -39 -132 -83zM222 44c-22 6 -45 10 -71 9
c-32 -1 -66 -17 -65 -37c1 -11 13 -17 32 -16c34 1 78 20 104 44z" />
    <glyph glyph-name="M" unicode="M" horiz-adv-x="881" 
d="M89 -30h-1c-54 0 -117 14 -122 70c-3 37 26 70 62 70c28 0 44 -15 43 -36c0 -15 -9 -27 -19 -35s-18 -13 -20 -23c-4 -22 23 -34 69 -34c89 0 224 68 323 139c90 66 218 189 283 253c-42 7 -107 13 -194 13c-129 0 -228 -48 -241 -137c-4 -38 6 -85 69 -106
c8 -3 13 -3 12 -5c-1 -3 -9 -4 -19 -1c-59 16 -98 66 -94 120c8 104 120 160 268 154c80 -3 168 -21 208 -28c3 3 8 8 13 12c15 13 26 17 42 16c20 0 23 -8 11 -25c-3 -5 -7 -10 -8 -12c15 -2 46 -5 79 -4c36 0 83 4 120 19c35 14 64 34 72 49c8 12 5 18 9 19s7 -8 2 -23
c-4 -12 -19 -32 -36 -50c-49 -53 -129 -138 -175 -195c-50 -62 -101 -130 -102 -163c0 -9 7 -14 15 -14c15 0 42 13 74 39c21 16 31 25 43 36c6 5 11 9 14 6c2 -2 1 -5 -6 -12c-13 -12 -33 -30 -56 -46c-25 -20 -62 -42 -97 -42c-33 -1 -55 12 -55 42c0 31 30 74 71 128
c39 50 112 130 160 170v1c-57 -41 -132 -103 -197 -157c-75 -63 -123 -110 -186 -168c-12 -11 -27 -14 -38 -11c-16 4 -10 18 -4 26c46 65 153 248 204 312l-1 1c-55 -54 -173 -167 -252 -225c-106 -76 -237 -143 -343 -143zM597 94c37 34 114 100 181 155
c54 44 136 105 169 124v1c-20 -8 -66 -13 -96 -13c-23 0 -61 2 -83 5c-49 -68 -124 -209 -171 -272z" />
    <glyph glyph-name="N" unicode="N" horiz-adv-x="670" 
d="M-93 48v1c0 41 35 65 64 65c28 0 42 -14 42 -34c0 -13 -7 -22 -19 -33c-11 -9 -21 -18 -23 -29c-3 -21 20 -34 66 -34c81 0 190 45 281 115c91 69 166 152 217 249c6 12 18 28 29 39c14 13 32 24 49 24c16 0 20 -7 15 -14c-10 -14 -18 -33 -23 -55
c-7 -31 -10 -76 -14 -122c-6 -77 -14 -124 -26 -153h1c35 51 126 175 190 247c74 84 153 160 229 159c41 -1 64 -29 62 -63c-1 -5 -2 -11 -5 -11c-2 0 -1 5 -3 11c-6 18 -22 30 -54 31c-70 3 -156 -74 -218 -139c-94 -98 -164 -199 -234 -300c-6 -9 -16 -21 -31 -16
c-17 5 -20 16 -17 26c12 37 24 99 27 161c3 56 6 112 17 142h-1c-40 -77 -126 -166 -204 -225c-96 -72 -203 -117 -288 -119c-64 -1 -129 20 -129 77z" />
    <glyph glyph-name="O" unicode="O" horiz-adv-x="456" 
d="M161 52v-1c0 -19 6 -30 13 -38c3 -3 5 -4 4 -6s-5 -1 -8 2c-12 8 -21 22 -25 44c-5 42 15 108 67 171c70 87 167 137 225 134c37 -2 52 -31 52 -69c0 -39 -20 -103 -63 -156c-68 -83 -191 -151 -284 -148c-46 1 -110 17 -124 82c-18 82 44 172 96 221
c95 90 232 140 338 130c38 -4 69 -19 74 -55c2 -19 -6 -38 -17 -49c-5 -6 -12 -10 -14 -8c-1 3 2 3 8 12c8 10 14 27 12 44c-4 27 -33 43 -63 43c-99 3 -215 -86 -271 -145c-57 -61 -107 -153 -93 -216c6 -31 29 -49 66 -50c71 -2 146 52 228 152c47 59 80 118 84 166
c3 25 -13 36 -30 37c-51 3 -126 -50 -193 -135c-48 -61 -82 -123 -82 -162z" />
    <glyph glyph-name="P" unicode="P" horiz-adv-x="653" 
d="M402 281v1c0 25 -18 44 -42 45c-28 1 -53 -13 -66 -25s-15 -21 -18 -20c-2 1 2 13 14 26c11 11 36 31 73 29c29 -1 56 -20 58 -57c6 -82 -93 -161 -204 -159c-69 1 -122 29 -119 90c7 122 177 210 360 210c76 0 136 -14 171 -32c16 10 47 28 76 38c34 11 69 19 106 19
c30 0 61 -10 72 -28c2 -3 4 -8 1 -9c-1 -1 -2 2 -6 6c-12 13 -36 21 -66 21s-66 -9 -95 -21c-29 -13 -50 -29 -63 -40c56 -39 93 -101 57 -163c-37 -65 -128 -77 -186 -78c-20 0 -41 2 -52 5c-65 -63 -134 -91 -167 -105v-1c33 -8 71 -14 107 -16c30 -1 58 -1 80 12
c11 6 15 13 17 11c2 -1 0 -7 -9 -16c-25 -24 -65 -35 -96 -35c-47 0 -106 9 -145 19c-48 -15 -115 -20 -168 -20c-36 0 -90 7 -90 33s46 48 109 46c49 -2 116 -14 179 -30c55 40 83 92 142 164c73 89 129 142 186 180c-27 15 -93 31 -159 31c-165 0 -291 -86 -307 -202
c-5 -39 13 -76 65 -79c101 -4 185 93 185 150zM482 150c9 -3 24 -4 36 -3c38 3 94 26 127 84c37 65 18 112 -3 133c-48 -47 -85 -124 -130 -180c-10 -12 -21 -25 -30 -34zM239 13c-35 8 -103 22 -138 24c-50 4 -87 2 -87 -16c0 -19 52 -23 79 -23c53 0 114 5 146 15z" />
    <glyph glyph-name="Q" unicode="Q" horiz-adv-x="523" 
d="M392 279c0 19 -15 38 -48 37c-21 -1 -40 -10 -50 -19c-14 -12 -16 -20 -19 -18c-2 1 2 11 13 22s33 25 60 25c35 0 62 -18 63 -54c1 -26 -12 -57 -42 -84c-36 -32 -96 -53 -146 -52c-42 1 -82 23 -87 72c-5 50 28 106 78 144c53 41 145 72 209 72c85 0 154 -35 154 -104
c0 -81 -67 -135 -132 -180c-59 -41 -166 -83 -220 -100v-1c34 -8 87 -19 120 -19c64 0 112 17 176 71c5 5 12 10 14 7c3 -3 -1 -7 -4 -10c-60 -55 -125 -102 -195 -102c-55 0 -95 5 -176 27c-42 -13 -94 -25 -147 -25c-35 0 -82 5 -82 32c0 26 41 49 110 49
c44 0 98 -10 164 -23c50 20 120 58 185 115c60 52 103 110 108 170c4 48 -21 84 -76 84c-61 0 -128 -36 -184 -82c-44 -37 -78 -86 -78 -126c0 -42 27 -62 63 -63c45 -1 92 26 126 57c25 22 43 50 43 78zM143 20c-33 7 -80 17 -111 20c-43 4 -88 -1 -88 -19
c0 -19 43 -23 70 -23c49 0 102 13 129 22z" />
    <glyph glyph-name="R" unicode="R" horiz-adv-x="698" 
d="M794 433h-1c-26 0 -61 -10 -85 -19c-22 -9 -41 -19 -52 -26c32 -16 84 -65 54 -124c-25 -49 -105 -62 -147 -63v-1c26 -8 49 -25 51 -45c2 -18 -7 -38 -25 -62c-20 -28 -39 -48 -40 -69c-1 -7 4 -17 18 -17c21 0 48 17 78 40c21 17 35 29 46 40c6 5 12 10 15 7
c2 -2 0 -6 -6 -12c-14 -13 -32 -30 -56 -49c-21 -16 -56 -42 -99 -44c-51 -2 -66 18 -67 42c0 25 18 53 38 76s42 48 43 62c3 16 -10 24 -18 28c-5 -1 -13 -2 -19 -2s-11 2 -15 3c-11 -14 -26 -32 -41 -47c-75 -76 -160 -108 -195 -122c18 -5 61 -15 85 -15
c21 -1 40 4 57 15c12 7 14 12 16 12c3 0 2 -7 -8 -17c-25 -23 -58 -33 -94 -33c-25 0 -72 8 -100 16c-40 -12 -110 -20 -160 -19c-38 1 -90 8 -90 33c0 26 41 51 104 48c49 -3 118 -19 174 -35c50 30 98 92 179 190c74 88 143 138 186 163c-33 14 -82 25 -149 25
c-127 0 -268 -76 -289 -186c-10 -54 6 -98 54 -101c22 -2 25 4 27 1s-9 -11 -28 -11c-72 0 -123 46 -112 114c20 125 194 192 348 192c74 0 131 -12 164 -25c16 10 48 24 67 30c25 8 58 16 92 16c30 0 62 -9 72 -26c5 -8 5 -15 3 -15s0 2 -8 11c-13 14 -38 21 -67 21z
M643 375c-22 -19 -45 -47 -68 -79c-20 -27 -40 -57 -59 -83c3 0 9 0 15 -1c7 -1 13 -3 17 -5c33 5 77 26 101 67c25 43 19 81 -6 101zM209 12c-34 8 -98 21 -134 24c-50 4 -86 0 -86 -16s50 -22 78 -23c49 -1 115 7 142 15z" />
    <glyph glyph-name="S" unicode="S" horiz-adv-x="588" 
d="M393 219c48 18 102 40 153 58c42 59 89 104 129 129c22 14 54 27 79 27c18 0 36 -6 34 -27c-3 -33 -58 -74 -123 -101c-8 -4 -19 -8 -27 -11c-17 -29 -35 -67 -53 -102c-76 -152 -221 -209 -354 -218c-52 -3 -129 2 -173 29c-33 -27 -63 -62 -77 -88c-3 -5 -4 -10 -7 -9
s-1 9 0 12c10 27 35 61 69 95c-27 21 -49 55 -46 98c8 98 136 150 230 156c53 4 134 -8 166 -48zM643 307c6 2 16 6 21 8c53 23 109 58 114 91c2 14 -11 20 -25 18c-13 -2 -29 -12 -45 -28c-20 -19 -44 -53 -65 -89zM256 70h-1c-26 0 -56 7 -79 22c-19 -12 -36 -24 -55 -38
c-11 -9 -25 -19 -34 -28c35 -36 100 -47 153 -43c105 9 183 78 256 210c13 22 29 49 44 69v1c-45 -16 -96 -36 -140 -55c5 -8 9 -22 8 -35c-5 -67 -88 -103 -152 -103zM254 80h1c53 0 121 36 124 93c1 12 -1 20 -3 26c-20 -9 -44 -19 -68 -30c-33 -16 -78 -42 -123 -71
c21 -13 49 -18 69 -18zM372 210c-23 44 -97 52 -145 48c-70 -5 -163 -52 -170 -140c-2 -33 5 -60 18 -78c10 9 22 19 32 26c21 15 33 24 55 38c-10 9 -18 22 -20 36c-1 5 0 10 3 10c2 0 2 -3 4 -8c5 -15 12 -24 22 -33c43 26 91 51 133 71c22 10 46 21 68 30z" />
    <glyph glyph-name="T" unicode="T" horiz-adv-x="615" 
d="M726 523h-1c-56 0 -104 -22 -129 -52c-7 -8 -11 -16 -15 -28c-3 -7 -3 -13 -5 -13s-3 5 -2 13c3 11 8 24 16 34c24 33 74 59 137 59c77 0 136 -38 128 -99c-8 -67 -84 -103 -188 -100c-6 0 -16 2 -25 -1c-19 -7 -50 -28 -79 -62c-43 -49 -61 -92 -116 -140
c-75 -67 -167 -103 -233 -116v-1c22 -2 85 -9 157 -9c85 2 138 11 196 48c17 11 31 22 43 33c4 3 9 8 12 6c4 -3 0 -7 -5 -13c-11 -10 -29 -25 -47 -37c-61 -40 -122 -59 -215 -59c-86 0 -161 7 -204 13c-30 -4 -69 -7 -98 -8c-68 -2 -105 -2 -102 16c4 20 51 28 90 28
c42 0 104 -6 147 -13c37 7 73 27 116 63c58 50 84 90 141 149c56 57 124 93 177 105v1c-36 5 -76 11 -129 21c-59 11 -143 23 -202 23c-82 -1 -153 -29 -160 -90c-5 -45 37 -77 91 -79c61 -2 103 24 108 63c1 9 -1 22 -6 29c-3 4 -6 6 -4 7c2 2 10 -1 15 -4
c8 -5 21 -16 21 -34c-1 -44 -70 -72 -135 -70c-60 2 -106 37 -102 91c7 73 85 123 202 121c67 0 137 -12 189 -20c42 -7 106 -18 170 -21c86 -5 155 16 162 63c7 45 -40 83 -116 83z" />
    <glyph glyph-name="U" unicode="U" horiz-adv-x="586" 
d="M427 134c-47 -46 -159 -143 -237 -143c-39 0 -54 15 -53 42c1 38 40 92 123 185c66 75 99 126 106 153c7 30 -15 40 -36 40c-54 0 -120 -32 -176 -87c-41 -40 -80 -90 -80 -130c0 -24 12 -40 36 -41c17 -1 28 5 36 10c11 7 12 12 15 10s-5 -11 -12 -16
c-9 -7 -24 -14 -42 -13c-29 2 -47 20 -52 49c-8 45 23 110 76 154c62 52 144 74 203 74c56 0 95 -20 95 -58c0 -44 -48 -100 -97 -157c-56 -64 -119 -139 -124 -173c-2 -14 5 -20 16 -20c24 0 69 24 105 51c59 43 95 79 146 140c57 66 133 137 172 168c30 24 81 55 110 51
c18 -3 14 -24 -5 -45c-23 -25 -53 -47 -75 -63c-33 -24 -52 -37 -91 -70c-10 -11 -17 -21 -26 -32c-77 -102 -105 -152 -107 -174c-2 -12 1 -19 10 -21c13 -2 38 8 62 26c20 14 41 32 57 46c7 6 12 10 15 7c2 -2 -2 -7 -8 -13c-17 -17 -45 -39 -60 -50
c-14 -11 -61 -43 -100 -43c-33 -1 -50 16 -50 42c0 31 25 71 48 101zM611 277c20 15 41 29 60 43c29 20 55 44 65 54c21 22 26 36 19 39c-10 4 -33 -15 -54 -38c-29 -30 -59 -63 -90 -98z" />
    <glyph glyph-name="V" unicode="V" horiz-adv-x="528" 
d="M81 4c52 -1 113 10 175 30c73 23 149 60 215 112c101 79 136 133 147 153c4 6 6 13 6 21c0 11 -20 40 -28 62c-6 14 -6 40 16 40c25 0 41 -17 41 -48c0 -24 -9 -56 -20 -79c-20 -43 -59 -112 -142 -175c-64 -51 -150 -82 -230 -102c-75 -19 -150 -27 -208 -27
c-15 -4 -35 -9 -53 -11c-36 -3 -49 1 -49 10c0 13 15 21 44 22c23 1 47 -4 65 -6c45 17 117 66 186 135c54 54 112 126 121 195c7 50 -18 76 -60 76c-51 0 -108 -27 -149 -59c-43 -34 -76 -87 -81 -127c-5 -37 8 -62 43 -64c38 -3 78 31 106 61c22 24 42 60 44 81
c1 9 0 18 -3 24c-2 3 -4 6 -3 7c2 2 6 -1 7 -4c5 -5 12 -18 12 -36c-1 -26 -15 -57 -37 -83c-25 -28 -78 -61 -128 -59c-44 2 -71 32 -69 76c2 39 32 92 86 130c50 36 118 60 168 62c68 4 149 -18 140 -108c-6 -65 -59 -131 -128 -187c-47 -39 -161 -104 -234 -122z" />
    <glyph glyph-name="W" unicode="W" horiz-adv-x="650" 
d="M307 412c-50 1 -108 -27 -149 -59c-43 -34 -76 -86 -81 -127c-4 -34 8 -63 43 -65c38 -2 76 29 106 62c22 24 42 60 44 81c1 7 0 17 -3 24c-2 3 -4 6 -3 7c2 1 5 0 8 -4c4 -5 11 -18 11 -36c-1 -27 -15 -58 -37 -83c-25 -29 -78 -63 -128 -59c-44 3 -73 31 -70 75
c3 39 32 90 85 129c49 36 115 61 170 64c68 3 152 -24 136 -109c-13 -73 -110 -191 -175 -257l1 -1c32 22 63 47 113 83c42 30 91 66 123 91c11 34 25 64 36 82c33 51 76 77 102 75c18 -1 31 -15 25 -40c-8 -38 -62 -73 -89 -97c-15 -62 -35 -151 -67 -194l1 -1
c34 33 118 105 178 159c96 87 125 151 131 187c2 14 2 27 -5 34c-7 6 -14 4 -13 7c1 2 5 3 10 3c38 0 59 -24 56 -55c-5 -41 -56 -99 -167 -190c-79 -65 -162 -131 -216 -184c-9 -9 -28 -27 -50 -27c-23 0 -16 18 -11 26c33 51 52 141 74 198v1c-19 -16 -79 -62 -129 -98
c-41 -30 -115 -83 -150 -107c-26 -17 -43 -24 -56 -24c-17 0 -22 10 -9 24c36 40 79 87 123 149s85 131 92 180c7 50 -18 75 -60 76zM578 265c21 17 66 49 75 80c5 18 -2 30 -16 30c-15 0 -28 -22 -34 -36c-11 -23 -19 -52 -25 -74z" />
    <glyph glyph-name="X" unicode="X" horiz-adv-x="513" 
d="M499 314c40 35 128 102 202 102c33 0 53 -17 50 -41c-4 -48 -85 -78 -120 -85c-8 -2 -14 -2 -15 1c0 3 4 3 14 6c37 10 77 39 84 75c3 17 -5 32 -23 33c-71 2 -171 -98 -246 -193c-49 -63 -88 -124 -97 -164c-6 -29 4 -41 24 -41c21 0 51 16 80 36c14 10 39 31 54 44
c6 5 13 12 16 9c2 -3 -1 -7 -7 -13c-15 -15 -43 -38 -57 -48c-14 -11 -56 -42 -105 -44c-58 -1 -83 22 -79 59c2 18 10 34 18 45l-1 1c-62 -57 -138 -110 -231 -110c-48 0 -93 15 -97 62c-2 33 21 71 62 71c20 0 38 -11 38 -32c0 -14 -6 -24 -16 -35
c-11 -12 -20 -19 -20 -34c0 -13 12 -23 36 -23c111 0 217 108 286 196c50 63 98 143 106 175c8 35 -15 46 -39 46c-51 0 -118 -33 -174 -88c-41 -40 -79 -90 -80 -130c-1 -24 12 -41 36 -42c18 0 29 6 36 11c8 6 12 11 14 10c3 -2 -3 -10 -11 -16c-9 -7 -24 -14 -41 -13
c-29 1 -48 20 -51 50c-3 48 23 105 72 148c61 55 149 79 199 79c65 0 101 -20 101 -58c-1 -18 -7 -33 -18 -49z" />
    <glyph glyph-name="Y" unicode="Y" horiz-adv-x="542" 
d="M437 144c-57 -57 -169 -153 -247 -153c-39 0 -54 15 -53 42c1 38 40 92 123 185c66 75 99 126 106 153c7 30 -15 41 -36 41c-54 0 -120 -33 -176 -88c-41 -40 -80 -90 -80 -130c0 -24 11 -41 35 -42c18 0 29 6 37 11c9 6 12 12 15 10c2 -2 -4 -10 -12 -16
c-10 -7 -22 -13 -41 -13c-29 0 -49 20 -53 49c-6 46 22 111 73 155c62 53 146 74 206 74c56 0 96 -20 95 -59c-1 -44 -48 -100 -97 -157c-56 -64 -119 -139 -124 -173c-2 -14 5 -20 16 -20c24 0 69 24 105 51c59 43 95 79 146 140c57 66 109 125 157 170c21 19 70 54 102 49
c20 -3 20 -24 5 -43c-18 -24 -48 -49 -68 -65c-29 -24 -47 -37 -81 -70c-18 -25 -94 -128 -130 -178c-39 -55 -64 -92 -87 -123c101 3 160 -46 148 -121c-2 -14 -8 -21 -11 -20s0 3 2 19c8 71 -46 117 -146 112c-30 -43 -62 -85 -106 -135c-93 -107 -207 -163 -266 -163
c-24 0 -49 9 -46 42c5 58 86 134 148 176c65 44 141 72 195 83c51 73 115 164 146 207zM613 278c18 15 34 28 51 42c24 20 43 37 57 54c18 21 21 35 14 39c-10 6 -30 -15 -48 -38c-24 -30 -48 -62 -74 -97zM283 -75c-50 -12 -116 -38 -177 -80c-51 -35 -123 -114 -126 -169
c-1 -18 8 -26 19 -28c19 -3 41 5 64 19c33 21 85 74 128 132c24 32 57 78 92 126z" />
    <glyph glyph-name="Z" unicode="Z" horiz-adv-x="482" 
d="M459 327c-43 -24 -101 -42 -143 -43c-56 -2 -97 11 -94 56c4 48 72 83 132 85c7 0 15 -1 15 -5c0 -3 -7 -2 -15 -3c-34 -3 -71 -21 -73 -48c-2 -28 27 -37 53 -39c51 -3 105 4 143 18c13 15 30 32 51 49c18 15 34 23 47 20c8 -2 13 -13 4 -23c-16 -19 -50 -34 -79 -50
c-25 -22 -86 -68 -135 -104c-43 -32 -80 -58 -104 -75v-1c11 2 23 3 41 1c67 -5 109 -47 112 -121c21 12 47 32 64 46c6 5 13 11 16 9c4 -4 -7 -13 -11 -17c-13 -13 -45 -37 -68 -49c-3 -80 -62 -154 -140 -220c-113 -96 -294 -173 -383 -172c-39 1 -62 16 -63 46
c-2 72 115 141 211 190c115 60 200 84 291 133c9 39 11 86 -11 111c-21 23 -64 26 -85 22c-19 -15 -39 -29 -61 -43c-39 -25 -65 -34 -73 -21c-7 12 22 39 57 55c27 13 59 24 80 28c24 16 63 45 102 74c45 33 89 68 119 91zM328 -3c-87 -47 -183 -79 -282 -132
c-93 -50 -208 -111 -206 -178c1 -25 24 -36 51 -36c80 0 215 69 310 167c65 67 112 129 127 179zM215 140c-13 -1 -33 -8 -52 -17c-28 -13 -48 -29 -45 -35s23 3 49 20c19 12 37 24 48 32z" />
    <glyph glyph-name="bracketleft" unicode="[" horiz-adv-x="258" 
d="M504 463l-5 -7c-16 -1 -39 -3 -62 -6c-21 -3 -28 -4 -41 -22c-44 -58 -117 -161 -184 -245c-56 -71 -138 -166 -191 -228c-19 -22 -11 -28 10 -30c24 -2 59 -6 59 -6l-4 -6h-130c18 24 112 159 203 274c88 111 198 241 228 276h117z" />
    <glyph glyph-name="backslash" unicode="\" horiz-adv-x="239" 
d="M141 -86h-1c-4 0 -7 5 -9 13c-40 178 -68 294 -96 414c-3 14 4 28 16 39c15 13 23 -2 27 -30c15 -107 43 -279 67 -417c2 -11 2 -19 -4 -19z" />
    <glyph glyph-name="bracketright" unicode="]" horiz-adv-x="258" 
d="M-14 -87h-117l5 7c16 1 39 3 62 6c21 3 28 4 41 22c44 58 117 161 184 245c56 71 138 166 191 228c19 23 12 27 -10 30c-25 2 -59 6 -59 6l4 6h130c-18 -24 -112 -159 -203 -273c-88 -111 -198 -242 -228 -277z" />
    <glyph glyph-name="asciicircum" unicode="^" horiz-adv-x="307" 
d="M213 255h1c2 0 5 -5 8 -10c12 -21 41 -66 69 -101c2 -3 5 -7 3 -9s-9 0 -16 4c-16 9 -53 33 -78 59c-31 -21 -120 -59 -142 -67c-6 -2 -11 -3 -13 0c-2 4 5 8 8 10c46 30 119 84 145 106c5 4 9 8 15 8z" />
    <glyph glyph-name="underscore" unicode="_" horiz-adv-x="500" 
d="M445 -105v-37h-509v37h509z" />
    <glyph glyph-name="quoteleft" unicode="&#x2018;" horiz-adv-x="122" 
d="M90 266v1c0 2 2 7 6 13c20 31 55 64 76 79c6 4 10 6 11 5c4 -2 -1 -7 -5 -11c-11 -14 -24 -31 -26 -49c-2 -10 4 -13 3 -24c-1 -10 -22 -21 -46 -24c-13 -1 -19 2 -19 10z" />
    <glyph glyph-name="a" unicode="a" horiz-adv-x="335" 
d="M223 140c25 27 32 31 64 31c28 0 32 -4 22 -16c-18 -21 -34 -40 -54 -66c-13 -17 -29 -38 -34 -49c-5 -9 -5 -17 -1 -20c5 -4 15 -1 24 3c10 4 27 16 43 29c21 17 38 32 49 42c4 3 10 9 13 6s-4 -10 -10 -16c-13 -12 -40 -36 -59 -51c-35 -27 -63 -42 -95 -42
c-24 0 -37 9 -40 24c-2 12 4 26 11 35l-1 1c-26 -23 -74 -60 -122 -60c-32 -1 -55 9 -54 39c1 16 10 35 31 57l-1 1c-1 -1 -8 -7 -11 -9c-7 -6 -11 -8 -13 -6c-2 3 1 7 9 15c11 10 25 21 36 28c18 13 38 24 63 35c29 13 65 25 98 23c28 -1 35 -19 32 -34zM196 163h-1
c-19 0 -56 -29 -93 -65c-38 -38 -57 -66 -55 -79c1 -7 6 -10 13 -10c19 0 57 22 84 47c31 28 69 73 70 89c1 13 -7 18 -18 18z" />
    <glyph glyph-name="b" unicode="b" horiz-adv-x="348" 
d="M321 134c-3 -31 -26 -65 -64 -94c-40 -31 -95 -47 -135 -47h-1c-28 0 -46 5 -46 22c0 19 24 27 63 38c28 8 61 15 79 23c9 11 26 35 31 50c4 11 8 30 -9 30c-18 0 -51 -17 -87 -45c-44 -34 -72 -59 -112 -101c-8 -9 -23 -12 -39 -13c-28 -2 -37 1 -29 15
c11 21 27 43 43 67c10 15 19 26 31 42h-1c-15 -13 -25 -22 -35 -32c-10 -8 -15 -11 -17 -8c-2 2 1 7 7 12c19 17 42 37 66 57c34 45 76 98 118 148c80 95 182 188 242 230c29 21 69 42 99 41c23 -1 34 -15 31 -36c-5 -58 -96 -139 -193 -212c-63 -47 -167 -117 -203 -149
c-16 -20 -57 -77 -71 -97l2 -1c23 21 57 49 87 68c20 13 59 34 97 32c34 0 48 -17 46 -40zM115 6c17 1 35 9 48 17c17 11 32 24 46 42c-12 -6 -46 -14 -62 -19c-36 -10 -54 -18 -53 -31c1 -8 9 -10 21 -9zM173 195c55 45 126 98 172 137c97 83 180 166 184 207
c2 13 -4 19 -16 19c-16 0 -43 -17 -67 -40c-34 -33 -77 -82 -128 -143c-60 -72 -99 -120 -145 -180z" />
    <glyph glyph-name="c" unicode="c" horiz-adv-x="237" 
d="M55 -9h-1c-44 0 -66 18 -66 45c0 19 11 39 26 55l-1 1c-3 -2 -10 -9 -13 -12c-8 -7 -13 -9 -15 -7c-2 3 0 6 6 12c13 12 23 20 35 28c11 8 33 23 50 31c32 16 74 32 106 30c31 -1 46 -17 42 -38s-22 -38 -38 -38c-20 0 -23 17 -13 34c13 22 19 30 9 32
c-11 3 -34 -13 -62 -42c-27 -27 -53 -65 -56 -89c-2 -14 7 -23 23 -23c13 0 48 7 92 36c19 13 41 32 58 46c7 7 10 7 12 5s-1 -7 -10 -15c-12 -11 -35 -31 -56 -45c-35 -24 -87 -46 -128 -46z" />
    <glyph glyph-name="d" unicode="d" horiz-adv-x="335" 
d="M196 163h-1c-19 0 -56 -29 -93 -65c-38 -38 -57 -66 -55 -79c1 -7 6 -10 13 -10c19 0 57 22 84 47c31 28 69 73 70 89c1 13 -7 18 -18 18zM93 151c27 13 64 25 98 23c28 -1 36 -19 31 -35l1 -1c33 47 78 102 128 160c35 41 69 79 115 121c14 13 30 21 56 21
c12 0 23 -3 24 -8c-27 -26 -77 -82 -114 -124c-33 -38 -67 -80 -126 -153c-33 -41 -78 -101 -85 -115c-5 -9 -5 -17 -1 -20c5 -4 15 -1 24 3c10 4 27 16 43 29c21 17 37 31 49 42c4 3 10 9 13 6s-3 -9 -9 -15c-12 -12 -41 -37 -60 -52c-35 -27 -63 -42 -95 -42
c-24 0 -37 9 -40 24c-2 12 4 26 11 35l-1 1c-26 -23 -74 -60 -122 -60c-32 -1 -55 9 -54 39c1 16 13 38 31 57l-1 1c-1 -1 -7 -6 -11 -9c-6 -6 -11 -8 -13 -6c-2 3 2 8 10 15c7 8 24 21 35 28c18 13 37 24 63 35z" />
    <glyph glyph-name="e" unicode="e" horiz-adv-x="237" 
d="M83 8c15 0 51 9 95 38c19 13 43 32 60 48c6 5 9 5 11 3c2 -3 -2 -8 -11 -16c-12 -11 -36 -31 -59 -46c-41 -28 -82 -43 -121 -44c-56 -2 -71 19 -70 45c0 18 10 37 26 55l-1 1c-3 -3 -11 -10 -14 -13c-8 -6 -12 -8 -14 -6c-2 3 0 6 6 12c12 11 22 19 34 28
c11 8 34 22 51 31c38 19 74 31 109 31h1c32 0 44 -14 43 -30c-2 -27 -35 -47 -66 -62c-29 -14 -73 -26 -98 -31c-4 -6 -6 -15 -6 -22c0 -15 8 -22 24 -22zM70 62c18 3 44 13 69 31c26 19 42 43 44 56c2 9 -2 15 -11 15c-10 0 -28 -10 -54 -38c-20 -22 -37 -44 -48 -64z" />
    <glyph glyph-name="f" unicode="f" horiz-adv-x="188" 
d="M519 569h1c28 0 35 -19 29 -40c-8 -37 -86 -121 -195 -207c-67 -53 -143 -107 -186 -140c-51 -62 -101 -128 -138 -179c10 2 31 10 45 16c15 6 38 18 60 33c19 12 42 31 53 41c6 5 12 10 15 7s-4 -10 -12 -17c-15 -14 -36 -31 -61 -47c-30 -18 -55 -28 -79 -38
c-11 -5 -20 -9 -25 -16c-7 -10 -9 -16 -14 -32c-17 -60 -41 -123 -78 -190c-33 -59 -82 -117 -122 -148c-18 -14 -39 -21 -54 -18c-19 3 -30 19 -25 47c9 49 73 163 144 260c48 65 110 145 167 218l-1 1c-11 -10 -24 -22 -34 -31c-8 -7 -12 -10 -15 -8c-2 3 -1 6 6 12
c20 18 45 40 67 58c47 60 89 112 119 148c57 67 151 164 201 204c53 43 101 66 132 66zM180 202c46 36 117 90 162 130c98 90 161 159 179 204c7 14 3 25 -10 24c-16 -1 -42 -21 -64 -42c-33 -32 -75 -80 -127 -142c-45 -54 -104 -129 -140 -174zM10 -25
c-45 -57 -73 -97 -126 -176c-33 -50 -82 -123 -98 -161c-4 -10 -4 -19 2 -22s12 0 24 9c26 20 68 71 110 144c37 65 75 163 88 206z" />
    <glyph glyph-name="g" unicode="g" horiz-adv-x="335" 
d="M71 -74c-51 -32 -96 -51 -189 -113c-84 -56 -157 -125 -162 -177c-1 -16 5 -25 15 -28c16 -4 42 5 63 17c48 27 104 79 183 180c41 51 70 93 90 121zM196 163h-1c-19 0 -56 -29 -93 -65c-38 -38 -57 -66 -55 -79c1 -7 6 -10 13 -10c19 0 57 22 84 47c31 28 69 73 70 89
c1 13 -7 18 -18 18zM93 151c28 13 65 25 98 23c28 -1 35 -20 32 -34h1c26 27 32 31 63 31c27 0 29 -5 21 -15c-18 -21 -33 -41 -53 -67c-17 -22 -53 -72 -83 -112c24 13 80 49 109 71c21 17 40 33 54 45c4 5 10 7 12 5c2 -3 -3 -9 -10 -15c-14 -13 -35 -31 -60 -49
c-36 -27 -84 -57 -116 -75c-31 -47 -71 -103 -101 -141c-81 -102 -181 -171 -258 -205c-27 -13 -54 -19 -75 -19c-35 0 -55 13 -53 42c2 61 108 138 198 192c94 57 142 74 208 116c19 25 56 79 72 103l-1 1c-27 -23 -73 -57 -118 -57c-32 -1 -55 9 -54 39c1 16 13 38 31 57
l-1 1c-1 -1 -7 -6 -11 -9c-6 -6 -11 -8 -13 -6c-2 3 2 8 10 15c10 10 24 21 35 28c18 13 37 24 63 35z" />
    <glyph glyph-name="h" unicode="h" horiz-adv-x="368" 
d="M171 192c55 46 128 101 174 140c97 82 180 166 184 207c2 13 -4 19 -16 19c-16 0 -44 -18 -67 -40c-34 -33 -77 -82 -128 -143c-60 -72 -101 -122 -147 -183zM313 34c-22 -16 -61 -41 -96 -41c-38 -1 -45 19 -43 36c2 19 16 35 37 61c14 17 29 35 40 49c4 5 5 11 -1 13
c-5 3 -16 -1 -29 -7c-19 -10 -45 -27 -72 -49c-44 -35 -69 -57 -111 -91c-9 -7 -29 -8 -40 -9c-26 -1 -31 2 -25 16c10 19 24 43 41 67c12 16 24 31 34 43l-1 1c-17 -15 -35 -32 -45 -41c-5 -4 -9 -5 -11 -2c-1 3 3 8 9 13c13 12 42 36 66 57c34 45 76 98 118 148
c80 95 182 189 242 230c38 26 71 41 99 41c23 0 33 -16 31 -36c-5 -57 -96 -139 -193 -212c-63 -47 -167 -117 -203 -149c-20 -24 -55 -75 -91 -126l2 -1c20 17 53 45 88 72c31 23 81 57 125 57c26 0 40 -11 39 -30c-3 -18 -22 -41 -38 -61c-15 -19 -25 -31 -31 -41
c-7 -12 -8 -19 -2 -23c5 -3 16 0 24 5c14 7 30 17 44 28c15 12 39 33 49 42c7 6 10 8 12 5c2 -2 1 -5 -4 -10c-11 -11 -44 -40 -64 -55z" />
    <glyph glyph-name="i" unicode="i" horiz-adv-x="193" 
d="M237 308h1c19 0 26 -14 11 -33c-16 -20 -48 -35 -61 -35c-6 8 -8 29 -1 44c8 20 27 24 50 24zM97 150c-14 -5 -34 -18 -57 -36c-15 -12 -29 -24 -39 -33c-8 -6 -12 -10 -15 -7c-3 2 0 6 8 14c10 9 43 38 72 56c26 18 50 27 80 27c34 0 39 -4 27 -16
c-22 -25 -37 -42 -56 -66c-17 -21 -28 -38 -34 -49c-6 -12 -7 -19 -3 -22s12 -1 22 4c11 5 27 16 44 30c21 17 31 26 47 40c7 7 11 10 14 7s-4 -9 -9 -14c-12 -12 -40 -37 -58 -51c-29 -22 -61 -43 -100 -43c-29 0 -39 12 -39 28c0 13 7 27 14 38c20 33 67 83 82 93z" />
    <glyph glyph-name="j" unicode="j" horiz-adv-x="204" 
d="M115 157c-2 0 -10 -3 -19 -7c-13 -6 -33 -18 -56 -36c-15 -12 -30 -25 -40 -34c-7 -6 -11 -8 -14 -6c-2 2 0 6 8 14c10 9 43 38 72 56c25 17 50 27 80 27c34 0 47 -4 36 -16c-22 -24 -39 -44 -56 -66c-23 -28 -53 -68 -83 -107c28 13 69 38 98 59c21 15 47 38 63 52
c4 4 11 9 14 6s-2 -8 -12 -17c-15 -14 -37 -33 -60 -50c-33 -24 -83 -53 -112 -67c-43 -63 -101 -136 -143 -182c-95 -105 -235 -189 -301 -189c-30 0 -59 8 -56 42c5 57 93 131 205 196c72 43 130 74 207 117c18 25 46 67 75 106c40 54 76 92 94 102zM-65 -68
c-58 -33 -100 -57 -193 -119c-85 -56 -157 -125 -162 -177c-1 -16 4 -24 16 -27c15 -5 40 3 63 17c45 26 104 78 183 179c40 51 73 97 93 127zM238 308h1c19 0 26 -14 11 -33c-16 -20 -48 -35 -61 -35c-6 8 -8 29 -1 44c9 20 26 24 50 24z" />
    <glyph glyph-name="k" unicode="k" horiz-adv-x="361" 
d="M48 122l-1 1c-17 -15 -35 -32 -45 -41c-5 -4 -9 -5 -11 -2c-1 3 3 8 9 13c13 12 42 36 66 57c32 43 76 98 118 148c80 95 180 186 242 230c33 23 68 41 99 41c23 0 34 -16 31 -36c-6 -60 -96 -139 -193 -212c-63 -47 -167 -117 -203 -149c-17 -20 -78 -105 -91 -125l1 -1
c27 24 52 48 86 75c23 17 47 33 67 42c18 7 36 12 60 11c32 0 48 -17 45 -34c-2 -15 -18 -24 -45 -28c-19 -3 -37 -6 -44 -14c-6 -8 -8 -26 -7 -43c2 -25 7 -35 17 -37c7 -1 17 3 26 8s22 13 38 26c21 17 38 31 50 42c3 3 9 8 12 5s-4 -9 -11 -16c-13 -12 -34 -31 -58 -50
c-26 -20 -59 -40 -99 -40c-33 0 -48 14 -46 48c2 27 14 47 22 54c10 9 31 13 45 15c11 2 20 5 28 14c6 7 12 26 1 32c-7 4 -22 1 -35 -5c-24 -11 -47 -27 -75 -50c-39 -32 -83 -76 -109 -94c-9 -7 -22 -10 -40 -11c-28 -1 -31 3 -25 16c9 18 24 41 41 67c10 14 22 28 34 43z
M171 192c55 46 128 101 174 140c97 82 180 166 184 207c2 13 -4 19 -16 19c-16 0 -46 -20 -67 -40c-34 -33 -77 -82 -128 -143s-92 -112 -147 -183z" />
    <glyph glyph-name="l" unicode="l" horiz-adv-x="192" 
d="M49 123l-1 1c-17 -15 -36 -33 -46 -42c-5 -4 -9 -5 -11 -2c-1 3 3 8 9 13c13 12 42 36 69 59c25 33 77 97 120 146c34 40 75 83 113 118c14 14 35 25 58 25c15 0 25 -5 27 -10c-21 -17 -102 -105 -151 -165c-67 -81 -149 -189 -162 -223c-4 -10 -5 -19 0 -23
c6 -4 16 -1 22 2c14 6 30 16 48 30c16 12 35 29 48 41c6 5 10 9 13 6s-2 -8 -9 -15c-12 -11 -39 -35 -59 -50c-28 -20 -65 -43 -104 -43c-30 0 -41 13 -41 31c1 28 30 70 57 101z" />
    <glyph glyph-name="m" unicode="m" horiz-adv-x="593" 
d="M46 132c21 16 57 42 88 42c27 0 36 -11 36 -25s-11 -30 -22 -44c-15 -20 -32 -41 -46 -59l2 -1c16 13 51 43 94 73c34 25 79 56 120 56c34 0 39 -18 37 -33c-2 -14 -17 -35 -34 -57c-15 -18 -25 -31 -31 -38l2 -2c19 17 55 46 92 73c31 23 81 57 125 57
c26 0 40 -11 39 -30c-3 -18 -22 -41 -38 -61c-15 -19 -25 -32 -31 -41c-7 -12 -8 -19 -2 -23c5 -3 16 0 24 5c14 7 30 18 45 29c15 12 38 32 48 41c6 5 9 8 12 5c2 -2 1 -5 -4 -10c-11 -11 -44 -40 -64 -55c-22 -16 -61 -41 -96 -41c-37 -1 -45 17 -43 35c2 19 15 36 37 62
c14 17 29 35 40 49c4 5 5 11 -1 13c-5 3 -16 -1 -29 -8c-19 -9 -45 -27 -73 -48c-45 -34 -71 -56 -113 -90c-8 -6 -25 -9 -42 -10c-27 -1 -28 3 -23 16c9 20 33 52 53 78c16 20 31 38 38 49c4 6 4 11 -1 13c-7 3 -19 -3 -28 -8c-18 -9 -47 -29 -70 -47
c-46 -34 -72 -55 -114 -89c-11 -9 -21 -11 -42 -12c-26 -1 -31 2 -25 16c9 17 29 45 46 67c16 22 30 38 42 54c5 7 7 12 3 15c-3 3 -8 1 -15 -3c-10 -6 -24 -16 -37 -26c-14 -11 -33 -27 -44 -38c-9 -8 -14 -11 -17 -8c-1 2 1 6 10 14c13 13 34 32 52 45z" />
    <glyph glyph-name="n" unicode="n" horiz-adv-x="407" 
d="M257 -7c-38 -1 -46 18 -43 36c2 18 16 36 36 61c15 17 30 35 41 49c4 5 5 11 -1 13c-6 3 -17 -1 -29 -7c-20 -10 -46 -27 -74 -48c-46 -34 -72 -55 -114 -89c-11 -9 -21 -11 -42 -12c-26 -1 -31 2 -25 16c9 17 28 45 46 67c15 20 30 38 42 54c5 7 7 12 3 15
c-3 3 -8 1 -15 -3c-12 -7 -25 -16 -37 -26c-14 -11 -33 -27 -44 -38c-9 -8 -14 -11 -17 -8c-1 2 1 6 10 14c13 13 34 32 52 46c27 21 57 41 89 41c27 0 35 -11 35 -25s-11 -30 -22 -44c-15 -20 -32 -41 -46 -59l2 -1c20 17 55 45 94 73c34 25 82 56 125 56
c27 0 41 -11 39 -30c-1 -18 -21 -41 -37 -61c-15 -19 -25 -32 -31 -41c-7 -12 -8 -19 -3 -23c5 -3 16 0 25 5c14 7 29 16 43 28c15 12 39 33 50 42c6 6 9 8 12 5c2 -2 0 -5 -5 -10c-11 -11 -43 -40 -64 -55c-22 -16 -60 -41 -95 -41z" />
    <glyph glyph-name="o" unicode="o" horiz-adv-x="293" 
d="M19 97c-5 -4 -10 -8 -17 -15c-10 -9 -13 -11 -16 -8c-2 3 2 7 6 12c9 9 21 18 33 27c10 7 25 17 42 26c29 16 75 35 111 35c13 0 23 -1 23 -6c0 -2 -6 -3 -14 -7c-23 -11 -45 -29 -72 -55c-27 -27 -57 -69 -57 -91c-1 -7 3 -14 13 -14c23 0 66 30 98 63c0 11 3 26 16 45
c11 16 24 24 33 30c1 5 0 13 0 17c-2 9 -6 12 -3 14s14 -1 22 -7c10 -7 18 -19 18 -35c-1 -24 -24 -57 -57 -85c3 -2 10 -2 14 -2c12 1 25 7 38 16c18 13 33 27 43 36c6 6 10 9 13 6c3 -2 1 -6 -5 -11c-11 -10 -29 -26 -47 -39c-14 -10 -27 -17 -43 -18c-8 0 -18 2 -22 5
c-26 -20 -84 -45 -125 -45c-50 0 -70 20 -71 48c0 19 9 39 27 57z" />
    <glyph glyph-name="p" unicode="p" horiz-adv-x="376" 
d="M101 173c-46 -42 -88 -81 -101 -92c-8 -8 -11 -10 -14 -7s1 7 8 13c18 17 53 50 73 68c18 17 56 51 89 81c12 10 29 22 53 22c24 1 28 -5 11 -25c-58 -69 -160 -200 -256 -331c-89 -119 -112 -152 -179 -257c-9 -14 -8 -18 -6 -20c3 -2 8 1 12 6c13 15 50 67 79 108
c20 29 67 91 115 155c40 54 82 107 120 152c25 30 61 66 88 86c28 20 62 42 99 42c31 0 44 -13 41 -31c-2 -17 -23 -40 -40 -60c-16 -19 -26 -32 -32 -42c-7 -11 -7 -18 -3 -21c5 -4 16 -1 25 3c12 6 27 16 45 29c18 14 37 31 47 40c5 5 11 11 14 8s-1 -8 -4 -11
c-13 -12 -43 -39 -65 -55c-21 -15 -57 -41 -99 -41c-28 0 -40 13 -40 29c0 22 20 47 37 68c15 18 35 40 43 50c5 7 4 12 0 13c-6 2 -15 -1 -22 -4c-32 -16 -65 -42 -103 -83c-29 -32 -93 -110 -146 -182c-48 -63 -91 -122 -121 -165c-32 -47 -68 -97 -87 -113
c-8 -7 -22 -15 -42 -14c-17 1 -27 11 -27 25c0 22 18 53 38 84c48 71 78 114 139 197c48 66 160 212 211 275z" />
    <glyph glyph-name="q" unicode="q" horiz-adv-x="322" 
d="M191 174c29 -2 35 -21 32 -34c28 29 39 31 64 31c22 0 33 -4 23 -16c-18 -21 -40 -48 -63 -77c-19 -23 -57 -74 -133 -177c-88 -120 -111 -150 -178 -256c-7 -11 -9 -19 -4 -21c3 -1 8 2 14 10c13 13 47 62 73 100c26 37 62 87 113 154c42 53 84 100 125 143
c23 23 49 47 64 61c8 6 12 10 15 7s-2 -8 -11 -16c-15 -14 -37 -33 -59 -56c-38 -39 -86 -93 -126 -145c-60 -78 -87 -118 -119 -164c-28 -40 -52 -77 -73 -100c-13 -15 -32 -27 -55 -26c-19 0 -28 11 -28 25c0 21 16 48 37 82c36 57 81 119 139 198c47 64 86 115 115 154
l-1 1c-26 -24 -73 -60 -122 -61c-32 -1 -55 9 -54 39c1 16 11 36 31 57l-1 1c-1 -1 -7 -6 -11 -9c-6 -6 -11 -8 -13 -6c-2 3 2 8 10 15c10 10 24 21 35 28c18 13 37 24 63 35c28 13 65 25 98 23zM196 163h-1c-19 0 -56 -29 -93 -65c-38 -38 -57 -66 -55 -79
c1 -7 6 -10 13 -10c19 0 57 22 84 47c31 28 69 73 70 89c1 13 -7 18 -18 18z" />
    <glyph glyph-name="r" unicode="r" horiz-adv-x="230" 
d="M190 145v-1c0 -13 -15 -27 -39 -57c-13 -16 -26 -33 -34 -47c-6 -9 -6 -16 -2 -20s13 -2 22 3c13 6 28 16 45 29c22 18 36 30 48 41c4 4 11 9 14 7c3 -3 -4 -9 -10 -15c-12 -13 -35 -33 -59 -51c-21 -17 -53 -40 -92 -41c-39 -2 -51 14 -50 30c0 22 20 46 45 68
c27 23 62 50 65 57c4 11 -16 9 -40 8c-11 -1 -19 0 -23 2c-9 -10 -23 -25 -39 -39c-15 -15 -29 -28 -40 -38c-9 -7 -13 -10 -15 -7c-2 2 -1 6 7 12c12 12 26 24 42 39c13 12 28 27 37 37c-9 6 -11 21 1 34c8 10 25 18 42 18c14 0 24 -4 28 -10c-7 -5 -13 -10 -19 -16
c-13 -16 -10 -22 3 -23c26 -2 62 -2 63 -20z" />
    <glyph glyph-name="s" unicode="s" horiz-adv-x="252" 
d="M146 22c11 4 26 11 42 21c28 18 53 40 66 51c5 4 10 9 13 6c2 -2 0 -6 -7 -12c-11 -11 -34 -31 -58 -48c-25 -17 -47 -26 -70 -34c-24 -8 -63 -15 -94 -15c-53 0 -78 29 -76 59c2 33 28 53 50 52c19 0 28 -11 28 -22c-1 -10 -6 -17 -18 -25c-9 -7 -18 -17 -18 -30
c0 -16 13 -23 27 -23c21 0 44 16 65 51c21 33 36 91 47 106l-1 1c-8 -9 -31 -27 -45 -37c-15 -11 -36 -25 -45 -30c-4 -2 -9 -5 -11 -2s1 6 6 9c13 8 28 19 44 31c22 16 43 33 60 48c2 4 8 14 16 22c9 8 21 12 30 12c23 0 22 -12 0 -27c-9 -6 -18 -9 -24 -15
c-8 -8 -6 -19 -1 -29c11 -26 14 -54 3 -82c-7 -16 -17 -30 -29 -38z" />
    <glyph glyph-name="t" unicode="t" horiz-adv-x="192" 
d="M44 120c-15 -13 -32 -29 -43 -38c-7 -7 -11 -9 -14 -7c-2 3 2 8 8 14c27 24 58 51 77 69c-10 0 -23 -1 -35 -1c-8 -1 -13 -1 -12 4s12 6 26 7c13 1 24 1 30 1c32 38 65 74 93 103c29 30 51 43 76 43c15 0 24 -4 27 -8c-13 -11 -38 -38 -61 -65s-40 -48 -60 -74
c22 1 40 1 56 0c6 0 16 -1 14 -6c-1 -5 -11 -4 -18 -4c-22 0 -37 0 -60 -1c-20 -24 -57 -78 -73 -110c-5 -10 -9 -23 -2 -28c5 -3 16 -1 27 4c12 6 28 17 45 30s33 28 48 41c7 5 11 8 14 6c2 -2 0 -5 -4 -10c-15 -14 -45 -41 -65 -56s-59 -43 -104 -43c-30 0 -41 14 -41 30
c0 24 17 53 51 99z" />
    <glyph glyph-name="u" unicode="u" horiz-adv-x="375" 
d="M97 150c-14 -5 -34 -18 -57 -36c-15 -12 -29 -24 -39 -33c-8 -6 -12 -9 -15 -7c-2 2 0 6 8 14c10 9 43 38 72 56c26 18 50 27 78 27c32 0 37 -3 26 -16c-16 -18 -35 -41 -55 -66c-17 -21 -31 -40 -38 -54c-4 -7 -5 -14 -1 -17c4 -4 12 -3 23 3c22 11 44 27 75 51
c44 35 71 62 105 90c9 7 14 11 41 11c31 0 38 -2 27 -16c-17 -21 -33 -41 -53 -68c-15 -22 -25 -36 -31 -47s-7 -18 -3 -22c5 -4 15 -2 25 3c11 6 26 16 41 28c22 17 38 32 50 43c4 4 10 8 13 5s-3 -9 -11 -16c-14 -13 -37 -33 -58 -50c-20 -16 -58 -42 -95 -42
c-38 0 -45 20 -43 36c0 12 7 26 16 38c6 9 18 22 28 34l-2 2c-18 -16 -46 -38 -65 -53c-32 -24 -76 -57 -120 -57c-29 0 -41 13 -41 31c1 13 8 27 18 41c21 30 58 71 81 87z" />
    <glyph glyph-name="v" unicode="v" horiz-adv-x="323" 
d="M249 46c-13 0 -25 6 -30 18c-9 -6 -26 -16 -42 -24c-32 -16 -56 -27 -86 -36c-16 -5 -45 -13 -66 -13c-9 0 -20 3 -21 13c-1 7 4 14 9 19c14 15 33 36 49 56c16 19 33 43 39 58c2 7 1 12 -2 14c-4 3 -11 1 -17 -3c-13 -7 -25 -17 -35 -25c-15 -13 -31 -27 -39 -35
c-9 -9 -13 -12 -16 -10c-2 2 -1 6 7 14c7 7 30 28 45 41c22 17 51 41 85 41c32 0 45 -15 43 -39c-1 -18 -13 -40 -32 -62c-20 -26 -46 -50 -60 -61c28 7 62 23 92 38c12 6 34 20 43 27c0 17 7 38 18 56c16 28 37 42 56 40c14 -2 17 -19 7 -38c-7 -11 -27 -38 -68 -65
c3 -9 13 -14 22 -15c15 -1 31 6 48 17c11 8 20 16 25 20c5 5 9 7 11 5s-2 -8 -8 -14s-12 -11 -24 -20c-18 -12 -36 -18 -53 -17z" />
    <glyph glyph-name="w" unicode="w" horiz-adv-x="490" 
d="M40 -8h-1c-28 0 -38 14 -38 32c1 14 10 31 24 50c20 27 55 67 75 80c-16 -6 -36 -20 -59 -38c-15 -12 -29 -25 -41 -36c-8 -6 -12 -8 -14 -6s0 6 7 13c17 15 47 42 73 59c21 14 47 26 82 26c31 0 33 -5 23 -16c-18 -20 -35 -41 -55 -66c-17 -21 -27 -35 -37 -52
c-5 -8 -6 -16 -3 -19c4 -4 13 -2 23 3c22 12 40 23 66 43c41 32 69 57 103 88c9 8 18 12 52 12c25 0 28 -4 21 -12c-18 -23 -30 -37 -48 -62c-16 -22 -26 -36 -33 -51c-5 -10 -6 -21 -1 -26c6 -4 15 -2 28 2c19 7 41 20 58 32c13 9 26 21 32 29c0 17 6 40 17 58
c18 27 39 44 56 39c14 -3 10 -24 -1 -40c-15 -24 -38 -46 -59 -63c3 -9 15 -16 28 -16c13 -1 29 5 46 17c9 6 20 16 26 21c7 7 13 10 15 8s0 -6 -5 -11s-16 -15 -29 -25c-18 -14 -38 -20 -54 -19c-18 0 -29 8 -35 18c-8 -7 -21 -18 -29 -23c-39 -27 -83 -49 -128 -49
c-34 0 -44 15 -44 31c0 10 4 23 12 36c9 15 21 28 34 42l-2 2c-23 -20 -48 -41 -72 -59c-21 -16 -72 -52 -113 -52z" />
    <glyph glyph-name="x" unicode="x" horiz-adv-x="329" 
d="M105 49c-23 -30 -52 -56 -81 -56c-26 0 -44 13 -42 38c2 22 19 41 39 41c17 0 27 -13 22 -27c-4 -12 -18 -17 -20 -25c-2 -7 3 -10 9 -11c23 -2 55 31 81 68c15 20 27 40 30 57c2 12 -4 20 -15 22c-24 5 -59 -19 -80 -35c-16 -12 -32 -25 -47 -40c-8 -6 -13 -11 -16 -8
c-2 2 1 8 9 14c15 15 42 38 59 50c29 20 58 37 97 37c29 0 61 -16 55 -57l1 -1c24 28 57 58 89 58c22 0 35 -14 32 -37c-2 -17 -18 -30 -33 -30c-8 0 -18 5 -17 17c1 9 8 13 9 19c0 5 -5 8 -11 8c-14 0 -31 -11 -45 -24c-10 -9 -21 -22 -37 -44c-11 -14 -20 -31 -23 -44
c-2 -15 2 -25 14 -27c23 -4 59 14 87 34c22 15 36 28 51 41c8 7 12 8 14 6c2 -3 -1 -6 -5 -11c-17 -15 -34 -30 -54 -45c-31 -21 -67 -44 -108 -44c-49 -1 -69 22 -64 56z" />
    <glyph glyph-name="y" unicode="y" horiz-adv-x="369" 
d="M248 120l-1 1c-5 -6 -17 -15 -22 -20c-20 -17 -47 -38 -66 -53c-32 -24 -76 -57 -120 -57c-29 0 -41 13 -40 31c0 13 7 26 17 41c22 31 58 73 81 87c-14 -5 -34 -18 -57 -36c-15 -12 -30 -25 -40 -34c-7 -6 -11 -8 -14 -6c-2 2 0 6 8 14c10 9 43 38 72 56
c26 18 50 27 78 27c32 0 37 -3 26 -16c-16 -18 -35 -41 -55 -66c-17 -21 -30 -40 -38 -55c-4 -7 -5 -14 -2 -17c4 -3 13 -1 24 4c22 12 44 27 75 51c44 35 71 62 105 90c9 7 14 11 49 11c31 0 37 -2 26 -16c-19 -23 -42 -53 -62 -79c-17 -22 -57 -74 -132 -177
c-88 -120 -149 -209 -177 -256c-9 -15 -9 -19 -6 -21s8 2 13 8c13 15 48 65 78 107c36 49 59 82 111 149c41 52 86 103 127 146c21 20 46 44 63 59c5 5 11 8 13 6c3 -3 -4 -10 -10 -16c-15 -13 -36 -32 -59 -56c-38 -39 -86 -94 -126 -145c-48 -62 -89 -120 -120 -163
c-34 -48 -68 -97 -86 -113c-10 -9 -22 -16 -42 -15c-22 1 -27 14 -27 26c0 20 16 52 38 84c45 68 66 98 137 196c48 66 101 141 161 223z" />
    <glyph glyph-name="z" unicode="z" horiz-adv-x="268" 
d="M50 36c9 3 19 4 29 3c29 0 58 -10 68 -33c18 9 40 24 59 37c23 16 52 41 63 51c6 5 11 7 13 5s0 -6 -6 -12c-14 -12 -40 -34 -65 -52c-20 -14 -43 -28 -60 -37c1 -3 2 -10 2 -18c0 -71 -82 -165 -163 -236c-84 -75 -222 -149 -281 -149c-32 0 -48 15 -48 36
c0 49 65 111 155 178c75 55 155 99 201 126c28 16 52 30 74 43c7 34 -6 51 -25 51c-30 0 -57 -22 -72 -37c-4 -4 -8 -8 -12 -5s-3 11 1 17c8 11 23 21 40 30c38 19 65 29 102 49c33 18 58 35 78 54c3 3 6 8 4 10c-1 2 -4 0 -7 -2c-26 -17 -63 -30 -88 -30
c-27 0 -47 9 -55 24c-17 -20 -38 -41 -56 -57c-8 -8 -11 -8 -13 -6s-1 6 6 11c18 17 40 40 59 61c-1 8 1 21 10 32s23 15 35 15c8 0 18 -2 19 -10c-5 -1 -15 -3 -17 -13c-1 -10 6 -20 44 -20c27 0 64 6 86 14c9 3 17 5 21 1c5 -5 -1 -17 -6 -23c-14 -20 -38 -44 -87 -68
c-34 -17 -84 -27 -108 -40zM-287 -394h1c55 0 151 78 225 157c53 55 132 154 149 204c-19 -12 -42 -26 -67 -40c-46 -28 -119 -72 -193 -128c-78 -59 -132 -119 -137 -166c-1 -13 3 -27 22 -27z" />
    <glyph glyph-name="braceleft" unicode="{" horiz-adv-x="313" 
d="M574 463l-7 -8c-11 0 -24 1 -39 1c-55 0 -89 -9 -115 -38c-44 -50 -60 -123 -126 -181c-27 -24 -61 -30 -91 -31c17 -16 24 -53 -2 -88c-34 -46 -66 -83 -87 -114c-25 -38 -16 -65 31 -78c15 -5 31 -6 44 -7l-5 -6c-12 0 -50 1 -68 5c-61 13 -83 54 -24 132
c18 24 51 63 72 97c22 35 4 60 -18 65l1 2c26 0 75 9 98 32c42 42 63 89 88 128c35 56 78 91 173 91c29 0 75 -2 75 -2z" />
    <glyph glyph-name="bar" unicode="|" horiz-adv-x="155" 
d="M93 750v-1000h-31v1000h31z" />
    <glyph glyph-name="braceright" unicode="}" horiz-adv-x="313" 
d="M253 458l5 5c22 0 50 0 68 -4c61 -13 83 -54 24 -133c-18 -24 -51 -59 -71 -91c-20 -31 -5 -56 21 -60l-1 -2c-30 4 -77 -15 -102 -42c-41 -43 -63 -89 -88 -128c-35 -56 -78 -91 -173 -91c-29 0 -75 2 -75 2l6 7h40c41 0 89 8 115 38c44 50 60 123 126 181
c27 23 69 39 99 40c-19 13 -32 45 -7 79c32 42 67 83 88 114c25 38 16 64 -31 78c-15 4 -31 6 -44 7z" />
    <glyph glyph-name="asciitilde" unicode="~" horiz-adv-x="307" 
d="M233 229h1c51 0 70 -46 74 -74c1 -5 0 -7 -2 -8c-3 -1 -3 4 -5 6c-9 13 -25 30 -70 28c-33 -1 -70 -23 -108 -23c-32 0 -52 21 -60 46c-1 3 -3 8 0 9c2 1 4 0 6 -4c9 -11 25 -15 42 -15c41 2 80 35 122 35z" />
    <glyph glyph-name="exclamdown" unicode="&#xa1;" horiz-adv-x="264" 
d="M169 109h-1c-19 0 -26 14 -12 32c16 20 48 33 60 34c5 -8 7 -27 1 -43c-7 -19 -25 -23 -48 -23zM-90 -173h-1c-15 0 -17 3 8 35c53 66 147 150 216 209c6 5 13 8 15 6c2 -1 0 -5 -8 -15c-61 -78 -93 -123 -139 -192c-20 -30 -51 -43 -91 -43z" />
    <glyph glyph-name="cent" unicode="&#xa2;" horiz-adv-x="231" 
d="M214 204l-115 -154c4 -1 12 -1 17 0c18 3 44 14 68 35c4 3 9 8 12 5s-2 -8 -6 -12c-21 -20 -59 -44 -102 -44c0 0 -33 -44 -45 -58c-3 -5 -6 -8 -10 -7c-2 2 0 7 3 11c10 15 37 55 37 55c-30 4 -48 17 -50 41c-3 30 19 64 43 85c29 26 84 57 138 54c0 0 9 13 14 21
c14 18 19 22 25 20c4 -2 3 -7 -9 -25c-6 -8 -13 -18 -13 -18c24 -4 35 -20 31 -38c-3 -18 -23 -34 -35 -34c-17 0 -20 15 -11 31c10 16 16 27 8 32zM88 55l110 152c-15 -3 -37 -17 -59 -39c-28 -25 -55 -69 -57 -94c0 -8 2 -16 6 -19z" />
    <glyph glyph-name="sterling" unicode="&#xa3;" horiz-adv-x="510" 
d="M631 301c1 -21 -30 -53 -88 -72c-39 -13 -80 -17 -103 -17c-7 -7 -16 -19 -26 -30c-15 -17 -24 -27 -38 -42c21 0 36 -1 66 -2c8 0 14 -1 14 -4s-6 -4 -14 -5c-33 -1 -52 -2 -77 -3c-41 -39 -87 -65 -121 -81c28 -6 68 -15 98 -14c36 1 64 5 95 24c6 4 10 8 12 6
c2 -1 2 -4 -3 -9c-19 -19 -66 -62 -133 -62c-30 0 -73 12 -114 26c-38 -18 -92 -25 -146 -25c-32 0 -94 6 -93 29c0 26 55 43 131 42c39 0 87 -5 139 -14c34 23 61 59 79 78c-41 0 -61 -1 -117 -1c-16 0 -23 4 -23 9c0 6 9 10 22 10c51 0 88 -1 129 -3c11 12 21 24 35 39
c10 11 22 24 30 33c-63 7 -95 36 -93 76c2 24 19 45 41 50c6 1 11 1 11 -1c1 -2 -4 -2 -9 -4c-21 -7 -32 -26 -33 -45c-1 -38 42 -55 85 -60c5 -1 10 -1 12 -1c59 61 150 95 199 95c21 0 32 -7 33 -22zM621 300v1c0 6 -4 14 -22 14c-47 0 -96 -31 -148 -88c31 3 56 9 82 17
c56 17 88 39 88 56zM55 -1h1c45 0 101 7 132 21c-40 11 -81 18 -120 19c-46 1 -96 -1 -99 -18c-3 -18 71 -22 86 -22z" />
    <glyph glyph-name="fraction" unicode="&#x2044;" horiz-adv-x="158" 
d="M244 300h1c8 0 23 -1 -6 -28c-82 -76 -194 -185 -299 -306c-5 -6 -11 -13 -15 -10c-2 2 -1 8 6 17c85 108 176 213 266 300c13 13 25 27 47 27z" />
    <glyph glyph-name="yen" unicode="&#xa5;" horiz-adv-x="394" 
d="M201 121c63 56 139 114 193 145c73 41 134 55 178 50c11 -2 22 -8 19 -12c-2 -2 -4 3 -19 3c-31 0 -77 -14 -162 -62c-50 -28 -136 -87 -179 -120c40 -1 80 -1 126 -2c7 0 18 0 18 -5c0 -4 -8 -5 -18 -5c-55 -1 -101 -1 -145 -3c-4 -2 -14 -9 -18 -12
c-7 -6 -15 -14 -23 -21c41 0 87 -1 124 -2c5 0 18 0 18 -4c0 -5 -13 -5 -18 -5c-28 -1 -85 -2 -141 -3c-28 -26 -59 -56 -80 -75c-6 -6 -27 -11 -32 -8c-4 2 -1 6 6 16c16 21 36 46 52 66c-32 0 -62 -1 -74 -1c-9 0 -25 -1 -25 5c0 9 12 14 26 14c15 0 47 0 83 -1
c4 5 10 12 15 19c5 5 9 11 10 12c-31 -1 -62 -1 -97 -1c-10 0 -25 0 -25 6c0 9 13 13 24 13c36 0 72 -1 108 -2c19 28 42 68 52 91c13 30 17 45 15 60c-1 10 -9 22 -30 22c-26 0 -51 -13 -68 -27c-4 -3 -8 -7 -10 -6c-2 2 0 7 3 10c19 20 55 44 104 44c36 0 55 -16 61 -30
c10 -23 3 -47 -5 -69c-13 -34 -44 -75 -66 -100z" />
    <glyph glyph-name="florin" unicode="&#x192;" horiz-adv-x="305" 
d="M485 353v-1c0 -7 -3 -12 -6 -12s-1 3 -2 12c-4 23 -31 28 -43 28c-28 0 -70 -10 -120 -68c-25 -30 -58 -76 -85 -114c-10 -14 -19 -26 -20 -28c31 -2 72 -3 111 -5c7 -1 12 -2 12 -5c0 -4 -6 -4 -13 -5c-48 -2 -87 -3 -123 -5c-16 -23 -39 -54 -63 -83
c-39 -49 -91 -96 -137 -124c-56 -34 -109 -52 -171 -50c-37 1 -57 17 -64 34c-3 8 -2 12 0 13s3 -2 6 -7c8 -15 31 -24 54 -24c43 0 91 17 137 54c38 30 82 82 121 133c9 11 25 33 39 54h-39c-9 0 -19 0 -19 6c0 9 7 15 19 15h54c38 52 61 81 85 109c82 94 158 116 216 113
c25 -1 51 -13 51 -40z" />
    <glyph glyph-name="section" unicode="&#xa7;" horiz-adv-x="365" 
d="M48 -104h-1c-49 0 -80 30 -74 65c4 24 22 37 42 37c19 -1 28 -16 24 -31c-3 -16 -20 -21 -21 -35s10 -26 34 -26c32 0 56 16 66 38c12 28 5 55 -7 85c-14 37 -15 69 -7 89c17 45 62 66 106 66c-9 25 -9 49 -2 68c16 44 63 70 109 69c31 -1 60 -21 52 -52
c-4 -17 -18 -31 -35 -30s-27 16 -19 33c7 15 15 19 15 27s-9 13 -21 13c-30 0 -51 -19 -59 -40c-8 -22 -4 -46 6 -71c15 -38 22 -66 11 -97c-16 -46 -66 -67 -107 -70c6 -21 9 -45 2 -66c-17 -49 -71 -72 -114 -72zM213 175c-33 2 -58 -16 -69 -42c-9 -22 -5 -46 5 -72
c3 -7 5 -12 7 -17c30 1 55 15 66 42c11 22 6 48 -4 73c-2 5 -4 12 -5 16z" />
    <glyph glyph-name="currency" unicode="&#xa4;" horiz-adv-x="340" 
d="M305 181v-1c0 -39 -28 -86 -58 -111c9 -16 17 -31 24 -45c3 -6 5 -13 1 -15s-9 2 -15 9c-11 14 -20 27 -28 38c-21 -16 -52 -28 -84 -29c-33 -1 -52 10 -63 23c-12 -8 -28 -19 -43 -29c-10 -7 -16 -10 -20 -7c-3 3 0 7 9 15c11 10 24 20 43 36c-4 8 -6 17 -6 28
c0 52 36 89 60 108c-10 16 -18 31 -26 45c-3 6 -6 12 0 15c4 2 9 -2 15 -10c11 -14 21 -27 29 -38c21 16 53 28 84 29s51 -10 63 -22c14 10 28 21 38 27c10 8 17 10 20 8c5 -3 -3 -11 -8 -16c-8 -8 -21 -19 -40 -35c3 -5 5 -14 5 -23zM260 180v1c0 28 -15 48 -43 47
c-57 -2 -108 -81 -108 -139c0 -30 11 -53 41 -51c59 3 110 90 110 142z" />
    <glyph glyph-name="quotesingle" unicode="'" horiz-adv-x="122" 
d="M191 357c19 0 23 -9 4 -26c-43 -37 -70 -60 -90 -76c-5 -4 -10 -7 -12 -6c-3 2 0 8 4 13c14 23 34 54 47 74c7 12 25 21 47 21z" />
    <glyph glyph-name="quotedblleft" unicode="&#x201c;" horiz-adv-x="218" 
d="M90 266v1c0 2 2 7 6 13c20 31 55 64 76 79c6 4 10 6 11 5c4 -2 -1 -7 -5 -11c-11 -14 -24 -31 -26 -49c-2 -10 4 -13 3 -24c-1 -10 -22 -21 -46 -24c-13 -1 -19 2 -19 10zM183 266v1c0 2 2 7 6 13c20 31 55 64 76 79c6 4 10 6 11 5c4 -2 -1 -7 -5 -11
c-11 -14 -24 -31 -26 -49c-2 -10 4 -13 3 -24c-1 -10 -22 -21 -46 -24c-13 -1 -19 2 -19 10z" />
    <glyph glyph-name="guillemotleft" unicode="&#xab;" horiz-adv-x="301" 
d="M117 4h-1c-2 -1 -4 3 -7 7c-20 26 -43 56 -60 76c-4 5 -7 8 -6 12c1 3 6 6 12 8c29 12 87 40 110 55c3 2 7 5 8 4c3 -2 3 -6 -1 -12c-12 -15 -43 -48 -70 -65c9 -26 15 -59 17 -75c1 -5 1 -9 -2 -10zM216 4c-3 -1 -5 3 -8 7c-19 26 -43 56 -59 76c-4 5 -8 8 -6 12
c1 3 7 6 12 8c29 12 86 40 110 55c3 2 7 5 8 4c3 -2 2 -6 -2 -12c-11 -15 -42 -48 -69 -65c9 -26 15 -60 16 -75c1 -4 1 -9 -2 -10z" />
    <glyph glyph-name="guilsinglleft" unicode="&#x2039;" horiz-adv-x="205" 
d="M112 4h-1c-2 -1 -4 2 -7 7c-20 26 -43 56 -60 76c-4 5 -7 8 -6 12c1 3 6 6 12 8c29 12 87 40 110 55c4 3 8 5 9 4c2 -2 2 -6 -2 -12c-12 -15 -43 -48 -70 -65c9 -26 15 -60 17 -75c0 -4 0 -9 -2 -10z" />
    <glyph glyph-name="guilsinglright" unicode="&#x203a;" horiz-adv-x="205" 
d="M73 167c3 0 5 -3 8 -7c19 -27 43 -57 59 -76c3 -4 7 -9 6 -12c-1 -4 -7 -6 -12 -8c-35 -16 -88 -41 -110 -55c-3 -3 -7 -5 -9 -4c-2 2 -2 6 2 11c12 16 43 48 70 66c-9 26 -15 60 -17 74c0 5 0 10 3 11z" />
    <glyph glyph-name="endash" unicode="&#x2013;" horiz-adv-x="356" 
d="M323 98v-1c0 -3 -9 -6 -19 -6c-83 -3 -151 -6 -232 -8c-20 -1 -27 6 -26 16c1 8 7 17 26 16c90 -3 162 -6 231 -9c15 -1 20 -4 20 -8z" />
    <glyph glyph-name="dagger" unicode="&#x2020;" horiz-adv-x="368" 
d="M375 193v-1c0 -4 -13 -5 -22 -5c-30 -1 -66 -2 -101 -4c-71 -84 -167 -198 -232 -274c-6 -8 -18 -19 -24 -16c-5 2 3 15 8 22c51 69 132 181 194 266c-25 -1 -46 -1 -59 -1c-22 0 -35 2 -33 11c4 14 17 18 30 18c17 0 47 -2 80 -3c23 31 41 56 54 74c17 22 32 36 59 40
c29 4 33 -4 -3 -47c-13 -16 -33 -40 -58 -70c32 -1 65 -3 84 -4c9 0 23 -1 23 -6z" />
    <glyph glyph-name="daggerdbl" unicode="&#x2021;" horiz-adv-x="368" 
d="M383 209v-1c0 -4 -10 -4 -22 -5c-19 -1 -63 -2 -96 -4c-26 -30 -56 -66 -87 -103c35 -2 65 -3 93 -5c13 -1 23 -2 23 -6c0 -6 -9 -5 -22 -6c-36 -2 -73 -3 -111 -4c-51 -60 -97 -115 -141 -166c-10 -12 -18 -19 -24 -16c-5 2 2 13 8 22c31 41 74 100 116 158
c-27 -1 -49 -1 -62 -1c-22 0 -35 3 -33 11c3 14 16 18 30 18c17 0 47 -1 82 -3c26 35 52 70 74 100c-25 -1 -49 -2 -63 -2c-26 -1 -35 3 -33 11c3 14 15 18 30 18c17 0 47 -2 83 -3c16 23 32 44 42 58c18 23 32 36 59 40c29 4 33 -4 -3 -47c-11 -13 -26 -32 -45 -54
c31 -1 59 -2 80 -4c15 -1 22 -2 22 -6z" />
    <glyph glyph-name="periodcentered" unicode="&#xb7;" horiz-adv-x="145" 
d="M108 171h1c21 0 27 -15 13 -34c-18 -21 -49 -34 -63 -36c-6 7 -7 29 -1 45c7 20 28 25 50 25z" />
    <glyph glyph-name="paragraph" unicode="&#xb6;" horiz-adv-x="442" 
d="M591 400h1c26 0 48 -8 48 -17c0 -6 -6 -11 -15 -10c-10 2 -15 7 -23 14c-5 4 -12 6 -20 5c-30 -2 -67 -29 -116 -86c11 -4 21 -9 24 -12c5 -4 6 -8 5 -9s-4 0 -8 3c-5 3 -15 8 -27 11c-15 -17 -30 -35 -46 -57c-43 -59 -106 -136 -140 -170c-62 -63 -116 -90 -171 -91
c-6 0 -12 1 -15 2c-33 -22 -77 -37 -113 -37c-46 0 -87 20 -80 62c3 26 26 40 47 37c14 -1 26 -13 22 -30c-5 -20 -26 -27 -25 -41c0 -10 13 -19 37 -19c43 0 86 29 111 50c33 28 64 63 98 106c-78 16 -114 89 -57 153c52 58 143 66 232 63c23 -1 53 -5 68 -9
c50 50 101 82 163 82zM384 314c-5 1 -12 1 -17 1c-67 0 -133 -14 -179 -75c-51 -66 -29 -110 3 -121c2 2 6 7 9 11c45 58 123 161 184 184zM96 -10c1 0 6 -1 8 -1c29 0 60 21 107 68c42 42 74 88 124 152c26 33 55 70 87 101c-4 1 -8 2 -14 3c-1 0 -6 1 -10 -1
c-32 -11 -85 -81 -142 -152c-57 -72 -116 -136 -146 -159c-4 -4 -10 -9 -14 -11z" />
    <glyph glyph-name="bullet" unicode="&#x2022;" horiz-adv-x="283" 
d="M161 207h1c32 0 59 -27 59 -60s-27 -60 -60 -60c-34 0 -61 27 -61 60s27 60 61 60z" />
    <glyph glyph-name="quotesinglbase" unicode="&#x201a;" horiz-adv-x="152" 
d="M92 53v-1c0 -3 -4 -9 -9 -15c-27 -33 -70 -65 -91 -79c-7 -4 -12 -6 -13 -4c-2 2 2 7 7 12c14 13 29 29 37 47c5 11 -4 20 -1 29c4 9 29 18 55 19c10 1 15 -2 15 -8z" />
    <glyph glyph-name="quotedblbase" unicode="&#x201e;" horiz-adv-x="250" 
d="M92 53v-1c0 -3 -4 -9 -9 -15c-27 -33 -70 -65 -91 -79c-7 -4 -12 -6 -13 -4c-2 2 2 7 7 12c14 13 29 29 37 47c5 11 -4 20 -1 29c4 9 29 18 55 19c10 1 15 -2 15 -8zM180 53v-1c0 -3 -4 -9 -9 -15c-27 -33 -70 -65 -91 -79c-7 -4 -12 -6 -13 -4c-2 2 2 7 7 12
c14 13 29 29 37 47c5 11 -4 20 -1 29c4 9 29 18 55 19c10 1 15 -2 15 -8z" />
    <glyph glyph-name="quotedblright" unicode="&#x201d;" horiz-adv-x="218" 
d="M185 347v-1c0 -3 -3 -9 -8 -15c-27 -33 -72 -64 -92 -78c-7 -5 -12 -7 -13 -5c-2 3 2 6 8 12c13 13 28 30 37 48c5 10 -5 20 -1 28c3 8 28 18 54 20c10 1 15 -3 15 -9zM281 347v-1c0 -3 -3 -9 -8 -15c-27 -33 -72 -64 -92 -78c-7 -5 -12 -7 -13 -5c-2 3 2 6 8 12
c13 13 28 30 37 48c5 10 -5 20 -1 28c3 8 28 18 54 20c10 1 15 -3 15 -9z" />
    <glyph glyph-name="guillemotright" unicode="&#xbb;" horiz-adv-x="301" 
d="M172 167c3 0 4 -3 8 -7c19 -27 43 -56 59 -76c3 -4 7 -9 6 -12s-6 -6 -12 -8c-29 -13 -87 -40 -110 -55c-3 -2 -7 -5 -8 -4c-3 2 -2 6 2 11c11 16 42 48 69 66c-9 26 -15 60 -17 74c0 5 0 10 3 11zM73 167c3 0 5 -3 8 -7c19 -27 43 -57 59 -76c4 -5 7 -9 6 -12
s-6 -6 -12 -8c-29 -13 -87 -40 -110 -55c-3 -3 -7 -6 -8 -4c-3 2 -2 6 2 11c11 16 42 48 69 66c-9 26 -15 60 -16 74c-1 5 -1 10 2 11z" />
    <glyph glyph-name="ellipsis" unicode="&#x2026;" horiz-adv-x="435" 
d="M74 61h1c19 0 26 -15 11 -34c-17 -21 -50 -34 -63 -36c-6 8 -7 29 -1 45c7 20 28 25 52 25zM220 61h1c19 0 26 -15 11 -34c-17 -21 -50 -34 -63 -36c-6 8 -7 29 -1 45c8 20 28 25 52 25zM366 61h1c19 0 26 -15 11 -34c-17 -21 -50 -34 -63 -36c-6 8 -7 29 -1 45
c8 20 28 25 52 25z" />
    <glyph glyph-name="perthousand" unicode="&#x2030;" horiz-adv-x="606" 
d="M277 -6h-1c-28 0 -43 15 -43 39c0 22 12 47 31 67c23 23 66 44 93 44c4 1 10 0 10 -2s-6 -3 -15 -9c-16 -11 -30 -25 -46 -46c-17 -23 -31 -47 -34 -64c-2 -11 1 -18 10 -20c17 -2 38 16 57 43c19 26 33 51 38 69c3 9 3 17 0 21c-2 4 -6 4 -6 6c1 2 8 3 14 1
c12 -4 20 -16 18 -31c-1 -22 -14 -50 -43 -79c-25 -26 -61 -39 -83 -39zM318 248c-17 -8 -37 -15 -55 -17c-20 -2 -33 1 -43 6c3 -6 4 -16 2 -25c-4 -19 -19 -45 -43 -70c-24 -26 -60 -40 -82 -40c-30 0 -44 16 -45 39c0 20 11 46 32 68c23 24 58 42 91 44c7 1 12 0 12 -2
s-8 -4 -16 -9c-14 -9 -28 -24 -46 -47c-17 -23 -31 -47 -34 -63c-2 -11 1 -19 10 -20c17 -2 38 16 58 43c19 25 31 44 37 69c3 10 2 18 0 21c-2 4 -7 4 -6 6s7 3 13 1c5 -2 8 -4 11 -5c12 -7 24 -10 48 -8c25 3 54 13 80 34c15 12 24 25 43 27c17 2 28 -1 -1 -28
c-82 -76 -194 -185 -299 -306c-4 -5 -11 -13 -15 -10c-3 3 1 10 6 17c86 109 174 208 242 275zM455 -6h-1c-28 0 -43 15 -44 39c0 22 12 47 32 67c23 23 65 44 92 44c4 1 10 0 10 -2s-6 -3 -14 -9c-16 -11 -30 -25 -46 -46c-17 -23 -31 -47 -34 -64c-2 -11 1 -18 10 -20
c17 -2 38 16 57 43c19 26 33 51 38 69c2 9 3 17 0 21c-2 4 -7 4 -6 6c0 2 8 3 14 1c11 -4 19 -16 18 -31c-2 -22 -15 -50 -43 -79c-26 -26 -62 -39 -83 -39z" />
    <glyph glyph-name="questiondown" unicode="&#xbf;" horiz-adv-x="264" 
d="M-20 -171h-1c-46 0 -71 25 -64 63c9 45 53 80 122 105c27 10 50 18 71 30c16 9 27 19 32 29c4 14 7 29 18 29c6 0 9 -17 1 -31c-9 -18 -29 -35 -57 -52c-67 -43 -100 -76 -111 -113c-7 -22 3 -40 25 -40s43 9 64 24c30 21 44 60 32 80c-3 5 -8 7 -8 9c1 2 6 2 11 1
c22 -4 30 -20 25 -38c-6 -22 -29 -44 -53 -60c-27 -18 -65 -36 -107 -36zM158 109h-1c-19 0 -26 14 -12 32c16 20 48 33 60 34c5 -8 7 -27 1 -43c-7 -19 -26 -23 -48 -23z" />
    <glyph glyph-name="grave" unicode="`" horiz-adv-x="307" 
d="M215 347h1c10 0 16 -7 18 -20c6 -23 16 -56 25 -79c1 -4 4 -10 1 -12c-3 -3 -7 0 -11 5c-16 17 -44 48 -55 68c-2 3 -5 9 -5 15c0 15 15 23 26 23z" />
    <glyph glyph-name="acute" unicode="&#xb4;" horiz-adv-x="307" 
d="M325 343c9 0 16 -2 19 -9c6 -12 0 -25 -9 -34c-19 -19 -63 -48 -85 -61c-7 -4 -11 -4 -13 -2s2 7 6 12c21 23 49 62 59 75c7 11 14 18 23 19z" />
    <glyph glyph-name="circumflex" unicode="&#x2c6;" horiz-adv-x="307" 
d="M268 327c4 -1 5 -5 6 -8c11 -28 25 -56 36 -73c3 -4 4 -6 3 -8c-2 -2 -8 0 -13 2c-14 7 -35 21 -50 37c-35 -19 -81 -34 -106 -41c-5 -2 -12 -4 -13 0c-1 3 3 5 7 8c31 18 91 56 118 78c3 3 8 6 12 5z" />
    <glyph glyph-name="tilde" unicode="&#x2dc;" horiz-adv-x="307" 
d="M272 246h-1c-25 0 -43 25 -68 27c-20 1 -31 -9 -40 -19c-4 -5 -6 -7 -9 -6s-4 4 0 12c12 23 36 50 64 48s40 -25 64 -27c20 -1 31 10 40 20c4 5 7 7 10 6s3 -5 -1 -12c-9 -18 -33 -49 -59 -49z" />
    <glyph glyph-name="macron" unicode="&#xaf;" horiz-adv-x="307" 
d="M320 277v-1c0 -2 -2 -7 -6 -11c-8 -8 -14 -10 -19 -10c-46 2 -98 2 -134 0c-9 0 -14 0 -8 7c8 10 16 18 29 20c32 4 88 7 124 5c10 -1 14 -4 14 -10z" />
    <glyph glyph-name="breve" unicode="&#x2d8;" horiz-adv-x="307" 
d="M183 319h1c1 0 2 -3 4 -8c6 -16 21 -30 45 -32c34 -3 63 13 87 34c4 4 7 6 10 4c3 -1 3 -5 0 -9c-24 -39 -60 -69 -104 -65c-28 3 -51 27 -50 65c0 7 3 11 7 11z" />
    <glyph glyph-name="dotaccent" unicode="&#x2d9;" horiz-adv-x="307" 
d="M275 312h1c19 0 25 -13 11 -30c-16 -19 -42 -30 -56 -33c-4 7 -5 27 -1 41c5 18 24 22 45 22z" />
    <glyph glyph-name="dieresis" unicode="&#xa8;" horiz-adv-x="307" 
d="M212 311h1c19 0 25 -13 12 -29c-16 -19 -42 -30 -57 -33c-4 7 -5 26 0 40c6 18 24 22 44 22zM319 311h1c18 0 25 -13 11 -29c-16 -19 -42 -30 -56 -33c-4 7 -6 26 -1 40c6 18 25 22 45 22z" />
    <glyph glyph-name="ring" unicode="&#x2da;" horiz-adv-x="307" 
d="M253 345h1c27 0 51 -24 51 -52s-24 -50 -52 -50s-51 22 -51 50s23 52 51 52zM253 322h-1c-15 0 -27 -13 -27 -29s12 -28 28 -28c17 0 29 12 29 28s-12 29 -29 29z" />
    <glyph glyph-name="cedilla" unicode="&#xb8;" horiz-adv-x="307" 
d="M25 -93h1c18 0 35 10 37 24c2 13 -6 23 -26 22c-11 -1 -16 -7 -19 -4c-2 3 1 7 3 9c13 14 37 36 46 43l12 -5c-8 -5 -28 -23 -33 -30c3 1 10 2 14 2c28 0 45 -13 42 -39c-3 -25 -33 -43 -75 -41c-33 1 -50 15 -57 25c-5 7 -6 15 -3 17s5 -3 9 -7c8 -7 21 -16 49 -16z" />
    <glyph glyph-name="hungarumlaut" unicode="&#x2dd;" horiz-adv-x="307" 
d="M270 315h1c5 0 13 -4 15 -11c3 -9 -3 -18 -14 -25c-17 -11 -55 -31 -80 -41c-7 -3 -12 -4 -14 -2c-2 3 2 7 7 11c24 21 43 38 59 55c7 7 14 13 26 13zM351 315h1c5 0 12 -4 14 -11c3 -9 -3 -19 -13 -25c-18 -12 -55 -31 -80 -41c-7 -3 -13 -4 -15 -2c-1 3 3 7 8 11
c24 21 43 38 59 55c7 7 13 13 26 13z" />
    <glyph glyph-name="ogonek" unicode="&#x2db;" horiz-adv-x="307" 
d="M82 1h15c-41 -21 -67 -45 -73 -64c-4 -13 2 -21 13 -22c13 -1 25 4 37 11c5 3 9 5 11 3c2 -3 0 -6 -4 -10c-17 -18 -46 -35 -73 -33c-26 2 -40 21 -33 42c9 27 58 55 107 73z" />
    <glyph glyph-name="caron" unicode="&#x2c7;" horiz-adv-x="307" 
d="M230 237h-1c-2 0 -5 4 -6 7c-11 29 -25 57 -36 74c-3 4 -4 6 -3 7c2 3 8 1 13 -1c14 -7 37 -22 52 -38c35 19 76 34 104 42c5 2 12 3 13 0s-3 -6 -7 -8c-31 -18 -91 -56 -118 -78c-3 -3 -7 -6 -11 -5z" />
    <glyph glyph-name="emdash" unicode="&#x2014;" horiz-adv-x="552" 
d="M518 99v-1c0 -5 -10 -7 -21 -7c-71 -2 -334 -7 -425 -8c-18 0 -27 4 -26 16c1 10 8 17 24 16c93 -2 356 -7 426 -8c13 0 22 -3 22 -8z" />
    <glyph glyph-name="AE" unicode="&#xc6;" horiz-adv-x="941" 
d="M913 216v1c0 8 -19 13 -38 14c-12 0 -33 0 -46 -2c5 -14 27 -24 44 -25c19 -1 40 3 40 12zM579 105c9 23 30 52 77 80c32 20 79 37 120 46c-16 23 -18 66 16 106c30 36 89 61 129 68v1c-7 1 -18 2 -27 2c-47 0 -95 -14 -133 -33c-50 -24 -106 -63 -148 -98
c-23 -19 -41 -36 -61 -55c10 -20 27 -66 27 -117zM441 286h-1c-52 0 -78 -46 -80 -93c-2 -42 14 -80 30 -98c38 31 98 83 146 130c-21 35 -54 61 -95 61zM570 54c-1 8 0 22 2 31c-3 70 -21 110 -29 128c-51 -48 -105 -93 -146 -127c15 -16 55 -38 104 -42c22 -2 53 3 69 10z
M870 23c-37 -25 -83 -48 -142 -51c-78 -4 -146 17 -157 72c-15 -7 -45 -12 -70 -11c-55 3 -100 22 -121 39c-36 -27 -121 -82 -215 -89c-78 -6 -147 18 -147 73c0 41 29 65 56 66s43 -13 43 -35c-1 -14 -11 -23 -25 -33c-9 -7 -17 -14 -16 -25c0 -21 29 -38 92 -33
c78 7 147 46 201 84c-27 19 -60 65 -60 116c1 65 51 111 123 111c56 -1 91 -36 113 -73c22 21 39 36 59 53c43 36 104 77 151 99c41 18 89 31 137 31c18 0 34 -3 47 -7c13 2 48 6 82 5c68 -3 117 -31 117 -63c0 -51 -82 -77 -154 -70c-29 2 -50 15 -57 24c-2 3 -3 6 -1 7
c1 1 2 -2 6 -5c8 -7 27 -17 53 -19c61 -3 123 17 123 61c0 25 -24 53 -84 55c-22 0 -51 -6 -79 -20c-26 -12 -53 -32 -75 -54c-14 -15 -43 -47 -43 -93c11 2 34 3 49 2c29 -1 56 -8 56 -25c0 -14 -30 -20 -55 -20c-35 0 -78 9 -95 27c-60 -25 -117 -72 -132 -141
c-12 -60 24 -93 87 -93c51 0 96 23 133 47c25 17 55 44 70 57c5 4 10 8 13 5c2 -2 -1 -7 -10 -15c-18 -16 -49 -43 -73 -59z" />
    <glyph glyph-name="ordfeminine" unicode="&#xaa;" horiz-adv-x="275" 
d="M287 390c19 20 30 22 44 22c19 0 22 -3 15 -11c-20 -26 -49 -60 -60 -81c-4 -6 -5 -12 -2 -14c4 -3 11 0 17 3c9 5 19 11 28 19c14 11 27 23 34 29c5 5 7 7 9 5c3 -2 -1 -7 -4 -10c-11 -10 -29 -27 -42 -37c-24 -19 -44 -29 -67 -29c-17 0 -25 6 -27 15c-2 8 0 18 7 27
l-1 1c-18 -16 -50 -42 -85 -43c-23 -1 -39 6 -37 29c4 25 32 61 79 82c17 9 49 19 68 17c21 -2 25 -15 24 -24zM266 404h-1c-13 0 -37 -19 -63 -44c-27 -26 -38 -43 -38 -52c0 -6 4 -8 8 -8c14 0 38 15 59 33c18 15 47 47 47 58c1 9 -4 13 -12 13z" />
    <glyph glyph-name="Lslash" unicode="&#x141;" horiz-adv-x="599" 
d="M266 62c14 -2 45 -10 87 -21c27 -7 65 -13 83 -13c60 0 107 13 164 66c3 2 8 7 11 4s-4 -9 -8 -13c-68 -67 -110 -99 -175 -99c-34 0 -65 7 -100 20s-75 30 -91 33c-31 -23 -75 -50 -135 -51c-41 -1 -61 8 -60 23c1 33 88 56 149 57c25 1 43 -1 54 -2c20 19 38 47 51 69
c-21 -7 -37 -14 -43 -16c-13 -4 -20 -4 -22 1c-3 8 4 16 13 19s43 13 65 19c18 32 34 64 56 93c-60 13 -113 48 -113 99s53 104 147 104c74 0 123 -25 158 -54c25 9 60 15 93 15c60 1 113 -26 107 -70c-9 -66 -134 -97 -214 -106c-33 -3 -69 -3 -99 0
c-15 -22 -32 -45 -48 -63c24 6 52 15 73 22c7 1 13 3 14 -1c1 -3 -4 -6 -11 -9c-6 -2 -59 -22 -95 -33c-45 -47 -86 -76 -111 -93zM449 248c30 -3 60 -1 95 3c55 7 168 42 177 102c4 36 -28 54 -66 54c-27 0 -61 -11 -81 -26c6 -8 12 -18 16 -32c7 -23 4 -37 2 -37
c-3 0 0 8 -15 35c-5 10 -13 19 -18 24c-35 -24 -73 -70 -110 -123zM262 351c0 -46 54 -80 109 -92c55 80 122 119 167 135c-28 19 -74 40 -144 40c-85 0 -132 -39 -132 -83zM222 44c-22 6 -45 10 -71 9c-32 -1 -66 -17 -65 -37c1 -11 13 -17 32 -16c34 1 78 20 104 44z" />
    <glyph glyph-name="Oslash" unicode="&#xd8;" horiz-adv-x="456" 
d="M478 399l-352 -400c7 -3 18 -5 28 -5c71 -2 147 52 228 152c47 59 80 113 90 170c2 12 2 24 0 31c-2 14 -7 19 -5 20c3 2 9 -5 15 -20c5 -13 9 -35 8 -58c-2 -45 -21 -103 -64 -156c-68 -83 -190 -152 -284 -149c-6 0 -19 1 -27 2c-20 -22 -54 -60 -67 -75
c-3 -3 -7 -7 -11 -4c-3 2 -2 6 2 11c12 14 42 50 61 72c-39 10 -73 33 -82 77c-16 82 45 172 97 221c98 89 226 138 335 130c3 0 14 -1 16 -2c18 21 38 43 54 63c7 7 16 12 22 9s3 -11 -3 -19c-17 -20 -34 -39 -52 -59c19 -8 38 -23 39 -47c2 -20 -7 -38 -16 -49
c-5 -6 -12 -11 -14 -8c-2 2 2 3 8 12c7 10 14 26 11 44c-1 18 -19 31 -37 37zM113 5l345 399c-2 1 -4 1 -7 1c-96 2 -214 -86 -269 -145c-58 -61 -107 -153 -93 -216c3 -16 12 -30 24 -39z" />
    <glyph glyph-name="OE" unicode="&#x152;" horiz-adv-x="730" 
d="M807 406h-1c-38 0 -78 -19 -101 -33c-28 -18 -57 -45 -67 -58c17 -13 68 -29 116 -29c60 0 125 20 129 64c3 26 -18 56 -76 56zM611 230c4 -15 27 -24 47 -25c19 -1 36 3 36 13c1 9 -14 13 -35 14c-12 0 -35 0 -48 -2zM501 -36h-1c-107 -7 -158 27 -158 92
c-63 -44 -137 -73 -200 -71c-46 1 -111 17 -124 82c-16 82 42 169 97 221c104 96 231 140 337 130c40 -4 76 -20 81 -55c3 -26 -9 -42 -16 -50c-6 -6 -12 -9 -14 -7c-1 2 3 4 9 12c6 7 13 23 9 44c-4 27 -39 42 -69 43c-99 3 -211 -82 -270 -145c-56 -59 -106 -153 -93 -216
c7 -31 28 -49 65 -50c71 -2 147 52 228 152c47 59 79 116 84 164c3 21 -7 39 -30 39c-17 0 -22 -6 -23 -4c-2 3 9 12 24 12c34 2 54 -22 53 -64c-1 -23 -8 -60 -24 -94c20 10 55 22 91 30c-8 10 -12 26 -12 39c1 27 16 58 41 79c-6 6 -11 20 -11 33c0 18 7 29 10 28
s-2 -5 -2 -28c0 -9 4 -22 10 -28c19 16 48 31 81 42c34 11 79 21 131 21c66 0 106 -29 105 -63c-3 -45 -78 -75 -155 -75c-51 0 -102 16 -122 31c-6 -7 -17 -26 -21 -39c-3 -11 -4 -25 -3 -31c11 1 30 3 50 2c32 -1 55 -7 53 -25c-1 -14 -30 -20 -55 -20
c-42 0 -75 10 -94 27c-24 -9 -51 -27 -75 -49c-28 -25 -53 -65 -59 -96c-12 -62 17 -97 91 -93c56 3 103 27 139 51c25 17 56 45 70 58c6 5 10 7 13 4c2 -2 -1 -7 -11 -15c-17 -16 -49 -43 -72 -59c-32 -22 -93 -54 -158 -59z" />
    <glyph glyph-name="ordmasculine" unicode="&#xba;" horiz-adv-x="275" 
d="M190 286h-1c-34 0 -49 14 -49 34c0 27 28 56 51 69c24 15 51 23 76 24c12 1 19 -1 19 -3s-4 -3 -10 -6c-14 -6 -33 -21 -50 -38c-20 -18 -38 -45 -39 -59c-1 -8 3 -12 10 -12c16 0 44 18 66 42c1 8 3 18 11 31c8 12 16 17 23 21c1 4 1 8 0 12c-2 7 -4 8 -2 10
s10 -1 15 -5c8 -6 13 -14 12 -25c0 -16 -15 -37 -37 -57c1 -1 5 -3 9 -2c7 -1 16 3 24 9c11 8 23 19 30 26c3 3 7 7 10 5c2 -2 -2 -7 -5 -10c-9 -10 -18 -18 -30 -26c-10 -7 -20 -13 -31 -12c-5 -1 -12 1 -15 3c-21 -16 -57 -31 -87 -31z" />
    <glyph glyph-name="ae" unicode="&#xe6;" horiz-adv-x="403" 
d="M248 9c16 0 52 8 96 37c19 13 45 34 58 46c8 7 11 7 13 5s-1 -7 -10 -15c-13 -11 -35 -31 -58 -47c-41 -28 -84 -43 -122 -44c-56 -2 -75 18 -74 41c0 6 1 14 5 19l-1 1c-26 -24 -73 -60 -122 -61c-32 -1 -55 9 -54 39c1 16 10 35 31 57l-1 1c-1 -1 -7 -6 -10 -8
c-7 -7 -12 -9 -14 -7c-2 3 1 7 7 13c10 10 25 22 37 29c18 13 38 25 64 36c30 14 56 19 87 23c15 2 41 1 42 -5c0 -5 -13 -4 -29 -10c-22 -7 -54 -25 -91 -61c-37 -37 -57 -66 -55 -79c1 -7 6 -10 13 -10c19 0 57 22 84 47c41 37 79 83 108 114c7 8 13 10 21 10
c22 0 27 0 20 -11c-4 -5 -11 -14 -14 -17c23 13 47 23 73 23c31 0 44 -14 43 -30c-2 -27 -35 -47 -66 -62c-29 -14 -73 -26 -98 -31c-4 -6 -6 -15 -6 -22c0 -13 8 -21 23 -21zM236 62c18 3 44 13 69 31c26 19 42 43 44 56c2 9 -2 15 -11 15c-10 0 -27 -10 -53 -38
c-21 -21 -38 -44 -49 -64z" />
    <glyph glyph-name="dotlessi" unicode="&#x131;" horiz-adv-x="193" 
d="M97 150c-14 -5 -34 -18 -57 -36c-15 -12 -30 -25 -40 -34c-7 -6 -11 -8 -14 -6c-2 2 0 6 8 14c10 9 43 38 72 56c26 18 50 27 80 27c34 0 39 -4 27 -16c-22 -25 -37 -42 -56 -66c-17 -21 -28 -38 -34 -49c-6 -12 -7 -19 -3 -22s12 -1 22 4c11 5 27 16 44 30
c21 17 31 26 47 40c7 7 11 10 14 7s-4 -9 -9 -14c-12 -12 -40 -37 -58 -51c-29 -22 -61 -43 -100 -43c-29 0 -39 12 -39 28c0 13 7 27 14 38c20 33 67 83 82 93z" />
    <glyph glyph-name="lslash" unicode="&#x142;" horiz-adv-x="193" 
d="M155 305c-12 -3 -20 -3 -22 2c-2 8 4 12 16 15c10 3 40 9 78 16c27 30 56 60 82 84c11 11 28 20 47 20c17 0 27 -6 29 -10c-11 -11 -39 -42 -71 -77c36 7 64 12 83 16c10 2 15 2 16 -1c1 -4 -4 -5 -12 -7c-15 -4 -56 -15 -102 -25c-35 -39 -68 -79 -98 -117
c-56 -68 -118 -154 -128 -183c-3 -8 -3 -15 2 -19c5 -3 13 -1 22 3c11 5 29 16 47 30c16 12 38 31 51 43c5 5 8 7 11 4c2 -2 0 -6 -9 -14c-9 -9 -40 -37 -60 -51c-28 -21 -64 -43 -103 -43c-30 0 -41 13 -41 31c1 25 23 63 54 100c-11 -9 -19 -16 -25 -22
c-12 -10 -20 -16 -24 -17c-3 -1 -3 2 1 7c12 13 26 25 45 42c11 10 46 50 67 72c25 32 62 75 96 113c-27 -6 -47 -11 -52 -12z" />
    <glyph glyph-name="oslash" unicode="&#xf8;" horiz-adv-x="293" 
d="M204 166h-1c-18 0 -55 -26 -89 -59c-21 -20 -42 -51 -52 -74c-2 -5 -5 -14 -5 -19c47 45 113 109 155 150c-2 2 -5 2 -8 2zM71 1h1c22 0 67 32 97 63c0 11 3 26 16 45c11 16 25 25 34 30c1 5 1 12 0 16c-43 -41 -111 -106 -158 -151c2 -2 5 -3 10 -3zM25 113
c10 7 25 17 42 26c30 17 72 32 103 36c18 2 38 1 50 -3c10 9 21 20 32 31c15 15 21 18 25 15c4 -4 1 -9 -16 -24c-7 -7 -17 -17 -29 -27c14 -9 23 -23 23 -39c-1 -24 -24 -57 -57 -85c3 -2 10 -2 14 -2c12 1 25 7 38 16c18 13 33 27 43 36c6 6 10 9 13 6c3 -2 1 -6 -5 -11
c-11 -10 -29 -26 -47 -39c-14 -10 -27 -17 -43 -18c-8 0 -18 2 -22 5c-27 -20 -81 -44 -125 -46c-5 0 -10 0 -16 2c-17 -17 -29 -29 -36 -35c-4 -4 -9 -7 -11 -4c-2 2 0 5 5 11c7 6 19 18 31 30c-33 6 -43 25 -44 45c0 19 9 39 27 57l-1 1c-5 -4 -10 -8 -17 -15
c-10 -9 -13 -11 -16 -8c-2 3 2 7 6 12c9 9 21 18 33 27z" />
    <glyph glyph-name="oe" unicode="&#x153;" horiz-adv-x="413" 
d="M246 62c18 3 44 13 69 31c26 19 41 43 44 56c1 9 -2 15 -11 15c-10 0 -28 -10 -54 -38c-20 -21 -38 -44 -48 -64zM25 113c10 7 26 17 42 26c28 16 75 35 111 35c13 0 23 -1 23 -6c0 -2 -6 -3 -14 -7c-23 -11 -47 -30 -72 -55c-27 -27 -56 -69 -57 -91c-1 -7 3 -14 13 -14
c23 0 61 26 98 63c15 14 31 36 37 47c10 17 13 32 11 44c-2 8 -5 13 -2 15s14 -1 22 -7s14 -15 16 -22c7 6 22 12 37 17c23 10 51 17 71 17c32 0 45 -14 44 -30c-2 -27 -35 -47 -66 -62c-30 -14 -73 -26 -99 -31c-3 -6 -6 -15 -6 -22c0 -13 9 -21 25 -21c14 0 51 8 95 37
c19 13 45 34 58 46c7 7 10 7 12 5s-1 -7 -10 -15c-12 -11 -35 -31 -57 -47c-42 -28 -84 -43 -124 -44c-45 -1 -64 12 -70 30c-28 -16 -67 -30 -99 -30c-50 0 -70 20 -71 48c0 19 9 39 27 57l-1 1c-5 -4 -10 -8 -17 -15c-10 -9 -13 -11 -16 -8c-2 3 2 7 6 12c9 9 21 18 33 27
z" />
    <glyph glyph-name="germandbls" unicode="&#xdf;" horiz-adv-x="388" 
d="M278 23c15 5 34 15 56 29c24 15 41 29 54 41c5 5 12 10 15 7c2 -3 -2 -8 -6 -12c-12 -11 -34 -29 -56 -44c-22 -14 -47 -26 -66 -33c-18 -7 -58 -20 -104 -20c-53 0 -72 32 -67 59c5 33 33 56 59 54c17 -1 24 -14 22 -24s-9 -16 -22 -25c-7 -5 -21 -15 -23 -29
c-2 -16 9 -25 24 -25c23 0 47 17 64 49c14 26 22 68 14 98c-8 29 -26 60 -6 85c20 23 68 29 115 58c44 28 60 54 67 83c4 17 -5 31 -22 32c-27 2 -65 -12 -120 -75c-26 -30 -72 -100 -110 -155c-38 -54 -78 -115 -137 -188c-76 -95 -155 -145 -232 -146c-52 0 -80 21 -83 41
c-3 18 10 34 29 34c20 0 28 -19 32 -33c6 -22 16 -32 27 -32c48 0 88 38 161 139c33 45 66 97 95 140v1c-21 -17 -40 -35 -50 -45c-4 -4 -11 -8 -14 -5c-1 2 1 6 7 12c19 17 52 47 82 73c31 43 72 102 97 131c83 95 164 122 219 117c40 -3 61 -35 50 -67
c-7 -22 -31 -47 -65 -66c-46 -26 -124 -35 -136 -54c-13 -21 31 -56 47 -80c23 -31 25 -60 14 -88c-6 -15 -19 -29 -31 -37z" />
    <glyph glyph-name="logicalnot" unicode="&#xac;" horiz-adv-x="457" 
d="M80 160v1c0 4 7 7 19 7c75 1 207 6 302 9c16 0 18 -10 13 -15c-33 -37 -81 -92 -106 -124c-5 -6 -15 -16 -20 -13c-4 2 1 11 5 19c18 28 48 73 69 101c-101 3 -178 5 -263 7c-9 0 -19 3 -19 8z" />
    <glyph glyph-name="mu" unicode="&#xb5;" horiz-adv-x="375" 
d="M99 21c22 11 44 27 75 51c44 35 71 62 105 90c9 7 14 11 41 11c31 0 38 -2 27 -16c-17 -21 -33 -41 -53 -68c-15 -22 -25 -36 -31 -47s-7 -18 -3 -22c5 -4 15 -2 25 3c11 6 26 16 41 28c22 17 38 32 50 43c4 4 10 8 13 5s-3 -9 -11 -16c-14 -13 -37 -33 -58 -50
c-20 -16 -58 -42 -95 -42c-38 0 -45 20 -43 36c0 12 7 25 16 38c7 11 18 22 28 34l-2 2c-18 -16 -46 -38 -65 -53c-34 -25 -76 -57 -119 -57c-14 0 -23 8 -24 17c-8 -9 -18 -24 -23 -34c-9 -17 -19 -38 -22 -56c-1 -7 0 -17 4 -21c-2 -4 -10 -6 -19 -3c-7 3 -18 12 -13 37
c3 15 10 35 22 57c12 23 37 59 51 77c20 26 58 69 81 85c-14 -5 -34 -18 -57 -36c-15 -12 -30 -25 -40 -34c-7 -6 -11 -8 -14 -6c-2 2 0 6 8 14c10 9 43 38 72 56c26 18 50 27 78 27c32 0 37 -3 26 -16c-16 -18 -35 -41 -55 -66c-17 -21 -31 -40 -38 -54
c-4 -7 -5 -14 -1 -17c4 -4 12 -3 23 3z" />
    <glyph glyph-name="trademark" unicode="&#x2122;" horiz-adv-x="503" 
d="M267 294c-3 -26 -5 -52 -6 -65c0 -19 3 -22 14 -23v-13h-44v13c11 1 14 4 18 27c2 15 5 35 6 49c2 14 0 17 -16 20v12h55c5 -13 11 -26 19 -44c5 -11 9 -20 14 -32l35 76h55v-12c-16 -1 -16 -11 -15 -22c2 -20 3 -44 4 -55c2 -14 6 -17 19 -19v-13h-73v13
c14 2 17 5 17 20c0 14 -1 37 -3 68c0 0 -13 -26 -21 -44c-9 -20 -16 -35 -24 -54l-11 -3c-8 21 -14 34 -23 55c-7 18 -14 32 -20 46zM228 277l-13 -2c-6 27 -11 26 -35 26v-29v-40c0 -19 4 -25 21 -26v-13h-77v13c17 1 21 7 21 26v40v29c-25 0 -30 1 -36 -26l-13 2l4 37h124
z" />
    <glyph glyph-name="Eth" unicode="&#xd0;" horiz-adv-x="728" 
d="M506 174c33 -2 59 -3 74 -4c8 -1 12 -2 12 -5s-8 -4 -12 -4c-20 -1 -48 -1 -87 -2c-73 -85 -152 -123 -238 -148c30 -5 80 -10 104 -10c101 0 203 41 264 134c45 66 48 150 8 200c-41 -40 -79 -106 -125 -161zM404 156h-19c-10 0 -18 3 -16 10c0 8 10 12 17 12
c9 0 21 -1 32 -1c4 3 8 8 12 12c60 73 137 134 182 162c-44 35 -117 63 -219 63c-158 0 -296 -100 -297 -212c-1 -49 26 -77 75 -80c55 -3 106 21 141 53c34 32 55 69 55 97s-19 45 -44 46c-26 1 -50 -13 -64 -26c-13 -13 -16 -20 -19 -19c-2 1 3 12 15 25
c11 11 37 33 73 31c29 -1 57 -21 59 -57c3 -39 -18 -82 -57 -114c-37 -30 -101 -48 -160 -45c-69 2 -131 35 -131 96c0 120 181 214 354 214c107 0 185 -29 231 -64c14 9 40 22 68 32c31 11 66 20 102 20c30 0 49 -9 58 -16c7 -6 10 -14 8 -15s-2 4 -13 11
c-9 5 -26 10 -50 10c-32 0 -65 -9 -94 -21c-26 -11 -48 -26 -60 -36c73 -63 95 -159 54 -231c-65 -112 -223 -122 -323 -122c-53 0 -121 5 -148 8c-27 -5 -89 -7 -112 -7c-90 0 -160 -3 -158 16c2 20 63 23 146 20c26 0 95 -8 134 -14c72 19 118 80 168 142z" />
    <glyph glyph-name="onehalf" unicode="&#xbd;" horiz-adv-x="442" 
d="M267 25c8 1 14 2 23 2c19 -1 42 -9 53 -9c14 0 23 4 35 20c3 3 6 4 8 3s1 -3 -1 -6c-23 -29 -41 -44 -65 -44c-14 0 -26 4 -38 9c-9 4 -24 9 -34 9c-12 0 -23 -3 -30 -8c-6 -3 -8 -9 -10 -10c-3 -1 -6 2 -4 8c1 2 5 6 9 9c15 10 40 20 64 32c42 20 81 52 87 77
c4 13 -4 22 -17 22c-12 0 -26 -5 -38 -14c-9 -7 -17 -15 -19 -25c-3 -12 6 -19 17 -17c3 1 5 1 5 0c1 -2 -2 -3 -4 -4c-4 -2 -10 -4 -17 -3c-15 1 -18 11 -17 20c3 15 14 27 31 38s42 22 64 22c31 1 53 -12 47 -40c-6 -26 -35 -45 -66 -61c-25 -12 -64 -23 -83 -30zM376 300
c8 0 24 -1 -5 -28c-82 -76 -194 -185 -299 -306c-5 -6 -11 -13 -15 -10c-2 3 1 10 6 17c85 109 178 214 266 300c14 14 25 27 47 27zM164 235c-18 -10 -38 -24 -51 -30c-15 -7 -30 -9 -32 -4c-1 3 7 4 35 18c19 9 38 20 54 30c17 10 33 17 40 17c8 0 8 -5 -3 -18
c-42 -49 -65 -81 -91 -119c-15 -22 -19 -25 -62 -31c-11 -2 -11 1 5 21c30 38 85 102 105 116z" />
    <glyph glyph-name="plusminus" unicode="&#xb1;" horiz-adv-x="359" 
d="M299 276h1c17 0 32 -3 5 -32c-15 -16 -36 -39 -56 -61c40 -1 72 -2 110 -4c9 0 16 -1 16 -6c0 -4 -8 -6 -15 -6c-40 -1 -79 -2 -124 -3c-24 -26 -39 -42 -59 -63c-9 -9 -17 -13 -21 -11s-4 8 2 16c14 20 26 36 41 57c-33 0 -68 -1 -101 -1c-22 0 -26 4 -24 12
c2 9 8 14 21 14c35 -1 78 -3 117 -4c14 20 33 45 47 64c12 16 21 28 40 28zM304 63c0 -3 -4 -6 -18 -6c-78 -2 -146 -5 -237 -5c-21 0 -23 5 -22 12c3 10 12 16 24 16c76 -3 172 -8 239 -10c9 0 15 -2 14 -7z" />
    <glyph glyph-name="Thorn" unicode="&#xde;" horiz-adv-x="623" 
d="M197 98c-53 -33 -128 -87 -161 -114c-39 -33 -82 -74 -82 -95c0 -9 7 -13 16 -12c33 2 104 45 227 221zM488 361c27 6 57 15 72 21c25 9 79 33 81 57c1 14 -7 21 -25 21c-31 -1 -64 -33 -82 -50c-13 -12 -29 -31 -46 -49zM379 231c33 29 105 87 158 87
c29 0 66 -18 64 -70c-1 -33 -21 -70 -49 -103c-76 -91 -204 -138 -267 -130c-30 3 -42 17 -38 22c3 3 9 -10 36 -12c55 -6 147 69 211 148c76 93 67 131 36 133c-43 2 -126 -63 -180 -111c-67 -89 -145 -178 -213 -238c-59 -53 -125 -90 -164 -94c-17 -1 -32 6 -32 24
c-1 25 38 64 87 104c39 33 117 87 180 125c8 11 35 50 59 81c27 33 84 101 123 137v1c-25 -4 -55 -8 -84 -9c-67 -1 -126 11 -125 56c2 35 43 55 72 60c15 3 27 2 27 -2c-1 -2 -10 0 -24 -5c-21 -8 -43 -24 -43 -53c1 -37 40 -48 93 -47c32 1 61 4 94 11c26 25 51 46 83 68
c33 24 86 55 133 55c22 0 37 -12 35 -31c-4 -31 -56 -54 -91 -66c-22 -8 -49 -15 -82 -24c-32 -39 -86 -100 -99 -117z" />
    <glyph glyph-name="onequarter" unicode="&#xbc;" horiz-adv-x="423" 
d="M199 44c0 4 4 6 7 8c15 11 47 35 73 51c36 22 53 31 69 39c11 6 31 14 48 14c6 0 8 -3 5 -6c-27 -33 -59 -79 -70 -94c6 0 14 -1 22 -2c7 -1 12 -4 11 -8c-1 -1 -3 -2 -11 -2c-10 0 -22 1 -29 1c-10 -13 -19 -26 -29 -40c-8 -11 -23 -15 -43 -20c-12 -2 -15 -1 -3 18
c10 15 18 27 31 42c-15 0 -32 0 -42 -1c-13 0 -24 -1 -32 -2c-5 -1 -7 -1 -7 2zM357 138c-23 -13 -43 -25 -69 -41c-25 -16 -45 -31 -61 -41v-1c15 1 43 2 61 2c10 13 54 65 69 81zM376 300c8 0 23 -1 -5 -28c-82 -76 -194 -185 -299 -306c-6 -6 -11 -13 -15 -10
c-3 3 1 10 6 17c84 109 178 214 266 300c14 14 25 27 47 27zM164 235c-18 -10 -38 -24 -51 -30c-15 -7 -30 -9 -32 -4c-1 3 7 4 35 18c19 9 38 20 54 30c17 10 33 17 40 17c8 0 8 -5 -3 -18c-42 -49 -65 -81 -91 -119c-15 -22 -19 -25 -62 -31c-11 -2 -11 1 5 21
c30 38 85 102 105 116z" />
    <glyph glyph-name="divide" unicode="&#xf7;" horiz-adv-x="319" 
d="M220 223h1c16 0 21 -11 10 -25c-11 -15 -37 -27 -48 -27c-4 6 -5 21 0 33c7 16 20 19 37 19zM311 129v-1c0 -3 -7 -5 -18 -5c-80 -3 -145 -5 -224 -6c-20 0 -22 5 -21 13c2 10 11 16 24 15c76 -3 159 -6 225 -9c6 0 14 -2 14 -7zM165 86h1c16 0 21 -12 10 -26
s-37 -26 -47 -26c-5 6 -6 21 0 33c7 15 20 19 36 19z" />
    <glyph glyph-name="brokenbar" unicode="&#xa6;" horiz-adv-x="155" 
d="M93 675v-350h-31v350h31zM62 175h31v-350h-31v350z" />
    <glyph glyph-name="degree" unicode="&#xb0;" horiz-adv-x="167" 
d="M137 273h1c25 0 48 -22 48 -49s-23 -49 -49 -49c-27 0 -50 22 -50 49s23 49 50 49zM137 252h-1c-15 0 -28 -12 -28 -28s13 -29 29 -29s28 13 28 29s-12 28 -28 28z" />
    <glyph glyph-name="thorn" unicode="&#xfe;" horiz-adv-x="376" 
d="M67 155c19 17 43 41 75 72c16 18 55 64 87 99c27 31 61 66 86 89c17 17 36 27 55 27c17 0 27 -6 28 -10c-50 -50 -122 -131 -178 -199c-58 -70 -160 -200 -256 -331c-89 -119 -112 -152 -179 -257c-9 -14 -8 -18 -6 -20c3 -2 8 1 12 6c13 15 50 67 79 108
c20 29 67 91 115 155c40 54 82 107 120 152c25 30 61 66 88 86c28 20 62 42 99 42c31 0 44 -13 41 -31c-2 -17 -23 -40 -40 -60c-16 -19 -26 -32 -32 -42c-7 -11 -7 -18 -3 -21c5 -4 17 -1 25 3c12 6 27 16 45 29c18 14 37 32 48 41c5 5 10 10 13 7s-1 -8 -4 -11
c-13 -12 -43 -39 -65 -55c-21 -15 -57 -41 -99 -41c-28 0 -40 13 -40 29c0 22 20 47 37 68c15 18 35 40 43 50c5 7 4 12 0 13c-6 2 -15 -1 -22 -4c-32 -16 -65 -42 -103 -83c-29 -32 -93 -110 -146 -182c-48 -63 -91 -122 -121 -165c-32 -47 -68 -97 -87 -113
c-8 -7 -22 -15 -42 -14c-17 1 -27 11 -27 25c0 21 18 53 38 84c53 79 78 114 139 197c48 66 160 212 211 275c-46 -42 -84 -77 -100 -92c-9 -7 -12 -10 -15 -7c-2 3 0 6 6 12c18 17 55 51 75 69z" />
    <glyph glyph-name="threequarters" unicode="&#xbe;" horiz-adv-x="461" 
d="M158 197c11 1 22 -2 31 -9s13 -20 8 -33c-5 -17 -24 -31 -43 -39c-21 -9 -43 -14 -66 -14c-28 1 -47 10 -44 32c1 13 14 28 32 28c13 0 20 -7 19 -15c-1 -6 -4 -9 -11 -13c-8 -4 -13 -7 -13 -12c-1 -7 5 -11 16 -11c16 1 44 11 65 50c6 12 8 26 -3 28c-6 1 -10 -1 -15 -3
s-8 -4 -9 -2c-1 3 2 8 9 10c33 11 61 30 61 47c0 8 -8 13 -18 13c-11 0 -21 -3 -30 -9c-8 -5 -14 -12 -17 -19c-3 -6 -1 -11 0 -13c2 -3 2 -5 1 -6c-2 -1 -7 -1 -12 3s-7 10 -5 16c3 9 15 19 29 27c15 8 34 14 54 14c29 0 38 -11 38 -22c0 -13 -11 -28 -34 -37
c-14 -5 -31 -9 -43 -11zM239 44c0 4 3 6 7 8c14 11 47 35 73 51c36 22 52 31 69 39c11 6 31 14 48 14c6 0 8 -3 5 -6c-27 -33 -59 -79 -70 -94c6 0 14 -1 21 -2c8 -1 12 -4 11 -8c0 -1 -2 -2 -10 -2c-10 0 -22 1 -29 1c-10 -13 -19 -26 -29 -40c-8 -11 -23 -15 -44 -20
c-11 -2 -14 -1 -2 18c9 15 18 27 30 42c-14 0 -28 0 -41 -1c-13 0 -23 -1 -32 -2c-5 -1 -7 -1 -7 2zM397 138c-23 -13 -43 -25 -69 -41c-25 -16 -46 -31 -62 -41v-1c15 1 44 2 61 2c17 20 50 61 70 81zM415 300c9 0 24 -1 -5 -28c-81 -76 -194 -185 -299 -306
c-5 -6 -10 -13 -14 -10c-3 3 0 10 5 17c85 109 179 214 266 300c14 14 26 27 47 27z" />
    <glyph glyph-name="registered" unicode="&#xae;" horiz-adv-x="453" 
d="M369 283v-1c0 -72 -63 -130 -136 -130s-136 58 -136 131c0 72 63 132 136 132s136 -60 136 -132zM347 283v1c0 62 -51 113 -114 113s-114 -51 -114 -114s51 -114 114 -114s114 51 114 114zM324 226v-10c-6 0 -23 -1 -29 0c-15 0 -26 7 -42 29c-7 10 -15 21 -18 29
c0 0 -3 -1 -7 -1s-9 1 -9 1v-18c0 -23 4 -28 22 -28v-11h-75v11c19 0 19 5 19 29v58c0 20 -3 24 -19 24v11h70c29 0 54 -8 54 -35c0 -15 -11 -25 -24 -31c5 -9 11 -21 21 -34c8 -11 22 -22 37 -24zM219 338v-53c25 -1 36 6 36 29c0 16 -10 26 -36 24z" />
    <glyph glyph-name="minus" unicode="&#x2212;" horiz-adv-x="362" 
d="M348 130c0 -4 -7 -7 -17 -7c-79 -3 -183 -5 -262 -6c-24 0 -24 7 -22 14c2 9 12 16 24 16c76 -3 198 -8 264 -10c8 0 13 -2 13 -7z" />
    <glyph glyph-name="eth" unicode="&#xf0;" horiz-adv-x="302" 
d="M72 2c22 0 62 32 87 60c26 29 44 58 47 80c1 8 -2 14 -10 15c-16 2 -43 -15 -81 -51c-28 -27 -54 -68 -57 -88c-1 -10 3 -16 14 -16zM182 174h5c27 -2 34 -23 30 -39c14 19 34 70 35 109c0 6 0 12 -1 17c-40 -14 -64 -21 -90 -30c-5 -2 -12 -4 -13 0c-1 3 3 7 10 11
c24 11 51 22 89 38c-9 41 -35 70 -76 72c-15 1 -20 -2 -21 1c-1 4 6 8 21 9c47 3 99 -15 126 -61c20 8 32 13 51 20c9 3 19 4 23 -6c3 -9 -5 -13 -17 -18c-16 -6 -32 -12 -48 -17c4 -13 6 -26 7 -41c2 -91 -55 -159 -101 -196c-32 -26 -86 -52 -148 -52c-48 0 -69 20 -69 48
c-1 20 8 40 25 57l-1 1c-5 -4 -10 -8 -17 -15c-10 -9 -13 -11 -16 -8c-2 3 2 7 6 12c9 9 21 18 33 27c10 7 25 17 42 26c29 16 73 35 115 35z" />
    <glyph glyph-name="multiply" unicode="&#xd7;" horiz-adv-x="314" 
d="M175 144c46 34 87 65 97 73c21 16 34 23 53 23c18 0 19 -6 -16 -31c-20 -14 -72 -49 -129 -88c7 -28 14 -58 20 -88c3 -12 2 -17 -1 -19c-5 -2 -8 4 -11 11c-7 20 -18 50 -29 81c-45 -31 -89 -59 -129 -86c-11 -8 -18 -11 -21 -8c-2 3 0 7 12 16c22 17 77 57 131 98
c-12 33 -23 64 -28 78c-6 15 -2 25 11 33c12 7 18 3 21 -11c5 -21 11 -50 19 -82z" />
    <glyph glyph-name="copyright" unicode="&#xa9;" horiz-adv-x="509" 
d="M266 290h1c85 0 158 -69 158 -155s-73 -154 -159 -154c-85 0 -159 68 -159 154s74 155 159 155zM266 271h-1c-73 0 -135 -62 -135 -136c0 -75 62 -136 136 -136s136 61 136 136c0 74 -62 136 -136 136zM339 163h-15c-1 24 -14 41 -44 41c-35 0 -53 -25 -53 -68
c0 -44 18 -69 51 -69c31 0 44 18 50 35h12c-1 -7 -2 -16 -4 -24c-3 -10 -4 -15 -14 -19c-12 -5 -33 -8 -46 -8c-49 0 -93 27 -93 82s46 86 97 86c20 0 35 -3 44 -8c10 -5 15 -12 15 -26v-22z" />
    <glyph glyph-name="Aacute" unicode="&#xc1;" horiz-adv-x="713" 
d="M17 56v1c0 40 30 64 56 65c27 1 44 -13 42 -35c0 -13 -11 -23 -24 -33c-9 -7 -17 -14 -17 -25c0 -21 30 -38 93 -33c78 7 147 46 202 84c-27 21 -62 65 -61 116c1 60 48 111 121 111c57 0 93 -35 115 -77c14 14 28 27 43 40c53 51 103 93 153 120c38 20 90 38 129 38
c32 0 46 -7 51 -12c7 -6 9 -13 6 -14c-2 -1 -3 3 -10 7c-5 4 -14 6 -22 6c-11 0 -23 -4 -32 -11c-23 -18 -59 -61 -82 -94c-62 -86 -129 -188 -186 -281c15 1 38 8 58 19c21 11 40 26 56 40c8 8 13 11 16 9c3 -3 -1 -8 -9 -15c-14 -13 -36 -31 -60 -43
c-21 -11 -46 -19 -66 -20c-14 -16 -29 -22 -64 -26c-29 -4 -27 7 -23 14c2 5 6 11 8 15c-19 2 -47 9 -70 17c-22 9 -45 21 -61 33c-37 -27 -121 -82 -215 -89c-78 -6 -147 18 -147 73zM556 97c34 52 87 130 123 174c67 85 136 129 191 147v1c-40 0 -90 -18 -125 -37
c-47 -26 -95 -67 -134 -102c-22 -21 -46 -44 -62 -60c7 -18 11 -39 12 -60c1 -23 -1 -46 -5 -63zM440 286h-1c-52 0 -79 -45 -81 -92c-2 -42 14 -78 31 -98c20 15 46 37 73 60c25 22 49 44 72 65c-20 37 -53 65 -94 65zM396 87c9 -11 34 -27 53 -36c16 -7 45 -16 66 -19
c8 14 21 35 25 42c7 14 11 51 10 80c-1 23 -5 43 -11 57c-24 -22 -49 -44 -71 -64c-26 -23 -52 -44 -72 -60zM812 471c-4 1 -6 2 -5 5c14 8 32 20 47 29c24 15 51 34 70 47c9 5 15 4 19 2c7 -3 11 -16 6 -26c-9 -12 -34 -24 -54 -31c-17 -7 -64 -23 -83 -26z" />
    <glyph glyph-name="Acircumflex" unicode="&#xc2;" horiz-adv-x="713" 
d="M17 56v1c0 40 30 64 56 65c27 1 44 -13 42 -35c0 -13 -11 -23 -24 -33c-9 -7 -17 -14 -17 -25c0 -21 30 -38 93 -33c78 7 147 46 202 84c-27 21 -62 65 -61 116c1 60 48 111 121 111c57 0 93 -35 115 -77c14 14 28 27 43 40c53 51 103 93 153 120c38 20 90 38 129 38
c32 0 46 -7 51 -12c7 -6 9 -13 6 -14c-2 -1 -3 3 -10 7c-5 4 -14 6 -22 6c-11 0 -23 -4 -32 -11c-23 -18 -59 -61 -82 -94c-62 -86 -129 -188 -186 -281c15 1 38 8 58 19c21 11 40 26 56 40c8 8 13 11 16 9c3 -3 -1 -8 -9 -15c-14 -13 -36 -31 -60 -43
c-21 -11 -46 -19 -66 -20c-14 -16 -29 -22 -64 -26c-29 -4 -27 7 -23 14c2 5 6 11 8 15c-19 2 -47 9 -70 17c-22 9 -45 21 -61 33c-37 -27 -121 -82 -215 -89c-78 -6 -147 18 -147 73zM556 97c34 52 87 130 123 174c67 85 136 129 191 147v1c-40 0 -90 -18 -125 -37
c-47 -26 -95 -67 -134 -102c-22 -21 -46 -44 -62 -60c7 -18 11 -39 12 -60c1 -23 -1 -46 -5 -63zM440 286h-1c-52 0 -79 -45 -81 -92c-2 -42 14 -78 31 -98c20 15 46 37 73 60c25 22 49 44 72 65c-20 37 -53 65 -94 65zM396 87c9 -11 34 -27 53 -36c16 -7 45 -16 66 -19
c8 14 21 35 25 42c7 14 11 51 10 80c-1 23 -5 43 -11 57c-24 -22 -49 -44 -71 -64c-26 -23 -52 -44 -72 -60zM767 468c-4 -1 -12 -3 -13 0s4 6 8 9c31 17 88 54 114 74c3 3 6 6 11 6c3 0 4 -3 6 -8c12 -27 24 -54 36 -70c3 -5 4 -8 3 -9c-3 -3 -10 1 -13 2
c-10 6 -33 20 -49 35c-33 -16 -84 -34 -103 -39z" />
    <glyph glyph-name="Adieresis" unicode="&#xc4;" horiz-adv-x="713" 
d="M17 56v1c0 40 30 64 56 65c27 1 44 -13 42 -35c0 -13 -11 -23 -24 -33c-9 -7 -17 -14 -17 -25c0 -21 30 -38 93 -33c78 7 147 46 202 84c-27 21 -62 65 -61 116c1 60 48 111 121 111c57 0 93 -35 115 -77c14 14 28 27 43 40c53 51 103 93 153 120c38 20 90 38 129 38
c32 0 46 -7 51 -12c7 -6 9 -13 6 -14c-2 -1 -3 3 -10 7c-5 4 -14 6 -22 6c-11 0 -23 -4 -32 -11c-23 -18 -59 -61 -82 -94c-62 -86 -129 -188 -186 -281c15 1 38 8 58 19c21 11 40 26 56 40c8 8 13 11 16 9c3 -3 -1 -8 -9 -15c-14 -13 -36 -31 -60 -43
c-21 -11 -46 -19 -66 -20c-14 -16 -29 -22 -64 -26c-29 -4 -27 7 -23 14c2 5 6 11 8 15c-19 2 -47 9 -70 17c-22 9 -45 21 -61 33c-37 -27 -121 -82 -215 -89c-78 -6 -147 18 -147 73zM556 97c34 52 87 130 123 174c67 85 136 129 191 147v1c-40 0 -90 -18 -125 -37
c-47 -26 -95 -67 -134 -102c-22 -21 -46 -44 -62 -60c7 -18 11 -39 12 -60c1 -23 -1 -46 -5 -63zM440 286h-1c-52 0 -79 -45 -81 -92c-2 -42 14 -78 31 -98c20 15 46 37 73 60c25 22 49 44 72 65c-20 37 -53 65 -94 65zM396 87c9 -11 34 -27 53 -36c16 -7 45 -16 66 -19
c8 14 21 35 25 42c7 14 11 51 10 80c-1 23 -5 43 -11 57c-24 -22 -49 -44 -71 -64c-26 -23 -52 -44 -72 -60zM896 476c-5 7 -6 23 0 38c7 17 24 21 44 21c17 0 23 -13 10 -29c-14 -18 -41 -30 -54 -30zM781 476c-6 7 -7 23 -1 38c7 17 23 21 43 21c17 0 24 -13 11 -29
c-16 -18 -42 -30 -53 -30z" />
    <glyph glyph-name="Agrave" unicode="&#xc0;" horiz-adv-x="713" 
d="M17 56v1c0 40 30 64 56 65c27 1 44 -13 42 -35c0 -13 -11 -23 -24 -33c-9 -7 -17 -14 -17 -25c0 -21 30 -38 93 -33c78 7 147 46 202 84c-27 21 -62 65 -61 116c1 60 48 111 121 111c57 0 93 -35 115 -77c14 14 28 27 43 40c53 51 103 93 153 120c38 20 90 38 129 38
c32 0 46 -7 51 -12c7 -6 9 -13 6 -14c-2 -1 -3 3 -10 7c-5 4 -14 6 -22 6c-11 0 -23 -4 -32 -11c-23 -18 -59 -61 -82 -94c-62 -86 -129 -188 -186 -281c15 1 38 8 58 19c21 11 40 26 56 40c8 8 13 11 16 9c3 -3 -1 -8 -9 -15c-14 -13 -36 -31 -60 -43
c-21 -11 -46 -19 -66 -20c-14 -16 -29 -22 -64 -26c-29 -4 -27 7 -23 14c2 5 6 11 8 15c-19 2 -47 9 -70 17c-22 9 -45 21 -61 33c-37 -27 -121 -82 -215 -89c-78 -6 -147 18 -147 73zM556 97c34 52 87 130 123 174c67 85 136 129 191 147v1c-40 0 -90 -18 -125 -37
c-47 -26 -95 -67 -134 -102c-22 -21 -46 -44 -62 -60c7 -18 11 -39 12 -60c1 -23 -1 -46 -5 -63zM440 286h-1c-52 0 -79 -45 -81 -92c-2 -42 14 -78 31 -98c20 15 46 37 73 60c25 22 49 44 72 65c-20 37 -53 65 -94 65zM396 87c9 -11 34 -27 53 -36c16 -7 45 -16 66 -19
c8 14 21 35 25 42c7 14 11 51 10 80c-1 23 -5 43 -11 57c-24 -22 -49 -44 -71 -64c-26 -23 -52 -44 -72 -60zM804 511c-12 8 -18 22 -12 34c4 7 10 13 17 13c6 0 12 -2 19 -10c21 -19 53 -47 79 -67c4 -4 9 -7 7 -10c-3 -4 -8 -3 -12 -1c-25 8 -79 29 -98 41z" />
    <glyph glyph-name="Aring" unicode="&#xc5;" horiz-adv-x="713" 
d="M17 56v1c0 40 30 64 56 65c27 1 44 -13 42 -35c0 -13 -11 -23 -24 -33c-9 -7 -17 -14 -17 -25c0 -21 30 -38 93 -33c78 7 147 46 202 84c-27 21 -62 65 -61 116c1 60 48 111 121 111c57 0 93 -35 115 -77c14 14 28 27 43 40c53 51 103 93 153 120c38 20 90 38 129 38
c32 0 46 -7 51 -12c7 -6 9 -13 6 -14c-2 -1 -3 3 -10 7c-5 4 -14 6 -22 6c-11 0 -23 -4 -32 -11c-23 -18 -59 -61 -82 -94c-62 -86 -129 -188 -186 -281c15 1 38 8 58 19c21 11 40 26 56 40c8 8 13 11 16 9c3 -3 -1 -8 -9 -15c-14 -13 -36 -31 -60 -43
c-21 -11 -46 -19 -66 -20c-14 -16 -29 -22 -64 -26c-29 -4 -27 7 -23 14c2 5 6 11 8 15c-19 2 -47 9 -70 17c-22 9 -45 21 -61 33c-37 -27 -121 -82 -215 -89c-78 -6 -147 18 -147 73zM556 97c34 52 87 130 123 174c67 85 136 129 191 147v1c-40 0 -90 -18 -125 -37
c-47 -26 -95 -67 -134 -102c-22 -21 -46 -44 -62 -60c7 -18 11 -39 12 -60c1 -23 -1 -46 -5 -63zM440 286h-1c-52 0 -79 -45 -81 -92c-2 -42 14 -78 31 -98c20 15 46 37 73 60c25 22 49 44 72 65c-20 37 -53 65 -94 65zM396 87c9 -11 34 -27 53 -36c16 -7 45 -16 66 -19
c8 14 21 35 25 42c7 14 11 51 10 80c-1 23 -5 43 -11 57c-24 -22 -49 -44 -71 -64c-26 -23 -52 -44 -72 -60zM865 471c-28 0 -48 21 -48 49c0 25 20 49 48 49s49 -24 49 -49c0 -28 -22 -49 -49 -49zM865 495c15 0 25 11 25 25c0 13 -10 26 -25 26s-24 -13 -24 -26
c0 -14 9 -25 24 -25z" />
    <glyph glyph-name="Atilde" unicode="&#xc3;" horiz-adv-x="713" 
d="M17 56v1c0 40 30 64 56 65c27 1 44 -13 42 -35c0 -13 -11 -23 -24 -33c-9 -7 -17 -14 -17 -25c0 -21 30 -38 93 -33c78 7 147 46 202 84c-27 21 -62 65 -61 116c1 60 48 111 121 111c57 0 93 -35 115 -77c14 14 28 27 43 40c53 51 103 93 153 120c38 20 90 38 129 38
c32 0 46 -7 51 -12c7 -6 9 -13 6 -14c-2 -1 -3 3 -10 7c-5 4 -14 6 -22 6c-11 0 -23 -4 -32 -11c-23 -18 -59 -61 -82 -94c-62 -86 -129 -188 -186 -281c15 1 38 8 58 19c21 11 40 26 56 40c8 8 13 11 16 9c3 -3 -1 -8 -9 -15c-14 -13 -36 -31 -60 -43
c-21 -11 -46 -19 -66 -20c-14 -16 -29 -22 -64 -26c-29 -4 -27 7 -23 14c2 5 6 11 8 15c-19 2 -47 9 -70 17c-22 9 -45 21 -61 33c-37 -27 -121 -82 -215 -89c-78 -6 -147 18 -147 73zM556 97c34 52 87 130 123 174c67 85 136 129 191 147v1c-40 0 -90 -18 -125 -37
c-47 -26 -95 -67 -134 -102c-22 -21 -46 -44 -62 -60c7 -18 11 -39 12 -60c1 -23 -1 -46 -5 -63zM440 286h-1c-52 0 -79 -45 -81 -92c-2 -42 14 -78 31 -98c20 15 46 37 73 60c25 22 49 44 72 65c-20 37 -53 65 -94 65zM396 87c9 -11 34 -27 53 -36c16 -7 45 -16 66 -19
c8 14 21 35 25 42c7 14 11 51 10 80c-1 23 -5 43 -11 57c-24 -22 -49 -44 -71 -64c-26 -23 -52 -44 -72 -60zM776 477c-2 1 -3 5 1 12c12 23 34 44 61 43c26 -1 41 -21 63 -23c19 -1 31 8 41 17c4 4 6 7 9 5c3 -1 2 -4 -1 -10c-12 -25 -31 -46 -59 -46c-24 0 -41 21 -66 23
c-18 2 -32 -6 -40 -16c-3 -3 -6 -6 -9 -5z" />
    <glyph glyph-name="Ccedilla" unicode="&#xc7;" horiz-adv-x="408" 
d="M20 70c-3 87 61 175 158 243c-15 18 -25 39 -25 63c0 56 52 94 118 94h1c58 0 105 -26 130 -63c13 3 35 6 54 6c57 2 126 -17 119 -75c-7 -68 -121 -98 -197 -98c-56 0 -121 11 -159 38c-67 -60 -119 -145 -119 -208c0 -52 26 -90 98 -87c56 2 106 29 142 54
c24 16 46 37 63 52c11 9 16 12 18 10c2 -3 -2 -8 -12 -17c-22 -20 -46 -42 -68 -58c-34 -23 -85 -54 -157 -59c-16 0 -32 0 -47 2c-9 -7 -23 -21 -27 -26c3 1 9 2 13 2c29 0 46 -17 43 -40c-3 -24 -36 -42 -75 -40c-33 2 -50 15 -57 25c-6 8 -6 15 -3 17c2 1 4 -2 9 -7
c8 -6 22 -15 49 -15c17 1 32 8 35 21c4 13 -6 24 -24 23c-10 -1 -15 -6 -18 -3c-3 2 0 6 3 9c10 11 26 26 36 35c-61 9 -98 42 -101 102zM379 250h1c67 0 141 30 151 92c5 44 -27 63 -75 63c-17 0 -38 -3 -50 -7c8 -14 13 -35 14 -55c1 -21 -2 -34 -4 -33s-1 10 -4 28
c-3 20 -13 42 -22 55c-53 -17 -125 -67 -164 -108c37 -25 101 -35 153 -35zM271 456h-1c-56 0 -104 -29 -104 -80c0 -19 7 -42 20 -57c67 42 135 69 198 84c-21 29 -67 53 -113 53z" />
    <glyph glyph-name="Eacute" unicode="&#xc9;" horiz-adv-x="413" 
d="M229 268v1c0 21 10 44 22 59c-24 18 -42 44 -41 72c2 39 37 65 88 65c44 0 92 -18 125 -53c17 2 48 5 76 4c67 -3 109 -31 108 -64c-2 -45 -76 -81 -155 -81c-52 0 -99 8 -142 27c-5 -7 -11 -18 -14 -29c-4 -13 -4 -25 -3 -31c8 1 30 3 50 2c31 -1 55 -7 53 -25
c-2 -14 -30 -20 -55 -20c-43 0 -76 10 -95 27c-23 -9 -51 -27 -75 -49c-27 -25 -53 -65 -58 -96c-13 -62 25 -96 90 -93c56 3 103 27 139 51c25 17 55 45 70 57c5 5 10 8 13 5c2 -2 -1 -7 -11 -15c-17 -16 -49 -43 -72 -59c-33 -22 -93 -54 -158 -59
c-106 -7 -164 36 -150 113c15 85 129 135 207 152c-8 10 -12 26 -12 39zM450 281h1c60 0 126 27 128 71c2 25 -18 53 -77 55c-25 1 -52 -6 -68 -12c4 -7 13 -25 15 -42c4 -20 1 -33 -2 -32c-2 1 0 5 -7 27c-3 13 -12 30 -22 41c-18 -9 -40 -22 -59 -37
c-15 -11 -33 -31 -44 -45c37 -18 86 -26 135 -26zM402 408c-29 28 -68 48 -105 48c-46 0 -74 -22 -76 -56c-1 -24 14 -48 36 -65c12 15 32 30 62 43c27 15 59 25 83 30zM295 230c4 -15 27 -24 47 -25c19 -1 35 3 36 13c1 9 -15 13 -35 14c-15 1 -35 0 -48 -2zM461 471
c-4 1 -6 2 -5 5c14 8 32 20 47 29c24 15 51 34 70 47c9 5 15 4 19 2c7 -3 11 -16 6 -26c-9 -12 -34 -24 -54 -31c-17 -7 -64 -23 -83 -26z" />
    <glyph glyph-name="Ecircumflex" unicode="&#xca;" horiz-adv-x="413" 
d="M229 268v1c0 21 10 44 22 59c-24 18 -42 44 -41 72c2 39 37 65 88 65c44 0 92 -18 125 -53c17 2 48 5 76 4c67 -3 109 -31 108 -64c-2 -45 -76 -81 -155 -81c-52 0 -99 8 -142 27c-5 -7 -11 -18 -14 -29c-4 -13 -4 -25 -3 -31c8 1 30 3 50 2c31 -1 55 -7 53 -25
c-2 -14 -30 -20 -55 -20c-43 0 -76 10 -95 27c-23 -9 -51 -27 -75 -49c-27 -25 -53 -65 -58 -96c-13 -62 25 -96 90 -93c56 3 103 27 139 51c25 17 55 45 70 57c5 5 10 8 13 5c2 -2 -1 -7 -11 -15c-17 -16 -49 -43 -72 -59c-33 -22 -93 -54 -158 -59
c-106 -7 -164 36 -150 113c15 85 129 135 207 152c-8 10 -12 26 -12 39zM450 281h1c60 0 126 27 128 71c2 25 -18 53 -77 55c-25 1 -52 -6 -68 -12c4 -7 13 -25 15 -42c4 -20 1 -33 -2 -32c-2 1 0 5 -7 27c-3 13 -12 30 -22 41c-18 -9 -40 -22 -59 -37
c-15 -11 -33 -31 -44 -45c37 -18 86 -26 135 -26zM402 408c-29 28 -68 48 -105 48c-46 0 -74 -22 -76 -56c-1 -24 14 -48 36 -65c12 15 32 30 62 43c27 15 59 25 83 30zM295 230c4 -15 27 -24 47 -25c19 -1 35 3 36 13c1 9 -15 13 -35 14c-15 1 -35 0 -48 -2zM439 468
c-4 -1 -12 -3 -13 0s4 6 8 9c31 17 88 54 114 74c3 3 6 6 11 6c3 0 4 -3 6 -8c12 -27 24 -54 36 -70c3 -5 4 -8 3 -9c-3 -3 -10 1 -13 2c-10 6 -33 20 -49 35c-33 -16 -84 -34 -103 -39z" />
    <glyph glyph-name="Edieresis" unicode="&#xcb;" horiz-adv-x="413" 
d="M229 268v1c0 21 10 44 22 59c-24 18 -42 44 -41 72c2 39 37 65 88 65c44 0 92 -18 125 -53c17 2 48 5 76 4c67 -3 109 -31 108 -64c-2 -45 -76 -81 -155 -81c-52 0 -99 8 -142 27c-5 -7 -11 -18 -14 -29c-4 -13 -4 -25 -3 -31c8 1 30 3 50 2c31 -1 55 -7 53 -25
c-2 -14 -30 -20 -55 -20c-43 0 -76 10 -95 27c-23 -9 -51 -27 -75 -49c-27 -25 -53 -65 -58 -96c-13 -62 25 -96 90 -93c56 3 103 27 139 51c25 17 55 45 70 57c5 5 10 8 13 5c2 -2 -1 -7 -11 -15c-17 -16 -49 -43 -72 -59c-33 -22 -93 -54 -158 -59
c-106 -7 -164 36 -150 113c15 85 129 135 207 152c-8 10 -12 26 -12 39zM450 281h1c60 0 126 27 128 71c2 25 -18 53 -77 55c-25 1 -52 -6 -68 -12c4 -7 13 -25 15 -42c4 -20 1 -33 -2 -32c-2 1 0 5 -7 27c-3 13 -12 30 -22 41c-18 -9 -40 -22 -59 -37
c-15 -11 -33 -31 -44 -45c37 -18 86 -26 135 -26zM402 408c-29 28 -68 48 -105 48c-46 0 -74 -22 -76 -56c-1 -24 14 -48 36 -65c12 15 32 30 62 43c27 15 59 25 83 30zM295 230c4 -15 27 -24 47 -25c19 -1 35 3 36 13c1 9 -15 13 -35 14c-15 1 -35 0 -48 -2zM555 476
c-5 7 -6 23 0 38c7 17 24 21 44 21c17 0 23 -13 10 -29c-14 -18 -41 -30 -54 -30zM440 476c-6 7 -7 23 -1 38c7 17 23 21 43 21c17 0 24 -13 11 -29c-16 -18 -42 -30 -53 -30z" />
    <glyph glyph-name="Egrave" unicode="&#xc8;" horiz-adv-x="413" 
d="M229 268v1c0 21 10 44 22 59c-24 18 -42 44 -41 72c2 39 37 65 88 65c44 0 92 -18 125 -53c17 2 48 5 76 4c67 -3 109 -31 108 -64c-2 -45 -76 -81 -155 -81c-52 0 -99 8 -142 27c-5 -7 -11 -18 -14 -29c-4 -13 -4 -25 -3 -31c8 1 30 3 50 2c31 -1 55 -7 53 -25
c-2 -14 -30 -20 -55 -20c-43 0 -76 10 -95 27c-23 -9 -51 -27 -75 -49c-27 -25 -53 -65 -58 -96c-13 -62 25 -96 90 -93c56 3 103 27 139 51c25 17 55 45 70 57c5 5 10 8 13 5c2 -2 -1 -7 -11 -15c-17 -16 -49 -43 -72 -59c-33 -22 -93 -54 -158 -59
c-106 -7 -164 36 -150 113c15 85 129 135 207 152c-8 10 -12 26 -12 39zM450 281h1c60 0 126 27 128 71c2 25 -18 53 -77 55c-25 1 -52 -6 -68 -12c4 -7 13 -25 15 -42c4 -20 1 -33 -2 -32c-2 1 0 5 -7 27c-3 13 -12 30 -22 41c-18 -9 -40 -22 -59 -37
c-15 -11 -33 -31 -44 -45c37 -18 86 -26 135 -26zM402 408c-29 28 -68 48 -105 48c-46 0 -74 -22 -76 -56c-1 -24 14 -48 36 -65c12 15 32 30 62 43c27 15 59 25 83 30zM295 230c4 -15 27 -24 47 -25c19 -1 35 3 36 13c1 9 -15 13 -35 14c-15 1 -35 0 -48 -2zM445 511
c-12 8 -18 22 -12 34c4 7 10 13 17 13c6 0 12 -2 19 -10c21 -19 53 -47 79 -67c4 -4 9 -7 7 -10c-3 -4 -8 -3 -12 -1c-25 8 -79 29 -98 41z" />
    <glyph glyph-name="Iacute" unicode="&#xcd;" horiz-adv-x="483" 
d="M644 415c-21 -5 -84 -17 -114 -24c-47 -11 -99 -29 -145 -55c-33 -19 -64 -50 -64 -79c0 -17 11 -25 25 -25c10 0 20 4 26 8c5 3 8 7 10 5c2 -3 0 -6 -5 -11c-7 -6 -22 -13 -36 -14c-31 -2 -58 14 -58 43c0 38 38 72 88 94c42 20 109 36 157 46c38 8 98 17 116 23
c12 4 21 7 27 6c8 -1 7 -12 -2 -16c-32 -13 -66 -50 -95 -91c-33 -47 -60 -95 -89 -133c-112 -145 -235 -210 -378 -210c-73 0 -125 25 -125 77c0 35 27 67 63 67c32 0 44 -23 40 -44c-2 -10 -9 -22 -22 -32c-11 -10 -20 -18 -20 -31c0 -15 21 -27 58 -27
c108 0 208 84 296 201c43 57 76 99 104 128c38 38 89 78 143 94zM572 471c-4 1 -6 2 -5 5c14 8 32 20 47 29c24 15 51 34 70 47c9 5 15 4 19 2c7 -3 11 -16 6 -26c-9 -12 -34 -24 -54 -31c-17 -7 -64 -23 -83 -26z" />
    <glyph glyph-name="Icircumflex" unicode="&#xce;" horiz-adv-x="483" 
d="M644 415c-21 -5 -84 -17 -114 -24c-47 -11 -99 -29 -145 -55c-33 -19 -64 -50 -64 -79c0 -17 11 -25 25 -25c10 0 20 4 26 8c5 3 8 7 10 5c2 -3 0 -6 -5 -11c-7 -6 -22 -13 -36 -14c-31 -2 -58 14 -58 43c0 38 38 72 88 94c42 20 109 36 157 46c38 8 98 17 116 23
c12 4 21 7 27 6c8 -1 7 -12 -2 -16c-32 -13 -66 -50 -95 -91c-33 -47 -60 -95 -89 -133c-112 -145 -235 -210 -378 -210c-73 0 -125 25 -125 77c0 35 27 67 63 67c32 0 44 -23 40 -44c-2 -10 -9 -22 -22 -32c-11 -10 -20 -18 -20 -31c0 -15 21 -27 58 -27
c108 0 208 84 296 201c43 57 76 99 104 128c38 38 89 78 143 94zM543 468c-4 -1 -12 -3 -13 0s4 6 8 9c31 17 88 54 114 74c3 3 6 6 11 6c3 0 4 -3 6 -8c12 -27 24 -54 36 -70c3 -5 4 -8 3 -9c-3 -3 -10 1 -13 2c-10 6 -33 20 -49 35c-33 -16 -84 -34 -103 -39z" />
    <glyph glyph-name="Idieresis" unicode="&#xcf;" horiz-adv-x="483" 
d="M644 415c-21 -5 -84 -17 -114 -24c-47 -11 -99 -29 -145 -55c-33 -19 -64 -50 -64 -79c0 -17 11 -25 25 -25c10 0 20 4 26 8c5 3 8 7 10 5c2 -3 0 -6 -5 -11c-7 -6 -22 -13 -36 -14c-31 -2 -58 14 -58 43c0 38 38 72 88 94c42 20 109 36 157 46c38 8 98 17 116 23
c12 4 21 7 27 6c8 -1 7 -12 -2 -16c-32 -13 -66 -50 -95 -91c-33 -47 -60 -95 -89 -133c-112 -145 -235 -210 -378 -210c-73 0 -125 25 -125 77c0 35 27 67 63 67c32 0 44 -23 40 -44c-2 -10 -9 -22 -22 -32c-11 -10 -20 -18 -20 -31c0 -15 21 -27 58 -27
c108 0 208 84 296 201c43 57 76 99 104 128c38 38 89 78 143 94zM694 476c-5 7 -6 23 0 38c7 17 24 21 44 21c17 0 23 -13 10 -29c-14 -18 -41 -30 -54 -30zM579 476c-6 7 -7 23 -1 38c7 17 23 21 43 21c17 0 24 -13 11 -29c-16 -18 -42 -30 -53 -30z" />
    <glyph glyph-name="Igrave" unicode="&#xcc;" horiz-adv-x="483" 
d="M644 415c-21 -5 -84 -17 -114 -24c-47 -11 -99 -29 -145 -55c-33 -19 -64 -50 -64 -79c0 -17 11 -25 25 -25c10 0 20 4 26 8c5 3 8 7 10 5c2 -3 0 -6 -5 -11c-7 -6 -22 -13 -36 -14c-31 -2 -58 14 -58 43c0 38 38 72 88 94c42 20 109 36 157 46c38 8 98 17 116 23
c12 4 21 7 27 6c8 -1 7 -12 -2 -16c-32 -13 -66 -50 -95 -91c-33 -47 -60 -95 -89 -133c-112 -145 -235 -210 -378 -210c-73 0 -125 25 -125 77c0 35 27 67 63 67c32 0 44 -23 40 -44c-2 -10 -9 -22 -22 -32c-11 -10 -20 -18 -20 -31c0 -15 21 -27 58 -27
c108 0 208 84 296 201c43 57 76 99 104 128c38 38 89 78 143 94zM559 511c-12 8 -18 22 -12 34c4 7 10 13 17 13c6 0 12 -2 19 -10c21 -19 53 -47 79 -67c4 -4 9 -7 7 -10c-3 -4 -8 -3 -12 -1c-25 8 -79 29 -98 41z" />
    <glyph glyph-name="Ntilde" unicode="&#xd1;" horiz-adv-x="670" 
d="M-93 48v1c0 41 35 65 64 65c28 0 42 -14 42 -34c0 -13 -7 -22 -19 -33c-11 -9 -21 -18 -23 -29c-3 -21 20 -34 66 -34c81 0 190 45 281 115c91 69 166 152 217 249c6 12 18 28 29 39c14 13 32 24 49 24c16 0 20 -7 15 -14c-10 -14 -18 -33 -23 -55
c-7 -31 -10 -76 -14 -122c-6 -77 -14 -124 -26 -153h1c35 51 126 175 190 247c74 84 153 160 229 159c41 -1 64 -29 62 -63c-1 -5 -2 -11 -5 -11c-2 0 -1 5 -3 11c-6 18 -22 30 -54 31c-70 3 -156 -74 -218 -139c-94 -98 -164 -199 -234 -300c-6 -9 -16 -21 -31 -16
c-17 5 -20 16 -17 26c12 37 24 99 27 161c3 56 6 112 17 142h-1c-40 -77 -126 -166 -204 -225c-96 -72 -203 -117 -288 -119c-64 -1 -129 20 -129 77zM689 477c-2 1 -3 5 1 12c12 23 34 44 61 43c26 -1 41 -21 63 -23c19 -1 31 8 41 17c4 4 6 7 9 5c3 -1 2 -4 -1 -10
c-12 -25 -31 -46 -59 -46c-24 0 -41 21 -66 23c-18 2 -32 -6 -40 -16c-3 -3 -6 -6 -9 -5z" />
    <glyph glyph-name="Oacute" unicode="&#xd3;" horiz-adv-x="456" 
d="M161 52v-1c0 -19 6 -30 13 -38c3 -3 5 -4 4 -6s-5 -1 -8 2c-12 8 -21 22 -25 44c-5 42 15 108 67 171c70 87 167 137 225 134c37 -2 52 -31 52 -69c0 -39 -20 -103 -63 -156c-68 -83 -191 -151 -284 -148c-46 1 -110 17 -124 82c-18 82 44 172 96 221
c95 90 232 140 338 130c38 -4 69 -19 74 -55c2 -19 -6 -38 -17 -49c-5 -6 -12 -10 -14 -8c-1 3 2 3 8 12c8 10 14 27 12 44c-4 27 -33 43 -63 43c-99 3 -215 -86 -271 -145c-57 -61 -107 -153 -93 -216c6 -31 29 -49 66 -50c71 -2 146 52 228 152c47 59 80 118 84 166
c3 25 -13 36 -30 37c-51 3 -126 -50 -193 -135c-48 -61 -82 -123 -82 -162zM396 471c-4 1 -6 2 -5 5c14 8 32 20 47 29c24 15 51 34 70 47c9 5 15 4 19 2c7 -3 11 -16 6 -26c-9 -12 -34 -24 -54 -31c-17 -7 -64 -23 -83 -26z" />
    <glyph glyph-name="Ocircumflex" unicode="&#xd4;" horiz-adv-x="456" 
d="M161 52v-1c0 -19 6 -30 13 -38c3 -3 5 -4 4 -6s-5 -1 -8 2c-12 8 -21 22 -25 44c-5 42 15 108 67 171c70 87 167 137 225 134c37 -2 52 -31 52 -69c0 -39 -20 -103 -63 -156c-68 -83 -191 -151 -284 -148c-46 1 -110 17 -124 82c-18 82 44 172 96 221
c95 90 232 140 338 130c38 -4 69 -19 74 -55c2 -19 -6 -38 -17 -49c-5 -6 -12 -10 -14 -8c-1 3 2 3 8 12c8 10 14 27 12 44c-4 27 -33 43 -63 43c-99 3 -215 -86 -271 -145c-57 -61 -107 -153 -93 -216c6 -31 29 -49 66 -50c71 -2 146 52 228 152c47 59 80 118 84 166
c3 25 -13 36 -30 37c-51 3 -126 -50 -193 -135c-48 -61 -82 -123 -82 -162zM359 468c-4 -1 -12 -3 -13 0s4 6 8 9c31 17 88 54 114 74c3 3 6 6 11 6c3 0 4 -3 6 -8c12 -27 24 -54 36 -70c3 -5 4 -8 3 -9c-3 -3 -10 1 -13 2c-10 6 -33 20 -49 35c-33 -16 -84 -34 -103 -39z
" />
    <glyph glyph-name="Odieresis" unicode="&#xd6;" horiz-adv-x="456" 
d="M161 52v-1c0 -19 6 -30 13 -38c3 -3 5 -4 4 -6s-5 -1 -8 2c-12 8 -21 22 -25 44c-5 42 15 108 67 171c70 87 167 137 225 134c37 -2 52 -31 52 -69c0 -39 -20 -103 -63 -156c-68 -83 -191 -151 -284 -148c-46 1 -110 17 -124 82c-18 82 44 172 96 221
c95 90 232 140 338 130c38 -4 69 -19 74 -55c2 -19 -6 -38 -17 -49c-5 -6 -12 -10 -14 -8c-1 3 2 3 8 12c8 10 14 27 12 44c-4 27 -33 43 -63 43c-99 3 -215 -86 -271 -145c-57 -61 -107 -153 -93 -216c6 -31 29 -49 66 -50c71 -2 146 52 228 152c47 59 80 118 84 166
c3 25 -13 36 -30 37c-51 3 -126 -50 -193 -135c-48 -61 -82 -123 -82 -162zM487 476c-5 7 -6 23 0 38c7 17 24 21 44 21c17 0 23 -13 10 -29c-14 -18 -41 -30 -54 -30zM372 476c-6 7 -7 23 -1 38c7 17 23 21 43 21c17 0 24 -13 11 -29c-16 -18 -42 -30 -53 -30z" />
    <glyph glyph-name="Ograve" unicode="&#xd2;" horiz-adv-x="456" 
d="M161 52v-1c0 -19 6 -30 13 -38c3 -3 5 -4 4 -6s-5 -1 -8 2c-12 8 -21 22 -25 44c-5 42 15 108 67 171c70 87 167 137 225 134c37 -2 52 -31 52 -69c0 -39 -20 -103 -63 -156c-68 -83 -191 -151 -284 -148c-46 1 -110 17 -124 82c-18 82 44 172 96 221
c95 90 232 140 338 130c38 -4 69 -19 74 -55c2 -19 -6 -38 -17 -49c-5 -6 -12 -10 -14 -8c-1 3 2 3 8 12c8 10 14 27 12 44c-4 27 -33 43 -63 43c-99 3 -215 -86 -271 -145c-57 -61 -107 -153 -93 -216c6 -31 29 -49 66 -50c71 -2 146 52 228 152c47 59 80 118 84 166
c3 25 -13 36 -30 37c-51 3 -126 -50 -193 -135c-48 -61 -82 -123 -82 -162zM391 511c-12 8 -18 22 -12 34c4 7 10 13 17 13c6 0 12 -2 19 -10c21 -19 53 -47 79 -67c4 -4 9 -7 7 -10c-3 -4 -8 -3 -12 -1c-25 8 -79 29 -98 41z" />
    <glyph glyph-name="Otilde" unicode="&#xd5;" horiz-adv-x="456" 
d="M161 52v-1c0 -19 6 -30 13 -38c3 -3 5 -4 4 -6s-5 -1 -8 2c-12 8 -21 22 -25 44c-5 42 15 108 67 171c70 87 167 137 225 134c37 -2 52 -31 52 -69c0 -39 -20 -103 -63 -156c-68 -83 -191 -151 -284 -148c-46 1 -110 17 -124 82c-18 82 44 172 96 221
c95 90 232 140 338 130c38 -4 69 -19 74 -55c2 -19 -6 -38 -17 -49c-5 -6 -12 -10 -14 -8c-1 3 2 3 8 12c8 10 14 27 12 44c-4 27 -33 43 -63 43c-99 3 -215 -86 -271 -145c-57 -61 -107 -153 -93 -216c6 -31 29 -49 66 -50c71 -2 146 52 228 152c47 59 80 118 84 166
c3 25 -13 36 -30 37c-51 3 -126 -50 -193 -135c-48 -61 -82 -123 -82 -162zM375 477c-2 1 -3 5 1 12c12 23 34 44 61 43c26 -1 41 -21 63 -23c19 -1 31 8 41 17c4 4 6 7 9 5c3 -1 2 -4 -1 -10c-12 -25 -31 -46 -59 -46c-24 0 -41 21 -66 23c-18 2 -32 -6 -40 -16
c-3 -3 -6 -6 -9 -5z" />
    <glyph glyph-name="Scaron" unicode="&#x160;" horiz-adv-x="588" 
d="M393 219c48 18 102 40 153 58c42 59 89 104 129 129c22 14 54 27 79 27c18 0 36 -6 34 -27c-3 -33 -58 -74 -123 -101c-8 -4 -19 -8 -27 -11c-17 -29 -35 -67 -53 -102c-76 -152 -221 -209 -354 -218c-52 -3 -129 2 -173 29c-33 -27 -63 -62 -77 -88c-3 -5 -4 -10 -7 -9
s-1 9 0 12c10 27 35 61 69 95c-27 21 -49 55 -46 98c8 98 136 150 230 156c53 4 134 -8 166 -48zM643 307c6 2 16 6 21 8c53 23 109 58 114 91c2 14 -11 20 -25 18c-13 -2 -29 -12 -45 -28c-20 -19 -44 -53 -65 -89zM256 70h-1c-26 0 -56 7 -79 22c-19 -12 -36 -24 -55 -38
c-11 -9 -25 -19 -34 -28c35 -36 100 -47 153 -43c105 9 183 78 256 210c13 22 29 49 44 69v1c-45 -16 -96 -36 -140 -55c5 -8 9 -22 8 -35c-5 -67 -88 -103 -152 -103zM254 80h1c53 0 121 36 124 93c1 12 -1 20 -3 26c-20 -9 -44 -19 -68 -30c-33 -16 -78 -42 -123 -71
c21 -13 49 -18 69 -18zM372 210c-23 44 -97 52 -145 48c-70 -5 -163 -52 -170 -140c-2 -33 5 -60 18 -78c10 9 22 19 32 26c21 15 33 24 55 38c-10 9 -18 22 -20 36c-1 5 0 10 3 10c2 0 2 -3 4 -8c5 -15 12 -24 22 -33c43 26 91 51 133 71c22 10 46 21 68 30zM744 477
c-3 0 -4 3 -6 7c-10 24 -26 54 -36 71c-3 5 -4 7 -3 8c3 3 8 0 12 -2c11 -5 33 -20 49 -35c33 16 85 34 103 39c4 1 12 4 13 0c1 -3 -4 -6 -7 -8c-31 -18 -90 -57 -115 -75c-4 -3 -6 -5 -10 -5z" />
    <glyph glyph-name="Uacute" unicode="&#xda;" horiz-adv-x="586" 
d="M427 134c-47 -46 -159 -143 -237 -143c-39 0 -54 15 -53 42c1 38 40 92 123 185c66 75 99 126 106 153c7 30 -15 40 -36 40c-54 0 -120 -32 -176 -87c-41 -40 -80 -90 -80 -130c0 -24 12 -40 36 -41c17 -1 28 5 36 10c11 7 12 12 15 10s-5 -11 -12 -16
c-9 -7 -24 -14 -42 -13c-29 2 -47 20 -52 49c-8 45 23 110 76 154c62 52 144 74 203 74c56 0 95 -20 95 -58c0 -44 -48 -100 -97 -157c-56 -64 -119 -139 -124 -173c-2 -14 5 -20 16 -20c24 0 69 24 105 51c59 43 95 79 146 140c57 66 133 137 172 168c30 24 81 55 110 51
c18 -3 14 -24 -5 -45c-23 -25 -53 -47 -75 -63c-33 -24 -52 -37 -91 -70c-10 -11 -17 -21 -26 -32c-77 -102 -105 -152 -107 -174c-2 -12 1 -19 10 -21c13 -2 38 8 62 26c20 14 41 32 57 46c7 6 12 10 15 7c2 -2 -2 -7 -8 -13c-17 -17 -45 -39 -60 -50
c-14 -11 -61 -43 -100 -43c-33 -1 -50 16 -50 42c0 31 25 71 48 101zM611 277c20 15 41 29 60 43c29 20 55 44 65 54c21 22 26 36 19 39c-10 4 -33 -15 -54 -38c-29 -30 -59 -63 -90 -98zM540 459c-4 1 -6 2 -5 5c14 8 32 20 47 29c24 15 51 34 70 47c9 5 15 4 19 2
c7 -3 11 -16 6 -26c-9 -12 -34 -24 -54 -31c-17 -7 -64 -23 -83 -26z" />
    <glyph glyph-name="Ucircumflex" unicode="&#xdb;" horiz-adv-x="586" 
d="M427 134c-47 -46 -159 -143 -237 -143c-39 0 -54 15 -53 42c1 38 40 92 123 185c66 75 99 126 106 153c7 30 -15 40 -36 40c-54 0 -120 -32 -176 -87c-41 -40 -80 -90 -80 -130c0 -24 12 -40 36 -41c17 -1 28 5 36 10c11 7 12 12 15 10s-5 -11 -12 -16
c-9 -7 -24 -14 -42 -13c-29 2 -47 20 -52 49c-8 45 23 110 76 154c62 52 144 74 203 74c56 0 95 -20 95 -58c0 -44 -48 -100 -97 -157c-56 -64 -119 -139 -124 -173c-2 -14 5 -20 16 -20c24 0 69 24 105 51c59 43 95 79 146 140c57 66 133 137 172 168c30 24 81 55 110 51
c18 -3 14 -24 -5 -45c-23 -25 -53 -47 -75 -63c-33 -24 -52 -37 -91 -70c-10 -11 -17 -21 -26 -32c-77 -102 -105 -152 -107 -174c-2 -12 1 -19 10 -21c13 -2 38 8 62 26c20 14 41 32 57 46c7 6 12 10 15 7c2 -2 -2 -7 -8 -13c-17 -17 -45 -39 -60 -50
c-14 -11 -61 -43 -100 -43c-33 -1 -50 16 -50 42c0 31 25 71 48 101zM611 277c20 15 41 29 60 43c29 20 55 44 65 54c21 22 26 36 19 39c-10 4 -33 -15 -54 -38c-29 -30 -59 -63 -90 -98zM505 468c-4 -1 -12 -3 -13 0s4 6 8 9c31 17 88 54 114 74c3 3 6 6 11 6
c3 0 4 -3 6 -8c12 -27 24 -54 36 -70c3 -5 4 -8 3 -9c-3 -3 -10 1 -13 2c-10 6 -33 20 -49 35c-33 -16 -84 -34 -103 -39z" />
    <glyph glyph-name="Udieresis" unicode="&#xdc;" horiz-adv-x="586" 
d="M427 134c-47 -46 -159 -143 -237 -143c-39 0 -54 15 -53 42c1 38 40 92 123 185c66 75 99 126 106 153c7 30 -15 40 -36 40c-54 0 -120 -32 -176 -87c-41 -40 -80 -90 -80 -130c0 -24 12 -40 36 -41c17 -1 28 5 36 10c11 7 12 12 15 10s-5 -11 -12 -16
c-9 -7 -24 -14 -42 -13c-29 2 -47 20 -52 49c-8 45 23 110 76 154c62 52 144 74 203 74c56 0 95 -20 95 -58c0 -44 -48 -100 -97 -157c-56 -64 -119 -139 -124 -173c-2 -14 5 -20 16 -20c24 0 69 24 105 51c59 43 95 79 146 140c57 66 133 137 172 168c30 24 81 55 110 51
c18 -3 14 -24 -5 -45c-23 -25 -53 -47 -75 -63c-33 -24 -52 -37 -91 -70c-10 -11 -17 -21 -26 -32c-77 -102 -105 -152 -107 -174c-2 -12 1 -19 10 -21c13 -2 38 8 62 26c20 14 41 32 57 46c7 6 12 10 15 7c2 -2 -2 -7 -8 -13c-17 -17 -45 -39 -60 -50
c-14 -11 -61 -43 -100 -43c-33 -1 -50 16 -50 42c0 31 25 71 48 101zM611 277c20 15 41 29 60 43c29 20 55 44 65 54c21 22 26 36 19 39c-10 4 -33 -15 -54 -38c-29 -30 -59 -63 -90 -98zM613 476c-5 7 -6 23 0 38c7 17 24 21 44 21c17 0 23 -13 10 -29
c-14 -18 -41 -30 -54 -30zM498 476c-6 7 -7 23 -1 38c7 17 23 21 43 21c17 0 24 -13 11 -29c-16 -18 -42 -30 -53 -30z" />
    <glyph glyph-name="Ugrave" unicode="&#xd9;" horiz-adv-x="586" 
d="M427 134c-47 -46 -159 -143 -237 -143c-39 0 -54 15 -53 42c1 38 40 92 123 185c66 75 99 126 106 153c7 30 -15 40 -36 40c-54 0 -120 -32 -176 -87c-41 -40 -80 -90 -80 -130c0 -24 12 -40 36 -41c17 -1 28 5 36 10c11 7 12 12 15 10s-5 -11 -12 -16
c-9 -7 -24 -14 -42 -13c-29 2 -47 20 -52 49c-8 45 23 110 76 154c62 52 144 74 203 74c56 0 95 -20 95 -58c0 -44 -48 -100 -97 -157c-56 -64 -119 -139 -124 -173c-2 -14 5 -20 16 -20c24 0 69 24 105 51c59 43 95 79 146 140c57 66 133 137 172 168c30 24 81 55 110 51
c18 -3 14 -24 -5 -45c-23 -25 -53 -47 -75 -63c-33 -24 -52 -37 -91 -70c-10 -11 -17 -21 -26 -32c-77 -102 -105 -152 -107 -174c-2 -12 1 -19 10 -21c13 -2 38 8 62 26c20 14 41 32 57 46c7 6 12 10 15 7c2 -2 -2 -7 -8 -13c-17 -17 -45 -39 -60 -50
c-14 -11 -61 -43 -100 -43c-33 -1 -50 16 -50 42c0 31 25 71 48 101zM611 277c20 15 41 29 60 43c29 20 55 44 65 54c21 22 26 36 19 39c-10 4 -33 -15 -54 -38c-29 -30 -59 -63 -90 -98zM505 499c-12 8 -18 22 -12 34c4 7 10 13 17 13c6 0 12 -2 19 -10
c21 -19 53 -47 79 -67c4 -4 9 -7 7 -10c-3 -4 -8 -3 -12 -1c-25 8 -79 29 -98 41z" />
    <glyph glyph-name="Yacute" unicode="&#xdd;" horiz-adv-x="542" 
d="M437 144c-57 -57 -169 -153 -247 -153c-39 0 -54 15 -53 42c1 38 40 92 123 185c66 75 99 126 106 153c7 30 -15 41 -36 41c-54 0 -120 -33 -176 -88c-41 -40 -80 -90 -80 -130c0 -24 11 -41 35 -42c18 0 29 6 37 11c9 6 12 12 15 10c2 -2 -4 -10 -12 -16
c-10 -7 -22 -13 -41 -13c-29 0 -49 20 -53 49c-6 46 22 111 73 155c62 53 146 74 206 74c56 0 96 -20 95 -59c-1 -44 -48 -100 -97 -157c-56 -64 -119 -139 -124 -173c-2 -14 5 -20 16 -20c24 0 69 24 105 51c59 43 95 79 146 140c57 66 109 125 157 170c21 19 70 54 102 49
c20 -3 20 -24 5 -43c-18 -24 -48 -49 -68 -65c-29 -24 -47 -37 -81 -70c-18 -25 -94 -128 -130 -178c-39 -55 -64 -92 -87 -123c101 3 160 -46 148 -121c-2 -14 -8 -21 -11 -20s0 3 2 19c8 71 -46 117 -146 112c-30 -43 -62 -85 -106 -135c-93 -107 -207 -163 -266 -163
c-24 0 -49 9 -46 42c5 58 86 134 148 176c65 44 141 72 195 83c51 73 115 164 146 207zM613 278c18 15 34 28 51 42c24 20 43 37 57 54c18 21 21 35 14 39c-10 6 -30 -15 -48 -38c-24 -30 -48 -62 -74 -97zM283 -75c-50 -12 -116 -38 -177 -80c-51 -35 -123 -114 -126 -169
c-1 -18 8 -26 19 -28c19 -3 41 5 64 19c33 21 85 74 128 132c24 32 57 78 92 126zM517 471c-4 1 -6 2 -5 5c14 8 32 20 47 29c24 15 51 34 70 47c9 5 15 4 19 2c7 -3 11 -16 6 -26c-9 -12 -34 -24 -54 -31c-17 -7 -64 -23 -83 -26z" />
    <glyph glyph-name="Ydieresis" unicode="&#x178;" horiz-adv-x="542" 
d="M437 144c-57 -57 -169 -153 -247 -153c-39 0 -54 15 -53 42c1 38 40 92 123 185c66 75 99 126 106 153c7 30 -15 41 -36 41c-54 0 -120 -33 -176 -88c-41 -40 -80 -90 -80 -130c0 -24 11 -41 35 -42c18 0 29 6 37 11c9 6 12 12 15 10c2 -2 -4 -10 -12 -16
c-10 -7 -22 -13 -41 -13c-29 0 -49 20 -53 49c-6 46 22 111 73 155c62 53 146 74 206 74c56 0 96 -20 95 -59c-1 -44 -48 -100 -97 -157c-56 -64 -119 -139 -124 -173c-2 -14 5 -20 16 -20c24 0 69 24 105 51c59 43 95 79 146 140c57 66 109 125 157 170c21 19 70 54 102 49
c20 -3 20 -24 5 -43c-18 -24 -48 -49 -68 -65c-29 -24 -47 -37 -81 -70c-18 -25 -94 -128 -130 -178c-39 -55 -64 -92 -87 -123c101 3 160 -46 148 -121c-2 -14 -8 -21 -11 -20s0 3 2 19c8 71 -46 117 -146 112c-30 -43 -62 -85 -106 -135c-93 -107 -207 -163 -266 -163
c-24 0 -49 9 -46 42c5 58 86 134 148 176c65 44 141 72 195 83c51 73 115 164 146 207zM613 278c18 15 34 28 51 42c24 20 43 37 57 54c18 21 21 35 14 39c-10 6 -30 -15 -48 -38c-24 -30 -48 -62 -74 -97zM283 -75c-50 -12 -116 -38 -177 -80c-51 -35 -123 -114 -126 -169
c-1 -18 8 -26 19 -28c19 -3 41 5 64 19c33 21 85 74 128 132c24 32 57 78 92 126zM608 476c-5 7 -6 23 0 38c7 17 24 21 44 21c17 0 23 -13 10 -29c-14 -18 -41 -30 -54 -30zM493 476c-6 7 -7 23 -1 38c7 17 23 21 43 21c17 0 24 -13 11 -29c-16 -18 -42 -30 -53 -30z" />
    <glyph glyph-name="Zcaron" unicode="&#x17d;" horiz-adv-x="482" 
d="M459 327c-43 -24 -101 -42 -143 -43c-56 -2 -97 11 -94 56c4 48 72 83 132 85c7 0 15 -1 15 -5c0 -3 -7 -2 -15 -3c-34 -3 -71 -21 -73 -48c-2 -28 27 -37 53 -39c51 -3 105 4 143 18c13 15 30 32 51 49c18 15 34 23 47 20c8 -2 13 -13 4 -23c-16 -19 -50 -34 -79 -50
c-25 -22 -86 -68 -135 -104c-43 -32 -80 -58 -104 -75v-1c11 2 23 3 41 1c67 -5 109 -47 112 -121c21 12 47 32 64 46c6 5 13 11 16 9c4 -4 -7 -13 -11 -17c-13 -13 -45 -37 -68 -49c-3 -80 -62 -154 -140 -220c-113 -96 -294 -173 -383 -172c-39 1 -62 16 -63 46
c-2 72 115 141 211 190c115 60 200 84 291 133c9 39 11 86 -11 111c-21 23 -64 26 -85 22c-19 -15 -39 -29 -61 -43c-39 -25 -65 -34 -73 -21c-7 12 22 39 57 55c27 13 59 24 80 28c24 16 63 45 102 74c45 33 89 68 119 91zM328 -3c-87 -47 -183 -79 -282 -132
c-93 -50 -208 -111 -206 -178c1 -25 24 -36 51 -36c80 0 215 69 310 167c65 67 112 129 127 179zM215 140c-13 -1 -33 -8 -52 -17c-28 -13 -48 -29 -45 -35s23 3 49 20c19 12 37 24 48 32zM454 459c-3 0 -4 3 -6 7c-10 24 -26 54 -36 71c-3 5 -4 7 -3 8c3 3 8 0 12 -2
c11 -5 33 -20 49 -35c33 16 85 34 103 39c4 1 12 4 13 0c1 -3 -4 -6 -7 -8c-31 -18 -90 -57 -115 -75c-4 -3 -6 -5 -10 -5z" />
    <glyph glyph-name="aacute" unicode="&#xe1;" horiz-adv-x="335" 
d="M301 353c9 0 16 -2 19 -9c6 -12 0 -25 -9 -34c-19 -19 -63 -48 -85 -61c-7 -4 -11 -4 -13 -2s2 7 6 12c21 23 49 62 59 75c7 11 14 18 23 19zM223 140c25 27 32 31 64 31c28 0 32 -4 22 -16c-18 -21 -34 -40 -54 -66c-13 -17 -29 -38 -34 -49c-5 -9 -5 -17 -1 -20
c5 -4 15 -1 24 3c10 4 27 16 43 29c21 17 38 32 49 42c4 3 10 9 13 6s-4 -10 -10 -16c-13 -12 -40 -36 -59 -51c-35 -27 -63 -42 -95 -42c-24 0 -37 9 -40 24c-2 12 4 26 11 35l-1 1c-26 -23 -74 -60 -122 -60c-32 -1 -55 9 -54 39c1 16 10 35 31 57l-1 1
c-1 -1 -8 -7 -11 -9c-7 -6 -11 -8 -13 -6c-2 3 1 7 9 15c11 10 25 21 36 28c18 13 38 24 63 35c29 13 65 25 98 23c28 -1 35 -19 32 -34zM196 163h-1c-19 0 -56 -29 -93 -65c-38 -38 -57 -66 -55 -79c1 -7 6 -10 13 -10c19 0 57 22 84 47c31 28 69 73 70 89
c1 13 -7 18 -18 18z" />
    <glyph glyph-name="acircumflex" unicode="&#xe2;" horiz-adv-x="335" 
d="M273 327c4 -1 5 -5 6 -8c11 -28 25 -56 36 -73c3 -4 4 -6 3 -8c-2 -2 -8 0 -13 2c-14 7 -35 21 -50 37c-35 -19 -81 -34 -106 -41c-5 -2 -12 -4 -13 0c-1 3 3 5 7 8c31 18 91 56 118 78c3 3 8 6 12 5zM223 140c25 27 32 31 64 31c28 0 32 -4 22 -16
c-18 -21 -34 -40 -54 -66c-13 -17 -29 -38 -34 -49c-5 -9 -5 -17 -1 -20c5 -4 15 -1 24 3c10 4 27 16 43 29c21 17 38 32 49 42c4 3 10 9 13 6s-4 -10 -10 -16c-13 -12 -40 -36 -59 -51c-35 -27 -63 -42 -95 -42c-24 0 -37 9 -40 24c-2 12 4 26 11 35l-1 1
c-26 -23 -74 -60 -122 -60c-32 -1 -55 9 -54 39c1 16 10 35 31 57l-1 1c-1 -1 -8 -7 -11 -9c-7 -6 -11 -8 -13 -6c-2 3 1 7 9 15c11 10 25 21 36 28c18 13 38 24 63 35c29 13 65 25 98 23c28 -1 35 -19 32 -34zM196 163h-1c-19 0 -56 -29 -93 -65c-38 -38 -57 -66 -55 -79
c1 -7 6 -10 13 -10c19 0 57 22 84 47c31 28 69 73 70 89c1 13 -7 18 -18 18z" />
    <glyph glyph-name="adieresis" unicode="&#xe4;" horiz-adv-x="335" 
d="M219 311h1c19 0 25 -13 12 -29c-16 -19 -42 -30 -57 -33c-4 7 -5 26 0 40c6 18 24 22 44 22zM326 311h1c18 0 25 -13 11 -29c-16 -19 -42 -30 -56 -33c-4 7 -6 26 -1 40c6 18 25 22 45 22zM223 140c25 27 32 31 64 31c28 0 32 -4 22 -16c-18 -21 -34 -40 -54 -66
c-13 -17 -29 -38 -34 -49c-5 -9 -5 -17 -1 -20c5 -4 15 -1 24 3c10 4 27 16 43 29c21 17 38 32 49 42c4 3 10 9 13 6s-4 -10 -10 -16c-13 -12 -40 -36 -59 -51c-35 -27 -63 -42 -95 -42c-24 0 -37 9 -40 24c-2 12 4 26 11 35l-1 1c-26 -23 -74 -60 -122 -60
c-32 -1 -55 9 -54 39c1 16 10 35 31 57l-1 1c-1 -1 -8 -7 -11 -9c-7 -6 -11 -8 -13 -6c-2 3 1 7 9 15c11 10 25 21 36 28c18 13 38 24 63 35c29 13 65 25 98 23c28 -1 35 -19 32 -34zM196 163h-1c-19 0 -56 -29 -93 -65c-38 -38 -57 -66 -55 -79c1 -7 6 -10 13 -10
c19 0 57 22 84 47c31 28 69 73 70 89c1 13 -7 18 -18 18z" />
    <glyph glyph-name="agrave" unicode="&#xe0;" horiz-adv-x="335" 
d="M203 357h1c10 0 16 -7 18 -20c6 -23 16 -56 25 -79c1 -4 4 -10 1 -12c-3 -3 -7 0 -11 5c-16 17 -44 48 -55 68c-2 3 -5 9 -5 15c0 15 15 23 26 23zM223 140c25 27 32 31 64 31c28 0 32 -4 22 -16c-18 -21 -34 -40 -54 -66c-13 -17 -29 -38 -34 -49c-5 -9 -5 -17 -1 -20
c5 -4 15 -1 24 3c10 4 27 16 43 29c21 17 38 32 49 42c4 3 10 9 13 6s-4 -10 -10 -16c-13 -12 -40 -36 -59 -51c-35 -27 -63 -42 -95 -42c-24 0 -37 9 -40 24c-2 12 4 26 11 35l-1 1c-26 -23 -74 -60 -122 -60c-32 -1 -55 9 -54 39c1 16 10 35 31 57l-1 1
c-1 -1 -8 -7 -11 -9c-7 -6 -11 -8 -13 -6c-2 3 1 7 9 15c11 10 25 21 36 28c18 13 38 24 63 35c29 13 65 25 98 23c28 -1 35 -19 32 -34zM196 163h-1c-19 0 -56 -29 -93 -65c-38 -38 -57 -66 -55 -79c1 -7 6 -10 13 -10c19 0 57 22 84 47c31 28 69 73 70 89
c1 13 -7 18 -18 18z" />
    <glyph glyph-name="aring" unicode="&#xe5;" horiz-adv-x="335" 
d="M248 345h1c27 0 51 -24 51 -52s-24 -50 -52 -50s-51 22 -51 50s23 52 51 52zM248 322h-1c-15 0 -27 -13 -27 -29s12 -28 28 -28c17 0 29 12 29 28s-12 29 -29 29zM223 140c25 27 32 31 64 31c28 0 32 -4 22 -16c-18 -21 -34 -40 -54 -66c-13 -17 -29 -38 -34 -49
c-5 -9 -5 -17 -1 -20c5 -4 15 -1 24 3c10 4 27 16 43 29c21 17 38 32 49 42c4 3 10 9 13 6s-4 -10 -10 -16c-13 -12 -40 -36 -59 -51c-35 -27 -63 -42 -95 -42c-24 0 -37 9 -40 24c-2 12 4 26 11 35l-1 1c-26 -23 -74 -60 -122 -60c-32 -1 -55 9 -54 39c1 16 10 35 31 57
l-1 1c-1 -1 -8 -7 -11 -9c-7 -6 -11 -8 -13 -6c-2 3 1 7 9 15c11 10 25 21 36 28c18 13 38 24 63 35c29 13 65 25 98 23c28 -1 35 -19 32 -34zM196 163h-1c-19 0 -56 -29 -93 -65c-38 -38 -57 -66 -55 -79c1 -7 6 -10 13 -10c19 0 57 22 84 47c31 28 69 73 70 89
c1 13 -7 18 -18 18z" />
    <glyph glyph-name="atilde" unicode="&#xe3;" horiz-adv-x="335" 
d="M268 246h-1c-25 0 -43 25 -68 27c-20 1 -31 -9 -40 -19c-4 -5 -6 -7 -9 -6s-4 4 0 12c12 23 36 50 64 48s40 -25 64 -27c20 -1 31 10 40 20c4 5 7 7 10 6s3 -5 -1 -12c-9 -18 -33 -49 -59 -49zM223 140c25 27 32 31 64 31c28 0 32 -4 22 -16c-18 -21 -34 -40 -54 -66
c-13 -17 -29 -38 -34 -49c-5 -9 -5 -17 -1 -20c5 -4 15 -1 24 3c10 4 27 16 43 29c21 17 38 32 49 42c4 3 10 9 13 6s-4 -10 -10 -16c-13 -12 -40 -36 -59 -51c-35 -27 -63 -42 -95 -42c-24 0 -37 9 -40 24c-2 12 4 26 11 35l-1 1c-26 -23 -74 -60 -122 -60
c-32 -1 -55 9 -54 39c1 16 10 35 31 57l-1 1c-1 -1 -8 -7 -11 -9c-7 -6 -11 -8 -13 -6c-2 3 1 7 9 15c11 10 25 21 36 28c18 13 38 24 63 35c29 13 65 25 98 23c28 -1 35 -19 32 -34zM196 163h-1c-19 0 -56 -29 -93 -65c-38 -38 -57 -66 -55 -79c1 -7 6 -10 13 -10
c19 0 57 22 84 47c31 28 69 73 70 89c1 13 -7 18 -18 18z" />
    <glyph glyph-name="ccedilla" unicode="&#xe7;" horiz-adv-x="237" 
d="M57 -9h-3c-6 -4 -21 -18 -26 -25c3 1 9 2 13 2c29 0 46 -14 43 -39s-33 -43 -75 -41c-33 1 -50 15 -57 25c-6 8 -6 15 -3 17s4 -3 9 -7c7 -7 21 -16 49 -16h1c18 0 34 9 36 22c3 14 -6 25 -26 24c-11 -1 -15 -7 -18 -4c-3 2 0 6 3 9c13 15 29 29 35 34
c-23 2 -49 14 -50 44c0 19 11 39 26 55l-1 1c-3 -2 -10 -9 -13 -12c-8 -7 -13 -9 -15 -7c-2 3 0 6 6 12c13 12 23 20 35 28c11 8 33 23 50 31c32 16 74 32 106 30c31 -1 43 -19 39 -38c-3 -18 -21 -34 -34 -34c-17 0 -17 14 -8 29c12 19 15 31 3 33c-11 3 -34 -13 -62 -42
c-27 -27 -53 -65 -56 -89c-2 -14 7 -23 23 -23c13 0 48 7 92 36c19 13 41 32 58 46c7 7 10 7 12 5s-1 -7 -10 -15c-12 -11 -35 -31 -56 -45c-35 -24 -86 -46 -126 -46z" />
    <glyph glyph-name="eacute" unicode="&#xe9;" horiz-adv-x="237" 
d="M268 353c9 0 16 -2 19 -9c6 -12 0 -25 -9 -34c-19 -19 -63 -48 -85 -61c-7 -4 -11 -4 -13 -2s2 7 6 12c21 23 49 62 59 75c7 11 14 18 23 19zM83 8c15 0 51 9 95 38c19 13 43 32 60 48c6 5 9 5 11 3c2 -3 -2 -8 -11 -16c-12 -11 -36 -31 -59 -46
c-41 -28 -82 -43 -121 -44c-56 -2 -71 19 -70 45c0 18 10 37 26 55l-1 1c-3 -3 -11 -10 -14 -13c-8 -6 -12 -8 -14 -6c-2 3 0 6 6 12c12 11 22 19 34 28c11 8 34 22 51 31c38 19 74 31 109 31h1c32 0 44 -14 43 -30c-2 -27 -35 -47 -66 -62c-29 -14 -73 -26 -98 -31
c-4 -6 -6 -15 -6 -22c0 -15 8 -22 24 -22zM70 62c18 3 44 13 69 31c26 19 42 43 44 56c2 9 -2 15 -11 15c-10 0 -28 -10 -54 -38c-20 -22 -37 -44 -48 -64z" />
    <glyph glyph-name="ecircumflex" unicode="&#xea;" horiz-adv-x="237" 
d="M249 327c4 -1 5 -5 6 -8c11 -28 25 -56 36 -73c3 -4 4 -6 3 -8c-2 -2 -8 0 -13 2c-14 7 -35 21 -50 37c-35 -19 -81 -34 -106 -41c-5 -2 -12 -4 -13 0c-1 3 3 5 7 8c31 18 91 56 118 78c3 3 8 6 12 5zM83 8c15 0 51 9 95 38c19 13 43 32 60 48c6 5 9 5 11 3
c2 -3 -2 -8 -11 -16c-12 -11 -36 -31 -59 -46c-41 -28 -82 -43 -121 -44c-56 -2 -71 19 -70 45c0 18 10 37 26 55l-1 1c-3 -3 -11 -10 -14 -13c-8 -6 -12 -8 -14 -6c-2 3 0 6 6 12c12 11 22 19 34 28c11 8 34 22 51 31c38 19 74 31 109 31h1c32 0 44 -14 43 -30
c-2 -27 -35 -47 -66 -62c-29 -14 -73 -26 -98 -31c-4 -6 -6 -15 -6 -22c0 -15 8 -22 24 -22zM70 62c18 3 44 13 69 31c26 19 42 43 44 56c2 9 -2 15 -11 15c-10 0 -28 -10 -54 -38c-20 -22 -37 -44 -48 -64z" />
    <glyph glyph-name="edieresis" unicode="&#xeb;" horiz-adv-x="237" 
d="M174 311h1c19 0 25 -13 12 -29c-16 -19 -42 -30 -57 -33c-4 7 -5 26 0 40c6 18 24 22 44 22zM281 311h1c18 0 25 -13 11 -29c-16 -19 -42 -30 -56 -33c-4 7 -6 26 -1 40c6 18 25 22 45 22zM83 8c15 0 51 9 95 38c19 13 43 32 60 48c6 5 9 5 11 3c2 -3 -2 -8 -11 -16
c-12 -11 -36 -31 -59 -46c-41 -28 -82 -43 -121 -44c-56 -2 -71 19 -70 45c0 18 10 37 26 55l-1 1c-3 -3 -11 -10 -14 -13c-8 -6 -12 -8 -14 -6c-2 3 0 6 6 12c12 11 22 19 34 28c11 8 34 22 51 31c38 19 74 31 109 31h1c32 0 44 -14 43 -30c-2 -27 -35 -47 -66 -62
c-29 -14 -73 -26 -98 -31c-4 -6 -6 -15 -6 -22c0 -15 8 -22 24 -22zM70 62c18 3 44 13 69 31c26 19 42 43 44 56c2 9 -2 15 -11 15c-10 0 -28 -10 -54 -38c-20 -22 -37 -44 -48 -64z" />
    <glyph glyph-name="egrave" unicode="&#xe8;" horiz-adv-x="237" 
d="M179 354h1c10 0 16 -7 18 -20c6 -23 16 -56 25 -79c1 -4 4 -10 1 -12c-3 -3 -7 0 -11 5c-16 17 -44 48 -55 68c-2 3 -5 9 -5 15c0 15 15 23 26 23zM83 8c15 0 51 9 95 38c19 13 43 32 60 48c6 5 9 5 11 3c2 -3 -2 -8 -11 -16c-12 -11 -36 -31 -59 -46
c-41 -28 -82 -43 -121 -44c-56 -2 -71 19 -70 45c0 18 10 37 26 55l-1 1c-3 -3 -11 -10 -14 -13c-8 -6 -12 -8 -14 -6c-2 3 0 6 6 12c12 11 22 19 34 28c11 8 34 22 51 31c38 19 74 31 109 31h1c32 0 44 -14 43 -30c-2 -27 -35 -47 -66 -62c-29 -14 -73 -26 -98 -31
c-4 -6 -6 -15 -6 -22c0 -15 8 -22 24 -22zM70 62c18 3 44 13 69 31c26 19 42 43 44 56c2 9 -2 15 -11 15c-10 0 -28 -10 -54 -38c-20 -22 -37 -44 -48 -64z" />
    <glyph glyph-name="iacute" unicode="&#xed;" horiz-adv-x="193" 
d="M240 353c9 0 16 -2 19 -9c6 -12 0 -25 -9 -34c-19 -19 -63 -48 -85 -61c-7 -4 -11 -4 -13 -2s2 7 6 12c21 23 49 62 59 75c7 11 14 18 23 19zM97 150c-14 -5 -34 -18 -57 -36c-15 -12 -30 -25 -40 -34c-7 -6 -11 -8 -14 -6c-2 2 0 6 8 14c10 9 43 38 72 56
c26 18 50 27 80 27c34 0 39 -4 27 -16c-22 -25 -37 -42 -56 -66c-17 -21 -28 -38 -34 -49c-6 -12 -7 -19 -3 -22s12 -1 22 4c11 5 27 16 44 30c21 17 31 26 47 40c7 7 11 10 14 7s-4 -9 -9 -14c-12 -12 -40 -37 -58 -51c-29 -22 -61 -43 -100 -43c-29 0 -39 12 -39 28
c0 13 7 27 14 38c20 33 67 83 82 93z" />
    <glyph glyph-name="icircumflex" unicode="&#xee;" horiz-adv-x="193" 
d="M208 327c4 -1 5 -5 6 -8c11 -28 25 -56 36 -73c3 -4 4 -6 3 -8c-2 -2 -8 0 -13 2c-14 7 -35 21 -50 37c-35 -19 -81 -34 -106 -41c-5 -2 -12 -4 -13 0c-1 3 3 5 7 8c31 18 91 56 118 78c3 3 8 6 12 5zM97 150c-14 -5 -34 -18 -57 -36c-15 -12 -30 -25 -40 -34
c-7 -6 -11 -8 -14 -6c-2 2 0 6 8 14c10 9 43 38 72 56c26 18 50 27 80 27c34 0 39 -4 27 -16c-22 -25 -37 -42 -56 -66c-17 -21 -28 -38 -34 -49c-6 -12 -7 -19 -3 -22s12 -1 22 4c11 5 27 16 44 30c21 17 31 26 47 40c7 7 11 10 14 7s-4 -9 -9 -14c-12 -12 -40 -37 -58 -51
c-29 -22 -61 -43 -100 -43c-29 0 -39 12 -39 28c0 13 7 27 14 38c20 33 67 83 82 93z" />
    <glyph glyph-name="idieresis" unicode="&#xef;" horiz-adv-x="193" 
d="M149 311h1c19 0 25 -13 12 -29c-16 -19 -42 -30 -57 -33c-4 7 -5 26 0 40c6 18 24 22 44 22zM256 311h1c18 0 25 -13 11 -29c-16 -19 -42 -30 -56 -33c-4 7 -6 26 -1 40c6 18 25 22 45 22zM97 150c-14 -5 -34 -18 -57 -36c-15 -12 -30 -25 -40 -34c-7 -6 -11 -8 -14 -6
c-2 2 0 6 8 14c10 9 43 38 72 56c26 18 50 27 80 27c34 0 39 -4 27 -16c-22 -25 -37 -42 -56 -66c-17 -21 -28 -38 -34 -49c-6 -12 -7 -19 -3 -22s12 -1 22 4c11 5 27 16 44 30c21 17 31 26 47 40c7 7 11 10 14 7s-4 -9 -9 -14c-12 -12 -40 -37 -58 -51
c-29 -22 -61 -43 -100 -43c-29 0 -39 12 -39 28c0 13 7 27 14 38c20 33 67 83 82 93z" />
    <glyph glyph-name="igrave" unicode="&#xec;" horiz-adv-x="193" 
d="M149 350h1c10 0 16 -7 18 -20c6 -23 16 -56 25 -79c1 -4 4 -10 1 -12c-3 -3 -7 0 -11 5c-16 17 -44 48 -55 68c-2 3 -5 9 -5 15c0 15 15 23 26 23zM97 150c-14 -5 -34 -18 -57 -36c-15 -12 -30 -25 -40 -34c-7 -6 -11 -8 -14 -6c-2 2 0 6 8 14c10 9 43 38 72 56
c26 18 50 27 80 27c34 0 39 -4 27 -16c-22 -25 -37 -42 -56 -66c-17 -21 -28 -38 -34 -49c-6 -12 -7 -19 -3 -22s12 -1 22 4c11 5 27 16 44 30c21 17 31 26 47 40c7 7 11 10 14 7s-4 -9 -9 -14c-12 -12 -40 -37 -58 -51c-29 -22 -61 -43 -100 -43c-29 0 -39 12 -39 28
c0 13 7 27 14 38c20 33 67 83 82 93z" />
    <glyph glyph-name="ntilde" unicode="&#xf1;" horiz-adv-x="407" 
d="M309 246h-1c-25 0 -43 25 -68 27c-20 1 -31 -9 -40 -19c-4 -5 -6 -7 -9 -6s-4 4 0 12c12 23 36 50 64 48s40 -25 64 -27c20 -1 31 10 40 20c4 5 7 7 10 6s3 -5 -1 -12c-9 -18 -33 -49 -59 -49zM257 -7c-38 -1 -46 18 -43 36c2 18 16 36 36 61c15 17 30 35 41 49
c4 5 5 11 -1 13c-6 3 -17 -1 -29 -7c-20 -10 -46 -27 -74 -48c-46 -34 -72 -55 -114 -89c-11 -9 -21 -11 -42 -12c-26 -1 -31 2 -25 16c9 17 28 45 46 67c15 20 30 38 42 54c5 7 7 12 3 15c-3 3 -8 1 -15 -3c-12 -7 -25 -16 -37 -26c-14 -11 -33 -27 -44 -38
c-9 -8 -14 -11 -17 -8c-1 2 1 6 10 14c13 13 34 32 52 46c27 21 57 41 89 41c27 0 35 -11 35 -25s-11 -30 -22 -44c-15 -20 -32 -41 -46 -59l2 -1c20 17 55 45 94 73c34 25 82 56 125 56c27 0 41 -11 39 -30c-1 -18 -21 -41 -37 -61c-15 -19 -25 -32 -31 -41
c-7 -12 -8 -19 -3 -23c5 -3 16 0 25 5c14 7 29 16 43 28c15 12 39 33 50 42c6 6 9 8 12 5c2 -2 0 -5 -5 -10c-11 -11 -43 -40 -64 -55c-22 -16 -60 -41 -95 -41z" />
    <glyph glyph-name="oacute" unicode="&#xf3;" horiz-adv-x="293" 
d="M292 353c9 0 16 -2 19 -9c6 -12 0 -25 -9 -34c-19 -19 -63 -48 -85 -61c-7 -4 -11 -4 -13 -2s2 7 6 12c21 23 49 62 59 75c7 11 14 18 23 19zM19 97c-5 -4 -10 -8 -17 -15c-10 -9 -13 -11 -16 -8c-2 3 2 7 6 12c9 9 21 18 33 27c10 7 25 17 42 26c29 16 75 35 111 35
c13 0 23 -1 23 -6c0 -2 -6 -3 -14 -7c-23 -11 -45 -29 -72 -55c-27 -27 -57 -69 -57 -91c-1 -7 3 -14 13 -14c23 0 66 30 98 63c0 11 3 26 16 45c11 16 24 24 33 30c1 5 0 13 0 17c-2 9 -6 12 -3 14s14 -1 22 -7c10 -7 18 -19 18 -35c-1 -24 -24 -57 -57 -85
c3 -2 10 -2 14 -2c12 1 25 7 38 16c18 13 33 27 43 36c6 6 10 9 13 6c3 -2 1 -6 -5 -11c-11 -10 -29 -26 -47 -39c-14 -10 -27 -17 -43 -18c-8 0 -18 2 -22 5c-26 -20 -84 -45 -125 -45c-50 0 -70 20 -71 48c0 19 9 39 27 57z" />
    <glyph glyph-name="ocircumflex" unicode="&#xf4;" horiz-adv-x="293" 
d="M256 327c4 -1 5 -5 6 -8c11 -28 25 -56 36 -73c3 -4 4 -6 3 -8c-2 -2 -8 0 -13 2c-14 7 -35 21 -50 37c-35 -19 -81 -34 -106 -41c-5 -2 -12 -4 -13 0c-1 3 3 5 7 8c31 18 91 56 118 78c3 3 8 6 12 5zM19 97c-5 -4 -10 -8 -17 -15c-10 -9 -13 -11 -16 -8c-2 3 2 7 6 12
c9 9 21 18 33 27c10 7 25 17 42 26c29 16 75 35 111 35c13 0 23 -1 23 -6c0 -2 -6 -3 -14 -7c-23 -11 -45 -29 -72 -55c-27 -27 -57 -69 -57 -91c-1 -7 3 -14 13 -14c23 0 66 30 98 63c0 11 3 26 16 45c11 16 24 24 33 30c1 5 0 13 0 17c-2 9 -6 12 -3 14s14 -1 22 -7
c10 -7 18 -19 18 -35c-1 -24 -24 -57 -57 -85c3 -2 10 -2 14 -2c12 1 25 7 38 16c18 13 33 27 43 36c6 6 10 9 13 6c3 -2 1 -6 -5 -11c-11 -10 -29 -26 -47 -39c-14 -10 -27 -17 -43 -18c-8 0 -18 2 -22 5c-26 -20 -84 -45 -125 -45c-50 0 -70 20 -71 48c0 19 9 39 27 57z
" />
    <glyph glyph-name="odieresis" unicode="&#xf6;" horiz-adv-x="293" 
d="M194 311h1c19 0 25 -13 12 -29c-16 -19 -42 -30 -57 -33c-4 7 -5 26 0 40c6 18 24 22 44 22zM301 311h1c18 0 25 -13 11 -29c-16 -19 -42 -30 -56 -33c-4 7 -6 26 -1 40c6 18 25 22 45 22zM19 97c-5 -4 -10 -8 -17 -15c-10 -9 -13 -11 -16 -8c-2 3 2 7 6 12
c9 9 21 18 33 27c10 7 25 17 42 26c29 16 75 35 111 35c13 0 23 -1 23 -6c0 -2 -6 -3 -14 -7c-23 -11 -45 -29 -72 -55c-27 -27 -57 -69 -57 -91c-1 -7 3 -14 13 -14c23 0 66 30 98 63c0 11 3 26 16 45c11 16 24 24 33 30c1 5 0 13 0 17c-2 9 -6 12 -3 14s14 -1 22 -7
c10 -7 18 -19 18 -35c-1 -24 -24 -57 -57 -85c3 -2 10 -2 14 -2c12 1 25 7 38 16c18 13 33 27 43 36c6 6 10 9 13 6c3 -2 1 -6 -5 -11c-11 -10 -29 -26 -47 -39c-14 -10 -27 -17 -43 -18c-8 0 -18 2 -22 5c-26 -20 -84 -45 -125 -45c-50 0 -70 20 -71 48c0 19 9 39 27 57z
" />
    <glyph glyph-name="ograve" unicode="&#xf2;" horiz-adv-x="293" 
d="M203 354h1c10 0 16 -7 18 -20c6 -23 16 -56 25 -79c1 -4 4 -10 1 -12c-3 -3 -7 0 -11 5c-16 17 -44 48 -55 68c-2 3 -5 9 -5 15c0 15 15 23 26 23zM19 97c-5 -4 -10 -8 -17 -15c-10 -9 -13 -11 -16 -8c-2 3 2 7 6 12c9 9 21 18 33 27c10 7 25 17 42 26
c29 16 75 35 111 35c13 0 23 -1 23 -6c0 -2 -6 -3 -14 -7c-23 -11 -45 -29 -72 -55c-27 -27 -57 -69 -57 -91c-1 -7 3 -14 13 -14c23 0 66 30 98 63c0 11 3 26 16 45c11 16 24 24 33 30c1 5 0 13 0 17c-2 9 -6 12 -3 14s14 -1 22 -7c10 -7 18 -19 18 -35
c-1 -24 -24 -57 -57 -85c3 -2 10 -2 14 -2c12 1 25 7 38 16c18 13 33 27 43 36c6 6 10 9 13 6c3 -2 1 -6 -5 -11c-11 -10 -29 -26 -47 -39c-14 -10 -27 -17 -43 -18c-8 0 -18 2 -22 5c-26 -20 -84 -45 -125 -45c-50 0 -70 20 -71 48c0 19 9 39 27 57z" />
    <glyph glyph-name="otilde" unicode="&#xf5;" horiz-adv-x="293" 
d="M246 246h-1c-25 0 -43 25 -68 27c-20 1 -31 -9 -40 -19c-4 -5 -6 -7 -9 -6s-4 4 0 12c12 23 36 50 64 48s40 -25 64 -27c20 -1 31 10 40 20c4 5 7 7 10 6s3 -5 -1 -12c-9 -18 -33 -49 -59 -49zM19 97c-5 -4 -10 -8 -17 -15c-10 -9 -13 -11 -16 -8c-2 3 2 7 6 12
c9 9 21 18 33 27c10 7 25 17 42 26c29 16 75 35 111 35c13 0 23 -1 23 -6c0 -2 -6 -3 -14 -7c-23 -11 -45 -29 -72 -55c-27 -27 -57 -69 -57 -91c-1 -7 3 -14 13 -14c23 0 66 30 98 63c0 11 3 26 16 45c11 16 24 24 33 30c1 5 0 13 0 17c-2 9 -6 12 -3 14s14 -1 22 -7
c10 -7 18 -19 18 -35c-1 -24 -24 -57 -57 -85c3 -2 10 -2 14 -2c12 1 25 7 38 16c18 13 33 27 43 36c6 6 10 9 13 6c3 -2 1 -6 -5 -11c-11 -10 -29 -26 -47 -39c-14 -10 -27 -17 -43 -18c-8 0 -18 2 -22 5c-26 -20 -84 -45 -125 -45c-50 0 -70 20 -71 48c0 19 9 39 27 57z
" />
    <glyph glyph-name="scaron" unicode="&#x161;" horiz-adv-x="252" 
d="M198 274h-1c-2 0 -5 4 -6 7c-11 29 -25 57 -36 74c-3 4 -4 6 -3 7c2 3 8 1 13 -1c14 -7 37 -22 52 -38c35 19 76 34 104 42c5 2 12 3 13 0s-3 -6 -7 -8c-31 -18 -91 -56 -118 -78c-3 -3 -7 -6 -11 -5zM146 22c11 4 26 11 42 21c28 18 53 40 66 51c5 4 10 9 13 6
c2 -2 0 -6 -7 -12c-11 -11 -34 -31 -58 -48c-25 -17 -47 -26 -70 -34c-24 -8 -63 -15 -94 -15c-53 0 -78 29 -76 59c2 33 28 53 50 52c19 0 28 -11 28 -22c-1 -10 -6 -17 -18 -25c-9 -7 -18 -17 -18 -30c0 -16 13 -23 27 -23c21 0 44 16 65 51c21 33 36 91 47 106l-1 1
c-8 -9 -31 -27 -45 -37c-15 -11 -36 -25 -45 -30c-4 -2 -9 -5 -11 -2s1 6 6 9c13 8 28 19 44 31c22 16 43 33 60 48c2 4 8 14 16 22c9 8 21 12 30 12c23 0 22 -12 0 -27c-9 -6 -18 -9 -24 -15c-8 -8 -6 -19 -1 -29c11 -26 14 -54 3 -82c-7 -16 -17 -30 -29 -38z" />
    <glyph glyph-name="uacute" unicode="&#xfa;" horiz-adv-x="375" 
d="M318 353c9 0 16 -2 19 -9c6 -12 0 -25 -9 -34c-19 -19 -63 -48 -85 -61c-7 -4 -11 -4 -13 -2s2 7 6 12c21 23 49 62 59 75c7 11 14 18 23 19zM97 150c-14 -5 -34 -18 -57 -36c-15 -12 -29 -24 -39 -33c-8 -6 -12 -9 -15 -7c-2 2 0 6 8 14c10 9 43 38 72 56
c26 18 50 27 78 27c32 0 37 -3 26 -16c-16 -18 -35 -41 -55 -66c-17 -21 -31 -40 -38 -54c-4 -7 -5 -14 -1 -17c4 -4 12 -3 23 3c22 11 44 27 75 51c44 35 71 62 105 90c9 7 14 11 41 11c31 0 38 -2 27 -16c-17 -21 -33 -41 -53 -68c-15 -22 -25 -36 -31 -47s-7 -18 -3 -22
c5 -4 15 -2 25 3c11 6 26 16 41 28c22 17 38 32 50 43c4 4 10 8 13 5s-3 -9 -11 -16c-14 -13 -37 -33 -58 -50c-20 -16 -58 -42 -95 -42c-38 0 -45 20 -43 36c0 12 7 26 16 38c6 9 18 22 28 34l-2 2c-18 -16 -46 -38 -65 -53c-32 -24 -76 -57 -120 -57c-29 0 -41 13 -41 31
c1 13 8 27 18 41c21 30 58 71 81 87z" />
    <glyph glyph-name="ucircumflex" unicode="&#xfb;" horiz-adv-x="375" 
d="M301 332c4 -1 5 -5 6 -8c11 -28 25 -56 36 -73c3 -4 4 -6 3 -8c-2 -2 -8 0 -13 2c-14 7 -35 21 -50 37c-35 -19 -81 -34 -106 -41c-5 -2 -12 -4 -13 0c-1 3 3 5 7 8c31 18 91 56 118 78c3 3 8 6 12 5zM97 150c-14 -5 -34 -18 -57 -36c-15 -12 -29 -24 -39 -33
c-8 -6 -12 -9 -15 -7c-2 2 0 6 8 14c10 9 43 38 72 56c26 18 50 27 78 27c32 0 37 -3 26 -16c-16 -18 -35 -41 -55 -66c-17 -21 -31 -40 -38 -54c-4 -7 -5 -14 -1 -17c4 -4 12 -3 23 3c22 11 44 27 75 51c44 35 71 62 105 90c9 7 14 11 41 11c31 0 38 -2 27 -16
c-17 -21 -33 -41 -53 -68c-15 -22 -25 -36 -31 -47s-7 -18 -3 -22c5 -4 15 -2 25 3c11 6 26 16 41 28c22 17 38 32 50 43c4 4 10 8 13 5s-3 -9 -11 -16c-14 -13 -37 -33 -58 -50c-20 -16 -58 -42 -95 -42c-38 0 -45 20 -43 36c0 12 7 26 16 38c6 9 18 22 28 34l-2 2
c-18 -16 -46 -38 -65 -53c-32 -24 -76 -57 -120 -57c-29 0 -41 13 -41 31c1 13 8 27 18 41c21 30 58 71 81 87z" />
    <glyph glyph-name="udieresis" unicode="&#xfc;" horiz-adv-x="375" 
d="M237 311h1c19 0 25 -13 12 -29c-16 -19 -42 -30 -57 -33c-4 7 -5 26 0 40c6 18 24 22 44 22zM344 311h1c18 0 25 -13 11 -29c-16 -19 -42 -30 -56 -33c-4 7 -6 26 -1 40c6 18 25 22 45 22zM97 150c-14 -5 -34 -18 -57 -36c-15 -12 -29 -24 -39 -33c-8 -6 -12 -9 -15 -7
c-2 2 0 6 8 14c10 9 43 38 72 56c26 18 50 27 78 27c32 0 37 -3 26 -16c-16 -18 -35 -41 -55 -66c-17 -21 -31 -40 -38 -54c-4 -7 -5 -14 -1 -17c4 -4 12 -3 23 3c22 11 44 27 75 51c44 35 71 62 105 90c9 7 14 11 41 11c31 0 38 -2 27 -16c-17 -21 -33 -41 -53 -68
c-15 -22 -25 -36 -31 -47s-7 -18 -3 -22c5 -4 15 -2 25 3c11 6 26 16 41 28c22 17 38 32 50 43c4 4 10 8 13 5s-3 -9 -11 -16c-14 -13 -37 -33 -58 -50c-20 -16 -58 -42 -95 -42c-38 0 -45 20 -43 36c0 12 7 26 16 38c6 9 18 22 28 34l-2 2c-18 -16 -46 -38 -65 -53
c-32 -24 -76 -57 -120 -57c-29 0 -41 13 -41 31c1 13 8 27 18 41c21 30 58 71 81 87z" />
    <glyph glyph-name="ugrave" unicode="&#xf9;" horiz-adv-x="375" 
d="M224 347h1c10 0 16 -7 18 -20c6 -23 16 -56 25 -79c1 -4 4 -10 1 -12c-3 -3 -7 0 -11 5c-16 17 -44 48 -55 68c-2 3 -5 9 -5 15c0 15 15 23 26 23zM97 150c-14 -5 -34 -18 -57 -36c-15 -12 -29 -24 -39 -33c-8 -6 -12 -9 -15 -7c-2 2 0 6 8 14c10 9 43 38 72 56
c26 18 50 27 78 27c32 0 37 -3 26 -16c-16 -18 -35 -41 -55 -66c-17 -21 -31 -40 -38 -54c-4 -7 -5 -14 -1 -17c4 -4 12 -3 23 3c22 11 44 27 75 51c44 35 71 62 105 90c9 7 14 11 41 11c31 0 38 -2 27 -16c-17 -21 -33 -41 -53 -68c-15 -22 -25 -36 -31 -47s-7 -18 -3 -22
c5 -4 15 -2 25 3c11 6 26 16 41 28c22 17 38 32 50 43c4 4 10 8 13 5s-3 -9 -11 -16c-14 -13 -37 -33 -58 -50c-20 -16 -58 -42 -95 -42c-38 0 -45 20 -43 36c0 12 7 26 16 38c6 9 18 22 28 34l-2 2c-18 -16 -46 -38 -65 -53c-32 -24 -76 -57 -120 -57c-29 0 -41 13 -41 31
c1 13 8 27 18 41c21 30 58 71 81 87z" />
    <glyph glyph-name="yacute" unicode="&#xfd;" horiz-adv-x="369" 
d="M324 348c9 0 16 -2 19 -9c6 -12 0 -25 -9 -34c-19 -19 -63 -48 -85 -61c-7 -4 -11 -4 -13 -2s2 7 6 12c21 23 49 62 59 75c7 11 14 18 23 19zM248 120l-1 1c-5 -6 -17 -15 -22 -20c-20 -17 -47 -38 -66 -53c-32 -24 -76 -57 -120 -57c-29 0 -41 13 -40 31
c0 13 7 26 17 41c22 31 58 73 81 87c-14 -5 -34 -18 -57 -36c-15 -12 -30 -25 -40 -34c-7 -6 -11 -8 -14 -6c-2 2 0 6 8 14c10 9 43 38 72 56c26 18 50 27 78 27c32 0 37 -3 26 -16c-16 -18 -35 -41 -55 -66c-17 -21 -30 -40 -38 -55c-4 -7 -5 -14 -2 -17c4 -3 13 -1 24 4
c22 12 44 27 75 51c44 35 71 62 105 90c9 7 14 11 49 11c31 0 37 -2 26 -16c-19 -23 -42 -53 -62 -79c-17 -22 -57 -74 -132 -177c-88 -120 -149 -209 -177 -256c-9 -15 -9 -19 -6 -21s8 2 13 8c13 15 48 65 78 107c36 49 59 82 111 149c41 52 86 103 127 146
c21 20 46 44 63 59c5 5 11 8 13 6c3 -3 -4 -10 -10 -16c-15 -13 -36 -32 -59 -56c-38 -39 -86 -94 -126 -145c-48 -62 -89 -120 -120 -163c-34 -48 -68 -97 -86 -113c-10 -9 -22 -16 -42 -15c-22 1 -27 14 -27 26c0 20 16 52 38 84c45 68 66 98 137 196
c48 66 101 141 161 223z" />
    <glyph glyph-name="ydieresis" unicode="&#xff;" horiz-adv-x="369" 
d="M236 311h1c19 0 25 -13 12 -29c-16 -19 -42 -30 -57 -33c-4 7 -5 26 0 40c6 18 24 22 44 22zM343 311h1c18 0 25 -13 11 -29c-16 -19 -42 -30 -56 -33c-4 7 -6 26 -1 40c6 18 25 22 45 22zM248 120l-1 1c-5 -6 -17 -15 -22 -20c-20 -17 -47 -38 -66 -53
c-32 -24 -76 -57 -120 -57c-29 0 -41 13 -40 31c0 13 7 26 17 41c22 31 58 73 81 87c-14 -5 -34 -18 -57 -36c-15 -12 -30 -25 -40 -34c-7 -6 -11 -8 -14 -6c-2 2 0 6 8 14c10 9 43 38 72 56c26 18 50 27 78 27c32 0 37 -3 26 -16c-16 -18 -35 -41 -55 -66
c-17 -21 -30 -40 -38 -55c-4 -7 -5 -14 -2 -17c4 -3 13 -1 24 4c22 12 44 27 75 51c44 35 71 62 105 90c9 7 14 11 49 11c31 0 37 -2 26 -16c-19 -23 -42 -53 -62 -79c-17 -22 -57 -74 -132 -177c-88 -120 -149 -209 -177 -256c-9 -15 -9 -19 -6 -21s8 2 13 8
c13 15 48 65 78 107c36 49 59 82 111 149c41 52 86 103 127 146c21 20 46 44 63 59c5 5 11 8 13 6c3 -3 -4 -10 -10 -16c-15 -13 -36 -32 -59 -56c-38 -39 -86 -94 -126 -145c-48 -62 -89 -120 -120 -163c-34 -48 -68 -97 -86 -113c-10 -9 -22 -16 -42 -15
c-22 1 -27 14 -27 26c0 20 16 52 38 84c45 68 66 98 137 196c48 66 101 141 161 223z" />
    <glyph glyph-name="zcaron" unicode="&#x17e;" horiz-adv-x="268" 
d="M179 247h-1c-2 0 -5 4 -6 7c-11 29 -25 57 -36 74c-3 4 -4 6 -3 7c2 3 8 1 13 -1c14 -7 37 -22 52 -38c35 19 76 34 104 42c5 2 12 3 13 0s-3 -6 -7 -8c-31 -18 -91 -56 -118 -78c-3 -3 -7 -6 -11 -5zM50 36c9 3 19 4 29 3c29 0 58 -10 68 -33c18 9 40 24 59 37
c23 16 52 41 63 51c6 5 11 7 13 5s0 -6 -6 -12c-14 -12 -40 -34 -65 -52c-20 -14 -43 -28 -60 -37c1 -3 2 -10 2 -18c0 -71 -82 -165 -163 -236c-84 -75 -222 -149 -281 -149c-32 0 -48 15 -48 36c0 49 65 111 155 178c75 55 155 99 201 126c28 16 52 30 74 43
c7 34 -6 51 -25 51c-30 0 -57 -22 -72 -37c-4 -4 -8 -8 -12 -5s-3 11 1 17c8 11 23 21 40 30c38 19 65 29 102 49c33 18 58 35 78 54c3 3 6 8 4 10c-1 2 -4 0 -7 -2c-26 -17 -63 -30 -88 -30c-27 0 -47 9 -55 24c-17 -20 -38 -41 -56 -57c-8 -8 -11 -8 -13 -6s-1 6 6 11
c18 17 40 40 59 61c-1 8 1 21 10 32s23 15 35 15c8 0 18 -2 19 -10c-5 -1 -15 -3 -17 -13c-1 -10 6 -20 44 -20c27 0 64 6 86 14c9 3 17 5 21 1c5 -5 -1 -17 -6 -23c-14 -20 -38 -44 -87 -68c-34 -17 -84 -27 -108 -40zM-287 -394h1c55 0 151 78 225 157
c53 55 132 154 149 204c-19 -12 -42 -26 -67 -40c-46 -28 -119 -72 -193 -128c-78 -59 -132 -119 -137 -166c-1 -13 3 -27 22 -27z" />
    <glyph glyph-name="Euro" unicode="&#x20ac;" horiz-adv-x="464" 
d="M191 -41c-91 -2 -142 32 -142 88c0 17 4 37 9 51h-39c-11 0 -22 1 -21 7c1 8 12 14 25 14s17 -1 43 -1c3 8 9 19 15 27h-51c-12 0 -23 1 -22 7c1 9 13 13 24 13c27 0 35 -1 61 -2c23 32 54 61 91 87c60 42 139 75 207 75c60 0 91 -34 93 -74c1 -30 -17 -52 -37 -52
c-14 0 -21 10 -18 27c4 18 17 27 19 38c3 20 -12 52 -56 52c-62 0 -123 -39 -170 -90c-20 -20 -38 -44 -51 -64c51 -1 96 -1 136 -3c5 0 17 0 17 -5c0 -3 -12 -5 -17 -5c-49 -1 -96 -2 -145 -3c-6 -9 -12 -22 -17 -31c46 0 80 -2 123 -2c6 0 18 0 18 -4c0 -5 -12 -6 -17 -6
c-31 -1 -69 -2 -130 -2c-7 -20 -12 -40 -12 -57c0 -53 37 -68 73 -68c38 0 91 18 136 48c17 12 43 32 62 50c6 5 10 10 14 8c3 -3 -2 -9 -8 -15c-18 -18 -42 -38 -63 -53c-50 -33 -98 -53 -150 -55z" />
    <glyph glyph-name="a.begin1" unicode="&#xe07b;" horiz-adv-x="335" 
d="M33 -9c-31 -1 -55 9 -54 39c1 32 27 63 59 88c32 26 95 58 153 56c29 -1 35 -19 32 -34c26 27 33 31 64 31c28 0 32 -4 22 -16c-17 -21 -34 -40 -54 -66c-13 -17 -28 -36 -34 -49c-5 -9 -5 -17 -1 -20c5 -4 16 -1 24 3c10 4 27 16 43 29c21 17 37 31 49 42c4 3 10 9 13 6
s-2 -9 -9 -15c-12 -12 -41 -37 -60 -52c-35 -27 -63 -42 -95 -42c-24 0 -37 8 -40 23c-2 12 4 27 11 36l-1 1c-26 -23 -74 -60 -122 -60zM196 163c-20 0 -57 -29 -94 -65c-38 -38 -56 -66 -55 -79c1 -7 6 -10 13 -10c19 0 57 22 84 47c31 28 69 73 70 89c1 13 -7 18 -18 18z
" />
    <glyph glyph-name="a.begin2" unicode="&#xe07c;" horiz-adv-x="423" 
d="M223 140c26 27 33 31 64 31c7 0 12 0 15 -1c14 -1 15 -6 7 -15c-17 -21 -33 -39 -54 -65c-16 -20 -27 -35 -35 -50c-6 -11 -8 -20 -6 -27c3 -9 11 -12 18 -12c17 0 32 9 49 17c37 18 63 31 89 32c6 0 12 0 16 -1c20 -4 29 -18 29 -33c0 -19 -18 -31 -29 -36
c-3 -1 -7 -3 -8 -2s-1 2 1 4c2 3 6 9 6 18c-1 24 -18 31 -36 31s-36 -6 -73 -24c-16 -8 -41 -19 -66 -21h-19c-23 2 -37 11 -42 28c-3 12 1 27 7 36l-1 1c-26 -23 -74 -60 -122 -60c-31 -1 -55 9 -54 39c1 32 27 63 59 88c32 26 95 58 153 56c29 -1 35 -19 32 -34zM196 163
c-20 0 -57 -29 -94 -65c-38 -38 -56 -66 -55 -79c1 -7 6 -10 13 -10c19 0 57 22 84 47c31 28 69 73 70 89c1 13 -7 18 -18 18z" />
    <glyph glyph-name="a.end1" unicode="&#xe07d;" horiz-adv-x="424" 
d="M196 163h-1c-19 0 -56 -29 -93 -65c-38 -38 -57 -66 -55 -79c1 -7 6 -10 13 -10c19 0 57 22 84 47c31 28 69 73 70 89c1 13 -7 18 -18 18zM93 151c28 13 65 25 98 23c28 -1 35 -19 32 -34c25 27 32 31 64 31c28 0 32 -4 22 -16c-18 -21 -34 -40 -53 -65
c-17 -23 -28 -42 -33 -55c-4 -10 -3 -18 -1 -23c3 -7 11 -10 19 -11c27 -2 56 8 85 24c24 14 60 43 82 80c11 17 18 37 20 52c2 10 0 14 2 14c3 0 4 -9 4 -14c-1 -17 -6 -37 -16 -56c-20 -37 -57 -70 -87 -87c-28 -16 -73 -32 -118 -30c-36 2 -55 16 -60 31
c-4 11 -2 26 3 35l-1 1c-26 -23 -74 -60 -122 -60c-32 -1 -55 9 -54 39c1 17 10 35 31 57l-1 1c-1 -1 -7 -6 -11 -9c-7 -6 -11 -8 -13 -6c-2 3 1 7 9 15c10 9 25 21 36 28c18 13 38 24 63 35z" />
    <glyph glyph-name="a.end2" unicode="&#xe07e;" horiz-adv-x="436" 
d="M196 163h-1c-19 0 -56 -29 -93 -65c-38 -38 -57 -66 -55 -79c1 -7 6 -10 13 -10c19 0 57 22 84 47c31 28 69 73 70 89c1 13 -7 18 -18 18zM30 116c18 13 38 24 63 35c28 13 65 25 98 23c28 -1 35 -19 32 -34c25 27 32 31 64 31c28 0 32 -4 22 -16
c-18 -21 -34 -39 -54 -65c-16 -20 -27 -35 -35 -50c-6 -11 -8 -20 -6 -27c3 -9 11 -12 18 -12c17 0 32 9 49 17c37 18 62 31 89 32c31 1 45 -16 45 -34c-1 -19 -19 -31 -29 -36c-3 -1 -7 -3 -8 -2s-1 2 1 4c2 3 6 9 6 18c-1 24 -18 31 -36 31s-36 -6 -73 -24
c-16 -8 -41 -19 -66 -21c-36 -2 -56 8 -61 28c-3 12 1 27 7 36l-1 1c-26 -23 -74 -60 -122 -60c-32 -1 -55 9 -54 39c1 16 10 35 31 57l-1 1c-1 -1 -8 -7 -11 -9c-7 -6 -11 -8 -13 -6c-2 3 1 7 9 15c11 10 25 21 36 28z" />
    <glyph glyph-name="a.end3" unicode="&#xe07f;" horiz-adv-x="478" 
d="M196 163h-1c-19 0 -56 -29 -93 -65c-38 -38 -57 -66 -55 -79c1 -7 6 -10 13 -10c19 0 57 22 84 47c31 28 69 73 70 89c1 13 -7 18 -18 18zM30 116c18 13 38 24 63 35c28 13 65 25 98 23c28 -1 35 -19 32 -34c25 27 32 31 64 31c28 0 32 -4 22 -16
c-18 -21 -34 -41 -52 -64c-21 -26 -31 -44 -31 -61c0 -18 9 -32 44 -32c40 1 102 25 131 43c65 41 83 80 85 103c1 11 -1 22 -5 29c3 3 7 5 14 5c18 0 25 -16 24 -32c-3 -31 -39 -69 -113 -113c-32 -19 -92 -46 -150 -49c-67 -3 -96 10 -102 36c-2 10 -1 24 4 33l-1 1
c-27 -26 -76 -63 -124 -63c-32 -1 -55 9 -54 39c1 16 10 35 31 57l-1 1c-1 -1 -8 -7 -11 -9c-7 -6 -11 -8 -13 -6c-2 3 1 7 9 15c11 10 25 21 36 28z" />
    <glyph glyph-name="a.end4" unicode="&#xe080;" horiz-adv-x="528" 
d="M196 163h-1c-19 0 -56 -29 -93 -65c-38 -38 -57 -66 -55 -79c1 -7 6 -10 13 -10c19 0 57 22 84 47c31 28 69 73 70 89c1 13 -7 18 -18 18zM30 116c18 13 38 24 63 35c28 13 65 25 98 23c28 -1 35 -19 32 -34c25 27 32 31 64 31c28 0 32 -4 22 -16
c-18 -21 -34 -40 -52 -64c-16 -22 -29 -44 -30 -61c-1 -18 7 -38 44 -38c40 0 89 19 119 34c38 19 86 58 110 90c22 30 49 75 49 120c0 21 -4 24 -1 26s9 -9 10 -26c2 -56 -20 -99 -42 -128c-28 -37 -67 -67 -123 -95c-28 -14 -84 -35 -140 -35c-65 -1 -95 14 -100 43
c-2 11 0 23 5 32l-1 1c-27 -26 -76 -63 -124 -63c-32 -1 -55 9 -54 39c1 16 10 35 31 57l-1 1c-1 -1 -8 -7 -11 -9c-7 -6 -11 -8 -13 -6c-2 3 1 7 9 15c11 10 25 21 36 28z" />
    <glyph glyph-name="a.end5" unicode="&#xe081;" horiz-adv-x="465" 
d="M196 163h-1c-19 0 -56 -29 -93 -65c-38 -38 -57 -66 -55 -79c1 -7 6 -10 13 -10c19 0 57 22 84 47c31 28 69 73 70 89c1 13 -7 18 -18 18zM30 116c18 13 38 24 63 35c28 13 65 25 98 23c28 -1 35 -19 32 -34c25 27 32 31 64 31c28 0 32 -4 22 -16
c-18 -21 -33 -39 -53 -66c-17 -21 -33 -45 -40 -57s-7 -21 -4 -25c3 -5 11 -7 19 -7c35 0 66 10 95 24c38 18 79 55 104 87c21 27 39 66 39 113c0 87 -61 120 -126 120c-17 0 -33 -4 -42 -8c-5 -2 -9 -4 -11 -2c-1 2 2 5 8 8c13 6 29 10 48 11c76 2 160 -30 160 -128
c0 -54 -33 -97 -56 -124c-29 -33 -72 -63 -121 -87c-29 -15 -78 -27 -126 -27c-43 1 -54 14 -57 28c-2 11 2 26 10 35l-1 1c-26 -23 -74 -60 -122 -60c-32 -1 -55 9 -54 39c1 16 10 35 31 57l-1 1c-1 -1 -8 -7 -11 -9c-7 -6 -11 -8 -13 -6c-2 3 1 7 9 15c11 10 25 21 36 28z
" />
    <glyph glyph-name="a.end6" unicode="&#xe082;" horiz-adv-x="639" 
d="M350 -21c84 8 163 47 200 70c52 34 96 84 101 132c3 25 -10 46 -40 46c-65 0 -127 -56 -173 -107c-17 -19 -57 -72 -88 -141zM196 163h-1c-19 0 -56 -29 -93 -65c-38 -38 -57 -66 -55 -79c1 -7 6 -10 13 -10c19 0 57 22 84 47c31 28 69 73 70 89c1 13 -7 18 -18 18z
M30 116c18 13 38 24 63 35c29 13 65 25 98 23c28 -1 35 -19 32 -34c25 27 32 31 64 31c28 0 32 -4 22 -16c-18 -21 -33 -39 -53 -64c-14 -18 -26 -39 -30 -50c-9 -24 -8 -46 15 -55c24 -10 62 -11 99 -8c31 74 75 129 92 148c48 53 116 112 189 112c40 0 64 -25 61 -57
c-5 -56 -60 -100 -119 -138c-40 -25 -131 -65 -216 -73c-20 -45 -33 -100 -33 -149c0 -7 -2 -9 -4 -9s-4 3 -4 10c0 51 14 103 31 147c-41 -3 -89 -2 -130 5c-30 5 -51 21 -55 42c-2 15 1 28 6 37l-1 1c-27 -26 -76 -63 -124 -63c-32 -1 -55 9 -54 39c1 16 10 35 31 57l-1 1
c-1 -1 -8 -7 -11 -9c-7 -6 -11 -8 -13 -6c-2 3 1 7 9 15c11 10 25 21 36 28z" />
    <glyph glyph-name="a.end7" unicode="&#xe083;" horiz-adv-x="567" 
d="M196 163h-1c-19 0 -56 -29 -93 -65c-38 -38 -57 -66 -55 -79c1 -7 6 -10 13 -10c19 0 57 22 84 47c31 28 69 73 70 89c1 13 -7 18 -18 18zM30 116c18 13 38 24 63 35c29 13 65 25 98 23c28 -1 35 -19 32 -34c25 27 32 31 64 31c28 0 32 -4 22 -16
c-18 -21 -34 -40 -54 -66c-16 -20 -26 -33 -34 -48c-6 -11 -8 -20 -6 -27c3 -9 11 -13 24 -13c30 0 60 11 90 23c69 28 109 44 155 43c40 -1 60 -22 60 -48c0 -30 -37 -57 -50 -63c-4 -2 -6 -3 -7 -2s1 3 3 6c5 7 13 24 13 38c0 35 -23 47 -55 47c-31 0 -62 -9 -130 -35
c-21 -8 -68 -23 -108 -24c-38 0 -56 9 -61 28c-3 12 1 27 7 36l-1 1c-26 -23 -74 -60 -122 -60c-32 -1 -55 9 -54 39c1 16 10 35 31 57l-1 1c-1 -1 -8 -7 -11 -9c-7 -6 -11 -8 -13 -6c-2 3 1 7 9 15c11 10 25 21 36 28z" />
    <glyph glyph-name="a.end8" unicode="&#xe084;" horiz-adv-x="667" 
d="M196 163h-1c-19 0 -56 -29 -93 -65c-38 -38 -57 -66 -55 -79c1 -7 6 -10 13 -10c19 0 57 22 84 47c31 28 69 73 70 89c1 13 -7 18 -18 18zM30 116c18 13 38 24 63 35c29 13 65 25 98 23c28 -1 35 -19 32 -34c25 27 32 31 64 31c28 0 32 -4 22 -16
c-18 -21 -35 -41 -53 -64c-17 -21 -30 -43 -30 -60c0 -18 13 -24 29 -24c21 0 49 10 92 34c22 13 74 53 90 66c48 41 102 84 157 86c56 1 88 -35 86 -84c-2 -33 -23 -53 -38 -63c-3 -2 -7 -5 -8 -4s2 4 5 7c9 9 22 31 22 54c0 41 -36 54 -78 54c-49 0 -106 -34 -144 -64
c-14 -11 -67 -50 -88 -62c-48 -27 -94 -43 -134 -43c-42 -1 -60 10 -64 31c-3 11 1 26 5 34l-1 1c-27 -26 -76 -63 -124 -63c-32 -1 -55 9 -54 39c1 16 10 35 31 57l-1 1c-1 -1 -8 -7 -11 -9c-7 -6 -11 -8 -13 -6c-2 3 1 7 9 15c11 10 25 21 36 28z" />
    <glyph glyph-name="b.alt1" unicode="&#xe0c8;" horiz-adv-x="290" 
d="M173 195c55 45 130 99 176 138c107 92 176 165 180 206c2 13 -4 19 -16 19c-16 0 -46 -20 -67 -40c-34 -33 -77 -82 -128 -143c-60 -72 -99 -120 -145 -180zM66 150c34 45 76 98 118 148c80 95 183 189 242 230c30 21 69 42 99 41c23 -1 34 -15 31 -36
c-5 -58 -96 -139 -193 -212c-63 -47 -167 -117 -203 -149c-17 -21 -40 -52 -61 -83c-9 -12 -28 -39 -31 -62c-2 -13 4 -21 15 -22c12 -1 35 7 55 21c21 15 39 30 57 55c-3 8 -6 28 -2 46c7 27 25 48 43 48c14 0 23 -19 15 -43c-7 -24 -22 -44 -33 -57c6 -5 14 -8 23 -8
c6 0 16 2 25 7c7 4 17 14 23 18c6 6 10 8 12 6c2 -3 -1 -7 -7 -13c-4 -5 -14 -14 -24 -19c-10 -6 -21 -9 -30 -9c-11 0 -21 3 -29 10c-21 -20 -42 -36 -66 -50c-26 -15 -54 -26 -85 -26h-1c-42 0 -58 16 -60 41c-1 26 13 48 24 62c6 7 16 18 23 26l-1 1
c-15 -13 -25 -22 -35 -32c-10 -8 -15 -11 -17 -8c-2 2 1 7 7 12c19 17 42 37 66 57z" />
    <glyph glyph-name="b.alt2" unicode="&#xe0cd;" horiz-adv-x="347" 
d="M115 6c19 2 35 9 48 17c17 11 32 24 46 42c-12 -6 -46 -14 -62 -19c-36 -10 -54 -18 -53 -31c1 -9 11 -10 21 -9zM66 150c20 26 51 64 77 93c40 46 95 101 165 156c58 44 161 112 254 112c83 0 123 -55 117 -110c-1 -13 -7 -22 -10 -21c-2 1 2 8 3 21
c3 43 -44 80 -119 80c-97 0 -152 -34 -205 -82c-42 -39 -105 -116 -170 -202c-47 -61 -68 -92 -89 -122l2 -1c23 21 57 49 87 68c21 14 59 33 97 32c34 0 48 -17 46 -40c-3 -31 -26 -65 -64 -94c-40 -31 -95 -47 -135 -47h-1c-28 0 -46 5 -46 22c0 19 24 27 63 38
c28 8 61 15 79 23c9 11 26 35 31 50c4 11 8 30 -9 30c-18 0 -51 -17 -87 -45c-44 -34 -72 -59 -112 -101c-8 -9 -23 -12 -39 -13c-28 -2 -37 1 -29 15c11 21 25 41 43 67c10 15 19 26 31 42h-1c-15 -13 -25 -22 -35 -32c-10 -8 -15 -11 -17 -8c-2 2 1 7 7 12
c19 17 42 37 66 57z" />
    <glyph glyph-name="b.alt3" unicode="&#xe0ce;" horiz-adv-x="347" 
d="M204 236c87 38 179 93 240 145c77 64 112 115 118 149c2 16 -7 27 -25 27c-21 1 -53 -15 -79 -36c-34 -29 -91 -88 -143 -149c-39 -45 -73 -88 -111 -136zM115 6c19 2 35 9 48 17c17 11 32 24 46 42c-12 -6 -46 -14 -62 -19c-36 -10 -54 -18 -53 -31c1 -9 11 -10 21 -9z
M66 150c15 19 29 39 45 57c-15 -4 -33 -6 -53 -5c-57 4 -81 33 -81 69c0 27 16 45 24 50c2 2 6 4 7 3s0 -2 -4 -6c-6 -6 -18 -22 -16 -44c2 -29 32 -53 73 -58c22 -3 43 -1 59 3c21 26 43 53 64 78c73 83 171 177 251 230c30 20 75 41 109 42c36 1 63 -17 60 -48
c-3 -49 -63 -106 -154 -171c-73 -51 -169 -95 -257 -130c-15 -20 -83 -115 -104 -145l2 -1c23 21 57 49 87 68c20 13 59 33 97 32c34 0 48 -17 46 -40c-3 -31 -26 -65 -64 -94c-40 -31 -95 -47 -135 -47h-1c-28 0 -46 5 -46 22c0 19 24 27 63 38c28 8 61 15 79 23
c9 11 26 35 31 50c4 11 8 30 -9 30c-18 0 -51 -17 -87 -45c-44 -34 -72 -59 -112 -101c-8 -9 -23 -12 -39 -13c-28 -2 -37 1 -29 15c11 21 25 41 43 67c10 15 19 26 31 42h-1c-15 -13 -25 -22 -35 -32c-10 -8 -15 -11 -17 -8c-2 2 1 7 7 12c19 17 42 37 66 57z" />
    <glyph glyph-name="b.alt4" unicode="&#xe0cf;" horiz-adv-x="360" 
d="M214 231c63 17 140 42 253 124c98 71 128 139 128 181c0 13 -8 19 -17 20c-20 3 -47 -6 -80 -30c-40 -29 -102 -85 -156 -144c-47 -52 -81 -93 -128 -151zM138 -6c-22 0 -42 5 -49 21c-3 7 -4 23 8 40c-14 -13 -28 -28 -45 -45c-9 -9 -23 -12 -39 -13
c-29 -2 -37 1 -29 15c10 19 25 43 43 68c11 17 75 102 95 127c-14 -3 -30 -4 -50 -3c-57 4 -82 36 -82 68c0 27 17 44 24 49c2 2 6 4 6 3c2 -2 1 -2 -3 -6c-6 -6 -18 -22 -16 -44c2 -29 32 -53 73 -58c23 -3 41 -1 57 3c21 26 43 52 63 75c66 77 159 164 242 218
c51 33 104 57 147 57c26 0 47 -13 47 -43c0 -45 -40 -103 -146 -179c-109 -78 -202 -109 -278 -129c-17 -23 -84 -111 -105 -142l1 -2c23 20 58 49 88 68c21 13 59 33 97 32c34 0 48 -17 46 -40c-4 -31 -29 -67 -62 -93c-40 -31 -94 -47 -133 -47zM136 8c21 2 51 17 85 57
c17 20 34 46 39 61c4 11 8 30 -9 30c-18 0 -51 -16 -87 -44c-22 -17 -40 -32 -58 -48c-9 -15 -13 -34 -3 -46c7 -8 18 -11 33 -10z" />
    <glyph glyph-name="b.alt5" unicode="&#xe0d0;" horiz-adv-x="290" 
d="M213 256c65 3 174 39 252 93c88 60 121 124 121 163c0 28 -13 44 -37 44c-26 0 -57 -10 -110 -58c-36 -32 -75 -70 -115 -115c-48 -52 -86 -94 -111 -127zM211 67c-19 -18 -37 -32 -60 -46c-28 -17 -58 -30 -90 -30h-1c-37 0 -57 16 -58 42c-1 25 9 45 20 61
c6 8 14 19 21 26l-1 1c-11 -10 -23 -22 -32 -32c-9 -8 -14 -11 -17 -8c-2 3 2 7 8 13c14 13 36 35 58 55c24 33 55 74 73 95c-12 -1 -47 1 -71 6c-86 19 -145 63 -138 141c7 79 96 126 178 126c60 0 115 -33 115 -88c0 -7 -1 -17 -4 -25c-1 -4 -4 -7 -6 -6c-1 1 0 3 1 7
c2 7 2 15 2 22c-3 51 -59 78 -108 78c-75 0 -138 -44 -144 -114c-6 -67 30 -112 106 -130c29 -7 63 -8 77 -7c21 27 61 70 94 104c47 49 115 108 174 149c50 35 108 62 153 62c28 0 64 -16 62 -59c-2 -50 -47 -104 -145 -169c-78 -52 -198 -93 -273 -96
c-33 -40 -89 -120 -110 -154c-8 -12 -26 -42 -27 -64c-1 -13 5 -20 17 -21c14 -1 37 8 59 25c20 15 36 30 51 50c-3 8 -6 28 -2 46c7 27 25 48 43 48c14 0 23 -19 15 -43c-7 -24 -22 -44 -33 -57c6 -5 14 -8 23 -8c6 0 16 2 25 7c7 4 17 14 23 18c6 6 10 8 12 6
c2 -3 -1 -7 -7 -13c-4 -5 -14 -14 -24 -19c-10 -6 -21 -9 -30 -9c-11 0 -21 3 -29 10z" />
    <glyph glyph-name="b.alt6" unicode="&#xe0d1;" horiz-adv-x="348" 
d="M115 6c19 2 35 9 48 17c17 11 32 24 46 42c-12 -6 -46 -14 -62 -19c-36 -10 -54 -18 -53 -31c1 -9 11 -10 21 -9zM66 150c21 28 51 66 77 97c71 83 181 187 260 245c105 76 254 160 394 163c157 4 253 -87 248 -192c-1 -22 -11 -39 -15 -36c-3 2 6 11 6 36
c2 90 -77 158 -261 152c-151 -5 -249 -56 -341 -129c-59 -48 -123 -122 -200 -216c-37 -45 -116 -154 -145 -195l2 -1c23 21 57 49 87 68c20 13 59 33 97 32c34 0 48 -17 46 -40c-3 -31 -26 -65 -64 -94c-40 -31 -95 -47 -135 -47h-1c-28 0 -46 5 -46 22c0 19 24 27 63 38
c28 8 61 15 79 23c9 11 26 35 31 50c4 11 8 30 -9 30c-18 0 -51 -17 -87 -45c-44 -34 -72 -59 -112 -101c-8 -9 -23 -12 -39 -13c-28 -2 -37 1 -29 15c11 21 25 41 43 67c10 15 19 26 31 42h-1c-15 -13 -25 -22 -35 -32c-10 -8 -15 -11 -17 -8c-2 2 1 7 7 12
c19 17 42 37 66 57z" />
    <glyph glyph-name="b.alt7" unicode="&#xe0d2;" horiz-adv-x="348" 
d="M866 392h1c140 0 315 33 325 158c6 87 -105 151 -301 145c-151 -5 -274 -59 -353 -109c-55 -35 -132 -113 -175 -160c136 -8 355 -34 503 -34zM115 6c19 2 35 9 48 17c17 11 32 24 46 42c-12 -6 -46 -14 -62 -19c-36 -10 -54 -18 -53 -31c1 -9 11 -10 21 -9zM66 150
c14 18 50 65 74 93c63 76 105 125 159 175c-109 3 -210 -17 -243 -79c-22 -38 -15 -91 25 -111c7 -4 16 -4 16 -6c-1 -2 -13 -3 -23 2c-44 19 -67 74 -45 118c36 76 148 91 279 86c49 45 124 106 210 160c127 83 272 140 414 143c171 4 278 -82 270 -181
c-11 -142 -200 -194 -395 -182c-136 8 -320 41 -451 48c-39 -45 -101 -120 -163 -201c-30 -40 -83 -110 -104 -140l2 -1c23 21 57 49 87 68c20 13 59 33 97 32c34 0 48 -17 46 -40c-3 -31 -26 -65 -64 -94c-40 -31 -95 -47 -135 -47h-1c-28 0 -46 5 -46 22c0 19 24 27 63 38
c28 8 61 15 79 23c9 11 26 35 31 50c4 11 8 30 -9 30c-18 0 -51 -17 -87 -45c-44 -34 -72 -59 -112 -101c-8 -9 -23 -12 -39 -13c-28 -2 -37 1 -29 15c11 21 25 41 43 67c10 15 19 26 31 42h-1c-15 -13 -25 -22 -35 -32c-10 -8 -15 -11 -17 -8c-2 2 1 7 7 12
c19 17 42 37 66 57z" />
    <glyph glyph-name="b.alt8" unicode="&#xe0d3;" horiz-adv-x="348" 
d="M115 6c19 2 35 9 48 17c17 11 32 24 46 42c-12 -6 -46 -14 -62 -19c-36 -10 -54 -18 -53 -31c1 -8 11 -10 21 -9zM66 150c21 28 49 65 76 97c93 111 220 237 339 319c148 103 331 178 529 178c131 0 359 -50 349 -240c-7 -154 -188 -254 -369 -254
c-93 0 -215 31 -231 123c-16 90 72 152 136 165c16 3 33 3 33 -2c0 -3 -10 0 -31 -5c-63 -14 -127 -78 -113 -155c14 -83 119 -117 206 -117c179 0 326 94 334 245c9 177 -184 231 -315 231c-185 0 -338 -73 -481 -179c-101 -74 -248 -238 -305 -306
c-38 -45 -113 -143 -134 -174l2 -2c23 21 57 49 87 68c20 13 59 33 97 32c34 0 48 -17 46 -40c-3 -31 -26 -65 -64 -94c-40 -31 -95 -47 -135 -47h-1c-28 0 -46 5 -46 22c0 19 24 27 63 38c28 8 61 15 79 23c9 11 26 35 31 50c4 11 8 30 -9 30c-18 0 -51 -17 -87 -45
c-44 -34 -72 -59 -112 -101c-8 -9 -23 -12 -39 -13c-28 -2 -37 1 -29 15c11 21 25 41 43 67c10 15 19 26 31 42h-1c-15 -13 -25 -22 -35 -32c-10 -8 -15 -11 -17 -8c-2 2 1 7 7 12c19 17 42 37 66 57z" />
    <glyph glyph-name="b.alt9" unicode="&#xe0d4;" horiz-adv-x="348" 
d="M854 355h1c186 0 393 63 397 182c2 60 -37 101 -96 126c2 -10 4 -23 4 -34c0 -31 -16 -48 -25 -56c-6 -5 -11 -7 -13 -5c-1 1 5 5 8 8c10 9 22 25 22 53c0 13 -2 26 -6 38c-55 20 -124 26 -202 24c-194 -4 -362 -98 -472 -184c45 -102 222 -152 382 -152zM458 540
c136 90 298 158 486 161c75 1 145 -7 200 -26c-37 89 -178 138 -315 138c-188 0 -379 -98 -375 -240c0 -12 2 -23 4 -33zM115 6c19 2 35 9 48 17c17 11 32 24 46 42c-12 -6 -46 -14 -62 -19c-36 -10 -54 -18 -53 -31c1 -8 11 -10 21 -9zM66 150c21 28 49 65 76 97
c43 51 131 147 209 212c31 26 64 51 99 75c-3 12 -5 25 -5 38c-3 150 188 266 383 266c169 0 296 -65 327 -167c66 -25 108 -68 106 -133c-3 -125 -207 -211 -408 -211c-169 0 -343 71 -389 174c-22 -18 -57 -50 -76 -67c-65 -62 -118 -126 -165 -184
c-37 -45 -113 -145 -134 -175l2 -1c23 21 57 49 87 68c20 13 59 33 97 32c34 0 48 -17 46 -40c-3 -31 -26 -65 -64 -94c-40 -31 -95 -47 -135 -47h-1c-28 0 -46 5 -46 22c0 19 24 27 63 38c28 8 61 15 79 23c9 11 26 35 31 50c4 11 8 30 -9 30c-18 0 -51 -17 -87 -45
c-44 -34 -72 -59 -112 -101c-8 -9 -23 -12 -39 -13c-28 -2 -37 1 -29 15c11 21 25 41 43 67c10 15 19 26 31 42h-1c-15 -13 -25 -22 -35 -32c-10 -8 -15 -11 -17 -8c-2 2 1 7 7 12c19 17 42 37 66 57z" />
    <glyph glyph-name="b.alt10" unicode="&#xe0c9;" horiz-adv-x="348" 
d="M125 8c21 2 51 17 85 57c17 20 33 46 38 61c4 11 8 30 -9 30c-18 0 -51 -16 -87 -44c-22 -17 -40 -32 -57 -48c-10 -15 -13 -34 -3 -46c7 -8 18 -11 33 -10zM210 234c90 8 188 22 276 39c161 31 325 93 447 157c141 74 305 190 295 333c-6 82 -80 125 -154 125
c-190 0 -414 -172 -590 -352c-91 -93 -170 -176 -258 -282c-5 -6 -10 -13 -16 -20zM66 150c21 28 46 59 52 67c-171 -11 -399 2 -399 154c0 42 32 85 73 110c8 5 19 10 20 7s-5 -7 -10 -10c-42 -27 -56 -65 -56 -104c0 -126 178 -157 381 -145c7 10 16 20 21 26
c87 103 177 203 263 287c209 204 467 354 662 354c78 0 158 -45 164 -132c10 -151 -152 -267 -292 -341c-132 -70 -292 -127 -457 -159c-91 -18 -186 -32 -287 -42c-39 -48 -92 -117 -112 -146l2 -2c23 21 60 51 87 68c21 14 59 33 97 32c34 0 48 -17 46 -40
c-3 -31 -30 -68 -62 -93c-41 -32 -95 -47 -133 -47c-21 -1 -42 5 -48 21c-3 8 -5 24 8 41c-15 -13 -29 -29 -46 -46c-8 -9 -23 -12 -39 -13c-28 -2 -37 1 -29 15c11 21 28 45 43 67c10 15 19 26 31 42h-1c-15 -13 -25 -22 -35 -32c-10 -8 -15 -11 -17 -8c-2 2 1 7 7 12
c19 17 42 37 66 57z" />
    <glyph glyph-name="b.alt11" unicode="&#xe0ca;" horiz-adv-x="360" 
d="M-298 -47c-2 -3 -15 1 -21 3c-71 28 -110 110 -80 172c51 105 231 135 417 145c56 3 112 7 167 12c80 92 160 181 238 257c209 204 464 356 670 356c75 0 152 -42 159 -122c11 -130 -124 -232 -267 -307c-133 -70 -320 -123 -486 -154c-76 -14 -156 -25 -239 -35
c-7 -8 -15 -17 -22 -26c-40 -49 -113 -143 -134 -174l2 -3c23 20 54 46 84 65c21 14 58 33 97 32c34 0 48 -17 46 -40c-4 -31 -29 -67 -62 -93c-42 -32 -95 -47 -134 -47c-20 -1 -41 5 -48 21c-3 8 -5 23 8 41c-14 -13 -28 -29 -45 -46c-9 -9 -23 -12 -39 -13
c-29 -2 -37 1 -29 15c11 21 29 49 46 74c39 55 102 137 129 169c5 6 11 13 16 19c-51 -5 -104 -9 -158 -12c-200 -11 -328 -50 -375 -136c-30 -54 -17 -136 48 -165c5 -2 12 -4 12 -8zM136 8c21 2 51 17 85 57c17 20 34 46 39 61c4 11 8 30 -9 30c-18 0 -51 -16 -87 -44
c-22 -17 -40 -32 -58 -48c-9 -15 -13 -34 -3 -46c7 -8 18 -11 33 -10zM270 291c77 9 153 20 227 34c164 31 355 91 477 155c142 74 280 165 269 295c-7 78 -79 115 -150 115c-202 0 -422 -174 -598 -354c-80 -82 -150 -156 -225 -245z" />
    <glyph glyph-name="b.alt12" unicode="&#xe0cb;" horiz-adv-x="348" 
d="M125 8c21 2 51 17 85 57c17 20 33 46 38 61c4 11 8 30 -9 30c-18 0 -51 -16 -87 -44c-22 -17 -40 -32 -57 -48c-10 -15 -13 -34 -3 -46c7 -8 18 -11 33 -10zM66 150c26 35 90 116 114 144c97 114 159 178 259 271c236 217 537 380 816 379c183 -1 394 -65 405 -262
c10 -173 -191 -342 -459 -350c-197 -6 -349 77 -349 202c0 150 196 266 386 266c99 0 227 -42 228 -138c0 -11 -4 -26 -8 -25c-3 1 1 3 1 22c-2 87 -119 115 -220 115c-188 0 -377 -103 -377 -239c0 -122 151 -179 343 -174c262 7 454 154 446 320c-9 186 -223 252 -394 252
c-278 0 -549 -174 -752 -376c-101 -100 -208 -217 -282 -307c-39 -47 -113 -145 -134 -175l2 -1c23 20 57 49 87 68c21 14 59 33 97 32c34 0 48 -17 46 -40c-3 -31 -29 -67 -62 -93c-41 -32 -95 -47 -133 -47h-1c-20 -1 -41 5 -47 21c-3 7 -5 23 7 40
c-14 -13 -28 -28 -45 -45c-8 -9 -23 -12 -39 -13c-28 -2 -37 1 -29 15c11 21 27 43 43 67c10 15 19 26 31 42h-1c-15 -13 -25 -22 -35 -32c-10 -8 -15 -11 -17 -8c-2 2 1 7 7 12c19 17 42 37 66 57z" />
    <glyph glyph-name="b.alt13" unicode="&#xe0cc;" horiz-adv-x="347" 
d="M125 8c21 2 51 17 85 57c17 20 33 46 38 61c4 11 8 30 -9 30c-18 0 -51 -16 -87 -44c-22 -17 -40 -32 -57 -48c-10 -15 -13 -34 -3 -46c7 -8 18 -11 33 -10zM264 300c223 26 502 101 731 212c253 124 493 306 493 462c0 73 -60 106 -122 109c-115 6 -259 -46 -397 -127
c-147 -87 -282 -204 -378 -302c-114 -117 -214 -224 -327 -354zM66 150c21 28 78 103 105 134c-34 -3 -66 -4 -96 -4c-229 0 -608 65 -592 369c10 184 225 312 457 318c261 7 368 -104 365 -219c-4 -121 -136 -213 -276 -220c-13 -1 -32 0 -32 5c0 3 12 1 30 2
c136 6 259 98 262 212c3 105 -93 216 -350 210c-238 -6 -414 -139 -422 -306c-14 -298 336 -362 558 -362c32 0 68 2 104 5c124 144 234 262 342 365c116 110 267 229 420 313c140 77 308 128 423 121c72 -4 136 -39 136 -120c0 -167 -244 -348 -500 -476
c-238 -115 -518 -185 -745 -208c-44 -53 -141 -179 -166 -214l2 -1c22 20 57 49 87 68c21 14 59 33 97 32c34 0 48 -17 46 -40c-3 -31 -29 -67 -62 -93c-41 -32 -95 -47 -133 -47c-21 -1 -42 5 -48 21c-3 7 -5 23 7 40c-14 -13 -28 -28 -45 -45c-8 -9 -23 -12 -39 -13
c-28 -2 -37 1 -29 15c11 21 26 43 43 67c10 15 19 26 31 42h-1c-15 -13 -25 -22 -35 -32c-10 -8 -15 -11 -17 -8c-2 2 1 7 7 12c19 17 42 37 66 57z" />
    <glyph glyph-name="b.begin" unicode="&#xe0d5;" horiz-adv-x="360" 
d="M127 6c19 2 35 9 48 17c17 11 32 24 46 42c-12 -6 -46 -14 -62 -19c-36 -10 -54 -18 -53 -31c1 -8 11 -10 21 -9zM239 255c-48 -57 -115 -145 -138 -179l1 -2c24 21 58 49 88 68c20 13 59 33 97 32c34 0 48 -17 46 -40c-4 -31 -27 -65 -64 -94c-40 -31 -95 -47 -136 -47
c-28 0 -46 5 -46 22c0 19 23 27 63 38c28 8 61 15 79 23c9 11 26 35 31 50c4 11 8 30 -9 30c-18 0 -51 -17 -87 -45c-44 -34 -72 -59 -112 -101c-9 -9 -23 -12 -39 -13c-29 -2 -37 1 -29 15c10 19 26 43 43 68c16 24 37 52 54 73c32 40 76 95 120 145c37 42 90 94 126 121
c18 13 43 20 63 20c19 0 28 -3 28 -7c-33 -17 -113 -98 -179 -177z" />
    <glyph glyph-name="b.end" unicode="&#xe0d6;" horiz-adv-x="348" 
d="M115 6c19 2 35 9 48 17c17 11 32 24 46 42c-12 -6 -46 -14 -62 -19c-36 -10 -54 -18 -53 -31c1 -9 11 -10 21 -9zM0 93c22 20 48 41 68 59c25 33 76 95 122 146c37 42 89 94 125 121c18 13 44 20 63 20c20 0 29 -3 29 -7c-33 -17 -114 -98 -179 -177
c-48 -57 -116 -146 -139 -180l2 -1c23 21 56 49 87 68c21 14 59 33 97 32c34 0 48 -17 46 -40c-2 -16 -8 -30 -20 -47c20 7 77 32 106 52c4 3 8 5 10 1c1 -3 -1 -6 -8 -11c-23 -17 -87 -45 -115 -54c-9 -11 -24 -25 -37 -35c-43 -32 -95 -47 -135 -47h-1c-28 0 -46 5 -46 22
c0 19 24 27 63 38c29 8 61 15 79 23c9 11 26 35 31 50c4 11 8 30 -9 30c-18 0 -51 -17 -87 -45c-44 -34 -72 -59 -112 -101c-8 -9 -23 -12 -39 -13c-28 -2 -37 1 -29 15c11 21 27 44 43 67c10 15 19 26 31 42h-1c-15 -13 -25 -22 -35 -32c-10 -8 -15 -11 -17 -8
c-2 2 1 7 7 12z" />
    <glyph glyph-name="c.begin" unicode="&#xe0f5;" horiz-adv-x="237" 
d="M182 164c-11 3 -34 -13 -62 -42c-27 -27 -53 -65 -56 -89c-2 -14 7 -23 23 -23c13 0 48 7 92 36c19 13 44 34 58 46c7 7 10 7 12 5s-1 -7 -10 -15c-12 -11 -35 -31 -56 -45c-35 -24 -87 -46 -128 -46c-45 0 -66 16 -67 44c-1 29 24 65 60 90c34 25 95 51 134 49
c31 -1 46 -17 42 -38s-24 -38 -38 -38c-20 0 -23 17 -13 34c13 22 19 30 9 32z" />
    <glyph glyph-name="c.end1" unicode="&#xe0f6;" horiz-adv-x="347" 
d="M182 164c-11 3 -34 -13 -62 -42c-29 -30 -55 -70 -56 -98c-1 -23 9 -44 49 -44c30 0 77 17 107 33c37 20 90 64 114 96c24 31 50 75 50 120c0 21 -5 24 -2 26s11 -11 12 -32c1 -56 -24 -98 -47 -125c-29 -35 -78 -70 -123 -94c-32 -17 -83 -37 -136 -38
c-68 -2 -102 22 -101 67v1c0 18 11 39 27 57l-1 1c-3 -2 -10 -9 -13 -12c-8 -7 -13 -9 -15 -7c-2 3 0 6 6 12c13 12 23 20 35 28c11 8 33 23 50 31c32 16 74 32 106 30c31 -1 46 -17 42 -38s-24 -38 -38 -38c-20 0 -24 17 -13 34c14 22 19 30 9 32z" />
    <glyph glyph-name="c.end2" unicode="&#xe0f7;" horiz-adv-x="360" 
d="M182 164c-11 3 -34 -13 -62 -42c-27 -27 -54 -65 -54 -92c0 -19 12 -29 31 -29c20 0 48 5 90 22c45 18 80 36 110 36c29 0 43 -14 43 -33c0 -21 -23 -34 -31 -39c-2 -1 -6 -3 -7 -2s-1 3 1 4c2 3 7 10 7 19c0 24 -17 32 -35 32s-44 -8 -83 -24c-47 -20 -85 -30 -124 -30
h-1c-52 0 -78 20 -78 50c0 18 9 37 25 55l-1 1c-3 -2 -10 -9 -13 -12c-8 -7 -13 -9 -15 -7c-2 3 0 6 6 12c13 12 23 20 35 28c11 8 33 23 50 31c32 16 74 32 106 30c31 -1 46 -17 42 -38s-24 -38 -38 -38c-20 0 -23 17 -13 34c13 22 19 30 9 32z" />
    </font>
</defs>
</svg>
