<?xml version="1.0" standalone="no"?>
<!DOCTYPE svg PUBLIC "-//W3C//DTD SVG 1.1//EN" "http://www.w3.org/Graphics/SVG/1.1/DTD/svg11.dtd" >
<svg xmlns="http://www.w3.org/2000/svg" xmlns:xlink="http://www.w3.org/1999/xlink" version="1.1">
<metadata></metadata>
<defs>
<font id="bilbo_swash_capsregular" horiz-adv-x="1257" >
<font-face units-per-em="2048" ascent="1638" descent="-410" />
<missing-glyph horiz-adv-x="409" />
<glyph horiz-adv-x="0" />
<glyph unicode="&#xd;" horiz-adv-x="681" />
<glyph unicode=" "  horiz-adv-x="409" />
<glyph unicode="&#x09;" horiz-adv-x="409" />
<glyph unicode="&#xa0;" horiz-adv-x="409" />
<glyph unicode="!" horiz-adv-x="413" d="M156 51q0 37 46 71t77 34q10 0 16 -6v-3q-4 -16 -11.5 -46.5t-12.5 -54t-5 -30.5q0 -14 -11 -26.5t-27.5 -18.5t-30.5 -6q-41 0 -41 86zM311 406q0 57 48.5 185t129 307t82.5 185q6 18 54.5 113.5t52.5 116.5q4 6 -2 7t-17.5 5t-15.5 16q0 6 10.5 12.5t24.5 11.5t32.5 7 t34.5 2q12 0 23.5 -1t21 -5t14.5 -9t5 -13q0 -6 -4 -15q-45 -53 -225.5 -421.5t-180.5 -454.5q0 -10 7.5 -20.5t7.5 -18.5t-8.5 -18.5t-19.5 -16.5t-24.5 -10t-25.5 -4q-25 0 -25 39z" />
<glyph unicode="&#x22;" horiz-adv-x="831" d="M182 821h2q68 68 137.5 162t69.5 141q0 16 -10 27q-4 4 -8 10t-6 11.5t-3.5 11.5t-1.5 12q0 33 35 68v-2q51 47 88 47q19 -1 29 -17q14 -43 14 -67q0 -16 -9 -30.5t-11 -20.5l2 -3q-51 -152 -159.5 -256t-157.5 -104q-6 0 -8.5 3t-2.5 7zM451 838q39 39 84 92t83.5 115.5 t38.5 95.5q0 8 -2 14t-6 10v2q-18 18 -18 47q0 49 35 66q51 45 86 45q20 0 28 -16q14 -45 15 -68q0 -16 -8.5 -30.5t-10.5 -20.5v-2q-16 -47 -38.5 -92t-49 -80t-54.5 -65.5t-54.5 -53.5t-50 -38t-42 -23.5t-26.5 -8.5q-10 4 -10 11z" />
<glyph unicode="#" horiz-adv-x="1376" d="M-14 412q0 14 22.5 23t40 11.5t23.5 2.5h288q29 74 111 303l-172 -2q-162 0 -162 43q0 14 21.5 23t42.5 11l22 2q182 0 275 -2q14 37 39.5 112t40.5 114q10 25 13 34t9 21t11 16t12 4q14 0 14 -45q0 -104 -27 -172l-32 -86q55 0 165.5 -1t167.5 -1q43 117 95 232 q31 68 47 71q20 -18 9 -99t-24 -116l-32 -86q41 0 96 2t109.5 4.5t95.5 2.5q12 0 19 -1.5t14.5 -2.5t10.5 -4t3 -9q0 -4 -5.5 -8t-11.5 -7l-14 -7l-8 -4q-111 -37 -172 -37h-166q-109 -291 -113 -303h250q78 0 86 -13q10 -18 -51 -37q-94 -29 -158 -28l-157 -2 q-53 -143 -62 -168q-20 -59 -43.5 -98t-44.5 -39q-23 0 -22 36q0 12 2 27.5t4 21t2 9.5q16 45 78 211l-342 -2q-12 -33 -33 -90.5t-29 -75.5q-49 -137 -88 -137q-23 0 -23 34l11 60q47 106 86 209h-183h-5h-6h-7q-61 0 -102 10t-41 33zM436 449h340q57 168 107 305l-334 -2 q-109 -291 -113 -303z" />
<glyph unicode="$" horiz-adv-x="1171" d="M84 80q0 86 57 86q4 0 5 -10.5t3.5 -27.5t8.5 -28q31 -68 153 -67q55 186 166 477q-59 23 -91 37t-74 40.5t-60.5 63.5t-18.5 84q2 123 135.5 218.5t313.5 115.5q84 219 102 231q14 4 23 5q8 0 14 -6.5t6 -17.5t-8 -30q-18 -39 -74 -178h19q86 0 117.5 -38t31.5 -99 q0 -6 -1 -14.5t-1 -16.5q-4 -18 -21.5 -42.5t-33.5 -24.5q-10 0 -10 10q0 4 1 12t3 15.5t3 17.5t1 18q0 98 -133 103q-106 -274 -172 -455l18 -6q47 -18 71 -27.5t60.5 -29t54 -37t32 -43t14.5 -56.5q0 -10 -2 -23t-6 -28q-33 -111 -154 -202t-281 -115q-47 -162 -55 -230 q-2 -16 -2 -28q0 -31 9 -47.5t22 -16.5q6 0 2 -14t-19.5 -26.5t-27.5 -12.5q-23 0 -31 28.5t-8 69.5q0 96 51 271q-18 -2 -57 -2q-86 2 -121 28.5t-35 67.5zM313 770q0 -70 49.5 -113.5t139.5 -78.5q0 2 10 26l150 408q-53 -4 -111.5 -23.5t-113 -48.5t-89.5 -74t-35 -96z M369 35q106 10 203 72.5t124 146.5q10 35 11 63q0 63 -46.5 101.5t-136.5 73.5q-100 -276 -155 -457z" />
<glyph unicode="%" horiz-adv-x="1220" d="M166 772q0 104 152.5 292.5t244.5 188.5q33 0 53.5 -13t28.5 -33.5t8 -49.5v-9t-1 -10t-1 -10.5t-1 -10.5l-2 -10t-3 -9q0 -2 5 -3t12 -1q6 0 15 1t15 1t13.5 1t9.5 1q174 23 407 129q9 4 11 4q12 0 26.5 -9.5t14.5 -23.5q0 -16 -17 -33q-240 -279 -542 -682t-355 -551 q-2 -8 -4 -15l-4 -14t-2 -14.5v-13.5q0 -33 18 -43q10 -4 0 -14q-14 -18 -37 -19q-31 0 -30 51q0 59 39 170q45 121 343 531t472 606q-86 -41 -215 -79t-205 -40l2 -10q0 -20 -17.5 -56t-44 -78t-63.5 -85t-76 -78t-79 -57.5t-72 -22.5h-27q-45 0 -68.5 42t-23.5 79z M248 760q0 -57 41 -58q74 0 189.5 135.5t115.5 196.5q-14 8 -31.5 27.5t-27.5 36.5l-11 16q-37 0 -104.5 -66.5t-119.5 -152.5t-52 -135zM514 -23q0 104 152.5 293t244.5 189q33 0 53.5 -13.5t28.5 -34t8 -46.5q0 -14 -2 -30t-6 -32q0 -2 4 -3t8.5 -2t8.5 -2t6 -4t2 -9 q0 -4 -3 -11.5t-12.5 -13.5t-23.5 -12q2 -4 2 -10q0 -41 -58.5 -132.5t-144.5 -169t-149 -77.5h-27q-45 0 -68.5 42t-23.5 78zM596 -35q0 -55 41 -55q74 0 189.5 135.5t115.5 194.5q-14 8 -31.5 28.5t-27.5 34.5l-11 16q-29 0 -75.5 -40.5t-90.5 -97t-77 -118t-33 -98.5z " />
<glyph unicode="&#x26;" horiz-adv-x="1765" d="M86 195q0 57 26.5 115.5t77 112.5t130 103t178.5 82q-264 23 -265 185q0 121 88.5 221t223.5 159.5t283.5 91t283.5 31.5q61 0 115.5 -7t98.5 -22.5t77 -37t50 -51t17 -66.5q0 -63 -51 -139q-55 -80 -181 -129t-208 -49q-16 0 -18 10q6 16 26 20q55 0 155.5 55.5 t127.5 118.5q10 27 15 49.5t5 45.5q0 80 -70.5 120.5t-193.5 40.5q-106 0 -230 -29.5t-242 -84t-195.5 -146.5t-77.5 -202q0 -61 70.5 -92t170.5 -31q96 0 160 24q14 6 29 6q6 0 12 -2t10 -4t7.5 -5t5.5 -7t2 -8q0 -20 -34 -39t-99 -25q-141 -39 -246 -106.5t-154 -142 t-49 -150.5q0 -96 87 -158.5t249 -62.5q98 0 217 24q133 29 232.5 94.5t143.5 140.5t44 148q0 74 -49.5 121t-139.5 47q-31 0 -58.5 -4t-53 -12t-43 -21.5t-28.5 -33t-11 -43.5q0 -12 2 -26.5t8 -29.5q2 -8 2 -14q-2 -12 -10 -14q-8 0 -19.5 9t-20.5 27.5t-9 40.5 q0 98 88 144.5t205 46.5q59 0 122.5 -12.5t148.5 -35t118 -28.5q8 -2 15 -3t18.5 -4t20.5 -4t20.5 -3t21.5 -3t21.5 -2t19.5 -1q16 0 27.5 2t19.5 6q20 8 33 8q8 0 11 -2t3 -8q0 -10 -14 -27q-29 -33 -123 -33q-37 0 -158 13q-35 4 -74.5 15t-75.5 24.5t-48 17.5 q43 -20 73.5 -66.5t30.5 -101.5q0 -121 -158.5 -246t-365.5 -172q-150 -33 -275 -32q-195 0 -297 73.5t-102 184.5z" />
<glyph unicode="'" horiz-adv-x="428" d="M281 684v2q12 12 25 25.5t27.5 31t30 36t31 38t28.5 38.5t25.5 38.5t20.5 36t13 32t5 27.5q0 14 -10 25q-4 4 -8 10t-6 11t-3 11.5t-1 12.5q0 33 35 67h2q51 45 86 45q23 0 35 -27.5t12 -53.5q0 -35 -23 -56q-12 -37 -29.5 -72.5t-36 -65.5t-40 -57.5t-43 -49t-42 -41 t-40 -33t-35.5 -22.5t-29.5 -14t-19.5 -5t-9 3t-1 7z" />
<glyph unicode="(" horiz-adv-x="548" d="M-37 309q0 195 62 398q35 117 110.5 233.5t183 219t257 166t313.5 63.5h2q8 -2 13 -4.5t8 -5.5t4.5 -7t1.5 -8q0 -20 -31 -46t-53 -26q-135 -2 -260 -59t-216.5 -148.5t-155 -190.5t-98.5 -200q-78 -231 -77 -444q0 -133 37.5 -222t115.5 -110q8 0 15.5 -2t12.5 -4t9 -5 t7 -6t4 -6.5t1 -5.5q0 -6 -4 -11t-11 -7t-17 -2q-12 0 -27 4q-98 18 -152.5 137t-54.5 299z" />
<glyph unicode=")" horiz-adv-x="813" d="M-63 -92q0 27 30.5 62.5t59.5 35.5q164 2 340 203t307 473h2q96 199 96 365q0 125 -67.5 200.5t-217.5 75.5h-18q-10 0 -27.5 14.5t-17.5 26.5q0 2 2 5t5 4t7 3t9.5 3t9.5 1h11h11h10q180 0 261 -98t81 -258q0 -176 -81 -373q-137 -328 -360.5 -547t-436.5 -219h-2 q-14 6 -14 23z" />
<glyph unicode="*" horiz-adv-x="415" d="M43 1149q0 45 123 76q-29 10 -39 15t-35.5 17.5t-37 25.5t-11.5 28q0 14 10 21t23 7q45 0 108 -73q-2 10 -4 19t-4 20.5t-3 22.5t-1 22q0 27 9 43t30 18q37 -6 37 -59q0 -33 -15 -84q76 75 109 75q12 0 21.5 -9t9.5 -19q0 -43 -123 -88q121 -37 121 -82q0 -14 -9.5 -22.5 t-21.5 -8.5q-41 0 -104 68q16 -59 16 -90q0 -51 -39 -52q-43 0 -43 58q0 31 14 84q-66 -66 -106 -66q-8 0 -16.5 3t-13.5 11.5t-5 18.5z" />
<glyph unicode="+" horiz-adv-x="776" d="M119 328q0 16 17.5 30.5t41.5 16.5l203 -4q2 6 38 111.5t42 127.5q4 14 24.5 27.5t34.5 13.5q6 0 10.5 -3t6.5 -9q0 -70 -78 -270q4 0 71.5 2t108.5 2q76 0 90 -6q6 -4 9 -7.5t5 -5.5t2 -4q0 -12 -50 -18t-132 -10.5t-123 -10.5q-31 -119 -110 -286q-25 -51 -35 -52 q-10 0 -10 31q0 43 8 55q78 240 72 256q0 -2 -191 -2h-19.5h-15.5h-10h-4q-6 6 -6 15z" />
<glyph unicode="," horiz-adv-x="413" d="M2 -336q70 72 139.5 165t69.5 138q0 16 -10 25h-2q-17 20 -17 49q0 33 33 65h2q51 45 86 46q20 0 29 -17q14 -43 14 -67q0 -16 -9 -30.5t-11 -21.5q-27 -82 -75 -153.5t-95 -114.5t-87 -68.5t-59 -25.5q-10 0 -8 10z" />
<glyph unicode="-" horiz-adv-x="591" d="M47 274q0 20 21.5 41t40.5 29q8 4 16 7t13 4t12 1q4 0 7 -2t4 -4t1 -6t-3 -11t-7 -11q127 -9 172 -9q27 0 80 3t96 3q31 0 30 -10q0 -10 -24 -18q-49 -16 -165 -28.5t-204 -12.5h-41h-8h-10q-31 0 -31 24z" />
<glyph unicode="." horiz-adv-x="505" d="M231 53q0 35 48.5 70t74.5 35q6 0 8 -4q-4 -16 -11 -47t-12 -54.5t-5 -29.5q-2 -10 -9.5 -19.5t-16.5 -16.5t-20.5 -10.5t-21.5 -3.5q-35 0 -35 80z" />
<glyph unicode="/" horiz-adv-x="1236" d="M41 -188q0 68 39 162t133 241t153.5 231t196.5 277q127 178 261 347t221.5 264.5t103.5 95.5t32.5 -11.5t16.5 -29t-18 -37.5q-276 -317 -635 -797.5t-422 -652.5q-12 -37 -12 -66q0 -39 22 -51q10 -4 0 -18q-16 -20 -43 -21q-49 0 -49 66z" />
<glyph unicode="0" horiz-adv-x="1142" d="M57 197q0 180 136 401q84 139 237.5 270t306.5 201q-27 25 29 33l33 2q16 0 30 -2q51 16 134 16q131 0 131 -47q-4 -22 -35 -10q-53 18 -92 18h-15q57 -20 99 -61q96 -92 96 -236q0 -131 -77 -274t-204 -256q-76 -68 -155.5 -119t-156.5 -84t-147.5 -48t-138.5 -15 q-35 0 -65 4q-72 10 -109 64.5t-37 142.5zM137 166q0 -74 28 -106.5t89 -32.5q127 0 267.5 74.5t262.5 183.5q98 86 163 185t87.5 178t22.5 155q0 63 -16.5 111.5t-39.5 66.5q-84 63 -159 80q-164 -51 -319.5 -200.5t-241.5 -285.5q-121 -186 -142 -362q-2 -24 -2 -47z" />
<glyph unicode="1" horiz-adv-x="608" d="M0 6q0 27 14 33q160 59 176 63q49 84 209 380t228 417q-113 -68 -244 -115l-10 -2q-16 0 -17 19q0 4 1 8t5.5 8t10.5 6q113 43 329 209l11 19q18 31 75 30q51 0 52 -24q0 -6 -4 -15l-562 -925q115 20 250 20q8 0 13.5 -5t5.5 -13q0 -10 -7.5 -17.5t-19.5 -7.5 q-37 0 -71.5 -3t-74.5 -12t-65.5 -15.5t-73 -23.5t-63.5 -23.5t-70.5 -29t-66.5 -26.5h-6q-10 0 -17.5 14.5t-7.5 30.5z" />
<glyph unicode="2" d="M2 16q0 23 28.5 55.5t67.5 51.5q16 8 43 15t55.5 13.5t58.5 9.5t50 3h6h6q387 219 512 317q121 94 189.5 179t89.5 196q0 4 1 9t1 10.5v9.5q0 25 -8 43t-23.5 29.5t-37 16.5t-50.5 5q-27 0 -57.5 -5t-65.5 -13q-256 -66 -413 -213q-8 -6 -17 -7q-16 0 -16 21q0 12 10 20 q141 119 321.5 200t346.5 81q154 0 153.5 -129t-161.5 -295q-98 -104 -252 -217q-174 -125 -480 -277q76 -6 256 -65q172 -53 289 -53q152 0 185 75q6 14 6 29q0 61 -101 94q-23 8 -8 21q8 8 25 4q137 -39 137 -127q0 -72 -76 -115t-178 -43q-119 0 -324 74q-14 6 -49 19.5 t-56.5 20.5t-52 17t-59 14.5t-57.5 6.5q-29 -8 -73 -41t-91 -58.5t-94 -25.5q-37 0 -37 24z" />
<glyph unicode="3" horiz-adv-x="1245" d="M68 209q0 125 120.5 200.5t262.5 75.5q20 0 20 -14q-4 -14 -25 -16q-96 0 -185 -70t-89 -174q0 -90 79 -138t206 -48q152 0 295 47t246.5 150.5t103.5 238.5q0 59 -37 98t-88 53.5t-119 14.5q-94 0 -176 -27l-12 -4t-11.5 -2h-9.5q-33 0 -33 31q0 18 14.5 34.5t37.5 16.5 q186 0 323 63q68 31 107 83t39 108q0 16 -7.5 30.5t-20.5 25.5t-35.5 17.5t-49.5 6.5q-31 0 -68 -9q-174 -33 -323 -133q-6 -4 -12 -4q-12 0 -13 21q0 16 9.5 35.5t23.5 25.5q66 33 127 94q8 8 16 9q10 0 11.5 -11.5t-9.5 -23.5l-14 -15q193 78 322 78q154 0 153 -123 q0 -88 -103.5 -173t-207.5 -105q264 -27 264 -209q0 -143 -125 -258t-294 -171t-330 -56q-174 0 -278.5 56t-104.5 171z" />
<glyph unicode="4" horiz-adv-x="989" d="M68 467q0 10 2 18.5t8 14.5t12 11t16.5 9t16.5 6t20.5 5.5t20.5 4.5t20.5 4t18.5 3q268 133 545.5 293.5t353.5 261.5q10 10 28 10q20 0 40 -8t20 -21l-2 -6q-37 -49 -136.5 -176t-169 -219t-130.5 -184q117 -39 206 -39q29 0 60 11t54.5 38.5t23.5 66.5q0 8 -1 17.5 t-3 17.5q-2 12 4 18.5t17 2.5t17 -15q16 -29 24.5 -52t8.5 -42q0 -106 -213 -106q-94 0 -225 34q-6 -10 -34.5 -54t-47 -75.5t-42 -74.5t-35 -77t-9.5 -56q123 14 211 14q8 0 13 -5t5 -14q0 -10 -7 -17t-19 -7q-37 0 -72 -3t-75 -12.5t-65.5 -15.5t-72.5 -23.5t-63.5 -23.5 t-70.5 -28.5t-67 -26.5h-3h-3q-10 0 -17 14t-7 31q0 27 14 33q158 59 217 71l37 6q-2 8 -2 19q0 113 152 342q-131 35 -220 35q-123 0 -325 -76q-6 -2 -13 -2q-16 0 -26 14.5t-10 32.5zM328 559q66 6 118 6q88 0 240 -49q18 29 63.5 97.5t90.5 135t88 123.5l41 52 q-217 -148 -641 -365z" />
<glyph unicode="5" horiz-adv-x="1255" d="M25 117q0 59 31.5 107t109.5 108q6 4 13 7t11 3q8 0 14.5 -3t9.5 -9t3 -13q0 -18 -24 -28q-35 -12 -63 -58.5t-28 -80.5q0 -78 73 -119t181 -41q104 0 225 40t227.5 109.5t177.5 176t71 223.5q0 74 -66.5 107.5t-169.5 33.5q-78 0 -154.5 -15.5t-121.5 -37.5 q-20 -10 -73.5 -40t-86.5 -44q-6 -2 -10 -2q-8 0 -12.5 6t-4.5 16q0 25 23 37l231 301q14 20 78 21q10 0 17.5 -1t12.5 -4.5t5 -5.5t-1 -4t-3 -4l-225 -262q43 37 153.5 64.5t224.5 27.5q135 0 223.5 -44t88.5 -140q0 -147 -125 -290.5t-319.5 -230.5t-389.5 -87 q-141 0 -234 51t-93 125zM575 948q0 45 29 62q74 45 180 45q98 0 265 -47q160 -45 237 -45q35 0 86 24.5t51 67.5q0 12 6.5 19t14.5 7q23 0 22 -45q0 -33 -23.5 -57.5t-57 -36.5t-61.5 -17t-48 -5q-86 0 -237.5 22.5t-239.5 22.5q-117 0 -178 -50q-10 -6 -19 -6 q-14 0 -20.5 11.5t-6.5 27.5z" />
<glyph unicode="6" horiz-adv-x="1153" d="M88 190q0 143 142.5 319.5t363.5 297.5q258 141 440 203l-30 6q-10 6 -9 12q16 27 158 27h37q25 -2 46 -8.5t33.5 -15.5t19.5 -19.5t7 -18.5q0 -16 -18 -20q-258 -48 -633 -230q-160 -80 -327.5 -246.5t-167.5 -312.5q4 -172 217 -172q61 0 150 18.5t184.5 51.5t162 94.5 t66.5 134.5q0 29 -24.5 49.5t-74.5 20.5q-158 0 -267 -80t-136 -217q-6 -33 -29 -33q-16 0 -16 21q0 113 70.5 196.5t177 122.5t229.5 39q82 0 128 -30.5t46 -82.5q0 -90 -74.5 -161.5t-186 -110.5t-219.5 -58.5t-196 -19.5q-135 0 -202.5 58.5t-67.5 164.5z" />
<glyph unicode="7" horiz-adv-x="860" d="M190 860l3 19v6l2 4q2 4 6 13t8 17.5t9 18.5t10 20.5t9.5 19.5t6.5 18.5t2 13.5v16t2 18.5t5 17.5t9 3q12 -8 12 -53q123 108 328 108q82 0 249 -36.5t202 -41.5q16 12 50 37t40 29q8 6 23.5 0t25.5 -21q20 -20 20 -36q0 -8 -6 -13q-420 -303 -704 -587q-18 -18 -38 -40 t-40.5 -47.5t-39.5 -54t-37.5 -58.5t-34 -60.5t-28 -59.5t-18.5 -57.5t-6 -50.5q0 -6 1 -17.5t1 -15.5t-1 -7t-4 -5.5t-7 -3.5t-8 -1q-12 0 -20.5 10.5t-9.5 21.5t-1 30q0 98 70.5 220t160.5 224q236 266 564 527q-6 0 -89 13t-145.5 19t-132.5 6q-150 0 -238 -37.5 t-127 -152.5q-10 -33 -45 -33q-16 0 -27.5 10.5t-11.5 28.5z" />
<glyph unicode="8" horiz-adv-x="1058" d="M2 125q0 102 107 217q188 211 466 356q-51 33 -78.5 63t-27.5 64q0 16 6 35q27 72 99.5 127t160.5 82t172 27q78 0 139.5 -26t61.5 -81q0 -39 -33 -82l148 47q12 4 19 -2t7 -18q0 -35 -49 -45q-215 -49 -463 -166q94 -39 160 -78q127 -82 127 -186q0 -111 -135 -225.5 t-330 -192.5q-78 -31 -169 -52.5t-171 -21.5q-96 0 -156.5 39t-60.5 119zM96 115q0 -113 142 -113q111 0 270 64q104 43 185 88t131 90t76 88t26 84q0 104 -152 180q-127 63 -149 76q-51 -29 -131 -87.5t-173.5 -137t-159 -170.5t-65.5 -162zM580 866q0 -45 25.5 -70.5 t80.5 -50.5q242 113 332 144q2 4 6 11t7 12.5t7 11.5t6.5 13t4.5 13t4 14.5t2 14.5q0 37 -56.5 51t-115.5 14q-57 0 -112.5 -14t-97.5 -37.5t-67.5 -57.5t-25.5 -69z" />
<glyph unicode="9" horiz-adv-x="765" d="M131 627q0 90 67.5 168.5t171 131t226.5 90.5t232.5 55.5t189.5 17.5h20q12 0 13 -17q0 -6 -3.5 -13t-8.5 -14.5t-10 -14.5t-11 -11t-12 -4q-8 0 -25.5 1t-26.5 1q-117 0 -249 -32t-241.5 -81t-181 -119.5t-71.5 -140.5q0 -53 57 -53q10 0 21 2q78 10 205 78 q240 125 483 325q8 8 31 9q27 0 50 -10.5t23 -26.5q0 -12 -16 -27q-10 -10 -45 -40t-73 -63.5t-73 -66.5q-106 -96 -196 -193.5t-186.5 -223.5t-152.5 -260t-56 -253v-20q0 -47 24 -58q27 -8 10 -22q-10 -6 -24 -6q-84 0 -84 106q0 129 95 312.5t222 345.5t265 297 q-266 -182 -459 -236q-57 -16 -99 -16q-49 0 -75.5 20.5t-26.5 61.5z" />
<glyph unicode=":" horiz-adv-x="413" d="M184 213q0 37 46 70.5t77 33.5q10 0 15 -4h2v-2q-4 -16 -11.5 -47t-12.5 -54.5t-5 -29.5q0 -25 -22.5 -38t-49.5 -13q-39 0 -39 84zM270 633q0 16 9.5 32.5t24.5 29t31.5 23.5t33 16t26.5 5q8 0 15 -6v-2q-4 -16 -11.5 -47t-12.5 -53.5t-5 -28.5q0 -23 -23.5 -38 t-48.5 -15q-39 0 -39 84z" />
<glyph unicode=";" horiz-adv-x="413" d="M57 -279q14 20 58.5 77t70 98t25.5 67q0 18 -12 29q-17 20 -17 49q0 33 33 65h2q51 45 86 46q20 0 29 -17q14 -43 14 -67q0 -16 -9 -30.5t-11 -21.5q-45 -145 -124 -228t-126 -83q-18 0 -19 14v2zM299 408v7v7q0 18 14.5 38.5t34 35t40 24.5t32.5 10q10 0 14 -6v-2 q-26 -127 -26 -131q0 -14 -12.5 -26.5t-29 -18.5t-30.5 -6q-37 0 -37 68z" />
<glyph unicode="&#x3c;" horiz-adv-x="651" d="M174 524q0 18 49 92t117 164t76 103q12 23 39 22q14 0 14 -12t-82 -136t-121 -177q4 -6 32 -39t52.5 -65t52 -68.5t45 -64.5t17.5 -38q0 -27 -21 -26l-16 8q-76 102 -248 225q-6 6 -6 12z" />
<glyph unicode="=" horiz-adv-x="817" d="M219 270q0 20 21.5 41t40.5 29l41 12q6 0 9 -3t3 -9q0 -12 -10 -23q127 -8 172 -8q18 0 40.5 1t40 2t43 2t52.5 1q31 0 30 -10q0 -10 -24 -18q-49 -16 -165 -28.5t-204 -12.5h-15h-13.5h-12.5h-8h-10q-31 0 -31 24zM227 438q0 20 21.5 41t40.5 29l41 12q6 0 9 -3t3 -9 q0 -12 -10 -23q127 -8 172 -8q18 0 40.5 1t40 2t43 2t52.5 1q31 0 31 -10t-25 -18q-49 -16 -164.5 -28.5t-204.5 -12.5h-22h-19h-8h-10q-8 0 -15 3t-11.5 8t-4.5 13z" />
<glyph unicode="&#x3e;" horiz-adv-x="651" d="M174 276.5q0 12.5 82 136.5t121 177q-201 238 -201 274q0 27 23 27l16 -8q70 -94 248 -226q6 -2 6 -12q0 -18 -50 -92t-118 -164t-76 -102q-14 -23 -39 -23q-12 0 -12 12.5z" />
<glyph unicode="?" horiz-adv-x="950" d="M213 20v15.5v13.5q2 39 51 73t82 34q6 0 9 -1t7 -5q-4 -25 -23.5 -76t-19.5 -56v-2q-10 -37 -69 -51h-2q-20 0 -27.5 15.5t-7.5 39.5zM270 979q0 57 39 111q80 109 247 182.5t321 73.5q121 0 199.5 -53.5t78.5 -164.5q0 -41 -17.5 -82.5t-41 -77.5t-73.5 -82t-87 -77 t-111.5 -82t-120 -80t-133.5 -86q-18 -12 -28 -18q-35 -23 -61.5 -55.5t-38 -55t-26 -61.5t-20.5 -54h-2q-6 -6 -11 -10t-11 -4q-14 0 -25.5 18.5t-11.5 45.5q0 61 49 125q16 20 87 66t172 109.5t161 108.5h-2q96 72 156.5 164t60.5 170q0 70 -55.5 112t-167.5 42 q-170 0 -297 -77t-127 -198v-16q4 -49 20.5 -69.5t30.5 -22.5t14 -9q0 -2 -1 -4t-2 -6t-3 -8v-2q-18 -14 -41 -14q-29 0 -56.5 18t-46 51t-18.5 72z" />
<glyph unicode="@" horiz-adv-x="1646" d="M18 569q0 104 35 207q104 309 459 500q-12 0 -85 -3t-105 -3q-33 0 -39 2q-14 6 -10.5 17t22.5 18q86 27 328 26h27.5h25.5q205 57 391 58q88 0 162 -15.5t135 -50.5t96 -97.5t35 -148.5q0 -74 -37 -170q59 -106 60 -219q0 -133 -82 -262t-212 -223t-293 -151.5 t-319 -57.5q-266 0 -430 165t-164 408zM100 530q0 -199 121 -337t336 -138q90 0 190.5 22.5t196.5 64.5t185.5 101.5t155 129t105.5 153.5t40 168q0 57 -19 115q-39 -104 -144.5 -240.5t-227 -237t-195.5 -100.5q-31 0 -50.5 19.5t-27.5 60.5q-4 78 68 318 q-274 -379 -394 -379q-10 0 -17 3t-13.5 7t-9.5 10t-5 14.5t-3 17.5t-1 22q0 94 56.5 255.5t138.5 290.5t143 129h6l23 17q18 20 57 20q31 0 85 -15t63 -15q6 0 6 4q6 0 18 13t29 13q51 0 51 -43q0 -18 -7 -39.5t-22.5 -55.5t-15.5 -36q-2 -6 -18.5 -14t-18.5 -12 q-84 -236 -111 -404q-6 -35 -6 -59q0 -16 3 -27.5t7.5 -20t11.5 -11.5t15 -3q49 0 150.5 109.5t193.5 249t123 225.5q-96 178 -287.5 267t-422.5 100q-174 -57 -321.5 -203t-205.5 -320q-18 -51 -26.5 -104.5t-8.5 -104.5zM485 381q0 -35 21 -35q31 0 103.5 74t121.5 136 t72 93q25 41 48 87t43.5 88t33 77t12.5 51q0 12 -8 13h-3h-3h-2q-12 0 -27.5 2t-32 4t-33.5 2h-17t-20.5 -2t-23.5 -6q-49 -12 -157.5 -222.5t-125.5 -336.5q-2 -14 -2 -25zM811 1307q195 -20 353.5 -101.5t236.5 -216.5q12 51 12 101q0 256 -323 256q-123 0 -279 -39z" />
<glyph unicode="A" d="M-2 -154q0 172 79 343t212 364h-19.5h-21.5h-23.5t-25 -1t-23.5 -1h-24q-45 0 -72 2t-27 8q0 18 16.5 30.5t46 17.5t59.5 8.5t65 3.5q23 0 45 -1.5t37 -2.5l16 -1q223 301 545 611q-20 88 -21 112q0 41 49 41q61 0 72 -59q37 37 49 37q20 0 21 -39q0 -6 -1 -15.5 t-1 -13.5q-6 -6 -22.5 -20.5t-24.5 -24.5q55 -256 55 -629h7h7q158 0 172 -28q-4 -10 -76.5 -17.5t-109.5 -7.5v-477q141 76 170 76q18 -1 18 -15q0 -12 -33 -32q-166 -80 -294 -246q-8 -12 -19 -12q-20 0 -20 28q0 23 31.5 64t56.5 59q4 59 9 157.5t8 199t3 157.5v37 q-627 -6 -631 -6q-94 -145 -144 -233.5t-95 -226.5t-45 -273q0 -106 49 -160q18 -18 19 -29q0 -12 -38 -12q-55 0 -80.5 79t-25.5 148zM403 614h586q0 88 -26.5 271.5t-59.5 267.5q-367 -336 -500 -539z" />
<glyph unicode="B" horiz-adv-x="1761" d="M4 971q0 113 50 193.5t136 121.5t178.5 59.5t196.5 18.5q188 0 436 -53q29 68 62 96h4q8 0 18.5 2t22.5 5t20 3q57 0 58 -24q0 -2 -1 -4.5t-1 -4.5q-23 -31 -60 -100q76 -20 154 -50t166 -77t142 -114.5t54 -145.5q0 -72 -46 -132t-122.5 -102t-143 -69t-138.5 -45 q74 -4 160 -22.5t178 -53.5t152.5 -98.5t60.5 -143.5q0 -78 -72 -153q-207 -217 -588 -217q-252 0 -438 67q0 -8 1 -25.5t2 -27.5q0 -37 -15 -37q-14 0 -25.5 24.5t-14.5 47t-3 37.5q-49 23 -104.5 59.5t-55.5 69.5q0 12 10 12q6 0 37 -19.5t67 -43t46 -27.5q0 225 126 602 t261 653q-248 59 -422 60q-86 0 -164 -15.5t-149.5 -49.5t-114.5 -101.5t-43 -159.5q0 -209 199 -393q8 41 20 41q14 0 35.5 -44t21.5 -61q0 -27 -36 -26q-76 0 -153 87t-121 195.5t-44 184.5zM647 -23q174 -69 429 -69h7q340 0 476 137q86 86 86 168t-67 142.5t-168 89 t-191.5 42t-163.5 13.5q-23 0 -86.5 -7.5t-122 -13.5t-70.5 -6h-2q-104 -324 -127 -496zM797 543q33 10 91 15t77 9q74 12 154.5 34t186 60.5t172 99t66.5 132.5q0 63 -49 121.5t-128 99.5t-144.5 67.5t-128.5 45.5h-2q-166 -289 -295 -684z" />
<glyph unicode="C" horiz-adv-x="1542" d="M53 430q0 23 2 47q12 229 171 441t390.5 336t459 124t304.5 -102q18 55 19 80q0 4 -4 16t-2 19.5t16 7.5q16 0 32.5 -8.5t16.5 -20.5q0 -25 -7 -50.5t-18.5 -59t-15.5 -48.5q18 -49 19 -112q0 -139 -62 -139q-35 0 -49 14t-14 45q0 18 2 35.5t7 36t9 32t11.5 35 t11.5 31.5q-35 57 -109 94t-168 37q-217 0 -425 -118t-343 -316.5t-147 -417.5v-33q0 -240 167 -388t414 -148q109 0 207.5 20.5t163 47t130 70.5t96 72.5t73.5 71.5l49 49q6 10 27 32t29 22t8 -18.5t-9.5 -45t-21.5 -47t-23 -31.5q-127 -129 -342 -213t-411 -84 q-324 0 -494 156t-170 428z" />
<glyph unicode="D" horiz-adv-x="1878" d="M-109 831q0 70 79 135.5t189.5 109.5t241.5 81t223.5 54.5t145.5 23.5q41 90 78 131h4q57 14 106 14q23 0 23 -8q-49 -49 -86 -129h10q178 0 332 -31.5t263.5 -88t188 -132.5t117.5 -163t39 -181q0 -154 -102 -297q-98 -135 -260 -235.5t-320.5 -145.5t-296.5 -45 q-119 0 -182 35t-80 88q0 2 -1 5t-3 5q-8 -10 -29.5 -43.5t-35.5 -50.5q-31 -33 -52 -33q-32 0 -32 77q0 568 286 1167q-12 -2 -85.5 -17.5t-129.5 -28.5q-53 -12 -129 -38.5t-174 -68.5t-165.5 -100.5t-67.5 -115.5q0 -33 26.5 -68t57.5 -53q35 -33 43 -45h-9 q6 -16 -14 -16q-4 0 -10 2t-16.5 6t-16.5 6q-72 45 -94 70q-61 63 -62 124zM541 70q2 2 18 21.5t28.5 28.5t22.5 9q4 0 8.5 -2t6.5 -6l4 -8t4 -11q2 -4 11 -23.5t13.5 -26.5t14.5 -21.5t21.5 -21.5t25.5 -13q51 -18 123 -19q123 0 277.5 52.5t290.5 137.5t208 177 q151 194 151 361q0 152 -119.5 264t-305 165.5t-402.5 53.5q-39 0 -78 -2q-272 -475 -321 -1108q0 -6 -2 -8z" />
<glyph unicode="E" horiz-adv-x="1914" d="M-51 1122q0 227 352 228q350 0 913 -197q2 8 9.5 32.5t13.5 41t16.5 37t24.5 31t31 10.5q39 0 71.5 -41t32.5 -80q0 -20 -12 -21q-14 0 -37 18.5t-27 18.5q-16 0 -30.5 -26.5t-18.5 -47.5q246 -84 500 -84q43 0 80 10.5t57.5 20.5t24.5 10q27 0 26 -18q0 -51 -77.5 -73.5 t-143.5 -22.5q-104 0 -246.5 28.5t-236.5 71.5q-10 -33 -61.5 -175t-75.5 -220q14 0 155.5 -3t192.5 -3q37 0 60.5 -9.5t23.5 -21.5q0 -23 -72 -23q-59 0 -217 -6t-166 -6q-37 -133 -112.5 -291.5t-155.5 -247.5q416 -202 689 -202h3q104 0 190 58t86 159q0 47 -32.5 95 t-32.5 60q0 41 33 41q29 0 56.5 -53t27.5 -129q0 -145 -114 -226t-265 -81q-100 0 -234.5 39t-206 69.5t-225.5 102.5q-27 12 -41 18q-180 -168 -448 -168q-102 0 -182 39t-80 133.5t73.5 152.5t171.5 58q170 0 469 -137q100 131 248 506q-10 0 -55 -1t-72 -1h-13h-12.5 h-13.5h-13t-12.5 1t-11.5 2t-9 3t-8 5t-5 7t-2 11q0 16 14 33.5t31 17.5h39q29 0 85 -1t81 -1q25 70 71.5 212t71.5 214q-521 153 -793 153h-4q-59 0 -116.5 -8t-122 -29.5t-104.5 -65.5t-40 -108q0 -96 87 -198.5t191.5 -171t191.5 -128t87 -77.5q0 -6 -8 -6q-33 0 -129 51 q-94 49 -175 107.5t-154.5 134t-115.5 171t-42 197.5zM137 63q0 -51 55.5 -91t119 -55t114.5 -15q174 0 309 135q-88 41 -230.5 75.5t-230.5 34.5q-137 0 -137 -84z" />
<glyph unicode="F" horiz-adv-x="1505" d="M29 1128q0 279 385 279q113 0 236.5 -25.5t191 -48t232.5 -88t218 -86.5q53 154 68 156q4 0 8 1t7 1t6 1t8 1q12 0 22 -4t17.5 -8t15.5 -14.5t11 -15.5t13.5 -20.5t12.5 -19.5q2 -6 4 -13t4 -12.5t3 -10.5t1 -11q0 -8 -4 -14.5t-10 -6.5q-16 0 -47 29q-8 12 -17 12 q-10 0 -22.5 -17t-19.5 -35.5t-7 -27.5q129 -45 229.5 -72.5t161.5 -27.5q27 0 46.5 6t27.5 19q12 16 35 16t22 -16q0 -20 -28 -49q-51 -51 -148 -52q-141 0 -366 107q-125 -379 -134 -408q305 0 351 -20q14 -10 7 -18.5t-24 -10.5q-6 0 -59 -5t-138 -11t-159 -10 q-90 -330 -154 -465q-133 -281 -362 -367q-53 -20 -125 -20q-102 0 -198.5 43t-147.5 127q-41 70 -60.5 146t-19.5 142q0 37 7 68t20 31q14 0 20 -58q0 -29 12.5 -80t41 -117.5t69.5 -125t106.5 -98.5t141.5 -40q14 0 28 3q66 6 130.5 50t117.5 121.5t96 151.5t85 180.5 t62.5 162.5t47.5 140h-17.5h-39h-47.5q-137 0 -175 7q-18 10 -18 37.5t18 27.5l109 4q106 4 192 4q25 76 74 231.5t70 217.5q-231 100 -423 154.5t-396 54.5q-160 0 -259.5 -47t-99.5 -138q0 -117 124 -300t241 -265q41 -29 103.5 -63.5t80.5 -46.5q16 -10 12 -19.5 t-24 -5.5q-213 47 -397.5 254t-204.5 403q-2 23 -2 45z" />
<glyph unicode="G" horiz-adv-x="1736" d="M31 422q0 129 45 250t124 218t185.5 178t228 135t253.5 85t261 31q29 0 58 -2q147 -8 240.5 -45t117.5 -76q12 -20 12 -37q0 -8 -4 -17t-9 -14.5t-15 -15.5t-15 -16q-6 -8 -14 -21.5t-15 -26t-15.5 -23.5t-15.5 -18.5t-13 -7.5q-4 0 -7 2.5t-6 6.5v2q0 14 14.5 43.5 t14.5 50.5q0 31 -26 67q-63 88 -265 107q-25 2 -53 2q-51 0 -109.5 -6t-129 -23.5t-141 -43t-144.5 -67.5t-137.5 -94.5t-123 -127t-100.5 -160.5q-82 -172 -82 -332q0 -201 147.5 -327t336.5 -126q305 0 498.5 130t324.5 405q-174 -10 -557 -10q-35 0 -56.5 21.5 t-21.5 47.5q0 27 42 47.5t73 20.5h4q12 0 14 -8q0 -2 -2 -4q-10 -12 -13 -20.5t7 -12.5q23 0 131.5 -3t257 -4t244.5 -1h100q72 0 72 -19q0 -20 -71.5 -32.5t-123.5 -12.5q-143 -528 -202 -655q-152 -322 -328 -459t-350 -137q-182 0 -285 127q-39 47 -39 90q2 20 12 22 q16 0 39 -30q35 -47 60.5 -74t76 -53.5t105.5 -26.5q145 0 278.5 100.5t227.5 256t157.5 314.5t96.5 304q-86 -166 -325.5 -278.5t-483.5 -112.5q-258 0 -409.5 148.5t-151.5 367.5z" />
<glyph unicode="H" horiz-adv-x="1964" d="M-14 1139q0 133 108.5 201.5t288.5 68.5q201 0 426 -80q29 -10 182.5 -73.5t285.5 -109.5t191 -46q16 0 26.5 4t14.5 10q12 16 35 16t23 -16q0 -10 -7.5 -21.5t-21.5 -27.5q-29 -29 -119 -29q-76 0 -104 15q-14 -41 -52 -157t-73 -219.5t-55 -170.5q369 0 608 -6l164 471 q-2 6 -4 13t-3.5 15.5t-1.5 14.5q0 20 6.5 44.5t13.5 40t16 31.5l8 15q10 29 40.5 44t61.5 15q14 0 24.5 -3t16.5 -8t6 -11q0 -8 -10 -19q-98 -240 -244 -667q113 -4 137 -11q12 -6 13 -12q0 -8 -18.5 -12t-51.5 -6t-51.5 -2h-42.5q-125 -383 -148 -592q12 0 72.5 48 t81.5 77q23 20 39 20q10 0 10 -12q0 -29 -53 -80q-137 -133 -193 -133q-57 0 -57 86q0 61 28.5 167.5t68.5 232.5t54 181q-279 -6 -618 -18q-150 -567 -485 -692q-53 -20 -125 -21q-102 0 -198.5 43t-147.5 127q-80 133 -80 297q0 23 3 43.5t9 33.5t14 13q16 0 21 -57 q0 -29 12 -80t41 -117.5t70 -125t107.5 -98.5t142.5 -40q14 0 26 2q96 10 189.5 98.5t160 214.5t103.5 209.5t55 145.5q-2 0 -13.5 -1t-21.5 -1q-31 0 -65 8q-18 8 -18.5 37t18.5 29l20 4q20 4 107 4q25 76 97.5 301t92.5 287q-43 18 -254 90.5t-274 91.5q-84 25 -162 38 t-147 13q-145 0 -230.5 -56.5t-85.5 -168.5q0 -127 115 -307q72 -111 146.5 -178.5t165.5 -119t97 -55.5q16 -10 12.5 -20t-24.5 -4q-104 35 -253.5 145.5t-229.5 231.5q-133 201 -133 346z" />
<glyph unicode="I" horiz-adv-x="968" d="M18 -29q0 49 48.5 94.5t115.5 45.5q70 0 197 -56q86 104 168 281.5t129 317t103.5 324.5t68.5 224q-6 0 -113.5 20.5t-156.5 20.5q-57 0 -100.5 -14.5t-68 -42t-24.5 -64.5q0 -78 96 -174q6 -6 11.5 -13t8.5 -14.5t3 -11.5t-1 -5t-5 -1q-14 0 -56 37q-110 101 -110 195 q0 82 75.5 131t202.5 49q27 0 56.5 -2t60.5 -8q10 -2 93 -18.5t163 -29t133 -12.5q61 0 76 19q6 6 12 8q12 0 13 -17q0 -6 -3.5 -14t-11.5 -19.5t-20 -21.5q-16 -14 -41 -21.5t-60 -7.5q-41 0 -153 19q-4 -10 -49 -171t-78 -257t-90.5 -250t-127 -274.5t-147.5 -206.5 q197 -88 359 -88q123 0 123 57q0 16 -8.5 34.5t-16.5 34t-8 19.5q0 8 4 15.5t10 5.5q16 -6 28.5 -37t12.5 -68q0 -59 -37 -100t-119 -41q-78 0 -197.5 32.5t-201.5 69.5q-94 -84 -223 -84q-61 0 -102.5 23.5t-41.5 66.5zM51 -4q0 -39 31 -62.5t78 -23.5q92 2 172 80 q-31 14 -96.5 34.5t-114.5 20.5q-70 0 -70 -49z" />
<glyph unicode="J" horiz-adv-x="1236" d="M10 -37q0 37 7.5 67.5t19.5 30.5q14 0 20 -53v-4q0 -16 5.5 -44t14.5 -63.5t26.5 -75.5t38 -79t50 -75t64.5 -63.5t79 -44t93 -16.5q8 0 15.5 1t13.5 1q72 6 149.5 84t151 212t139.5 277.5t131.5 325t107.5 305t87 268t53 169.5q-47 4 -253 37.5t-290 33.5 q-186 0 -186 -92q0 -63 93 -160.5t257 -199.5q12 -6 6 -14q-4 -6 -16 -5q-170 41 -272.5 145.5t-102.5 213.5q0 29 7 54.5t22.5 48t41 41t57.5 31.5t75 20.5t94 7.5q31 0 62.5 -2.5t68.5 -8.5t76 -14q6 -2 77.5 -18.5t125 -27.5t128 -21.5t123.5 -10.5q41 0 69 7.5t40 21.5 q2 4 5 6l6 4t6 3t6 1q4 0 7 -2t5 -6t2 -10q0 -29 -43 -74q-33 -33 -115 -33q-51 0 -102 11q-6 -18 -27 -87q-471 -1613 -937 -1613h-1q-160 0 -301 200q-80 113 -80 289z" />
<glyph unicode="K" horiz-adv-x="1945" d="M-4 1124q0 78 32.5 133.5t90 85t123 42t145.5 12.5q117 0 236.5 -22.5t185.5 -45.5q29 -10 182.5 -73.5t285.5 -109.5t191 -46q16 0 26.5 4t14.5 10q12 16 35 16t23 -16q0 -10 -7.5 -21.5t-21.5 -27.5q-29 -29 -119 -29q-76 0 -104 15q-20 -61 -70.5 -231.5t-83.5 -268.5 q145 57 342 184q84 55 173 127t146.5 124t108.5 102.5t60 56.5l-6 14q0 14 12 27.5t29.5 24t31.5 10.5q6 0 10.5 -2t8.5 -5.5t6 -7.5t2 -10q0 -53 -156.5 -197.5t-365.5 -287.5q-221 -152 -426 -234l-39 -108q39 -37 136 -131.5t156.5 -148.5t141.5 -122.5t146.5 -103.5 t113.5 -39h6q49 0 70.5 63.5t21.5 149.5q0 20 -3 50t-3 44q0 12 3 18.5t9 6.5q10 0 20.5 -14.5t10.5 -30.5q0 -8 1 -16.5t1 -15.5v-15.5v-14.5q0 -152 -54 -221.5t-122 -69.5q-106 0 -297.5 162t-384.5 383q-193 -479 -428 -567q-53 -20 -125 -21q-102 0 -198.5 43 t-147.5 127q-80 133 -80 297q0 23 3 43.5t9.5 33.5t14.5 13q16 0 20 -57q0 -29 12.5 -80t41 -117.5t69.5 -125t107.5 -98.5t142.5 -40q6 0 13 1t14 1q256 23 477 609q-8 8 -33 31.5t-38 36.5t-30.5 32.5t-25.5 33t-8 21.5q0 10 18 10q28 -26 76 -26h4q39 0 90 14 q41 125 98.5 322.5t75.5 251.5q-418 178 -534 200q-133 27 -263 27q-168 0 -275.5 -49t-107.5 -148q0 -18 4.5 -37.5t12.5 -42.5q53 -133 114.5 -234t125 -161.5t111.5 -95.5t106.5 -65.5t76.5 -45.5q16 -10 12.5 -19t-24.5 -5q-207 45 -393 260t-209 397q-4 27 -4 51z" />
<glyph unicode="L" horiz-adv-x="1634" d="M51 12q0 84 62.5 138.5t148.5 54.5q137 0 402 -123q88 121 213 455q-139 0 -220.5 69.5t-81.5 202.5q0 53 15.5 94t46.5 41q10 0 10 -18q0 -10 -4 -42t-4 -44q0 -109 61.5 -189t188.5 -80q6 16 34.5 100.5t61.5 175.5t70 185t75.5 154.5t65.5 60.5q29 0 61.5 -15 t32.5 -40q0 -18 -16 -18q-4 0 -8 8t-11 8q-33 0 -94 -129t-126.5 -306t-67.5 -182q131 29 233.5 143.5t151.5 257t49 281.5q0 23 -2 43t-16.5 30.5t-14.5 21.5q0 26 43 26q74 0 74 -92q0 -78 -17.5 -168t-59.5 -189.5t-100.5 -182t-151.5 -141t-204 -71.5 q-37 -117 -107.5 -264t-127.5 -213q360 -182 594 -182q90 0 162.5 52t72.5 143q0 45 -26.5 88t-26.5 53q0 14 7 27.5t20 9.5q25 -10 48 -70.5t23 -93.5q0 -131 -95 -205t-230 -74q-29 0 -60.5 4.5t-59.5 9.5t-65 16t-61.5 18.5t-65.5 25t-61.5 24.5t-63.5 27.5t-57 27.5 t-59 28.5t-54 25.5q-153 -151 -380 -151h-3q-90 0 -157.5 35.5t-67.5 117.5zM111 55q0 -72 71.5 -109.5t175.5 -37.5q148 0 265 123q-51 25 -178.5 61.5t-217.5 36.5q-115 -2 -116 -74z" />
<glyph unicode="M" horiz-adv-x="1972" d="M45 1035v10.5v9.5v8q0 270 389 270q236 0 555 -92q37 -10 37 -55q0 -23 -16 -101q-96 -451 -97 -702q0 -57 5.5 -102t16.5 -79t31.5 -52.5t49.5 -18.5q133 0 438 432q113 162 207 330t121 237q36 93 69 93q59 0 60 -273q0 -125 -18.5 -255t-54.5 -254t-85 -242.5 t-111 -227.5q113 88 236 135q18 8 31.5 11.5t21.5 3.5q8 -2 8 -4q0 -16 -55 -54q-35 -23 -73.5 -55.5t-69.5 -61t-63.5 -58t-59.5 -50t-53.5 -34t-46.5 -13.5q-10 0 -23.5 5t-24 15.5t-10.5 22.5q0 27 60.5 66t62.5 45q53 127 86 217t71 213t57.5 241.5t19.5 235.5 q0 88 -13 174q-14 -20 -62 -104t-111.5 -188.5t-127.5 -194.5q-367 -520 -540 -523q-76 0 -111 95.5t-35 259.5q0 330 101 753q-96 -131 -200 -299t-221.5 -389t-192.5 -452.5t-76 -409.5v-2q-6 -31 -17 -31q-18 0 -34.5 47t-16.5 93q0 139 98 382.5t228 474t244 409.5 t159 233q-10 2 -43 10t-63.5 15t-78 17.5t-89.5 16.5t-94 11t-97 5q-86 0 -161 -29.5t-120 -84t-45 -119.5q0 -82 80 -169t252 -165q37 -16 41 -35q0 -2 -3 -4t-9 -2q-10 0 -23.5 3t-34.5 7q-150 37 -247 145.5t-107 213.5q0 4 -1 9t-1 10z" />
<glyph unicode="N" horiz-adv-x="1978" d="M33 227q0 37 8 67t18 30q16 0 21 -56q0 -25 9 -64.5t26.5 -92t48.5 -105.5t68.5 -97t95 -73t121.5 -29q8 0 15 1.5t13 1.5q84 8 169 97t151.5 211t135 295t110.5 302t89.5 280.5t59.5 188.5q-41 12 -179.5 42.5t-181.5 37.5q-104 16 -182 16q-49 0 -86 -7t-60.5 -20.5 t-34.5 -31t-11 -41.5q0 -70 93 -169.5t255 -201.5q10 -6 7 -13.5t-17 -4.5q-170 41 -272.5 144t-102.5 212q0 90 76.5 147.5t224.5 57.5q35 0 75 -4.5t84 -11.5t81.5 -15t85 -20.5t76 -19.5t71.5 -18.5t55 -15.5q14 -4 28.5 -9t27 -11t22.5 -12.5t16.5 -12.5t6.5 -12 q0 -8 -17.5 -13.5t-54.5 -5.5h-14q-6 -18 -50.5 -159.5t-86.5 -269.5t-102 -285.5t-107 -247.5q-117 -219 -246 -345t-260 -126q-160 0 -301 201q-78 110 -78 288zM1255 1061q0 20 13.5 35.5t27.5 15.5q16 0 26.5 -16.5t12.5 -48.5q12 -164 30.5 -322t48.5 -336t74 -286.5 t95 -108.5q94 0 209 409q20 70 35.5 163t25 183.5t13.5 170t4 139.5v25.5v21.5q-20 31 -30.5 47t-24 43t-18.5 53.5t-5 57.5q0 8 1 16t2 15.5t3 13.5t5 11t6 8t6.5 5t7.5 2q8 0 16 -6t19 -18q23 -27 75 -166q93 -241 156 -264q12 -10 12 -17q-4 -8 -18 -10q-16 0 -31 8 q-49 23 -125 123q-25 -401 -94 -657q-66 -242 -130.5 -353.5t-123.5 -111.5q-63 0 -124.5 126t-104.5 306t-69 377.5t-26 345.5z" />
<glyph unicode="O" horiz-adv-x="1630" d="M16 395q0 350 316 680q-104 -37 -148 -61q-10 -4 -18 -8.5t-16.5 -8.5t-15.5 -6t-13 -4t-11.5 -3t-8.5 -2t-7 -1q-8 2 -10 6q0 23 84 66q123 66 252 104q236 201 516 238q4 0 8 1t8 1t9.5 1t9.5 1h8h9t9 1t9.5 1h9.5q160 0 160 -80q0 -45 -56 -109q494 -66 494 -510 q0 -150 -60.5 -284.5t-162 -234t-230.5 -173t-271 -110.5t-280 -37q-123 0 -228.5 31.5t-188 95t-130 168t-47.5 237.5zM125 422q0 -102 27.5 -187t75.5 -143.5t115 -98.5t144.5 -59.5t165.5 -19.5q119 0 242 35t234.5 103.5t199.5 160.5t140.5 219t52.5 268 q0 184 -120 316.5t-308 152.5q-14 -18 -51 -57t-122 -107.5t-161 -107.5q-94 -45 -115 -45q-6 0 -6 2q0 20 113 94q160 106 278 226q-47 2 -98 2q-117 0 -231.5 -15.5t-219.5 -40.5q-180 -164 -268 -345t-88 -353zM582 1198q143 29 305 29q41 0 85 -2t89 -6q26 47 26 73 q0 45 -77 45h-16.5t-17.5 -1t-20 -1q-205 -20 -374 -137z" />
<glyph unicode="P" horiz-adv-x="1748" d="M14 168q0 39 7.5 68.5t19.5 29.5q16 0 20 -57q0 -29 12.5 -80t41 -117.5t69.5 -125t107.5 -98.5t142.5 -40q14 0 27 2q238 23 504 729q-16 6 -28.5 17.5t-12.5 21.5q0 12 16 12q6 0 19.5 -2t21.5 -2q45 123 89 257.5t81 255t45 147.5q16 43 61 43q37 0 37 -33q0 -4 -1 -7 t-1 -7q-88 -326 -219 -656q135 8 249 27.5t198 47.5t146.5 61.5t101 72.5t57 79t18.5 83q0 152 -199.5 272.5t-486.5 120.5q-182 0 -345 -42t-264.5 -118.5t-101.5 -168.5q0 -111 152 -226q37 -29 37 -37q0 -6 -10 -6q-14 0 -42 10.5t-40 20.5q-193 141 -193 272 q0 78 68.5 144.5t183.5 110.5t262.5 68.5t306.5 24.5q188 0 339 -33.5t244 -91t141.5 -128t48.5 -150.5q0 -86 -57.5 -168t-165 -148.5t-279.5 -106.5t-381 -40h-8q-68 -162 -137.5 -296t-153.5 -254t-177 -186.5t-186 -66.5q-158 0 -305 205q-80 113 -80 289z" />
<glyph unicode="Q" horiz-adv-x="1630" d="M6 -350q0 86 57.5 148.5t141.5 62.5q106 0 248.5 -55.5t260 -121t270.5 -121t280 -55.5q92 0 164.5 52.5t72.5 142.5q0 23 -2 40t-6 30.5t-7 20.5t-10.5 20.5t-9.5 17.5q-12 31 -2 47q4 4 11 2q25 -10 48 -70.5t23 -93.5q0 -129 -96 -203.5t-229 -74.5q-100 0 -226.5 42 t-229.5 95t-236.5 108.5t-237.5 73.5q-39 8 -80 9q-72 0 -119 -25t-47 -70q0 -23 -9 -52.5t-20 -29.5q-10 0 -10 60zM16 397q0 348 316 678q-104 -37 -148 -61q-10 -4 -18 -8.5t-16.5 -8.5t-15.5 -6t-13 -4t-11.5 -3t-8.5 -2t-7 -1q-8 2 -10 6q0 23 84 66q123 66 252 104 q236 201 516 238q4 0 8 1t8 1t9.5 1t9.5 1h8h9t9 1t9.5 1h9.5q160 0 160 -80q0 -45 -56 -109q494 -66 494 -510q0 -166 -75 -311t-190.5 -242.5t-257 -168t-273.5 -102.5t-240 -32q-250 0 -406 155t-156 396zM125 422q0 -150 59.5 -267.5t169 -185t252.5 -67.5 q86 0 182.5 20.5t201 59t198.5 105.5t169 152t120 204.5t45 256.5q0 184 -120 316.5t-308 152.5q-14 -18 -51 -57t-122 -107.5t-161 -107.5q-94 -45 -115 -45q-6 0 -6 2q0 20 113 94q160 106 278 226q-47 2 -98 2q-117 0 -231.5 -15.5t-219.5 -40.5q-180 -164 -268 -345 t-88 -353zM582 1198q143 29 305 29q41 0 85 -2t89 -6q26 47 26 73q0 45 -77 45h-16.5t-17.5 -1t-20 -1q-205 -20 -374 -137z" />
<glyph unicode="R" horiz-adv-x="1947" d="M14 168q0 39 7.5 68.5t19.5 29.5q16 0 20 -57q0 -29 12.5 -80t41 -117.5t69.5 -125t107.5 -98.5t142.5 -40q14 0 27 2q238 23 497 713l-34 43q-6 8 -6 29q0 23 7 43t17 20q8 0 14 -8l35 -41q57 160 128 390t77 247q16 43 61 43q37 0 37 -33q0 -4 -1 -7t-1 -7 q-88 -326 -219 -656q135 8 249 27.5t198 47.5t146.5 61.5t101 72.5t57 79t18.5 83q0 152 -199.5 272.5t-486.5 120.5q-182 0 -345 -42t-264.5 -118.5t-101.5 -168.5q0 -111 152 -226q37 -29 37 -37q0 -6 -10 -6q-14 0 -42 10.5t-40 20.5q-193 141 -193 272q0 78 68.5 144.5 t183.5 110.5t262.5 68.5t306.5 24.5q188 0 339 -33.5t244 -91t141.5 -128t48.5 -150.5q0 -86 -57.5 -168t-165 -148.5t-279.5 -106.5t-381 -40h-8v-2q518 -631 739 -651h6q49 0 70.5 63.5t21.5 149.5q0 20 -3 50t-3 44q0 12 3 18.5t9 6.5q10 0 20.5 -14.5t10.5 -30.5 q0 -8 1 -16.5t1 -15.5v-15.5v-14.5q0 -152 -54 -221.5t-122 -69.5q-225 0 -737 633q-66 -147 -133.5 -269t-146.5 -226.5t-166 -164t-171 -59.5q-160 0 -305 207q-80 113 -80 289z" />
<glyph unicode="S" horiz-adv-x="942" d="M-18 692q0 150 82.5 278t215 213t281 140t297.5 74q88 12 166 12q350 0 350 -231q0 -121 -114.5 -234t-268.5 -113q-14 0 -21 5.5t-7 11.5q0 4 2 9t7 8t11 5t14 2q104 0 198.5 79t94.5 196q0 59 -25.5 101t-70.5 65.5t-97.5 34t-113.5 10.5q-31 0 -60.5 -2t-58.5 -6 q-195 -25 -365.5 -99.5t-287.5 -209t-117 -298.5q0 -98 55.5 -168.5t138.5 -103.5t181 -63.5t185 -51t150.5 -63.5t74.5 -105l2 -24q0 -84 -91.5 -164t-239 -130t-302.5 -50q-209 0 -209 151q0 82 55 82q6 0 11 -13t10.5 -34.5t13.5 -36.5q14 -25 33.5 -41t44 -24 t52.5 -11.5t63 -3.5q96 0 199.5 22.5t184 74t80.5 116.5q0 10 -2 19q-10 68 -98 113t-203.5 76.5t-229.5 70.5t-192.5 116.5t-78.5 194.5z" />
<glyph unicode="T" horiz-adv-x="1433" d="M33 1112q0 133 98 214t287 81q113 0 236.5 -25.5t189 -48t231.5 -89t217 -85.5q53 154 68 156q4 0 8 1t7 1t6 1t8 1q12 0 22 -4t17.5 -8t15.5 -14.5t11 -15.5t13.5 -20.5t12.5 -19.5q2 -6 4 -13t4 -12.5t3 -10.5t1 -11q0 -8 -4 -14.5t-10 -6.5q-16 0 -47 29q-8 12 -17 12 q-10 0 -22.5 -17t-19.5 -35.5t-7 -27.5q115 -49 214 -76.5t165 -27.5t86 29q12 16 35 16t22 -16q0 -20 -28 -49q-49 -51 -140 -52q-135 0 -372 115q-25 -72 -68 -223.5t-77 -266t-91 -263t-114.5 -252t-142.5 -193.5t-181 -125q-53 -20 -125 -20q-102 0 -198.5 43 t-147.5 127q-41 70 -60.5 146t-19.5 142q0 37 7 68t20 31q14 0 20 -58q0 -29 12.5 -80t41 -117.5t69.5 -125t106.5 -98.5t141.5 -40q14 0 28 3q72 6 141.5 63t131 158.5t115 209t104.5 251t85 246t74 232.5t54 175q-229 100 -416.5 154.5t-388.5 54.5q-371 0 -371 -215 q0 -68 32 -145t82 -143.5t96 -117.5t91 -88q59 -53 146.5 -98t99.5 -53q16 -10 12 -19.5t-24 -5.5q-168 37 -289 141q-119 102 -215 251t-96 294z" />
<glyph unicode="U" horiz-adv-x="1839" d="M29 532q0 172 93 327t236.5 255t306 158.5t308.5 58.5q205 0 205 -155q0 -57 -26 -139.5t-54.5 -146t-106.5 -226.5q-20 -43 -30 -66q-4 -6 -20.5 -42t-32 -67.5t-37 -79t-38 -89t-33 -87t-24.5 -84t-8 -65.5q0 -63 47 -64q16 0 41 9.5t59.5 30t77.5 53.5 q203 154 494 548t348 562q31 39 76 39q23 0 37 -19.5t14 -64.5q-39 -59 -162 -379t-164 -461q-61 -217 -61 -289t51 -72q45 0 148 84q25 23 34 23q8 0 8.5 -10.5t-7 -25.5t-11.5 -17q-166 -150 -266 -150q-59 0 -59 88q0 96 92 406q94 307 209 577q-145 -238 -393 -515 t-410 -402q-72 -55 -129.5 -84t-98.5 -29t-63.5 27.5t-22.5 75.5q0 31 7.5 67.5t24 85.5t27.5 82t38.5 94.5t37 82t40.5 85.5l30 66q2 6 25.5 53l39 78t41 87t43 101t35 97.5t26.5 97.5t9 82q0 57 -30.5 76.5t-108.5 19.5q-186 0 -378.5 -108.5t-320.5 -290t-128 -371.5 q0 -88 37.5 -143.5t115.5 -55.5q86 0 161 33t115 72t69.5 71.5t35.5 32.5t8 -18q-20 -88 -128.5 -164t-258.5 -76q-98 0 -169.5 69.5t-71.5 200.5z" />
<glyph unicode="V" horiz-adv-x="1443" d="M25 987q0 195 141 303.5t358 108.5q494 0 494 -703q0 -63 -3 -127.5t-10.5 -140.5t-11.5 -114t-14 -117q4 6 95 156.5t162 261t177.5 267t208.5 276.5t186 185q90 70 156 70q14 0 26.5 -3t19.5 -9t11 -12.5t4 -10.5t-2 -7t-6 -5l-2 -2q-6 -2 -25.5 -5t-39 -7t-57.5 -26.5 t-81 -61.5q-164 -145 -367.5 -432t-328.5 -504q-110 -191 -110 -209q0 -2 1 -2h1q8 -2 8 -13q0 -39 -62 -100q-35 -35 -57 -37q-25 0 -46.5 13.5t-21.5 35.5q0 10 5.5 20.5t13.5 22.5q23 27 51.5 220.5t28.5 304.5q0 119 -7.5 214t-33 203.5t-69.5 181t-124 121t-188 48.5 q-170 0 -278.5 -97.5t-108.5 -285.5q0 -127 63.5 -208t155.5 -81q12 0 21.5 -2t13.5 -5t4 -7t-10.5 -8.5t-28.5 -4.5q-139 0 -226 94.5t-87 239.5z" />
<glyph unicode="W" horiz-adv-x="2402" d="M33 741q0 137 95 265.5t237.5 211t303 133t298.5 50.5q350 0 350 -309q0 -63 -11.5 -133t-41 -165.5t-44 -137.5t-60.5 -164.5t-52 -137.5q-68 -188 -80 -293q432 545 631 768q16 18 41 48q61 70 85 92t40 22q8 0 19 -8t20.5 -23.5t9.5 -31.5q0 -43 -19 -109 q-147 -494 -147 -700q0 -160 84 -160q74 0 190.5 102.5t227 257t189.5 359.5t79 387q0 193 -106 231q-31 10 -31 27q0 4 4 9t11 7t18 2q84 0 142 -68.5t58 -197.5q0 -182 -94 -402t-225 -393.5t-273.5 -291t-236.5 -117.5q-127 0 -127 229q0 78 15.5 185.5t31.5 188.5 t41 188.5t31 140.5q-152 -121 -320 -330t-253 -342t-150 -248v2q-47 -88 -92 -88q-20 0 -31.5 17.5t-11.5 48.5q0 27 8 55q6 20 96 290.5t152.5 520.5t62.5 408q0 117 -52 167t-175 50q-78 0 -184.5 -24.5t-224.5 -78t-217 -124t-164.5 -174t-65.5 -218.5q0 -123 99 -207 t226 -84q113 0 162 35q4 4 9 6t9.5 3t8.5 1q12 0 12 -10q0 -14 -29 -30q-59 -35 -184 -35h-43q-137 4 -244.5 96t-107.5 231z" />
<glyph unicode="X" horiz-adv-x="1495" d="M4 946q0 51 12 96q49 172 151.5 262.5t199.5 90.5q113 0 207 -86t151 -246l135 -365q371 303 531 471q63 66 82 129q2 6 3 16.5t1 18.5t4 14.5t10 6.5q31 0 31 -60q0 -113 -136 -225q-297 -246 -507 -430q248 -553 419 -616q6 -2 11.5 -3.5t9.5 -1.5q31 0 59.5 35t45 74 t24.5 78q6 31 16 31q6 0 11.5 -10.5t5.5 -22.5q0 -61 -30 -114.5t-70 -83.5t-74.5 -45t-51.5 -15h-12t-10 2q-168 47 -426 628l-248 -221q-135 -123 -292.5 -301t-192.5 -246q-18 -35 -41 -34q-8 0 -13.5 6t-5.5 18q0 4 1 11.5t5 13.5q123 236 486 571q102 96 278 242 q-113 332 -139 395q-47 127 -125 212t-155 85q-203 0 -263 -237q-20 -82 -20 -154q0 -84 24.5 -137.5t51.5 -65.5q8 -4 10 -10t-2 -11t-14 -5q-59 0 -103.5 71.5t-44.5 167.5zM872 651l2 2h-2v-2z" />
<glyph unicode="Y" horiz-adv-x="1955" d="M88 561q0 141 102.5 296t252 272.5t322.5 194.5t308 77q92 0 157.5 -39t65.5 -125q0 -94 -64.5 -254t-142 -305.5t-142 -310t-64.5 -265.5q0 -67 46 -67h1q94 0 298 209t362.5 415.5t234.5 325.5t162 315q16 39 51 39q31 0 43 -32.5t12 -67.5q0 -207 -186.5 -641 t-345.5 -702q-66 -111 -153 -223.5t-199.5 -229.5t-243.5 -189.5t-250 -72.5q-111 0 -201 63.5t-90 167.5q0 39 14.5 98.5t38.5 65.5q4 -2 7 -6t5.5 -9t3.5 -12.5t1 -13.5v-14q0 -16 -2.5 -43t-2.5 -33q0 -90 76 -140t172 -50q106 0 221 68.5t217.5 181t175 211t136.5 202.5 q74 119 142.5 269.5t108.5 256t106.5 295t97.5 269.5q-76 -127 -292 -381t-470 -483.5t-371 -229.5q-66 0 -66 90q0 115 72 294t157 336t156.5 331t71.5 282q0 61 -37 81t-104 20q-133 0 -288 -75t-282 -189.5t-211.5 -264t-84.5 -284.5q0 -201 202 -201q51 0 96.5 13t84 42 t59 46.5t52.5 53t34 37.5q31 31 31 0q0 -23 -29 -59q-57 -82 -158.5 -135t-202.5 -53q-119 0 -196.5 81.5t-77.5 200.5z" />
<glyph unicode="Z" horiz-adv-x="1341" d="M4 -33q10 72 106.5 192t230.5 248t288.5 268t286 256t218.5 207t87 124q0 10 -7 14q-4 0 -13 1l-18 2t-22.5 2t-28 3t-32 3t-34.5 2t-37.5 2l-41 2t-44 1h-46.5q-166 0 -324.5 -15t-197.5 -46q6 -2 15 -15.5t9 -25.5q-2 -18 -16 -18q-20 0 -52 28.5t-50 59.5 q-4 6 -6.5 13t-2.5 13q0 27 31 31q195 31 561 31q45 0 91 -1t91.5 -1t83 -1t81.5 -3t71 -1q41 -8 41 -69q0 -51 -25 -84q-55 -74 -194 -201t-293 -260t-304.5 -270t-255 -264t-118.5 -209q45 6 101.5 14t163 20.5t228.5 20.5t228 8q219 0 344 -35q49 -14 49 -51 q0 -35 -36.5 -78t-71.5 -65q-14 -8 -19 -8q-10 0 2 18q59 59 60 96q0 20 -16.5 32.5t-43 18t-63.5 5.5q-315 0 -809 -60q-39 -4 -85 -12t-75 -13.5t-37 -5.5t-28.5 30t-20.5 44v2z" />
<glyph unicode="[" horiz-adv-x="1198" d="M41 37q0 160 263 638t419 658q59 68 133 68h260q10 0 15.5 -4t5.5 -11q0 -6 -2.5 -12t-6.5 -14q-6 -12 -15 -14.5t-48 -2.5h-168q-63 0 -151.5 -117.5t-264.5 -422.5q-328 -567 -327 -717q0 -63 188 -63q25 0 94.5 3t93.5 3q10 0 11 -11q0 -14 -13.5 -29.5t-27.5 -15.5 h-262h-5.5h-7.5h-7h-7h-8q-162 0 -162 64z" />
<glyph unicode="\" horiz-adv-x="1236" d="M92 1389q0 18 11.5 29.5t33.5 11.5q31 0 273.5 -304.5t497.5 -671t304 -507.5q23 -63 23 -97q0 -18 -8.5 -29t-26.5 -11q-12 0 -17 4t-4 12t-3.5 29.5t-12.5 46.5q-63 172 -421.5 652t-635.5 798q-14 16 -14 37z" />
<glyph unicode="]" horiz-adv-x="1138" d="M47 -20q0 10 8 26q6 12 15.5 14.5t48.5 2.5h168q63 0 151 117.5t264 422.5q328 567 328 717q0 63 -188 63q-25 0 -94.5 -3t-94.5 -3q-10 0 -10 11q0 14 13.5 29.5t27.5 15.5h262h9.5h12.5h13q162 0 162 -64q0 -160 -263.5 -638t-418.5 -658q-59 -68 -133 -68h-260 q-20 0 -21 15z" />
<glyph unicode="^" horiz-adv-x="684" d="M102 934q0 6 7 14q12 18 112.5 105.5t120.5 91.5q14 -4 105.5 -83t119.5 -108q4 -4 6 -8t2 -8q0 -8 -8 -8q-4 0 -8 2q-127 70 -227 147q-25 -20 -109 -79.5t-102 -67.5q-6 -4 -12 -4q-4 0 -5.5 2t-1.5 4z" />
<glyph unicode="_" horiz-adv-x="671" d="M-4 2l6 6h692l4 -6v-33l-4 -4h-692l-6 4v33z" />
<glyph unicode="`" horiz-adv-x="727" d="M166 1165q0 18 16.5 37t32.5 19q4 0 8 -2t8 -5q41 -33 117 -81t129.5 -86.5t71.5 -69.5l4 -8q0 -2 -2 -3t-6 -1q-53 0 -361 170q-10 6 -14 13t-4 17z" />
<glyph unicode="a" horiz-adv-x="673" d="M12 68q0 94 56.5 254.5t138.5 290.5t143 130h6l23 17q18 20 57 20q31 0 86.5 -16t61.5 -16q8 0 21 16t32 16q51 0 51 -45q0 -18 -7 -40.5t-20.5 -52.5t-15.5 -36q-2 -4 -19.5 -12t-19.5 -14q-45 -127 -79.5 -271.5t-34.5 -177.5q0 -51 28.5 -51t70.5 35t72.5 69.5 t32.5 34.5q4 0 4 -8q0 -31 -20 -47q-2 -2 -18.5 -17.5t-26.5 -23.5t-29.5 -25.5t-34 -28t-35 -24.5t-36 -21.5t-31.5 -13.5t-31 -6q-43 0 -51 51q0 86 68 318q-274 -379 -394 -379q-49 0 -49 74zM106 125q0 -35 21 -35q43 0 152.5 125t144.5 178q51 82 94 177.5t43 125.5 q0 12 -10 13h-6q-12 0 -42 4t-50 4q-29 0 -62 -8q-51 -14 -168 -242.5t-117 -341.5z" />
<glyph unicode="b" horiz-adv-x="598" d="M-4 80q0 31 49 156q6 16 19.5 24t15.5 14q221 575 350 1018l16 13q14 12 36 24t36 12q20 0 21 -30q-23 -84 -144 -412t-198 -516q78 117 205.5 261t191.5 144q41 0 41 -75v-15q-2 -41 -39 -184q45 23 61 23q6 0 7 -5q0 -10 -26 -30.5t-52 -30.5q-80 -264 -156 -348 q-29 -31 -117 -85t-108 -54q-84 0 -125 39q-10 -25 -21 -25q-18 0 -40.5 24.5t-22.5 57.5zM119 104q49 -55 100 -55q84 0 156.5 125t107.5 248q-242 -127 -311 -203q-12 -25 -29.5 -63.5t-23.5 -51.5zM186 270q124 101 314 197q33 86 37 178q0 43 -21 43q-68 0 -330 -418z " />
<glyph unicode="c" horiz-adv-x="473" d="M8 129q0 141 92.5 340t159.5 229q31 12 66.5 31t61.5 29t56 10q97 0 97 -96q0 -43 -19.5 -77t-42.5 -34q-25 0 -24 37q0 12 8 45t8 47q0 33 -35 33q-25 0 -77 -34t-78 -60q-39 -41 -113 -224.5t-74 -283.5q0 -76 60 -76q76 0 151.5 58.5t122.5 119t49 60.5q10 -4 10 -15 q0 -31 -49 -97.5t-136 -126.5t-169 -60q-125 0 -125 145z" />
<glyph unicode="d" horiz-adv-x="694" d="M10 47q0 88 61.5 255t146.5 303t142 136h9q14 0 33.5 15.5t41.5 15.5q31 0 87.5 -16.5t60.5 -16.5q2 0 2 2q147 397 151 410q-23 0 -22 25q0 57 61 149q8 16 33 16q26 0 55 -14q6 -4 7 -18q0 -33 -32 -122t-88.5 -231.5t-86.5 -232.5q2 2 4 2q8 0 17 -14.5t9 -26.5 t-20 -12q-27 0 -29 6q-41 -92 -103.5 -299t-62.5 -254t27 -47q31 0 72 36t72.5 72.5t37.5 36.5t6 -10q0 -6 -3 -16.5t-6 -17.5t-5 -7q-47 -47 -131 -107.5t-131 -60.5q-39 0 -39 43q0 111 78 338q-88 -125 -214 -262t-198 -137q-43 0 -43 61zM106 121q0 -33 20.5 -33 t59.5 33t72 69.5t72 80.5t41 48q55 61 101 144.5t76 155t32 75.5q0 23 -121 23q-35 0 -51 -4q-45 -12 -173.5 -248t-128.5 -344z" />
<glyph unicode="e" horiz-adv-x="518" d="M41 117q0 23 6 53q14 78 38 151.5t26 90.5q-31 8 -31 32q0 23 35 23h14q82 162 94 186q57 109 219 109q70 0 97 -125q12 -63 12 -102q0 -45 -31 -77t-80 -45.5t-88 -18.5t-73 -5q-20 0 -46 1t-28 1q-68 -172 -68 -270q0 -82 62 -82q43 0 100 54t100 108.5t52 54.5 q14 0 14 -16q0 -57 -112.5 -158.5t-176.5 -101.5q-51 0 -93 31.5t-42 105.5zM223 449q4 0 33 -2.5t49 -2.5q84 0 121 19t39 76q0 51 -10.5 88t-23.5 51t-28 14q-41 0 -97 -88t-83 -155z" />
<glyph unicode="f" horiz-adv-x="430" d="M-369 -260q0 57 17.5 106.5t32.5 49.5q8 0 10 -13q-4 -41 -4 -57q0 -94 36.5 -151.5t90.5 -57.5q49 0 100 52t94 159q57 143 154.5 458.5t124.5 418.5q-49 -8 -137 -9q-47 0 -48 19q0 14 27 33.5t43 19.5h131q94 334 129 410q18 41 40 71.5t47.5 49t48 29.5t54 16.5 t53 7.5t59 3t57.5 3q33 -6 32 -47q0 -29 -13 -56.5t-28 -27.5q-2 0 -12 21.5t-33.5 42t-58.5 20.5q-98 0 -143 -115q-90 -231 -140 -428h201q57 0 57 -12q0 -20 -94 -31.5t-180 -11.5q-8 -20 -50 -163.5t-94.5 -321t-78.5 -261.5q-68 -213 -167.5 -302t-199.5 -89 q-158 0 -158 164z" />
<glyph unicode="g" horiz-adv-x="600" d="M-150 -608.5q0 108.5 100.5 304t168.5 271.5q6 8 41 21q-10 6 -26.5 15t-28 14.5t-19.5 13.5t-8 16q0 23 19.5 42.5t39.5 19.5h8q125 -47 236 -207t111 -299q-1 -29 -3 -41q-18 -104 -181 -191.5t-308 -87.5q-150 0 -150 108.5zM-92 -582q0 -84 96 -84q104 0 244.5 70 t144.5 131v27q0 109 -58.5 217t-139.5 180q-4 -6 -50.5 -71.5t-78 -114.5t-72.5 -120t-63.5 -131.5t-22.5 -103.5zM113 270q0 176 109.5 340t230.5 164q10 0 30 -4q0 74 54 74q59 0 59 -94q0 -14 -2 -49t-2 -52q2 0 8 -4t11 -8t11.5 -10t9.5 -12.5t3 -12.5q0 -18 -31 -18 h-18q-2 -12 -9.5 -50t-13.5 -70t-10 -42q-51 -131 -142.5 -210t-189.5 -79q-57 0 -82.5 33t-25.5 104zM199 256q0 -63 51 -63q76 0 168 121.5t92 277.5q-23 4 -27 64.5t-28 60.5q-63 0 -118.5 -82t-86.5 -162q-51 -139 -51 -217z" />
<glyph unicode="h" horiz-adv-x="634" d="M16 8q0 18 11 41q55 143 106 297t109.5 343.5t95.5 299.5q6 18 6 37q0 8 -2 15.5t-2 11.5q0 8 6 26q47 131 80 173t100 42q27 0 31 -18q-223 -451 -362 -959q305 477 460 478q43 0 43 -29q0 -18 -14 -41q-111 -178 -206 -396t-95 -339q0 -29 16 -29q6 0 36 18.5t36 18.5 q10 0 10 -12q0 -25 -39 -52.5t-75 -27.5q-51 0 -52 76q0 88 57.5 248.5t115 292.5t57.5 149q0 4 -2 4q-8 0 -37 -31q-129 -145 -217 -283.5t-118 -212t-61.5 -117.5t-74.5 -44q-18 0 -19 20z" />
<glyph unicode="i" horiz-adv-x="344" d="M37 25q0 18 8 43q23 63 46.5 130.5t35.5 104.5t25.5 76t19.5 58.5t11 39t7.5 29.5t2.5 20q0 8 -3.5 15.5t-3.5 11.5q0 8 7 27q45 129 79.5 172t102.5 43q27 -1 31 -19q-4 -6 -28 -51t-40 -78t-45 -96.5t-51.5 -120.5t-47 -137t-42.5 -160q-2 -6 -2 -16q0 -25 20 -25 q12 0 66.5 31t70.5 31q14 0 17 -9q0 -25 -104.5 -91t-143.5 -66t-39 37zM336 987q0 43 63.5 94.5t110.5 51.5q10 -1 12 -7q0 -27 -39 -67.5t-49 -63.5q-27 -68 -57 -75q-41 0 -41 67z" />
<glyph unicode="j" horiz-adv-x="411" d="M-334 -354q0 49 13.5 90t25.5 41q8 0 10 -13v-20q0 -111 41 -180.5t101 -69.5q47 0 92 51.5t78 155.5q121 387 223 788q4 16 4 35q0 8 -3 16.5t-3 14.5q0 14 4 25q33 127 65.5 171t98.5 44q27 -1 33 -19q-145 -348 -277 -928q-49 -213 -140 -302t-192 -89 q-174 0 -174 189zM352 1010q0 43 67.5 88t106.5 45q29 0 29 -19t-37 -39q-25 -14 -43 -41.5t-26.5 -53t-22.5 -45t-33 -19.5q-14 0 -26.5 31.5t-14.5 52.5z" />
<glyph unicode="k" horiz-adv-x="550" d="M-2 -25q0 8 10 39q57 143 110.5 302t119 367t98.5 306q8 25 8 37q0 8 -3 15.5t-3 11.5q0 8 6 26q47 131 80 173t100 42q29 0 31 -18q-123 -248 -199.5 -444.5t-136.5 -434.5l94 84q94 84 196.5 173t117.5 102q55 41 84 41q12 0 12 -9q0 -22 -55 -65q-127 -74 -241 -198 t-114 -163q0 -74 63.5 -184t112.5 -151q39 -33 39 -54q0 -12 -18 -12q-41 0 -94.5 56.5t-91 114.5t-78.5 134l-43 76q-88 -244 -92 -307q0 -14 -38 -46t-61 -32q-14 0 -14 18z" />
<glyph unicode="l" horiz-adv-x="366" d="M35 25q0 20 8 43q53 145 99 288.5t105.5 341t88.5 291.5q6 18 6 37q0 8 -3 15.5t-3 13.5t6 24q41 129 76 172t102 43q29 0 31 -18q-113 -233 -229.5 -564t-171.5 -579q-2 -6 -3 -16q0 -25 21 -25q12 0 66.5 31t68.5 31q12 0 19 -9q0 -25 -102.5 -91t-145.5 -66 q-39 0 -39 37z" />
<glyph unicode="m" horiz-adv-x="999" d="M-4 -18q0 14 9 36.5t20.5 45t13.5 26.5q33 80 135 399q8 25 8 37q0 8 -3 15.5t-3 11.5q0 8 6 27q45 129 80 172t100 43q27 0 31 -19q-168 -344 -200 -491q341 544 517 544h1q41 0 41 -26q0 -18 -15 -41q-178 -301 -225 -531q100 199 191.5 308.5t271.5 240.5 q39 31 102 31q41 0 41 -29q0 -14 -12 -39q-248 -438 -299 -706q-6 -20 -6 -41q0 -29 18 -29q8 0 42 19.5t40 19.5q10 0 10 -12q0 -27 -45 -55.5t-90 -28.5q-31 0 -45 19.5t-14 66.5t20.5 118.5t41 122t58 134.5t44.5 100q63 150 63 178q0 14 -10 15q-6 0 -23 -11 q-106 -72 -225 -231.5t-176 -372.5q-4 -16 -43 -37.5t-66 -21.5q-25 0 -24 18v4l2 4q57 270 192 629q10 27 10.5 37t-6.5 10q-10 0 -30 -22q-131 -152 -231.5 -301.5t-140.5 -227.5t-79 -127t-82 -49q-16 0 -16 17z" />
<glyph unicode="n" horiz-adv-x="667" d="M-6 -20q4 -6 76.5 204.5t103.5 304.5q8 25 8 37q0 8 -3 15.5t-3 11.5q0 8 6 27q47 131 80 173t100 42q27 0 31 -19q-168 -344 -200 -491q337 544 517 544h1q41 0 41 -26q-1 -18 -15 -41q-104 -174 -194 -399.5t-90 -337.5q0 -37 16 -37q6 0 40 20.5t40 20.5q12 0 12 -13 q0 -25 -45 -55.5t-90 -30.5q-59 0 -59 88q0 80 32.5 186.5t102 272.5t69.5 168q10 27 11 41q0 10 -7 10q-10 0 -45 -37q-88 -98 -251.5 -335.5t-167.5 -292.5q-2 -14 -39 -40t-62 -26q-14 0 -16 15z" />
<glyph unicode="o" horiz-adv-x="534" d="M43 133q0 47 8 94q10 53 37 137.5t70 182.5t105.5 166.5t125.5 68.5h14q0 29 16.5 49.5t45.5 20.5q29 -2 51.5 -120t65.5 -122q39 -6 39 -22.5t-31 -31.5t-55 -15q0 -240 -125 -410t-248 -170q-119 0 -119 172zM135 123q0 -100 58 -100q82 0 183 166.5t101 367.5 q-18 10 -44.5 72.5t-37.5 62.5q-63 0 -147 -187.5t-105 -295.5q-8 -47 -8 -86z" />
<glyph unicode="p" horiz-adv-x="610" d="M-139 -514q0 43 33.5 149.5t98 277.5t66.5 179q-6 14 -6 35q0 47 45 76q137 424 160 506q0 2 -22.5 5t-22.5 13q0 16 33 31l30 12q-8 8 -8 16q0 29 39 63t66 34q16 0 16 -21q0 -18 -10 -39l-23 -49q146 -103 193 -334q12 4 38.5 14.5t49 16.5t45.5 6q14 0 14 -6 q0 -14 -20.5 -25.5t-62.5 -23.5t-56 -19q10 -53 10 -116q0 -160 -80.5 -232.5t-191.5 -72.5q-119 0 -184 53q-18 -53 -69.5 -201.5t-74.5 -214.5q-2 -4 -2 -8q0 -6 7.5 -18.5t7.5 -24.5q0 -25 -31 -79t-64 -54q-25 0 -24 51zM135 80q72 -47 139 -47q104 0 154.5 68.5 t50.5 166.5q0 46 -10 107q-35 0 -141.5 -64.5t-147.5 -101.5zM203 281q98 68 256 127q-14 74 -39 137t-46.5 96t-35.5 33q-6 0 -26.5 -58.5t-55.5 -169t-53 -165.5z" />
<glyph unicode="q" horiz-adv-x="636" d="M20 47q0 90 71 257t167 303t160 136h6l22 17q18 20 58 20q33 0 86 -16t59 -16q8 0 23.5 16t34.5 16q55 0 55 -51q0 -39 -39 -123q-2 -4 -19.5 -12t-19.5 -14q-84 -199 -123 -294.5t-94 -259t-88 -307.5q-8 -33 -8 -57q0 -37 22 -37q39 0 116 73t83 73q10 0 10 -15 q0 -12 -7 -26.5t-11 -16.5q-201 -172 -279 -172q-41 0 -47 51q0 133 242 770q-61 -78 -127 -151.5t-159 -150t-146 -76.5q-47 0 -48 63zM133 119q0 -29 19 -29q43 0 152.5 116t164.5 187q59 90 107.5 183.5t48.5 121.5q0 10 -9 11h-6q-12 0 -42.5 5t-49.5 5q-31 0 -61 -10 q-27 -6 -105 -119t-148.5 -256.5t-70.5 -214.5z" />
<glyph unicode="r" horiz-adv-x="552" d="M12 -2q0 55 13.5 100t33.5 54q45 170 64 254l20 86q4 14 4 32q0 10 -4 18.5t-4 16.5q0 12 4 23q33 129 67 176t99 47q25 0 29 -17q-2 -6 -29.5 -71.5t-51.5 -122.5t-52.5 -145.5t-44.5 -161.5q68 133 209 320.5t233 187.5q49 0 49 -62q0 -63 -47 -129q-16 -23 -44 -44 t-42 -21q-12 0 -12 12q0 8 19.5 57t19.5 68q0 14 -10 14q-72 0 -212.5 -221t-207.5 -432q-12 -16 -39 -32.5t-45 -16.5q-12 0 -19 10z" />
<glyph unicode="s" horiz-adv-x="520" d="M29 6q0 25 22 25q68 0 189.5 42t121.5 91q0 29 -46 67.5t-100 71.5t-100 79t-46 89q0 35 24 66q18 23 39 44t39 37.5t42 33t42 28.5t43 24.5l39 19.5t37.5 17.5t33 13.5t30 11t22.5 8q35 10 53 10q74 0 74 -82q-4 -41 -53.5 -116.5t-75.5 -75.5q-8 0 -8 12 q0 18 22.5 74.5t22.5 73.5q0 31 -37 30q-6 0 -68 -10q-51 -12 -134 -65.5t-83 -116.5q0 -23 10 -41q27 -53 93.5 -90t114.5 -70t48 -86q0 -90 -138 -173t-236 -83q-16 0 -26.5 13.5t-10.5 27.5z" />
<glyph unicode="t" horiz-adv-x="473" d="M109 715q0 14 26.5 33.5t42.5 19.5h131l8 29q6 25 7 34q0 8 -4.5 15.5t-4.5 13.5t7 25q41 131 74.5 174t99.5 43q29 0 32 -19q-45 -96 -125 -315h199q57 0 57 -12q0 -20 -94 -31.5t-180 -11.5q-102 -289 -166 -553q-10 -41 -10 -60q0 -35 22 -34q41 0 120 72.5t85 72.5 q10 0 10 -12q0 -35 -22 -45q-188 -170 -264 -170q-47 0 -47 59q0 33 49 193q6 20 131 469q-49 -8 -137 -9q-47 0 -47 19z" />
<glyph unicode="u" horiz-adv-x="681" d="M14 18q0 31 23 88q0 2 49 111t79 187.5t30 113.5q0 10 -4.5 19.5t-4.5 15.5q0 2 4 22q35 131 66 173.5t102 42.5q29 0 35 -19q-246 -604 -246 -633q0 -8 7 -8q8 0 49 33q205 158 360 442q2 63 39 131t109 68q22 -1 24 -19q-6 -18 -45 -122.5t-63 -176.5 q-37 -104 -79 -253.5t-42 -182.5q0 -6 4 -6q16 0 82.5 51t91.5 51q16 0 16 -10q0 -14 -46 -47t-105.5 -68.5t-65.5 -39.5q-14 -12 -41.5 -42t-51 -49.5t-42.5 -19.5q-27 0 -26 23q0 14 32.5 43.5t42.5 52.5q35 84 140 489q-96 -143 -255 -320t-239 -177q-29 0 -29 36z" />
<glyph unicode="v" horiz-adv-x="714" d="M104 -12q0 14 4.5 19t9.5 9t13 12.5t15.5 34t14.5 67.5t13 123t8 189q0 37 -12 55.5t-12 71.5q0 100 19.5 139.5t80.5 39.5q29 0 40 -19q-72 -571 -79 -645q2 2 41 35t77 71.5t88 98t94 141.5t73 174q4 16 4 25q0 14 -8 35.5t-8 31.5q0 25 43 77t71 52q23 0 23 -43 q0 -24 -6 -57q-23 -121 -103 -259t-174 -242.5t-183 -175.5t-134 -71q-12 0 -13 11z" />
<glyph unicode="w" horiz-adv-x="1009" d="M35 653q0 29 53 76t82 47q84 0 84 -289q0 -61 -6 -165q63 117 170.5 280.5t150.5 163.5q16 23 41 22q39 0 39 -45q0 -6 -2 -17t-2 -17q0 -12 19 -66q16 -49 40.5 -154.5t43 -184.5t20.5 -79q29 0 127 192.5t104 297.5q0 12 -8 36.5t-8 39.5q0 25 21 47h2q23 18 34 18 q27 0 40.5 -40t13.5 -77q0 -12 -37 -94t-102.5 -207t-129.5 -227q-25 -39 -38 -64.5t-17 -37t-15.5 -50.5t-19.5 -67q-8 -14 -22 -15q-20 0 -42 26t-22 48q0 8 1 25.5t1 27.5q0 281 -112 553q-74 -43 -210 -312t-136 -361q-6 -23 -23 -23q-20 0 -45 28.5t-25 51.5q0 6 2 8 q86 211 86 389q0 88 -14 144.5t-32.5 77t-39.5 20.5q-4 0 -28.5 -16.5t-32.5 -16.5q-6 0 -6 6z" />
<glyph unicode="x" horiz-adv-x="577" d="M-154 -190q0 47 92.5 166.5t213 256t151.5 183.5l-4 14q-2 14 -5 28.5t-9 37t-13.5 42t-18.5 40t-22.5 35t-27 23.5t-31.5 9q-10 0 -28.5 -2t-24.5 -2t-11.5 1t-9.5 4t-6 8t-2 11.5t27.5 24t38.5 17.5q29 2 58.5 34.5t35.5 32.5h2q35 0 76 -110.5t53 -174.5 q27 49 141.5 173t141.5 124q23 0 22 -30q0 -52 -27 -70q-18 -6 -20 -6l-6 2q-6 0 -65.5 -60.5t-75.5 -78.5q-98 -98 -99 -105l53 -188q53 -190 54 -238q0 -23 -27 -62.5t-53 -39.5q-8 0 -22.5 83t-35 198.5t-40.5 170.5q-47 -61 -137.5 -169.5t-158 -197.5t-118.5 -181 q-23 -41 -43 -41q-18 0 -19 37z" />
<glyph unicode="y" horiz-adv-x="649" d="M-178 -637q0 74 88 224.5t181 279.5t95 137q23 68 23 184q0 168 -32 295t-87 127h-16l-13 -2q-8 0 -8 10q0 16 45 50q6 4 35 45t43 41q43 0 77 -132.5t34 -293.5q0 -16 -1 -49t-1 -50q0 -33 16 -32q47 0 189.5 217t142.5 276q0 12 -10 12q-4 0 -14.5 -4t-16.5 -4 q-10 0 -17 11q0 27 59.5 59.5t96.5 32.5q10 0 14 -2q6 -10 7 -23q0 -82 -179.5 -329.5t-287.5 -374.5v4q-2 0 -5.5 -16.5t-9.5 -41t-12 -48t-15.5 -41t-17.5 -17.5t-21.5 5t-15.5 5q-276 -371 -276 -475q0 -18 8 -37.5t8 -26.5q0 -23 -24.5 -39t-48.5 -16q-33 0 -33 39z" />
<glyph unicode="z" horiz-adv-x="620" d="M-23 43q0 55 39 90q356 344 537 561h-111q-160 0 -186 -28q-2 -2 -18.5 -22.5t-32 -38t-19.5 -17.5q-18 0 -18 14q0 86 46 124t163 38h26.5t43 1t47.5 1q82 0 136 -8t54 -31q0 -12 -2 -20q-10 -37 -27.5 -55.5t-33 -22.5t-15.5 -6q-102 -84 -271 -255t-235 -270 q-4 -4 -4 -12q0 -33 140 -33q203 0 317 29q20 6 35 6q20 0 20 -14q0 -27 -24.5 -60.5t-53.5 -33.5q-27 0 -26 20q-123 10 -197 10q-78 0 -171 -7t-107 -7q-51 0 -52 47z" />
<glyph unicode="{" horiz-adv-x="661" d="M74 547q0 16 37 26q145 14 206.5 57.5t100.5 174.5q10 37 26.5 112.5t26.5 112.5q18 63 44 108.5t69 87.5t112.5 63.5t163.5 21.5h6h2q8 -4 11 -19q0 -20 -21 -24q-154 0 -214 -70t-99 -227q-31 -123 -51 -170q-37 -94 -104.5 -167t-153.5 -91q23 -8 41 -20.5t32.5 -28 t25.5 -34t16 -42t5 -47.5v-15q-6 -76 -52 -218t-52 -216v-18q0 -31 9 -53.5t23.5 -35t37 -19.5t42 -8t46.5 -1h16h16q14 -2 14.5 -11t-13 -17.5t-33.5 -8.5q-29 0 -50.5 1t-47 5t-45 11.5t-38 18.5t-31 27.5t-19.5 40t-7 52.5q0 6 1 12t1 12q6 76 53 219.5t54 217.5v7v6v7 q0 51 -22.5 84t-55.5 46t-74 13q-55 0 -55 17z" />
<glyph unicode="|" horiz-adv-x="448" d="M207 -150q0 10 2 23q14 57 14 354v682q0 113 -4 192t-8 114.5t-4 46.5q0 20 35 20q82 0 82 -176q0 -223 -21.5 -700.5t-50.5 -559.5q-14 -27 -29 -26q-6 0 -9 4t-5 10t-2 16z" />
<glyph unicode="}" horiz-adv-x="870" d="M55 -229q0 20 21 24q154 0 214 69.5t99 227.5q31 123 51 170q37 94 104.5 167t153.5 91q-55 20 -87.5 65.5t-32.5 106.5v7v8q6 76 52 218t52 216v18q0 39 -12.5 64.5t-39 36t-49 13.5t-57.5 3h-16h-16q-14 2 -14.5 11t13 17.5t33.5 8.5q51 0 87 -5t74 -20.5t57.5 -48.5 t19.5 -82q0 -12 -2 -24q-6 -76 -53.5 -219.5t-53.5 -217.5v-20q0 -74 44 -109t108 -35q55 0 55 -16t-37 -27q-145 -14 -206.5 -57t-100.5 -174q-10 -37 -26.5 -112.5t-26.5 -112.5q-18 -63 -44 -108.5t-69 -87.5t-112.5 -63.5t-163.5 -21.5h-6h-2q-10 0 -11 19z" />
<glyph unicode="~" horiz-adv-x="622" d="M59 901q0 14 34 44t54 40q33 20 74 21q35 0 98.5 -21.5t96.5 -21.5q49 0 86 43q12 0 12 -9q0 -14 -29.5 -42.5t-52.5 -43.5q-27 -16 -55 -16q-37 0 -102.5 27.5t-100.5 27.5t-68 -26.5t-43 -26.5q-4 0 -4 4z" />
<glyph unicode="&#xa1;" horiz-adv-x="413" d="M-293 -700q0 4 1 6l3 6q47 57 219 407q190 385 191 476q0 10 -7.5 20t-7.5 16q0 16 27 32t47 16q20 -4 23 -35q0 -55 -49.5 -186.5t-126 -303.5t-84.5 -190q-4 -12 -54.5 -108.5t-54.5 -119.5q-4 -12 14.5 -16t20.5 -14q0 -6 -9.5 -11.5t-23.5 -8.5t-32.5 -6t-34.5 -3 q-12 0 -23.5 2t-20 4t-13.5 7t-5 10zM227 500q2 14 10.5 47t13.5 55.5t5 30.5q2 8 6 16t11.5 13.5t15.5 9.5t17 6t18 2q20 0 26 -22.5t6 -55.5v-2q0 -35 -48 -69.5t-75 -34.5q-6 0 -6 4z" />
<glyph unicode="&#xa2;" horiz-adv-x="473" d="M129 500q0 98 77 245.5t152 182.5q25 8 63 25.5t54 21.5q125 305 143 313q4 2 6.5 2t5.5 1t7 1q16 0 16 -18q0 -8 -6 -23q-31 -61 -121 -272q18 0 33.5 -4t28 -12.5t18.5 -22.5t6 -33q0 -33 -17 -56.5t-40 -23.5q-20 0 -20 27q0 8 7 31.5t7 34.5q0 27 -37 26 q-106 -248 -199 -497q57 16 114.5 59t91.5 80t36 37q8 0 8 -11q0 -20 -37 -63q-35 -39 -99.5 -83t-127.5 -60q-76 -211 -88 -299q0 -4 -1 -9.5t-1 -9.5v-6q0 -47 24 -47q8 0 3 -10q-2 -6 -12.5 -16.5t-12.5 -10.5q-8 -4 -14 -4q-18 0 -25.5 21.5t-7.5 52.5q0 98 84 327h-5 h-7q-20 0 -37 4.5t-30 12.5t-22.5 20t-13.5 28.5t-4 37.5zM205 496q0 -25 9 -39.5t30 -16.5h18q82 205 127 314q8 23 31.5 82t36.5 90q-37 -18 -80 -49q-14 -12 -43 -58.5t-57.5 -103t-50 -118.5t-21.5 -101z" />
<glyph unicode="&#xa3;" horiz-adv-x="1673" d="M82 31q0 106 137 106q72 0 230 -51q39 49 120.5 220t126.5 308q-10 0 -55 -1t-72 -1h-14h-14h-15.5t-15.5 1t-13.5 2t-12.5 3.5l-9 4.5t-6 7t-2 9q0 25 19.5 31t56.5 6h41.5t43 -1t42 -1h39.5q12 29 36.5 106.5t48 150.5t67.5 160t94.5 150.5t130 106.5t174.5 43 q88 0 148 -56.5t60 -140.5q0 -72 -30.5 -111t-67.5 -39q-18 0 -25.5 6.5t9.5 20.5q63 43 63 131q0 43 -20.5 77t-62.5 53.5t-101 19.5q-63 0 -118.5 -37t-93.5 -89t-77 -134t-60.5 -144.5t-50 -149.5t-42.5 -124q14 0 100 -3t137 -3q37 0 60.5 -9.5t23.5 -21.5 q0 -23 -72 -23q-59 0 -156.5 2t-105.5 2q-2 -2 -32.5 -79.5t-42 -104t-43 -97.5t-53 -110t-51.5 -86t-56 -78q141 -68 363 -112.5t392 -44.5q104 0 190.5 58.5t86.5 158.5q0 55 -22.5 100t-43.5 56q-16 8 -11 21t24 13q37 0 70.5 -50t33.5 -126q0 -147 -99.5 -227 t-246.5 -80q-53 0 -105.5 4t-116 17.5t-99 20.5t-113.5 31.5t-95.5 31t-108.5 37t-95 32.5q-180 61 -258 62q-98 0 -99 -93q0 -10 -18 -10q-16 0 -31.5 16.5t-15.5 51.5z" />
<glyph unicode="&#xa4;" horiz-adv-x="980" d="M100 184l209 197q-72 45 -71 133q0 141 137 223l-109 166l60 19q8 -37 80 -168q80 35 172 34q70 0 122 -24q89 86 148 154l47 -19q-4 -4 -32.5 -28.5t-65.5 -57.5t-72 -65q59 -43 59 -125q0 -80 -45 -142.5t-118 -97.5q98 -162 129 -197h-68q-8 27 -98 181 q-59 -20 -131 -20.5t-119 22.5l-168 -185h-66zM317 545q0 -59 42 -99t118 -40q102 0 166 58t64 140q0 59 -37 96t-111 37q-106 0 -174 -54t-68 -138z" />
<glyph unicode="&#xa5;" horiz-adv-x="1191" d="M127 328q0 14 10 25.5t25.5 19.5t30.5 8q18 0 49.5 -8t38.5 -8q39 0 133 -5v2q0 2 2 5q12 45 18 102q-61 -4 -123 -4q-41 0 -73 2q-41 0 -54 6q-8 6 -13 12.5t-7 11.5t-2 11q0 20 20.5 36.5t44.5 16.5q18 0 50 -8t38 -8q39 0 125 -4q0 18 -2 24q-78 201 -219 631 q-14 53 -14 82q0 35 22 45q18 8 36 12t36 4q10 0 20.5 -2t21.5 -4t24 -6q35 -12 -5 -45q-12 -4 -18 -18.5t-6 -38.5q0 -145 186 -592q111 90 307.5 301t231.5 346q4 23 18.5 53.5t28.5 30.5q2 0 7 1t11.5 1h10.5q45 0 47 -41q6 -47 -191 -287q-16 -18 -24 -28 q-127 -154 -422 -428q-12 -37 -15 -45q37 0 78 2t88 3t97 1q14 0 24 -2t14.5 -4t4.5 -7q0 -10 -35 -18q-90 -23 -285 -37q-14 -72 -22 -119h42.5t40 1t39 2t41 2t46 1h55.5q20 0 31.5 -3t11.5 -9q0 -10 -35 -18q-88 -23 -283 -37q-6 -37 -6 -64q-4 -49 -8 -75.5t-14.5 -61.5 t-25.5 -52t-45 -29.5t-69 -12.5q-41 0 -36 25q10 18 30.5 61t26.5 55q33 70 55 148q-16 0 -31.5 -1t-31 -1t-29.5 -1t-29 -1q-37 0 -69 2q-41 0 -53 6q-12 8 -17.5 17t-5.5 18z" />
<glyph unicode="&#xa6;" horiz-adv-x="448" d="M207 -156q0 10 2 23q16 68 16 260q0 53 -1 199.5t-1 240.5l86 2q-25 -635 -57 -729q-14 -27 -29 -26q-6 0 -9 4t-5 10t-2 16zM207 1262q0 20 35 20q82 0 82 -176q-1 -199 -11 -447l-90 5v245q0 113 -4 192t-8 114.5t-4 46.5z" />
<glyph unicode="&#xa7;" horiz-adv-x="1282" d="M-29 -369q8 68 58 74h2q6 0 10 -12t9 -33.5t13 -36.5q29 -51 80.5 -68.5t135.5 -17.5q96 0 191 35t165 100.5t86 147.5q2 8 3 17t1 18q0 104 -156 178q-33 16 -96 40.5t-110.5 44t-104.5 51.5t-94 65.5t-62.5 83t-25.5 108.5q0 117 91 221.5t234 165.5q-20 43 -20 100 q0 115 88 219.5t231.5 167t298.5 62.5q207 0 207 -205q0 -18 -7 -40.5t-21.5 -40t-28.5 -17.5t-14 26v18.5v24.5q0 160 -199 160q-4 0 -9 -1t-9.5 -1h-9.5h-9q-31 -2 -64.5 -8t-69.5 -18.5t-72 -29t-69.5 -36.5t-61 -45t-49 -52.5t-34 -59t-12.5 -64.5q0 -6 1 -11.5t1 -9.5 q4 -37 18.5 -68.5t31 -55t48 -47t52 -38t63.5 -34t62.5 -27.5t67.5 -25.5t62 -23.5q47 -18 80 -33.5t71 -38t61.5 -44t39 -51.5t15.5 -60v-13.5t-2 -13.5q-18 -109 -111.5 -209t-232.5 -156q41 -43 41 -98q0 -12 -2 -25q-29 -164 -211.5 -291.5t-423.5 -127.5h-19 q-209 4 -209 147v12zM164 465q4 -37 18.5 -68.5t30.5 -55.5t48 -47.5t52.5 -37.5t63.5 -33.5t62.5 -28t67.5 -25.5t62 -24q135 -57 187 -94q100 35 176 104.5t94 151.5q2 6 2 12.5t1 11.5t1 11q0 104 -156 178q-29 12 -140 56.5t-184 87.5t-118 98q-113 -43 -190.5 -116 t-77.5 -163v-18z" />
<glyph unicode="&#xa8;" horiz-adv-x="1157" d="M616 1079v19q2 37 48.5 71.5t76.5 34.5q10 0 13 -6q0 -25 -14.5 -77t-14.5 -56q0 -14 -11.5 -26.5t-27.5 -18.5t-31 -6q-39 0 -39 65zM928 1079v19q2 37 48 71.5t77 34.5q10 0 12 -6q0 -25 -14.5 -77t-14.5 -56q0 -14 -11 -26.5t-27.5 -18.5t-30.5 -6q-39 0 -39 65z" />
<glyph unicode="&#xa9;" horiz-adv-x="1636" d="M100 504q0 115 37 230.5t111 220t174 186.5t239.5 131t294.5 49q154 0 272 -41t188.5 -111.5t106.5 -160.5t36 -195q0 -115 -40 -232.5t-119 -224t-184.5 -189.5t-249.5 -133t-302 -50q-141 0 -251 42t-176.5 114.5t-101.5 164.5t-35 199zM178 469q0 -195 125 -319.5 t377 -124.5q135 0 259 50t216 132t161.5 186.5t105.5 218t36 222.5q0 94 -28.5 175t-86 143t-152.5 98t-220 36q-113 0 -219.5 -36t-192.5 -95t-157.5 -140t-121 -172t-76 -187.5t-26.5 -186.5zM358 535q0 137 71 269t213 225t319 93q137 0 182 -61q12 29 12 47q0 25 19 25 q8 0 12 -4.5t4 -10.5q0 -14 -4 -30.5t-11.5 -36t-9.5 -29.5q12 -29 13 -80q-6 -70 -37 -70q-10 0 -17.5 2.5t-12.5 6.5t-7 10t-2 14q0 10 1 21.5t4 24t5 18.5t8 22.5t6 18.5q-43 70 -180 69q-111 0 -208 -48t-159.5 -125t-98.5 -169t-36 -182q0 -133 78 -220t230 -87 q238 0 440 186q27 33 37 29q8 -2 8 -10q0 -16 -17.5 -46t-31.5 -47q-70 -78 -205 -121.5t-262 -43.5q-180 0 -271.5 96t-91.5 244z" />
<glyph unicode="&#xaa;" horiz-adv-x="673" d="M12 662q0 94 56.5 254.5t138.5 290.5t143 130h6l23 17q18 20 57 20q31 0 86.5 -16.5t61.5 -16.5q8 0 21 16.5t32 16.5q51 0 51 -45q0 -18 -7 -40.5t-20.5 -52.5t-15.5 -36q-2 -4 -19.5 -12t-19.5 -14q-45 -127 -79.5 -271.5t-34.5 -177.5q0 -51 28.5 -51t70.5 34.5 t72.5 69.5t32.5 35q4 0 4 -8q0 -31 -20 -47q-2 -2 -18.5 -17.5t-26.5 -23.5t-29.5 -25.5t-34 -28t-35 -24.5t-36 -21.5t-31.5 -13.5t-31 -6q-43 0 -51 51q0 86 68 318q-274 -379 -394 -379q-49 0 -49 74zM106 719q0 -35 21 -35q43 0 152.5 125t144.5 178q51 82 94 177.5 t43 125.5q0 12 -10 13h-6q-12 0 -42 4t-50 4q-29 0 -62 -8q-51 -14 -168 -243t-117 -341z" />
<glyph unicode="&#xab;" horiz-adv-x="860" d="M174 524q0 23 98.5 163t143.5 196q16 23 39 22q14 0 14 -12q0 -14 -84 -140t-119 -173q199 -248 199 -274.5t-19 -26.5h-2l-16 8q-25 35 -58.5 68.5t-55 51t-69.5 54.5t-65 51q-6 6 -6 12zM461 524q0 23 101.5 167.5t142.5 191.5q16 23 38 22q13 0 13 -12q0 -14 -84 -140 t-119 -173q201 -236 201 -275q0 -27 -19 -26h-4l-16 8q-25 35 -57.5 68.5t-55 52t-70 54.5t-65.5 50q-6 6 -6 12z" />
<glyph unicode="&#xac;" horiz-adv-x="1220" d="M59 383q0 12 17 23l157 6q137 0 209 20q25 10 45 12l45 7q25 0 50 -9q39 2 94 8.5t107.5 10.5t97.5 4q18 0 57 -2t57 -2l60 2l30 4l33 6q10 0 17 -6q4 0 6 2h6q25 0 24 -25q0 -59 -27.5 -163.5t-29.5 -110.5q-12 -45 -18 -94q-8 -12 -19 -13q-16 0 -20 21q8 227 37 344 l-86 -6q-102 -6 -144 -19q-74 -18 -90 -18q-20 -6 -57 -2l-76 6q-39 2 -74 14q-37 -6 -71 -6h-82q-20 0 -31 -2l-35 -4q-10 -2 -41 0t-39 -2q-53 -20 -174 -29q-8 0 -12 5h-2q-16 2 -21 18z" />
<glyph unicode="&#xad;" horiz-adv-x="591" d="M47 274q0 20 21.5 41t40.5 29q8 4 16 7t13 4t12 1q4 0 7 -2t4 -4t1 -6t-3 -11t-7 -11q127 -9 172 -9q27 0 80 3t96 3q31 0 30 -10q0 -10 -24 -18q-49 -16 -165 -28.5t-204 -12.5h-41h-8h-10q-31 0 -31 24z" />
<glyph unicode="&#xae;" horiz-adv-x="1306" d="M258 901q0 158 119 277q123 121 297 120q98 0 165.5 -34.5t97.5 -89t30 -123.5q0 -94 -52.5 -185.5t-154 -154t-228.5 -62.5q-135 0 -204.5 72t-69.5 180zM299 885q0 -94 60.5 -153.5t181.5 -59.5q109 0 200 65q-8 -2 -34 -2q-37 0 -93.5 51.5t-101.5 116.5l-16 27 q-29 -109 -29 -158q0 -6 -6 -12q-4 -6 -20.5 -7t-16.5 7q0 4 2 14t5 21.5t3 13.5q6 35 39 141q-16 23 -12 27t18 6q20 70 66 182q6 41 30 72q8 10 37 8q10 -4 11 -8q-16 -25 -19 -35q8 0 28.5 -1t36 -3t35 -4t34 -7t27.5 -13.5t20.5 -21.5t7.5 -32q0 -12 -5 -26 q-18 -76 -86.5 -109t-156.5 -33h-5h-5q-18 0 -3 -16q8 -10 28 -33.5t33 -41t33.5 -39t37 -36t34 -24.5t31.5 -10q4 0 8 1t8.5 1h7.5t5 -2q72 57 112.5 142t40.5 167q0 94 -57 155.5t-174 61.5q-53 0 -104.5 -17.5t-92.5 -46t-75.5 -67.5t-58 -82t-37 -90t-13.5 -90zM510 975 q20 -4 45 -4q61 0 119 28.5t76 85.5q6 16 6 29q0 23 -13.5 37t-39 21.5t-48 9.5t-59.5 4h-2q-39 -59 -84 -211z" />
<glyph unicode="&#xaf;" horiz-adv-x="466" d="M45 872q0 20 61 35q47 10 97 11q63 0 190 -17q53 -12 53 -20q0 -10 -20 -15.5t-33 -5.5h-297q-27 0 -39 3t-12 9z" />
<glyph unicode="&#xb0;" horiz-adv-x="579" d="M133 831.5q0 71.5 52.5 124t124 52.5t123.5 -52.5t52 -124t-52 -124t-123.5 -52.5t-124 52.5t-52.5 124zM178 831.5q0 -53.5 39 -92.5t92 -39t92 39t39 92.5t-39 92.5t-92 39t-92 -39t-39 -92.5z" />
<glyph unicode="&#xb1;" horiz-adv-x="776" d="M152 61q0 12 5 24.5t13 22t19.5 15.5t21.5 6q18 0 8 -27q20 0 61.5 -1t88.5 -2t84 -1q72 0 104 4v2h24.5t36 -3t17.5 -7q0 -14 -153.5 -35.5t-252.5 -21.5q-29 0 -45 2h-6q-6 -2 -8 -2q-8 0 -13 8t-5 16zM190 539q0 10 7.5 20t21.5 17.5t31 9.5l203 -4q2 6 37.5 111.5 t41.5 127.5q2 4 5.5 9.5t8.5 9.5t11 8t12 7t12.5 5t10.5 2q6 0 10 -3t6 -9q0 -70 -78 -270q4 0 72 2t109 2q76 0 90 -6q16 -10 16 -17q0 -12 -50 -18t-132 -10.5t-123 -10.5q-31 -119 -111 -286q-25 -51 -34 -52q-6 0 -8.5 8.5t-2.5 22.5q0 43 9 55q78 240 71 256 q0 -2 -190 -2h-36h-13q-6 6 -7 15z" />
<glyph unicode="&#xb2;" horiz-adv-x="1120" d="M57 594q0 16 22.5 40.5t51.5 39.5q25 12 75 21.5t83 9.5h6q272 152 385 237q90 72 142 134.5t67 146.5q2 10 2 20q0 74 -90 74q-39 0 -92 -14q-193 -49 -312 -160q-16 -16 -24 4q0 12 8 20q104 90 239.5 150.5t262.5 60.5q115 0 114.5 -96t-120.5 -221q-74 -80 -191 -164 q-129 -92 -358 -207q59 -6 191 -47t216 -41q61 0 102.5 19.5t41.5 56.5q0 47 -76 72q-14 6 -6 14q6 8 18 4q104 -27 105 -94q0 -53 -57.5 -86t-133.5 -33q-82 0 -244 55q-12 4 -45.5 17.5t-53 19.5t-49 13.5t-56.5 9.5q-20 -6 -54 -32t-70 -45.5t-71 -19.5q-29 0 -29 21z " />
<glyph unicode="&#xb3;" horiz-adv-x="1245" d="M4 737q0 94 90 151.5t197 57.5q14 0 16 -10q-6 -10 -20 -14q-72 0 -138.5 -52.5t-66.5 -130.5q0 -68 58.5 -103.5t154.5 -35.5q182 0 332.5 89t150.5 239q0 66 -52 94.5t-130 28.5q-35 0 -69.5 -5.5t-61.5 -13.5q-14 -6 -25 -6q-25 0 -24 23q0 10 4 18t13 14t20 6 q139 0 243 50q51 23 80 61.5t29 79.5q0 27 -21.5 44t-64.5 17q-23 0 -49 -6q-139 -29 -242 -100q-6 -4 -10 -4q-8 0 -8 14q0 35 24 47q45 23 94 72q6 6 13 6q6 0 8 -9t-6 -18l-11 -10q145 59 242 60q53 0 84 -22.5t31 -72.5q0 -66 -79 -130.5t-155 -78.5q197 -18 197 -155 q0 -158 -182.5 -261.5t-378.5 -103.5q-129 0 -208 42t-79 128z" />
<glyph unicode="&#xb4;" horiz-adv-x="727" d="M608 918q0 37 275 294q6 6 12 8.5t12 2.5q18 0 33.5 -18.5t15.5 -37.5q0 -8 -3 -14t-9 -10q-45 -29 -113.5 -86.5t-122 -96t-87.5 -47.5h-3.5h-3.5t-4 1t-2 4z" />
<glyph unicode="&#xb5;" horiz-adv-x="681" d="M-63 -399q0 31 2 63q18 266 172 612q66 166 79 209q6 20 7 35q0 8 -5.5 17.5t-5.5 17.5t4 20q23 84 43 142q12 31 52.5 52.5t72.5 21.5q31 0 35 -19q-104 -258 -123 -315q-39 -111 -112 -283q-10 -25 -11 -35q2 -6 7 -8q10 0 49 33q205 158 360 442q18 72 19 88 q0 14 9 31.5t23.5 31t32 25t34.5 17.5t30 6q22 -1 24 -19q-6 -20 -22.5 -64t-42 -113.5t-43.5 -121.5q-57 -170 -107 -405q0 -4 -1 -19.5t-3 -26.5t-10 -26.5t-23 -27.5q-6 -6 -12 -10.5t-12 -7.5t-11.5 -6t-10.5 -4t-9 -2t-8 -1q-27 0 -27 22q0 8 4 17q27 49 140 489 q-76 -111 -194 -252t-212 -204q-39 -27 -65 -37q-4 -12 -5 -17q-14 -49 -29.5 -158.5t-15.5 -209.5q0 -254 109 -258q37 -2 37 -25q0 -14 -15.5 -24.5t-40.5 -10.5q-68 0 -105.5 51.5t-49.5 112.5q-4 25 -8 50.5t-5 51t-1 52.5z" />
<glyph unicode="&#xb6;" horiz-adv-x="847" d="M154 1036q0 31 5 60.5t15 58.5t24.5 54.5t34 47t44 37t55 23.5t63.5 8h19.5t19.5 -2q33 -6 77 -30.5t44 -51.5q0 -12 -12.5 -14t-23.5 2t-13 0q-4 -50 -4 -193q-6 -188 -9.5 -326.5t-6.5 -351.5t-3 -399v-55q0 -6 -22.5 -22.5t-36.5 -16.5q-16 0 -16 20q0 35 9 178.5 t11 198.5q0 10 9 233.5t9 288.5v17q-51 -20 -94 -21q-94 0 -146 76t-52 180zM549 -115q0 35 9 178.5t11 198.5q4 133 6.5 200.5t4.5 179.5t3 206t1 188q0 35 -1 81t-1 83t-1 83t-1 83q0 8 1 15.5t2 13.5t2 10t3 6t4 3t6 1q12 0 36.5 -31.5t24.5 -58.5q0 -8 -2 -16.5 t-4 -10.5l-2 -4q-12 -264 -18 -700q-8 -553 -8 -635v-55q0 -4 -10.5 -13.5t-25 -17.5t-24.5 -8q-16 0 -16 20z" />
<glyph unicode="&#xb7;" horiz-adv-x="559" d="M219 606v19q0 25 24.5 50t53.5 40.5t47 15.5q10 0 12 -6q0 -25 -14 -77t-14 -56q0 -23 -22.5 -37t-47.5 -14q-39 0 -39 65z" />
<glyph unicode="&#xb8;" horiz-adv-x="458" d="M31 -551q0 10 18 16q27 8 75 12.5t74.5 9.5t48 34.5t21.5 85.5q0 29 -53 103.5t-53 115.5q0 70 39 124t104 54q23 0 25 -14q-43 -8 -68.5 -46t-25.5 -83q0 -25 59 -100t59 -132q0 -68 -53 -116t-119.5 -67t-132.5 -19q-18 0 -18 22z" />
<glyph unicode="&#xb9;" horiz-adv-x="907" d="M55 588q0 18 11 22q94 39 133 47q39 66 161.5 294.5t163.5 303.5q-86 -51 -182 -86q-10 -4 -16.5 2.5t-4 15.5t12.5 11q94 39 248 158l8 14q14 23 57 23q10 0 18.5 -2t13.5 -6.5t5 -10.5q0 -4 -2 -10l-422 -694q86 14 189 14q18 0 12 -18q-4 -14 -19 -15q-27 0 -53.5 -2 t-56 -9t-49 -12t-54 -17.5t-48 -17.5t-53.5 -20.5t-50 -19.5h-4q-8 0 -13.5 11t-5.5 24z" />
<glyph unicode="&#xba;" horiz-adv-x="534" d="M43 684q0 47 8 94q10 53 37 137t70 182.5t105.5 167t125.5 68.5h14q0 29 16.5 49.5t45.5 20.5q29 -2 51.5 -120t65.5 -122q39 -6 39 -22.5t-31 -31.5t-55 -15q0 -240 -125 -410t-248 -170q-119 0 -119 172zM135 674q0 -100 58 -101q82 0 183 167t101 368 q-18 10 -44.5 72.5t-37.5 62.5q-63 0 -147 -187.5t-105 -295.5q-8 -47 -8 -86z" />
<glyph unicode="&#xbb;" horiz-adv-x="860" d="M174 276q0 14 83 138.5t120 175.5q-201 236 -201 274v8.5t2 7.5l4 6t5 4t8 1h4l16 -8q25 -35 58.5 -68t54 -51.5t69.5 -56t66 -50.5q6 -6 6 -12q0 -23 -101.5 -167t-142.5 -191q-18 -23 -39 -23q-12 0 -12 12zM494 276q0 14 82.5 138.5t119.5 175.5q-201 236 -200 274 q4 25 18 27h4l17 -8q25 -35 58.5 -68t54 -51.5t69.5 -56t65 -50.5q6 -6 6 -12q0 -23 -101 -167t-142 -191q-18 -23 -39 -23q-12 0 -12 12z" />
<glyph unicode="&#xbc;" horiz-adv-x="1910" d="M55 588q0 18 11 22q94 39 133 47q39 66 161.5 294.5t163.5 303.5q-86 -51 -182 -86q-10 -4 -16.5 2.5t-4 15.5t12.5 11q94 39 248 158l8 14q14 23 57 23q10 0 18.5 -2t13.5 -6.5t5 -10.5q0 -4 -2 -10l-422 -694q86 14 189 14q18 0 12 -18q-4 -14 -19 -15q-27 0 -53.5 -2 t-56 -9t-49 -12t-54 -17.5t-48 -17.5t-53.5 -20.5t-50 -19.5h-4q-8 0 -13.5 11t-5.5 24zM448.5 293q0.5 31 29 76t92 109.5t111.5 109.5t138 127q135 125 265 226t149 101q17 0 29 -6q14 -14 -7 -28q-199 -150 -451.5 -372t-295.5 -302q-25 -41 6 -53q10 -4 -10 -13 q-16 -6 -21 -6q-35 0 -34.5 31zM952 350q0 31 29 39l72 19q575 285 673 415q6 8 23 8q8 0 15.5 -2t14.5 -5t11 -6t4 -7v-3t-2 -3q-35 -47 -104.5 -135t-124 -160t-99.5 -139q86 -31 156 -31q23 0 45.5 8t39.5 29.5t17 52.5q0 12 -2 25q-4 14 8.5 15t20.5 -11q25 -41 25 -70 q0 -80 -160 -80q-63 0 -170 25q-6 -10 -34 -53t-46 -74t-33.5 -68t-13.5 -57q88 10 160 10q18 0 12 -18q-4 -14 -19 -15q-25 0 -50 -3t-43.5 -5t-49.5 -11t-42 -12t-47 -16.5t-41 -15.5t-48 -21l-43 -16h-1h-3q-8 0 -13.5 11.5t-5.5 23.5q0 6 1 11t3.5 8t6.5 5 q153 52 163 54l27 4v14q0 29 12.5 68t34 77.5t35.5 63.5t31 47q-94 27 -164 27q-90 0 -244 -58l-8 -2q-12 0 -20.5 11.5t-8.5 25.5zM1147 420q66 4 88 4q66 0 180 -37q4 6 71.5 107.5t110.5 158.5l31 39q-172 -114 -481 -272z" />
<glyph unicode="&#xbd;" horiz-adv-x="2078" d="M55 588q0 18 11 22q94 39 133 47q39 66 161.5 294.5t163.5 303.5q-86 -51 -182 -86q-10 -4 -16.5 2.5t-4 15.5t12.5 11q94 39 248 158l8 14q14 23 57 23q10 0 18.5 -2t13.5 -6.5t5 -10.5q0 -4 -2 -10l-422 -694q86 14 189 14q18 0 12 -18q-4 -14 -19 -15q-27 0 -53.5 -2 t-56 -9t-49 -12t-54 -17.5t-48 -17.5t-53.5 -20.5t-50 -19.5h-4q-8 0 -13.5 11t-5.5 24zM657 293q0 31 29 76t92.5 109.5t111.5 109.5t138 127q135 125 265 226t149 101q16 0 28 -6q14 -14 -6 -28q-199 -150 -451.5 -372t-295.5 -302q-25 -41 6 -53q10 -4 -10 -13 q-16 -6 -21 -6q-35 0 -35 31zM997 12q0 16 22.5 41t51.5 39q25 12 75 21.5t83 9.5h3h3q272 152 385 237q90 72 142.5 134.5t66.5 146.5q0 6 1 11t1 10q0 74 -90 73q-20 0 -43 -4t-49 -10q-193 -49 -312 -160q-16 -16 -24 4q-2 12 8 21q104 90 239.5 150.5t262.5 60.5 q115 0 114.5 -96.5t-120.5 -221.5q-74 -80 -191 -164q-129 -92 -358 -206q53 -4 215 -54q113 -35 192 -35q61 0 102.5 19.5t41.5 56.5q0 20 -18.5 40t-57.5 32q-14 6 -6 14q6 8 18 4q104 -27 105 -94q0 -53 -57.5 -86t-133.5 -33q-82 0 -244 56q-12 4 -45.5 17t-53 19.5 t-49 13.5t-56.5 9q-16 -6 -91 -55q-59 -39 -104 -41q-29 0 -29 20z" />
<glyph unicode="&#xbe;" horiz-adv-x="2107" d="M4 737q0 94 90 151.5t197 57.5q14 0 16 -10q-6 -10 -20 -14q-72 0 -138.5 -52.5t-66.5 -130.5q0 -68 58.5 -103.5t154.5 -35.5q182 0 332.5 89t150.5 239q0 66 -52 94.5t-130 28.5q-35 0 -69.5 -5.5t-61.5 -13.5q-14 -6 -25 -6q-25 0 -24 23q0 10 4 18t13 14t20 6 q139 0 243 50q51 23 80 61.5t29 79.5q0 27 -21.5 44t-64.5 17q-23 0 -49 -6q-139 -29 -242 -100q-6 -4 -10 -4q-8 0 -8 14q0 35 24 47q45 23 94 72q6 6 13 6q6 0 8 -9t-6 -18l-11 -10q145 59 242 60q53 0 84 -22.5t31 -72.5q0 -66 -79 -130.5t-155 -78.5q197 -18 197 -155 q0 -158 -182.5 -261.5t-378.5 -103.5q-129 0 -208 42t-79 128zM710.5 293q0.5 31 29 76t92 109.5t111.5 109.5t138 127q135 125 265.5 226t148.5 101q17 0 29 -6q14 -14 -6 -28q-199 -150 -452 -372t-296 -302q-25 -41 6 -53q10 -4 -10 -13q-16 -6 -21 -6q-35 0 -34.5 31z M1157 350q0 31 29 39l71 19q575 285 674 415q6 8 23 8q8 0 15 -2t14.5 -5t11.5 -6t4 -7v-3t-2 -3q-35 -47 -104.5 -135t-124 -160t-99.5 -139q86 -31 156 -31q23 0 45 8t39.5 29.5t17.5 52.5q0 12 -2 25q-4 14 8.5 15t20.5 -11q25 -41 24 -70q0 -80 -159 -80q-63 0 -170 25 q-6 -10 -34 -53t-46.5 -74t-33.5 -68t-13 -57q88 10 159 10q18 0 13 -18q-4 -14 -19 -15q-25 0 -50.5 -3t-43.5 -5t-49 -11t-42 -12t-47 -16.5t-41 -15.5t-48 -21l-43 -16h-1h-3q-8 0 -13.5 11.5t-5.5 23.5q0 6 1 11t3 8t6 5q154 52 164 54l27 4v14q0 29 12 68t33.5 77.5 t36 63.5t31.5 47q-94 27 -164 27q-90 0 -244 -58q-4 -2 -8 -2q-12 0 -20.5 11.5t-8.5 25.5zM1352 420q66 4 88 4q66 0 180 -37q4 6 71.5 107.5t110.5 158.5l31 39q-172 -114 -481 -272z" />
<glyph unicode="&#xbf;" horiz-adv-x="950" d="M-141 -573q0 41 17.5 82.5t41 77.5t72.5 81t86 77t110.5 82t117.5 78.5t134 86.5q20 14 31 20q47 29 72.5 65t48 94t26.5 65h2q6 6 11.5 10t11.5 4q10 0 18.5 -8.5t13.5 -22.5t5 -33q0 -61 -49 -125q-16 -20 -87 -66t-172.5 -109.5t-160.5 -108.5q-96 -72 -156.5 -164 t-60.5 -170q0 -45 22.5 -79t72.5 -54.5t126 -20.5q109 0 206 34t158.5 98.5t61.5 144.5v16q-4 49 -20.5 69.5t-31 23t-14.5 8.5q0 10 8.5 18t18.5 11t21 3q45 0 83.5 -42t38.5 -101q0 -53 -38 -107q-80 -109 -247 -182.5t-321 -73.5q-121 0 -199.5 53.5t-78.5 164.5z M647 406q4 25 23.5 75.5t19.5 55.5v2q12 39 72 49l2 2q35 0 35 -51q0 -4 -2 -33q-2 -39 -51.5 -73t-81.5 -34q-10 0 -17 7z" />
<glyph unicode="&#xc0;" d="M-2 -154q0 172 79 343t212 364h-19.5h-21.5h-23.5t-25 -1t-23.5 -1h-24q-45 0 -72 2t-27 8q0 18 16.5 30.5t46 17.5t59.5 8.5t65 3.5q23 0 45 -1.5t37 -2.5l16 -1q223 301 545 611q-20 88 -21 112q0 41 49 41q61 0 72 -59q37 37 49 37q20 0 21 -39q0 -6 -1 -15.5 t-1 -13.5q-6 -6 -22.5 -20.5t-24.5 -24.5q55 -256 55 -629h7h7q158 0 172 -28q-4 -10 -76.5 -17.5t-109.5 -7.5v-477q141 76 170 76q18 -1 18 -15q0 -12 -33 -32q-166 -80 -294 -246q-8 -12 -19 -12q-20 0 -20 28q0 23 31.5 64t56.5 59q4 59 9 157.5t8 199t3 157.5v37 q-627 -6 -631 -6q-94 -145 -144 -233.5t-95 -226.5t-45 -273q0 -106 49 -160q18 -18 18 -29q0 -12 -37 -12q-55 0 -80.5 79t-25.5 148zM403 614h586q0 88 -26.5 271.5t-59.5 267.5q-367 -336 -500 -539zM737 1659q0 8 4 18.5t11.5 18.5t16.5 13t18.5 5t15.5 -6 q41 -33 116.5 -81t129 -87t71.5 -70q4 -4 4 -8q0 -2 -2 -3t-6 -1q-29 0 -138.5 54.5t-221.5 115.5q-18 10 -19 31z" />
<glyph unicode="&#xc1;" d="M-2 -154q0 172 79 343t212 364h-19.5h-21.5h-23.5t-25 -1t-23.5 -1h-24q-45 0 -72 2t-27 8q0 18 16.5 30.5t46 17.5t59.5 8.5t65 3.5q23 0 45 -1.5t37 -2.5l16 -1q223 301 545 611q-20 88 -21 112q0 41 49 41q61 0 72 -59q37 37 49 37q20 0 21 -39q0 -6 -1 -15.5 t-1 -13.5q-6 -6 -22.5 -20.5t-24.5 -24.5q55 -256 55 -629h7h7q158 0 172 -28q-4 -10 -76.5 -17.5t-109.5 -7.5v-477q141 76 170 76q18 -1 18 -15q0 -12 -33 -32q-166 -80 -294 -246q-8 -12 -19 -12q-20 0 -20 28q0 23 31.5 64t56.5 59q4 59 9 157.5t8 199t3 157.5v37 q-627 -6 -631 -6q-94 -145 -144 -233.5t-95 -226.5t-45 -273q0 -106 49 -160q18 -18 18 -29q0 -12 -37 -12q-55 0 -80.5 79t-25.5 148zM403 614h586q0 88 -26.5 271.5t-59.5 267.5q-367 -336 -500 -539zM887 1436q0 37 274 295q12 10 25 10q6 0 14 -3t14.5 -9.5t10.5 -13.5 t7 -15t3 -15.5t-3 -13.5t-9 -10q-45 -29 -114 -86t-122 -96t-88 -47h-6q-6 0 -6 4z" />
<glyph unicode="&#xc2;" d="M-2 -154q0 172 79 343t212 364h-19.5h-21.5h-23.5t-25 -1t-23.5 -1h-24q-45 0 -72 2t-27 8q0 18 16.5 30.5t46 17.5t59.5 8.5t65 3.5q23 0 45 -1.5t37 -2.5l16 -1q223 301 545 611q-20 88 -21 112q0 41 49 41q61 0 72 -59q37 37 49 37q20 0 21 -39q0 -6 -1 -15.5 t-1 -13.5q-6 -6 -22.5 -20.5t-24.5 -24.5q55 -256 55 -629h7h7q158 0 172 -28q-4 -10 -76.5 -17.5t-109.5 -7.5v-477q141 76 170 76q18 -1 18 -15q0 -12 -33 -32q-166 -80 -294 -246q-8 -12 -19 -12q-20 0 -20 28q0 23 31.5 64t56.5 59q4 59 9 157.5t8 199t3 157.5v37 q-627 -6 -631 -6q-94 -145 -144 -233.5t-95 -226.5t-45 -273q0 -106 49 -160q18 -18 18 -29q0 -12 -37 -12q-55 0 -80.5 79t-25.5 148zM403 614h586q0 88 -26.5 271.5t-59.5 267.5q-367 -336 -500 -539zM762 1491q0 2 2 7t6 11q20 25 129 126.5t127 105.5q10 -4 69.5 -97.5 t78.5 -127.5q2 -6 2 -15q0 -4 -1 -7t-3.5 -5t-6.5 -2h-2t-4 2q-27 23 -83 84t-77 92q-27 -25 -114.5 -95.5t-106.5 -80.5q-6 -4 -10 -4q-6 0 -6 6z" />
<glyph unicode="&#xc3;" d="M-2 -154q0 172 79 343t212 364h-19.5h-21.5h-23.5t-25 -1t-23.5 -1h-24q-45 0 -72 2t-27 8q0 18 16.5 30.5t46 17.5t59.5 8.5t65 3.5q23 0 45 -1.5t37 -2.5l16 -1q223 301 545 611q-20 88 -21 112q0 41 49 41q61 0 72 -59q37 37 49 37q20 0 21 -39q0 -6 -1 -15.5 t-1 -13.5q-6 -6 -22.5 -20.5t-24.5 -24.5q55 -256 55 -629h7h7q158 0 172 -28q-4 -10 -76.5 -17.5t-109.5 -7.5v-477q141 76 170 76q18 -1 18 -15q0 -12 -33 -32q-166 -80 -294 -246q-8 -12 -19 -12q-20 0 -20 28q0 23 31.5 64t56.5 59q4 59 9 157.5t8 199t3 157.5v37 q-627 -6 -631 -6q-94 -145 -144 -233.5t-95 -226.5t-45 -273q0 -106 49 -160q18 -18 18 -29q0 -12 -37 -12q-55 0 -80.5 79t-25.5 148zM403 614h586q0 88 -26.5 271.5t-59.5 267.5q-367 -336 -500 -539zM766 1526q0 14 34 43.5t54 40.5q33 20 74 20q35 0 98.5 -21.5 t95.5 -21.5q49 0 86 43q12 0 13 -8q0 -14 -30 -43t-52 -43q-27 -16 -56 -16q-37 0 -102.5 27.5t-99.5 27.5q-35 0 -68 -26.5t-43 -26.5q-4 0 -4 4z" />
<glyph unicode="&#xc4;" d="M-2 -154q0 172 79 343t212 364h-19.5h-21.5h-23.5t-25 -1t-23.5 -1h-24q-45 0 -72 2t-27 8q0 18 16.5 30.5t46 17.5t59.5 8.5t65 3.5q23 0 45 -1.5t37 -2.5l16 -1q223 301 545 611q-20 88 -21 112q0 41 49 41q61 0 72 -59q37 37 49 37q20 0 21 -39q0 -6 -1 -15.5 t-1 -13.5q-6 -6 -22.5 -20.5t-24.5 -24.5q55 -256 55 -629h7h7q158 0 172 -28q-4 -10 -76.5 -17.5t-109.5 -7.5v-477q141 76 170 76q18 -1 18 -15q0 -12 -33 -32q-166 -80 -294 -246q-8 -12 -19 -12q-20 0 -20 28q0 23 31.5 64t56.5 59q4 59 9 157.5t8 199t3 157.5v37 q-627 -6 -631 -6q-94 -145 -144 -233.5t-95 -226.5t-45 -273q0 -106 49 -160q18 -18 18 -29q0 -12 -37 -12q-55 0 -80.5 79t-25.5 148zM403 614h586q0 88 -26.5 271.5t-59.5 267.5q-367 -336 -500 -539zM791 1581v18q2 37 48 72t76 35q10 0 13 -6q0 -25 -14.5 -77t-14.5 -56 q0 -23 -22.5 -37t-47.5 -14q-39 0 -38 65zM1102 1581v9v9q0 18 15.5 39t34.5 35.5t39.5 23.5t35.5 9q10 0 12 -6q0 -25 -14.5 -77t-14.5 -56q0 -23 -22.5 -37t-46.5 -14q-39 0 -39 65z" />
<glyph unicode="&#xc5;" d="M-2 -154q0 172 79 343t212 364h-19.5h-21.5h-23.5t-25 -1t-23.5 -1h-24q-45 0 -72 2t-27 8q0 18 16.5 30.5t46 17.5t59.5 8.5t65 3.5q23 0 45 -1.5t37 -2.5l16 -1q223 301 545 611q-20 88 -21 112q0 33 35 39q-2 6 -2 21q0 41 22.5 92t57.5 63q29 59 104 60 q39 0 63.5 -30t24.5 -71q0 -53 -33.5 -102t-82.5 -74q2 -6 2 -18q0 -6 -1 -15.5t-1 -13.5q-6 -6 -22.5 -20.5t-24.5 -24.5q55 -256 55 -629h7h7q158 0 172 -28q-4 -10 -76.5 -17.5t-109.5 -7.5v-477q141 76 170 76q18 0 18 -15q0 -12 -33 -32q-166 -80 -294 -246 q-8 -12 -19 -12q-20 0 -20 28q0 23 31.5 64t56.5 59q4 59 9 157.5t8 199t3 157.5v37q-627 -6 -631 -6q-94 -145 -144 -233.5t-95 -226.5t-45 -273q0 -106 49 -160q18 -18 18 -29q0 -12 -37 -12q-55 0 -80.5 79t-25.5 148zM403 614h586q0 88 -26.5 271.5t-59.5 267.5 q-367 -336 -500 -539zM942 1417q0 -57 59 -57q51 0 88 47t37 106q0 70 -53 70q-31 0 -62.5 -27.5t-50 -65.5t-18.5 -73z" />
<glyph unicode="&#xc6;" horiz-adv-x="1966" d="M-160 1057q0 229 353 276q100 14 223 15q115 0 243.5 -12.5t245.5 -32.5q-10 41 -10 71q0 41 49 41q27 0 49.5 -37t22.5 -69q59 49 78 49q31 0 30 -19q0 -4 -2 -11t-5 -13t-8 -13.5t-7 -11.5q-11 -10 -31 -20q47 -8 76 -13.5t72 -11.5t76.5 -10t74.5 -6t80 -2 q59 0 117.5 4t111.5 10q43 6 80 21.5t57.5 29t24.5 13.5q27 4 27 -15q0 -51 -79 -85t-142 -42q-37 -6 -73 -8t-75 -2q-45 0 -89 3t-104.5 11.5t-83 12.5t-104.5 18t-88 16q4 -41 5 -85t1 -93q0 -195 -24 -415q33 0 97.5 -1.5t86.5 -1.5q14 0 145.5 -1t182.5 -1q20 0 38.5 -3 t31 -8t19.5 -12t7 -13q0 -8 -16.5 -14.5t-47.5 -6.5q-190 0 -555 -8l-69 -461q66 -16 200 -62t245.5 -74t209.5 -28q59 0 113 11q78 16 137 77.5t59 147.5v10t-1 9t-1 12q-6 47 -37.5 90t-33.5 55q-2 16 3 30.5t19 14.5q12 0 34 -36t37 -75t17 -55q4 -25 4 -49 q0 -127 -78.5 -211t-189.5 -104q-25 -4 -50.5 -7.5t-51.5 -3.5q-129 0 -363.5 81t-316.5 95q-23 -10 -56 -4q0 8 3 13q-41 4 -78 4q-51 0 -99 -8q-78 -18 -86 -70q0 -4 2 -16q0 -12 -4 -15q-14 0 -22 18.5t-8 36.5q0 63 64.5 100.5t152.5 37.5q39 0 90 -6q10 49 29.5 139 t34 163.5t22.5 139.5q-129 2 -309 2h-158h-158q-94 -145 -144 -233.5t-95 -226.5t-45 -273q0 -39 8 -73t19 -54.5t22.5 -34.5t19.5 -22.5t8 -12.5t-47 -4q-55 0 -80.5 79t-25.5 148q0 172 78.5 343t212.5 364h-31h-34t-35.5 -1t-37.5 -1q-20 0 -37.5 1t-32 2t-21.5 3t-7 4 q0 18 16.5 30.5t46 17.5t59.5 8.5t64 3.5q16 0 35 -1.5t31 -1.5t21.5 -1t11.5 -1q113 152 290 335.5t310 287.5q-4 0 -96 12q-86 8 -174.5 13.5t-170.5 5.5q-121 0 -204 -13q-125 -18 -229.5 -85.5t-104.5 -186.5q0 -76 31 -115q8 -10 12 -18t4 -14t-5 -9.5t-13 -3.5 q-33 0 -52 35q-45 84 -45 197zM352 614q467 0 590 4q16 244 16 365q0 70 -4 126t-14 95q-428 -348 -588 -590z" />
<glyph unicode="&#xc7;" horiz-adv-x="1542" d="M53 430q0 23 2 47q12 229 171 441t390.5 336t459 124t304.5 -102q18 55 19 80q0 4 -4 16t-2 19.5t16 7.5q16 0 32.5 -8.5t16.5 -20.5q0 -25 -7 -50.5t-18.5 -59t-15.5 -48.5q18 -49 19 -112q0 -139 -62 -139q-35 0 -49 14t-14 45q0 18 2 35.5t7 36t9 32t11.5 35 t11.5 31.5q-35 57 -109 94t-168 37q-217 0 -425 -118t-343 -316.5t-147 -417.5v-33q0 -240 167 -388t414 -148q109 0 207.5 20.5t163 47t130 70.5t96 72.5t73.5 71.5l49 49q6 10 27 32t29 22t8 -18.5t-9.5 -45t-21.5 -47t-23 -31.5q-127 -129 -342 -213t-411 -84 q-31 0 -45 2q-45 -39 -45 -108q0 -25 59 -99.5t59 -132.5q0 -68 -53 -115.5t-119.5 -67t-132.5 -19.5q-18 0 -18 22q0 10 18 17q27 8 75 12t74.5 9t48 35t21.5 85q0 29 -53 103.5t-53 115.5q0 96 57 148q-272 25 -414.5 176t-142.5 401z" />
<glyph unicode="&#xc8;" horiz-adv-x="1914" d="M-51 1122q0 227 352 228q350 0 913 -197q2 8 9.5 32.5t13.5 41t16.5 37t24.5 31t31 10.5q39 0 71.5 -41t32.5 -80q0 -20 -12 -21q-14 0 -37 18.5t-27 18.5q-16 0 -30.5 -26.5t-18.5 -47.5q246 -84 500 -84q43 0 80 10.5t57.5 20.5t24.5 10q27 0 26 -18q0 -51 -77.5 -73.5 t-143.5 -22.5q-104 0 -246.5 28.5t-236.5 71.5q-10 -33 -61.5 -175t-75.5 -220q14 0 155.5 -3t192.5 -3q37 0 60.5 -9.5t23.5 -21.5q0 -23 -72 -23q-59 0 -217 -6t-166 -6q-37 -133 -112.5 -291.5t-155.5 -247.5q418 -203 692 -202q104 0 190 58t86 159q0 47 -32.5 95 t-32.5 60q0 41 33 41q29 0 56.5 -53t27.5 -129q0 -145 -114 -226t-265 -81q-100 0 -234.5 39t-206 69.5t-225.5 102.5q-27 12 -41 18q-180 -168 -448 -168q-102 0 -182 39t-80 133.5t73.5 152.5t171.5 58q170 0 469 -137q100 131 248 506q-10 0 -55 -1t-72 -1h-13h-12.5 h-13.5h-13t-12.5 1t-11.5 2t-9 3t-8 5t-5 7t-2 11q0 16 14 33.5t31 17.5h39q29 0 85 -1t81 -1q25 70 71.5 212t71.5 214q-524 154 -797 153q-59 0 -116.5 -8t-122 -29.5t-104.5 -65.5t-40 -108q0 -96 87 -198.5t191.5 -171t191.5 -128t87 -77.5q0 -6 -8 -6q-33 0 -129 51 q-94 49 -175 107.5t-154.5 134t-115.5 171t-42 197.5zM137 63q0 -51 55.5 -91t119 -55t114.5 -15q174 0 309 135q-88 41 -230.5 75.5t-230.5 34.5q-137 0 -137 -84zM1221 1591q0 8 4 18.5t11 18.5t16.5 13.5t18.5 5.5t15 -7q41 -33 117 -81t129.5 -86.5t71.5 -69.5 q4 -4 4 -8q0 -2 -2 -3t-7 -1q-29 0 -138 54t-222 116q-18 10 -18 30z" />
<glyph unicode="&#xc9;" horiz-adv-x="1914" d="M-51 1122q0 227 352 228q350 0 913 -197q2 8 9.5 32.5t13.5 41t16.5 37t24.5 31t31 10.5q39 0 71.5 -41t32.5 -80q0 -20 -12 -21q-14 0 -37 18.5t-27 18.5q-16 0 -30.5 -26.5t-18.5 -47.5q246 -84 500 -84q43 0 80 10.5t57.5 20.5t24.5 10q27 0 26 -18q0 -51 -77.5 -73.5 t-143.5 -22.5q-104 0 -246.5 28.5t-236.5 71.5q-10 -33 -61.5 -175t-75.5 -220q14 0 155.5 -3t192.5 -3q37 0 60.5 -9.5t23.5 -21.5q0 -23 -72 -23q-59 0 -217 -6t-166 -6q-37 -133 -112.5 -291.5t-155.5 -247.5q418 -203 692 -202q104 0 190 58t86 159q0 47 -32.5 95 t-32.5 60q0 41 33 41q29 0 56.5 -53t27.5 -129q0 -145 -114 -226t-265 -81q-100 0 -234.5 39t-206 69.5t-225.5 102.5q-27 12 -41 18q-180 -168 -448 -168q-102 0 -182 39t-80 133.5t73.5 152.5t171.5 58q170 0 469 -137q100 131 248 506q-10 0 -55 -1t-72 -1h-13h-12.5 h-13.5h-13t-12.5 1t-11.5 2t-9 3t-8 5t-5 7t-2 11q0 16 14 33.5t31 17.5h39q29 0 85 -1t81 -1q25 70 71.5 212t71.5 214q-524 154 -797 153q-59 0 -116.5 -8t-122 -29.5t-104.5 -65.5t-40 -108q0 -96 87 -198.5t191.5 -171t191.5 -128t87 -77.5q0 -6 -8 -6q-33 0 -129 51 q-94 49 -175 107.5t-154.5 134t-115.5 171t-42 197.5zM137 63q0 -51 55.5 -91t119 -55t114.5 -15q174 0 309 135q-88 41 -230.5 75.5t-230.5 34.5q-137 0 -137 -84zM1436 1405q0 37 274 295q12 10 25 10q18 0 33.5 -18.5t15.5 -36.5q0 -8 -3 -14.5t-9 -10.5 q-45 -29 -114 -86t-122 -96t-88 -47h-6q-6 0 -6 4z" />
<glyph unicode="&#xca;" horiz-adv-x="1914" d="M-51 1122q0 227 352 228q350 0 913 -197q2 8 9.5 32.5t13.5 41t16.5 37t24.5 31t31 10.5q39 0 71.5 -41t32.5 -80q0 -20 -12 -21q-14 0 -37 18.5t-27 18.5q-16 0 -30.5 -26.5t-18.5 -47.5q246 -84 500 -84q43 0 80 10.5t57.5 20.5t24.5 10q27 0 26 -18q0 -51 -77.5 -73.5 t-143.5 -22.5q-104 0 -246.5 28.5t-236.5 71.5q-10 -33 -61.5 -175t-75.5 -220q14 0 155.5 -3t192.5 -3q37 0 60.5 -9.5t23.5 -21.5q0 -23 -72 -23q-59 0 -217 -6t-166 -6q-37 -133 -112.5 -291.5t-155.5 -247.5q418 -203 692 -202q104 0 190 58t86 159q0 47 -32.5 95 t-32.5 60q0 41 33 41q29 0 56.5 -53t27.5 -129q0 -145 -114 -226t-265 -81q-100 0 -234.5 39t-206 69.5t-225.5 102.5q-27 12 -41 18q-180 -168 -448 -168q-102 0 -182 39t-80 133.5t73.5 152.5t171.5 58q170 0 469 -137q100 131 248 506q-10 0 -55 -1t-72 -1h-13h-12.5 h-13.5h-13t-12.5 1t-11.5 2t-9 3t-8 5t-5 7t-2 11q0 16 14 33.5t31 17.5h39q29 0 85 -1t81 -1q25 70 71.5 212t71.5 214q-524 154 -797 153q-59 0 -116.5 -8t-122 -29.5t-104.5 -65.5t-40 -108q0 -96 87 -198.5t191.5 -171t191.5 -128t87 -77.5q0 -6 -8 -6q-33 0 -129 51 q-94 49 -175 107.5t-154.5 134t-115.5 171t-42 197.5zM137 63q0 -51 55.5 -91t119 -55t114.5 -15q174 0 309 135q-88 41 -230.5 75.5t-230.5 34.5q-137 0 -137 -84zM1309 1427q0 6 8 19q20 25 128.5 126t127.5 105q10 -4 69.5 -97t77.5 -128q2 -6 2 -14q-2 -12 -10 -15h-2 t-4 2q-27 23 -83 84.5t-77 92.5q-27 -25 -115 -95.5t-106 -81.5q-6 -4 -10 -4q-6 0 -6 6z" />
<glyph unicode="&#xcb;" horiz-adv-x="1914" d="M-51 1122q0 227 352 228q350 0 913 -197q2 8 9.5 32.5t13.5 41t16.5 37t24.5 31t31 10.5q39 0 71.5 -41t32.5 -80q0 -20 -12 -21q-14 0 -37 18.5t-27 18.5q-16 0 -30.5 -26.5t-18.5 -47.5q246 -84 500 -84q43 0 80 10.5t57.5 20.5t24.5 10q27 0 26 -18q0 -51 -77.5 -73.5 t-143.5 -22.5q-104 0 -246.5 28.5t-236.5 71.5q-10 -33 -61.5 -175t-75.5 -220q14 0 155.5 -3t192.5 -3q37 0 60.5 -9.5t23.5 -21.5q0 -23 -72 -23q-59 0 -217 -6t-166 -6q-37 -133 -112.5 -291.5t-155.5 -247.5q418 -203 692 -202q104 0 190 58t86 159q0 47 -32.5 95 t-32.5 60q0 41 33 41q29 0 56.5 -53t27.5 -129q0 -145 -114 -226t-265 -81q-100 0 -234.5 39t-206 69.5t-225.5 102.5q-27 12 -41 18q-180 -168 -448 -168q-102 0 -182 39t-80 133.5t73.5 152.5t171.5 58q170 0 469 -137q100 131 248 506q-10 0 -55 -1t-72 -1h-13h-12.5 h-13.5h-13t-12.5 1t-11.5 2t-9 3t-8 5t-5 7t-2 11q0 16 14 33.5t31 17.5h39q29 0 85 -1t81 -1q25 70 71.5 212t71.5 214q-524 154 -797 153q-59 0 -116.5 -8t-122 -29.5t-104.5 -65.5t-40 -108q0 -96 87 -198.5t191.5 -171t191.5 -128t87 -77.5q0 -6 -8 -6q-33 0 -129 51 q-94 49 -175 107.5t-154.5 134t-115.5 171t-42 197.5zM137 63q0 -51 55.5 -91t119 -55t114.5 -15q174 0 309 135q-88 41 -230.5 75.5t-230.5 34.5q-137 0 -137 -84zM1368 1497v7v6v6q0 18 15.5 38.5t35 35t40 23.5t34.5 9q10 0 12 -6q0 -25 -14 -77t-14 -56q0 -23 -22.5 -37 t-47.5 -14q-39 0 -39 65zM1679 1497v7v6v6q2 37 48.5 71.5t76.5 34.5q10 0 13 -6q0 -25 -14.5 -77t-14.5 -56q0 -23 -22.5 -37t-47.5 -14q-39 0 -39 65z" />
<glyph unicode="&#xcc;" horiz-adv-x="937" d="M18 -29q0 49 48.5 94.5t115.5 45.5q70 0 197 -56q86 104 168 281.5t129 317t103.5 324.5t68.5 224q-6 0 -113.5 20.5t-156.5 20.5q-57 0 -100.5 -14.5t-68 -42t-24.5 -64.5q0 -78 96 -174q6 -6 11.5 -13t8.5 -14.5t3 -11.5t-1 -5t-5 -1q-14 0 -56 37q-111 102 -110 197 q0 80 75.5 129t202.5 49q27 0 56.5 -2t60.5 -8q10 -2 93 -18.5t163 -29t133 -12.5q61 0 76 19q6 6 12 8q12 0 13 -17q0 -6 -3.5 -14t-11.5 -19.5t-20 -21.5q-16 -14 -41 -21.5t-60 -7.5q-41 0 -153 19q-4 -10 -49 -171t-78 -257t-90.5 -250t-127 -274.5t-147.5 -206.5 q197 -88 359 -88q123 0 123 57q0 16 -8.5 34.5t-16.5 34t-8 19.5q0 8 4 15.5t10 5.5q16 -6 28.5 -37t12.5 -68q0 -59 -37 -100t-119 -41q-78 0 -197.5 32.5t-201.5 69.5q-94 -84 -223 -84q-61 0 -102.5 23.5t-41.5 66.5zM51 -4q0 -39 31 -62.5t78 -23.5q92 2 172 80 q-31 14 -96.5 34.5t-114.5 20.5q-70 0 -70 -49zM725 1638q0 8 4 18.5t11.5 18.5t16.5 13.5t18 5.5t16 -6q41 -33 116.5 -81t129 -87t71.5 -70q4 -4 4 -8q0 -2 -2 -3t-6 -1q-29 0 -138.5 54t-222.5 116q-18 10 -18 30z" />
<glyph unicode="&#xcd;" horiz-adv-x="937" d="M18 -29q0 49 48.5 94.5t115.5 45.5q70 0 197 -56q86 104 168 281.5t129 317t103.5 324.5t68.5 224q-6 0 -113.5 20.5t-156.5 20.5q-57 0 -100.5 -14.5t-68 -42t-24.5 -64.5q0 -78 96 -174q6 -6 11.5 -13t8.5 -14.5t3 -11.5t-1 -5t-5 -1q-14 0 -56 37q-111 102 -110 197 q0 80 75.5 129t202.5 49q27 0 56.5 -2t60.5 -8q10 -2 93 -18.5t163 -29t133 -12.5q61 0 76 19q6 6 12 8q12 0 13 -17q0 -6 -3.5 -14t-11.5 -19.5t-20 -21.5q-16 -14 -41 -21.5t-60 -7.5q-41 0 -153 19q-4 -10 -49 -171t-78 -257t-90.5 -250t-127 -274.5t-147.5 -206.5 q197 -88 359 -88q123 0 123 57q0 16 -8.5 34.5t-16.5 34t-8 19.5q0 8 4 15.5t10 5.5q16 -6 28.5 -37t12.5 -68q0 -59 -37 -100t-119 -41q-78 0 -197.5 32.5t-201.5 69.5q-94 -84 -223 -84q-61 0 -102.5 23.5t-41.5 66.5zM51 -4q0 -39 31 -62.5t78 -23.5q92 2 172 80 q-31 14 -96.5 34.5t-114.5 20.5q-70 0 -70 -49zM848 1413q0 37 274 295q6 6 12.5 8t12.5 2q18 0 33.5 -18.5t15.5 -36.5q0 -8 -3 -14.5t-9 -10.5q-45 -29 -114 -86t-122 -96t-88 -47h-6q-6 0 -6 4z" />
<glyph unicode="&#xce;" horiz-adv-x="937" d="M18 -29q0 49 48.5 94.5t115.5 45.5q70 0 197 -56q86 104 168 281.5t129 317t103.5 324.5t68.5 224q-6 0 -113.5 20.5t-156.5 20.5q-57 0 -100.5 -14.5t-68 -42t-24.5 -64.5q0 -78 96 -174q6 -6 11.5 -13t8.5 -14.5t3 -11.5t-1 -5t-5 -1q-14 0 -56 37q-111 102 -110 197 q0 80 75.5 129t202.5 49q27 0 56.5 -2t60.5 -8q10 -2 93 -18.5t163 -29t133 -12.5q61 0 76 19q6 6 12 8q12 0 13 -17q0 -6 -3.5 -14t-11.5 -19.5t-20 -21.5q-16 -14 -41 -21.5t-60 -7.5q-41 0 -153 19q-4 -10 -49 -171t-78 -257t-90.5 -250t-127 -274.5t-147.5 -206.5 q197 -88 359 -88q123 0 123 57q0 16 -8.5 34.5t-16.5 34t-8 19.5q0 8 4 15.5t10 5.5q16 -6 28.5 -37t12.5 -68q0 -59 -37 -100t-119 -41q-78 0 -197.5 32.5t-201.5 69.5q-94 -84 -223 -84q-61 0 -102.5 23.5t-41.5 66.5zM51 -4q0 -39 31 -62.5t78 -23.5q92 2 172 80 q-31 14 -96.5 34.5t-114.5 20.5q-70 0 -70 -49zM745 1464q0 2 2.5 7.5t6.5 11.5q20 25 128.5 126t127.5 105q10 -4 69.5 -97t77.5 -128q2 -6 2 -14q0 -4 -1 -7.5t-3 -5.5t-6 -2h-2t-4 2q-27 23 -83 84.5t-77 91.5q-27 -25 -115 -95t-106 -81q-6 -4 -10 -4q-6 0 -7 6z" />
<glyph unicode="&#xcf;" horiz-adv-x="937" d="M18 -29q0 49 48.5 94.5t115.5 45.5q70 0 197 -56q86 104 168 281.5t129 317t103.5 324.5t68.5 224q-6 0 -113.5 20.5t-156.5 20.5q-57 0 -100.5 -14.5t-68 -42t-24.5 -64.5q0 -78 96 -174q6 -6 11.5 -13t8.5 -14.5t3 -11.5t-1 -5t-5 -1q-14 0 -56 37q-111 102 -110 197 q0 80 75.5 129t202.5 49q27 0 56.5 -2t60.5 -8q10 -2 93 -18.5t163 -29t133 -12.5q61 0 76 19q6 6 12 8q12 0 13 -17q0 -6 -3.5 -14t-11.5 -19.5t-20 -21.5q-16 -14 -41 -21.5t-60 -7.5q-41 0 -153 19q-4 -10 -49 -171t-78 -257t-90.5 -250t-127 -274.5t-147.5 -206.5 q197 -88 359 -88q123 0 123 57q0 16 -8.5 34.5t-16.5 34t-8 19.5q0 8 4 15.5t10 5.5q16 -6 28.5 -37t12.5 -68q0 -59 -37 -100t-119 -41q-78 0 -197.5 32.5t-201.5 69.5q-94 -84 -223 -84q-61 0 -102.5 23.5t-41.5 66.5zM51 -4q0 -39 31 -62.5t78 -23.5q92 2 172 80 q-31 14 -96.5 34.5t-114.5 20.5q-70 0 -70 -49zM731 1548v19q2 37 48 71.5t77 34.5q10 0 12 -6q0 -25 -14 -77t-14 -56q0 -23 -22.5 -37t-47.5 -14q-39 0 -39 65zM1042 1548v19q0 18 15.5 38.5t35 35t40 23.5t34.5 9q10 0 13 -6q0 -25 -14.5 -77t-14.5 -56q0 -23 -22.5 -37 t-47.5 -14q-39 0 -39 65z" />
<glyph unicode="&#xd0;" horiz-adv-x="1587" d="M25 506q0 6 3 12t7 9t10 6.5t13.5 4.5t16.5 2t17 1h21q33 0 98 -4q33 401 108 698h-8h-8q-16 0 -34.5 -1t-36 -3t-27.5 -6q-4 -2 -8 -2q-14 0 -15 20q0 23 20.5 45.5t53.5 22.5h80q10 57 37 84q43 23 76 22q14 0 21 -5t7 -17q-16 -37 -31 -78q43 2 91 2q90 0 181 -10.5 t184 -34t178 -58t160 -86t128 -113t85 -142t32 -170.5q0 -150 -103 -295q-98 -137 -277 -238.5t-357.5 -145.5t-329.5 -44q-217 0 -228 79q-2 12 3.5 19.5t23.5 1.5q-16 78 -16 209q0 78 6 176q-39 -2 -109 -2q-18 0 -34.5 5t-27.5 14.5t-11 21.5zM291 342.5 q0 -64.5 4 -127.5q4 -139 63 -160q51 -18 121 -18q188 0 429 112.5t349 253.5q152 195 152 369q0 180 -171 293t-439 152q-170 25 -291 24q-20 0 -41 -1t-41 -1q-102 -350 -127 -702q39 0 103.5 -1t105.5 -1q31 0 31 -9q0 -12 -31 -20q-53 -18 -213 -33q-4 -66 -4 -130.5z " />
<glyph unicode="&#xd1;" horiz-adv-x="1978" d="M33 227q0 37 8 67t18 30q16 0 21 -56q0 -25 9 -64.5t26.5 -92t48.5 -105.5t68.5 -97t95 -73t121.5 -29q8 0 15 1.5t13 1.5q84 8 169 97t151.5 211t135 295t110.5 302t89.5 280.5t59.5 188.5q-41 12 -179.5 42.5t-181.5 37.5q-104 16 -182 16q-49 0 -86 -7t-60.5 -20.5 t-34.5 -31t-11 -41.5q0 -70 93 -169.5t255 -201.5q10 -6 7 -13.5t-17 -4.5q-170 41 -272.5 144t-102.5 212q0 90 76.5 147.5t224.5 57.5q35 0 75 -4.5t84 -11.5t81.5 -15t85 -20.5t76 -19.5t71.5 -18.5t55 -15.5q14 -4 28.5 -9t27 -11t22.5 -12.5t16.5 -12.5t6.5 -12 q0 -8 -17.5 -13.5t-54.5 -5.5h-14q-6 -18 -50.5 -159.5t-86.5 -269.5t-102 -285.5t-107 -247.5q-117 -219 -246 -345t-260 -126q-160 0 -301 201q-78 110 -78 288zM1255 1061q0 20 13.5 35.5t27.5 15.5q16 0 26.5 -16.5t12.5 -48.5q12 -164 30.5 -322t48.5 -336t74 -286.5 t95 -108.5q94 0 209 409q20 70 35.5 163t25 183.5t13.5 170t4 139.5v25.5v21.5q-20 31 -30.5 47t-24 43t-18.5 53.5t-5 57.5q0 8 1 16t2 15.5t3 13.5t5 11t6 8t6.5 5t7.5 2q8 0 16 -6t19 -18q23 -27 75 -166q93 -241 156 -264q12 -10 12 -17q-4 -8 -18 -10q-16 0 -31 8 q-49 23 -125 123q-25 -401 -94 -657q-66 -242 -130.5 -353.5t-123.5 -111.5q-63 0 -124.5 126t-104.5 306t-69 377.5t-26 345.5zM1360 1483q0 14 33.5 43.5t54.5 40.5q33 20 74 20q35 0 98 -21.5t96 -21.5q49 0 86 43q12 0 13 -8q0 -14 -30 -43t-52 -43q-27 -16 -56 -16 q-37 0 -102.5 27.5t-99.5 27.5q-35 0 -68 -26.5t-43 -26.5q-2 0 -3 1t-1 3z" />
<glyph unicode="&#xd2;" horiz-adv-x="1630" d="M16 395q0 350 316 680q-104 -37 -148 -61q-10 -4 -18 -8.5t-16.5 -8.5t-15.5 -6t-13 -4t-11.5 -3t-8.5 -2t-7 -1q-8 2 -10 6q0 23 84 66q123 66 252 104q236 201 516 238q4 0 8 1t8 1t9.5 1t9.5 1h8h9t9 1t9.5 1h9.5q160 0 160 -80q0 -45 -56 -109q494 -66 494 -510 q0 -150 -60.5 -284.5t-162 -234t-230.5 -173t-271 -110.5t-280 -37q-123 0 -228.5 31.5t-188 95t-130 168t-47.5 237.5zM125 422q0 -102 27.5 -187t75.5 -143.5t115 -98.5t144.5 -59.5t165.5 -19.5q119 0 242 35t234.5 103.5t199.5 160.5t140.5 219t52.5 268 q0 184 -120 316.5t-308 152.5q-14 -18 -51 -57t-122 -107.5t-161 -107.5q-94 -45 -115 -45q-6 0 -6 2q0 20 113 94q160 106 278 226q-47 2 -98 2q-117 0 -231.5 -15.5t-219.5 -40.5q-180 -164 -268 -345t-88 -353zM582 1198q143 29 305 29q41 0 85 -2t89 -6q27 49 26 75 q0 43 -77 43h-16.5t-17.5 -1t-20 -1q-205 -20 -374 -137zM852 1677q0 8 4 18.5t11 18.5t16.5 13.5t18.5 5.5t16 -7q41 -33 116.5 -81t129 -86.5t71.5 -69.5q4 -4 4 -8q0 -2 -2 -3t-6 -1q-29 0 -138.5 54t-222.5 116q-18 10 -18 30z" />
<glyph unicode="&#xd3;" horiz-adv-x="1630" d="M16 395q0 350 316 680q-104 -37 -148 -61q-10 -4 -18 -8.5t-16.5 -8.5t-15.5 -6t-13 -4t-11.5 -3t-8.5 -2t-7 -1q-8 2 -10 6q0 23 84 66q123 66 252 104q236 201 516 238q4 0 8 1t8 1t9.5 1t9.5 1h8h9t9 1t9.5 1h9.5q160 0 160 -80q0 -45 -56 -109q494 -66 494 -510 q0 -150 -60.5 -284.5t-162 -234t-230.5 -173t-271 -110.5t-280 -37q-123 0 -228.5 31.5t-188 95t-130 168t-47.5 237.5zM125 422q0 -102 27.5 -187t75.5 -143.5t115 -98.5t144.5 -59.5t165.5 -19.5q119 0 242 35t234.5 103.5t199.5 160.5t140.5 219t52.5 268 q0 184 -120 316.5t-308 152.5q-14 -18 -51 -57t-122 -107.5t-161 -107.5q-94 -45 -115 -45q-6 0 -6 2q0 20 113 94q160 106 278 226q-47 2 -98 2q-117 0 -231.5 -15.5t-219.5 -40.5q-180 -164 -268 -345t-88 -353zM582 1198q143 29 305 29q41 0 85 -2t89 -6q27 49 26 75 q0 43 -77 43h-16.5t-17.5 -1t-20 -1q-205 -20 -374 -137zM973 1436q0 37 274 295q6 6 12.5 8t12.5 2t14 -3t14.5 -9.5t10.5 -13.5t7 -15t3 -15.5t-3 -13.5t-9 -10q-45 -29 -114 -86t-122 -96t-88 -47h-6q-6 0 -6 4z" />
<glyph unicode="&#xd4;" horiz-adv-x="1630" d="M16 395q0 350 316 680q-104 -37 -148 -61q-10 -4 -18 -8.5t-16.5 -8.5t-15.5 -6t-13 -4t-11.5 -3t-8.5 -2t-7 -1q-8 2 -10 6q0 23 84 66q123 66 252 104q236 201 516 238q4 0 8 1t8 1t9.5 1t9.5 1h8h9t9 1t9.5 1h9.5q160 0 160 -80q0 -45 -56 -109q494 -66 494 -510 q0 -150 -60.5 -284.5t-162 -234t-230.5 -173t-271 -110.5t-280 -37q-123 0 -228.5 31.5t-188 95t-130 168t-47.5 237.5zM125 422q0 -102 27.5 -187t75.5 -143.5t115 -98.5t144.5 -59.5t165.5 -19.5q119 0 242 35t234.5 103.5t199.5 160.5t140.5 219t52.5 268 q0 184 -120 316.5t-308 152.5q-14 -18 -51 -57t-122 -107.5t-161 -107.5q-94 -45 -115 -45q-6 0 -6 2q0 20 113 94q160 106 278 226q-47 2 -98 2q-117 0 -231.5 -15.5t-219.5 -40.5q-180 -164 -268 -345t-88 -353zM582 1198q143 29 305 29q41 0 85 -2t89 -6q27 49 26 75 q0 43 -77 43h-16.5t-17.5 -1t-20 -1q-205 -20 -374 -137zM860 1485q0 2 2 7t6 11q20 25 129 126.5t127 105.5q10 -4 69.5 -97.5t78.5 -128.5q2 -6 2 -14q-2 -12 -10 -14h-2q-3 0 -5 2q-27 23 -83 84t-76 92q-27 -25 -115 -95.5t-106 -80.5q-6 -4 -11 -4q-6 0 -6 6z" />
<glyph unicode="&#xd5;" horiz-adv-x="1630" d="M16 395q0 350 316 680q-104 -37 -148 -61q-10 -4 -18 -8.5t-16.5 -8.5t-15.5 -6t-13 -4t-11.5 -3t-8.5 -2t-7 -1q-8 2 -10 6q0 23 84 66q123 66 252 104q236 201 516 238q4 0 8 1t8 1t9.5 1t9.5 1h8h9t9 1t9.5 1h9.5q160 0 160 -80q0 -45 -56 -109q494 -66 494 -510 q0 -150 -60.5 -284.5t-162 -234t-230.5 -173t-271 -110.5t-280 -37q-123 0 -228.5 31.5t-188 95t-130 168t-47.5 237.5zM125 422q0 -102 27.5 -187t75.5 -143.5t115 -98.5t144.5 -59.5t165.5 -19.5q119 0 242 35t234.5 103.5t199.5 160.5t140.5 219t52.5 268 q0 184 -120 316.5t-308 152.5q-14 -18 -51 -57t-122 -107.5t-161 -107.5q-94 -45 -115 -45q-6 0 -6 2q0 20 113 94q160 106 278 226q-47 2 -98 2q-117 0 -231.5 -15.5t-219.5 -40.5q-180 -164 -268 -345t-88 -353zM582 1198q143 29 305 29q41 0 85 -2t89 -6q27 49 26 75 q0 43 -77 43h-16.5t-17.5 -1t-20 -1q-205 -20 -374 -137zM731 1559q0 14 34 43.5t54 39.5q33 20 74 21q35 0 98.5 -21.5t95.5 -21.5q49 0 87 43q12 0 12 -8q0 -14 -30 -43t-52 -43q-27 -16 -55 -17q-37 0 -102.5 28t-100.5 28t-68 -27t-43 -27q-4 0 -4 5z" />
<glyph unicode="&#xd6;" horiz-adv-x="1630" d="M16 395q0 350 316 680q-104 -37 -148 -61q-10 -4 -18 -8.5t-16.5 -8.5t-15.5 -6t-13 -4t-11.5 -3t-8.5 -2t-7 -1q-8 2 -10 6q0 23 84 66q123 66 252 104q236 201 516 238q4 0 8 1t8 1t9.5 1t9.5 1h8h9t9 1t9.5 1h9.5q160 0 160 -80q0 -45 -56 -109q494 -66 494 -510 q0 -150 -60.5 -284.5t-162 -234t-230.5 -173t-271 -110.5t-280 -37q-123 0 -228.5 31.5t-188 95t-130 168t-47.5 237.5zM125 422q0 -102 27.5 -187t75.5 -143.5t115 -98.5t144.5 -59.5t165.5 -19.5q119 0 242 35t234.5 103.5t199.5 160.5t140.5 219t52.5 268 q0 184 -120 316.5t-308 152.5q-14 -18 -51 -57t-122 -107.5t-161 -107.5q-94 -45 -115 -45q-6 0 -6 2q0 20 113 94q160 106 278 226q-47 2 -98 2q-117 0 -231.5 -15.5t-219.5 -40.5q-180 -164 -268 -345t-88 -353zM582 1198q143 29 305 29q41 0 85 -2t89 -6q27 49 26 75 q0 43 -77 43h-16.5t-17.5 -1t-20 -1q-205 -20 -374 -137zM788 1585v19q2 37 48.5 71.5t76.5 34.5q10 0 13 -6q0 -25 -14.5 -77t-14.5 -56q0 -23 -22.5 -37t-47.5 -14q-39 0 -39 65zM1100 1585v9v10q0 18 15 38.5t34.5 35t40 23.5t35.5 9q10 0 12 -6q0 -25 -14.5 -77 t-14.5 -56q0 -23 -22.5 -37t-46.5 -14q-39 0 -39 65z" />
<glyph unicode="&#xd7;" horiz-adv-x="901" d="M186 217q0 10 7 16q51 51 112 117l127 131q-55 55 -122.5 127t-116.5 121q-2 4 -4.5 8t-2.5 8q0 14 9.5 26.5t21.5 12.5q10 0 19 -8l239 -254l152 152q113 113 151 125h6q6 0 7 -6q0 -29 -52 -82l-225 -230q53 -55 140 -137t106 -100q29 -31 28 -51q0 -18 -18 -19 q-6 0 -10 2q-16 4 -35.5 19.5t-32 26.5t-36 36t-29.5 31q-14 12 -152 149l-239 -252q-8 -8 -19 -8q-12 0 -21.5 12.5t-9.5 26.5z" />
<glyph unicode="&#xd8;" horiz-adv-x="1601" d="M127 508q0 166 68.5 328.5t203.5 287.5q-102 -45 -127 -61l-14 -4q-4 0 -8 2t-7 6t-3 10q0 14 18 23q135 74 219 104q203 195 451 236q34 4 63 4q145 0 146 -76q0 -45 -50 -111q80 -14 93 -18q119 135 188 201q8 8 18 8q8 0 14.5 -5t10.5 -13.5t4 -18.5q0 -8 -3 -16.5 t-9 -16.5q-45 -47 -148 -166q279 -117 279 -452q0 -180 -71.5 -334t-188.5 -253t-262.5 -154.5t-298.5 -55.5q-184 0 -316 68q-43 -78 -55 -119q-12 -37 -12 -66q0 -39 22 -51q8 -4 0 -18q-16 -20 -43 -21q-49 0 -49 66q0 92 78 241q-211 147 -211 445zM225 537 q0 -258 152 -402q92 160 405 598q172 244 363 465q-37 12 -78 19q-8 -8 -14 -14.5t-12.5 -10.5t-10.5 -7t-8 -4t-6 -1q-4 0 -7 2t-3 6q0 16 18 33q-41 2 -84 2q-213 -1 -422 -58q-150 -113 -221.5 -279.5t-71.5 -348.5zM432 92q119 -80 295 -80q123 0 247 51.5t228.5 142.5 t171 235.5t66.5 312.5q0 133 -60.5 242.5t-162.5 168.5q-217 -258 -439.5 -562t-345.5 -511zM584 1235q115 37 301 37q86 0 168 -8q18 43 18 69q0 49 -78 49q-20 0 -47 -2q-94 -10 -194.5 -51t-167.5 -94z" />
<glyph unicode="&#xd9;" horiz-adv-x="1812" d="M29 532q0 172 93 327t236.5 255t306 158.5t308.5 58.5q205 0 205 -155q0 -57 -26 -139.5t-54.5 -146t-106.5 -226.5q-20 -43 -30 -66q-4 -6 -20.5 -42t-32 -67.5t-37 -79t-38 -89t-33 -87t-24.5 -84t-8 -65.5q0 -63 47 -64q16 0 41 9.5t59.5 30t77.5 53.5 q203 154 494 548t348 562q31 39 76 39q23 0 37 -19.5t14 -64.5q-39 -59 -162 -379t-164 -461q-61 -217 -61 -289t51 -72q45 0 148 84q25 23 34 23q8 0 8.5 -10.5t-7 -25.5t-11.5 -17q-166 -150 -266 -150q-59 0 -59 88q0 96 92 406q94 307 209 577q-145 -238 -393 -515 t-410 -402q-72 -55 -129.5 -84t-98.5 -29t-63.5 27.5t-22.5 75.5q0 31 7.5 67.5t24 85.5t27.5 82t38.5 94.5t37 82t40.5 85.5l30 66q2 6 25.5 53l39 78t41 87t43 101t35 97.5t26.5 97.5t9 82q0 57 -30.5 76.5t-108.5 19.5q-186 0 -378.5 -108.5t-320.5 -290t-128 -371.5 q0 -88 37.5 -143.5t115.5 -55.5q86 0 161 33t115 72t69.5 71.5t35.5 32.5t8 -18q-20 -88 -128.5 -164t-258.5 -76q-98 0 -169.5 69.5t-71.5 200.5zM1298 1612q0 8 4.5 18t11.5 18.5t16 13.5t18.5 5t15.5 -6q41 -33 116.5 -81t129 -87t71.5 -70q4 -4 5 -8q0 -2 -2.5 -3 t-6.5 -1q-29 0 -138 54.5t-222 115.5q-18 10 -19 31z" />
<glyph unicode="&#xda;" horiz-adv-x="1812" d="M29 532q0 172 93 327t236.5 255t306 158.5t308.5 58.5q205 0 205 -155q0 -57 -26 -139.5t-54.5 -146t-106.5 -226.5q-20 -43 -30 -66q-4 -6 -20.5 -42t-32 -67.5t-37 -79t-38 -89t-33 -87t-24.5 -84t-8 -65.5q0 -63 47 -64q16 0 41 9.5t59.5 30t77.5 53.5 q203 154 494 548t348 562q31 39 76 39q23 0 37 -19.5t14 -64.5q-39 -59 -162 -379t-164 -461q-61 -217 -61 -289t51 -72q45 0 148 84q25 23 34 23q8 0 8.5 -10.5t-7 -25.5t-11.5 -17q-166 -150 -266 -150q-59 0 -59 88q0 96 92 406q94 307 209 577q-145 -238 -393 -515 t-410 -402q-72 -55 -129.5 -84t-98.5 -29t-63.5 27.5t-22.5 75.5q0 31 7.5 67.5t24 85.5t27.5 82t38.5 94.5t37 82t40.5 85.5l30 66q2 6 25.5 53l39 78t41 87t43 101t35 97.5t26.5 97.5t9 82q0 57 -30.5 76.5t-108.5 19.5q-186 0 -378.5 -108.5t-320.5 -290t-128 -371.5 q0 -88 37.5 -143.5t115.5 -55.5q86 0 161 33t115 72t69.5 71.5t35.5 32.5t8 -18q-20 -88 -128.5 -164t-258.5 -76q-98 0 -169.5 69.5t-71.5 200.5zM1460 1423q0 37 275 295q12 10 24 11q6 0 12.5 -2.5t11.5 -6.5t10 -10t8 -12t5 -12.5t2 -12.5q0 -8 -3 -14t-9 -10 q-45 -29 -113.5 -86.5t-122 -96.5t-87.5 -47h-7q-6 0 -6 4z" />
<glyph unicode="&#xdb;" horiz-adv-x="1812" d="M29 532q0 172 93 327t236.5 255t306 158.5t308.5 58.5q205 0 205 -155q0 -57 -26 -139.5t-54.5 -146t-106.5 -226.5q-20 -43 -30 -66q-4 -6 -20.5 -42t-32 -67.5t-37 -79t-38 -89t-33 -87t-24.5 -84t-8 -65.5q0 -63 47 -64q16 0 41 9.5t59.5 30t77.5 53.5 q203 154 494 548t348 562q31 39 76 39q23 0 37 -19.5t14 -64.5q-39 -59 -162 -379t-164 -461q-61 -217 -61 -289t51 -72q45 0 148 84q25 23 34 23q8 0 8.5 -10.5t-7 -25.5t-11.5 -17q-166 -150 -266 -150q-59 0 -59 88q0 96 92 406q94 307 209 577q-145 -238 -393 -515 t-410 -402q-72 -55 -129.5 -84t-98.5 -29t-63.5 27.5t-22.5 75.5q0 31 7.5 67.5t24 85.5t27.5 82t38.5 94.5t37 82t40.5 85.5l30 66q2 6 25.5 53l39 78t41 87t43 101t35 97.5t26.5 97.5t9 82q0 57 -30.5 76.5t-108.5 19.5q-186 0 -378.5 -108.5t-320.5 -290t-128 -371.5 q0 -88 37.5 -143.5t115.5 -55.5q86 0 161 33t115 72t69.5 71.5t35.5 32.5t8 -18q-20 -88 -128.5 -164t-258.5 -76q-98 0 -169.5 69.5t-71.5 200.5zM1321 1401q0 6 8 18q20 25 129 126.5t127 105.5q10 -4 69.5 -97.5t78.5 -128.5q2 -6 2 -14q-2 -12 -11 -14l-6 2 q-27 23 -83 84t-76 92q-27 -25 -115 -95.5t-107 -80.5q-6 -4 -10 -4q-6 0 -6 6z" />
<glyph unicode="&#xdc;" horiz-adv-x="1812" d="M29 532q0 172 93 327t236.5 255t306 158.5t308.5 58.5q205 0 205 -155q0 -57 -26 -139.5t-54.5 -146t-106.5 -226.5q-20 -43 -30 -66q-4 -6 -20.5 -42t-32 -67.5t-37 -79t-38 -89t-33 -87t-24.5 -84t-8 -65.5q0 -63 47 -64q16 0 41 9.5t59.5 30t77.5 53.5 q203 154 494 548t348 562q31 39 76 39q23 0 37 -19.5t14 -64.5q-39 -59 -162 -379t-164 -461q-61 -217 -61 -289t51 -72q45 0 148 84q25 23 34 23q8 0 8.5 -10.5t-7 -25.5t-11.5 -17q-166 -150 -266 -150q-59 0 -59 88q0 96 92 406q94 307 209 577q-145 -238 -393 -515 t-410 -402q-72 -55 -129.5 -84t-98.5 -29t-63.5 27.5t-22.5 75.5q0 31 7.5 67.5t24 85.5t27.5 82t38.5 94.5t37 82t40.5 85.5l30 66q2 6 25.5 53l39 78t41 87t43 101t35 97.5t26.5 97.5t9 82q0 57 -30.5 76.5t-108.5 19.5q-186 0 -378.5 -108.5t-320.5 -290t-128 -371.5 q0 -88 37.5 -143.5t115.5 -55.5q86 0 161 33t115 72t69.5 71.5t35.5 32.5t8 -18q-20 -88 -128.5 -164t-258.5 -76q-98 0 -169.5 69.5t-71.5 200.5zM1333 1544v7v6.5v5.5q0 18 15.5 38.5t35 35t40 23.5t34.5 9q10 0 12 -6q0 -25 -14 -77t-14 -56q0 -23 -22.5 -37t-47.5 -14 q-39 0 -39 65zM1645 1544v9.5v9.5q0 18 15 38.5t34.5 35t40 23.5t34.5 9q10 0 13 -6q0 -25 -14.5 -77t-14.5 -56q0 -23 -22.5 -37t-47.5 -14q-39 0 -38 65z" />
<glyph unicode="&#xdd;" horiz-adv-x="1955" d="M88 561q0 141 102.5 296t252 272.5t322.5 194.5t308 77q92 0 157.5 -39t65.5 -125q0 -94 -64.5 -254t-142 -305.5t-142 -310t-64.5 -265.5q0 -68 47 -67q94 0 298 209t362.5 415.5t234.5 325.5t162 315q16 39 51 39q31 0 43 -32.5t12 -67.5q0 -207 -186.5 -641 t-345.5 -702q-66 -111 -153 -223.5t-199.5 -229.5t-243.5 -189.5t-250 -72.5q-111 0 -201 63.5t-90 167.5q0 39 14.5 98.5t38.5 65.5q4 -2 7 -6t5.5 -9t3.5 -12.5t1 -13.5v-14q0 -16 -2.5 -43t-2.5 -33q0 -90 76 -140t172 -50q106 0 221 68.5t217.5 181t175 211t136.5 202.5 q74 119 142.5 269.5t108.5 256t106.5 295t97.5 269.5q-76 -127 -292 -381t-470 -483.5t-371 -229.5q-66 0 -66 90q0 115 72 294t157 336t156.5 331t71.5 282q0 61 -37 81t-104 20q-133 0 -288 -75t-282 -189.5t-211.5 -264t-84.5 -284.5q0 -201 202 -201q51 0 96.5 13t84 42 t59 46.5t52.5 53t34 37.5q31 31 31 0q0 -23 -29 -59q-57 -82 -158.5 -135t-202.5 -53q-119 0 -196.5 81.5t-77.5 200.5zM1622 1430q0 37 274 294q4 4 8.5 6.5t8.5 3.5t8 1q18 0 33.5 -18.5t15.5 -37.5q0 -8 -3 -14t-9 -10q-45 -29 -113.5 -86.5t-122 -96t-88.5 -47.5h-3h-3 q-6 0 -6 5z" />
<glyph unicode="&#xde;" horiz-adv-x="610" d="M-131 -444q0 104 221 714q-10 23 -10 47q0 66 61 103q190 584 217 686q0 2 -31.5 7t-29.5 20q0 23 43 38l43 17q35 94 52.5 140t30.5 72.5t15 29t17 16.5q23 23 49 22q14 0 24.5 -10t10.5 -28q0 -23 -13 -50l-77 -186q125 -80 216 -257t91 -386q0 -186 -109.5 -306 t-300.5 -120q-152 0 -231 68q-78 -158 -154 -510q-2 -10 -2 -21q0 -16 8 -37.5t8 -36.5q0 -27 -22 -65q-4 -6 -10 -13.5t-12.5 -11.5t-14.5 -8t-16.5 -6t-16.5 -2q-25 0 -41 18.5t-16 55.5zM193 254q73 -76 194 -76q78 0 136.5 33t92 89t50 122.5t16.5 140.5q0 55 -8 111 q-41 268 -209 413q-66 -147 -272 -833z" />
<glyph unicode="&#xdf;" horiz-adv-x="1249" d="M-289 -287q0 61 27 74q10 6 19.5 2t4.5 -25q-2 -8 -2 -20q0 -31 15 -61q16 -33 49 -49.5t67 -16.5q119 0 199 211q57 141 150.5 451.5t124.5 429.5h-134q-14 0 -20 3t-6 9q0 10 14 20.5t29 10.5h131q96 342 135 426q84 182 309 182q156 0 240 -76q88 -80 88 -151 q0 -125 -248 -226q-49 -20 -79.5 -34.5t-67.5 -38t-55.5 -51t-18.5 -60.5q0 -14 4 -31q4 -16 15.5 -32.5t31 -32t36.5 -26.5t48 -26.5t48.5 -23.5t53 -23.5t50.5 -21.5q18 -10 33.5 -17.5t34 -17.5t31.5 -20.5t27.5 -21.5t24.5 -23.5t18.5 -26.5t12.5 -29.5t4 -32.5 q0 -6 -1 -11t-1 -9q-18 -127 -165.5 -222t-328.5 -95q-41 0 -72.5 9t-48 25.5t-24.5 35t-8 38.5q0 31 14.5 48.5t48.5 17.5q6 0 8.5 -8.5t5.5 -25t9 -26.5q37 -59 149 -59h9.5h11.5q102 0 187 54t104 149q2 12 2 26q0 84 -109 146q-27 16 -126 63t-151.5 86t-64.5 86 q-2 10 -4 19.5t-3 18.5t-1 17q0 70 58.5 127.5t199.5 104.5q88 29 151.5 78t63.5 110q0 63 -74 129q-80 68 -186 68q-57 0 -107.5 -25.5t-78.5 -77.5q-68 -117 -172 -505q-133 -492 -213 -742q-29 -90 -66 -159.5t-74 -112.5t-79 -69.5t-76.5 -37t-71.5 -10.5q-76 0 -118 37 t-42 98z" />
<glyph unicode="&#xe0;" horiz-adv-x="673" d="M12 68q0 94 56.5 254.5t138.5 290.5t143 130h6l23 17q18 20 57 20q31 0 86.5 -16t61.5 -16q8 0 21 16t32 16q51 0 51 -45q0 -18 -7 -40.5t-20.5 -52.5t-15.5 -36q-2 -4 -19.5 -12t-19.5 -14q-45 -127 -79.5 -271.5t-34.5 -177.5q0 -51 28.5 -51t70.5 35t72.5 69.5 t32.5 34.5q4 0 4 -8q0 -31 -20 -47q-2 -2 -18.5 -17.5t-26.5 -23.5t-29.5 -25.5t-34 -28t-35 -24.5t-36 -21.5t-31.5 -13.5t-31 -6q-43 0 -51 51q0 86 68 318q-274 -379 -394 -379q-49 0 -49 74zM106 125q0 -35 21 -35q43 0 152.5 125t144.5 178q51 82 94 177.5t43 125.5 q0 12 -10 13h-6q-12 0 -42 4t-50 4q-29 0 -62 -8q-51 -14 -168 -242.5t-117 -341.5zM334 1137q0 8 4 18t11 18.5t16.5 13.5t18.5 5t15 -6q41 -33 117 -81t129.5 -87t71.5 -70q2 -2 3 -4t1 -4q-4 -4 -8 -4q-53 0 -361 170q-18 10 -18 31z" />
<glyph unicode="&#xe1;" horiz-adv-x="673" d="M12 68q0 94 56.5 254.5t138.5 290.5t143 130h6l23 17q18 20 57 20q31 0 86.5 -16t61.5 -16q8 0 21 16t32 16q51 0 51 -45q0 -18 -7 -40.5t-20.5 -52.5t-15.5 -36q-2 -4 -19.5 -12t-19.5 -14q-45 -127 -79.5 -271.5t-34.5 -177.5q0 -51 28.5 -51t70.5 35t72.5 69.5 t32.5 34.5q4 0 4 -8q0 -31 -20 -47q-2 -2 -18.5 -17.5t-26.5 -23.5t-29.5 -25.5t-34 -28t-35 -24.5t-36 -21.5t-31.5 -13.5t-31 -6q-43 0 -51 51q0 86 68 318q-274 -379 -394 -379q-49 0 -49 74zM106 125q0 -35 21 -35q43 0 152.5 125t144.5 178q51 82 94 177.5t43 125.5 q0 12 -10 13h-6q-12 0 -42 4t-50 4q-29 0 -62 -8q-51 -14 -168 -242.5t-117 -341.5zM469 918q0 37 274 294q6 6 12.5 8.5t12.5 2.5q18 0 33.5 -18.5t15.5 -37.5q0 -8 -3 -14t-9 -10q-45 -29 -113.5 -86.5t-122 -96t-88.5 -47.5h-6q-4 2 -6 5z" />
<glyph unicode="&#xe2;" horiz-adv-x="673" d="M12 68q0 94 56.5 254.5t138.5 290.5t143 130h6l23 17q18 20 57 20q31 0 86.5 -16t61.5 -16q8 0 21 16t32 16q51 0 51 -45q0 -18 -7 -40.5t-20.5 -52.5t-15.5 -36q-2 -4 -19.5 -12t-19.5 -14q-45 -127 -79.5 -271.5t-34.5 -177.5q0 -51 28.5 -51t70.5 35t72.5 69.5 t32.5 34.5q4 0 4 -8q0 -31 -20 -47q-2 -2 -18.5 -17.5t-26.5 -23.5t-29.5 -25.5t-34 -28t-35 -24.5t-36 -21.5t-31.5 -13.5t-31 -6q-43 0 -51 51q0 86 68 318q-274 -379 -394 -379q-49 0 -49 74zM106 125q0 -35 21 -35q43 0 152.5 125t144.5 178q51 82 94 177.5t43 125.5 q0 12 -10 13h-6q-12 0 -42 4t-50 4q-29 0 -62 -8q-51 -14 -168 -242.5t-117 -341.5zM360 963q0 6 9 18q20 25 128.5 126t127.5 105q10 -4 69.5 -97t77.5 -128q2 -6 2 -14q0 -14 -10 -15l-6 3q-27 23 -83.5 84t-76.5 92q-27 -25 -115 -95.5t-106 -80.5q-6 -4 -10 -5 q-4 0 -5.5 2.5t-1.5 4.5z" />
<glyph unicode="&#xe3;" horiz-adv-x="673" d="M12 68q0 94 56.5 254.5t138.5 290.5t143 130h6l23 17q18 20 57 20q31 0 86.5 -16t61.5 -16q8 0 21 16t32 16q51 0 51 -45q0 -18 -7 -40.5t-20.5 -52.5t-15.5 -36q-2 -4 -19.5 -12t-19.5 -14q-45 -127 -79.5 -271.5t-34.5 -177.5q0 -51 28.5 -51t70.5 35t72.5 69.5 t32.5 34.5q4 0 4 -8q0 -31 -20 -47q-2 -2 -18.5 -17.5t-26.5 -23.5t-29.5 -25.5t-34 -28t-35 -24.5t-36 -21.5t-31.5 -13.5t-31 -6q-43 0 -51 51q0 86 68 318q-274 -379 -394 -379q-49 0 -49 74zM106 125q0 -35 21 -35q43 0 152.5 125t144.5 178q51 82 94 177.5t43 125.5 q0 12 -10 13h-6q-12 0 -42 4t-50 4q-29 0 -62 -8q-51 -14 -168 -242.5t-117 -341.5zM356 1001q0 14 34 44t54 40q33 20 74 21q35 0 98.5 -21.5t96.5 -21.5q49 0 86 43q12 0 12 -8q0 -14 -29.5 -43t-52.5 -43q-27 -16 -55 -17q-37 0 -102.5 28t-100.5 28t-68 -27t-43 -27 q-4 0 -4 4z" />
<glyph unicode="&#xe4;" horiz-adv-x="673" d="M12 68q0 94 56.5 254.5t138.5 290.5t143 130h6l23 17q18 20 57 20q31 0 86.5 -16t61.5 -16q8 0 21 16t32 16q51 0 51 -45q0 -18 -7 -40.5t-20.5 -52.5t-15.5 -36q-2 -4 -19.5 -12t-19.5 -14q-45 -127 -79.5 -271.5t-34.5 -177.5q0 -51 28.5 -51t70.5 35t72.5 69.5 t32.5 34.5q4 0 4 -8q0 -31 -20 -47q-2 -2 -18.5 -17.5t-26.5 -23.5t-29.5 -25.5t-34 -28t-35 -24.5t-36 -21.5t-31.5 -13.5t-31 -6q-43 0 -51 51q0 86 68 318q-274 -379 -394 -379q-49 0 -49 74zM106 125q0 -35 21 -35q43 0 152.5 125t144.5 178q51 82 94 177.5t43 125.5 q0 12 -10 13h-6q-12 0 -42 4t-50 4q-29 0 -62 -8q-51 -14 -168 -242.5t-117 -341.5zM356 1057v18q2 37 48.5 72t76.5 35q10 0 13 -6q0 -25 -14.5 -77.5t-14.5 -56.5q0 -23 -22.5 -37t-47.5 -14q-39 0 -39 66zM668 1057v18q2 37 48 72t77 35q10 0 12 -6q0 -25 -14.5 -77.5 t-14.5 -56.5q0 -14 -11 -26t-27.5 -18.5t-30.5 -6.5q-39 0 -39 66z" />
<glyph unicode="&#xe5;" horiz-adv-x="673" d="M12 68q0 94 56.5 254.5t138.5 290.5t143 130h6l23 17q18 20 57 20q31 0 86.5 -16t61.5 -16q8 0 21 16t32 16q51 0 51 -45q0 -18 -7 -40.5t-20.5 -52.5t-15.5 -36q-2 -4 -19.5 -12t-19.5 -14q-45 -127 -79.5 -271.5t-34.5 -177.5q0 -51 28.5 -51t70.5 35t72.5 69.5 t32.5 34.5q4 0 4 -8q0 -31 -20 -47q-2 -2 -18.5 -17.5t-26.5 -23.5t-29.5 -25.5t-34 -28t-35 -24.5t-36 -21.5t-31.5 -13.5t-31 -6q-43 0 -51 51q0 86 68 318q-274 -379 -394 -379q-49 0 -49 74zM106 125q0 -35 21 -35q43 0 152.5 125t144.5 178q51 82 94 177.5t43 125.5 q0 12 -10 13h-6q-12 0 -42 4t-50 4q-29 0 -62 -8q-51 -14 -168 -242.5t-117 -341.5zM473 965q0 41 22.5 92t57.5 63q29 59 104 60q39 0 63.5 -30t24.5 -71q0 -74 -57 -133t-131 -59q-37 0 -60.5 20.5t-23.5 57.5zM520 983q0 -57 60 -57q51 0 88 47t37 106q-1 70 -54 70 q-31 0 -62.5 -27.5t-50 -65.5t-18.5 -73z" />
<glyph unicode="&#xe6;" horiz-adv-x="962" d="M12 68q0 94 56.5 255.5t138.5 290.5t143 129h3h3l23 17q18 20 57 20q31 0 85 -15t63 -15q6 0 6 4q6 0 18.5 13t28.5 13q45 0 49 -35q31 10 84 11q14 6 27 6q33 0 59.5 -34t36.5 -91q12 -66 12 -100q0 -39 -14 -58q-43 -53 -112.5 -71.5t-145.5 -18.5q-12 0 -27.5 1t-26 1 h-16.5h-4q-31 -82 -49 -152.5t-18 -117.5q0 -82 61 -82q37 0 81 36t99 103l55 66q8 12 17 12q25 0 6 -47q-35 -63 -118 -139t-142 -88q-4 0 -9 -1t-12 -1q-49 0 -92 31.5t-43 105.5q0 25 6 53q18 104 52 201q-41 -57 -81 -108.5t-99.5 -119t-115 -108.5t-96.5 -41 q-47 12 -49 74zM106 125q0 -35 21 -35q43 0 145.5 117t151.5 186q53 88 95 179.5t42 123.5q0 12 -8 13h-6h-2q-12 0 -27.5 2t-32 4t-32.5 2q-29 0 -62 -8q-49 -12 -157.5 -223.5t-124.5 -335.5q-2 -14 -3 -25zM578 449q6 0 19 -1.5t30.5 -2.5t33 -1t30 1t30.5 3.5t31 6.5 q39 10 52 25.5t15 58.5q0 20 -6 51q-12 102 -55 102q-29 0 -70 -51t-68.5 -103.5t-41.5 -88.5z" />
<glyph unicode="&#xe7;" horiz-adv-x="473" d="M-121 -553q0 10 19 16q27 8 74.5 12.5t74.5 9.5t48.5 34.5t21.5 85.5q0 29 -53.5 103.5t-53.5 115.5q0 51 22.5 97t61.5 67q-86 20 -86 141q0 141 92.5 340t159.5 229q31 12 66.5 31t61.5 29t56 10q97 0 97 -96q0 -43 -19.5 -77t-42.5 -34q-25 0 -24 37q0 12 8 45t8 47 q0 33 -35 33q-25 0 -77 -34t-78 -60q-39 -41 -113 -224.5t-74 -283.5q0 -76 60 -76q76 0 151.5 58.5t122.5 119t49 60.5q10 -4 10 -15q0 -49 -100 -153.5t-209 -124.5v-2q-43 -8 -68.5 -45t-25.5 -84q0 -25 59.5 -99.5t59.5 -132.5q0 -68 -53.5 -116t-120 -67t-131.5 -19 q-18 0 -19 22z" />
<glyph unicode="&#xe8;" horiz-adv-x="518" d="M41 117q0 23 6 53q14 78 38 151.5t26 90.5q-31 8 -31 32q0 23 35 23h14q82 162 94 186q57 109 219 109q70 0 97 -125q12 -63 12 -102q0 -45 -31 -77t-80 -45.5t-88 -18.5t-73 -5q-20 0 -46 1t-28 1q-68 -172 -68 -270q0 -82 62 -82q43 0 100 54t100 108.5t52 54.5 q14 0 14 -16q0 -57 -112.5 -158.5t-176.5 -101.5q-51 0 -93 31.5t-42 105.5zM186 1090.5q0 9.5 4.5 19.5t11.5 18.5t16 13.5t18 5q4 0 6 -1t5 -2t5 -3q41 -33 116.5 -81t129 -87t71.5 -70l4 -8q0 -2 -2 -3t-6 -1q-53 0 -360 170q-10 6 -14.5 13t-4.5 16.5zM223 449 q4 0 33 -2.5t49 -2.5q84 0 121 19t39 76q0 51 -10.5 88t-23.5 51t-28 14q-41 0 -97 -88t-83 -155z" />
<glyph unicode="&#xe9;" horiz-adv-x="518" d="M41 117q0 23 6 53q14 78 38 151.5t26 90.5q-31 8 -31 32q0 23 35 23h14q82 162 94 186q57 109 219 109q70 0 97 -125q12 -63 12 -102q0 -45 -31 -77t-80 -45.5t-88 -18.5t-73 -5q-20 0 -46 1t-28 1q-68 -172 -68 -270q0 -82 62 -82q43 0 100 54t100 108.5t52 54.5 q14 0 14 -16q0 -57 -112.5 -158.5t-176.5 -101.5q-51 0 -93 31.5t-42 105.5zM223 449q4 0 33 -2.5t49 -2.5q84 0 121 19t39 76q0 51 -10.5 88t-23.5 51t-28 14q-41 0 -97 -88t-83 -155zM362 864q0 37 275 295q6 6 12 8t13 2q18 0 33.5 -18t15.5 -37q0 -8 -3.5 -14t-9.5 -10 q-45 -29 -113.5 -86.5t-121.5 -96.5t-88 -47h-6q-4 2 -7 4z" />
<glyph unicode="&#xea;" horiz-adv-x="518" d="M41 117q0 23 6 53q14 78 38 151.5t26 90.5q-31 8 -31 32q0 23 35 23h14q82 162 94 186q57 109 219 109q70 0 97 -125q12 -63 12 -102q0 -45 -31 -77t-80 -45.5t-88 -18.5t-73 -5q-20 0 -46 1t-28 1q-68 -172 -68 -270q0 -82 62 -82q43 0 100 54t100 108.5t52 54.5 q14 0 14 -16q0 -57 -112.5 -158.5t-176.5 -101.5q-51 0 -93 31.5t-42 105.5zM223 449q4 0 33 -2.5t49 -2.5q84 0 121 19t39 76q0 51 -10.5 88t-23.5 51t-28 14q-41 0 -97 -88t-83 -155zM260 938q0 6 8 18q20 25 129 126.5t127 105.5q10 -4 69.5 -97.5t78.5 -127.5 q2 -6 2 -15q0 -14 -10 -14q-3 0 -7 2q-27 23 -83 84t-76 92q-27 -25 -115 -95.5t-107 -80.5q-6 -4 -10 -4t-5 2t-1 4z" />
<glyph unicode="&#xeb;" horiz-adv-x="518" d="M41 117q0 23 6 53q14 78 38 151.5t26 90.5q-31 8 -31 32q0 23 35 23h14q82 162 94 186q57 109 219 109q70 0 97 -125q12 -63 12 -102q0 -45 -31 -77t-80 -45.5t-88 -18.5t-73 -5q-20 0 -46 1t-28 1q-68 -172 -68 -270q0 -82 62 -82q43 0 100 54t100 108.5t52 54.5 q14 0 14 -16q0 -57 -112.5 -158.5t-176.5 -101.5q-51 0 -93 31.5t-42 105.5zM223 449q4 0 33 -2.5t49 -2.5q84 0 121 19t39 76q0 51 -10.5 88t-23.5 51t-28 14q-41 0 -97 -88t-83 -155zM238 981v18q2 37 48 72t76 35q10 0 13 -6q0 -25 -14.5 -77t-14.5 -56 q0 -23 -22.5 -37.5t-47.5 -14.5q-39 0 -38 66zM549 981v18q2 37 48 72t77 35q10 0 12 -6q0 -25 -14.5 -77t-14.5 -56q0 -14 -11 -26.5t-27.5 -19t-30.5 -6.5q-39 0 -39 66z" />
<glyph unicode="&#xec;" horiz-adv-x="344" d="M37 25q0 18 8 43q47 137 139 421q4 14 6.5 22.5t2.5 14.5q0 8 -3.5 15.5t-3.5 13.5q0 4 1 10t6 15q37 102 57 141q10 20 32.5 37.5t47 27t45.5 9.5q12 0 20.5 -5.5t10.5 -13.5q-4 -6 -28 -51t-40 -78t-45 -96.5t-51.5 -120.5t-47 -137t-42.5 -160q-2 -10 -2 -16 q0 -12 5 -18.5t15 -6.5q25 0 72 33q12 10 24.5 16t22.5 10.5t18 4.5q6 0 10.5 -3t6.5 -8q0 -12 -21.5 -29.5t-59.5 -41t-57 -39.5q-57 -47 -110 -47q-12 0 -20.5 3t-13.5 12t-5 22zM131 1149q0 18 16.5 36.5t32.5 18.5q4 0 6 -1t5.5 -2t5.5 -3q41 -33 116.5 -81t129 -86.5 t71.5 -69.5q4 -4 4 -9q-4 -4 -8 -4q-53 0 -360 170q-10 6 -14.5 13.5t-4.5 17.5z" />
<glyph unicode="&#xed;" horiz-adv-x="344" d="M37 25q0 18 8 43q47 137 139 421q4 14 6.5 22.5t2.5 14.5q0 8 -3.5 15.5t-3.5 13.5q0 4 1 10t6 15q37 102 57 141q10 20 32.5 37.5t47 27t45.5 9.5q12 0 20.5 -5.5t10.5 -13.5q-4 -6 -28 -51t-40 -78t-45 -96.5t-51.5 -120.5t-47 -137t-42.5 -160q-2 -10 -2 -16 q0 -12 5 -18.5t15 -6.5q25 0 72 33q12 10 24.5 16t22.5 10.5t18 4.5q6 0 10.5 -3t6.5 -8q0 -12 -21.5 -29.5t-59.5 -41t-57 -39.5q-57 -47 -110 -47q-12 0 -20.5 3t-13.5 12t-5 22zM313 930q0 37 275 295q6 6 12 8t12 2q18 0 34 -18.5t16 -36.5q0 -8 -3.5 -14.5t-9.5 -10.5 q-45 -29 -113.5 -86t-122 -96t-87.5 -47h-7q-4 2 -6 4z" />
<glyph unicode="&#xee;" horiz-adv-x="344" d="M37 25q0 18 8 43q47 137 139 421q4 14 6.5 22.5t2.5 14.5q0 8 -3.5 15.5t-3.5 13.5q0 4 1 10t6 15q37 102 57 141q10 20 32.5 37.5t47 27t45.5 9.5q12 0 20.5 -5.5t10.5 -13.5q-4 -6 -28 -51t-40 -78t-45 -96.5t-51.5 -120.5t-47 -137t-42.5 -160q-2 -10 -2 -16 q0 -12 5 -18.5t15 -6.5q25 0 72 33q12 10 24.5 16t22.5 10.5t18 4.5q6 0 10.5 -3t6.5 -8q0 -12 -21.5 -29.5t-59.5 -41t-57 -39.5q-57 -47 -110 -47q-12 0 -20.5 3t-13.5 12t-5 22zM178 936q0 2 2 7t6 11q20 25 129 126.5t127 105.5q10 -4 69.5 -97.5t78.5 -127.5 q2 -6 2 -15q0 -14 -10 -14q-3 0 -7 2q-27 23 -83 84t-76 92q-27 -25 -115 -95.5t-106 -80.5q-6 -4 -11 -4q-4 0 -5 2t-1 4z" />
<glyph unicode="&#xef;" horiz-adv-x="344" d="M37 25q0 18 8 43q47 137 139 421q4 14 6.5 22.5t2.5 14.5q0 8 -3.5 15.5t-3.5 13.5q0 4 1 10t6 15q37 102 57 141q10 20 32.5 37.5t47 27t45.5 9.5q12 0 20.5 -5.5t10.5 -13.5q-4 -6 -28 -51t-40 -78t-45 -96.5t-51.5 -120.5t-47 -137t-42.5 -160q-2 -10 -2 -16 q0 -12 5 -18.5t15 -6.5q25 0 72 33q12 10 24.5 16t22.5 10.5t18 4.5q6 0 10.5 -3t6.5 -8q0 -12 -21.5 -29.5t-59.5 -41t-57 -39.5q-57 -47 -110 -47q-12 0 -20.5 3t-13.5 12t-5 22zM176 1032v19q2 37 48 71.5t77 34.5q10 0 12 -6q0 -25 -14 -77t-14 -56q0 -23 -22.5 -37 t-47.5 -14q-39 0 -39 65zM487 1032v19q2 37 48.5 71.5t76.5 34.5q10 0 13 -6q0 -25 -14.5 -77t-14.5 -56q0 -14 -11.5 -26.5t-27.5 -18.5t-31.5 -6t-24.5 11t-11.5 24.5t-2.5 29.5z" />
<glyph unicode="&#xf0;" horiz-adv-x="634" d="M43 133q0 43 8 94q12 74 50 186.5t112 230.5t152 136q23 4 49 4q29 0 45 -6q-4 86 -119 291q-96 -47 -162 -74l-20 -6q-20 0 -21 21q0 23 27 41q37 25 145 71q-70 111 -121 154q-16 14 -16 34.5t15.5 37t35.5 16.5q29 0 53 -33q68 -88 115 -172q39 16 99.5 41t74.5 31 q16 6 25 6q6 -2 8 -4q0 -4 -8 -12.5t-21 -18.5q-57 -43 -153 -94q123 -248 123 -518q0 -274 -142 -457q-23 -29 -48 -54.5t-51 -45t-50.5 -32.5t-49 -20.5t-44.5 -7.5q-51 0 -81 40t-30 120zM135 123q0 -100 58 -100q37 0 85 44t93 114.5t75.5 172t30.5 203.5v13v11.5v12.5 q0 47 -10 72.5t-43 25.5q-4 0 -7 -1t-7 -1q-4 2 -7.5 2h-7.5q-43 0 -101 -101.5t-98 -211t-53 -170.5q-4 -25 -6 -46.5t-2 -39.5z" />
<glyph unicode="&#xf1;" horiz-adv-x="667" d="M-6 -20q4 -6 76.5 204.5t103.5 304.5q8 25 8 37q0 8 -3 15.5t-3 11.5q0 8 6 27q47 131 80 173t100 42q27 0 31 -19q-168 -344 -200 -491q338 545 518 544q41 0 41 -26q-1 -18 -15 -41q-104 -174 -194 -399.5t-90 -337.5q0 -37 16 -37q6 0 40 20.5t40 20.5q12 0 12 -13 q0 -25 -45 -55.5t-90 -30.5q-59 0 -59 88q0 80 32.5 186.5t102 272.5t69.5 168q10 27 11 41q0 10 -7 10q-10 0 -45 -37q-88 -98 -251.5 -335.5t-167.5 -292.5q-2 -14 -39 -40t-62 -26q-14 0 -16 15zM313 1006q0 14 34 43.5t54 40.5q33 20 74 20q35 0 98.5 -21.5t96.5 -21.5 q49 0 86 43q12 0 12 -8q0 -14 -29.5 -43t-52.5 -43q-27 -16 -55 -17q-37 0 -102.5 28t-100.5 28t-68 -27t-43 -27q-4 0 -4 5z" />
<glyph unicode="&#xf2;" horiz-adv-x="534" d="M43 133q0 47 8 94q10 53 37 137.5t70 182.5t105.5 166.5t125.5 68.5h14q0 29 16.5 49.5t45.5 20.5q29 -2 51.5 -120t65.5 -122q39 -6 39 -22.5t-31 -31.5t-55 -15q0 -240 -125 -410t-248 -170q-119 0 -119 172zM135 123q0 -100 58 -100q82 0 183 166.5t101 367.5 q-18 10 -44.5 72.5t-37.5 62.5q-63 0 -147 -187.5t-105 -295.5q-8 -47 -8 -86zM258 1139q0 8 4 18t11.5 18.5t16.5 13.5t18 5t16 -6q41 -33 116.5 -81t129 -87t71.5 -70q2 -2 3 -4t1 -4t-2 -3t-6 -1q-53 0 -361 170q-6 4 -11 8t-6 10.5t-1 12.5z" />
<glyph unicode="&#xf3;" horiz-adv-x="534" d="M43 133q0 47 8 94q10 53 37 137.5t70 182.5t105.5 166.5t125.5 68.5h14q0 29 16.5 49.5t45.5 20.5q29 -2 51.5 -120t65.5 -122q39 -6 39 -22.5t-31 -31.5t-55 -15q0 -240 -125 -410t-248 -170q-119 0 -119 172zM135 123q0 -100 58 -100q82 0 183 166.5t101 367.5 q-18 10 -44.5 72.5t-37.5 62.5q-63 0 -147 -187.5t-105 -295.5q-8 -47 -8 -86zM373 936q0 37 274 295q6 6 12.5 8t12.5 2q18 0 33.5 -18.5t15.5 -36.5q0 -8 -3 -14.5t-9 -10.5q-45 -29 -114 -86t-122 -96t-88 -47h-6t-4 1t-2 3z" />
<glyph unicode="&#xf4;" horiz-adv-x="534" d="M43 133q0 47 8 94q10 53 37 137.5t70 182.5t105.5 166.5t125.5 68.5h14q0 29 16.5 49.5t45.5 20.5q29 -2 51.5 -120t65.5 -122q39 -6 39 -22.5t-31 -31.5t-55 -15q0 -240 -125 -410t-248 -170q-119 0 -119 172zM135 123q0 -100 58 -100q82 0 183 166.5t101 367.5 q-18 10 -44.5 72.5t-37.5 62.5q-63 0 -147 -187.5t-105 -295.5q-8 -47 -8 -86zM262 973q0 6 8 18q20 25 129 126.5t127 105.5q10 -4 69.5 -97.5t78.5 -128.5q2 -6 2 -14q0 -14 -10 -14q-3 0 -7 2q-27 23 -83 84t-76 92q-27 -25 -115 -95.5t-106 -80.5q-6 -4 -11 -4 q-4 0 -5 2t-1 4z" />
<glyph unicode="&#xf5;" horiz-adv-x="534" d="M43 133q0 47 8 94q10 53 37 137.5t70 182.5t105.5 166.5t125.5 68.5h14q0 29 16.5 49.5t45.5 20.5q29 -2 51.5 -120t65.5 -122q39 -6 39 -22.5t-31 -31.5t-55 -15q0 -240 -125 -410t-248 -170q-119 0 -119 172zM135 123q0 -100 58 -100q82 0 183 166.5t101 367.5 q-18 10 -44.5 72.5t-37.5 62.5q-63 0 -147 -187.5t-105 -295.5q-8 -47 -8 -86zM276 1014q0 14 34 43.5t55 40.5q33 20 73 20q35 0 98.5 -21.5t96.5 -21.5q49 0 86 43q12 0 12 -8q0 -14 -29.5 -43t-52.5 -43q-27 -16 -55 -16q-37 0 -102.5 27.5t-100.5 27.5t-67.5 -26.5 t-42.5 -26.5q-4 0 -5 4z" />
<glyph unicode="&#xf6;" horiz-adv-x="534" d="M43 133q0 47 8 94q10 53 37 137.5t70 182.5t105.5 166.5t125.5 68.5h14q0 29 16.5 49.5t45.5 20.5q29 -2 51.5 -120t65.5 -122q39 -6 39 -22.5t-31 -31.5t-55 -15q0 -240 -125 -410t-248 -170q-119 0 -119 172zM135 123q0 -100 58 -100q82 0 183 166.5t101 367.5 q-18 10 -44.5 72.5t-37.5 62.5q-63 0 -147 -187.5t-105 -295.5q-8 -47 -8 -86zM258 1049v18q2 37 48 72t77 35q10 0 12 -7q0 -25 -14 -77t-14 -56q0 -23 -22.5 -37t-47.5 -14q-39 0 -39 66zM569 1049v18q2 37 48.5 72t76.5 35q10 0 13 -7q0 -25 -14.5 -77t-14.5 -56 q0 -14 -11.5 -26.5t-27.5 -18.5t-31 -6q-39 0 -39 66z" />
<glyph unicode="&#xf7;" horiz-adv-x="831" d="M39 481q0 23 18.5 36t32.5 13h35t74 1t99.5 1h107.5h67.5t70.5 -1t70 -1q133 0 197 7l2 -7q0 -23 -79 -42t-187.5 -33.5t-122.5 -18.5q-12 -2 -68 -2q-109 0 -213 11.5t-104 35.5zM291 287q0 59 78 59q29 0 57.5 -19.5t28.5 -50.5q0 -25 -27 -43t-51 -18 q-35 0 -60.5 21.5t-25.5 50.5zM385 696q0 59 78 60q29 0 57.5 -19.5t28.5 -50.5q0 -25 -26.5 -43t-51.5 -18q-35 0 -60.5 21.5t-25.5 49.5z" />
<glyph unicode="&#xf8;" horiz-adv-x="534" d="M43 131q0 43 8 96q4 20 11.5 50t18.5 68t25.5 79t34 84t40 83t45 74.5t50 61.5t55 41t58.5 14h7h7q0 29 16.5 49.5t45.5 20.5q25 -2 43 -80q99 154 113 154q8 0 16 -8.5t8 -18.5q0 -12 -8 -27q-31 -43 -115 -176q18 -84 60 -86q8 0 14 -2t11 -4t7 -4t4.5 -5t2.5 -7 q0 -16 -31 -31.5t-55 -15.5q0 -123 -38 -234.5t-94.5 -184.5t-121 -117t-119.5 -44q-27 2 -47 10q-35 -80 -35 -116q0 -14 4 -23.5t10 -13.5q14 -8 -22 -25q-27 0 -27 43q0 61 39 158q-41 43 -41 137zM135 109q92 190 291 530q-16 33 -16 51q-4 2 -7.5 2h-7.5 q-43 0 -101 -101.5t-98 -211t-53 -170.5q-4 -16 -5 -30.5t-2 -27t-1 -22.5v-20zM150 45q4 -8 11 -13t14 -7t15 -2q37 0 86.5 44t94.5 113.5t75.5 172t30.5 204.5q-12 6 -24 29q-195 -322 -303 -541z" />
<glyph unicode="&#xf9;" horiz-adv-x="681" d="M14 18q0 31 23 88q0 2 49 111t79 187.5t30 113.5q0 10 -4.5 19.5t-4.5 15.5q0 2 4 22q35 131 66 173.5t102 42.5q29 0 35 -19q-246 -604 -246 -633q0 -8 7 -8q8 0 49 33q205 158 360 442q2 63 39 131t109 68q22 -1 24 -19q-6 -18 -45 -122.5t-63 -176.5 q-37 -104 -79 -253.5t-42 -182.5q0 -6 4 -6q16 0 82.5 51t91.5 51q16 0 16 -10q0 -14 -46 -47t-105.5 -68.5t-65.5 -39.5q-14 -12 -41.5 -42t-51 -49.5t-42.5 -19.5q-27 0 -26 23q0 14 32.5 43.5t42.5 52.5q35 84 140 489q-96 -143 -255 -320t-239 -177q-29 0 -29 36z M315 1147q0 8 4.5 18.5t11.5 18.5t16 13t18.5 5t15.5 -6q41 -33 116.5 -81t129 -87t71.5 -70q2 -2 3 -4t1 -4t-2 -3t-6 -1q-53 0 -360 170q-18 10 -19 31z" />
<glyph unicode="&#xfa;" horiz-adv-x="681" d="M14 18q0 31 23 88q0 2 49 111t79 187.5t30 113.5q0 10 -4.5 19.5t-4.5 15.5q0 2 4 22q35 131 66 173.5t102 42.5q29 0 35 -19q-246 -604 -246 -633q0 -8 7 -8q8 0 49 33q205 158 360 442q2 63 39 131t109 68q22 -1 24 -19q-6 -18 -45 -122.5t-63 -176.5 q-37 -104 -79 -253.5t-42 -182.5q0 -6 4 -6q16 0 82.5 51t91.5 51q16 0 16 -10q0 -14 -46 -47t-105.5 -68.5t-65.5 -39.5q-14 -12 -41.5 -42t-51 -49.5t-42.5 -19.5q-27 0 -26 23q0 14 32.5 43.5t42.5 52.5q35 84 140 489q-96 -143 -255 -320t-239 -177q-29 0 -29 36z M455 883q0 37 274 295q6 6 12.5 8t12.5 2q18 0 33.5 -18.5t15.5 -36.5q0 -8 -3 -14.5t-9 -10.5q-45 -29 -114 -86t-122 -96t-88 -47h-6q-4 2 -6 4z" />
<glyph unicode="&#xfb;" horiz-adv-x="681" d="M14 18q0 31 23 88q0 2 49 111t79 187.5t30 113.5q0 10 -4.5 19.5t-4.5 15.5q0 2 4 22q35 131 66 173.5t102 42.5q29 0 35 -19q-246 -604 -246 -633q0 -8 7 -8q8 0 49 33q205 158 360 442q2 63 39 131t109 68q22 -1 24 -19q-6 -18 -45 -122.5t-63 -176.5 q-37 -104 -79 -253.5t-42 -182.5q0 -6 4 -6q16 0 82.5 51t91.5 51q16 0 16 -10q0 -14 -46 -47t-105.5 -68.5t-65.5 -39.5q-14 -12 -41.5 -42t-51 -49.5t-42.5 -19.5q-27 0 -26 23q0 14 32.5 43.5t42.5 52.5q35 84 140 489q-96 -143 -255 -320t-239 -177q-29 0 -29 36z M346 973q0 6 8 18q20 25 129 126.5t127 105.5q10 -4 69.5 -97.5t78.5 -128.5q2 -6 2 -14q0 -14 -10 -14q-3 0 -7 2q-27 23 -83 84t-76 92q-27 -25 -115 -95.5t-107 -80.5q-6 -4 -10 -4t-5 2t-1 4z" />
<glyph unicode="&#xfc;" horiz-adv-x="681" d="M14 18q0 31 23 88q0 2 49 111t79 187.5t30 113.5q0 10 -4.5 19.5t-4.5 15.5q0 2 4 22q35 131 66 173.5t102 42.5q29 0 35 -19q-246 -604 -246 -633q0 -8 7 -8q8 0 49 33q205 158 360 442q2 63 39 131t109 68q22 -1 24 -19q-6 -18 -45 -122.5t-63 -176.5 q-37 -104 -79 -253.5t-42 -182.5q0 -6 4 -6q16 0 82.5 51t91.5 51q16 0 16 -10q0 -14 -46 -47t-105.5 -68.5t-65.5 -39.5q-14 -12 -41.5 -42t-51 -49.5t-42.5 -19.5q-27 0 -26 23q0 14 32.5 43.5t42.5 52.5q35 84 140 489q-96 -143 -255 -320t-239 -177q-29 0 -29 36z M330 1030v19q2 37 48 71.5t77 34.5q10 0 12 -6q0 -25 -14.5 -77t-14.5 -56q0 -23 -22.5 -37t-46.5 -14q-39 0 -39 65zM641 1030v19q2 37 48 71.5t77 34.5q10 0 12 -6q0 -25 -14 -77t-14 -56q0 -14 -11.5 -26.5t-28 -18.5t-30.5 -6q-39 0 -39 65z" />
<glyph unicode="&#xfd;" horiz-adv-x="649" d="M-178 -637q0 74 88 224.5t181 279.5t95 137q23 68 23 184q0 168 -32 295t-87 127h-16l-13 -2q-8 0 -8 10q0 16 45 50q6 4 35 45t43 41q43 0 77 -132.5t34 -293.5q0 -16 -1 -49t-1 -50q0 -33 16 -32q47 0 189.5 217t142.5 276q0 12 -10 12q-4 0 -14.5 -4t-16.5 -4 q-10 0 -17 11q0 27 59.5 59.5t96.5 32.5q10 0 14 -2q6 -10 7 -23q0 -82 -179.5 -329.5t-287.5 -374.5v4q-2 0 -5.5 -16.5t-9.5 -41t-12 -48t-15.5 -41t-17.5 -17.5t-21.5 5t-15.5 5q-276 -371 -276 -475q0 -18 8 -37.5t8 -26.5q0 -23 -24.5 -39t-48.5 -16q-33 0 -33 39z M393 846q0 37 275 295q6 6 12 8t12 2q18 0 33.5 -18.5t15.5 -36.5q0 -8 -3 -14.5t-9 -10.5q-45 -29 -113.5 -86t-122 -96t-87.5 -47h-7q-4 2 -6 4z" />
<glyph unicode="&#xfe;" horiz-adv-x="448" d="M-139 -512q0 33 25.5 120t54 164.5t68.5 185.5t50 134q-4 8 -5 16.5t-1 18.5q0 47 45 76q137 424 160 506q0 2 -11 3t-22.5 5t-11.5 12q0 16 33 29l30 12q25 68 70 202t76 219t41 95q43 43 69 43q14 0 15 -14q0 -4 -1 -8t-2 -9.5t-3 -12.5t-6 -13q-4 -10 -91.5 -253 t-87.5 -245q94 -66 148 -186q61 -143 61 -295q0 -217 -145 -287q-55 -25 -123 -24q-123 0 -186 53q-18 -53 -69.5 -201.5t-74.5 -214.5q-2 -4 -2 -8q0 -6 4 -12.5t7.5 -14.5t3.5 -16q0 -20 -15.5 -52t-39 -56.5t-40.5 -24.5q-25 0 -24 53zM135 80q39 -25 73 -35t66 -10 q102 0 153.5 66.5t51.5 168.5q0 76 -28.5 174.5t-62.5 164t-52 65.5q-2 0 -3 -1l-3 -3q-90 -287 -150 -461z" />
<glyph unicode="&#xff;" horiz-adv-x="649" d="M-178 -637q0 74 88 224.5t181 279.5t95 137q23 68 23 184q0 168 -32 295t-87 127h-16l-13 -2q-8 0 -8 10q0 16 45 50q6 4 35 45t43 41q43 0 77 -132.5t34 -293.5q0 -16 -1 -49t-1 -50q0 -33 16 -32q47 0 189.5 217t142.5 276q0 12 -10 12q-4 0 -14.5 -4t-16.5 -4 q-10 0 -17 11q0 27 59.5 59.5t96.5 32.5q10 0 14 -2q6 -10 7 -23q0 -82 -179.5 -329.5t-287.5 -374.5v4q-2 0 -5.5 -16.5t-9.5 -41t-12 -48t-15.5 -41t-17.5 -17.5t-21.5 5t-15.5 5q-276 -371 -276 -475q0 -18 8 -37.5t8 -26.5q0 -23 -24.5 -39t-48.5 -16q-33 0 -33 39z M287 1024v18q0 25 24.5 50.5t53 41t47.5 15.5q10 0 12 -6q0 -25 -14.5 -77t-14.5 -56q0 -23 -22.5 -37.5t-46.5 -14.5q-39 0 -39 66zM598 1024v18q2 37 48 72t77 35q10 0 12 -6q0 -25 -14 -77t-14 -56q0 -14 -11.5 -26.5t-28 -19t-30.5 -6.5q-39 0 -39 66z" />
<glyph unicode="&#x152;" horiz-adv-x="2256" d="M127 508q0 166 68.5 328.5t203.5 287.5q-102 -45 -127 -61l-14 -4q-4 0 -8 2t-7 6t-3 10q0 14 18 23q135 74 219 104q203 195 451 236q34 4 63 4q145 0 146 -76q0 -45 -50 -111q188 -27 310 -157q12 86 28 149h-34h-25.5h-29h-19.5q-45 2 -45 17q0 10 25.5 21t60.5 11h80 q12 70 39 97q39 23 86 22q14 0 23 -6t7 -18q-10 -20 -39 -93h27h45.5h73.5h108h155h196q16 0 23 -8t7 -22q0 -23 -18.5 -51.5t-40.5 -36.5h-4q-8 0 -27.5 24.5t-42.5 26.5q-35 4 -174 4h-96q-12 0 -252 2q-70 -238 -111 -561q92 0 323.5 3t264.5 3q10 0 10 -12 q0 -14 -20.5 -32.5t-56.5 -25.5h-529q-25 -236 -24 -397q0 -23 1 -44t2 -40.5t3 -37t4 -32.5q27 0 200 -1t332 -1q131 0 236 33h2q8 0 8 -18q0 -16 -6 -32.5t-20.5 -30t-34.5 -13.5h-285h-301h-299q-6 0 -10 2t-4 6q0 14 28.5 38t52.5 28v30q0 25 3 95 q-117 -113 -273 -174.5t-317 -61.5q-287 0 -436.5 153.5t-149.5 391.5zM225 537q0 -225 127 -375t375 -150q152 0 324 85t258 206q27 369 71 690q-49 92 -130 150.5t-183 73.5q-8 -8 -14 -14.5t-12.5 -10.5t-10.5 -7t-8 -4t-6 -1q-4 0 -7 2t-3 6q0 16 18 33q-41 2 -84 2 q-213 -1 -422 -58q-150 -113 -221.5 -279.5t-71.5 -348.5zM584 1235q115 37 301 37q86 0 168 -8q18 43 18 69q0 49 -78 49q-20 0 -47 -2q-94 -10 -194.5 -51t-167.5 -94z" />
<glyph unicode="&#x153;" horiz-adv-x="950" d="M43 133q0 43 8 94q4 20 11.5 50t18.5 68t25.5 79t34 84t40 83t45 74.5t50 61.5t55 41t58.5 14h7h7q0 18 8.5 30.5t18.5 12.5q4 0 6 -1l6 -3t7 -4q27 -12 53 -85t35 -136q8 18 30 57q33 59 78 81t115 22q14 6 26 6q33 0 59.5 -34t37.5 -91q12 -66 12 -100q0 -39 -14 -58 q-43 -53 -113 -71.5t-145 -18.5q-12 0 -27.5 1t-26 1h-16.5h-4q-31 -82 -49.5 -152.5t-18.5 -117.5q0 -82 62 -82q37 0 81 36t99 103l55 66q8 12 17 12q25 0 6 -47q-35 -63 -118 -139t-142 -88l-19 -2q-49 0 -91 27.5t-46 92.5q-20 -27 -44 -48t-46.5 -37.5t-46 -29 t-45 -17.5t-41.5 -5q-55 0 -87 42t-32 128zM135 123q0 -100 58 -100q37 0 85 44t93 114.5t75.5 172t30.5 203.5q-16 8 -39.5 59.5t-27.5 73.5q-4 2 -7.5 2h-7.5q-43 0 -101 -101.5t-98 -211t-53 -170.5q-4 -25 -6 -46.5t-2 -39.5zM567 449q6 0 19.5 -1.5t31 -2.5t33 -1 t29.5 1t30.5 3.5t30.5 6.5q39 10 52.5 25.5t15.5 58.5q0 20 -6 51q-12 102 -55 102q-41 0 -97.5 -88t-83.5 -155z" />
<glyph unicode="&#x178;" horiz-adv-x="1955" d="M88 561q0 141 102.5 296t252 272.5t322.5 194.5t308 77q92 0 157.5 -39t65.5 -125q0 -94 -64.5 -254t-142 -305.5t-142 -310t-64.5 -265.5q0 -68 47 -67q94 0 298 209t362.5 415.5t234.5 325.5t162 315q16 39 51 39q31 0 43 -32.5t12 -67.5q0 -207 -186.5 -641 t-345.5 -702q-66 -111 -153 -223.5t-199.5 -229.5t-243.5 -189.5t-250 -72.5q-111 0 -201 63.5t-90 167.5q0 39 14.5 98.5t38.5 65.5q4 -2 7 -6t5.5 -9t3.5 -12.5t1 -13.5v-14q0 -16 -2.5 -43t-2.5 -33q0 -90 76 -140t172 -50q106 0 221 68.5t217.5 181t175 211t136.5 202.5 q74 119 142.5 269.5t108.5 256t106.5 295t97.5 269.5q-76 -127 -292 -381t-470 -483.5t-371 -229.5q-66 0 -66 90q0 115 72 294t157 336t156.5 331t71.5 282q0 61 -37 81t-104 20q-133 0 -288 -75t-282 -189.5t-211.5 -264t-84.5 -284.5q0 -201 202 -201q51 0 96.5 13t84 42 t59 46.5t52.5 53t34 37.5q31 31 31 0q0 -23 -29 -59q-57 -82 -158.5 -135t-202.5 -53q-119 0 -196.5 81.5t-77.5 200.5zM1475 1567v7v6v5q0 18 15 39t34.5 35t40 23.5t34.5 9.5q10 0 13 -6q0 -25 -14.5 -77.5t-14.5 -56.5q0 -23 -22.5 -37t-47.5 -14q-39 0 -38 66z M1786 1567v7v6v5q0 18 15.5 39t34.5 35t39.5 23.5t35.5 9.5q10 0 12 -6q0 -25 -14.5 -77.5t-14.5 -56.5q0 -23 -22.5 -37t-46.5 -14q-39 0 -39 66z" />
<glyph unicode="&#x2c6;" horiz-adv-x="757" d="M229 1026q0 2 1 4t3.5 6t4.5 8q20 25 128.5 126.5t127.5 105.5q10 -4 69.5 -97.5t77.5 -127.5q2 -6 2 -15q0 -14 -10 -14q-2 0 -6 2q-27 23 -83.5 84t-76.5 92q-27 -25 -115 -95.5t-106 -80.5q-6 -4 -10 -4t-5.5 2t-1.5 4z" />
<glyph unicode="&#x2dc;" horiz-adv-x="557" d="M362 1012q0 14 34 43.5t55 40.5q33 20 73 20q35 0 98.5 -21.5t96.5 -21.5q49 0 86 43q12 0 12 -8q0 -14 -29.5 -43t-52.5 -43q-27 -16 -55 -16q-37 0 -102.5 27.5t-100.5 27.5t-67.5 -26.5t-42.5 -26.5q-4 0 -5 4z" />
<glyph unicode="&#x2000;" horiz-adv-x="870" />
<glyph unicode="&#x2001;" horiz-adv-x="1741" />
<glyph unicode="&#x2002;" horiz-adv-x="870" />
<glyph unicode="&#x2003;" horiz-adv-x="1741" />
<glyph unicode="&#x2004;" horiz-adv-x="580" />
<glyph unicode="&#x2005;" horiz-adv-x="435" />
<glyph unicode="&#x2006;" horiz-adv-x="290" />
<glyph unicode="&#x2007;" horiz-adv-x="290" />
<glyph unicode="&#x2008;" horiz-adv-x="217" />
<glyph unicode="&#x2009;" horiz-adv-x="348" />
<glyph unicode="&#x200a;" horiz-adv-x="96" />
<glyph unicode="&#x2010;" horiz-adv-x="591" d="M47 274q0 20 21.5 41t40.5 29q8 4 16 7t13 4t12 1q4 0 7 -2t4 -4t1 -6t-3 -11t-7 -11q127 -9 172 -9q27 0 80 3t96 3q31 0 30 -10q0 -10 -24 -18q-49 -16 -165 -28.5t-204 -12.5h-41h-8h-10q-31 0 -31 24z" />
<glyph unicode="&#x2011;" horiz-adv-x="591" d="M47 274q0 20 21.5 41t40.5 29q8 4 16 7t13 4t12 1q4 0 7 -2t4 -4t1 -6t-3 -11t-7 -11q127 -9 172 -9q27 0 80 3t96 3q31 0 30 -10q0 -10 -24 -18q-49 -16 -165 -28.5t-204 -12.5h-41h-8h-10q-31 0 -31 24z" />
<glyph unicode="&#x2012;" horiz-adv-x="591" d="M47 274q0 20 21.5 41t40.5 29q8 4 16 7t13 4t12 1q4 0 7 -2t4 -4t1 -6t-3 -11t-7 -11q127 -9 172 -9q27 0 80 3t96 3q31 0 30 -10q0 -10 -24 -18q-49 -16 -165 -28.5t-204 -12.5h-41h-8h-10q-31 0 -31 24z" />
<glyph unicode="&#x2013;" horiz-adv-x="813" d="M51 305q0 14 9.5 26.5t19.5 12.5h162q301 0 456 -8q160 -7 195 -25q10 -6 10 -10q0 -6 -8 -10t-25.5 -6t-42.5 -2h-751q-25 0 -25 22z" />
<glyph unicode="&#x2014;" horiz-adv-x="1241" d="M51 305q0 14 9.5 26.5t19.5 12.5h162q604 0 759 -8q160 -7 195 -25q10 -6 10 -10q0 -18 -76 -18h-1054q-25 0 -25 22z" />
<glyph unicode="&#x2018;" horiz-adv-x="452" d="M86 909q0 16 9 31.5t11 20.5q47 154 157 258t161 104q6 0 8 -3t2 -7h-2q-70 -72 -139.5 -165t-69.5 -138q0 -16 10 -25q18 -20 19 -49q0 -33 -33 -66q-51 -47 -88 -47q-18 0 -29 17q-8 25 -12 42t-4 27z" />
<glyph unicode="&#x2019;" horiz-adv-x="428" d="M281 684v2q12 12 25 25.5t27.5 31t30 36t31 38t28.5 38.5t25.5 38.5t20.5 36t13 32t5 27.5q0 14 -10 25q-4 4 -8 10t-6 11t-3 11.5t-1 12.5q0 33 35 67h2q51 45 86 45q20 0 28 -16q2 -6 4 -13t3 -12.5t2.5 -10.5t2.5 -9l2 -8t1 -7v-8q0 -16 -9.5 -30.5t-11.5 -20.5l2 -2 q-12 -37 -29.5 -72.5t-36 -65.5t-40 -57.5t-43 -49t-42 -41t-40 -33t-35.5 -22.5t-29.5 -14t-19.5 -5t-9 3t-1 7z" />
<glyph unicode="&#x201a;" horiz-adv-x="522" d="M139 2v2q68 68 137.5 162t69.5 141q0 14 -10 25q-18 18 -19 41q0 41 42 77.5t79 36.5q21 0 31 -14q6 -20 9 -37.5t3 -29.5q0 -16 -4 -28.5t-10 -24t-8 -17.5q-25 -72 -72 -139.5t-95 -109.5t-88 -68.5t-57 -26.5q-8 4 -8 10z" />
<glyph unicode="&#x201c;" horiz-adv-x="563" d="M86 909q0 16 9 31.5t11 20.5q47 154 157 258t161 104q6 0 8 -3t2 -7h-2q-70 -72 -139.5 -165t-69.5 -138q0 -16 10 -25q18 -20 19 -49q0 -33 -33 -66q-51 -47 -88 -47q-18 0 -29 17q-8 25 -12 42t-4 27zM358 928q0 14 8.5 28.5t10.5 20.5q49 154 157.5 258t157.5 104 q12 0 10 -10q-29 -29 -61.5 -66.5t-66 -82.5t-57 -87t-23.5 -67q0 -16 10 -25q18 -20 18 -49q0 -41 -30 -63h-3l-2 -2v2q-51 -47 -88 -47q-18 0 -26 16q-14 45 -15 70zM487 887h2h-2z" />
<glyph unicode="&#x201d;" horiz-adv-x="831" d="M182 821h2q68 68 137.5 162t69.5 141q0 16 -10 27q-4 4 -8 10t-6 11.5t-3.5 11.5t-1.5 12q0 33 35 68v-2q51 47 88 47q19 -1 29 -17q14 -43 14 -67q0 -16 -9 -30.5t-11 -20.5l2 -3q-51 -152 -159.5 -256t-157.5 -104q-6 0 -8.5 3t-2.5 7zM451 838q39 39 84 92t83.5 115.5 t38.5 95.5q0 8 -2 14t-6 10v2q-18 18 -18 47q0 49 35 66q51 45 86 45q20 0 28 -16q14 -45 15 -68q0 -16 -8.5 -30.5t-10.5 -20.5v-2q-16 -47 -38.5 -92t-49 -80t-54.5 -65.5t-54.5 -53.5t-50 -38t-42 -23.5t-26.5 -8.5q-10 4 -10 11z" />
<glyph unicode="&#x201e;" horiz-adv-x="915" d="M139 2v2q68 68 137.5 162t69.5 141q0 14 -10 25q-18 18 -19 41q0 41 42 77.5t79 36.5q21 0 31 -14q6 -20 9 -37.5t3 -29.5q0 -16 -4 -28.5t-10 -24t-8 -17.5q-25 -72 -72 -139.5t-95 -109.5t-88 -68.5t-57 -26.5q-8 4 -8 10zM481 2v2q68 68 137.5 162t69.5 141 q0 14 -10 25q-18 18 -19 41q0 16 8.5 32.5t20.5 31t28.5 25.5t33 18t30.5 7q21 0 31 -14q6 -20 9 -37.5t3 -29.5q0 -16 -4 -28.5t-10 -24t-8 -17.5q-33 -92 -101.5 -176t-127 -126t-83.5 -42q-8 4 -8 10z" />
<glyph unicode="&#x2022;" horiz-adv-x="1099" d="M111 483q0 184 130 314.5t312 130.5q184 0 314 -130.5t130 -312.5q0 -184 -130 -314t-312 -130q-184 0 -314 130t-130 312z" />
<glyph unicode="&#x2026;" horiz-adv-x="1402" d="M231 53q0 35 48.5 70t74.5 35q6 0 8 -4q-4 -16 -11 -47t-12 -54.5t-5 -29.5q-2 -10 -9.5 -19.5t-16.5 -16.5t-20.5 -10.5t-21.5 -3.5q-35 0 -35 80zM657 53q0 35 48.5 70t74.5 35q6 0 8 -4q-4 -16 -11 -47t-12 -54.5t-5 -29.5q-4 -20 -24.5 -35t-43.5 -15q-35 0 -35 80z M1083 49q0 35 48.5 70t72.5 35q8 0 8 -4q-4 -16 -11 -47t-12 -55t-5 -30q-2 -14 -13.5 -25t-24.5 -17.5t-28 -6.5q-35 0 -35 80z" />
<glyph unicode="&#x202f;" horiz-adv-x="348" />
<glyph unicode="&#x2039;" horiz-adv-x="663" d="M29 530q2 53 16 60q473 371 559 452l6 2q4 -2 6 -18q0 -27 -10 -65.5t-18 -45.5q-383 -276 -471 -364q37 -70 155.5 -237t126.5 -181l4 -20q0 -31 -9 -75t-21 -44q-6 0 -11.5 11t-11.5 28.5t-12 27.5q-25 45 -93.5 145.5t-74.5 110.5q-27 41 -60.5 91.5t-54 80 t-26.5 41.5z" />
<glyph unicode="&#x203a;" horiz-adv-x="759" d="M131 0q0 27 10.5 65.5t18.5 45.5q383 276 471 364q-37 70 -156 237t-127 181q-2 2 -3 7t-1 13q0 18 4 45t11.5 50.5t15.5 23.5q6 0 11 -11t11 -28.5t13 -27.5q25 -45 93 -145.5t75 -110.5q27 -41 60.5 -91.5t54 -80t26.5 -41.5q-2 -53 -17 -60q-473 -371 -559 -452 q-2 -2 -3 -2h-3q-6 0 -6 18z" />
<glyph unicode="&#x205f;" horiz-adv-x="435" />
<glyph unicode="&#x20ac;" horiz-adv-x="1400" d="M25 465q0 14 8 25.5t18 11.5h8h7.5h7.5h8q23 0 70 1t63 1h47v24v15.5v13.5q0 53 5 104.5t16 100.5h-148q-8 0 -14 3t-8 8t-2 11t1 11.5t4 9.5l6 8t7 6t8 2h14.5h16.5q20 0 67.5 1t63.5 1q66 233 237 379t416 146q270 0 363 -97q6 -6 9 -25.5t3 -41.5q0 -51 -8 -51 q-2 0 -4 4q-20 33 -54 63.5t-117 63t-188 32.5q-201 0 -346 -132t-207 -341q301 -4 355 -8q160 -6 194 -24q10 -6 11 -11q0 -6 -8.5 -10t-26 -6t-41.5 -2h-500q-23 -104 -22 -227v-33q55 0 127.5 -2t121 -3t58.5 -1q160 -6 194 -25q10 -6 11 -10q0 -6 -8.5 -10.5t-26 -6.5 t-41.5 -2h-432q23 -193 134 -310.5t308 -117.5q102 0 192.5 29t149.5 74t95 82t59 71q8 10 12 11q8 0 8 -21q0 -59 -33 -100q-74 -102 -205 -147.5t-268 -45.5q-242 0 -383 125t-170 350h-219q-25 0 -24 23z" />
<glyph unicode="&#x2122;" horiz-adv-x="1343" d="M55 1255q16 27 246.5 44.5t343.5 17.5q45 -1 45 -17q0 -20 -70.5 -30t-147.5 -20.5t-89 -32.5q-25 -47 -50.5 -117t-52 -160t-38.5 -125q-39 -115 -54 -137q-12 -18 -43 -19q-37 0 -36 27q0 20 36.5 112.5t86 207t55.5 129.5q25 74 24 86q0 18 -57 18q-25 0 -74 -5 t-74 -5q-43 0 -51 26zM520 686q0 8 38 103.5t81 203t51 131.5q2 8 5 58.5t15.5 82t39.5 31.5q18 0 26 -45q2 -4 19.5 -132t47 -205.5t81.5 -77.5q45 0 127 110.5t148.5 221t74.5 110.5q24 0 24 -55q0 -20 -12 -75.5t-14 -70.5q0 -8 -5 -101t-11.5 -164t-12.5 -81 q-20 -35 -72 -35q-23 0 -22 19q0 12 2 16q16 61 35.5 177t30.5 161q-213 -276 -314 -276q-106 0 -182 276q-23 -49 -57.5 -182t-65.5 -182q-20 -33 -55 -33q-23 0 -23 14z" />
<glyph unicode="&#x25fc;" horiz-adv-x="788" d="M0 0v788h788v-788h-788z" />
<glyph unicode="&#xfb01;" horiz-adv-x="823" d="M-369 -260q0 57 17.5 106.5t32.5 49.5q6 0 10 -13q-4 -29 -4 -57q0 -94 36.5 -151.5t90.5 -57.5q51 0 102 52t92 159q57 143 151.5 448.5t121.5 409.5h-134q-25 0 -37 5t-12 14q0 8 13.5 19t29 19.5t25.5 8.5h131q49 176 121 372q43 119 121.5 174.5t203.5 55.5 q74 0 125.5 -39t69.5 -87t18 -98q0 -45 -22.5 -82.5t-46.5 -41.5l-7 -4q-8 -3 -16 -5t-16 -2q-16 0 -26.5 11.5t-10.5 31.5q0 10 3 22.5t8 25t12.5 25.5t13.5 24.5t11 20.5t9 17.5t4 10.5q0 4 -2 4q-6 37 -52 80t-97 43q-47 0 -84 -16.5t-62.5 -52.5t-38 -59.5t-28.5 -66.5 q-43 -109 -119 -366h18.5t20.5 -1t21.5 -1t23.5 -1.5t23 -1.5q25 0 47 3.5t41 9.5q20 8 30 8q8 0 9 -6q0 -10 -22.5 -27.5t-43.5 -23.5q-53 -14 -184 -15q-8 -20 -95.5 -319t-121.5 -408q-37 -113 -84 -192.5t-96.5 -120.5t-94.5 -58.5t-92 -17.5q-57 0 -93 20.5t-50.5 55.5 t-14.5 86zM506 25q0 18 8 43q47 137 139 421q4 14 6.5 22.5t2.5 14.5q0 8 -3.5 15.5t-3.5 13.5q0 4 1 10t6 15q37 102 57 141q14 31 53 52.5t72 21.5q28 -1 30 -19q-4 -6 -27.5 -51t-39.5 -78t-45 -96.5t-51.5 -120.5t-47 -137t-42.5 -160q-2 -10 -3 -16q0 -8 2.5 -13.5 t7.5 -8.5t11 -3q25 0 72 33q41 31 65 31q12 0 17 -11q0 -12 -21.5 -29.5t-59.5 -41t-57 -39.5q-57 -47 -110 -47q-39 0 -39 37z" />
<glyph unicode="&#xfb02;" horiz-adv-x="872" d="M-369 -260q0 57 17.5 106.5t32.5 49.5q6 0 10 -13q-4 -29 -4 -57q0 -94 36.5 -151.5t90.5 -57.5q51 0 102 52t92 159q57 143 151.5 448.5t121.5 409.5h-134q-25 0 -37 5t-12 14q0 8 13.5 19t29 19.5t25.5 8.5h131q96 342 135 426q39 86 73 117.5t103 50.5q35 8 97 8 q53 0 115.5 -6.5t117.5 -17.5t90 -25q29 -10 29 -27q0 -10 -15 -25q-111 -233 -222 -555.5t-167 -564.5q-2 -8 -2 -16q0 -6 1 -10.5t4 -7.5t7.5 -5t8.5 -2q25 0 71 33q18 14 36 22.5t28 8.5q6 0 11 -3t7 -8q0 -12 -21.5 -29.5t-58 -41t-55.5 -39.5q-25 -20 -56.5 -33.5 t-55.5 -13.5q-39 0 -39 39q0 16 8 41q72 199 149 454q205 655 222 713q-25 31 -90.5 53.5t-151.5 22.5q-96 0 -141 -115q-94 -242 -146 -446h18.5t20.5 -1t21.5 -1t23.5 -1.5t23 -1.5q25 0 47 3.5t41 9.5q20 8 30 8q8 0 9 -6q0 -10 -22.5 -27.5t-43.5 -23.5 q-53 -14 -184 -15q-8 -20 -95.5 -319t-121.5 -408q-37 -113 -84 -192.5t-96.5 -120.5t-94.5 -58.5t-92 -17.5q-57 0 -93 20.5t-50.5 55.5t-14.5 86z" />
</font>
</defs>
</svg>
