<?xml version="1.0" standalone="no"?>
<!DOCTYPE svg PUBLIC "-//W3C//DTD SVG 1.1//EN" "http://www.w3.org/Graphics/SVG/1.1/DTD/svg11.dtd" >
<svg xmlns="http://www.w3.org/2000/svg" xmlns:xlink="http://www.w3.org/1999/xlink" version="1.1">
<metadata></metadata>
<defs>
<font id="biorhymebold" horiz-adv-x="647" >
<font-face units-per-em="2048" ascent="1638" descent="-410" />
<missing-glyph horiz-adv-x="612" />
<glyph unicode="&#xfb01;" horiz-adv-x="1636" d="M57 0v203h205v559h-205v203h205v129q0 187 114.5 297t303.5 110q97 0 180 -25.5t184 -78.5l-90 -197q-68 46 -123.5 66t-119.5 20q-92 0 -145.5 -53t-53.5 -133v-135h299v-203h-299v-559h274v-203h-729zM952 0v203h205v559h-205v203h461v-762h207v-203h-668zM1085 1290 q0 63 51.5 104.5t127.5 41.5q79 0 129.5 -41.5t50.5 -104.5q0 -61 -50.5 -101t-129.5 -40q-75 0 -127 40.5t-52 100.5z" />
<glyph unicode="&#xfb02;" horiz-adv-x="1624" d="M57 0v203h205v559h-205v203h205v129q0 187 114.5 297t303.5 110q94 0 175 -24t173 -72h371v-1202h207v-203h-668v203h205v999h-189v-2l-2 2h-14v8q-115 76 -227 76q-92 0 -145.5 -53t-53.5 -133v-135h299v-203h-299v-559h274v-203h-729z" />
<glyph horiz-adv-x="0" />
<glyph horiz-adv-x="682" />
<glyph unicode="&#xd;" horiz-adv-x="1622" />
<glyph unicode=" "  horiz-adv-x="612" />
<glyph unicode="&#x09;" horiz-adv-x="612" />
<glyph unicode="&#xa0;" horiz-adv-x="612" />
<glyph unicode="!" horiz-adv-x="741" d="M178 127q0 69 56 114.5t135 45.5q86 0 140 -44.5t54 -115.5q0 -68 -54 -111t-140 -43q-79 0 -135 44t-56 110zM182 1364q0 78 46.5 130t142.5 52q95 0 140.5 -52t45.5 -130q0 -45 -45.5 -262t-60.5 -391l-27 -308h-105l-26 308q-18 129 -46.5 275t-46.5 239t-18 139z" />
<glyph unicode="&#x22;" horiz-adv-x="960" d="M145 963l25 544l264 -28l-129 -531zM549 958l24 549l267 -30l-129 -533z" />
<glyph unicode="#" horiz-adv-x="1638" d="M14 322v196h365l102 285h-334v196h406l119 326h221l-119 -326h330l119 326h219l-119 -326h301v-196h-373l-104 -285h346v-196h-418l-117 -322h-217l117 322h-332l-116 -322h-220l117 322h-293zM598 518h332l102 285h-330z" />
<glyph unicode="$" horiz-adv-x="1495" d="M172 -4v457l150 8q153 -192 370 -264v311q-10 2 -30.5 7t-30.5 7q-232 61 -344.5 164t-112.5 252q0 161 122.5 261.5t311.5 100.5q22 0 72 -4v258h199v-309q115 -46 221 -141v170h223v-447l-141 -8q-50 80 -134.5 145t-183.5 103v-328q125 -30 215 -64t163.5 -83 t111 -116.5t37.5 -153.5q0 -162 -129 -257.5t-336 -95.5q-31 0 -47 2v-270h-199v305q-154 51 -283 164v-174h-225zM434 958q0 -58 59 -97.5t199 -78.5v322h-26q-113 0 -172.5 -38t-59.5 -108zM864 162h35q105 0 168 30.5t63 92.5q0 53 -62.5 93.5t-203.5 82.5v-299z" />
<glyph unicode="%" horiz-adv-x="1822" d="M84 989q0 101 53 179.5t135.5 118.5t176.5 40q151 0 254.5 -93.5t103.5 -244.5q0 -148 -104.5 -244t-253.5 -96q-145 0 -255 97t-110 243zM193 45l1298 1321l131 -129l-1296 -1323zM293 989q0 -64 45.5 -106.5t107.5 -42.5q63 0 107.5 41.5t44.5 107.5t-44.5 107 t-107.5 41q-62 0 -107.5 -41.5t-45.5 -106.5zM1016 293q0 148 105.5 245t254.5 97q145 0 254 -98.5t109 -245.5q0 -150 -108 -244t-255 -94q-151 0 -255.5 94.5t-104.5 245.5zM1227 293q0 -66 44 -108t107 -42q62 0 108 41.5t46 106.5q0 66 -46 109.5t-108 43.5 q-63 0 -107 -43t-44 -108z" />
<glyph unicode="&#x26;" horiz-adv-x="1650" d="M66 371q0 144 99.5 240.5t309.5 170.5q-16 81 -16 191q0 193 120.5 323.5t303.5 130.5q166 0 266 -91.5t100 -223.5q0 -150 -127 -268.5t-356 -184.5q89 -234 276 -376q80 52 125.5 121t46.5 145q1 51 -12.5 90t-40.5 84l221 96q85 -116 82 -266q-2 -90 -53.5 -190 t-146.5 -185q30 -6 59 -6q127 0 227 33l41 -199q-136 -35 -248 -35q-150 0 -305 68q-173 -70 -376 -70q-172 -1 -306.5 46.5t-212 140t-77.5 215.5zM311 389q0 -98 96.5 -154.5t251.5 -56.5q75 0 146 15q-186 163 -277 397q-115 -40 -166 -86.5t-51 -114.5zM709 975 q0 -67 8 -119q280 89 280 252q0 54 -29 84.5t-79 30.5q-68 0 -124 -65.5t-56 -182.5z" />
<glyph unicode="'" horiz-adv-x="595" d="M145 973l68 545l262 -58l-172 -516z" />
<glyph unicode="(" horiz-adv-x="817" d="M133 696q0 153 36 293.5t93.5 247t138 200.5t160 159t168.5 118l59 -92q-407 -384 -407 -926q0 -137 30.5 -269.5t74 -230t102.5 -187.5t106 -144t94 -98l-59 -91q-80 44 -159 108t-159.5 159t-141 204.5t-98.5 253t-38 295.5z" />
<glyph unicode=")" horiz-adv-x="817" d="M27 -231q407 386 407 927q0 137 -30.5 269.5t-74 230t-102.5 188t-106 144t-94 98.5l59 88q56 -31 112.5 -72t116 -98t112 -122t100 -146.5t81.5 -170t54 -194t20 -215.5q0 -153 -35.5 -293.5t-93 -247.5t-137.5 -201.5t-160.5 -159.5t-169.5 -118z" />
<glyph unicode="*" horiz-adv-x="1044" d="M55 1300q0 49 30 86t79 37q33 0 65.5 -18.5t73 -49.5t72.5 -46l55 -27l-22 -80l-56 6q-33 2 -101 -4.5t-91 -5.5q-46 2 -75.5 30t-29.5 72zM182 918q0 44 41 79q17 16 75.5 57t84.5 62l47 39l64 -53l-27 -51q-17 -33 -45.5 -106.5t-32.5 -82.5q-23 -55 -86 -55 q-43 0 -82 33.5t-39 77.5zM412 1581q0 43 27 74.5t85 32.5q56 -1 84.5 -33t28.5 -74q0 -28 -28.5 -102.5t-33.5 -104.5l-12 -59h-84l-10 59q-5 29 -31 103.5t-26 103.5zM549 1102l63 53l47 -39q27 -22 84.5 -62.5t75.5 -56.5q41 -35 41 -79t-39 -77.5t-82 -33.5 q-63 0 -86 55q-8 17 -35 87.5t-43 101.5zM612 1282l56 27q28 13 59.5 34.5t52 38t47.5 29t52 12.5q50 0 80 -37t30 -86q0 -44 -29.5 -72t-76.5 -30q-23 -1 -91 5.5t-100 4.5l-57 -6z" />
<glyph unicode="+" horiz-adv-x="1200" d="M111 526v219h378v406h220v-406h381v-219h-381v-407h-220v407h-378z" />
<glyph unicode="," d="M131 123q0 69 52.5 115.5t129.5 46.5q95 0 154 -65.5t59 -164.5q0 -212 -280 -458l-68 67q183 190 213 324q-54 -13 -96 -13q-69 0 -116.5 41t-47.5 107z" />
<glyph unicode="-" d="M55 375v219h539v-219h-539z" />
<glyph unicode="." horiz-adv-x="602" d="M109 127q0 69 56 114.5t136 45.5q86 0 140.5 -44.5t54.5 -115.5q0 -68 -54.5 -111t-140.5 -43q-79 0 -135.5 44t-56.5 110z" />
<glyph unicode="/" horiz-adv-x="1091" d="M43 -215l758 1731h227l-758 -1731h-227z" />
<glyph unicode="0" horiz-adv-x="1443" d="M80 635q0 127 37 236t99.5 186t144.5 132.5t174 82t186 26.5t186 -26.5t174.5 -82t145.5 -132.5t100 -186t37 -236q0 -157 -56.5 -286t-149 -209.5t-205.5 -123.5t-232 -43t-231.5 43t-205 123.5t-148.5 209.5t-56 286zM352 635q0 -204 105 -331.5t264 -127.5 q160 0 265.5 127.5t105.5 331.5q0 207 -104.5 334t-266.5 127q-160 0 -264.5 -127t-104.5 -334z" />
<glyph unicode="1" horiz-adv-x="962" d="M96 1006q114 32 203.5 99.5t134.5 164.5v4h258v-1059h203v-215h-741v215h280v743q-96 -104 -284 -155z" />
<glyph unicode="2" horiz-adv-x="1288" d="M68 1034q118 118 270 190.5t324 73.5q75 1 146.5 -14.5t135 -47.5t111 -76.5t75 -108t27.5 -136.5q0 -65 -23.5 -120.5t-61.5 -96.5t-102.5 -80t-130.5 -68.5t-161 -64.5q-73 -27 -119 -47t-91.5 -45.5t-71 -50t-43 -56.5t-21.5 -71h643v211h213v-426h-1118v215 q11 161 136.5 271.5t362.5 199.5q194 75 258.5 118t65.5 109q0 74 -67 122t-181 48q-221 0 -444 -206z" />
<glyph unicode="3" horiz-adv-x="1245" d="M39 166l98 188q96 -70 221 -113.5t258 -43.5q124 0 200.5 43.5t76.5 115.5q0 86 -103.5 130t-334.5 44h-172v195h172q191 0 289 51t98 139q0 72 -66.5 120t-173.5 48q-210 0 -422 -182l-129 172q109 97 256.5 161t306.5 64q140 0 251 -41t178 -123.5t67 -193.5 q0 -101 -73.5 -180t-198.5 -123q321 -66 321 -307q0 -151 -156 -249.5t-389 -98.5q-100 0 -190 16.5t-162 46.5t-121.5 57.5t-101.5 63.5z" />
<glyph unicode="4" horiz-adv-x="1327" d="M43 260v215l739 823h262v-823h259v-215h-259v-287h-247v287h-754zM307 475h490v551z" />
<glyph unicode="5" horiz-adv-x="1273" d="M70 123l84 217q263 -174 477 -174q75 0 139.5 22t109.5 73.5t46 123.5q0 89 -82.5 141.5t-225.5 55.5q-80 1 -163 -12.5t-139 -29.5t-154 -48v206h2v572h977v-217h-731v-283q147 33 268 27q100 -2 189 -28t162 -75t116 -128.5t43 -180.5q0 -125 -74.5 -228.5t-204.5 -160 t-282 -47.5q-92 4 -175.5 21t-155 45t-119 51t-107.5 57z" />
<glyph unicode="6" horiz-adv-x="1292" d="M80 586q0 198 84.5 359.5t243.5 257t364 95.5q215 0 418 -108l-82 -201q-156 94 -324 94q-162 0 -279.5 -97.5t-154.5 -262.5q97 52 187 78t196 26q93 0 177.5 -25.5t153 -74.5t109.5 -128.5t41 -178.5q0 -193 -153.5 -321t-376.5 -126q-125 1 -236 45.5t-192.5 123 t-128.5 194t-47 250.5zM340 549q15 -163 117.5 -262t238.5 -99q112 0 186.5 62t75.5 162q1 99 -74 155t-194 56q-173 0 -350 -74z" />
<glyph unicode="7" horiz-adv-x="1259" d="M82 760v502h1135v-218l-682 -1073l-216 111l619 962h-641v-284h-215z" />
<glyph unicode="8" horiz-adv-x="1374" d="M96 369q0 99 58.5 175.5t144.5 127.5q-145 102 -145 246q0 73 37.5 141.5t104.5 122t169.5 86t222.5 32.5q126 0 233.5 -33t178.5 -88t111 -125.5t40 -146.5q0 -89 -48 -160t-122 -120q199 -107 199 -269q0 -74 -38 -142.5t-108 -123t-179 -87t-240 -32.5 q-150 0 -270.5 33t-195 89t-114 126t-39.5 148zM350 395q0 -60 51 -108.5t135.5 -74.5t184.5 -26q128 0 215.5 44.5t87.5 125.5q0 20 -5 37t-19 31t-27 24.5t-40 21t-46 17t-57.5 15.5t-62 13.5t-71.5 14.5q-119 22 -229 60q-117 -98 -117 -195zM406 918q0 -37 21.5 -65 t68 -48t90.5 -32t119 -28q114 -22 190 -47q104 93 104 183q0 92 -88.5 148t-228.5 56q-110 0 -193 -44t-83 -123z" />
<glyph unicode="9" horiz-adv-x="1292" d="M78 852q0 128 70.5 230.5t191.5 159.5t268 56q168 -1 305 -76t218 -216t81 -322q0 -148 -49.5 -278.5t-138 -226t-219 -151t-283.5 -55.5q-225 0 -418 109l82 199q160 -93 324 -93q161 0 279 97t153 262q-97 -51 -187 -77t-196 -26q-93 0 -177.5 26t-153 75t-109.5 128.5 t-41 178.5zM334 862q0 -100 75 -156.5t193 -56.5q178 0 352 76q-15 162 -117.5 259t-238.5 97q-114 0 -188.5 -60t-75.5 -159z" />
<glyph unicode=":" horiz-adv-x="677" d="M145 127q0 69 56 114.5t137 45.5q85 0 138.5 -44.5t53.5 -115.5q0 -68 -53.5 -111t-138.5 -43q-81 0 -137 43.5t-56 110.5zM145 827q0 68 56.5 114t136.5 46q84 0 138 -45.5t54 -114.5q0 -68 -53.5 -110.5t-138.5 -42.5q-81 0 -137 43.5t-56 109.5z" />
<glyph unicode=";" horiz-adv-x="694" d="M152 123q0 69 52.5 115.5t129.5 46.5q95 0 155 -66t60 -164q0 -209 -283 -458l-67 67q180 186 213 324q-54 -13 -95 -13q-70 0 -117.5 41t-47.5 107zM152 827q0 67 56 113.5t136 46.5q84 0 138.5 -46t54.5 -114q0 -67 -54 -110t-139 -43q-81 0 -136.5 43t-55.5 110z" />
<glyph unicode="&#x3c;" horiz-adv-x="1075" d="M43 604v62l924 555v-246l-586 -342l586 -336v-248z" />
<glyph unicode="=" horiz-adv-x="1253" d="M133 336v219h983v-219h-983zM133 717v219h983v-219h-983z" />
<glyph unicode="&#x3e;" horiz-adv-x="1075" d="M111 49v248l585 340l-585 338v246l923 -553v-62z" />
<glyph unicode="?" horiz-adv-x="972" d="M84 1352q191 82 395 82q129 0 234 -42.5t168 -124t63 -188.5q0 -52 -17.5 -99t-45.5 -84t-71.5 -73t-86.5 -63.5t-100 -57.5q-163 -87 -198 -112q-57 -48 -60 -96q0 -35 26 -111l-86 -29q-45 62 -66 94.5t-39 77.5t-18 86q0 34 13 63.5t33 53t58 49t72.5 44.5t90.5 48 q116 57 164.5 98t48.5 103q0 59 -58 99t-147 40q-132 0 -297 -69zM221 117q0 65 52.5 106t127.5 41q79 0 130 -41t51 -106q0 -62 -51.5 -103t-129.5 -41q-74 0 -127 41.5t-53 102.5z" />
<glyph unicode="@" horiz-adv-x="1937" d="M84 469q0 203 75 374t201.5 284t292.5 176t348 63q153 0 290 -43.5t239 -119.5t177 -175t113 -213.5t38 -232.5q0 -125 -33 -225t-88.5 -162.5t-124.5 -95.5t-144 -33q-91 0 -158 40t-104 107q-80 -74 -180 -117t-199 -43q-117 0 -202.5 64.5t-85.5 187.5q0 85 54 146.5 t134 89.5t174 28q135 0 266 -41v60q0 68 -56 101.5t-142 33.5q-156 0 -336 -80l-45 166q221 94 420 94q181 0 276.5 -84.5t95.5 -238.5v-199q0 -81 34 -126.5t93 -45.5q82 0 141.5 95.5t59.5 277.5q0 126 -52 245t-142.5 211.5t-225 148.5t-287.5 56q-156 0 -298 -59.5 t-245.5 -162t-165 -247.5t-61.5 -309q0 -155 56.5 -290.5t149.5 -227.5t214 -144.5t250 -52.5q125 0 235.5 36t182.5 87l55 -117q-74 -55 -196.5 -93t-272.5 -38q-121 0 -238.5 34t-223 104t-185.5 168.5t-127 237.5t-47 300zM776 315q0 -86 117 -86q56 0 130 24.5t146 72.5 q-2 10 -2 32v31q-113 27 -211 27q-180 0 -180 -101z" />
<glyph unicode="A" horiz-adv-x="1724" d="M16 0v215h193l416 977h-176v213h821v-213h-178l419 -977h197v-215h-694v215h215l-103 266h-559l-102 -266h235v-215h-684zM641 674h412l-201 518h-10z" />
<glyph unicode="B" horiz-adv-x="1550" d="M72 0v215h245v975h-245v215h807q230 0 353.5 -102.5t123.5 -270.5q0 -102 -51 -177.5t-136 -123.5q295 -77 295 -340q0 -187 -141.5 -289t-407.5 -102h-843zM584 215h311q297 0 297 197q0 100 -73 146t-214 48h-321v-391zM584 801h229q272 0 272 198q0 99 -64.5 145 t-158.5 46h-278v-389z" />
<glyph unicode="C" horiz-adv-x="1556" d="M86 698q0 161 56 300t150.5 233.5t220 148.5t263.5 54q265 0 428 -177v148h244v-473l-176 -17q-64 139 -176 221.5t-279 82.5q-87 0 -167.5 -36t-143 -100.5t-100 -163.5t-37.5 -217q0 -217 134.5 -362t330.5 -145q110 0 199.5 36t149 91t117.5 139l177 -144 q-108 -160 -268.5 -252t-374.5 -92q-155 0 -293.5 55t-238.5 151t-158 231t-58 288z" />
<glyph unicode="D" horiz-adv-x="1673" d="M72 0v215h245v975h-245v215h694q104 0 203 -18.5t191.5 -55t170 -95t135 -134.5t89.5 -178.5t32 -221.5q0 -142 -46 -259.5t-124.5 -198.5t-184.5 -137t-223 -81.5t-243 -25.5h-694zM590 215h147q85 0 161 13t152.5 47t131 87t89 140.5t34.5 199.5q0 113 -34.5 200.5 t-89 140.5t-131 87t-152.5 47t-161 13h-147v-975z" />
<glyph unicode="E" horiz-adv-x="1634" d="M72 0v215h243v975h-243v215h1419v-487h-238v272h-671v-389h270v176h203v-547h-203v176h-270v-391h671v272h238v-487h-1419z" />
<glyph unicode="F" horiz-adv-x="1513" d="M72 0v215h245v975h-245v215h1372v-502h-240v287h-620v-410h256v176h202v-546h-202v176h-256v-371h264v-215h-776z" />
<glyph unicode="G" horiz-adv-x="1652" d="M82 702q0 154 55 290.5t149 233t222 152.5t270 56q280 0 469 -177v148h238v-453l-174 -12q-69 121 -187.5 200t-279.5 79q-205 0 -342 -140t-137 -377q0 -226 136 -367.5t349 -141.5q236 0 391 114v230h-414v202h658v-549q-108 -97 -275 -158t-360 -61 q-173 0 -317.5 55.5t-243 152.5t-153 231.5t-54.5 291.5z" />
<glyph unicode="H" horiz-adv-x="1902" d="M72 0v215h245v975h-245v215h764v-215h-246v-373h723v373h-246v215h764v-215h-246v-975h246v-215h-764v215h246v399h-723v-399h246v-215h-764z" />
<glyph unicode="I" horiz-adv-x="907" d="M72 0v215h245v975h-245v215h766v-215h-248v-975h248v-215h-766z" />
<glyph unicode="J" horiz-adv-x="1169" d="M6 123l113 186q154 -114 288 -114h11q105 5 165 70.5t60 201.5l-4 723h-354v215h870v-215h-242v-733q0 -150 -65.5 -261.5t-173.5 -167t-244 -55.5q-128 0 -241 43t-183 107z" />
<glyph unicode="K" horiz-adv-x="1765" d="M72 0v215h245v975h-245v215h749v-215h-231v-543l655 543h-213v215h682v-215h-168l-483 -399l526 -576h160v-215h-686v215h182l-371 420l-284 -234v-186h231v-215h-749z" />
<glyph unicode="L" horiz-adv-x="1490" d="M72 0v215h245v975h-245v215h762v-215h-246v-975h569v324h256v-539h-1341z" />
<glyph unicode="M" horiz-adv-x="2269" d="M72 0v215h245v975h-245v215h542l525 -1047l514 1047h547v-215h-246v-975h246v-215h-742v215h230v496q0 127 34 333l-520 -1052h-145l-516 1040q28 -205 28 -321v-496h230v-215h-727z" />
<glyph unicode="N" horiz-adv-x="1925" d="M72 0v215h245v975h-245v215h501l828 -950v735h-246v215h733v-215h-237v-1202l-142 -2l-936 1048v-819h242v-215h-743z" />
<glyph unicode="O" horiz-adv-x="1667" d="M86 702q0 154 57 290t156 233t238.5 153t298.5 56q157 0 295 -56t237 -153t156 -233t57 -290t-57 -289.5t-156 -232t-237 -152t-295 -55.5q-159 0 -298.5 55.5t-238.5 152t-156 232t-57 289.5zM369 702q0 -221 127 -364t340 -143q136 0 242 67.5t162 182.5t56 257 q0 220 -127 365t-333 145q-141 0 -248.5 -68.5t-163 -183.5t-55.5 -258z" />
<glyph unicode="P" horiz-adv-x="1507" d="M72 0v215h245v975h-245v215h813q250 0 402.5 -121.5t152.5 -325.5q0 -209 -150.5 -334.5t-402.5 -125.5h-303v-283h268v-215h-780zM584 717l288 -2q60 0 109 11t94 37t70.5 77t25.5 123q0 63 -25.5 108.5t-70.5 70.5t-96.5 36.5t-112.5 11.5h-282v-473z" />
<glyph unicode="Q" horiz-adv-x="1667" d="M86 702q0 154 57 290t156 233t238.5 153t298.5 56q157 0 295 -56t237 -153t156 -233t57 -290q0 -197 -90.5 -359t-247.5 -257q98 -98 227 -98q72 0 119 12l33 -203q-100 -28 -188 -28q-239 0 -420 223q-90 -19 -178 -19q-159 0 -298.5 55.5t-238.5 152t-156 232 t-57 289.5zM367 614q25 -190 150.5 -309t316.5 -119q39 0 57 2q-14 24 -21 41l-61 136q-68 138 -140 193.5t-204 55.5h-98zM369 811h96q95 0 169.5 -16t146 -56t131.5 -112.5t112 -180.5l66 -131q3 -7 20 -41q93 69 144 181t51 247q0 225 -129 372t-342 147 q-186 0 -309.5 -113.5t-155.5 -296.5z" />
<glyph unicode="R" horiz-adv-x="1619" d="M72 0v215h245v975h-245v215h827q247 0 394 -109.5t147 -302.5q0 -149 -88.5 -251t-247.5 -142l61 -143q31 -76 67 -127.5t72.5 -75t66 -32.5t63.5 -9q43 0 108 18l55 -215q-78 -45 -192 -45q-73 1 -134.5 20.5t-120.5 65t-110.5 128t-91.5 200.5l-65 193h-293v-365h239 v-213h-757zM590 778h317q108 0 186 55t78 160q0 96 -76.5 146.5t-187.5 50.5h-317v-412z" />
<glyph unicode="S" horiz-adv-x="1454" d="M143 2v492l162 10q108 -144 265.5 -230t297.5 -86q95 0 154 38.5t59 107.5q0 77 -102.5 136.5t-347.5 125.5q-250 67 -365.5 177t-115.5 274q0 115 65.5 205t170 136t226.5 46q270 0 441 -183v154h237v-481l-153 -9q-76 147 -198.5 225.5t-260.5 78.5q-108 0 -177 -43 t-69 -117q0 -75 85 -128.5t288 -109.5q103 -29 182.5 -58.5t152.5 -70.5t120.5 -88t75.5 -109t28 -135q0 -178 -134.5 -282.5t-344.5 -104.5q-262 0 -504 215v-186h-238z" />
<glyph unicode="T" horiz-adv-x="1605" d="M66 903v502h1472v-502h-238v287h-360v-975h246v-215h-764v215h246v975h-365v-287h-237z" />
<glyph unicode="U" horiz-adv-x="1816" d="M14 1190v215h744v-215h-226v-629q0 -162 105 -265t270 -103t271.5 104t105.5 266l-4 627h-223v215h745v-215h-246v-643q0 -165 -83 -296.5t-231.5 -205.5t-334.5 -74q-288 0 -467.5 162t-179.5 414v643h-246z" />
<glyph unicode="V" horiz-adv-x="1712" d="M0 1190v215h711v-215h-203l364 -850l357 850h-230v215h713v-215h-223l-563 -1219h-140l-561 1219h-225z" />
<glyph unicode="W" horiz-adv-x="2406" d="M4 1190v215h719v-215h-223l256 -778l374 964h154l402 -970l241 784h-227v215h702v-215h-215l-436 -1219h-139l-424 953l-393 -953h-138l-442 1219h-211z" />
<glyph unicode="X" horiz-adv-x="1660" d="M27 0v215h194l438 475l-466 500h-166v215h708v-193h-207l320 -358l326 358h-209v193h669v-215h-198l-439 -469l463 -506h174v-215h-710v193h196l-311 364l-320 -364h201v-193h-663z" />
<glyph unicode="Y" horiz-adv-x="1640" d="M25 1190v215h659v-215h-166l334 -457l328 457h-222v215h660v-215h-191l-469 -625v-350h254v-215h-778v215h252v338l-485 637h-176z" />
<glyph unicode="Z" horiz-adv-x="1542" d="M127 903v502h1290v-186l-866 -940q-24 -26 -63 -44t-70 -24l4 -12q77 16 143 16h627v287h238v-502h-1299v186l862 936q25 25 64.5 45t68.5 27l-2 14q-66 -16 -143 -16h-616v-289h-238z" />
<glyph unicode="[" horiz-adv-x="724" d="M233 -319v2048h465v-218h-233v-1615h233v-215h-465z" />
<glyph unicode="\" horiz-adv-x="1071" d="M49 1516h230l757 -1731h-227z" />
<glyph unicode="]" horiz-adv-x="724" d="M29 -104h231v1615h-231v218h463v-2048h-463v215z" />
<glyph unicode="^" horiz-adv-x="1128" d="M74 879l424 786h159l398 -786h-252l-230 512l-245 -512h-254z" />
<glyph unicode="_" horiz-adv-x="860" d="M-27 -184h914v-215h-914v215z" />
<glyph unicode="a" horiz-adv-x="1245" d="M128 420q35 62 93 101.5t129.5 60t147.5 20.5q161 0 315 -67v75q0 83 -66.5 123.5t-171.5 40.5q-153 0 -372 -84l-51 195q246 104 458 104q215 0 331 -103t116 -286v-324q0 -79 59 -79q30 0 58 12l51 -182q-71 -43 -181 -43q-77 0 -135.5 44t-81.5 124 q-203 -181 -401 -181q-143 0 -239 81q-95 80 -95 226q0 78 36 142zM346 291q0 -53 43 -81t107 -28q60 0 143.5 33t173.5 100v56q-125 47 -266 47q-84 -2 -142.5 -34t-58.5 -93z" />
<glyph unicode="b" horiz-adv-x="1335" d="M4 1202v203h434v-627q79 99 179 155t202 56q89 0 171 -37.5t143 -102.5t97 -159.5t36 -202.5q0 -222 -145.5 -369t-364.5 -147q-192 0 -348 156l-74 -127h-148v1202h-182zM438 289q133 -103 256 -103q136 0 219.5 84.5t83.5 218.5q0 127 -73 207q-72 79 -188 78h-3 q-73 -1 -150 -49.5t-145 -134.5v-301z" />
<glyph unicode="c" horiz-adv-x="1112" d="M68 483q0 140 66.5 257t177.5 183t241 66q185 0 293 -123v99h180v-344l-108 -9q-105 168 -287 168q-129 0 -213 -82t-84 -211q0 -132 85.5 -216.5t205.5 -86.5q92 0 164 34t149 101l109 -167q-202 -183 -441 -183q-144 0 -266.5 64t-197 183t-74.5 267z" />
<glyph unicode="d" horiz-adv-x="1343" d="M68 473q0 111 39 207.5t106 164t161 106t201 38.5q173 0 314 -119v332h-203v203h455v-1133q0 -77 57 -77q31 0 59 12l52 -184q-80 -41 -172 -41q-79 0 -139 38t-89 109q-173 -158 -366 -158q-94 0 -180.5 37.5t-151.5 103t-104 160t-39 201.5zM334 473q0 -128 76 -208 q75 -79 199 -79h3q128 3 277 123v369q-128 96 -250 96q-136 0 -220.5 -83.5t-84.5 -217.5z" />
<glyph unicode="e" horiz-adv-x="1155" d="M68 461q0 120 47 221t125 167.5t178.5 103t208.5 36.5q193 0 315.5 -85t122.5 -224q0 -93 -58.5 -161t-147 -99t-193.5 -31q-173 0 -353 78q1 -130 92 -205.5t224 -75.5q199 0 356 129l107 -168q-205 -176 -474 -176q-106 0 -204 32.5t-175.5 92.5t-124 154.5 t-46.5 210.5zM344 606q126 -45 260 -45q93 2 149 33.5t56 85.5q0 50 -45.5 80.5t-118.5 30.5q-92 0 -175.5 -50t-125.5 -135z" />
<glyph unicode="f" horiz-adv-x="894" d="M57 0v203h205v559h-205v203h205v129q0 187 114.5 297t303.5 110q97 0 180 -25.5t184 -78.5l-90 -197q-68 46 -123.5 66t-119.5 20q-92 0 -145.5 -53t-53.5 -133v-135h299v-203h-299v-559h274v-203h-729z" />
<glyph unicode="g" horiz-adv-x="1185" d="M35 -160q0 108 112 201q-79 66 -79 164q0 74 41.5 134t109.5 101q-74 87 -74 199q0 84 41.5 152.5t107.5 110.5t144.5 64.5t157.5 22.5q117 0 215 -39q35 108 121 161.5t205 55.5v-209q-145 -3 -213 -69q125 -90 125 -244q0 -85 -41.5 -154t-108 -111t-145 -64.5 t-158.5 -22.5q-150 0 -266 61q-41 -44 -41 -88q0 -94 133 -94q67 0 198 12.5t220 12.5q141 0 227 -69.5t86 -197.5q0 -112 -89 -197.5t-234.5 -129t-323.5 -43.5q-208 0 -339.5 73.5t-131.5 206.5zM254 -104q0 -63 73.5 -97.5t213.5 -34.5q99 0 184.5 18t140 53.5t54.5 80.5 q0 44 -33.5 63t-102.5 19q-49 0 -182 -14.5t-229 -14.5q-41 0 -94 11q-25 -45 -25 -84zM395 639q0 -75 56 -121.5t147 -46.5q89 0 145 48.5t56 125.5q0 74 -56.5 120t-144.5 46q-91 0 -147 -47.5t-56 -124.5z" />
<glyph unicode="h" horiz-adv-x="1484" d="M43 0v203h205v999h-205v203h461v-653q109 122 210 179.5t224 57.5q350 0 350 -450v-336h178v-203h-600v203h166v334q0 105 -52 165t-149 60q-148 0 -327 -207v-352h166v-203h-627z" />
<glyph unicode="i" horiz-adv-x="741" d="M57 0v203h205v559h-205v203h461v-762h207v-203h-668zM190 1290q0 63 51.5 104.5t127.5 41.5q79 0 129.5 -41.5t50.5 -104.5q0 -61 -50.5 -101t-129.5 -40q-75 0 -127 40.5t-52 100.5z" />
<glyph unicode="j" horiz-adv-x="688" d="M-166 -432l64 213q108 -43 190 -43q80 0 128 58t48 163v803h-205v203h457v-1000q0 -215 -116.5 -333.5t-301.5 -118.5q-36 0 -67.5 3t-63 10.5t-45.5 11.5t-49 16.5t-39 13.5zM190 1290q0 63 51.5 104.5t127.5 41.5q79 0 129.5 -41.5t50.5 -104.5q0 -61 -50.5 -101 t-129.5 -40q-75 0 -127 40.5t-52 100.5z" />
<glyph unicode="k" horiz-adv-x="1417" d="M43 0v203h205v999h-205v203h451v-598q208 182 419 182q96 0 175 -32.5t130.5 -104.5t51.5 -172q-1 -111 -74.5 -188t-187.5 -113q20 -94 69.5 -145.5t120.5 -53.5h12q62 0 121 29l51 -182q-90 -56 -204 -56q-144 0 -237 101t-116 282q-146 2 -331 72v-223h182v-203h-633z M494 586q156 -49 280 -49h14q91 3 152 37.5t61 95.5q0 55 -41 82.5t-116 27.5q-69 0 -161 -37.5t-189 -109.5v-47z" />
<glyph unicode="l" horiz-adv-x="729" d="M43 0v203h205v999h-205v203h461v-1202h207v-203h-668z" />
<glyph unicode="m" horiz-adv-x="2187" d="M57 0v203h205v559h-205v203h461v-199q179 223 404 223q117 0 197.5 -63.5t115.5 -184.5q183 248 420 248q156 0 245 -112.5t89 -323.5v-350h178v-203h-596v203h162v346q0 90 -43.5 145.5t-126.5 55.5q-154 0 -306 -185v-12v-350h162v-203h-585v203h167v346 q0 90 -45 145.5t-129 55.5q-156 0 -309 -191v-356h166v-203h-627z" />
<glyph unicode="n" horiz-adv-x="1505" d="M57 0v203h205v559h-205v203h461v-222q110 126 211 186t219 60q175 0 269 -114t94 -336v-336h176v-203h-600v203h168v334q0 97 -52.5 155t-148.5 58q-156 0 -336 -205v-342h166v-203h-627z" />
<glyph unicode="o" horiz-adv-x="1226" d="M68 479q0 150 77 268.5t200 180t267 61.5q104 0 202 -36.5t174 -101t122.5 -162t46.5 -210.5q0 -150 -76 -267.5t-199.5 -179t-269.5 -61.5q-144 0 -267 61.5t-200 179t-77 267.5zM336 479q0 -139 79 -223t199 -84q119 0 198 84t79 223t-79 223t-198 84q-120 0 -199 -84 t-79 -223z" />
<glyph unicode="p" horiz-adv-x="1382" d="M29 -244h204v1006h-204v203h456v-187q79 99 179 155t202 56q89 0 171 -37.5t143 -102.5t97 -159.5t36 -202.5q0 -222 -145.5 -369t-362.5 -147q-175 0 -320 127v-342h201v-202h-657v202zM485 289q133 -103 256 -103q137 0 220 84t83 219q0 127 -73 207q-72 78 -188 78h-3 q-74 -2 -151.5 -49.5t-143.5 -132.5v-303z" />
<glyph unicode="q" horiz-adv-x="1353" d="M68 473q0 150 72 269t194.5 183t271.5 64q160 0 320 -69l69 75h92v-157q127 -77 226 -172v-258q-88 88 -226 186v-838h205v-202h-686v202h230v324q-134 -109 -306 -109q-194 0 -328 143t-134 359zM334 473q0 -125 77 -207q76 -80 202 -80h3q114 3 220 82v465 q-96 41 -183 41q-137 0 -228 -83.5t-91 -217.5z" />
<glyph unicode="r" horiz-adv-x="1142" d="M57 0v203h205v559h-205v203h461v-226q103 116 216 183t216 67h103v-430h-224v176q-60 0 -142 -51.5t-169 -146.5v-334h207v-203h-668z" />
<glyph unicode="s" horiz-adv-x="1067" d="M70 709q0 120 95 201t249 81q191 0 321 -121v95h187v-316l-113 -10q-56 89 -143 137.5t-181 48.5q-66 0 -107.5 -24t-41.5 -64q0 -43 56.5 -74.5t197.5 -72.5q91 -26 157.5 -56t120 -71t80.5 -94.5t27 -120.5q0 -122 -102.5 -199.5t-256.5 -77.5q-213 0 -358 127v-100 h-186v317l112 11q62 -78 174 -133.5t209 -55.5q67 0 104.5 23.5t37.5 64.5q0 45 -59 80.5t-208 75.5q-184 50 -278 127t-94 201z" />
<glyph unicode="t" horiz-adv-x="917" d="M23 762v203h202v268h256v-268h295v-203h-295v-381q0 -90 41 -137t117 -47q95 0 172 41l74 -191q-122 -76 -289 -76q-172 0 -271.5 110t-99.5 302v379h-202z" />
<glyph unicode="u" horiz-adv-x="1384" d="M10 762v203h434v-537q0 -219 189 -219q133 0 291 172v381h-162v203h418v-693q0 -77 59 -77q34 0 57 10l54 -182q-84 -41 -172 -41q-100 0 -167.5 55t-82.5 156q-100 -113 -192.5 -167.5t-196.5 -54.5q-168 0 -259.5 115.5t-91.5 337.5v338h-178z" />
<glyph unicode="v" horiz-adv-x="1327" d="M31 762v203h542v-183h-143l260 -508l250 508h-149v183h505v-203h-141l-422 -791h-137l-434 791h-131z" />
<glyph unicode="w" horiz-adv-x="1818" d="M35 762v203h555v-183h-170l166 -471l276 627h150l268 -619l162 463h-166v183h510v-203h-133l-316 -789h-135l-293 609l-288 -609h-140l-309 789h-137z" />
<glyph unicode="x" horiz-adv-x="1306" d="M68 -2v203h122l314 266l-314 295h-122v203h563v-183h-135l190 -184l201 184h-146v183h498v-203h-123l-311 -264l313 -297h121v-203h-561v182h135l-190 185l-201 -185h145v-182h-499z" />
<glyph unicode="y" horiz-adv-x="1339" d="M23 -387l100 194q107 -69 194 -69q89 0 155 53t122 176l2 6l-403 789h-140v203h559v-183h-149l250 -546l239 546h-141v183h498v-203h-129l-385 -842q-97 -209 -211 -308t-267 -99q-84 0 -149 25t-145 75z" />
<glyph unicode="z" horiz-adv-x="1214" d="M53 55q31 90 79.5 167.5t90.5 125.5t111.5 99t105 72t109.5 61q12 7 18 10q59 34 127 74q-155 108 -381 108v-213h-215v430h158q111 0 194.5 -13.5t151.5 -45t116 -65.5t113 -91q70 83 97 219l215 -82q-21 -86 -53 -155t-69 -118.5t-90 -92.5t-106 -73.5t-127 -65.5 q-136 -63 -217 -123q140 -97 248 -97q78 0 137.5 56.5t77.5 142.5l219 -61q-13 -109 -75 -191t-146 -122t-174 -40q-117 0 -208 48t-195 149q-59 -77 -103 -197z" />
<glyph unicode="{" horiz-adv-x="995" d="M135 602v189h115q134 0 202 36t68 117q0 39 -32 83t-77.5 87.5t-91.5 91t-78 111.5t-32 133q0 106 57.5 184t149 116t202.5 38t188.5 -19t172.5 -57l-72 -199q-143 58 -254 58q-85 0 -141.5 -32t-56.5 -105q0 -39 30 -79t73.5 -78.5t86.5 -81t73 -102t30 -126.5 q0 -108 -72 -177.5t-197 -93.5q125 -26 197 -95.5t72 -176.5q0 -49 -16 -94t-42 -79.5t-57 -66t-62.5 -59.5t-57.5 -54t-42 -55.5t-16 -58.5q0 -72 57 -104.5t141 -32.5q117 0 254 59l72 -201q-94 -38 -172 -56.5t-189 -18.5t-202.5 38t-149 116t-57.5 184q0 69 32 132.5 t77.5 111t91.5 90.5t78 87t32 84q0 162 -270 156h-115z" />
<glyph unicode="|" horiz-adv-x="735" d="M246 -395v2109h246v-2109h-246z" />
<glyph unicode="}" horiz-adv-x="995" d="M14 -322l72 201q145 -59 254 -59q84 0 140.5 32.5t56.5 104.5q0 29 -16 58.5t-42 55.5t-57.5 54t-62.5 59.5t-57 66t-42 79.5t-16 94q0 107 72 176.5t196 95.5q-124 24 -196 94t-72 177q0 67 30 126.5t73.5 102t86.5 81t73 78.5t30 79q0 73 -56 105t-141 32 q-119 0 -254 -58l-72 199q95 38 173.5 57t189.5 19q170 0 288.5 -90.5t118.5 -247.5q0 -69 -32 -133t-77 -111t-90.5 -90t-77.5 -87t-32 -85q0 -162 268 -153h113v-189h-113q-268 0 -268 -156q0 -38 32 -82t77.5 -87t90.5 -91.5t77 -112.5t32 -132q0 -157 -118.5 -247.5 t-288.5 -90.5q-111 0 -190.5 19t-172.5 56z" />
<glyph unicode="~" horiz-adv-x="1441" d="M111 418q1 81 12.5 153.5t38 139t66.5 114t100 75.5t135 28q100 0 175.5 -48.5t154.5 -142.5q72 -87 108.5 -119t75.5 -32q135 0 135 299l219 -4q-1 -82 -13 -154.5t-39 -138.5t-67 -113.5t-100 -75.5t-135 -28q-102 0 -179 50t-157 148q-52 60 -74 83t-50.5 42t-53.5 19 q-66 0 -100 -73.5t-37 -227.5z" />
<glyph unicode="&#xa1;" horiz-adv-x="741" d="M178 1307q0 68 54.5 110.5t140.5 42.5q79 0 134.5 -43.5t55.5 -109.5q0 -69 -55.5 -114.5t-134.5 -45.5q-86 0 -140.5 44.5t-54.5 115.5zM184 70q0 45 46 262t61 391l26 307h105l27 -307q18 -129 46.5 -275t46 -239t17.5 -139q0 -78 -46 -130.5t-142 -52.5 q-95 0 -141 52.5t-46 130.5z" />
<glyph unicode="&#xa2;" horiz-adv-x="1171" d="M96 635q0 99 37 187t99 150t143 101.5t170 48.5v176h198v-196q76 -26 136 -86v90h180v-344l-127 -2q-75 125 -201 158v-568q116 22 234 137l120 -170q-73 -66 -154 -107.5t-188 -55.5v-181h-198v183q-87 14 -165.5 50.5t-143 94.5t-102.5 144.5t-38 189.5zM354 635 q0 -98 55.5 -174.5t147.5 -104.5v557q-89 -27 -146 -102t-57 -176z" />
<glyph unicode="&#xa3;" horiz-adv-x="1388" d="M133 -27v211h70q35 0 71.5 8t73 25t59.5 50.5t23 78.5q0 17 -4 49h-289v148h232q-7 16 -25 47.5t-25 46.5h-180v149h117q-16 56 -16 107q0 185 121.5 295t312.5 110q216 0 383 -135v107h217v-404l-129 -10q-62 89 -140.5 145t-145.5 75.5t-134 19.5q-100 0 -168 -53 t-68 -150q0 -42 21 -107h522v-149h-450q3 -5 22 -40.5t27 -53.5h399v-148h-344q8 -31 8 -65q0 -23 -2 -35q154 -109 273 -109q159 0 206 201l191 -61q-28 -162 -135 -257.5t-264 -95.5q-168 0 -345 152q-62 -71 -167.5 -111.5t-247.5 -40.5h-70z" />
<glyph unicode="&#xa4;" horiz-adv-x="1140" d="M98 172l174 209q-94 104 -94 242q0 141 92 243l-172 207l103 94l180 -217q85 45 186 45q107 0 195 -45l180 217l100 -94l-174 -209q86 -99 86 -241q0 -139 -88 -240l176 -211l-100 -92l-180 219q-86 -47 -195 -47q-98 0 -186 45l-180 -217zM381 625q0 -82 54 -139.5 t130 -57.5q81 0 134 57t53 140q0 86 -52.5 139t-134.5 53q-78 0 -131 -53.5t-53 -138.5z" />
<glyph unicode="&#xa5;" horiz-adv-x="1755" d="M123 1057v213h627v-213h-158l305 -404l283 404h-160v213h612v-213h-202l-179 -234h308v-135h-410l-92 -121h502v-137h-549v-215h258v-215h-779v215h261v215h-551v137h493l-98 121h-395v135h286l-188 234h-174z" />
<glyph unicode="&#xa6;" horiz-adv-x="735" d="M246 -395v893h246v-893h-246zM246 823v891h246v-891h-246z" />
<glyph unicode="&#xa7;" horiz-adv-x="1554" d="M82 391q0 244 324 357q-173 132 -173 301q0 171 124 278t313 107q259 0 448 -189v160h240v-481l-152 -9q-85 130 -229 217t-277 87q-83 0 -132.5 -38.5t-49.5 -103.5q0 -71 90.5 -125.5t302.5 -113.5q106 -30 188 -61t156 -72.5t122.5 -88.5t77 -109t28.5 -134 q0 -245 -324 -355q172 -134 172 -303q0 -171 -123.5 -277t-314.5 -106q-255 0 -444 189v-160h-244v479l153 8q87 -129 230 -215t276 -86q84 0 135.5 39t51.5 103q0 70 -90.5 122.5t-303.5 116.5q-135 38 -232.5 78.5t-178.5 95.5t-122.5 127t-41.5 162zM367 455 q0 -39 18.5 -71.5t49 -57t86.5 -48t115 -42t150 -43.5q136 -39 232 -89q184 68 184 205q0 93 -97.5 148t-326.5 116q-129 38 -229 86q-182 -67 -182 -204z" />
<glyph unicode="&#xa9;" horiz-adv-x="2093" d="M84 508q0 198 74 370.5t201.5 294.5t305 191.5t379.5 69.5q273 0 494 -118.5t347 -331t126 -476.5q0 -196 -74 -368t-202 -294t-307.5 -192t-383.5 -70q-202 0 -379.5 70t-305 192t-201.5 294t-74 368zM238 508q-1 -167 60 -313.5t167.5 -251.5t256.5 -165.5t322 -60.5 q173 0 324 60.5t257.5 165.5t166.5 251.5t59 313.5q2 224 -101.5 404.5t-289 283t-416.5 102.5q-229 0 -414 -102.5t-289 -283.5t-103 -404zM563 487q0 136 61.5 241.5t162.5 160t221 53.5q177 -3 284 -113v101h164v-326l-137 -8q-85 178 -266 178q-112 0 -193.5 -81 t-81.5 -206q0 -113 82.5 -186.5t192.5 -73.5q89 0 158.5 40.5t134.5 115.5l118 -137q-165 -207 -415 -207q-133 0 -243.5 54.5t-176.5 158t-66 235.5z" />
<glyph unicode="&#xaa;" horiz-adv-x="876" d="M98 1008q0 85 69 134.5t163 49.5q85 0 192 -29v41q0 48 -36.5 72t-96.5 24q-100 0 -229 -55l-35 115q152 67 283 67q128 0 196 -60.5t68 -166.5v-219q0 -43 35 -43q28 0 28 45v72h82v-72q0 -67 -40.5 -107t-100.5 -40q-56 0 -93 23.5t-51 64.5q-120 -95 -229 -95 q-85 0 -145 46.5t-60 132.5zM117 571v115h665v-115h-665zM264 1012q0 -28 22 -45t60 -17q78 0 176 70v45q-73 16 -153 16q-44 0 -74.5 -17.5t-30.5 -51.5z" />
<glyph unicode="&#xab;" horiz-adv-x="1712" d="M98 389v221h27q237 0 397.5 113.5t218.5 327.5l197 -74q-54 -202 -204.5 -324.5t-401.5 -152.5q250 -30 401.5 -152t208.5 -323l-197 -74q-60 213 -220 325.5t-398 112.5h-29zM791 389v221h26q497 0 617 441l196 -74q-54 -202 -204.5 -324.5t-401.5 -152.5 q250 -30 401 -152.5t207 -322.5l-196 -74q-120 438 -619 438h-26z" />
<glyph unicode="&#xac;" horiz-adv-x="1277" d="M94 715v217h1071v-719h-217v502h-854z" />
<glyph unicode="&#xad;" d="M55 375v219h539v-219h-539z" />
<glyph unicode="&#xae;" horiz-adv-x="2093" d="M84 508q0 198 74 370.5t201.5 294.5t305 191.5t379.5 69.5q273 0 494 -118.5t347 -331t126 -476.5q0 -196 -74 -368t-202 -294t-307.5 -192t-383.5 -70q-202 0 -379.5 70t-305 192t-201.5 294t-74 368zM238 508q-1 -167 60 -313.5t167.5 -251.5t256.5 -165.5t322 -60.5 q173 0 324 60.5t257.5 165.5t166.5 251.5t59 313.5q2 224 -101.5 404.5t-289 283t-416.5 102.5q-229 0 -414 -102.5t-289 -283.5t-103 -404zM575 61v140h144v583h-144v144h555q154 0 237 -67.5t83 -178.5q0 -91 -66.5 -163.5t-187.5 -90.5q53 -34 86 -111q35 -76 49 -91 q17 -19 41 -19q30 0 45 19t15 50v43h167v-43q0 -98 -59.5 -163.5t-159.5 -65.5q-54 0 -96.5 18t-73 53.5t-50.5 70.5t-40 85q-54 130 -106 150h-119v-223h147v-140h-467zM895 569h235q55 0 95.5 29t40.5 84q0 49 -38.5 75.5t-97.5 26.5h-235v-215z" />
<glyph unicode="&#xb0;" horiz-adv-x="911" d="M104 1317q0 146 104.5 242t250.5 96q151 0 250.5 -95.5t99.5 -244.5q0 -143 -100.5 -241.5t-249.5 -98.5q-144 0 -249.5 99.5t-105.5 242.5zM287 1317q0 -74 50 -128t120 -54q72 0 120 52.5t48 127.5q0 78 -47.5 129t-120.5 51q-71 0 -120.5 -51t-49.5 -127z" />
<glyph unicode="&#xb1;" horiz-adv-x="1208" d="M190 100v215h818v-215h-818zM190 733v217h299v262h220v-262h309v-217h-309v-262h-220v262h-299z" />
<glyph unicode="&#xb2;" horiz-adv-x="774" d="M43 1473q154 143 348 149q121 2 206 -58t85 -165q0 -38 -13.5 -69.5t-34.5 -55t-60.5 -48t-75.5 -41.5t-95 -42q-103 -43 -147.5 -74.5t-50.5 -77.5h366v125h131v-256h-657v125q6 98 80 165t211 116q113 42 149.5 68t36.5 63q0 41 -37 67.5t-104 26.5q-120 0 -258 -117z " />
<glyph unicode="&#xb3;" horiz-adv-x="747" d="M29 944l73 117q134 -90 267 -90q64 0 105.5 22t41.5 62q0 50 -57.5 72t-186.5 22h-100v129h100q104 0 159.5 27.5t55.5 78.5q0 41 -36 66t-91 25q-102 0 -233 -107l-88 107q58 58 145.5 96.5t182.5 38.5q127 0 209.5 -56.5t82.5 -154.5q0 -60 -42.5 -105.5t-116.5 -72.5 q190 -39 190 -183q0 -89 -91.5 -145.5t-231.5 -56.5q-182 0 -338 108z" />
<glyph unicode="&#xb5;" horiz-adv-x="1409" d="M29 750v215h452v-537q0 -103 43 -160t144 -57q127 0 282 168v586h256v-693q0 -77 62 -77q35 0 53 12l55 -184q-84 -41 -172 -41q-94 0 -159.5 48.5t-86.5 139.5q-75 -97 -151.5 -147t-167.5 -50q-140 0 -207 84q4 -17 13.5 -63.5t14 -68t10.5 -57t8.5 -63.5t2.5 -55v-196 h-250v1196h-202z" />
<glyph unicode="&#xb6;" horiz-adv-x="1687" d="M43 915q0 150 77 269t212 184.5t303 65.5q169 0 334 -58.5t299 -152.5v182h233v-1385q0 -110 -30.5 -200.5t-81.5 -151t-119 -102t-140.5 -60t-148.5 -18.5q-260 0 -586 164l90 207q167 -95 338 -129v729q-107 -49 -225 -49q-147 0 -273 61t-204 178t-78 266zM328 915 q0 -133 89.5 -208.5t221.5 -77.5q107 0 184 30v541q-100 21 -176 21q-129 0 -224 -87t-95 -219zM1053 -272q94 26 154.5 97.5t60.5 194.5v957q-111 86 -215 137v-1386z" />
<glyph unicode="&#xb7;" horiz-adv-x="606" d="M111 672q0 68 56.5 113.5t135.5 45.5q86 0 140.5 -45t54.5 -114q0 -68 -54.5 -111t-140.5 -43q-79 0 -135.5 44t-56.5 110z" />
<glyph unicode="&#xb9;" horiz-adv-x="622" d="M70 1450q69 11 121.5 52.5t70.5 105.5h182v-602h121v-146h-473v146h170v376q-56 -70 -137 -86z" />
<glyph unicode="&#xba;" horiz-adv-x="862" d="M96 1128q0 134 97 219t235 83q87 1 163.5 -36t124.5 -107.5t48 -158.5q0 -134 -96.5 -216.5t-239.5 -82.5q-139 0 -235.5 83t-96.5 216zM125 571v115h612v-115h-612zM264 1128q0 -77 46.5 -124.5t119.5 -47.5q72 0 119 47.5t47 124.5q0 76 -47.5 125.5t-118.5 49.5 q-72 0 -119 -49.5t-47 -125.5z" />
<glyph unicode="&#xbb;" horiz-adv-x="1712" d="M78 975l198 72q58 -214 218 -327.5t399 -113.5h29v-217h-27q-234 0 -396.5 -122.5t-219.5 -338.5l-197 70q56 206 211 337.5t409 162.5q-509 54 -624 477zM770 975l197 72q58 -214 218.5 -327.5t399.5 -113.5h29v-217h-27q-234 0 -396.5 -122.5t-219.5 -338.5l-199 70 q58 206 213.5 337.5t409.5 162.5q-258 27 -414 150t-211 327z" />
<glyph unicode="&#xbc;" horiz-adv-x="1720" d="M70 1139q69 11 121.5 52t70.5 105h182v-602h121v-145h-473v145h170v377q-56 -70 -137 -86zM446 -145l392 817l340 837l170 -67l-390 -815l-340 -842zM924 125v147l450 480h187v-480h143v-147h-143v-152h-183v152h-454zM1094 272h284v295z" />
<glyph unicode="&#xbd;" horiz-adv-x="1816" d="M70 1139q69 11 121.5 52t70.5 105h182v-602h121v-145h-473v145h170v377q-56 -70 -137 -86zM446 -145l392 817l340 837l170 -67l-390 -815l-340 -842zM1092 612q155 144 348 150q121 2 206 -58t85 -165q0 -38 -13.5 -69.5t-34.5 -55t-60.5 -48t-75.5 -41.5t-95 -42 q-103 -43 -148 -74.5t-51 -77.5h367v125h131v-256h-657v125q6 98 79.5 165.5t210.5 115.5q114 43 150.5 68.5t36.5 62.5q0 41 -37 67.5t-104 26.5q-121 0 -259 -117z" />
<glyph unicode="&#xbe;" horiz-adv-x="1763" d="M29 633l73 119q56 -41 127 -67t140 -26q65 0 106 21.5t41 62.5q0 48 -58.5 71.5t-185.5 23.5h-100v131h100q104 0 159.5 26.5t55.5 75.5q0 41 -36 66.5t-91 25.5q-103 0 -233 -106l-88 106q58 58 145.5 96.5t182.5 38.5q127 0 209.5 -57t82.5 -156q0 -60 -43 -105 t-118 -71q192 -41 192 -184q0 -88 -91.5 -145.5t-231.5 -57.5q-184 0 -338 111zM489 -145l392 817l340 837l170 -67l-390 -815l-339 -842zM967 125v147l450 480h187v-480h143v-147h-143v-152h-183v152h-454zM1137 272h284v295z" />
<glyph unicode="&#xbf;" horiz-adv-x="1056" d="M113 330q0 52 17.5 99t45.5 84t71.5 73t86.5 63.5t100 57.5q163 87 198 112q57 48 60 96q0 35 -26 111l86 29q65 -91 93.5 -145t28.5 -113q0 -34 -13 -63.5t-33 -53t-57.5 -49t-72 -45t-90.5 -47.5q-116 -57 -164.5 -98t-48.5 -103q0 -59 58 -99t147 -40q132 0 297 69 l76 -211q-191 -82 -395 -82q-129 0 -234 42.5t-168 124t-63 188.5zM475 1292q0 62 51 103t129 41q74 0 127.5 -41.5t53.5 -102.5q0 -65 -53 -106t-128 -41q-79 0 -129.5 41t-50.5 106z" />
<glyph unicode="&#xc0;" horiz-adv-x="1724" d="M16 0v215h193l416 977h-176v213h821v-213h-178l419 -977h197v-215h-694v215h215l-103 266h-559l-102 -266h235v-215h-684zM434 1841l131 189l398 -365l-70 -98zM641 674h412l-201 518h-10z" />
<glyph unicode="&#xc1;" horiz-adv-x="1724" d="M16 0v215h193l416 977h-176v213h821v-213h-178l419 -977h197v-215h-694v215h215l-103 266h-559l-102 -266h235v-215h-684zM641 674h412l-201 518h-10zM743 1681l396 365l133 -188l-459 -275z" />
<glyph unicode="&#xc2;" horiz-adv-x="1724" d="M16 0v215h193l416 977h-176v213h821v-213h-178l419 -977h197v-215h-694v215h215l-103 266h-559l-102 -266h235v-215h-684zM485 1610l306 356h129l305 -356l-80 -74l-293 229l-287 -229zM641 674h412l-201 518h-10z" />
<glyph unicode="&#xc3;" horiz-adv-x="1724" d="M16 0v215h193l416 977h-176v213h821v-213h-178l419 -977h197v-215h-694v215h215l-103 266h-559l-102 -266h235v-215h-684zM412 1587q2 137 66 231.5t177 94.5q53 0 98.5 -20t71.5 -43.5t64 -65.5q44 -51 70.5 -72.5t56.5 -21.5q86 0 100 190l146 -12 q-2 -137 -66.5 -230.5t-179.5 -93.5q-50 0 -95 20.5t-71.5 44t-61.5 62.5q-47 54 -74.5 76t-58.5 22q-46 0 -68 -50t-30 -146zM641 674h412l-201 518h-10z" />
<glyph unicode="&#xc4;" horiz-adv-x="1724" d="M16 0v215h193l416 977h-176v213h821v-213h-178l419 -977h197v-215h-694v215h215l-103 266h-559l-102 -266h235v-215h-684zM463 1731q0 56 45.5 94.5t109.5 38.5q66 0 109 -38t43 -95q0 -54 -43 -89.5t-109 -35.5q-64 0 -109.5 36t-45.5 89zM641 674h412l-201 518h-10z M930 1731q0 56 45 94.5t106 38.5q66 0 111 -38t45 -95q0 -54 -45 -89.5t-111 -35.5q-61 0 -106 36t-45 89z" />
<glyph unicode="&#xc5;" horiz-adv-x="1724" d="M16 0v215h193l416 977h-176v213h821v-213h-178l419 -977h197v-215h-694v215h215l-103 266h-559l-102 -266h235v-215h-684zM561 1817q0 124 86.5 204t206.5 80t207.5 -84.5t87.5 -204.5q0 -124 -86.5 -204t-208.5 -80q-118 0 -205.5 84.5t-87.5 204.5zM641 674h412 l-201 518h-10zM702 1817q0 -64 45 -110t107 -46t108 43.5t46 107.5t-46 110t-108 46q-63 0 -107.5 -43t-44.5 -108z" />
<glyph unicode="&#xc6;" horiz-adv-x="2471" d="M2 0v215h182l611 977h-172v213h1704v-477h-242v264h-811l106 -391h295v176h203v-547h-203v176h-241l104 -391h549v272h240v-487h-1309v215h248l-70 270h-578l-161 -270h192v-215h-647zM733 678h414l-123 485z" />
<glyph unicode="&#xc7;" horiz-adv-x="1556" d="M86 698q0 161 56 300t150.5 233.5t220 148.5t263.5 54q265 0 428 -177v148h244v-473l-176 -17q-64 139 -176 221.5t-279 82.5q-87 0 -167.5 -36t-143 -100.5t-100 -163.5t-37.5 -217q0 -217 134.5 -362t330.5 -145q110 0 199.5 36t149 91t117.5 139l177 -144 q-231 -344 -641 -344l-48 -114q8 2 39 2q94 0 152.5 -51t58.5 -138q0 -101 -86 -163t-200 -62q-145 0 -301 109l71 118q123 -90 230 -90q56 0 90.5 24t34.5 64t-35 63t-90 23q-45 0 -115 -8l-14 19l88 213q-178 27 -320 125t-223.5 252.5t-81.5 338.5z" />
<glyph unicode="&#xc8;" horiz-adv-x="1634" d="M72 0v215h243v975h-243v215h1419v-487h-238v272h-671v-389h270v176h203v-547h-203v176h-270v-391h671v272h238v-487h-1419zM410 1841l131 189l397 -365l-70 -98z" />
<glyph unicode="&#xc9;" horiz-adv-x="1634" d="M72 0v215h243v975h-243v215h1419v-487h-238v272h-671v-389h270v176h203v-547h-203v176h-270v-391h671v272h238v-487h-1419zM719 1681l395 365l133 -188l-459 -275z" />
<glyph unicode="&#xca;" horiz-adv-x="1634" d="M72 0v215h243v975h-243v215h1419v-487h-238v272h-671v-389h270v176h203v-547h-203v176h-270v-391h671v272h238v-487h-1419zM461 1610l305 356h129l305 -356l-80 -74l-293 229l-286 -229z" />
<glyph unicode="&#xcb;" horiz-adv-x="1634" d="M72 0v215h243v975h-243v215h1419v-487h-238v272h-671v-389h270v176h203v-547h-203v176h-270v-391h671v272h238v-487h-1419zM438 1731q0 56 46 94.5t110 38.5q66 0 108.5 -38t42.5 -95q0 -54 -42.5 -89.5t-108.5 -35.5q-64 0 -110 36t-46 89zM905 1731q0 56 45.5 94.5 t106.5 38.5q66 0 110.5 -38t44.5 -95q0 -54 -44.5 -89.5t-110.5 -35.5q-61 0 -106.5 36t-45.5 89z" />
<glyph unicode="&#xcc;" horiz-adv-x="907" d="M39 1841l131 189l397 -365l-69 -98zM72 0v215h245v975h-245v215h766v-215h-248v-975h248v-215h-766z" />
<glyph unicode="&#xcd;" horiz-adv-x="907" d="M72 0v215h245v975h-245v215h766v-215h-248v-975h248v-215h-766zM348 1681l395 365l134 -188l-459 -275z" />
<glyph unicode="&#xce;" horiz-adv-x="907" d="M72 0v215h245v975h-245v215h766v-215h-248v-975h248v-215h-766zM90 1610l305 356h129l305 -356l-79 -74l-293 229l-287 -229z" />
<glyph unicode="&#xcf;" horiz-adv-x="907" d="M68 1731q0 56 45.5 94.5t109.5 38.5q66 0 109 -38t43 -95q0 -54 -43 -89.5t-109 -35.5q-64 0 -109.5 36t-45.5 89zM72 0v215h245v975h-245v215h766v-215h-248v-975h248v-215h-766zM535 1731q0 56 45 94.5t106 38.5q66 0 111 -38t45 -95q0 -54 -45 -89.5t-111 -35.5 q-61 0 -106 36t-45 89z" />
<glyph unicode="&#xd0;" horiz-adv-x="1673" d="M72 0v215h245v403h-243v158h243v414h-245v215h694q104 0 203 -18.5t191.5 -55t170 -95t135 -134.5t89.5 -178.5t32 -221.5q0 -142 -46 -259.5t-124.5 -198.5t-184.5 -137t-223 -81.5t-243 -25.5h-694zM590 215h147q85 0 161 13t152.5 47t131 87t89 140.5t34.5 199.5 q0 113 -34.5 200.5t-89 140.5t-131 87t-152.5 47t-161 13h-147v-414h399v-158h-399v-403z" />
<glyph unicode="&#xd1;" horiz-adv-x="1925" d="M72 0v215h245v975h-245v215h501l828 -950v735h-246v215h733v-215h-237v-1202l-142 -2l-936 1048v-819h242v-215h-743zM504 1587q2 137 66.5 231.5t177.5 94.5q41 0 74.5 -9.5t62.5 -30.5t48.5 -39t47.5 -50q44 -51 70.5 -72.5t56.5 -21.5q86 0 100 190l146 -12 q-2 -137 -66.5 -230.5t-179.5 -93.5q-71 0 -121.5 33t-105.5 94q-47 54 -74.5 76t-58.5 22q-46 0 -68.5 -50.5t-30.5 -145.5z" />
<glyph unicode="&#xd2;" horiz-adv-x="1667" d="M86 702q0 154 57 290t156 233t238.5 153t298.5 56q157 0 295 -56t237 -153t156 -233t57 -290t-57 -289.5t-156 -232t-237 -152t-295 -55.5q-159 0 -298.5 55.5t-238.5 152t-156 232t-57 289.5zM369 702q0 -221 127 -364t340 -143q136 0 242 67.5t162 182.5t56 257 q0 220 -127 365t-333 145q-141 0 -248.5 -68.5t-163 -183.5t-55.5 -258zM414 1870l458 -275l70 99l-397 364z" />
<glyph unicode="&#xd3;" horiz-adv-x="1667" d="M86 702q0 154 57 290t156 233t238.5 153t298.5 56q157 0 295 -56t237 -153t156 -233t57 -290t-57 -289.5t-156 -232t-237 -152t-295 -55.5q-159 0 -298.5 55.5t-238.5 152t-156 232t-57 289.5zM369 702q0 -221 127 -364t340 -143q136 0 242 67.5t162 182.5t56 257 q0 220 -127 365t-333 145q-141 0 -248.5 -68.5t-163 -183.5t-55.5 -258zM723 1710l70 -98l458 274l-133 189z" />
<glyph unicode="&#xd4;" horiz-adv-x="1667" d="M86 702q0 154 57 290t156 233t238.5 153t298.5 56q157 0 295 -56t237 -153t156 -233t57 -290t-57 -289.5t-156 -232t-237 -152t-295 -55.5q-159 0 -298.5 55.5t-238.5 152t-156 232t-57 289.5zM369 702q0 -221 127 -364t340 -143q136 0 242 67.5t162 182.5t56 257 q0 220 -127 365t-333 145q-141 0 -248.5 -68.5t-163 -183.5t-55.5 -258zM465 1638l305 357h129l305 -357l-80 -73l-293 229l-286 -229z" />
<glyph unicode="&#xd5;" horiz-adv-x="1667" d="M86 702q0 154 57 290t156 233t238.5 153t298.5 56q157 0 295 -56t237 -153t156 -233t57 -290t-57 -289.5t-156 -232t-237 -152t-295 -55.5q-159 0 -298.5 55.5t-238.5 152t-156 232t-57 289.5zM369 702q0 -221 127 -364t340 -143q136 0 242 67.5t162 182.5t56 257 q0 220 -127 365t-333 145q-141 0 -248.5 -68.5t-163 -183.5t-55.5 -258zM391 1616q2 137 66.5 231.5t177.5 94.5q53 0 98.5 -20.5t70.5 -43.5t64 -66q44 -51 70.5 -72.5t56.5 -21.5q87 0 101 191l145 -13q-2 -137 -66.5 -230t-179.5 -93q-71 0 -121.5 33t-105.5 94 q-47 54 -74.5 76t-58.5 22q-46 0 -68 -50t-30 -146z" />
<glyph unicode="&#xd6;" horiz-adv-x="1667" d="M86 702q0 154 57 290t156 233t238.5 153t298.5 56q157 0 295 -56t237 -153t156 -233t57 -290t-57 -289.5t-156 -232t-237 -152t-295 -55.5q-159 0 -298.5 55.5t-238.5 152t-156 232t-57 289.5zM369 702q0 -221 127 -364t340 -143q136 0 242 67.5t162 182.5t56 257 q0 220 -127 365t-333 145q-141 0 -248.5 -68.5t-163 -183.5t-55.5 -258zM442 1759q0 56 46 94.5t110 38.5q66 0 109 -38t43 -95q0 -54 -43 -89.5t-109 -35.5q-64 0 -110 36t-46 89zM909 1759q0 56 45.5 94.5t106.5 38.5q66 0 111 -38t45 -95q0 -54 -45 -89.5t-111 -35.5 q-61 0 -106.5 36t-45.5 89z" />
<glyph unicode="&#xd7;" horiz-adv-x="1136" d="M143 907l156 152l268 -268l269 268l153 -158l-266 -266l266 -266l-151 -156l-269 268l-266 -268l-158 158l269 266z" />
<glyph unicode="&#xd8;" horiz-adv-x="1667" d="M86 702q0 154 57 290t156 233t238.5 153t298.5 56q94 0 194 -23l70 160h227l-102 -238q165 -95 260.5 -261t95.5 -370q0 -154 -57 -289.5t-156 -232t-237 -152t-295 -55.5q-97 0 -197 23l-70 -156h-227l102 232q-167 95 -262.5 260.5t-95.5 369.5zM369 702 q0 -135 49.5 -244t140.5 -177l395 917q-52 14 -118 14q-141 0 -248.5 -68.5t-163 -183.5t-55.5 -258zM713 209q55 -14 123 -14q136 0 242 67.5t162 182.5t56 257q0 133 -49 242.5t-137 177.5z" />
<glyph unicode="&#xd9;" horiz-adv-x="1816" d="M14 1190v215h744v-215h-226v-629q0 -162 105 -265t270 -103t271.5 104t105.5 266l-4 627h-223v215h745v-215h-246v-643q0 -165 -83 -296.5t-231.5 -205.5t-334.5 -74q-288 0 -467.5 162t-179.5 414v643h-246zM487 1841l131 189l398 -365l-70 -98z" />
<glyph unicode="&#xda;" horiz-adv-x="1816" d="M14 1190v215h744v-215h-226v-629q0 -162 105 -265t270 -103t271.5 104t105.5 266l-4 627h-223v215h745v-215h-246v-643q0 -165 -83 -296.5t-231.5 -205.5t-334.5 -74q-288 0 -467.5 162t-179.5 414v643h-246zM797 1681l395 365l133 -188l-459 -275z" />
<glyph unicode="&#xdb;" horiz-adv-x="1816" d="M14 1190v215h744v-215h-226v-629q0 -162 105 -265t270 -103t271.5 104t105.5 266l-4 627h-223v215h745v-215h-246v-643q0 -165 -83 -296.5t-231.5 -205.5t-334.5 -74q-288 0 -467.5 162t-179.5 414v643h-246zM539 1610l305 356h129l305 -356l-80 -74l-293 229l-287 -229z " />
<glyph unicode="&#xdc;" horiz-adv-x="1816" d="M14 1190v215h744v-215h-226v-629q0 -162 105 -265t270 -103t271.5 104t105.5 266l-4 627h-223v215h745v-215h-246v-643q0 -165 -83 -296.5t-231.5 -205.5t-334.5 -74q-288 0 -467.5 162t-179.5 414v643h-246zM516 1731q0 56 46 94.5t110 38.5q66 0 108.5 -38t42.5 -95 q0 -54 -42.5 -89.5t-108.5 -35.5q-64 0 -110 36t-46 89zM983 1731q0 56 45.5 94.5t106.5 38.5q66 0 110.5 -38t44.5 -95q0 -54 -44.5 -89.5t-110.5 -35.5q-61 0 -106.5 36t-45.5 89z" />
<glyph unicode="&#xdd;" horiz-adv-x="1640" d="M25 1190v215h659v-215h-166l334 -457l328 457h-222v215h660v-215h-191l-469 -625v-350h254v-215h-778v215h252v338l-485 637h-176zM711 1681l395 365l133 -188l-459 -275z" />
<glyph unicode="&#xde;" horiz-adv-x="1449" d="M72 0v215h235v977h-235v213h749v-193h-260v-178h402q207 0 332.5 -85t125.5 -249q0 -163 -125.5 -248t-332.5 -85l-402 -5v-169h260v-193h-749zM561 551h361q229 0 229 149q0 144 -229 144h-361v-293z" />
<glyph unicode="&#xdf;" horiz-adv-x="1544" d="M57 0v203h205v559h-205v203h205v75q0 226 139.5 343.5t395.5 117.5q244 0 404.5 -104.5t160.5 -259.5q0 -55 -19 -100.5t-58 -82t-80.5 -64t-104.5 -59.5q-106 -55 -138 -79t-32 -60q0 -34 38 -52.5t155 -51.5q39 -11 61 -17q84 -23 146 -49t111.5 -62t75 -84.5 t25.5 -109.5q0 -136 -99.5 -215.5t-266.5 -79.5q-185 0 -318 127v-100h-192v317l112 9q56 -80 165 -133.5t196 -53.5q66 0 101.5 23t35.5 63q0 37 -35.5 55t-150.5 52q-35 10 -54 16q-94 29 -158.5 57t-115 64.5t-74.5 84t-24 107.5q0 105 60 170.5t187 128.5 q104 56 144.5 90t40.5 80q0 69 -81 113.5t-216 44.5q-137 0 -211 -62.5t-74 -179.5v-1044h-457z" />
<glyph unicode="&#xe0;" horiz-adv-x="1245" d="M92 281q1 77 36 139.5t93 101.5t129.5 59.5t147.5 20.5q161 0 315 -67v75q0 83 -66.5 123.5t-171.5 40.5q-153 0 -372 -84l-51 195q246 104 458 104q215 0 331 -103t116 -286v-324q0 -79 59 -79q30 0 58 12l51 -182q-71 -43 -181 -43q-77 0 -135.5 44t-81.5 124 q-203 -181 -401 -181q-143 0 -239 81t-95 229zM186 1427l131 189l398 -365l-70 -98zM346 291q0 -53 43 -81t107 -28q60 0 143.5 33t173.5 100v56q-125 47 -266 47q-84 -2 -142.5 -34t-58.5 -93z" />
<glyph unicode="&#xe1;" horiz-adv-x="1245" d="M92 281q1 77 36 139.5t93 101.5t129.5 59.5t147.5 20.5q161 0 315 -67v75q0 83 -66.5 123.5t-171.5 40.5q-153 0 -372 -84l-51 195q246 104 458 104q215 0 331 -103t116 -286v-324q0 -79 59 -79q30 0 58 12l51 -182q-71 -43 -181 -43q-77 0 -135.5 44t-81.5 124 q-203 -181 -401 -181q-143 0 -239 81t-95 229zM346 291q0 -53 43 -81t107 -28q60 0 143.5 33t173.5 100v56q-125 47 -266 47q-84 -2 -142.5 -34t-58.5 -93zM496 1268l395 364l133 -188l-459 -275z" />
<glyph unicode="&#xe2;" horiz-adv-x="1245" d="M92 281q1 77 36 139.5t93 101.5t129.5 59.5t147.5 20.5q161 0 315 -67v75q0 83 -66.5 123.5t-171.5 40.5q-153 0 -372 -84l-51 195q246 104 458 104q215 0 331 -103t116 -286v-324q0 -79 59 -79q30 0 58 12l51 -182q-71 -43 -181 -43q-77 0 -135.5 44t-81.5 124 q-203 -181 -401 -181q-143 0 -239 81t-95 229zM238 1196l305 356h129l305 -356l-80 -74l-293 230l-287 -230zM346 291q0 -53 43 -81t107 -28q60 0 143.5 33t173.5 100v56q-125 47 -266 47q-84 -2 -142.5 -34t-58.5 -93z" />
<glyph unicode="&#xe3;" horiz-adv-x="1245" d="M92 281q1 77 36 139.5t93 101.5t129.5 59.5t147.5 20.5q161 0 315 -67v75q0 83 -66.5 123.5t-171.5 40.5q-153 0 -372 -84l-51 195q246 104 458 104q215 0 331 -103t116 -286v-324q0 -79 59 -79q30 0 58 12l51 -182q-71 -43 -181 -43q-77 0 -135.5 44t-81.5 124 q-203 -181 -401 -181q-143 0 -239 81t-95 229zM164 1174q2 137 66.5 231t177.5 94q41 0 74.5 -9.5t62.5 -30.5t48.5 -39t47.5 -50q44 -51 70.5 -72.5t56.5 -21.5q86 0 100 190l146 -12q-2 -137 -66.5 -230.5t-179.5 -93.5q-71 0 -121.5 33t-105.5 94q-48 55 -75 77t-58 22 q-46 0 -68.5 -51t-30.5 -146zM346 291q0 -53 43 -81t107 -28q60 0 143.5 33t173.5 100v56q-125 47 -266 47q-84 -2 -142.5 -34t-58.5 -93z" />
<glyph unicode="&#xe4;" horiz-adv-x="1245" d="M92 281q1 77 36 139.5t93 101.5t129.5 59.5t147.5 20.5q161 0 315 -67v75q0 83 -66.5 123.5t-171.5 40.5q-153 0 -372 -84l-51 195q246 104 458 104q215 0 331 -103t116 -286v-324q0 -79 59 -79q30 0 58 12l51 -182q-71 -43 -181 -43q-77 0 -135.5 44t-81.5 124 q-203 -181 -401 -181q-143 0 -239 81t-95 229zM215 1317q0 56 46 94.5t110 38.5q66 0 108.5 -38t42.5 -95q0 -54 -42.5 -89.5t-108.5 -35.5q-64 0 -110 36t-46 89zM346 291q0 -53 43 -81t107 -28q60 0 143.5 33t173.5 100v56q-125 47 -266 47q-84 -2 -142.5 -34t-58.5 -93z M682 1317q0 56 45.5 94.5t106.5 38.5q66 0 110.5 -38t44.5 -95q0 -54 -44.5 -89.5t-110.5 -35.5q-61 0 -106.5 36t-45.5 89z" />
<glyph unicode="&#xe5;" horiz-adv-x="1245" d="M92 281q1 77 36 139.5t93 101.5t129.5 59.5t147.5 20.5q161 0 315 -67v75q0 83 -66.5 123.5t-171.5 40.5q-153 0 -372 -84l-51 195q246 104 458 104q215 0 331 -103t116 -286v-324q0 -79 59 -79q30 0 58 12l51 -182q-71 -43 -181 -43q-77 0 -135.5 44t-81.5 124 q-203 -181 -401 -181q-143 0 -239 81t-95 229zM313 1403q0 124 86.5 204.5t206.5 80.5t207.5 -84.5t87.5 -204.5q0 -125 -86.5 -205t-208.5 -80q-118 0 -205.5 84.5t-87.5 204.5zM346 291q0 -53 43 -81t107 -28q60 0 143.5 33t173.5 100v56q-125 47 -266 47 q-84 -2 -142.5 -34t-58.5 -93zM455 1403q0 -64 44.5 -110t106.5 -46t108 44t46 108t-46 109.5t-108 45.5q-63 0 -107 -43t-44 -108z" />
<glyph unicode="&#xe6;" horiz-adv-x="1898" d="M92 281q1 77 36 139.5t93 101.5t129.5 59.5t147.5 20.5q155 0 315 -63q-1 68 -19.5 115.5t-53 73t-75.5 36t-94 10.5q-149 0 -368 -84l-51 195q246 104 452 104q134 0 226 -51t135 -147q70 94 187 147t241 53q178 0 297.5 -85.5t119.5 -223.5q0 -94 -58.5 -163 t-147.5 -100.5t-195 -31.5q-178 0 -352 72q3 -84 48.5 -145t115 -89.5t153.5 -27.5q201 0 359 127l102 -177q-202 -176 -481 -176q-144 0 -269.5 62.5t-197.5 175.5q-113 -119 -224.5 -178.5t-236.5 -59.5q-143 0 -239 81t-95 229zM346 291q0 -53 43 -81t107 -28 q65 0 154.5 37t183.5 111q-10 34 -11 43q-130 45 -276 45q-84 -2 -142.5 -34t-58.5 -93zM1085 600q122 -41 261 -41q95 2 151.5 34.5t56.5 88.5q0 50 -45 80.5t-116 30.5q-96 0 -181.5 -52.5t-126.5 -140.5z" />
<glyph unicode="&#xe7;" horiz-adv-x="1112" d="M68 483q0 140 66.5 257t177.5 183t241 66q185 0 293 -123v99h180v-344l-108 -9q-105 168 -287 168q-129 0 -213 -82t-84 -211q0 -132 85.5 -216.5t205.5 -86.5q92 0 164 34t149 101l109 -167q-202 -183 -441 -183l-45 -110q8 2 39 2q94 0 152.5 -51t58.5 -138 q0 -101 -86.5 -163t-200.5 -62q-145 0 -301 109l72 118q123 -90 229 -90q56 0 90.5 24t34.5 64t-35 63t-90 23q-44 0 -114 -8l-15 19l88 213q-180 39 -297.5 175t-117.5 326z" />
<glyph unicode="&#xe8;" horiz-adv-x="1155" d="M68 461q0 120 47 221t125 167.5t178.5 103t208.5 36.5q193 0 315.5 -85t122.5 -224q0 -93 -58.5 -161t-147 -99t-193.5 -31q-173 0 -353 78q1 -130 92 -205.5t224 -75.5q199 0 356 129l107 -168q-205 -176 -474 -176q-106 0 -204 32.5t-175.5 92.5t-124 154.5 t-46.5 210.5zM178 1425l131 189l398 -365l-70 -98zM344 606q126 -45 260 -45q93 2 149 33.5t56 85.5q0 50 -45.5 80.5t-118.5 30.5q-92 0 -175.5 -50t-125.5 -135z" />
<glyph unicode="&#xe9;" horiz-adv-x="1155" d="M68 461q0 120 47 221t125 167.5t178.5 103t208.5 36.5q193 0 315.5 -85t122.5 -224q0 -93 -58.5 -161t-147 -99t-193.5 -31q-173 0 -353 78q1 -130 92 -205.5t224 -75.5q199 0 356 129l107 -168q-205 -176 -474 -176q-106 0 -204 32.5t-175.5 92.5t-124 154.5 t-46.5 210.5zM344 606q126 -45 260 -45q93 2 149 33.5t56 85.5q0 50 -45.5 80.5t-118.5 30.5q-92 0 -175.5 -50t-125.5 -135zM487 1266l396 364l133 -188l-459 -275z" />
<glyph unicode="&#xea;" horiz-adv-x="1155" d="M68 461q0 120 47 221t125 167.5t178.5 103t208.5 36.5q193 0 315.5 -85t122.5 -224q0 -93 -58.5 -161t-147 -99t-193.5 -31q-173 0 -353 78q1 -130 92 -205.5t224 -75.5q199 0 356 129l107 -168q-205 -176 -474 -176q-106 0 -204 32.5t-175.5 92.5t-124 154.5 t-46.5 210.5zM229 1194l306 356h129l305 -356l-80 -74l-293 230l-287 -230zM344 606q126 -45 260 -45q93 2 149 33.5t56 85.5q0 50 -45.5 80.5t-118.5 30.5q-92 0 -175.5 -50t-125.5 -135z" />
<glyph unicode="&#xeb;" horiz-adv-x="1155" d="M68 461q0 120 47 221t125 167.5t178.5 103t208.5 36.5q193 0 315.5 -85t122.5 -224q0 -93 -58.5 -161t-147 -99t-193.5 -31q-173 0 -353 78q1 -130 92 -205.5t224 -75.5q199 0 356 129l107 -168q-205 -176 -474 -176q-106 0 -204 32.5t-175.5 92.5t-124 154.5 t-46.5 210.5zM207 1315q0 56 45.5 94.5t109.5 38.5q66 0 109 -38t43 -95q0 -54 -43 -89.5t-109 -35.5q-64 0 -109.5 36t-45.5 89zM344 606q126 -45 260 -45q93 2 149 33.5t56 85.5q0 50 -45.5 80.5t-118.5 30.5q-92 0 -175.5 -50t-125.5 -135zM674 1315q0 56 45 94.5 t106 38.5q66 0 111 -38t45 -95q0 -54 -45 -89.5t-111 -35.5q-61 0 -106 36t-45 89z" />
<glyph unicode="&#xec;" horiz-adv-x="741" d="M-53 1401l131 188l397 -364l-69 -99zM57 0v203h205v559h-205v203h461v-762h207v-203h-668z" />
<glyph unicode="&#xed;" horiz-adv-x="741" d="M57 0v203h205v559h-205v203h461v-762h207v-203h-668zM256 1241l395 365l133 -189l-458 -274z" />
<glyph unicode="&#xee;" horiz-adv-x="741" d="M-2 1169l305 357h129l305 -357l-80 -73l-292 229l-287 -229zM57 0v203h205v559h-205v203h461v-762h207v-203h-668z" />
<glyph unicode="&#xef;" horiz-adv-x="741" d="M-25 1290q0 56 46 94.5t110 38.5q66 0 109 -38t43 -95q0 -54 -43 -89.5t-109 -35.5q-64 0 -110 36t-46 89zM57 0v203h205v559h-205v203h461v-762h207v-203h-668zM442 1290q0 56 45.5 94.5t106.5 38.5q66 0 111 -38t45 -95q0 -54 -45 -89.5t-111 -35.5q-61 0 -106.5 36 t-45.5 89z" />
<glyph unicode="&#xf0;" horiz-adv-x="1243" d="M53 416q0 190 144 320t354 130q199 0 342 -96q-52 241 -268 414l-154 -197l-156 117l150 190q-87 52 -227 119l94 213q147 -63 278 -147l156 198l152 -118l-150 -193q195 -159 300.5 -356.5t105.5 -425.5q0 -142 -48.5 -259t-131 -192.5t-189.5 -117t-227 -42.5 q-150 -1 -270 55t-187.5 158t-67.5 230zM336 416q0 -105 70.5 -174.5t175.5 -69.5q61 0 118 24.5t105 71.5t77.5 125.5t30.5 177.5q-68 44 -147.5 69.5t-151.5 25.5q-118 0 -198 -71.5t-80 -178.5z" />
<glyph unicode="&#xf1;" horiz-adv-x="1505" d="M57 0v203h205v559h-205v203h461v-222q110 126 211 186t219 60q175 0 269 -114t94 -336v-336h176v-203h-600v203h168v334q0 97 -52.5 155t-148.5 58q-156 0 -336 -205v-342h166v-203h-627zM358 1171q2 137 66.5 231.5t177.5 94.5q53 0 98.5 -20t71.5 -43.5t64 -65.5 q44 -51 70.5 -72.5t56.5 -21.5q86 0 100 190l145 -12q-2 -137 -66 -230.5t-179 -93.5q-50 0 -95 20.5t-71.5 44t-61.5 62.5q-48 55 -75 77t-58 22q-46 0 -68 -50.5t-30 -146.5z" />
<glyph unicode="&#xf2;" horiz-adv-x="1226" d="M68 479q0 150 77 268.5t200 180t267 61.5q104 0 202 -36.5t174 -101t122.5 -162t46.5 -210.5q0 -150 -76 -267.5t-199.5 -179t-269.5 -61.5q-144 0 -267 61.5t-200 179t-77 267.5zM193 1425l458 -274l70 98l-397 365zM336 479q0 -139 79 -223t199 -84q119 0 198 84 t79 223t-79 223t-198 84q-120 0 -199 -84t-79 -223z" />
<glyph unicode="&#xf3;" horiz-adv-x="1226" d="M68 479q0 150 77 268.5t200 180t267 61.5q104 0 202 -36.5t174 -101t122.5 -162t46.5 -210.5q0 -150 -76 -267.5t-199.5 -179t-269.5 -61.5q-144 0 -267 61.5t-200 179t-77 267.5zM336 479q0 -139 79 -223t199 -84q119 0 198 84t79 223t-79 223t-198 84q-120 0 -199 -84 t-79 -223zM502 1266l69 -99l459 275l-133 188z" />
<glyph unicode="&#xf4;" horiz-adv-x="1226" d="M68 479q0 150 77 268.5t200 180t267 61.5q104 0 202 -36.5t174 -101t122.5 -162t46.5 -210.5q0 -150 -76 -267.5t-199.5 -179t-269.5 -61.5q-144 0 -267 61.5t-200 179t-77 267.5zM244 1194l305 356h129l305 -356l-80 -74l-293 230l-286 -230zM336 479q0 -139 79 -223 t199 -84q119 0 198 84t79 223t-79 223t-198 84q-120 0 -199 -84t-79 -223z" />
<glyph unicode="&#xf5;" horiz-adv-x="1226" d="M68 479q0 150 77 268.5t200 180t267 61.5q104 0 202 -36.5t174 -101t122.5 -162t46.5 -210.5q0 -150 -76 -267.5t-199.5 -179t-269.5 -61.5q-144 0 -267 61.5t-200 179t-77 267.5zM170 1171q2 137 66.5 231.5t177.5 94.5q41 0 74.5 -9.5t62.5 -30.5t48.5 -39t47.5 -50 q44 -51 70.5 -72.5t56.5 -21.5q86 0 100 190l146 -12q-2 -137 -66.5 -230.5t-179.5 -93.5q-71 0 -121.5 33t-105.5 94q-48 55 -75 77t-58 22q-46 0 -68.5 -51t-30.5 -146zM336 479q0 -139 79 -223t199 -84q119 0 198 84t79 223t-79 223t-198 84q-120 0 -199 -84t-79 -223z " />
<glyph unicode="&#xf6;" horiz-adv-x="1226" d="M68 479q0 150 77 268.5t200 180t267 61.5q104 0 202 -36.5t174 -101t122.5 -162t46.5 -210.5q0 -150 -76 -267.5t-199.5 -179t-269.5 -61.5q-144 0 -267 61.5t-200 179t-77 267.5zM221 1315q0 56 46 94.5t110 38.5q66 0 108.5 -38t42.5 -95q0 -54 -42.5 -89.5 t-108.5 -35.5q-64 0 -110 36t-46 89zM336 479q0 -139 79 -223t199 -84q119 0 198 84t79 223t-79 223t-198 84q-120 0 -199 -84t-79 -223zM688 1315q0 56 45.5 94.5t106.5 38.5q66 0 110.5 -38t44.5 -95q0 -54 -44.5 -89.5t-110.5 -35.5q-61 0 -106.5 36t-45.5 89z" />
<glyph unicode="&#xf8;" horiz-adv-x="1226" d="M68 479q0 150 77 268.5t200 180t267 61.5q49 0 107 -10l65 143h217l-94 -213q114 -68 182 -178.5t68 -251.5q0 -150 -76 -267.5t-199.5 -179t-269.5 -61.5q-42 0 -106 11l-64 -142h-217l92 209q-115 67 -182 178t-67 252zM336 479q0 -146 90 -233l227 538q-12 2 -39 2 q-120 0 -199 -84t-79 -223zM571 176q28 -4 43 -4q119 0 198 84t79 223q0 150 -92 236z" />
<glyph unicode="&#xf9;" horiz-adv-x="1384" d="M10 762v203h434v-537q0 -219 189 -219q133 0 291 172v381h-162v203h418v-693q0 -77 59 -77q34 0 57 10l54 -182q-84 -41 -172 -41q-100 0 -167.5 55t-82.5 156q-100 -113 -192.5 -167.5t-196.5 -54.5q-168 0 -259.5 115.5t-91.5 337.5v338h-178zM215 1401l131 188 l397 -364l-69 -99z" />
<glyph unicode="&#xfa;" horiz-adv-x="1384" d="M10 762v203h434v-537q0 -219 189 -219q133 0 291 172v381h-162v203h418v-693q0 -77 59 -77q34 0 57 10l54 -182q-84 -41 -172 -41q-100 0 -167.5 55t-82.5 156q-100 -113 -192.5 -167.5t-196.5 -54.5q-168 0 -259.5 115.5t-91.5 337.5v338h-178zM524 1241l396 365 l133 -189l-459 -274z" />
<glyph unicode="&#xfb;" horiz-adv-x="1384" d="M10 762v203h434v-537q0 -219 189 -219q133 0 291 172v381h-162v203h418v-693q0 -77 59 -77q34 0 57 10l54 -182q-84 -41 -172 -41q-100 0 -167.5 55t-82.5 156q-100 -113 -192.5 -167.5t-196.5 -54.5q-168 0 -259.5 115.5t-91.5 337.5v338h-178zM266 1169l305 357h129 l306 -357l-80 -73l-293 229l-287 -229z" />
<glyph unicode="&#xfc;" horiz-adv-x="1384" d="M10 762v203h434v-537q0 -219 189 -219q133 0 291 172v381h-162v203h418v-693q0 -77 59 -77q34 0 57 10l54 -182q-84 -41 -172 -41q-100 0 -167.5 55t-82.5 156q-100 -113 -192.5 -167.5t-196.5 -54.5q-168 0 -259.5 115.5t-91.5 337.5v338h-178zM244 1290q0 56 45.5 94.5 t109.5 38.5q66 0 109 -38t43 -95q0 -54 -43 -89.5t-109 -35.5q-64 0 -109.5 36t-45.5 89zM711 1290q0 56 45 94.5t106 38.5q66 0 111 -38t45 -95q0 -54 -45 -89.5t-111 -35.5q-61 0 -106 36t-45 89z" />
<glyph unicode="&#xfd;" horiz-adv-x="1339" d="M23 -387l100 194q107 -69 194 -69q89 0 155 53t122 176l2 6l-403 789h-140v203h559v-183h-149l250 -546l239 546h-141v183h498v-203h-129l-385 -842q-97 -209 -211 -308t-267 -99q-84 0 -149 25t-145 75zM602 1241l395 365l133 -189l-458 -274z" />
<glyph unicode="&#xfe;" horiz-adv-x="1349" d="M4 -244h205v1448h-205v201h455v-619q79 96 177.5 150.5t197.5 54.5q120 0 222 -63.5t163 -180t61 -260.5q0 -223 -145 -369.5t-363 -146.5q-172 0 -313 123v-338h231v-202h-686v202zM459 281q132 -99 252 -99q134 0 219.5 86.5t85.5 220.5q0 127 -74 206.5t-192 78.5 q-72 -1 -148.5 -48.5t-142.5 -131.5v-313z" />
<glyph unicode="&#xff;" horiz-adv-x="1339" d="M23 -387l100 194q107 -69 194 -69q89 0 155 53t122 176l2 6l-403 789h-140v203h559v-183h-149l250 -546l239 546h-141v183h498v-203h-129l-385 -842q-97 -209 -211 -308t-267 -99q-84 0 -149 25t-145 75zM322 1290q0 56 45.5 94.5t109.5 38.5q66 0 109 -38t43 -95 q0 -54 -43 -89.5t-109 -35.5q-64 0 -109.5 36t-45.5 89zM788 1290q0 56 45.5 94.5t106.5 38.5q66 0 111 -38t45 -95q0 -54 -45 -89.5t-111 -35.5q-61 0 -106.5 36t-45.5 89z" />
<glyph unicode="&#x152;" horiz-adv-x="2355" d="M86 700q0 143 43 261.5t117.5 199.5t175 137t214 81.5t236.5 25.5h1340v-481h-242v268h-633v-387h238v166h215v-547h-215v166h-238v-375h633v266h242v-481h-1340q-123 0 -236.5 25.5t-214 81t-175 136t-117.5 198t-43 259.5zM369 700q0 -112 34.5 -199t89 -140t131 -87 t152 -46.5t160.5 -12.5h129v977h-129q-84 0 -160 -13t-152.5 -47.5t-131 -88t-89 -142t-34.5 -201.5z" />
<glyph unicode="&#x153;" horiz-adv-x="1968" d="M68 481q0 150 77 268.5t199 180t264 61.5q128 0 240.5 -54.5t185.5 -152.5q74 95 187.5 151t236.5 56q186 0 303 -85.5t117 -225.5q0 -93 -58 -161t-146 -99t-193 -31q-175 0 -351 76q0 -6 -1 -19.5t-1 -19.5q18 -113 115.5 -181.5t218.5 -66.5q105 0 182 31.5t156 93.5 l105 -156q-202 -176 -463 -176q-124 0 -232.5 52t-181.5 143q-71 -92 -181 -143.5t-239 -51.5q-105 0 -203 37t-172.5 102t-119.5 161.5t-45 209.5zM336 481q0 -139 78 -223t194 -84q117 0 195 84t78 223t-78 223t-195 84q-116 0 -194 -84t-78 -223zM1157 608 q125 -47 262 -47q91 2 147 33.5t56 85.5q0 50 -45.5 81.5t-118.5 31.5q-92 0 -176 -50.5t-125 -134.5z" />
<glyph unicode="&#x178;" horiz-adv-x="1640" d="M25 1190v215h659v-215h-166l334 -457l328 457h-222v215h660v-215h-191l-469 -625v-350h254v-215h-778v215h252v338l-485 637h-176zM430 1731q0 56 46 94.5t110 38.5q66 0 108.5 -38t42.5 -95q0 -54 -42.5 -89.5t-108.5 -35.5q-64 0 -110 36t-46 89zM897 1731 q0 56 45.5 94.5t106.5 38.5q66 0 110.5 -38t44.5 -95q0 -54 -44.5 -89.5t-110.5 -35.5q-61 0 -106.5 36t-45.5 89z" />
<glyph unicode="&#x2000;" horiz-adv-x="1050" />
<glyph unicode="&#x2001;" horiz-adv-x="2101" />
<glyph unicode="&#x2002;" horiz-adv-x="1050" />
<glyph unicode="&#x2003;" horiz-adv-x="2101" />
<glyph unicode="&#x2004;" horiz-adv-x="700" />
<glyph unicode="&#x2005;" horiz-adv-x="525" />
<glyph unicode="&#x2006;" horiz-adv-x="350" />
<glyph unicode="&#x2007;" horiz-adv-x="350" />
<glyph unicode="&#x2008;" horiz-adv-x="262" />
<glyph unicode="&#x2009;" horiz-adv-x="420" />
<glyph unicode="&#x200a;" horiz-adv-x="116" />
<glyph unicode="&#x2010;" d="M55 375v219h539v-219h-539z" />
<glyph unicode="&#x2011;" d="M55 375v219h539v-219h-539z" />
<glyph unicode="&#x2012;" d="M55 375v219h539v-219h-539z" />
<glyph unicode="&#x2013;" horiz-adv-x="1187" d="M55 375v219h1082v-219h-1082z" />
<glyph unicode="&#x2014;" horiz-adv-x="1728" d="M55 375v219h1620v-219h-1620z" />
<glyph unicode="&#x2018;" d="M125 1114q0 193 276 436l66 -69q-98 -103 -148 -177t-53 -145q34 12 90 12q67 0 112.5 -37.5t45.5 -93.5q0 -63 -53.5 -100t-132.5 -37q-95 0 -149 55.5t-54 155.5z" />
<glyph unicode="&#x2019;" d="M131 1393q0 63 53 102t133 39q93 0 149 -57t56 -156q0 -191 -276 -434l-68 67q100 106 149.5 178t53.5 146q-35 -14 -92 -14q-66 0 -112 37t-46 92z" />
<glyph unicode="&#x201a;" d="M131 104q0 63 53 101.5t133 38.5q93 0 149 -56t56 -155q0 -193 -276 -436l-68 67q98 101 148.5 175t54.5 147q-41 -13 -92 -13q-67 0 -112.5 37.5t-45.5 93.5z" />
<glyph unicode="&#x201c;" horiz-adv-x="1150" d="M125 1114q0 193 276 436l66 -69q-98 -103 -148 -177t-53 -145q34 12 90 12q67 0 112.5 -37.5t45.5 -93.5q0 -63 -53.5 -100t-132.5 -37q-95 0 -149 55.5t-54 155.5zM629 1110q0 194 276 434l66 -69q-101 -106 -149.5 -177t-51.5 -145q35 14 90 14q67 0 113.5 -37.5 t46.5 -93.5q0 -62 -54 -100.5t-132 -38.5q-96 0 -150.5 56t-54.5 157z" />
<glyph unicode="&#x201d;" horiz-adv-x="1150" d="M131 1384q0 62 53.5 101t132.5 39q93 0 149 -57.5t56 -157.5q0 -189 -276 -432l-68 67q98 101 148.5 175t54.5 147q-41 -13 -92 -13q-67 0 -112.5 36.5t-45.5 94.5zM635 1380q0 62 53.5 100t132.5 38q94 0 149.5 -56t55.5 -157q0 -192 -276 -435l-68 70 q99 100 149.5 173.5t53.5 146.5q-41 -13 -90 -13q-67 0 -113.5 37.5t-46.5 95.5z" />
<glyph unicode="&#x201e;" horiz-adv-x="1150" d="M131 111q0 63 53 101t133 38q94 0 149.5 -57t55.5 -158q0 -189 -276 -432l-68 67q98 101 148.5 175t54.5 145q-41 -13 -92 -13q-67 0 -112.5 38t-45.5 96zM635 104q0 63 53.5 101.5t132.5 38.5q93 0 149 -56t56 -155q0 -196 -276 -436l-68 67q99 103 149.5 176.5 t53.5 145.5q-41 -13 -90 -13q-67 0 -113.5 37.5t-46.5 93.5z" />
<glyph unicode="&#x2022;" horiz-adv-x="942" d="M147 668q0 119 95.5 194.5t230.5 75.5q142 0 233 -74.5t91 -195.5q0 -111 -91.5 -183.5t-232.5 -72.5q-134 0 -230 73.5t-96 182.5z" />
<glyph unicode="&#x2026;" horiz-adv-x="1818" d="M111 127q0 69 56 114.5t136 45.5q86 0 140.5 -44.5t54.5 -115.5q0 -68 -54.5 -111t-140.5 -43q-79 0 -135.5 44t-56.5 110zM717 127q0 70 55.5 115t136.5 45q86 0 140.5 -44.5t54.5 -115.5q0 -68 -54.5 -111t-140.5 -43q-81 0 -136.5 43.5t-55.5 110.5zM1321 127 q0 69 56 114.5t136 45.5q86 0 140.5 -44.5t54.5 -115.5q0 -68 -54.5 -111t-140.5 -43q-79 0 -135.5 44t-56.5 110z" />
<glyph unicode="&#x202f;" horiz-adv-x="420" />
<glyph unicode="&#x2039;" horiz-adv-x="1142" d="M98 389v219h80q256 0 433 114.5t233 326.5l196 -74q-115 -422 -634 -477q522 -55 636 -480l-196 -71q-58 214 -234 328t-432 114h-82z" />
<glyph unicode="&#x203a;" horiz-adv-x="1142" d="M100 975l197 74q58 -213 233.5 -327t430.5 -114h83v-219h-81q-255 0 -430.5 -114t-233.5 -328l-197 71q114 425 633 480q-520 56 -635 477z" />
<glyph unicode="&#x205f;" horiz-adv-x="525" />
<glyph unicode="&#x20ac;" horiz-adv-x="1513" d="M72 418v149h149q-2 20 -2 66v29h-147v149h168q53 223 219.5 355t371.5 132q226 0 379 -153v125h215v-402l-135 -8q-73 115 -163.5 177.5t-227.5 62.5q-132 0 -237 -76t-148 -213h653v-149h-680v-29q0 -16 5 -66h675v-149h-639q47 -116 148 -180t237 -64q132 0 223.5 47 t182.5 141l123 -174q-219 -215 -529 -215q-238 0 -416.5 120.5t-244.5 324.5h-180z" />
<glyph unicode="&#x2122;" horiz-adv-x="1804" d="M55 1186v219h643v-219h-110v131h-148v-406h97v-100h-316v100h94v406h-151v-131h-109zM764 809v100h94v398h-94v98h231l217 -436l211 436h228v-98h-92v-398h92v-100h-297v100h80v293l-195 -399h-68l-200 409v-303h84v-100h-291z" />
<glyph unicode="&#x25fc;" horiz-adv-x="962" d="M0 0v963h963v-963h-963z" />
</font>
</defs>
</svg>
