<?xml version="1.0" standalone="no"?>
<!DOCTYPE svg PUBLIC "-//W3C//DTD SVG 1.1//EN" "http://www.w3.org/Graphics/SVG/1.1/DTD/svg11.dtd" >
<svg xmlns="http://www.w3.org/2000/svg" xmlns:xlink="http://www.w3.org/1999/xlink" version="1.1">
<metadata></metadata>
<defs>
<font id="biorhymeextrabold" horiz-adv-x="1667" >
<font-face units-per-em="2048" ascent="1638" descent="-410" />
<missing-glyph horiz-adv-x="622" />
<glyph unicode="&#xfb01;" horiz-adv-x="1675" d="M53 0v244h193v477h-193v244h193v118q0 188 123 303t325 115q105 0 190.5 -24.5t190.5 -79.5l-108 -238q-69 45 -119.5 63.5t-112.5 18.5q-87 0 -136.5 -48t-49.5 -103v-125h291v-244h-291v-477h266v-244h-762zM971 0v244h192v477h-192v244h504v-721h194v-244h-698z M1100 1272q0 71 57 117.5t141 46.5q89 0 146 -46t57 -118q0 -68 -57 -113t-146 -45q-84 0 -141 45.5t-57 112.5z" />
<glyph unicode="&#xfb02;" horiz-adv-x="1662" d="M53 0v244h193v477h-193v244h193v118q0 188 123 303t325 115q100 0 182.5 -23t182.5 -73h401v-1161h197v-244h-699v244h191v917h-182v-2q-1 0 -2 1t-2 1h-5v4q-66 42 -114.5 59t-108.5 17q-87 0 -136.5 -48t-49.5 -103v-125h291v-244h-291v-477h266v-244h-762z" />
<glyph horiz-adv-x="0" />
<glyph horiz-adv-x="682" />
<glyph unicode="&#xd;" horiz-adv-x="1622" />
<glyph unicode=" "  horiz-adv-x="622" />
<glyph unicode="&#x09;" horiz-adv-x="622" />
<glyph unicode="&#xa0;" horiz-adv-x="622" />
<glyph unicode="!" horiz-adv-x="774" d="M166 1333q0 91 54 152t167 61t167 -61t54 -152q0 -51 -24.5 -146.5t-57 -229t-45.5 -255.5l-30 -299h-123l-31 299q-20 114 -54.5 253t-55.5 231.5t-21 146.5zM172 147q0 78 62.5 129.5t152.5 51.5q95 0 156 -51t61 -130q0 -76 -61 -125t-156 -49q-90 0 -152.5 49 t-62.5 125z" />
<glyph unicode="&#x22;" horiz-adv-x="1005" d="M135 958l15 547l315 -35l-135 -528zM569 954l15 551l317 -37l-135 -530z" />
<glyph unicode="#" horiz-adv-x="1665" d="M14 295v235h359l88 244h-314v236h400l115 315h266l-115 -315h287l114 315h265l-115 -315h289v-236h-375l-90 -244h336v-235h-420l-109 -295h-262l107 295h-287l-109 -295h-264l107 295h-273zM637 530h289l88 244h-287z" />
<glyph unicode="$" horiz-adv-x="1517" d="M176 -4v463l189 12q133 -158 327 -231v239q-21 6 -92 23q-422 109 -422 420q0 168 125.5 273t317.5 105q37 0 55 -2v256h239v-319q93 -46 164 -105v146h271v-453l-179 -10q-38 61 -112 117.5t-162 91.5v-258q119 -27 209 -62t162.5 -85.5t110.5 -121t38 -159.5 q0 -171 -131 -269t-344 -98h-27v-268h-239v313q-110 41 -227 129v-147h-273zM496 948q0 -43 43.5 -74t152.5 -61v252q-196 0 -196 -117zM897 199h12q91 0 141 20t50 70q0 37 -48 69t-155 66v-225z" />
<glyph unicode="%" horiz-adv-x="1822" d="M76 989q0 100 54.5 179t138.5 119t180 40q157 0 261.5 -92t104.5 -246q0 -146 -106 -243t-260 -97q-70 0 -137.5 25t-119.5 69t-84 108.5t-32 137.5zM186 66l1282 1304l158 -156l-1280 -1306zM330 989q0 -48 35.5 -79t83.5 -31q50 0 83 30.5t33 79.5q0 51 -32.5 81 t-83.5 30q-48 0 -83.5 -30.5t-35.5 -80.5zM1006 289q0 147 108 244.5t262 97.5q147 0 259 -98t112 -244q0 -100 -53.5 -178.5t-137.5 -119t-180 -40.5q-157 0 -263.5 92.5t-106.5 245.5zM1260 289q0 -51 32.5 -81t83.5 -30q47 0 83 31t36 80t-36.5 81.5t-82.5 32.5 q-50 0 -83 -32.5t-33 -81.5z" />
<glyph unicode="&#x26;" horiz-adv-x="1708" d="M53 387q0 147 103.5 245t318.5 167q-12 83 -12 170q0 192 125.5 325t318.5 133q179 0 285 -95.5t106 -235.5q0 -149 -124 -269t-338 -182q82 -191 239 -315q154 102 154 241q0 71 -51 154l270 115q84 -113 84 -262q0 -82 -47.5 -181t-136.5 -186h6q130 0 237 29l45 -238 q-127 -31 -254 -31q-154 0 -311 66q-172 -68 -381 -68q-286 0 -461.5 112.5t-175.5 305.5zM352 410q0 -89 92.5 -139t243.5 -50q46 0 90 6q-158 145 -239 344q-101 -31 -144 -67.5t-43 -93.5zM768 971q0 -32 4 -90q219 73 219 215q0 40 -20.5 62t-55.5 22q-57 0 -102 -56 t-45 -153z" />
<glyph unicode="'" horiz-adv-x="624" d="M135 973l72 545l311 -70l-190 -510z" />
<glyph unicode="(" horiz-adv-x="851" d="M121 690q0 136 26.5 261t75 225.5t109.5 186.5t136 155t148 120.5t152 92.5l70 -109q-54 -48 -102 -100t-108.5 -140.5t-103 -184t-72.5 -229.5t-30 -278q0 -104 17 -206t44.5 -184t65 -160t75.5 -136.5t79.5 -110.5t73.5 -84.5t61 -56.5l-70 -104q-85 39 -170 101 t-172.5 157.5t-154 208.5t-108.5 263t-42 312z" />
<glyph unicode=")" horiz-adv-x="851" d="M14 -244q54 48 102 100t108.5 140.5t103 184.5t72.5 230t30 279q0 143 -32.5 281t-79 238t-107 189.5t-107.5 140.5t-90 87l70 105q85 -39 169.5 -100.5t172 -157.5t153.5 -208.5t108 -262.5t42 -312q0 -163 -39 -309.5t-101.5 -256.5t-149 -204.5t-173 -158.5 t-182.5 -113z" />
<glyph unicode="*" horiz-adv-x="1054" d="M51 1292q0 56 34 99t91 43q35 0 68.5 -20.5t72 -52.5t66.5 -46l51 -27l-28 -96l-50 2q-26 1 -92 -8.5t-92 -9.5q-54 0 -87.5 32t-33.5 84zM178 915q0 50 47 91q20 16 77.5 55t80.5 57l45 35l76 -63l-21 -48q-14 -31 -39 -105.5t-28 -82.5q-23 -63 -97 -63q-50 0 -95.5 37 t-45.5 87zM401 1569q0 47 31 82.5t98 36.5q64 -1 96.5 -37t32.5 -82q0 -31 -32.5 -106t-36.5 -99l-12 -53h-103l-10 53q-4 19 -34 95.5t-30 109.5zM551 1090l76 63l45 -35q23 -18 80 -56.5t77 -55.5q48 -42 48 -91q0 -50 -46 -87t-96 -37q-73 0 -96 63q-2 4 -28 80t-40 108z M623 1288l51 27q28 14 66.5 46t72 52.5t68.5 20.5q57 0 91 -43t34 -99q0 -52 -33.5 -84t-87.5 -32q-26 0 -92.5 9.5t-92.5 8.5l-49 -2z" />
<glyph unicode="+" horiz-adv-x="1198" d="M96 504v264h369v403h264v-403h375v-264h-375v-406h-264v406h-369z" />
<glyph unicode="," horiz-adv-x="671" d="M119 143q0 77 59 129t146 52q104 0 169.5 -73t65.5 -181q0 -121 -78 -236t-215 -237l-80 79q181 186 215 312q-50 -13 -100 -13q-77 0 -129.5 46.5t-52.5 121.5z" />
<glyph unicode="-" horiz-adv-x="651" d="M51 352v264h549v-264h-549z" />
<glyph unicode="." horiz-adv-x="626" d="M96 147q0 78 63 129.5t154 51.5q96 0 156.5 -50.5t60.5 -130.5q0 -77 -60.5 -125.5t-156.5 -48.5q-91 0 -154 49.5t-63 124.5z" />
<glyph unicode="/" horiz-adv-x="1173" d="M41 -215l795 1731h274l-795 -1731h-274z" />
<glyph unicode="0" horiz-adv-x="1470" d="M68 635q0 130 39.5 241t106 187t153 130t179.5 79.5t187 25.5q96 0 190 -25.5t181 -79.5t153.5 -130.5t106 -187t39.5 -240.5t-40 -240.5t-107 -187t-154.5 -130.5t-181 -79t-187.5 -25q-95 0 -188.5 25t-180 79t-152 130.5t-105 187t-39.5 240.5zM401 635 q0 -188 94.5 -303t237.5 -115t239.5 115t96.5 303q0 191 -94.5 305.5t-241.5 114.5q-142 0 -237 -115.5t-95 -304.5z" />
<glyph unicode="1" horiz-adv-x="991" d="M92 997q231 86 336 269h313v-1006h191v-260h-774v260h270v645q-88 -89 -270 -149z" />
<glyph unicode="2" horiz-adv-x="1286" d="M51 1032q119 116 278 190.5t330 75.5q134 1 249.5 -43t191.5 -136.5t76 -217.5q0 -81 -33 -146t-100.5 -115.5t-149.5 -88.5t-201 -78q-161 -53 -231 -99t-82 -114h565v182h258v-442h-1143v260h2q12 152 136 264t360 193q126 42 188.5 70.5t85 52.5t23.5 57 q0 60 -56 99.5t-159 39.5q-102 0 -214.5 -53t-213.5 -141z" />
<glyph unicode="3" horiz-adv-x="1280" d="M43 162l115 229q89 -64 215 -104.5t258 -40.5q113 0 179.5 33t66.5 90q0 49 -40.5 80.5t-135.5 48t-252 16.5h-170v234h170q189 0 282.5 41t93.5 116q0 57 -53.5 94t-150.5 37q-206 0 -420 -184l-156 207q108 100 267 169.5t323 69.5q230 0 373 -96.5t143 -263.5 q0 -98 -70 -173.5t-190 -121.5q156 -34 233.5 -109t77.5 -198q0 -100 -76 -180.5t-206.5 -125t-288.5 -44.5q-105 0 -199 16.5t-168 46t-122 54.5t-99 59z" />
<glyph unicode="4" horiz-adv-x="1353" d="M39 246v258l735 794h311v-794h242v-258h-242v-273h-301v273h-745zM358 504h426v467z" />
<glyph unicode="5" horiz-adv-x="1286" d="M51 113l101 262q124 -80 249 -126t224 -46q68 0 125 17.5t97 61t40 107.5q0 73 -73.5 117t-203.5 47q-33 0 -66.5 -2t-59 -4.5t-60.5 -9t-53 -10.5t-56.5 -14.5t-51.5 -14t-56.5 -17t-54.5 -16.5v805h1009v-264h-710v-211q117 21 229 18q79 -2 154 -18.5t143.5 -50.5 t119 -82.5t81 -118.5t30.5 -154q0 -128 -77.5 -235t-213 -165.5t-294.5 -47.5q-180 11 -313.5 56.5t-258.5 115.5z" />
<glyph unicode="6" horiz-adv-x="1302" d="M68 586q0 144 49.5 273t139.5 226.5t226.5 155t300.5 57.5q134 0 233 -29.5t191 -78.5l-98 -242q-148 90 -309 90q-138 0 -242.5 -72.5t-148.5 -197.5q164 82 331 82q95 1 183 -26.5t157.5 -78.5t111.5 -133.5t42 -183.5q0 -196 -156.5 -326.5t-388.5 -128.5 q-129 1 -243.5 47t-198 125.5t-132 194t-48.5 246.5zM383 547q17 -142 108.5 -228t213.5 -86q95 0 157 50t62 135t-65 135.5t-169 50.5q-147 0 -307 -57z" />
<glyph unicode="7" horiz-adv-x="1284" d="M76 721v541h1171v-265l-663 -1026l-260 133l585 893h-573v-276h-260z" />
<glyph unicode="8" horiz-adv-x="1378" d="M86 369q0 180 197 295q-140 99 -140 243q0 73 38.5 143t107.5 126t176 90t233 34q129 0 239 -33t183.5 -88.5t114.5 -127t41 -148.5q0 -161 -160 -268q180 -107 180 -260q0 -76 -38.5 -147.5t-109.5 -128.5t-182 -91.5t-245 -34.5q-155 0 -278.5 32.5t-200 88t-116.5 126 t-40 149.5zM395 403q0 -53 49.5 -93t124 -59.5t158.5 -19.5q106 0 183 35t77 103q0 16 -4.5 30t-15 25t-20.5 19.5t-29.5 16t-34 12.5t-40.5 11t-42.5 9t-47.5 9t-48 9q-110 19 -218 53q-92 -85 -92 -160zM451 905q0 -20 7 -36t23.5 -28t31.5 -20.5t44.5 -16.5t47 -12 t55 -11.5t53.5 -10.5q78 -14 180 -45q76 76 76 145q0 82 -76 126t-201 44q-59 0 -111.5 -12.5t-91 -44.5t-38.5 -78z" />
<glyph unicode="9" horiz-adv-x="1302" d="M68 842q0 129 70.5 234t195.5 164t278 58q173 -1 315 -79t225 -219t83 -316q0 -144 -49.5 -272.5t-139.5 -226.5t-226.5 -155t-301.5 -57q-231 0 -424 109l99 240q153 -91 309 -91q137 0 242 73t149 198q-160 -80 -330 -80q-96 -1 -184 26t-158 78t-111.5 133t-41.5 183z M379 854q0 -85 64.5 -135.5t168.5 -50.5q153 0 308 55q-17 141 -108.5 227t-213.5 86q-95 0 -157 -49t-62 -133z" />
<glyph unicode=":" horiz-adv-x="702" d="M135 147q0 79 62.5 130t154.5 51q94 0 154.5 -51t60.5 -130q0 -76 -60.5 -125t-154.5 -49q-92 0 -154.5 49t-62.5 125zM135 807q0 76 63 128t154 52q93 0 154 -51.5t61 -128.5q0 -76 -60.5 -125t-154.5 -49q-92 0 -154.5 49t-62.5 125z" />
<glyph unicode=";" horiz-adv-x="712" d="M135 143q0 76 59.5 128.5t145.5 52.5q104 0 171 -73.5t67 -180.5q0 -122 -78.5 -237t-216.5 -236l-80 79q177 182 215 312q-50 -13 -99 -13q-78 0 -131 46.5t-53 121.5zM135 807q0 76 63 128t154 52q93 0 154 -51.5t61 -128.5q0 -76 -60.5 -125t-154.5 -49 q-92 0 -154.5 49t-62.5 125z" />
<glyph unicode="&#x3c;" horiz-adv-x="1089" d="M37 598v74l952 571v-299l-543 -311l543 -305v-301z" />
<glyph unicode="=" horiz-adv-x="1306" d="M137 313v265h1028v-265h-1028zM137 694v264h1028v-264h-1028z" />
<glyph unicode="&#x3e;" horiz-adv-x="1089" d="M104 27v301l543 309l-543 307v299l953 -569v-74z" />
<glyph unicode="?" horiz-adv-x="985" d="M82 1348q193 86 403 86q209 0 347.5 -102.5t138.5 -268.5q0 -52 -18 -100.5t-47.5 -86.5t-75 -75t-91 -65.5t-104.5 -59.5q-164 -87 -208 -120t-44 -79q0 -34 14 -88l-100 -35q-70 91 -101.5 150t-31.5 123q0 76 59 128.5t197 118.5q115 53 160 89t45 90q0 45 -47 77.5 t-121 32.5q-120 0 -283 -69zM203 133q0 72 58.5 119t141.5 47q87 0 144 -46.5t57 -119.5q0 -69 -57.5 -114.5t-143.5 -45.5q-83 0 -141.5 46t-58.5 114z" />
<glyph unicode="@" horiz-adv-x="1937" d="M76 469q0 165 50 309t137.5 250.5t204 183.5t253.5 115.5t283 38.5q132 0 252 -32t213 -88t169 -131.5t125.5 -162.5t76 -180t26.5 -186q0 -125 -33.5 -226t-90 -164t-128 -96.5t-150.5 -33.5q-95 0 -165 41t-109 108q-74 -74 -176 -118t-201 -44q-54 0 -104.5 15t-93 44 t-68 79.5t-25.5 115.5q0 66 33 118.5t87 83t117.5 46.5t131.5 16q141 0 256 -36v49q0 52 -54 79t-135 27q-154 0 -333 -80l-56 197q232 96 441 96q194 0 293.5 -89.5t99.5 -242.5v-174q0 -78 29 -121t81 -43q72 0 125.5 89.5t53.5 263.5q0 93 -30.5 185.5t-91 174 t-142.5 144t-192 99t-232 36.5q-152 0 -291.5 -58.5t-241.5 -159t-162.5 -243t-60.5 -301.5q0 -147 53 -277.5t142 -221t207 -143t245 -52.5q123 0 236 36.5t180 85.5l63 -135q-68 -55 -193 -93t-280 -38q-123 0 -241.5 33.5t-224.5 103t-185.5 167.5t-126.5 237.5 t-47 302.5zM811 319q0 -34 19.5 -45.5t64.5 -11.5q46 0 116 20.5t138 61.5q-2 8 -2 25v4q-86 18 -182 18q-33 0 -55 -2t-47.5 -8.5t-38.5 -22t-13 -39.5z" />
<glyph unicode="A" horiz-adv-x="1705" d="M27 0v260h166l376 887h-145v258h850v-258h-144l379 -887h170v-260h-716v260h206l-77 205h-514l-76 -205h227v-260h-702zM664 694h342l-170 453h-2z" />
<glyph unicode="B" horiz-adv-x="1550" d="M68 0v260h229v885h-229v260h811q239 0 365 -104.5t126 -274.5q0 -185 -166 -289q279 -82 279 -340q0 -189 -143 -293t-416 -104h-856zM623 260h278q250 0 250 164q0 82 -55 120t-172 38h-301v-322zM623 815h176q116 0 177.5 38.5t61.5 129.5q0 45 -16 78.5t-43.5 50.5 t-56.5 25t-62 8h-237v-330z" />
<glyph unicode="C" horiz-adv-x="1560" d="M68 698q0 160 56 298.5t150.5 233.5t221 149.5t266.5 54.5q242 0 401 -150v121h297v-490l-219 -20q-59 123 -164.5 201t-261.5 78q-77 0 -148.5 -32t-128 -90.5t-90.5 -149.5t-34 -200q0 -193 122.5 -326.5t299.5 -133.5q106 0 190 34t142 89t118 143l213 -174 q-113 -172 -280 -266.5t-383 -94.5q-160 0 -302.5 56.5t-244.5 153.5t-161.5 231t-59.5 284z" />
<glyph unicode="D" horiz-adv-x="1673" d="M68 0v260h229v885h-229v260h702q100 0 198 -17.5t192.5 -52t174.5 -92.5t141 -133.5t95.5 -180t34.5 -227.5q0 -122 -34.5 -226.5t-95.5 -180t-141 -133t-174.5 -92.5t-192.5 -52.5t-198 -17.5h-702zM629 260h104q50 0 96 4t100.5 16t100 31.5t89.5 53.5t74 79t48.5 111 t18.5 147q0 112 -35.5 195.5t-88 129.5t-128 74t-139 36t-136.5 8h-104v-885z" />
<glyph unicode="E" horiz-adv-x="1652" d="M68 0v260h227v885h-227v260h1450v-522h-289v262h-608v-326h215v162h243v-557h-243v162h-215v-326h608v262h289v-522h-1450z" />
<glyph unicode="F" horiz-adv-x="1515" d="M68 0v260h229v885h-229v260h1380v-541h-289v281h-536v-344h180v162h241v-560h-241v164h-180v-307h245v-260h-800z" />
<glyph unicode="G" horiz-adv-x="1662" d="M68 702q0 201 93 369.5t254 265.5t353 97q268 0 451 -156v127h290v-467l-217 -14q-64 103 -177.5 176.5t-260.5 73.5q-191 0 -315.5 -126t-124.5 -346q0 -206 123 -334t321 -128q207 0 354 94v184h-374v244h671v-572q-110 -97 -282 -158t-369 -61q-183 0 -333 56.5 t-249.5 155t-153.5 232t-54 287.5z" />
<glyph unicode="H" horiz-adv-x="1888" d="M68 0v260h229v885h-229v260h788v-260h-225v-307h629v307h-228v260h789v-260h-228v-885h228v-260h-789v260h228v334h-629v-334h225v-260h-788z" />
<glyph unicode="I" horiz-adv-x="927" d="M68 0v260h229v885h-229v260h792v-260h-231v-885h231v-260h-792z" />
<glyph unicode="J" horiz-adv-x="1155" d="M4 117l135 225q140 -100 248 -100h14q90 6 138.5 59.5t48.5 171.5l-4 672h-344v260h901v-260h-221v-688q0 -150 -69 -261.5t-181.5 -167t-251.5 -55.5q-126 0 -237.5 41t-176.5 103z" />
<glyph unicode="K" horiz-adv-x="1769" d="M68 0v260h229v885h-229v260h770v-260h-209v-457l569 457h-184v260h706v-260h-155l-445 -357l498 -528h137v-260h-711v260h156l-311 342l-260 -209v-133h209v-260h-770z" />
<glyph unicode="L" horiz-adv-x="1499" d="M68 0v260h229v885h-229v260h786v-260h-227v-885h493v330h312v-590h-1364z" />
<glyph unicode="M" horiz-adv-x="2283" d="M68 0v260h229v885h-229v260h591l486 -969l477 969h594v-260h-229v-885h229v-260h-768v260h215v305q0 153 47 414l-485 -981h-183l-475 958q37 -265 37 -391v-305h215v-260h-751z" />
<glyph unicode="N" horiz-adv-x="1931" d="M68 0v260h229v885h-229v260h540l762 -862v602h-229v260h749v-260h-217v-1157l-178 -2l-887 977v-703h230v-260h-770z" />
<glyph unicode="O" d="M68 702q0 150 58 285t159 233.5t244.5 156t306.5 57.5q162 0 304.5 -57.5t242.5 -156t158 -233.5t58 -285t-58 -284.5t-158 -232.5t-242.5 -155t-304.5 -57q-163 0 -306.5 57t-244.5 155t-159 232.5t-58 284.5zM414 702q0 -128 48 -231t145.5 -166t228.5 -63 q96 0 175.5 37t131.5 100.5t81 146.5t29 176q0 196 -113.5 329.5t-303.5 133.5q-130 0 -228 -65t-146 -169t-48 -229z" />
<glyph unicode="P" horiz-adv-x="1511" d="M68 0v260h229v885h-229v260h825q254 0 409.5 -125t155.5 -330q0 -213 -153 -344t-408 -131h-274v-215h251v-260h-806zM623 737l256 -2q251 0 251 219q0 55 -23 94.5t-62.5 59.5t-82 28.5t-92.5 8.5h-247v-408z" />
<glyph unicode="Q" d="M68 702q0 150 58 285t159 233.5t244.5 156t306.5 57.5q162 0 304.5 -57.5t242.5 -156t158 -233.5t58 -285q0 -182 -82 -336.5t-227 -254.5q86 -72 195 -72q71 0 123 12l39 -244q-107 -32 -209 -32q-243 0 -422 217q-90 -19 -180 -19q-163 0 -306.5 57t-244.5 155 t-159 232.5t-58 284.5zM414 590q30 -160 140.5 -260.5t279.5 -100.5q24 0 36 2l-2 2l-61 142q-55 118 -119 166.5t-170 48.5h-104zM416 825h102q69 0 125.5 -8t119 -30.5t113.5 -60t101 -101t90 -148.5l61 -131q66 66 101 158.5t35 197.5q0 132 -49.5 238.5t-148.5 172 t-232 65.5q-165 0 -274.5 -98.5t-143.5 -254.5z" />
<glyph unicode="R" horiz-adv-x="1634" d="M68 0v260h229v885h-229v260h841q254 0 407.5 -109.5t153.5 -310.5q0 -148 -80.5 -247.5t-224.5 -143.5l47 -107q96 -223 250 -223q29 0 97 15l65 -263q-79 -45 -201 -45q-57 1 -107.5 12.5t-103 41t-97.5 76.5t-87 122t-74 174l-53 162h-272v-301h219v-258h-780zM629 803 h291q38 0 74 9t71 28t56.5 56.5t21.5 88.5q0 45 -20.5 78t-55 50t-71 24.5t-76.5 7.5h-291v-342z" />
<glyph unicode="S" horiz-adv-x="1474" d="M139 2v512l205 10q106 -129 266 -210t287 -81q76 0 120 27t44 80q0 64 -100.5 117t-348.5 121q-245 67 -358 176.5t-113 275.5q0 120 69.5 214t178.5 142t234 48q251 0 421 -158v129h289v-498l-194 -10q-67 130 -187 203.5t-245 73.5q-97 0 -158.5 -35t-61.5 -95 q0 -56 76 -97.5t275 -96.5q101 -29 179 -58.5t154 -72t125.5 -90t80 -113t30.5 -141.5q0 -186 -136.5 -294t-350.5 -108q-244 0 -492 197v-168h-289z" />
<glyph unicode="T" horiz-adv-x="1615" d="M53 864v541h1510v-541h-289v281h-299v-885h223v-260h-780v260h225v885h-301v-281h-289z" />
<glyph unicode="U" horiz-adv-x="1814" d="M14 1145v260h762v-260h-198l-3 -570q0 -149 94 -242t238 -93q145 0 240 95t94 245l-4 565h-201v260h764v-260h-227v-590q0 -168 -87.5 -302t-239.5 -208t-339 -74q-193 0 -344.5 74.5t-235 207.5t-83.5 302v590h-230z" />
<glyph unicode="V" horiz-adv-x="1701" d="M0 1145v260h739v-260h-186l317 -737l306 737h-207v260h733v-260h-213l-553 -1174h-174l-549 1174h-213z" />
<glyph unicode="W" horiz-adv-x="2396" d="M0 1145v260h750v-260h-207l211 -653l350 886h194l385 -891l197 658h-205v260h721v-260h-205l-422 -1174h-174l-417 883l-375 -883h-172l-432 1174h-199z" />
<glyph unicode="X" horiz-adv-x="1652" d="M27 0v260h166l419 436l-444 449h-141v260h729v-231h-178l272 -287l274 287h-176v231h678v-260h-184l-410 -416l453 -469h141v-260h-733v231h178l-274 308l-283 -308h184v-231h-671z" />
<glyph unicode="Y" horiz-adv-x="1630" d="M27 1145v260h673v-260h-127l283 -361l274 361h-200v260h674v-260h-172l-449 -565v-320h234v-260h-799v260h233v307l-467 578h-157z" />
<glyph unicode="Z" horiz-adv-x="1566" d="M121 864v541h1325v-231l-813 -844q-27 -28 -72.5 -48.5t-79.5 -25.5l4 -14q93 18 162 18h522v281h289v-541h-1327v231l811 840q56 53 152 78l-4 16q-83 -18 -162 -18h-518v-283h-289z" />
<glyph unicode="[" horiz-adv-x="745" d="M219 -354v2109h502v-260h-221v-1589h221v-260h-502z" />
<glyph unicode="\" horiz-adv-x="1138" d="M45 1516h277l788 -1731h-274z" />
<glyph unicode="]" horiz-adv-x="745" d="M25 -94h221v1589h-221v260h501v-2109h-501v260z" />
<glyph unicode="^" horiz-adv-x="1122" d="M43 879l428 786h205l401 -786h-305l-205 464l-217 -464h-307z" />
<glyph unicode="_" horiz-adv-x="890" d="M-27 -184h945v-260h-945v260z" />
<glyph unicode="a" horiz-adv-x="1259" d="M120 428q37 64 96.5 102t129.5 58t143 20q160 0 299 -63v59q0 62 -62.5 93.5t-160.5 31.5q-148 0 -360 -80l-62 234q256 106 467 106q232 0 352.5 -108t120.5 -291v-291q0 -59 52 -59q27 0 51 8l59 -219q-83 -45 -201 -45q-80 0 -144 44.5t-93 125.5q-189 -183 -397 -183 q-141 0 -235 81q-93 80 -93 230q0 81 38 146zM391 297q0 -36 31.5 -54t79.5 -18t124.5 29.5t161.5 91.5v4q-111 39 -235 39q-69 -2 -115.5 -25t-46.5 -67z" />
<glyph unicode="b" horiz-adv-x="1345" d="M0 1161v244h469v-627q82 100 181.5 155.5t197.5 55.5q88 0 169 -38.5t141.5 -105t97 -162t36.5 -202.5q0 -218 -146 -364t-372 -146q-194 0 -346 156l-88 -127h-176v1161h-164zM469 319q121 -88 225 -88q126 0 199.5 70t73.5 184q1 107 -63 176q-63 68 -166 68h-3 q-62 -2 -132 -47.5t-134 -126.5v-236z" />
<glyph unicode="c" horiz-adv-x="1091" d="M53 487q0 104 39.5 197.5t105.5 160t155 105.5t184 39q92 0 156.5 -25.5t115.5 -78.5v80h213v-353l-131 -8q-101 133 -254 133q-112 0 -185 -68t-73 -177q0 -115 72 -189t180 -74q82 0 149 30t144 93l127 -202q-93 -85 -208.5 -133t-236.5 -48q-152 0 -278.5 66 t-200.5 185.5t-74 266.5z" />
<glyph unicode="d" horiz-adv-x="1353" d="M53 477q0 220 146 366t370 146q160 0 297 -106v278h-190v244h495v-1106q0 -59 50 -59q29 0 49 8l63 -219q-83 -45 -192 -45q-81 0 -146 36.5t-98 104.5q-165 -154 -360 -154q-126 0 -237 65t-179 182.5t-68 258.5zM379 477q1 -107 67 -177q66 -69 178 -69h3 q107 3 239 105v313q-116 80 -215 80q-126 0 -199 -69t-73 -183z" />
<glyph unicode="e" horiz-adv-x="1165" d="M53 465q0 93 31 176.5t85.5 146t126.5 108.5t157 69.5t174 23.5q203 0 329.5 -85t126.5 -228q0 -96 -58.5 -165t-148 -100.5t-196.5 -31.5q-172 0 -330 74q9 -105 88.5 -163.5t194.5 -58.5q200 0 358 123l127 -202q-210 -181 -497 -181q-87 0 -169.5 20t-154.5 61.5 t-126.5 99.5t-86 138.5t-31.5 174.5zM393 616q97 -32 207 -32q84 1 128 25.5t44 66.5q0 33 -33 53.5t-88 20.5q-76 0 -146 -37t-112 -97z" />
<glyph unicode="f" horiz-adv-x="917" d="M53 0v244h193v477h-193v244h193v118q0 188 123 303t325 115q105 0 190.5 -24.5t190.5 -79.5l-108 -238q-69 45 -119.5 63.5t-112.5 18.5q-87 0 -136.5 -48t-49.5 -103v-125h291v-244h-291v-477h266v-244h-762z" />
<glyph unicode="g" horiz-adv-x="1183" d="M31 -160q0 104 112 201q-77 64 -77 164q0 139 145 233q-78 85 -78 201q0 68 28.5 126.5t75.5 99t108 69t125.5 42t127.5 13.5q116 0 211 -33q35 108 124 159.5t210 51.5v-249q-125 0 -193 -37q117 -93 117 -236q0 -85 -44.5 -154.5t-114.5 -111.5t-150.5 -64t-159.5 -22 q-129 0 -244 47q-22 -31 -22 -61q0 -74 108 -74q63 0 182.5 3t208.5 3q151 0 241.5 -72.5t90.5 -208.5q0 -111 -89 -195t-238.5 -127.5t-333.5 -43.5q-209 0 -340 71t-131 205zM295 -92q0 -50 59.5 -73t188.5 -23q136 0 237 27.5t101 70.5q0 36 -27.5 49.5t-89.5 13.5 q-38 0 -163 -6t-224 -6q-35 0 -70 6q-12 -27 -12 -59zM436 639q0 -58 43 -96.5t121 -38.5q73 0 117.5 41t44.5 100q0 58 -42.5 95.5t-119.5 37.5q-78 0 -121 -39.5t-43 -99.5z" />
<glyph unicode="h" horiz-adv-x="1501" d="M41 0v244h192v917h-192v244h504v-643q104 119 201 173t217 54q183 0 271.5 -119.5t88.5 -357.5v-268h164v-244h-631v244h156v268q0 91 -48.5 146t-134.5 55q-130 0 -284 -181v-288h153v-244h-657z" />
<glyph unicode="i" horiz-adv-x="757" d="M53 0v244h193v477h-193v244h504v-721h195v-244h-699zM182 1272q0 71 57.5 117.5t141.5 46.5q89 0 146 -46t57 -118q0 -68 -57 -113t-146 -45q-84 0 -141.5 45.5t-57.5 112.5z" />
<glyph unicode="j" horiz-adv-x="710" d="M-172 -432l76 256q47 -16 67.5 -22t50.5 -11.5t62 -5.5q76 0 121 57t45 160v719h-193v244h500v-957q0 -237 -128.5 -366t-330.5 -129q-48 0 -92.5 6.5t-63 11t-64 20t-50.5 17.5zM184 1272q0 71 57.5 117.5t141.5 46.5q89 0 146 -46t57 -118q0 -68 -57 -113t-146 -45 q-84 0 -141.5 45.5t-57.5 112.5z" />
<glyph unicode="k" horiz-adv-x="1439" d="M41 0v244h190v917h-190v244h489v-592q201 176 412 176q73 0 137 -18.5t116 -54.5q53 -36 83 -98q30 -60 29 -135q0 -111 -71 -187q-70 -74 -179 -111q13 -69 55.5 -115t106.5 -49h12q58 0 119 27l59 -219q-91 -58 -217 -58q-148 0 -241.5 104t-110.5 279q-143 7 -310 68 v-178h164v-244h-653zM532 610q132 -40 242 -40q17 0 33 1q78 5 126 28.5t48 66.5q0 71 -129 71q-59 0 -143.5 -31.5t-176.5 -95.5z" />
<glyph unicode="l" horiz-adv-x="745" d="M41 0v244h190v917h-190v244h502v-1161h196v-244h-698z" />
<glyph unicode="m" horiz-adv-x="2207" d="M53 0v244h193v477h-193v244h504v-183q170 207 389 207q118 0 200 -62.5t120 -181.5q180 244 415 244q164 0 256.5 -120.5t92.5 -344.5v-280h163v-244h-626v244h151v280q0 73 -39.5 123.5t-111.5 50.5q-139 0 -271 -163v-11v-280h152v-244h-619v244h156v280 q0 73 -41.5 123.5t-114.5 50.5q-135 0 -272 -166v-288h156v-244h-660z" />
<glyph unicode="n" horiz-adv-x="1525" d="M53 0v244h193v477h-193v244h504v-215q107 125 203 182t211 57q185 0 281 -120.5t96 -356.5v-268h163v-244h-630v244h155v268q0 81 -48.5 133.5t-133.5 52.5q-144 0 -297 -184v-270h156v-244h-660z" />
<glyph unicode="o" horiz-adv-x="1220" d="M53 479q0 150 80 268.5t206 180t271 61.5q83 0 164 -23t151.5 -67.5t124.5 -105t85.5 -142t31.5 -172.5q0 -150 -77.5 -267.5t-204 -179t-275.5 -61.5q-145 0 -271 61.5t-206 179.5t-80 267zM379 479q0 -122 66.5 -194t164.5 -72t165 72t67 194t-67 194t-165 72 t-164.5 -72t-66.5 -194z" />
<glyph unicode="p" horiz-adv-x="1394" d="M23 -203h190v924h-190v244h495v-187q82 100 180.5 155.5t196.5 55.5q118 0 220 -65t164 -182.5t62 -260.5q0 -218 -146.5 -364t-369.5 -146q-172 0 -307 117v-291h187v-243h-682v243zM518 319q121 -88 225 -88q127 0 200 70t73 184q0 107 -64 176q-62 68 -165 68h-3 q-63 -2 -132.5 -46.5t-133.5 -125.5v-238z" />
<glyph unicode="q" horiz-adv-x="1353" d="M53 481q0 146 72.5 263t195.5 181t271 64q159 0 330 -74l82 80h106v-178q122 -77 213 -168v-311q-88 91 -213 182v-723h190v-243h-716v243h221v271q-134 -97 -293 -97q-191 0 -325 145.5t-134 364.5zM379 481q0 -108 66 -179q65 -71 175 -71h3q91 0 182 62v403 q-91 33 -152 33q-117 0 -195.5 -68t-78.5 -180z" />
<glyph unicode="r" horiz-adv-x="1161" d="M53 0v244h193v477h-193v244h504v-211q97 108 205 171.5t201 63.5h116v-450h-268v139h-4q-41 0 -107 -43q-70 -45 -143 -125v-266h195v-244h-699z" />
<glyph unicode="s" horiz-adv-x="1011" d="M41 698q0 122 96.5 207.5t251.5 85.5q183 0 303 -117v91h217v-320l-135 -12q-108 162 -291 162q-55 0 -86.5 -17t-31.5 -45q0 -30 48 -56.5t181 -66.5q186 -55 281.5 -139t95.5 -211q0 -125 -104 -207t-265 -82q-208 0 -338 119v-92h-217v321l137 11q49 -71 153.5 -116.5 t188.5 -45.5q58 0 89.5 16.5t31.5 46.5q0 20 -16 36.5t-71.5 40.5t-156.5 52q-187 52 -274.5 131.5t-87.5 206.5z" />
<glyph unicode="t" horiz-adv-x="919" d="M14 721v244h189v268h311v-268h272v-244h-272v-313q0 -75 34 -119.5t105 -44.5q83 0 148 30l88 -227q-113 -76 -291 -76q-186 0 -290.5 119.5t-104.5 317.5v313h-189z" />
<glyph unicode="u" horiz-adv-x="1390" d="M0 721v244h477v-510q0 -195 172 -195q111 0 248 146v315h-152v244h463v-666q0 -59 52 -59q29 0 49 8l61 -219q-83 -45 -190 -45q-103 0 -176.5 51.5t-96.5 146.5q-100 -109 -188 -160t-187 -51q-176 0 -271 123.5t-95 360.5v266h-166z" />
<glyph unicode="v" horiz-adv-x="1337" d="M41 721v244h565v-217h-123l222 -420l210 420h-135v217h516v-244h-122l-414 -750h-174l-428 750h-117z" />
<glyph unicode="w" horiz-adv-x="1828" d="M41 721v244h584v-217h-158l135 -381l252 571h190l242 -559l131 369h-155v217h526v-244h-119l-313 -748h-170l-271 549l-268 -549h-174l-305 748h-127z" />
<glyph unicode="x" horiz-adv-x="1300" d="M68 -2v244h114l283 223l-287 256h-110v244h579v-217h-102l145 -130l156 130h-107v217h494v-244h-117l-280 -221l286 -258h111v-244h-576v217h97l-144 131l-155 -131h110v-217h-497z" />
<glyph unicode="y" horiz-adv-x="1337" d="M14 -387l119 235q102 -63 186 -63q86 0 147 46t114 157l-394 733h-116v244h577v-217h-133l207 -445l199 445h-127v217h505v-244h-108l-361 -774q-105 -226 -226.5 -330t-283.5 -104q-86 0 -154.5 24.5t-150.5 75.5z" />
<glyph unicode="z" horiz-adv-x="1220" d="M41 76q20 53 44 100.5t54 88t56.5 73.5t63.5 64.5t63 53t67 47.5t62 39t62.5 36.5t55.5 31.5q15 8 40.5 24.5t37.5 22.5q-115 70 -297 70v-188h-260v450h184q88 0 159.5 -10t121.5 -25t99 -44t81 -55t80 -69q58 73 90 207l260 -100q-31 -107 -69.5 -184.5t-93 -136 t-117 -100t-152.5 -83.5q-136 -64 -190 -102q92 -56 176 -56q67 0 119.5 51.5t70.5 123.5l267 -76q-11 -86 -52.5 -156t-100 -113.5t-124 -66.5t-129.5 -23q-116 0 -199 41.5t-180 134.5q-51 -65 -96 -176z" />
<glyph unicode="{" horiz-adv-x="1005" d="M121 578v225h119q130 0 194 32t64 113q0 29 -21.5 63.5t-54.5 66t-70.5 73t-70.5 82.5t-54.5 96.5t-21.5 112.5q0 162 122.5 259t303.5 97q82 0 155.5 -13t113 -26.5t106.5 -40.5l-86 -239q-145 57 -244 57q-76 0 -124 -27t-48 -88q0 -33 28 -68.5t67.5 -71.5t79 -77 t67.5 -100.5t28 -126.5q0 -117 -76.5 -189t-208.5 -98q132 -28 208.5 -100t76.5 -189q0 -67 -28 -126t-67.5 -100.5t-79 -77t-67.5 -71.5t-28 -69q0 -61 48 -88t124 -27q108 0 244 60l86 -242q-67 -27 -106.5 -40.5t-113 -26.5t-155.5 -13q-181 0 -303.5 97.5t-122.5 259.5 q0 50 16 98t42 85.5t57 73t62.5 66t57.5 58.5t42 57t16 55q0 82 -65.5 116.5t-192.5 31.5h-119z" />
<glyph unicode="|" horiz-adv-x="765" d="M233 -395v2109h297v-2109h-297z" />
<glyph unicode="}" horiz-adv-x="1005" d="M0 -340l86 242q147 -60 244 -60q170 0 170 115q0 33 -28 69t-67.5 71.5t-79.5 77t-68 100.5t-28 126q0 117 76.5 189t208.5 100q-132 26 -208.5 98t-76.5 189q0 67 28 126.5t67.5 100.5t79.5 77t68 71.5t28 68.5q0 115 -170 115q-104 0 -244 -57l-86 239q70 28 108.5 41 t112.5 26t156 13q180 0 302 -97t122 -259q0 -69 -30 -133t-72.5 -111.5t-85.5 -89.5t-73 -83.5t-30 -76.5q0 -82 65.5 -116t192.5 -29h115v-225h-115q-129 0 -193.5 -33.5t-64.5 -114.5q0 -33 30 -74t72.5 -83.5t85.5 -91t73 -112.5t30 -132q0 -162 -122.5 -259.5 t-301.5 -97.5q-82 0 -156 13t-112.5 26t-108.5 41z" />
<glyph unicode="~" horiz-adv-x="1443" d="M104 418q1 80 13.5 152t40.5 138t70 114.5t105.5 77t141.5 28.5q72 0 135 -24.5t105 -58t94 -87.5q67 -75 99.5 -101t62.5 -26q108 0 108 256l262 -6q-1 -80 -13.5 -152t-41 -138.5t-69.5 -115t-104.5 -77.5t-141.5 -29q-107 0 -183.5 46.5t-160.5 137.5q-66 69 -95 92 t-57 23q-53 0 -80 -61.5t-30 -196.5z" />
<glyph unicode="&#xa1;" horiz-adv-x="774" d="M166 100q0 51 24.5 146.5t57 229t45.5 255.5l31 299h122l31 -299q20 -114 54.5 -253t55.5 -231.5t21 -146.5q0 -91 -54 -152t-167 -61t-167 61t-54 152zM170 1286q0 76 61 125t156 49q90 0 152.5 -49t62.5 -125q0 -78 -62 -129t-153 -51q-95 0 -156 50.5t-61 129.5z" />
<glyph unicode="&#xa2;" horiz-adv-x="1173" d="M90 635q0 131 63 239t162.5 170t216.5 76v178h238v-208q33 -15 82 -54v70h213v-348l-156 -2q-67 88 -153 114v-477q102 29 202 133l146 -207q-148 -134 -334 -163v-183h-238v185q-87 16 -163.5 53t-140.5 94t-101 142.5t-37 187.5zM403 635q0 -77 39 -138.5t107 -90.5 v458q-66 -31 -106 -90t-40 -139z" />
<glyph unicode="&#xa3;" horiz-adv-x="1402" d="M137 -27v256h84q25 0 51.5 4.5t61.5 16t57.5 40t22.5 70.5v19h-271v174h211q-18 32 -28 55h-183v176h103q-15 62 -15 99q0 188 126.5 301.5t320.5 113.5q205 0 360 -108v80h262v-410l-161 -12q-43 59 -97 102t-108 64.5t-100.5 31t-88.5 9.5q-89 0 -148.5 -44.5 t-59.5 -127.5q0 -41 20 -99h485v-176h-399q6 -14 29 -55h370v-174h-309q2 -12 2 -39v-21q135 -88 236 -88q45 0 78.5 15t55 45.5t32.5 54.5t24 64l228 -76q-31 -167 -143.5 -264t-276.5 -97q-151 0 -326 142q-142 -142 -422 -142h-84z" />
<glyph unicode="&#xa4;" horiz-adv-x="1126" d="M84 164l168 201q-94 105 -94 245t90 248l-164 197l117 108l174 -209q87 41 184 41q104 0 195 -43l174 211l114 -108l-168 -201q84 -100 84 -244q0 -140 -86 -243l170 -203l-114 -107l-176 213q-88 -45 -193 -45q-100 0 -182 43l-176 -211zM401 610q0 -72 45.5 -124 t112.5 -52q69 0 113.5 52t44.5 124q0 77 -44 125.5t-114 48.5q-68 0 -113 -49t-45 -125z" />
<glyph unicode="&#xa5;" horiz-adv-x="1755" d="M135 1012v258h623v-258h-119l260 -316l240 316h-125v258h606v-258h-178l-168 -203h293v-158h-424l-43 -53h467v-162h-529v-176h246v-260h-809v260h246v176h-533v162h457l-47 53h-410v158h269l-181 203h-141z" />
<glyph unicode="&#xa6;" horiz-adv-x="765" d="M233 -395v893h297v-893h-297zM233 823v891h297v-891h-297z" />
<glyph unicode="&#xa7;" horiz-adv-x="1583" d="M72 381q0 240 307 362q-146 134 -146 289q0 180 128 291t319 111q240 0 410 -156v127h292v-498l-192 -10q-69 109 -209.5 193t-261.5 84q-63 0 -100 -29t-37 -78q0 -55 82 -102t280 -103q104 -29 185.5 -60.5t156 -74t123.5 -91.5t78 -113.5t29 -139.5q0 -242 -308 -363 q146 -134 146 -288q0 -180 -126.5 -290t-320.5 -110q-236 0 -407 154v-125h-297v496l194 10q71 -108 210 -191.5t261 -83.5q65 0 103.5 29t38.5 78q0 53 -83 99.5t-280 105.5q-104 29 -186 60t-157 73.5t-124.5 91.5t-78.5 113t-29 139zM420 463q0 -30 10 -55t35 -46 t52.5 -37t79 -34t96 -31.5t120.5 -34.5q134 -38 236 -92q122 64 122 168q0 36 -17.5 65.5t-45 51t-83 44t-108 38.5t-143.5 41q-134 39 -233 90q-121 -63 -121 -168z" />
<glyph unicode="&#xa9;" horiz-adv-x="2093" d="M76 508q0 197 73 369t200.5 294t308 192.5t386.5 70.5q209 0 390.5 -70.5t309 -193t200.5 -294t73 -368.5q0 -196 -73 -367t-200.5 -293.5t-309 -193t-390.5 -70.5q-206 0 -386.5 70.5t-308 193t-200.5 294t-73 366.5zM256 508q-1 -162 57.5 -304t161 -244.5t250.5 -162 t319 -59.5q173 0 321.5 59.5t251 162t160 244.5t56.5 304q1 163 -56.5 305.5t-160.5 245t-251 161t-321 58.5q-171 0 -319 -59t-251 -161t-161 -244.5t-57 -305.5zM553 487q0 137 62.5 242t163 158t220.5 53q168 0 275 -96v88h194v-334l-168 -10q-39 69 -96 112t-147 43 q-99 0 -172.5 -72t-73.5 -184q0 -98 73.5 -160.5t174.5 -62.5q83 0 147.5 40t130.5 116l142 -162q-166 -219 -426 -219q-215 0 -357.5 125t-142.5 323z" />
<glyph unicode="&#xaa;" horiz-adv-x="847" d="M82 1010q0 83 69.5 132.5t161.5 49.5q72 0 185 -23v25q0 44 -35.5 65t-85.5 21q-97 0 -225 -59l-41 133q87 38 151 55.5t139 17.5q131 0 201 -63t70 -174v-199q0 -37 26 -37q23 0 23 41v84h88v-84q0 -72 -44 -113.5t-108 -41.5q-110 0 -147 86q-114 -92 -223 -92 q-87 0 -146 46t-59 130zM106 571v131h674v-131h-674zM279 1016q0 -17 15.5 -29t45.5 -12q66 0 158 59v23q-66 10 -136 10q-83 0 -83 -51z" />
<glyph unicode="&#xab;" horiz-adv-x="1798" d="M111 367v266h24q501 0 625 422l239 -90q-63 -202 -215 -318.5t-422 -144.5q272 -30 425 -146t217 -317l-238 -92q-66 212 -222 316t-407 104h-26zM852 367v266h25q263 0 411.5 102.5t212.5 319.5l240 -90q-63 -202 -215 -318.5t-422 -144.5q272 -30 424.5 -146 t214.5 -317l-238 -92q-66 216 -213.5 318t-412.5 102h-27z" />
<glyph unicode="&#xac;" horiz-adv-x="1273" d="M94 707v262h1094v-764h-260v502h-834z" />
<glyph unicode="&#xad;" horiz-adv-x="651" d="M51 352v264h549v-264h-549z" />
<glyph unicode="&#xae;" horiz-adv-x="2093" d="M76 508q0 197 73 369t200.5 294t308 192.5t386.5 70.5q209 0 390.5 -70.5t309 -193t200.5 -294t73 -368.5q0 -196 -73 -367t-200.5 -293.5t-309 -193t-390.5 -70.5q-206 0 -386.5 70.5t-308 193t-200.5 294t-73 366.5zM256 508q-1 -162 57.5 -304t161 -244.5t250.5 -162 t319 -59.5q173 0 321.5 59.5t251 162t160 244.5t56.5 304q1 163 -56.5 305.5t-160.5 245t-251 161t-321 58.5q-171 0 -319 -59t-251 -161t-161 -244.5t-57 -305.5zM578 61v164h135v533h-135v170h555q160 0 244.5 -68t84.5 -182q0 -87 -61 -159.5t-174 -96.5q17 -12 32 -31.5 t21 -30.5t18 -36l10.5 -21t9.5 -19.5t8.5 -15.5t9 -13t9.5 -9t12 -6.5t13 -1.5q22 0 33.5 13.5t11.5 35.5v45h199v-45q0 -104 -64 -172t-170 -68q-47 0 -86.5 14.5t-67 35.5t-52 54t-39 61t-31.5 67q-19 44 -29.5 65.5t-26.5 42t-34 27.5h-90v-189h141v-164h-487zM924 584 h209q41 0 74.5 23t33.5 71q0 40 -32 60t-76 20h-209v-174z" />
<glyph unicode="&#xb0;" horiz-adv-x="903" d="M94 1315q0 147 106 242.5t255 95.5q155 0 254.5 -93.5t99.5 -244.5q0 -143 -101 -241.5t-253 -98.5q-146 0 -253.5 99.5t-107.5 240.5zM313 1315q0 -61 42 -106.5t100 -45.5q61 0 99 45t38 107q0 68 -37 108.5t-100 40.5q-60 0 -101 -42t-41 -107z" />
<glyph unicode="&#xb1;" horiz-adv-x="1208" d="M180 98v262h838v-262h-838zM180 707v264h285v243h264v-243h301v-264h-301v-244h-264v244h-285z" />
<glyph unicode="&#xb2;" horiz-adv-x="759" d="M29 1466q68 66 163 109.5t195 46.5q79 2 147 -22.5t112 -79.5t44 -131q0 -48 -19 -85t-60 -67t-86 -51t-115 -47q-95 -34 -137.5 -61.5t-49.5 -65.5h334v110h152v-262h-672v152q15 181 289 270q112 37 144 56t32 48q0 36 -32 59t-95 23q-119 0 -252 -116z" />
<glyph unicode="&#xb3;" horiz-adv-x="743" d="M23 936l83 137q133 -82 259 -82q55 0 91 17.5t36 50.5q0 43 -53.5 59.5t-182.5 16.5h-96v153h96q105 0 156 20t51 66q0 32 -29.5 52t-73.5 20q-92 0 -229 -109l-102 125q57 60 149 102t189 42q134 0 217.5 -57t83.5 -156q0 -57 -41 -101t-113 -71q93 -22 138.5 -66.5 t45.5 -118.5q0 -88 -96 -145t-240 -57q-190 0 -339 102z" />
<glyph unicode="&#xb5;" horiz-adv-x="1425" d="M23 705v260h501v-510q0 -91 37 -142t133 -51q108 0 238 139v564h311v-666q0 -59 53 -59q27 0 47 8l62 -219q-83 -45 -188 -45q-95 0 -166 44t-101 126q-67 -90 -135 -135.5t-153 -45.5q-132 0 -199 70q7 -30 20.5 -88t20.5 -90t13.5 -76t6.5 -78v-157h-305v1151h-196z " />
<glyph unicode="&#xb6;" horiz-adv-x="1740" d="M29 920q0 147 78.5 265t217.5 183.5t312 65.5q171 0 341.5 -57t307.5 -148v176h281v-1380q0 -115 -34 -209.5t-89 -156t-127.5 -103.5t-147.5 -60t-151 -18q-258 0 -623 162l105 251q137 -72 295 -112v661q-95 -30 -187 -30q-152 0 -283 61.5t-213.5 180t-82.5 268.5z M377 920q0 -118 82.5 -181t199.5 -65q77 0 136 12v477q-76 13 -142 13q-107 0 -191.5 -72.5t-84.5 -183.5zM1073 -238q41 10 76.5 29t67.5 50t50.5 78.5t18.5 107.5v907q-108 80 -213 133v-1305z" />
<glyph unicode="&#xb7;" horiz-adv-x="630" d="M98 672q0 76 64 128t153 52q96 0 156.5 -51.5t60.5 -128.5t-60.5 -125.5t-156.5 -48.5q-90 0 -153.5 49.5t-63.5 124.5z" />
<glyph unicode="&#xb9;" horiz-adv-x="622" d="M59 1446q69 14 119 54t70 104h217v-572h115v-172h-494v172h162v314q-47 -61 -121 -80z" />
<glyph unicode="&#xba;" horiz-adv-x="870" d="M90 1126q0 134 100.5 219t241.5 82q138 3 243 -83t105 -218q0 -134 -100 -216.5t-248 -82.5q-142 0 -242 83t-100 216zM117 571v131h635v-131h-635zM287 1126q0 -69 41 -110t104 -41t105.5 41t42.5 110q0 68 -42.5 111t-105.5 43q-62 0 -103.5 -43t-41.5 -111z" />
<glyph unicode="&#xbb;" horiz-adv-x="1798" d="M53 961l240 90q128 -424 627 -424h26v-262h-24q-244 0 -402.5 -116t-222.5 -333l-240 88q67 210 226 337t438 155q-193 17 -329 78t-216 156t-123 231zM795 961l237 90q131 -424 629 -424h27v-262h-25q-244 0 -402.5 -116t-222.5 -333l-241 88q33 102 85.5 182.5 t131.5 146.5t192 107.5t256 55.5q-285 25 -444 142t-223 323z" />
<glyph unicode="&#xbc;" horiz-adv-x="1714" d="M59 1139q69 14 119.5 53.5t69.5 103.5h217v-571h115v-172h-494v172h162v313q-47 -61 -121 -80zM436 -143l393 815l338 839l199 -79l-391 -811l-338 -846zM915 113v176l449 463h217v-463h135v-176h-135v-140h-217v140h-449zM1120 289h244v246z" />
<glyph unicode="&#xbd;" horiz-adv-x="1802" d="M59 1139q69 14 119.5 53.5t69.5 103.5h217v-571h115v-172h-494v172h162v313q-47 -61 -121 -80zM436 -143l393 815l338 839l199 -79l-391 -811l-338 -846zM1079 606q68 66 163.5 109.5t195.5 46.5q79 2 147 -23t112 -80t44 -131q0 -48 -19 -85t-60.5 -66.5t-86 -50.5 t-115.5 -47q-95 -34 -137 -61.5t-49 -65.5h334v110h151v-262h-672v152q15 181 289 270q112 37 144 56t32 48q0 36 -32 59t-95 23q-118 0 -251 -116z" />
<glyph unicode="&#xbe;" horiz-adv-x="1753" d="M23 627l83 139q128 -82 259 -82q56 0 91.5 16.5t35.5 51.5q0 42 -54 58.5t-182 16.5h-96v156h96q105 0 156 19t51 63q0 32 -30 53t-73 21q-92 0 -229 -109l-102 123q56 61 148 103t190 42q133 0 217 -58t84 -157q0 -113 -156 -172q186 -42 186 -184q0 -89 -96 -146 t-240 -57q-188 0 -339 103zM475 -143l393 815l338 839l199 -79l-391 -811l-338 -846zM954 113v176l449 463h217v-463h135v-176h-135v-140h-217v140h-449zM1159 289h244v246z" />
<glyph unicode="&#xbf;" horiz-adv-x="1093" d="M123 338q0 52 18 100.5t47.5 86.5t75 75t91 65.5t104.5 59.5q164 87 208 120t44 79q0 30 -15 88l101 35q70 -91 101.5 -150t31.5 -123q0 -77 -59.5 -129.5t-196.5 -118.5q-115 -54 -160 -89t-45 -89q0 -45 47 -77.5t121 -32.5q120 0 283 69l92 -254q-193 -86 -404 -86 q-209 0 -347 102.5t-138 268.5zM489 1268q0 69 57.5 114t143.5 45q83 0 142 -45.5t59 -113.5q0 -72 -59 -119t-142 -47q-87 0 -144 46.5t-57 119.5z" />
<glyph unicode="&#xc0;" horiz-adv-x="1705" d="M27 0v260h166l376 887h-145v258h850v-258h-144l379 -887h170v-260h-716v260h206l-77 205h-514l-76 -205h227v-260h-702zM418 1817l155 225l385 -356l-79 -117zM664 694h342l-170 453h-2z" />
<glyph unicode="&#xc1;" horiz-adv-x="1705" d="M27 0v260h166l376 887h-145v258h850v-258h-144l379 -887h170v-260h-716v260h206l-77 205h-514l-76 -205h227v-260h-702zM664 694h342l-170 453h-2zM725 1706l383 356l158 -225l-459 -248z" />
<glyph unicode="&#xc2;" horiz-adv-x="1705" d="M27 0v260h166l376 887h-145v258h850v-258h-144l379 -887h170v-260h-716v260h206l-77 205h-514l-76 -205h227v-260h-702zM471 1620l297 354h152l297 -354l-95 -86l-282 201l-275 -201zM664 694h342l-170 453h-2z" />
<glyph unicode="&#xc3;" horiz-adv-x="1705" d="M27 0v260h166l376 887h-145v258h850v-258h-144l379 -887h170v-260h-716v260h206l-77 205h-514l-76 -205h227v-260h-702zM387 1577q0 84 27.5 156t86.5 120t138 48q39 0 71.5 -8t63.5 -28t44.5 -31t45.5 -41q2 -2 3.5 -3t3 -3t3.5 -3q29 -31 43 -45t32.5 -25.5t35.5 -11.5 q21 0 36.5 13.5t24 39t13.5 52t8 63.5l172 -15q0 -84 -28 -156t-87.5 -119.5t-138.5 -47.5q-39 0 -72.5 9.5t-65 31t-46.5 34.5t-45 42q-33 34 -46.5 47t-33 25t-37.5 12q-28 0 -45.5 -27t-23.5 -60t-11 -87zM664 694h342l-170 453h-2z" />
<glyph unicode="&#xc4;" horiz-adv-x="1705" d="M27 0v260h166l376 887h-145v258h850v-258h-144l379 -887h170v-260h-716v260h206l-77 205h-514l-76 -205h227v-260h-702zM426 1726q0 62 50.5 104t119.5 42q71 0 118.5 -41.5t47.5 -104.5q0 -60 -47.5 -99.5t-118.5 -39.5q-69 0 -119.5 40t-50.5 99zM664 694h342l-170 453 h-2zM909 1726q0 62 49.5 104t116.5 42q71 0 120.5 -42t49.5 -104q0 -59 -49.5 -99t-120.5 -40q-67 0 -116.5 40t-49.5 99z" />
<glyph unicode="&#xc5;" horiz-adv-x="1705" d="M27 0v260h166l376 887h-145v258h850v-258h-144l379 -887h170v-260h-716v260h206l-77 205h-514l-76 -205h227v-260h-702zM549 1806q0 124 86.5 204.5t206.5 80.5q118 0 207.5 -85t89.5 -204q0 -125 -88 -204.5t-209 -79.5q-119 0 -206 84t-87 204zM664 694h342l-170 453 h-2zM715 1806q0 -56 37.5 -95.5t89.5 -39.5q53 0 93 38t40 93t-40.5 95t-92.5 40t-89.5 -37.5t-37.5 -93.5z" />
<glyph unicode="&#xc6;" horiz-adv-x="2447" d="M2 0v260h154l551 887h-140v258h1745v-510h-293v252h-735l88 -328h240v162h243v-557h-243v162h-178l88 -326h497v262h293v-522h-1364v260h244l-53 211h-531l-123 -211h172v-260h-655zM743 700h338l-102 404z" />
<glyph unicode="&#xc7;" horiz-adv-x="1560" d="M68 698q0 160 56 298.5t150.5 233.5t221 149.5t266.5 54.5q242 0 401 -150v121h297v-490l-219 -20q-59 123 -164.5 201t-261.5 78q-77 0 -148.5 -32t-128 -90.5t-90.5 -149.5t-34 -200q0 -193 122.5 -326.5t299.5 -133.5q106 0 190 34t142 89t118 143l213 -174 q-113 -172 -279.5 -266.5t-381.5 -94.5l-43 -100h28q94 0 154.5 -53t60.5 -144q0 -110 -93.5 -176.5t-211.5 -66.5q-154 0 -309 116l84 138q120 -93 225 -93q50 0 81.5 22.5t31.5 59.5q0 39 -33 60.5t-84 21.5q-41 0 -111 -8l-16 21l90 215q-179 30 -321.5 130t-222.5 252.5 t-80 329.5z" />
<glyph unicode="&#xc8;" horiz-adv-x="1652" d="M68 0v260h227v885h-227v260h1450v-522h-289v262h-608v-326h215v162h243v-557h-243v162h-215v-326h608v262h289v-522h-1450zM401 1817l156 225l385 -356l-80 -117z" />
<glyph unicode="&#xc9;" horiz-adv-x="1652" d="M68 0v260h227v885h-227v260h1450v-522h-289v262h-608v-326h215v162h243v-557h-243v162h-215v-326h608v262h289v-522h-1450zM709 1706l383 356l157 -225l-458 -248z" />
<glyph unicode="&#xca;" horiz-adv-x="1652" d="M68 0v260h227v885h-227v260h1450v-522h-289v262h-608v-326h215v162h243v-557h-243v162h-215v-326h608v262h289v-522h-1450zM455 1620l297 354h151l297 -354l-94 -86l-283 201l-274 -201z" />
<glyph unicode="&#xcb;" horiz-adv-x="1652" d="M68 0v260h227v885h-227v260h1450v-522h-289v262h-608v-326h215v162h243v-557h-243v162h-215v-326h608v262h289v-522h-1450zM410 1726q0 62 50.5 104t119.5 42q71 0 118 -41.5t47 -104.5q0 -60 -47 -99.5t-118 -39.5q-69 0 -119.5 40t-50.5 99zM893 1726q0 62 49.5 104 t116.5 42q71 0 120.5 -42t49.5 -104q0 -59 -49.5 -99t-120.5 -40q-67 0 -116.5 40t-49.5 99z" />
<glyph unicode="&#xcc;" horiz-adv-x="927" d="M45 1817l156 225l385 -356l-80 -117zM68 0v260h229v885h-229v260h792v-260h-231v-885h231v-260h-792z" />
<glyph unicode="&#xcd;" horiz-adv-x="927" d="M68 0v260h229v885h-229v260h792v-260h-231v-885h231v-260h-792zM352 1706l383 356l158 -225l-459 -248z" />
<glyph unicode="&#xce;" horiz-adv-x="927" d="M68 0v260h229v885h-229v260h792v-260h-231v-885h231v-260h-792zM98 1620l297 354h152l297 -354l-94 -86l-283 201l-274 -201z" />
<glyph unicode="&#xcf;" horiz-adv-x="927" d="M53 1726q0 62 50.5 104t119.5 42q71 0 118.5 -41.5t47.5 -104.5q0 -60 -47.5 -99.5t-118.5 -39.5q-69 0 -119.5 40t-50.5 99zM68 0v260h229v885h-229v260h792v-260h-231v-885h231v-260h-792zM537 1726q0 62 49 104t116 42q71 0 120.5 -42t49.5 -104q0 -59 -49.5 -99 t-120.5 -40q-67 0 -116 40t-49 99z" />
<glyph unicode="&#xd0;" horiz-adv-x="1673" d="M68 0v260h229v344h-227v189h227v352h-229v260h702q100 0 198 -17.5t192.5 -52t174.5 -92.5t141 -133.5t95.5 -180t34.5 -227.5q0 -122 -34.5 -226.5t-95.5 -180t-141 -133t-174.5 -92.5t-192.5 -52.5t-198 -17.5h-702zM629 260h104q50 0 96 4t100.5 16t100 31.5 t89.5 53.5t74 79t48.5 111t18.5 147q0 112 -35.5 195.5t-88 129.5t-128 74t-139 36t-136.5 8h-104v-352h352v-189h-352v-344z" />
<glyph unicode="&#xd1;" horiz-adv-x="1931" d="M68 0v260h229v885h-229v260h540l762 -862v602h-229v260h749v-260h-217v-1157l-178 -2l-887 977v-703h230v-260h-770zM492 1577q0 84 27.5 156t86 120t137.5 48q34 0 65.5 -8.5t50 -15.5t47 -29t36 -29l37.5 -35q29 -31 43 -45t32.5 -25.5t35.5 -11.5q28 0 45.5 26 t24 58.5t11.5 83.5l172 -15q0 -84 -28 -156t-87 -119.5t-138 -47.5q-39 0 -73 9.5t-65 30.5t-46.5 34.5t-45.5 42.5q-33 34 -46.5 47t-33 25t-37.5 12q-21 0 -36 -13.5t-23 -41t-12 -53.5t-8 -66z" />
<glyph unicode="&#xd2;" d="M68 702q0 150 58 285t159 233.5t244.5 156t306.5 57.5q162 0 304.5 -57.5t242.5 -156t158 -233.5t58 -285t-58 -284.5t-158 -232.5t-242.5 -155t-304.5 -57q-163 0 -306.5 57t-244.5 155t-159 232.5t-58 284.5zM410 1845l460 -248l80 117l-385 357zM414 702 q0 -128 48 -231t145.5 -166t228.5 -63q96 0 175.5 37t131.5 100.5t81 146.5t29 176q0 196 -113.5 329.5t-303.5 133.5q-130 0 -228 -65t-146 -169t-48 -229z" />
<glyph unicode="&#xd3;" d="M68 702q0 150 58 285t159 233.5t244.5 156t306.5 57.5q162 0 304.5 -57.5t242.5 -156t158 -233.5t58 -285t-58 -284.5t-158 -232.5t-242.5 -155t-304.5 -57q-163 0 -306.5 57t-244.5 155t-159 232.5t-58 284.5zM414 702q0 -128 48 -231t145.5 -166t228.5 -63 q96 0 175.5 37t131.5 100.5t81 146.5t29 176q0 196 -113.5 329.5t-303.5 133.5q-130 0 -228 -65t-146 -169t-48 -229zM717 1735l82 -117l458 248l-157 225z" />
<glyph unicode="&#xd4;" d="M68 702q0 150 58 285t159 233.5t244.5 156t306.5 57.5q162 0 304.5 -57.5t242.5 -156t158 -233.5t58 -285t-58 -284.5t-158 -232.5t-242.5 -155t-304.5 -57q-163 0 -306.5 57t-244.5 155t-159 232.5t-58 284.5zM414 702q0 -128 48 -231t145.5 -166t228.5 -63 q96 0 175.5 37t131.5 100.5t81 146.5t29 176q0 196 -113.5 329.5t-303.5 133.5q-130 0 -228 -65t-146 -169t-48 -229zM463 1649l297 354h151l297 -354l-94 -86l-283 200l-274 -200z" />
<glyph unicode="&#xd5;" d="M68 702q0 150 58 285t159 233.5t244.5 156t306.5 57.5q162 0 304.5 -57.5t242.5 -156t158 -233.5t58 -285t-58 -284.5t-158 -232.5t-242.5 -155t-304.5 -57q-163 0 -306.5 57t-244.5 155t-159 232.5t-58 284.5zM379 1606q0 84 27.5 156t86.5 119.5t138 47.5q39 0 71.5 -8 t63.5 -28t44.5 -31t45.5 -41q2 -2 3.5 -3t3 -3t3.5 -3q41 -45 64 -63t47 -18q40 0 57.5 44.5t24.5 122.5l172 -14q0 -84 -28 -156t-87.5 -119.5t-138.5 -47.5q-39 0 -73 9t-64.5 30.5t-46 35t-45.5 41.5q-33 34 -46.5 47t-33 25t-37.5 12q-28 0 -45.5 -27t-23.5 -60t-11 -87 zM414 702q0 -128 48 -231t145.5 -166t228.5 -63q96 0 175.5 37t131.5 100.5t81 146.5t29 176q0 196 -113.5 329.5t-303.5 133.5q-130 0 -228 -65t-146 -169t-48 -229z" />
<glyph unicode="&#xd6;" d="M68 702q0 150 58 285t159 233.5t244.5 156t306.5 57.5q162 0 304.5 -57.5t242.5 -156t158 -233.5t58 -285t-58 -284.5t-158 -232.5t-242.5 -155t-304.5 -57q-163 0 -306.5 57t-244.5 155t-159 232.5t-58 284.5zM414 702q0 -128 48 -231t145.5 -166t228.5 -63 q96 0 175.5 37t131.5 100.5t81 146.5t29 176q0 196 -113.5 329.5t-303.5 133.5q-130 0 -228 -65t-146 -169t-48 -229zM418 1755q0 62 50.5 104t119.5 42q71 0 118.5 -41.5t47.5 -104.5q0 -60 -47.5 -99.5t-118.5 -39.5q-69 0 -119.5 40t-50.5 99zM901 1755q0 62 49.5 104 t116.5 42q71 0 120.5 -42t49.5 -104q0 -59 -49.5 -99t-120.5 -40q-67 0 -116.5 40t-49.5 99z" />
<glyph unicode="&#xd7;" horiz-adv-x="1138" d="M119 901l188 182l260 -260l262 260l187 -188l-260 -260l260 -260l-182 -189l-263 263l-262 -263l-188 191l262 260z" />
<glyph unicode="&#xd8;" d="M68 702q0 150 58 285t159 233.5t244.5 156t306.5 57.5q85 0 188 -21l72 158h274l-113 -252q159 -100 250.5 -262.5t91.5 -354.5q0 -150 -58 -284.5t-158 -232.5t-242.5 -155t-304.5 -57q-84 0 -191 21l-72 -154h-274l115 248q-161 98 -253.5 259.5t-92.5 354.5zM414 702 q0 -109 37.5 -203.5t107.5 -158.5l371 815q-48 10 -94 10q-130 0 -228 -65t-146 -169t-48 -229zM737 252q52 -10 99 -10q96 0 175.5 37t131.5 100.5t81 146.5t29 176q0 108 -37 202.5t-106 158.5z" />
<glyph unicode="&#xd9;" horiz-adv-x="1814" d="M14 1145v260h762v-260h-198l-3 -570q0 -149 94 -242t238 -93q145 0 240 95t94 245l-4 565h-201v260h764v-260h-227v-590q0 -168 -87.5 -302t-239.5 -208t-339 -74q-193 0 -344.5 74.5t-235 207.5t-83.5 302v590h-230zM479 1817l156 225l385 -356l-80 -117z" />
<glyph unicode="&#xda;" horiz-adv-x="1814" d="M14 1145v260h762v-260h-198l-3 -570q0 -149 94 -242t238 -93q145 0 240 95t94 245l-4 565h-201v260h764v-260h-227v-590q0 -168 -87.5 -302t-239.5 -208t-339 -74q-193 0 -344.5 74.5t-235 207.5t-83.5 302v590h-230zM786 1706l383 356l158 -225l-459 -248z" />
<glyph unicode="&#xdb;" horiz-adv-x="1814" d="M14 1145v260h762v-260h-198l-3 -570q0 -149 94 -242t238 -93q145 0 240 95t94 245l-4 565h-201v260h764v-260h-227v-590q0 -168 -87.5 -302t-239.5 -208t-339 -74q-193 0 -344.5 74.5t-235 207.5t-83.5 302v590h-230zM532 1620l297 354h152l297 -354l-94 -86l-283 201 l-274 -201z" />
<glyph unicode="&#xdc;" horiz-adv-x="1814" d="M14 1145v260h762v-260h-198l-3 -570q0 -149 94 -242t238 -93q145 0 240 95t94 245l-4 565h-201v260h764v-260h-227v-590q0 -168 -87.5 -302t-239.5 -208t-339 -74q-193 0 -344.5 74.5t-235 207.5t-83.5 302v590h-230zM487 1726q0 62 50.5 104t119.5 42q71 0 118.5 -41.5 t47.5 -104.5q0 -60 -47.5 -99.5t-118.5 -39.5q-69 0 -119.5 40t-50.5 99zM971 1726q0 62 49.5 104t116.5 42q71 0 120.5 -42t49.5 -104q0 -59 -49.5 -99t-120.5 -40q-67 0 -116.5 40t-49.5 99z" />
<glyph unicode="&#xdd;" horiz-adv-x="1630" d="M27 1145v260h673v-260h-127l283 -361l274 361h-200v260h674v-260h-172l-449 -565v-320h234v-260h-799v260h233v307l-467 578h-157zM698 1706l383 356l158 -225l-459 -248z" />
<glyph unicode="&#xde;" horiz-adv-x="1447" d="M68 0v260h217v887h-217v258h766v-231h-240v-136h375q211 0 339 -84.5t128 -253.5q0 -165 -129 -251.5t-338 -88.5l-375 -4v-125h240v-231h-766zM594 582h324q39 0 65.5 3t58 14t48 36.5t16.5 64.5q0 34 -15.5 57.5t-44 34.5t-58.5 15t-70 4h-324v-229z" />
<glyph unicode="&#xdf;" horiz-adv-x="1562" d="M53 0v244h193v477h-193v244h193v63q0 234 145 353.5t416 119.5q256 0 426 -108.5t170 -268.5q0 -45 -14.5 -85t-35.5 -68.5t-59 -58.5t-70.5 -50t-84.5 -49q-94 -51 -121 -72.5t-27 -46.5q0 -21 22 -31.5t102 -32.5q64 -18 106 -30q174 -48 262 -123t88 -194 q0 -143 -101 -227.5t-282 -84.5q-169 0 -283 103v-76h-231v321l135 9q51 -69 154.5 -115.5t177.5 -46.5q104 0 104 63q0 24 -26 37t-123 42q-41 12 -66 20q-191 61 -276.5 134t-85.5 189q0 108 55.5 175t177.5 132q16 10 45 26.5t41 23.5t31.5 20t27.5 20.5t17.5 18t12.5 21 t3 22.5q0 61 -74 96t-196 35q-127 0 -191.5 -54.5t-64.5 -154.5v-1032h-500z" />
<glyph unicode="&#xe0;" horiz-adv-x="1259" d="M82 285q1 79 38 142.5t96.5 102t129.5 58.5t143 20q160 0 299 -63v59q0 62 -62.5 93.5t-160.5 31.5q-148 0 -360 -80l-62 234q256 106 467 106q232 0 352.5 -108t120.5 -291v-291q0 -59 52 -59q27 0 51 8l59 -219q-83 -45 -201 -45q-80 0 -144 44.5t-93 125.5 q-189 -183 -397 -183q-141 0 -235 81t-93 233zM186 1403l156 225l385 -356l-80 -117zM391 297q0 -36 31.5 -54t79.5 -18t124.5 29.5t161.5 91.5v4q-111 39 -235 39q-69 -2 -115.5 -25t-46.5 -67z" />
<glyph unicode="&#xe1;" horiz-adv-x="1259" d="M82 285q1 79 38 142.5t96.5 102t129.5 58.5t143 20q160 0 299 -63v59q0 62 -62.5 93.5t-160.5 31.5q-148 0 -360 -80l-62 234q256 106 467 106q232 0 352.5 -108t120.5 -291v-291q0 -59 52 -59q27 0 51 8l59 -219q-83 -45 -201 -45q-80 0 -144 44.5t-93 125.5 q-189 -183 -397 -183q-141 0 -235 81t-93 233zM391 297q0 -36 31.5 -54t79.5 -18t124.5 29.5t161.5 91.5v4q-111 39 -235 39q-69 -2 -115.5 -25t-46.5 -67zM494 1292l383 357l157 -226l-459 -247z" />
<glyph unicode="&#xe2;" horiz-adv-x="1259" d="M82 285q1 79 38 142.5t96.5 102t129.5 58.5t143 20q160 0 299 -63v59q0 62 -62.5 93.5t-160.5 31.5q-148 0 -360 -80l-62 234q256 106 467 106q232 0 352.5 -108t120.5 -291v-291q0 -59 52 -59q27 0 51 8l59 -219q-83 -45 -201 -45q-80 0 -144 44.5t-93 125.5 q-189 -183 -397 -183q-141 0 -235 81t-93 233zM240 1206l297 355h151l297 -355l-94 -86l-283 201l-274 -201zM391 297q0 -36 31.5 -54t79.5 -18t124.5 29.5t161.5 91.5v4q-111 39 -235 39q-69 -2 -115.5 -25t-46.5 -67z" />
<glyph unicode="&#xe3;" horiz-adv-x="1259" d="M82 285q1 79 38 142.5t96.5 102t129.5 58.5t143 20q160 0 299 -63v59q0 62 -62.5 93.5t-160.5 31.5q-148 0 -360 -80l-62 234q256 106 467 106q232 0 352.5 -108t120.5 -291v-291q0 -59 52 -59q27 0 51 8l59 -219q-83 -45 -201 -45q-80 0 -144 44.5t-93 125.5 q-189 -183 -397 -183q-141 0 -235 81t-93 233zM156 1163q0 84 27.5 156t86.5 120t138 48q39 0 71.5 -8t63.5 -28t44.5 -31t45.5 -41q2 -2 3.5 -3t3 -3t3.5 -3q29 -31 43 -45t32.5 -25.5t35.5 -11.5q21 0 36.5 13.5t24 39t13.5 52t8 63.5l172 -14q0 -84 -28 -156t-87.5 -120 t-138.5 -48q-39 0 -73 9.5t-65 30.5t-46.5 34.5t-45.5 42.5q-34 35 -46.5 47.5t-32 24.5t-37.5 12q-28 0 -45.5 -27t-23.5 -60t-11 -87zM391 297q0 -36 31.5 -54t79.5 -18t124.5 29.5t161.5 91.5v4q-111 39 -235 39q-69 -2 -115.5 -25t-46.5 -67z" />
<glyph unicode="&#xe4;" horiz-adv-x="1259" d="M82 285q1 79 38 142.5t96.5 102t129.5 58.5t143 20q160 0 299 -63v59q0 62 -62.5 93.5t-160.5 31.5q-148 0 -360 -80l-62 234q256 106 467 106q232 0 352.5 -108t120.5 -291v-291q0 -59 52 -59q27 0 51 8l59 -219q-83 -45 -201 -45q-80 0 -144 44.5t-93 125.5 q-189 -183 -397 -183q-141 0 -235 81t-93 233zM195 1313q0 62 50.5 103.5t119.5 41.5q71 0 118 -41t47 -104q0 -60 -47 -99.5t-118 -39.5q-69 0 -119.5 40t-50.5 99zM391 297q0 -36 31.5 -54t79.5 -18t124.5 29.5t161.5 91.5v4q-111 39 -235 39q-69 -2 -115.5 -25t-46.5 -67 zM678 1313q0 62 49.5 103.5t116.5 41.5q71 0 120.5 -41.5t49.5 -103.5q0 -59 -49.5 -99t-120.5 -40q-67 0 -116.5 40t-49.5 99z" />
<glyph unicode="&#xe5;" horiz-adv-x="1259" d="M82 285q1 79 38 142.5t96.5 102t129.5 58.5t143 20q160 0 299 -63v59q0 62 -62.5 93.5t-160.5 31.5q-148 0 -360 -80l-62 234q256 106 467 106q232 0 352.5 -108t120.5 -291v-291q0 -59 52 -59q27 0 51 8l59 -219q-83 -45 -201 -45q-80 0 -144 44.5t-93 125.5 q-189 -183 -397 -183q-141 0 -235 81t-93 233zM317 1393q0 124 86.5 204t206.5 80q119 0 208 -84.5t89 -203.5q0 -125 -88 -205t-209 -80q-118 0 -205.5 84.5t-87.5 204.5zM391 297q0 -36 31.5 -54t79.5 -18t124.5 29.5t161.5 91.5v4q-111 39 -235 39q-69 -2 -115.5 -25 t-46.5 -67zM483 1393q0 -56 37.5 -96t89.5 -40q53 0 93 38t40 94q0 55 -40.5 95t-92.5 40t-89.5 -37.5t-37.5 -93.5z" />
<glyph unicode="&#xe6;" horiz-adv-x="1898" d="M82 285q1 79 38 142.5t96.5 102t129.5 58.5t143 20q160 0 299 -63q-6 104 -64 144t-159 40q-148 0 -360 -80l-62 234q256 106 463 106q131 0 222.5 -46.5t138.5 -131.5q72 84 188 132t236 48q184 0 307 -86.5t123 -228.5q0 -73 -34 -131t-91.5 -93.5t-128.5 -54 t-150 -18.5q-177 0 -332 74q9 -103 88 -156t195 -53q202 0 361 121l122 -213q-95 -83 -227 -132t-283 -49q-148 0 -276 64t-201 178q-216 -242 -454 -242q-141 0 -235 81t-93 233zM391 297q0 -36 31.5 -54t79.5 -18q49 0 127 30t162 93q-113 41 -238 41q-69 -2 -115.5 -25 t-46.5 -67zM1128 616q97 -32 207 -32q83 1 128.5 25.5t45.5 66.5q0 33 -33.5 54.5t-86.5 21.5q-77 0 -148.5 -37.5t-112.5 -98.5z" />
<glyph unicode="&#xe7;" horiz-adv-x="1091" d="M53 487q0 104 39.5 197.5t105.5 160t155 105.5t184 39q92 0 156.5 -25.5t115.5 -78.5v80h213v-353l-131 -8q-101 133 -254 133q-112 0 -185 -68t-73 -177q0 -115 72 -189t180 -74q82 0 149 30t144 93l127 -202q-93 -85 -208.5 -133t-236.5 -48l-41 -96h29q94 0 154.5 -53 t60.5 -144q0 -110 -93.5 -176.5t-211.5 -66.5q-154 0 -309 116l84 138q120 -93 225 -93q50 0 81 22.5t31 59.5q0 39 -32.5 60.5t-83.5 21.5q-41 0 -111 -8l-16 21l90 215q-181 42 -295.5 178.5t-114.5 322.5z" />
<glyph unicode="&#xe8;" horiz-adv-x="1165" d="M53 465q0 93 31 176.5t85.5 146t126.5 108.5t157 69.5t174 23.5q203 0 329.5 -85t126.5 -228q0 -96 -58.5 -165t-148 -100.5t-196.5 -31.5q-172 0 -330 74q9 -105 88.5 -163.5t194.5 -58.5q200 0 358 123l127 -202q-210 -181 -497 -181q-87 0 -169.5 20t-154.5 61.5 t-126.5 99.5t-86 138.5t-31.5 174.5zM176 1401l156 225l385 -356l-80 -117zM393 616q97 -32 207 -32q84 1 128 25.5t44 66.5q0 33 -33 53.5t-88 20.5q-76 0 -146 -37t-112 -97z" />
<glyph unicode="&#xe9;" horiz-adv-x="1165" d="M53 465q0 93 31 176.5t85.5 146t126.5 108.5t157 69.5t174 23.5q203 0 329.5 -85t126.5 -228q0 -96 -58.5 -165t-148 -100.5t-196.5 -31.5q-172 0 -330 74q9 -105 88.5 -163.5t194.5 -58.5q200 0 358 123l127 -202q-210 -181 -497 -181q-87 0 -169.5 20t-154.5 61.5 t-126.5 99.5t-86 138.5t-31.5 174.5zM393 616q97 -32 207 -32q84 1 128 25.5t44 66.5q0 33 -33 53.5t-88 20.5q-76 0 -146 -37t-112 -97zM483 1290l383 357l158 -226l-459 -247z" />
<glyph unicode="&#xea;" horiz-adv-x="1165" d="M53 465q0 93 31 176.5t85.5 146t126.5 108.5t157 69.5t174 23.5q203 0 329.5 -85t126.5 -228q0 -96 -58.5 -165t-148 -100.5t-196.5 -31.5q-172 0 -330 74q9 -105 88.5 -163.5t194.5 -58.5q200 0 358 123l127 -202q-210 -181 -497 -181q-87 0 -169.5 20t-154.5 61.5 t-126.5 99.5t-86 138.5t-31.5 174.5zM229 1204l297 355h152l297 -355l-94 -86l-283 201l-274 -201zM393 616q97 -32 207 -32q84 1 128 25.5t44 66.5q0 33 -33 53.5t-88 20.5q-76 0 -146 -37t-112 -97z" />
<glyph unicode="&#xeb;" horiz-adv-x="1165" d="M53 465q0 93 31 176.5t85.5 146t126.5 108.5t157 69.5t174 23.5q203 0 329.5 -85t126.5 -228q0 -96 -58.5 -165t-148 -100.5t-196.5 -31.5q-172 0 -330 74q9 -105 88.5 -163.5t194.5 -58.5q200 0 358 123l127 -202q-210 -181 -497 -181q-87 0 -169.5 20t-154.5 61.5 t-126.5 99.5t-86 138.5t-31.5 174.5zM184 1311q0 62 50.5 103.5t119.5 41.5q71 0 118.5 -41t47.5 -104q0 -60 -47.5 -100t-118.5 -40q-69 0 -119.5 40.5t-50.5 99.5zM393 616q97 -32 207 -32q84 1 128 25.5t44 66.5q0 33 -33 53.5t-88 20.5q-76 0 -146 -37t-112 -97z M668 1311q0 62 49.5 103.5t116.5 41.5q71 0 120.5 -41.5t49.5 -103.5q0 -60 -49.5 -100t-120.5 -40q-67 0 -116.5 40.5t-49.5 99.5z" />
<glyph unicode="&#xec;" horiz-adv-x="757" d="M-45 1376l156 226l385 -357l-80 -117zM53 0v244h193v477h-193v244h504v-721h195v-244h-699z" />
<glyph unicode="&#xed;" horiz-adv-x="757" d="M53 0v244h193v477h-193v244h504v-721h195v-244h-699zM262 1266l383 356l158 -225l-459 -248z" />
<glyph unicode="&#xee;" horiz-adv-x="757" d="M8 1180l297 354h152l297 -354l-95 -86l-282 200l-275 -200zM53 0v244h193v477h-193v244h504v-721h195v-244h-699z" />
<glyph unicode="&#xef;" horiz-adv-x="757" d="M-37 1286q0 62 50.5 104t119.5 42q71 0 118.5 -41.5t47.5 -104.5q0 -60 -47.5 -99.5t-118.5 -39.5q-69 0 -119.5 40t-50.5 99zM53 0v244h193v477h-193v244h504v-721h195v-244h-699zM446 1286q0 62 49.5 104t116.5 42q71 0 120.5 -42t49.5 -104q0 -59 -49.5 -99 t-120.5 -40q-67 0 -116.5 40t-49.5 99z" />
<glyph unicode="&#xf0;" horiz-adv-x="1247" d="M41 416q0 121 66 223.5t182 162.5t256 60q176 0 303 -69q-55 211 -246 360l-137 -186l-191 137l129 174q-79 43 -198 94l110 260q143 -58 258 -125l140 191l184 -142l-131 -178q205 -163 316.5 -367.5t111.5 -432.5q0 -114 -32.5 -212.5t-90.5 -169.5t-135.5 -121.5 t-168.5 -75.5t-189 -26q-235 -1 -386 124t-151 319zM387 416q0 -89 56 -146t139 -57q112 0 199 85t93 255q-128 70 -247 70q-99 0 -169.5 -59.5t-70.5 -147.5z" />
<glyph unicode="&#xf1;" horiz-adv-x="1525" d="M53 0v244h193v477h-193v244h504v-215q107 125 203 182t211 57q185 0 281 -120.5t96 -356.5v-268h163v-244h-630v244h155v268q0 81 -48.5 133.5t-133.5 52.5q-144 0 -297 -184v-270h156v-244h-660zM365 1161q0 84 27.5 156t86 120t137.5 48q34 0 65.5 -8.5t50 -15.5 t47 -29t36 -29l37.5 -35q29 -31 43 -45t32.5 -25.5t35.5 -11.5q28 0 45.5 26t24 58.5t11.5 83.5l173 -14q0 -84 -28 -156t-87.5 -120t-138.5 -48q-39 0 -73 9.5t-65 30.5t-46.5 34.5t-45.5 42.5q-33 34 -46.5 47t-33 25t-37.5 12q-21 0 -36 -13.5t-23 -41t-12 -53.5t-8 -66z " />
<glyph unicode="&#xf2;" horiz-adv-x="1220" d="M53 479q0 150 80 268.5t206 180t271 61.5q83 0 164 -23t151.5 -67.5t124.5 -105t85.5 -142t31.5 -172.5q0 -150 -77.5 -267.5t-204 -179t-275.5 -61.5q-145 0 -271 61.5t-206 179.5t-80 267zM186 1401l461 -248l80 117l-385 356zM379 479q0 -122 66.5 -194t164.5 -72 t165 72t67 194t-67 194t-165 72t-164.5 -72t-66.5 -194z" />
<glyph unicode="&#xf3;" horiz-adv-x="1220" d="M53 479q0 150 80 268.5t206 180t271 61.5q83 0 164 -23t151.5 -67.5t124.5 -105t85.5 -142t31.5 -172.5q0 -150 -77.5 -267.5t-204 -179t-275.5 -61.5q-145 0 -271 61.5t-206 179.5t-80 267zM379 479q0 -122 66.5 -194t164.5 -72t165 72t67 194t-67 194t-165 72 t-164.5 -72t-66.5 -194zM494 1290l81 -116l459 247l-157 226z" />
<glyph unicode="&#xf4;" horiz-adv-x="1220" d="M53 479q0 150 80 268.5t206 180t271 61.5q83 0 164 -23t151.5 -67.5t124.5 -105t85.5 -142t31.5 -172.5q0 -150 -77.5 -267.5t-204 -179t-275.5 -61.5q-145 0 -271 61.5t-206 179.5t-80 267zM240 1204l297 355h151l297 -355l-94 -86l-283 201l-274 -201zM379 479 q0 -122 66.5 -194t164.5 -72t165 72t67 194t-67 194t-165 72t-164.5 -72t-66.5 -194z" />
<glyph unicode="&#xf5;" horiz-adv-x="1220" d="M53 479q0 150 80 268.5t206 180t271 61.5q83 0 164 -23t151.5 -67.5t124.5 -105t85.5 -142t31.5 -172.5q0 -150 -77.5 -267.5t-204 -179t-275.5 -61.5q-145 0 -271 61.5t-206 179.5t-80 267zM156 1161q0 84 27.5 156t86.5 120t138 48q39 0 71.5 -8t63.5 -28t44.5 -31 t45.5 -41q2 -2 3.5 -3t3 -3t3.5 -3q29 -31 43 -45t32.5 -25.5t35.5 -11.5q21 0 36.5 13.5t24 39t13.5 52t8 63.5l172 -14q0 -84 -28 -156t-87.5 -120t-138.5 -48q-39 0 -73 9.5t-65 30.5t-46.5 34.5t-45.5 42.5q-34 35 -46.5 47.5t-32 24.5t-37.5 12q-28 0 -45.5 -27 t-23.5 -60t-11 -87zM379 479q0 -122 66.5 -194t164.5 -72t165 72t67 194t-67 194t-165 72t-164.5 -72t-66.5 -194z" />
<glyph unicode="&#xf6;" horiz-adv-x="1220" d="M53 479q0 150 80 268.5t206 180t271 61.5q83 0 164 -23t151.5 -67.5t124.5 -105t85.5 -142t31.5 -172.5q0 -150 -77.5 -267.5t-204 -179t-275.5 -61.5q-145 0 -271 61.5t-206 179.5t-80 267zM195 1311q0 62 50.5 103.5t119.5 41.5q71 0 118 -41t47 -104q0 -60 -47 -100 t-118 -40q-69 0 -119.5 40.5t-50.5 99.5zM379 479q0 -122 66.5 -194t164.5 -72t165 72t67 194t-67 194t-165 72t-164.5 -72t-66.5 -194zM678 1311q0 62 49.5 103.5t116.5 41.5q71 0 120.5 -41.5t49.5 -103.5q0 -60 -49.5 -100t-120.5 -40q-67 0 -116.5 40.5t-49.5 99.5z" />
<glyph unicode="&#xf8;" horiz-adv-x="1220" d="M53 479q0 150 80 268.5t206 180t271 61.5q56 0 97 -8l65 141h262l-102 -227q108 -69 171.5 -176t63.5 -240q0 -150 -77.5 -267.5t-204 -179t-275.5 -61.5q-50 0 -96 9l-65 -140h-261l101 221q-109 69 -172.5 177t-63.5 241zM379 479q0 -108 51 -174l197 440h-17 q-98 0 -164.5 -72t-66.5 -194zM594 213h16q98 0 165 72t67 194q0 104 -49 172z" />
<glyph unicode="&#xf9;" horiz-adv-x="1390" d="M0 721v244h477v-510q0 -195 172 -195q111 0 248 146v315h-152v244h463v-666q0 -59 52 -59q29 0 49 8l61 -219q-83 -45 -190 -45q-103 0 -176.5 51.5t-96.5 146.5q-100 -109 -188 -160t-187 -51q-176 0 -271 123.5t-95 360.5v266h-166zM207 1376l155 226l386 -357 l-80 -117z" />
<glyph unicode="&#xfa;" horiz-adv-x="1390" d="M0 721v244h477v-510q0 -195 172 -195q111 0 248 146v315h-152v244h463v-666q0 -59 52 -59q29 0 49 8l61 -219q-83 -45 -190 -45q-103 0 -176.5 51.5t-96.5 146.5q-100 -109 -188 -160t-187 -51q-176 0 -271 123.5t-95 360.5v266h-166zM514 1266l383 356l158 -225 l-459 -248z" />
<glyph unicode="&#xfb;" horiz-adv-x="1390" d="M0 721v244h477v-510q0 -195 172 -195q111 0 248 146v315h-152v244h463v-666q0 -59 52 -59q29 0 49 8l61 -219q-83 -45 -190 -45q-103 0 -176.5 51.5t-96.5 146.5q-100 -109 -188 -160t-187 -51q-176 0 -271 123.5t-95 360.5v266h-166zM260 1180l297 354h152l297 -354 l-95 -86l-282 200l-275 -200z" />
<glyph unicode="&#xfc;" horiz-adv-x="1390" d="M0 721v244h477v-510q0 -195 172 -195q111 0 248 146v315h-152v244h463v-666q0 -59 52 -59q29 0 49 8l61 -219q-83 -45 -190 -45q-103 0 -176.5 51.5t-96.5 146.5q-100 -109 -188 -160t-187 -51q-176 0 -271 123.5t-95 360.5v266h-166zM215 1286q0 62 50.5 104t119.5 42 q71 0 118.5 -41.5t47.5 -104.5q0 -60 -47.5 -99.5t-118.5 -39.5q-69 0 -119.5 40t-50.5 99zM698 1286q0 62 49.5 104t116.5 42q71 0 120.5 -42t49.5 -104q0 -59 -49.5 -99t-120.5 -40q-67 0 -116.5 40t-49.5 99z" />
<glyph unicode="&#xfd;" horiz-adv-x="1337" d="M14 -387l119 235q102 -63 186 -63q86 0 147 46t114 157l-394 733h-116v244h577v-217h-133l207 -445l199 445h-127v217h505v-244h-108l-361 -774q-105 -226 -226.5 -330t-283.5 -104q-86 0 -154.5 24.5t-150.5 75.5zM604 1266l383 356l158 -225l-459 -248z" />
<glyph unicode="&#xfe;" horiz-adv-x="1363" d="M0 -203h193v1366h-193v242h496v-617q79 97 176 150t192 53q183 0 315 -147t132 -363q0 -218 -146 -364t-370 -146q-161 0 -299 111v-285h223v-243h-719v243zM496 309q114 -82 219 -82q124 0 198 72t74 186q0 106 -63.5 174.5t-167.5 67.5q-62 -2 -129.5 -45t-130.5 -121 v-252z" />
<glyph unicode="&#xff;" horiz-adv-x="1337" d="M14 -387l119 235q102 -63 186 -63q86 0 147 46t114 157l-394 733h-116v244h577v-217h-133l207 -445l199 445h-127v217h505v-244h-108l-361 -774q-105 -226 -226.5 -330t-283.5 -104q-86 0 -154.5 24.5t-150.5 75.5zM305 1286q0 62 50.5 104t119.5 42q71 0 118.5 -41.5 t47.5 -104.5q0 -60 -47.5 -99.5t-118.5 -39.5q-69 0 -119.5 40t-50.5 99zM788 1286q0 62 49.5 104t116.5 42q71 0 120.5 -42t49.5 -104q0 -59 -49.5 -99t-120.5 -40q-67 0 -116.5 40t-49.5 99z" />
<glyph unicode="&#x152;" horiz-adv-x="2390" d="M68 705q0 147 45.5 267t121 199.5t178 133t213.5 77t230 23.5h1399v-514h-293v256h-586v-332h191v150h258v-557h-258v149h-191v-297h586v254h293v-514h-1399q-119 0 -230 24.5t-213.5 79t-178.5 135t-121 200.5t-45 266zM414 705q0 -94 23.5 -168t66 -121t92.5 -79 t113 -48t116.5 -22.5t112.5 -6.5h106v887h-106q-524 0 -524 -442z" />
<glyph unicode="&#x153;" horiz-adv-x="1951" d="M53 481q0 150 80 268.5t206 180t271 61.5q121 0 230 -48.5t184 -135.5q79 84 187.5 134t226.5 50q192 0 312 -86t120 -229q0 -59 -22 -108t-60.5 -83.5t-89.5 -58.5t-109.5 -35.5t-120.5 -11.5q-170 0 -327 72q-2 -6 -2 -19q19 -97 108.5 -155t198.5 -58q102 0 179 31 t155 90l125 -188q-210 -181 -486 -181q-118 0 -221 46t-176 128q-74 -84 -180.5 -129t-231.5 -45q-145 0 -271 62t-206 180.5t-80 267.5zM379 481q0 -122 66.5 -194t164.5 -72q97 0 163.5 72t66.5 194t-66.5 194.5t-163.5 72.5t-164 -72.5t-67 -194.5zM1180 616 q97 -32 209 -32q82 1 126 25.5t44 66.5q0 33 -33 54.5t-88 21.5q-76 0 -146.5 -37t-111.5 -99z" />
<glyph unicode="&#x178;" horiz-adv-x="1630" d="M27 1145v260h673v-260h-127l283 -361l274 361h-200v260h674v-260h-172l-449 -565v-320h234v-260h-799v260h233v307l-467 578h-157zM399 1726q0 62 50.5 104t119.5 42q71 0 118.5 -41.5t47.5 -104.5q0 -60 -47.5 -99.5t-118.5 -39.5q-69 0 -119.5 40t-50.5 99zM883 1726 q0 62 49.5 104t116.5 42q71 0 120.5 -42t49.5 -104q0 -59 -49.5 -99t-120.5 -40q-67 0 -116.5 40t-49.5 99z" />
<glyph unicode="&#x2000;" horiz-adv-x="1045" />
<glyph unicode="&#x2001;" horiz-adv-x="2091" />
<glyph unicode="&#x2002;" horiz-adv-x="1045" />
<glyph unicode="&#x2003;" horiz-adv-x="2091" />
<glyph unicode="&#x2004;" horiz-adv-x="697" />
<glyph unicode="&#x2005;" horiz-adv-x="522" />
<glyph unicode="&#x2006;" horiz-adv-x="348" />
<glyph unicode="&#x2007;" horiz-adv-x="348" />
<glyph unicode="&#x2008;" horiz-adv-x="261" />
<glyph unicode="&#x2009;" horiz-adv-x="418" />
<glyph unicode="&#x200a;" horiz-adv-x="116" />
<glyph unicode="&#x2010;" horiz-adv-x="651" d="M51 352v264h549v-264h-549z" />
<glyph unicode="&#x2011;" horiz-adv-x="651" d="M51 352v264h549v-264h-549z" />
<glyph unicode="&#x2012;" horiz-adv-x="651" d="M51 352v264h549v-264h-549z" />
<glyph unicode="&#x2013;" horiz-adv-x="1191" d="M51 352v264h1094v-264h-1094z" />
<glyph unicode="&#x2014;" horiz-adv-x="1732" d="M51 352v264h1630v-264h-1630z" />
<glyph unicode="&#x2018;" horiz-adv-x="671" d="M119 1108q0 106 76 214.5t211 227.5l75 -80q-53 -57 -76 -84t-57 -72t-48 -81t-15 -72q50 13 92 13q74 0 125 -42.5t51 -103.5q0 -70 -60 -110.5t-151 -40.5q-104 0 -163.5 61t-59.5 170z" />
<glyph unicode="&#x2019;" horiz-adv-x="671" d="M119 1382q0 70 59.5 112t149.5 42q103 0 164 -62t61 -171q0 -104 -76.5 -212.5t-210.5 -228.5l-80 80q51 54 77.5 83t59.5 72.5t48 81t16 74.5q-32 -14 -92 -14q-75 0 -125.5 41t-50.5 102z" />
<glyph unicode="&#x201a;" horiz-adv-x="671" d="M119 119q0 70 59 110.5t150 40.5q103 0 164 -61t61 -170q0 -104 -76.5 -213t-210.5 -229l-80 79q99 101 148.5 171t52.5 139q-37 -13 -92 -13q-75 0 -125.5 42t-50.5 104z" />
<glyph unicode="&#x201c;" horiz-adv-x="1214" d="M119 1108q0 106 76 214.5t211 227.5l75 -80q-53 -57 -76 -84t-57 -72t-48 -81t-15 -72q50 13 92 13q74 0 125 -42.5t51 -103.5q0 -70 -60 -110.5t-151 -40.5q-104 0 -163.5 61t-59.5 170zM662 1104q0 105 76 213.5t210 226.5l78 -80q-55 -59 -77.5 -84t-57.5 -71 t-49 -82.5t-15 -73.5q32 14 93 14q74 0 125 -41.5t51 -103.5q0 -69 -59.5 -110.5t-149.5 -41.5q-105 0 -165 61t-60 173z" />
<glyph unicode="&#x201d;" horiz-adv-x="1214" d="M119 1370q0 69 59.5 111.5t149.5 42.5q103 0 164 -62.5t61 -173.5q0 -186 -287 -438l-80 78q51 54 77.5 83t59.5 72.5t48 81t16 74.5q-40 -14 -92 -14q-75 0 -125.5 41t-50.5 104zM662 1366q0 67 59.5 108.5t148.5 41.5q103 0 164.5 -61t61.5 -173q0 -104 -75.5 -211.5 t-211.5 -228.5l-80 80q52 53 78 82t59.5 72t48 80.5t15.5 74.5q-32 -14 -92 -14q-74 0 -125 42.5t-51 106.5z" />
<glyph unicode="&#x201e;" horiz-adv-x="1214" d="M119 127q0 69 59.5 110.5t149.5 41.5q103 0 164 -62t61 -174q0 -104 -76 -210.5t-211 -227.5l-80 80q99 102 148.5 170.5t52.5 136.5q-43 -15 -92 -15q-75 0 -125.5 43t-50.5 107zM662 119q0 70 59.5 110.5t148.5 40.5q103 0 164.5 -61t61.5 -170q0 -189 -287 -442 l-80 79q67 68 102 108.5t66.5 97t32.5 104.5q-37 -13 -92 -13q-74 0 -125 42.5t-51 103.5z" />
<glyph unicode="&#x2022;" horiz-adv-x="1013" d="M139 666q0 135 108.5 222t262.5 87q162 0 264.5 -86t102.5 -223q0 -126 -103 -208.5t-264 -82.5q-153 0 -262 83.5t-109 207.5z" />
<glyph unicode="&#x2026;" horiz-adv-x="1892" d="M98 147q0 78 63.5 129.5t153.5 51.5q96 0 156.5 -50.5t60.5 -130.5q0 -77 -60.5 -125.5t-156.5 -48.5q-90 0 -153.5 49.5t-63.5 124.5zM729 147q0 78 63 129.5t154 51.5q95 0 156 -51t61 -130q0 -76 -61 -125t-156 -49q-91 0 -154 49.5t-63 124.5zM1360 147 q0 78 63 129.5t154 51.5q95 0 156 -51t61 -130q0 -76 -61 -125t-156 -49q-91 0 -154 49.5t-63 124.5z" />
<glyph unicode="&#x202f;" horiz-adv-x="418" />
<glyph unicode="&#x2039;" horiz-adv-x="1216" d="M111 365v266h94q273 0 449.5 105.5t238.5 316.5l237 -92q-64 -207 -223.5 -322.5t-455.5 -140.5q298 -27 458 -142.5t226 -324.5l-240 -88q-62 211 -238 316.5t-450 105.5h-96z" />
<glyph unicode="&#x203a;" horiz-adv-x="1216" d="M82 961l237 92q64 -211 239.5 -316.5t447.5 -105.5h100v-266h-96q-271 0 -447.5 -105.5t-238.5 -316.5l-240 88q44 138 122.5 232t217.5 155.5t340 79.5q-298 25 -458 140.5t-224 322.5z" />
<glyph unicode="&#x205f;" horiz-adv-x="522" />
<glyph unicode="&#x20ac;" horiz-adv-x="1536" d="M72 408v176h141q-2 16 -2 49v6h-139v176h159q56 221 225.5 352t377.5 131q207 0 354 -131v103h262v-414l-166 -8q-69 99 -153 155t-211 56q-119 0 -213.5 -63.5t-137.5 -180.5h621v-176h-651v-6q0 -33 2 -49h649v-176h-602q48 -91 137.5 -141t210.5 -50q123 0 210.5 44.5 t178.5 135.5l148 -209q-229 -215 -537 -215q-247 0 -432 118t-256 317h-176z" />
<glyph unicode="&#x2122;" horiz-adv-x="1843" d="M41 1176v229h664v-229h-123v133h-140v-387h88v-111h-313v111h84v387h-139v-133h-121zM772 809v111h92v376h-92v109h246l211 -426l207 426h245v-109h-90v-376h90v-111h-307v111h76v264l-184 -381h-86l-189 387v-270h80v-111h-299z" />
<glyph unicode="&#x25fc;" horiz-adv-x="962" d="M0 0v963h963v-963h-963z" />
</font>
</defs>
</svg>
