<?xml version="1.0" standalone="no"?>
<!DOCTYPE svg PUBLIC "-//W3C//DTD SVG 1.1//EN" "http://www.w3.org/Graphics/SVG/1.1/DTD/svg11.dtd" >
<svg xmlns="http://www.w3.org/2000/svg" xmlns:xlink="http://www.w3.org/1999/xlink" version="1.1">
<metadata></metadata>
<defs>
<font id="biorhymeregular" horiz-adv-x="1230" >
<font-face units-per-em="2048" ascent="1638" descent="-410" />
<missing-glyph horiz-adv-x="604" />
<glyph unicode="&#xfb01;" horiz-adv-x="1597" d="M59 0v162h217v641h-217v162h217v137q0 190 106 294.5t282 104.5q91 0 169 -25.5t179 -76.5l-72 -156q-141 88 -256 88q-95 0 -153 -59.5t-58 -163.5v-143h309v-162h-309v-641h285v-162h-699zM930 0v162h217v641h-217v162h418v-803h219v-162h-637zM1067 1307q0 57 45 93 t113 36q70 0 114.5 -36t44.5 -93q0 -53 -44.5 -87t-114.5 -34q-68 0 -113 34.5t-45 86.5z" />
<glyph unicode="&#xfb02;" horiz-adv-x="1585" d="M59 0v162h217v641h-217v162h217v137q0 190 106 294.5t282 104.5q89 0 164.5 -24t170.5 -72h334v-1243h223v-162h-638v162h215v1081h-215v14q-123 74 -234 74q-95 0 -153 -59.5t-58 -163.5v-143h309v-162h-309v-641h285v-162h-699z" />
<glyph horiz-adv-x="0" />
<glyph horiz-adv-x="682" />
<glyph unicode="&#xd;" horiz-adv-x="1622" />
<glyph unicode=" "  horiz-adv-x="604" />
<glyph unicode="&#x09;" horiz-adv-x="604" />
<glyph unicode="&#xa0;" horiz-adv-x="604" />
<glyph unicode="!" horiz-adv-x="708" d="M186 106q0 61 49 100.5t119 39.5q75 0 122.5 -39t47.5 -101q0 -57 -48 -95t-122 -38q-70 0 -119 38.5t-49 94.5zM201 1393q0 66 37.5 110.5t115.5 44.5t117 -44.5t39 -110.5q0 -32 -38 -256.5t-52 -419.5l-21 -314h-86l-22 314q-14 145 -37 298.5t-38 247.5t-15 130z" />
<glyph unicode="&#x22;" horiz-adv-x="915" d="M154 965l32 546l215 -26l-122 -531zM528 963l35 548l215 -26l-123 -533z" />
<glyph unicode="#" horiz-adv-x="1611" d="M16 346v158h365l119 325h-350v158h407l123 338h176l-123 -338h377l123 338h176l-123 -338h309v-158h-368l-119 -325h356v-158h-413l-127 -346h-172l125 346h-377l-127 -346h-174l125 346h-308zM557 504h377l119 325h-377z" />
<glyph unicode="$" horiz-adv-x="1474" d="M170 -2v446l111 9q169 -225 411 -299v383l-28 6q-250 65 -371 165t-121 244q0 157 119 252.5t307 95.5q42 0 86 -6v260h160v-299q159 -56 278 -182v201h174v-443l-104 -6q-62 102 -155.5 175.5t-202.5 109.5v-395q129 -32 220 -66.5t164.5 -82.5t109.5 -112.5t36 -146.5 q0 -154 -126 -245t-329 -91q-45 0 -65 2v-272h-160v301q-186 53 -336 197v-201h-178zM377 971q0 -73 73.5 -122.5t241.5 -96.5v389q-18 2 -55 2q-124 0 -192 -44.5t-68 -127.5zM834 127q20 -2 59 -2q121 0 194.5 40.5t73.5 115.5q0 69 -77 119t-250 98v-371z" />
<glyph unicode="%" horiz-adv-x="1822" d="M90 989q0 149 106 243.5t248 94.5q146 0 248.5 -94.5t102.5 -245.5q0 -149 -103 -243.5t-248 -94.5q-140 0 -247 97t-107 243zM199 25l1312 1339l107 -104l-1313 -1342zM258 989q0 -82 55.5 -136t132.5 -54q76 0 131.5 53t55.5 135t-55.5 135.5t-131.5 53.5 q-77 0 -132.5 -52.5t-55.5 -134.5zM1026 297q0 149 103.5 244.5t248.5 95.5q141 0 248 -98t107 -244q0 -100 -51 -178.5t-131.5 -119t-172.5 -40.5q-145 0 -248.5 95t-103.5 245zM1192 297q0 -83 54.5 -135.5t131.5 -52.5t133 52t56 134q0 81 -56.5 135.5t-132.5 54.5 q-77 0 -131.5 -53t-54.5 -135z" />
<glyph unicode="&#x26;" horiz-adv-x="1593" d="M78 354q0 141 96.5 237t300.5 173q-20 100 -20 215q0 192 116 320t289 128q154 0 247 -87t93 -214q0 -148 -127.5 -263t-370.5 -189q46 -136 128 -250t182 -188q86 57 135.5 131t52.5 157q5 103 -53 199l172 76q83 -128 78 -273q-3 -95 -58 -195t-155 -181 q60 -17 106 -17q123 0 219 35l35 -156q-112 -39 -239 -39q-149 0 -295 70q-171 -74 -377 -74q-157 -2 -282.5 43t-199 134t-73.5 208zM272 367q0 -105 101 -169.5t260 -64.5q103 0 198 25q-214 179 -313 452q-131 -52 -188.5 -107.5t-57.5 -135.5zM651 979q0 -74 13 -150 q340 108 340 293q0 65 -39 103.5t-101 38.5q-81 0 -147 -74.5t-66 -210.5z" />
<glyph unicode="'" horiz-adv-x="569" d="M154 973l63 545l215 -45l-153 -521z" />
<glyph unicode="(" horiz-adv-x="780" d="M145 702q0 144 33 278.5t85.5 238.5t125.5 197.5t146 160t155 123.5l51 -78q-401 -401 -401 -920q0 -131 28.5 -258.5t70 -223t98.5 -186t105 -148t99 -107.5l-51 -74q-76 51 -147.5 116t-145.5 159.5t-128.5 200t-89 241.5t-34.5 280z" />
<glyph unicode=")" horiz-adv-x="780" d="M39 -219q401 396 401 921q0 131 -28 257.5t-69.5 222.5t-98.5 186t-105.5 148t-99.5 108l51 76q76 -52 147.5 -117t145 -159.5t127.5 -200t88.5 -241.5t34.5 -280t-32.5 -278.5t-85 -238.5t-125.5 -197.5t-145.5 -160t-154.5 -122.5z" />
<glyph unicode="*" horiz-adv-x="1032" d="M61 1311q0 41 27 71.5t68 30.5q39 0 110 -47.5t103 -62.5l61 -27l-18 -64l-64 9q-39 4 -108 0.5t-90 -0.5q-39 3 -64 27.5t-25 62.5zM186 918q0 39 35 71q15 15 73.5 56t88.5 67l51 45l49 -41l-32 -55q-19 -36 -48.5 -104.5t-37.5 -84.5q-21 -47 -78 -47q-37 0 -69 28 t-32 65zM422 1593q0 38 23.5 66t72.5 29q46 -1 71 -29.5t25 -65.5q0 -26 -25 -100t-30 -111l-10 -63h-66l-8 63q-6 32 -29.5 107.5t-23.5 103.5zM549 1116l49 41l51 -45q31 -27 89.5 -68.5t72.5 -54.5q35 -32 35 -71q0 -37 -32.5 -65t-70.5 -28q-54 0 -75 47q-6 11 -36 81 t-52 108zM604 1276l62 27q38 17 80.5 46.5t72.5 46.5t60 17q41 0 67.5 -31t26.5 -73q0 -36 -24.5 -60.5t-63.5 -27.5q-22 -3 -92 0.5t-109 -0.5l-61 -9z" />
<glyph unicode="+" horiz-adv-x="1202" d="M127 551v172h385v410h174v-410h391v-172h-391v-414h-174v414h-385z" />
<glyph unicode="," horiz-adv-x="622" d="M145 104q0 60 46.5 100t115.5 40q84 0 136.5 -57t52.5 -146q0 -106 -72 -220t-197 -224l-57 57q95 98 147.5 177t65.5 157q-44 -13 -94 -13q-59 0 -101.5 35.5t-42.5 93.5z" />
<glyph unicode="-" horiz-adv-x="643" d="M59 397v174h527v-174h-527z" />
<glyph unicode="." horiz-adv-x="579" d="M121 106q0 61 49 100.5t119 39.5q76 0 124 -39t48 -101q0 -58 -48 -95.5t-124 -37.5q-70 0 -119 38.5t-49 94.5z" />
<glyph unicode="/" horiz-adv-x="1009" d="M45 -215l719 1731h180l-719 -1731h-180z" />
<glyph unicode="0" horiz-adv-x="1417" d="M92 635q0 154 52 281.5t138.5 209.5t197 127t229.5 45q118 0 227.5 -45t196.5 -127t139.5 -209.5t52.5 -281.5q0 -124 -33.5 -231.5t-92.5 -185.5t-137 -134t-168 -83.5t-185 -27.5q-118 0 -228 44.5t-197 126.5t-139.5 209.5t-52.5 281.5zM303 635q0 -220 115 -360 t289 -140q179 0 293 139t114 361t-115.5 362t-291.5 140q-178 0 -291 -139.5t-113 -362.5z" />
<glyph unicode="1" horiz-adv-x="935" d="M100 1012q117 23 211.5 94.5t130.5 173.5h201v-1110h217v-170h-710v170h292v844q-100 -123 -301 -164z" />
<glyph unicode="2" horiz-adv-x="1288" d="M82 0v170q4 72 31 134t69 110t107.5 93t133.5 79t159 71q83 35 133.5 58t97.5 49.5t70.5 50t37 52.5t13.5 63q-1 89 -78.5 143.5t-200.5 54.5q-236 0 -465 -215l-104 125q260 260 580 260q90 1 173.5 -22.5t151 -68t108 -116.5t40.5 -161q0 -54 -14.5 -100t-47 -85 t-69 -70t-96.5 -63.5t-112 -56.5t-132 -57q-67 -28 -107 -46t-89 -43t-76.5 -47.5t-54 -52t-39 -64t-15.5 -75.5h719v238h170v-408h-1094z" />
<glyph unicode="3" horiz-adv-x="1210" d="M35 170l82 147q227 -170 483 -170q135 0 222 54.5t87 140.5q0 98 -109.5 152.5t-338.5 54.5h-174v153h174q194 0 296.5 62t102.5 162q0 89 -78 145.5t-196 56.5q-119 0 -221 -46t-207 -130l-101 135q249 211 537 211q127 0 233.5 -40t174 -122.5t67.5 -191.5 q0 -107 -76.5 -188t-208.5 -123q334 -67 334 -307q0 -150 -147.5 -248t-372.5 -98q-178 0 -313 53t-250 137z" />
<glyph unicode="4" horiz-adv-x="1302" d="M45 276v168l741 854h218v-854h270v-168h-270v-303h-195v303h-764zM252 444h557v643z" />
<glyph unicode="5" horiz-adv-x="1261" d="M90 135l68 168q266 -176 479 -176q84 0 157 27.5t122 86.5t49 138q1 107 -89.5 167.5t-246.5 63.5q-111 3 -213.5 -20t-239.5 -72v62h-2v690h948v-172h-755v-355q162 42 311 39q78 -2 149.5 -19t134.5 -49.5t109 -79t73 -112t27 -143.5q0 -121 -72 -221t-195.5 -154.5 t-268.5 -48.5q-89 4 -170.5 20.5t-151.5 45.5t-117.5 54t-105.5 60z" />
<glyph unicode="6" horiz-adv-x="1282" d="M92 586q0 152 50 284.5t137.5 226.5t211.5 147.5t267 53.5q125 0 222 -29.5t191 -78.5l-67 -160q-160 98 -338 98q-183 0 -312 -121t-155 -325q112 62 211 92t215 29q91 0 173.5 -24t150 -70.5t107.5 -123.5t40 -175q0 -126 -70.5 -227t-188.5 -156t-257 -54 q-164 1 -296.5 74t-212 213.5t-79.5 325.5zM295 545q13 -183 127 -291.5t266 -108.5q130 0 217 72t88 186q1 113 -85 176.5t-218 63.5q-200 0 -395 -98z" />
<glyph unicode="7" horiz-adv-x="1236" d="M90 801v461h1096v-172l-701 -1119l-168 88l652 1031h-707v-289h-172z" />
<glyph unicode="8" horiz-adv-x="1370" d="M109 369q0 101 59.5 180.5t148.5 132.5q-153 98 -153 244q0 73 36.5 140.5t102 119.5t164 83t213.5 31q123 0 228 -33t174 -88t108 -125t39 -145q0 -168 -180 -293q215 -103 215 -274q0 -72 -37.5 -138t-105.5 -117.5t-174 -82.5t-234 -31q-146 0 -263.5 33.5t-190.5 90 t-111.5 126.5t-38.5 146zM307 387q0 -101 117 -172.5t293 -71.5q150 0 249 54t99 147q0 83 -84.5 124.5t-288.5 82.5q-141 26 -243 67q-142 -115 -142 -231zM362 932q0 -56 42.5 -97t113 -66.5t180.5 -47.5q109 -21 199 -49q133 113 133 219q0 102 -99 169.5t-257 67.5 q-125 0 -218.5 -54t-93.5 -142z" />
<glyph unicode="9" horiz-adv-x="1282" d="M86 860q0 127 70.5 228.5t188 156t257.5 53.5q121 0 228 -43t186.5 -120.5t125.5 -193.5t46 -255q0 -204 -84.5 -366.5t-236.5 -254.5t-343 -92q-219 0 -413 111l65 156q168 -97 338 -97q181 0 311 121t156 324q-110 -60 -210 -90t-216 -29q-90 0 -172 24t-149.5 70.5 t-107.5 123t-40 173.5zM287 868q-1 -113 85 -175t220 -62q198 0 393 98q-14 181 -128.5 289t-262.5 108q-130 0 -217 -72.5t-90 -185.5z" />
<glyph unicode=":" horiz-adv-x="651" d="M158 106q0 61 48.5 100.5t119.5 39.5q75 0 122.5 -39t47.5 -101q0 -57 -48 -95t-122 -38q-71 0 -119.5 38t-48.5 95zM158 850q0 58 48.5 97.5t119.5 39.5q74 0 122 -39t48 -98t-47.5 -97t-122.5 -38q-71 0 -119.5 38.5t-48.5 96.5z" />
<glyph unicode=";" horiz-adv-x="677" d="M170 104q0 60 47 100t115 40q84 0 136 -57t52 -146q0 -106 -71.5 -220t-196.5 -224l-57 57q93 95 146 175t67 159q-44 -13 -93 -13q-61 0 -103 35.5t-42 93.5zM170 848q0 59 49 99t119 40q75 0 122.5 -39.5t47.5 -99.5q0 -59 -47.5 -96t-122.5 -37q-70 0 -119 37.5 t-49 95.5z" />
<glyph unicode="&#x3c;" horiz-adv-x="1060" d="M51 610v49l893 539v-192l-625 -373l625 -367v-194z" />
<glyph unicode="=" horiz-adv-x="1200" d="M129 358v172h938v-172h-938zM129 739v172h938v-172h-938z" />
<glyph unicode="&#x3e;" horiz-adv-x="1060" d="M119 72v194l626 371l-626 369v192l893 -536v-50z" />
<glyph unicode="?" horiz-adv-x="958" d="M88 1356q193 78 385 78q122 0 223 -39.5t163.5 -118t62.5 -182.5q0 -63 -24 -116.5t-72 -98.5t-96.5 -78t-119.5 -72q-158 -85 -197 -114q-62 -48 -63 -103q0 -56 37 -135l-72 -25q-42 60 -61.5 92t-36 74t-16.5 80q0 30 8.5 55.5t29 49.5t41 42t58 41t65.5 38t78 40 q119 63 170 109.5t51 116.5q0 72 -71 119.5t-172 47.5q-148 0 -309 -71zM242 100q0 56 46 93.5t113 37.5q70 0 116 -37t46 -94q0 -54 -46 -90.5t-116 -36.5q-66 0 -112.5 36.5t-46.5 90.5z" />
<glyph unicode="@" horiz-adv-x="1937" d="M90 471q0 200 74 370.5t198.5 284t289 177t345.5 63.5q186 0 346.5 -64.5t270 -172.5t171.5 -251.5t62 -299.5q0 -124 -32.5 -224.5t-86.5 -161.5t-119.5 -93.5t-135.5 -32.5q-87 0 -151.5 40t-100.5 105q-83 -73 -180 -115.5t-195 -42.5q-76 0 -139.5 26t-106.5 84.5 t-43 139.5q0 83 51 143.5t130 89.5t173 29q135 0 275 -43v72q0 83 -58.5 122.5t-150.5 39.5q-158 0 -338 -80l-35 137q211 90 400 90q168 0 260 -81t92 -236v-221q0 -82 39.5 -131.5t103.5 -49.5q90 0 156.5 101.5t66.5 292.5q0 135 -54 259t-148 217.5t-230.5 149.5 t-292.5 56q-159 0 -303 -60t-249.5 -164t-167.5 -252t-62 -317q0 -131 38.5 -248.5t105 -205t153.5 -151.5t187.5 -97t203.5 -33q235 0 424 121l45 -97q-80 -56 -200 -93.5t-265 -37.5q-119 0 -235 34t-221.5 105t-185.5 169.5t-127.5 237.5t-47.5 300zM745 309 q0 -56 40.5 -84t109.5 -28q136 0 295 108q-4 28 -4 43v60q-112 29 -234 32q-87 0 -147 -31.5t-60 -99.5z" />
<glyph unicode="A" horiz-adv-x="1742" d="M8 0v170h219l457 1067h-211v168h791v-168h-209l461 -1067h219v-170h-670v170h229l-131 328h-606l-129 -328h246v-170h-666zM618 651h484l-234 586h-16z" />
<glyph unicode="B" horiz-adv-x="1548" d="M74 0v170h264v1065h-264v170h800q223 0 345 -100.5t122 -264.5q0 -110 -56.5 -189t-154.5 -124q314 -73 314 -344q0 -184 -139.5 -283.5t-397.5 -99.5h-833zM547 170h340q344 0 344 229q0 118 -91.5 174t-254.5 58h-338v-461zM547 786h276q142 0 223.5 57t81.5 173 q0 59 -21.5 102.5t-60 68t-85 36.5t-101.5 12h-313v-449z" />
<glyph unicode="C" horiz-adv-x="1552" d="M104 700q0 161 56 300t150.5 233t219.5 147.5t261 53.5q287 0 452 -203l2 174h191v-457l-136 -12q-148 328 -479 328q-98 0 -188 -39.5t-158.5 -110.5t-109.5 -178t-41 -234q0 -159 67 -286.5t183 -198t257 -70.5q167 0 282 72t202 197l137 -115q-100 -148 -255 -238 t-366 -90q-202 0 -367.5 92t-262.5 259t-97 376z" />
<glyph unicode="D" horiz-adv-x="1673" d="M74 0v170h264v1065h-264v170h688q129 0 247.5 -27t220.5 -84t177.5 -139t118.5 -198t43 -255q0 -138 -43 -254t-118.5 -198t-177.5 -139t-220.5 -84t-247.5 -27h-688zM549 170h192q98 0 184.5 17.5t165 58t135 101t89.5 151.5t33 204q0 114 -33 205.5t-89.5 151.5 t-135 100.5t-165 58t-184.5 17.5h-192v-1065z" />
<glyph unicode="E" horiz-adv-x="1615" d="M74 0v170h262v1065h-262v170h1388v-451h-188v281h-729v-455h323v191h164v-537h-164v191h-323v-455h729v281h188v-451h-1388z" />
<glyph unicode="F" horiz-adv-x="1511" d="M74 0v170h264v1065h-264v170h1362v-461h-189v291h-700v-473h327v190h162v-538h-162v192h-327v-436h276v-170h-749z" />
<glyph unicode="G" horiz-adv-x="1640" d="M98 702q0 157 55.5 294.5t149.5 232.5t220 150t265 55q155 0 280 -54.5t210 -146.5v172h186v-436l-133 -11q-36 65 -81.5 117.5t-106 96.5t-139 68t-168.5 24q-106 0 -200.5 -39.5t-165 -110.5t-112 -178t-41.5 -234q0 -164 69 -291t188.5 -195.5t269.5 -68.5 q258 0 428 134v272h-451v162h643v-522q-106 -98 -268 -160t-352 -62q-163 0 -302.5 54.5t-236.5 150.5t-152 231.5t-55 294.5z" />
<glyph unicode="H" horiz-adv-x="1914" d="M74 0v170h264v1065h-264v170h737v-170h-260v-440h813v440h-260v170h737v-170h-264v-1065h264v-170h-737v170h260v463h-813v-463h260v-170h-737z" />
<glyph unicode="I" horiz-adv-x="888" d="M74 0v170h264v1065h-264v170h741v-170h-266v-1065h266v-170h-741z" />
<glyph unicode="J" horiz-adv-x="1183" d="M8 129l92 147q170 -126 321 -126h11q122 3 193 79.5t71 231.5l-2 774h-364v170h839v-170h-260v-778q0 -225 -132 -354.5t-335 -129.5q-130 0 -243 45t-191 111z" />
<glyph unicode="K" horiz-adv-x="1759" d="M74 0v170h264v1065h-264v170h729v-170h-254v-635l745 635h-243v170h657v-170h-174l-524 -442l551 -623h178v-170h-660v170h215l-432 500l-313 -267v-233h254v-170h-729z" />
<glyph unicode="L" horiz-adv-x="1482" d="M74 0v170h264v1065h-264v170h737v-170h-262v-1065h643v317h199v-487h-1317z" />
<glyph unicode="M" horiz-adv-x="2254" d="M74 0v170h262v1065h-262v170h495l564 -1124l553 1124h495v-170h-262v-1065h264v-170h-715v170h244v688q0 92 25 256l-559 -1128h-107l-555 1120q19 -171 19 -248v-688h243v-170h-704z" />
<glyph unicode="N" horiz-adv-x="1921" d="M74 0v170h264v1065h-264v170h465l893 -1038v868h-265v170h717v-170h-256v-1247l-104 -2l-985 1120v-936h252v-170h-717z" />
<glyph unicode="O" horiz-adv-x="1667" d="M104 702q0 212 96 380t262.5 260t371.5 92q204 0 369.5 -92t261.5 -260t96 -380q0 -158 -56 -294.5t-153.5 -231.5t-231.5 -149t-286 -54q-205 0 -371.5 91.5t-262.5 259t-96 378.5zM324 702q0 -245 141 -398.5t369 -153.5q224 0 365.5 154.5t141.5 397.5 q0 246 -141.5 400.5t-365.5 154.5q-227 0 -368.5 -155.5t-141.5 -399.5z" />
<glyph unicode="P" horiz-adv-x="1503" d="M74 0v170h264v1065h-264v170h798q248 0 397.5 -117t149.5 -319q0 -208 -148 -327.5t-397 -119.5h-327v-352h280v-170h-753zM547 694l317 -2q71 0 130 14t109 44.5t78.5 86.5t28.5 134q0 71 -28.5 123.5t-78 82t-110.5 44t-133 14.5h-313v-541z" />
<glyph unicode="Q" horiz-adv-x="1667" d="M104 702q0 212 96 380t262.5 260t371.5 92q204 0 369.5 -92t261.5 -260t96 -380q0 -214 -98.5 -382t-266.5 -259q110 -124 258 -124q76 0 119 12l24 -160q-70 -25 -170 -25q-237 0 -415 230q-82 -21 -178 -21q-205 0 -371.5 91.5t-262.5 259t-96 378.5zM322 637 q20 -223 159 -359.5t353 -136.5q38 0 79 6q-32 57 -43 80l-61 127q-32 64 -57.5 104.5t-59.5 78t-72 57.5t-89.5 31.5t-118.5 11.5h-90zM326 795h86q206 0 334.5 -82t236.5 -295l64 -125q24 -47 45 -84q121 69 188.5 198.5t67.5 294.5q0 250 -142.5 407t-371.5 157 q-207 0 -344 -129.5t-164 -341.5z" />
<glyph unicode="R" horiz-adv-x="1607" d="M74 0v168h264v1067h-264v170h815q239 0 378.5 -110t139.5 -296q0 -147 -96 -251t-267 -138l76 -186q62 -150 132.5 -206t154.5 -56q57 0 123 24l45 -172q-77 -43 -189 -43q-74 1 -133.5 20.5t-115.5 65t-103.5 124.5t-87.5 194l-80 221h-317v-426h258v-170h-733zM549 754 h346q130 0 216.5 66.5t86.5 178.5q0 108 -85 172t-218 64h-346v-481z" />
<glyph unicode="S" horiz-adv-x="1431" d="M150 2v473l118 6q109 -157 265 -247.5t309 -90.5q115 0 187.5 49t72.5 134q0 92 -102.5 158t-348.5 130q-255 67 -374 177t-119 270q0 111 61.5 197.5t162.5 131t222 44.5q285 0 461 -209v180h186v-467l-114 -6q-86 165 -211 248.5t-275 83.5q-121 0 -197.5 -52 t-76.5 -141q0 -91 93 -155t306 -121q132 -37 226 -76t169 -92.5t112.5 -123.5t37.5 -159q0 -168 -132 -269.5t-335 -101.5q-281 0 -518 234v-205h-186z" />
<glyph unicode="T" horiz-adv-x="1593" d="M78 944v461h1438v-461h-189v291h-424v-1065h266v-170h-745v170h268v1065h-426v-291h-188z" />
<glyph unicode="U" horiz-adv-x="1816" d="M14 1235v170h725v-170h-247l-3 -688q0 -175 117.5 -287.5t302.5 -112.5q184 0 302 113.5t118 288.5l-2 686h-250v170h727v-170h-264v-694q0 -248 -176 -409t-455 -161q-188 0 -332 74t-221 203.5t-77 292.5v694h-265z" />
<glyph unicode="V" horiz-adv-x="1722" d="M0 1235v170h682v-170h-223l413 -965l406 965h-248v170h692v-170h-235l-576 -1264h-104l-571 1264h-236z" />
<glyph unicode="W" horiz-adv-x="2416" d="M6 1235v170h688v-170h-239l301 -907l399 1046h115l418 -1048l288 909h-250v170h687v-170h-230l-448 -1264h-105l-432 1026l-410 -1026h-106l-451 1264h-225z" />
<glyph unicode="X" horiz-adv-x="1669" d="M27 0v170h227l448 514l-487 551h-188v170h688v-156h-236l369 -432l373 432h-240v156h661v-170h-212l-467 -524l471 -541h211v-170h-691v156h213l-348 419l-354 -419h219v-156h-657z" />
<glyph unicode="Y" horiz-adv-x="1650" d="M20 1235v170h646v-170h-201l383 -553l377 553h-240v170h645v-170h-207l-489 -686v-379h270v-170h-755v170h274v367l-504 698h-199z" />
<glyph unicode="Z" horiz-adv-x="1515" d="M131 0v143l916 1031q38 41 114 67l-2 8q-58 -12 -123 -12h-714v-293h-189v461h1258v-141l-922 -1037q-38 -45 -113 -61l2 -10q58 14 125 14h729v291h189v-461h-1270z" />
<glyph unicode="[" horiz-adv-x="706" d="M250 -287v1987h426v-170h-242v-1647h242v-170h-426z" />
<glyph unicode="\" horiz-adv-x="1001" d="M53 1516h183l727 -1731h-181z" />
<glyph unicode="]" horiz-adv-x="706" d="M33 -117h241v1647h-241v170h426v-1987h-426v170z" />
<glyph unicode="^" horiz-adv-x="1136" d="M104 879l420 786h115l393 -786h-198l-256 559l-273 -559h-201z" />
<glyph unicode="_" horiz-adv-x="829" d="M-27 -182h883v-172h-883v172z" />
<glyph unicode="a" d="M158 450q58 73 149 108.5t199 35.5q164 0 330 -68v90q0 72 -35.5 119t-90 65.5t-126.5 18.5q-159 0 -385 -88l-41 156q242 102 450 102q198 0 308 -97.5t110 -283.5v-354q0 -100 72 -100q31 0 63 16l41 -145q-71 -41 -158 -41q-75 0 -127.5 44t-72.5 126 q-206 -183 -406 -183q-143 -1 -241 81q-97 81 -97 224q0 101 58 174zM299 285q0 -70 55 -108t135 -38q70 0 160.5 37.5t186.5 108.5v108q-138 49 -295 53q-101 0 -171.5 -42t-70.5 -119z" />
<glyph unicode="b" horiz-adv-x="1323" d="M6 1243v162h397v-625q79 97 182 153t208 56q120 0 221.5 -61.5t163 -176.5t61.5 -259q0 -226 -144.5 -373.5t-357.5 -147.5q-192 0 -354 158l-57 -129h-119v1243h-201zM403 262q145 -121 291 -121q147 0 241.5 99t94.5 254q0 147 -84 237q-82 88 -209 88h-6 q-86 -1 -171 -53t-157 -143v-361z" />
<glyph unicode="c" horiz-adv-x="1132" d="M84 479q0 107 39 202.5t104.5 163t154.5 106.5q87 38 182 38h5q202 0 316 -143v119h145v-338l-86 -6q-100 202 -319 202q-144 0 -238 -95.5t-94 -246.5q0 -149 98 -244.5t230 -95.5h15q92 0 162 35q76 38 156 111l90 -131q-196 -187 -436 -187q-137 0 -256 61.5 t-193.5 180t-74.5 268.5z" />
<glyph unicode="d" horiz-adv-x="1333" d="M84 469q0 227 145 373.5t357 146.5q180 0 327 -129v383h-217v162h414v-1157q0 -98 68 -98q45 0 67 16l43 -148q-66 -38 -155 -38q-76 0 -131 40t-76 115q-180 -164 -375 -164q-192 0 -329.5 141t-137.5 357zM293 471q0 -149 86 -241q83 -89 213 -89h8q147 3 313 140v426 q-139 112 -282 112q-148 0 -243 -97.5t-95 -250.5z" />
<glyph unicode="e" horiz-adv-x="1144" d="M84 459q0 98 30.5 184t83 148.5t121.5 107.5t148 67.5t160 22.5q184 0 302 -84.5t118 -220.5q0 -91 -58 -157.5t-145.5 -97t-190.5 -30.5q-183 0 -377 84v-18q0 -148 102 -237q100 -87 241 -87h6q202 3 356 133l86 -131q-198 -172 -449 -172q-102 0 -197 32.5t-170.5 92 t-121 154t-45.5 209.5zM299 596q154 -55 311 -55q102 0 169 37.5t67 105.5q0 66 -57 105.5t-148 39.5q-109 0 -205.5 -63t-136.5 -170z" />
<glyph unicode="f" horiz-adv-x="870" d="M59 0v162h217v641h-217v162h217v137q0 190 106 294.5t282 104.5q91 0 169 -25.5t179 -76.5l-72 -156q-141 88 -256 88q-95 0 -153 -59.5t-58 -163.5v-143h309v-162h-309v-641h285v-162h-699z" />
<glyph unicode="g" horiz-adv-x="1187" d="M41 -160q0 113 113 203q-84 65 -84 162q0 145 155 237q-69 85 -69 197q0 84 39.5 152.5t103 110.5t139 64.5t152.5 22.5q121 0 223 -45q36 107 118.5 163.5t198.5 59.5v-168q-81 -3 -135 -26t-94 -78q127 -95 127 -250q0 -83 -38.5 -151.5t-101.5 -111.5t-140 -66 t-158 -23q-158 0 -283 78q-61 -54 -61 -119q0 -54 41.5 -83.5t115.5 -29.5q72 0 216 21.5t233 21.5q132 0 212.5 -65t80.5 -185q0 -114 -88.5 -201.5t-231 -132t-313.5 -44.5q-207 0 -339 76.5t-132 209.5zM215 -119q0 -75 86.5 -118.5t239.5 -43.5q109 0 204 23.5 t155.5 70.5t60.5 107q0 105 -152 105q-60 0 -202.5 -24t-237.5 -24q-51 0 -113 15q-41 -48 -41 -111zM352 639q0 -92 69 -147.5t171 -55.5q105 0 172 57.5t67 151.5q0 92 -68.5 146.5t-170.5 54.5q-100 0 -170 -57t-70 -150z" />
<glyph unicode="h" horiz-adv-x="1468" d="M47 0v162h217v1081h-217v162h418v-662q112 124 217.5 185t230.5 61q166 0 252 -106t86 -316v-405h193v-162h-570v162h179v399q0 119 -56.5 184.5t-162.5 65.5q-167 0 -369 -225v-424h176v-162h-594z" />
<glyph unicode="i" horiz-adv-x="727" d="M59 0v162h217v641h-217v162h418v-803h219v-162h-637zM197 1307q0 57 44.5 93t112.5 36q71 0 115.5 -36t44.5 -93q0 -53 -45 -87t-115 -34q-68 0 -112.5 34.5t-44.5 86.5z" />
<glyph unicode="j" horiz-adv-x="665" d="M-156 -430l50 168q110 -47 200 -47q84 0 135.5 59.5t51.5 165.5v887h-220v162h418v-1045q0 -190 -106 -298.5t-273 -108.5q-25 0 -48 1.5t-45.5 6l-37.5 7.5t-37.5 10.5t-30.5 10t-31 11.5t-26 10zM197 1307q0 57 44.5 93t112.5 36q71 0 115.5 -36t44.5 -93 q0 -53 -45 -87t-115 -34q-68 0 -112.5 34.5t-44.5 86.5z" />
<glyph unicode="k" horiz-adv-x="1392" d="M47 0v162h215v1081h-215v162h410v-606q214 190 428 190q147 1 247 -81q99 -81 99 -225q0 -115 -77 -195q-76 -80 -193 -113q27 -118 84 -177t133 -61q78 0 137 33l43 -145q-87 -54 -195 -54q-136 0 -227.5 100t-120.5 283h-4q-158 0 -354 76v-268h205v-162h-615zM457 563 q164 -61 311 -61q107 3 180.5 47.5t73.5 124.5q0 70 -49.5 109.5t-136.5 39.5q-163 0 -379 -166v-94z" />
<glyph unicode="l" horiz-adv-x="714" d="M47 0v162h215v1081h-215v162h416v-1243h223v-162h-639z" />
<glyph unicode="m" horiz-adv-x="2164" d="M59 0v162h217v641h-217v162h418v-211q190 235 418 235q117 0 196 -64.5t109 -189.5q194 254 430 254q150 0 235 -105t85 -304v-418h190v-162h-565v162h174v411q0 107 -47 168.5t-141 61.5q-169 0 -344 -213v-10v-418h176v-162h-553v162h176v411q0 106 -49.5 168 t-143.5 62q-167 0 -346 -217v-424h178v-162h-596z" />
<glyph unicode="n" horiz-adv-x="1486" d="M59 0v162h217v641h-217v162h418v-228q114 126 219.5 189t227.5 63q167 0 256.5 -106.5t89.5 -315.5v-405h192v-162h-569v162h178v399q0 114 -56 177t-161 63q-176 0 -377 -223v-416h178v-162h-596z" />
<glyph unicode="o" d="M84 479q0 151 74.5 269t195 179.5t262.5 61.5q138 0 258.5 -61.5t196.5 -180t76 -268.5t-73 -267.5t-193.5 -179t-264.5 -61.5q-106 0 -202.5 36.5t-169.5 101t-116.5 161t-43.5 209.5zM293 479q0 -157 91.5 -252.5t231.5 -95.5q139 0 231.5 95.5t92.5 252.5t-92.5 252.5 t-231.5 95.5q-140 0 -231.5 -95.5t-91.5 -252.5z" />
<glyph unicode="p" horiz-adv-x="1368" d="M37 -285h215v1088h-215v162h412v-189q80 99 182 156t207 57q90 0 172 -36.5t143 -100.5t97 -157.5t36 -202.5q0 -112 -39.5 -209.5t-107 -165.5t-159.5 -107t-196 -39q-180 0 -335 140v-396h223v-161h-635v161zM449 262q145 -121 292 -121t241.5 99t94.5 254 q0 146 -85 236q-82 89 -208 89h-6q-87 -1 -172 -53.5t-157 -144.5v-359z" />
<glyph unicode="q" horiz-adv-x="1351" d="M84 465q0 155 71.5 275.5t194 184.5t273.5 64t311 -67l55 73h76v-139q132 -76 240 -176v-201q-117 108 -240 189v-953h215v-161h-653v161h241v375q-142 -119 -317 -119q-197 0 -332 141t-135 353zM293 467q0 -142 89 -235q85 -91 221 -91h9q139 3 256 103v528 q-117 47 -213 47q-159 0 -260.5 -97t-101.5 -255z" />
<glyph unicode="r" horiz-adv-x="1124" d="M59 0v162h217v641h-217v162h418v-242q108 124 226 195t235 71h86v-409h-178v211q-160 0 -369 -228v-401h219v-162h-637z" />
<glyph unicode="s" horiz-adv-x="1120" d="M96 -2v313l88 8q77 -88 195.5 -150.5t230.5 -62.5q76 0 119 29t43 82q0 62 -67.5 102t-221.5 80q-184 48 -283.5 123.5t-99.5 196.5q0 116 93.5 194t244.5 78q204 0 342 -125v99h154v-312l-90 -10q-57 96 -157 154.5t-198 58.5q-79 0 -130.5 -31.5t-51.5 -83.5 q0 -56 67.5 -94t213.5 -78q90 -25 155.5 -52.5t121.5 -66.5t85 -93t29 -121q0 -120 -100.5 -192.5t-247.5 -72.5q-102 0 -202 36t-177 99v-108h-156z" />
<glyph unicode="t" horiz-adv-x="915" d="M33 803v162h215v268h201v-268h319v-162h-319v-449q0 -104 48 -154t126 -50q103 0 196 49l62 -150q-129 -78 -289 -78q-157 0 -250.5 100.5t-93.5 284.5v447h-215z" />
<glyph unicode="u" horiz-adv-x="1378" d="M20 803v162h394v-566q0 -241 202 -241q158 0 336 200v445h-176v162h377v-717q0 -101 70 -101q40 0 63 17l45 -146q-70 -38 -153 -38q-97 0 -157 57.5t-67 163.5q-103 -114 -201 -172t-206 -58q-160 0 -247 107.5t-87 314.5v410h-193z" />
<glyph unicode="v" horiz-adv-x="1318" d="M23 803v162h522v-148h-162l295 -596l289 596h-166v148h495v-162h-159l-428 -832h-103l-438 832h-145z" />
<glyph unicode="w" horiz-adv-x="1808" d="M29 803v162h524v-148h-178l196 -563l299 684h111l295 -676l190 555h-178v148h494v-162h-146l-317 -830h-100l-314 672l-311 -672h-102l-314 830h-149z" />
<glyph unicode="x" horiz-adv-x="1312" d="M68 -2v162h133l342 311l-340 332h-135v162h548v-148h-172l234 -237l244 237h-177v148h500v-162h-135l-336 -307l342 -336h129v-162h-545v147h170l-235 242l-248 -242h184v-147h-503z" />
<glyph unicode="y" horiz-adv-x="1339" d="M33 -387l82 154q103 -76 202 -76q89 0 158 56t123 179l14 33l-413 844h-160v162h541v-148h-166l291 -647l284 647h-158v148h488v-162h-152l-405 -909q-87 -191 -194.5 -286t-250.5 -95q-81 0 -145 25.5t-139 74.5z" />
<glyph unicode="z" horiz-adv-x="1208" d="M66 35q19 60 42.5 112.5t53 95.5t57 78t66 67.5t66.5 55t72 48t69.5 39.5t70.5 38q144 79 180 103q-98 70 -206.5 107.5t-260.5 37.5v-239h-170v411h132q146 0 257.5 -28.5t185 -72.5t171.5 -124q73 85 98 227l170 -61q-18 -87 -51 -157.5t-71 -119.5t-95.5 -92.5 t-109.5 -72t-129 -64.5q-167 -82 -238 -143q181 -140 317 -140q89 0 155 60.5t83 160.5l172 -47q-18 -156 -128.5 -250t-254.5 -94q-120 0 -220.5 54.5t-211.5 162.5q-68 -90 -109 -217z" />
<glyph unicode="{" horiz-adv-x="985" d="M152 629v147h110q138 0 209.5 42t71.5 122q0 45 -34 92t-82 90.5t-96 91t-82 111t-34 133.5q0 78 33 140.5t88.5 101.5t124.5 59.5t145 20.5q105 0 182.5 -18.5t165.5 -55.5l-57 -158q-139 60 -266 60q-92 0 -157.5 -38.5t-65.5 -121.5q0 -39 23.5 -78t58.5 -70.5 t75.5 -70t75.5 -75.5t58.5 -89t23.5 -109q0 -100 -66 -165t-184 -89q118 -25 184 -91t66 -165q0 -49 -17.5 -94t-45 -79.5t-61 -67t-67.5 -62t-61.5 -58t-45 -61.5t-17.5 -67q0 -44 19.5 -77t52.5 -50.5t71 -26t80 -8.5q122 0 266 62l57 -158q-91 -38 -167.5 -57t-180.5 -19 q-103 0 -190 35t-144 110t-57 177q0 69 34 132.5t82 111t96 91t82 90.5t34 91q0 83 -71.5 126t-209.5 42h-110z" />
<glyph unicode="|" horiz-adv-x="706" d="M256 -395v2109h193v-2109h-193z" />
<glyph unicode="}" horiz-adv-x="985" d="M31 -301l55 158q78 -31 138 -46.5t128 -15.5q42 0 80 8.5t71 26t52.5 50.5t19.5 77q0 46 -32.5 91t-78.5 85t-92.5 83.5t-79 103t-32.5 126.5q0 99 66.5 165t183.5 91q-117 24 -183.5 89.5t-66.5 164.5q0 57 23.5 109t58.5 89t75.5 75.5t75.5 70t58.5 70.5t23.5 78 q0 83 -65.5 121.5t-157.5 38.5q-123 0 -266 -60l-55 158q89 37 165.5 55.5t182.5 18.5q76 0 145 -20.5t124.5 -59.5t88.5 -101.5t33 -140.5q0 -70 -34 -133.5t-82 -110.5t-96 -90t-82 -90.5t-34 -93.5q0 -80 72 -122.5t209 -41.5h108v-147h-108q-281 0 -281 -168 q0 -42 34 -88.5t82 -91t96 -92.5t82 -112t34 -132q0 -102 -57 -177t-144 -110t-190 -35q-105 0 -181 19t-167 57z" />
<glyph unicode="~" horiz-adv-x="1437" d="M119 418q1 106 19.5 194t56.5 160.5t104 113t154 40.5q96 0 170.5 -52t154.5 -155q75 -98 118 -138t91 -40q162 0 162 344l172 -4q-1 -106 -19.5 -194.5t-56.5 -161t-104 -113.5t-154 -41q-98 0 -175 54.5t-157 160.5q-71 94 -112.5 132t-89.5 38q-159 0 -162 -342z" />
<glyph unicode="&#xa1;" horiz-adv-x="708" d="M184 1327q0 57 48 95t122 38q70 0 119 -38.5t49 -94.5q0 -60 -49 -99.5t-119 -39.5q-75 0 -122.5 39t-47.5 100zM199 41q0 32 38 256.5t52 419.5l20 313h86l23 -313q14 -145 37 -298.5t38 -247.5t15 -130q0 -66 -38 -111t-116 -45t-116.5 45t-38.5 111z" />
<glyph unicode="&#xa2;" horiz-adv-x="1169" d="M104 633q0 133 63.5 242.5t166 173t223.5 73.5v176h158v-186q112 -27 194 -119v113h146v-340l-101 -2q-82 168 -245 197v-654q77 10 138.5 46t125.5 96l96 -136q-160 -142 -354 -161v-179h-158v181q-88 12 -168 49t-144.5 95.5t-102.5 145.5t-38 189zM305 633 q0 -119 72.5 -207t187.5 -115v647q-113 -24 -186.5 -112t-73.5 -213z" />
<glyph unicode="&#xa3;" horiz-adv-x="1372" d="M129 -27v166h53q66 0 123.5 18.5t99 63.5t41.5 109q0 40 -12 80h-301v122h250q-34 64 -70 134h-178v122h129q-18 56 -18 117q0 178 118.5 285.5t305.5 107.5q231 0 405 -163v135h172v-396l-96 -8q-98 145 -214 208t-232 63q-110 0 -185.5 -61.5t-75.5 -170.5 q0 -49 21 -117h555v-122h-498q12 -22 35.5 -66.5t34.5 -67.5h426v-122h-377q12 -43 12 -91q0 -19 -4 -47q168 -129 309 -129q93 0 151 60.5t73 161.5l151 -48q-22 -156 -124 -250t-253 -94q-178 0 -364 160q-58 -75 -162.5 -117.5t-247.5 -42.5h-53z" />
<glyph unicode="&#xa4;" horiz-adv-x="1157" d="M115 180l180 217q-96 99 -96 240q0 143 96 242l-180 215l86 75l186 -221q83 47 188 47q112 0 197 -49l184 223l86 -75l-180 -217q90 -100 90 -240q0 -138 -92 -240l182 -217l-86 -76l-186 224q-87 -49 -195 -49q-102 0 -188 47l-186 -222zM362 639q0 -92 62.5 -154.5 t150.5 -62.5q91 0 153.5 62t62.5 155t-62 153t-154 60q-88 0 -150.5 -60.5t-62.5 -152.5z" />
<glyph unicode="&#xa5;" horiz-adv-x="1755" d="M111 1102v168h630v-168h-190l342 -494l326 494h-195v168h621v-168h-232l-186 -264h325v-115h-405l-131 -186h536v-115h-569v-252h272v-170h-749v170h272v252h-569v115h528l-137 186h-391v115h307l-194 264h-211z" />
<glyph unicode="&#xa6;" horiz-adv-x="706" d="M256 -395v893h193v-893h-193zM256 823v891h193v-891h-193z" />
<glyph unicode="&#xa7;" horiz-adv-x="1527" d="M94 403q0 122 87 211t255 136q-205 131 -205 315q0 164 120.5 266.5t307.5 102.5q280 0 484 -222v193h188v-467l-112 -6q-98 151 -245.5 241.5t-293.5 90.5q-103 0 -165 -48.5t-62 -128.5q0 -89 97.5 -149.5t323.5 -124.5q137 -39 235 -79t178 -93.5t120.5 -123 t40.5 -155.5q0 -122 -86.5 -211.5t-251.5 -136.5q201 -132 201 -315q0 -163 -120 -265t-308 -102q-277 0 -484 222v-193h-190v463l113 8q101 -152 247 -241t291 -89q104 0 168 48.5t64 127.5q0 88 -98 148t-324 127q-109 30 -192 60t-158 70t-122.5 85.5t-75.5 105 t-28 129.5zM313 449q0 -101 107 -164t342 -125q127 -36 219 -76q112 26 181 86t69 147q0 100 -107.5 164t-343.5 127q-106 27 -217 74q-112 -26 -181 -86.5t-69 -146.5z" />
<glyph unicode="&#xa9;" horiz-adv-x="2093" d="M90 508q0 199 75 372.5t203 294t303.5 190t372.5 69.5q199 0 375.5 -69t304.5 -190.5t202.5 -294.5t74.5 -372q0 -264 -127 -476t-345.5 -330t-484.5 -118q-196 0 -372 69.5t-304 190.5t-203 294t-75 370zM221 508q-1 -171 62.5 -321.5t173.5 -258t262.5 -169.5 t324.5 -62q173 0 327 62t264 169.5t174 258t63 321.5q1 172 -63 323.5t-174 258.5t-264 169t-327 62q-230 0 -418.5 -105t-297 -291.5t-107.5 -416.5zM573 487q0 135 60.5 240.5t161 161t221.5 53.5q184 -3 293 -125v111h135v-318l-107 -6q-85 201 -290 201q-126 0 -214 -90 t-88 -228q0 -129 91.5 -213t212.5 -84q94 -1 166.5 40t138.5 116l94 -113q-164 -194 -404 -194q-127 0 -233.5 53.5t-172 157t-65.5 237.5z" />
<glyph unicode="&#xaa;" horiz-adv-x="903" d="M117 1004q0 87 68.5 136.5t162.5 49.5q79 0 201 -31v55q0 51 -39 80t-109 29q-97 0 -229 -55l-31 98q156 64 275 64q125 0 191.5 -58.5t66.5 -159.5v-241q0 -23 10.5 -37t30.5 -14q19 0 29 14.5t10 36.5v59h73v-59q0 -62 -37.5 -101t-95.5 -39q-54 0 -89.5 25t-49.5 68 q-112 -101 -233 -101q-82 0 -143.5 47t-61.5 134zM127 571v99h657v-99h-657zM252 1008q0 -38 28.5 -59t73.5 -21q90 0 195 76v71q-89 21 -170 21q-55 0 -91 -23t-36 -65z" />
<glyph unicode="&#xab;" horiz-adv-x="1624" d="M84 414v172h29q225 0 390.5 122t217.5 336l153 -53q-46 -200 -196 -329.5t-379 -159.5q231 -32 381.5 -162t196.5 -330l-154 -55q-35 142 -123 246.5t-213 158.5t-274 54h-29zM729 414v172h27q235 0 395.5 120.5t212.5 337.5l156 -53q-46 -200 -196.5 -329.5 t-379.5 -159.5q231 -32 381.5 -162t196.5 -330l-156 -55q-53 217 -213 338t-395 121h-29z" />
<glyph unicode="&#xac;" horiz-adv-x="1280" d="M94 723v172h1047v-674h-172v502h-875z" />
<glyph unicode="&#xad;" horiz-adv-x="643" d="M59 397v174h527v-174h-527z" />
<glyph unicode="&#xae;" horiz-adv-x="2093" d="M90 508q0 199 75 372.5t203 294t303.5 190t372.5 69.5q199 0 375.5 -69t304.5 -190.5t202.5 -294.5t74.5 -372q0 -264 -127 -476t-345.5 -330t-484.5 -118q-196 0 -372 69.5t-304 190.5t-203 294t-75 370zM221 508q-1 -171 62.5 -321.5t173.5 -258t262.5 -169.5 t324.5 -62q173 0 327 62t264 169.5t174 258t63 321.5q1 172 -63 323.5t-174 258.5t-264 169t-327 62q-230 0 -418.5 -105t-297 -291.5t-107.5 -416.5zM571 61v117h154v631h-154v119h555q149 0 230.5 -67.5t81.5 -176.5q0 -93 -73 -165.5t-202 -82.5q63 -39 99 -123 q33 -78 55 -107.5t57 -29.5t53.5 25t18.5 63v41h137v-41q0 -92 -55 -154.5t-148 -62.5q-94 0 -149 58.5t-96 166.5q-26 68 -59.5 109.5t-63.5 52.5h-144v-256h150v-117h-447zM868 553h258q69 0 115.5 34.5t46.5 96.5q0 59 -45 92t-117 33h-258v-256z" />
<glyph unicode="&#xb0;" horiz-adv-x="917" d="M113 1317q0 146 102.5 242t245.5 96q146 0 245 -96t99 -244q0 -144 -99.5 -242t-244.5 -98q-141 0 -244.5 99.5t-103.5 242.5zM262 1317q0 -85 59 -148t142 -63q84 0 140 61t56 148q0 91 -55.5 151t-140.5 60q-84 0 -142.5 -59.5t-58.5 -149.5z" />
<glyph unicode="&#xb1;" horiz-adv-x="1208" d="M203 100v170h796v-170h-796zM203 760v170h309v282h174v-282h320v-170h-320v-283h-174v283h-309z" />
<glyph unicode="&#xb2;" horiz-adv-x="786" d="M55 860v101q2 55 23.5 99t64 78.5t88.5 59t115 53.5q117 50 158 81.5t41 74.5q-2 48 -43.5 76t-112.5 28q-129 0 -264 -114l-68 82q156 138 338 143q119 2 199 -57.5t80 -157.5q0 -36 -13 -67t-32.5 -54t-58.5 -48t-74.5 -43.5t-96.5 -47.5q-48 -22 -72 -34t-55.5 -30.5 t-46.5 -33.5t-26.5 -35t-12.5 -43h402v139h108v-250h-641z" />
<glyph unicode="&#xb3;" horiz-adv-x="751" d="M37 952l63 99q139 -101 275 -101q73 0 120.5 26.5t47.5 74.5q0 112 -250 112h-105v107h105q105 0 162 34t57 91q0 49 -41.5 77.5t-105.5 28.5q-120 0 -242 -102l-70 88q58 56 140 91.5t174 35.5q122 0 204 -55.5t82 -153.5q0 -62 -44.5 -109.5t-121.5 -72.5 q197 -42 197 -185q0 -88 -87.5 -144t-223.5 -56q-177 0 -336 114z" />
<glyph unicode="&#xb5;" horiz-adv-x="1392" d="M37 795v170h405v-566q0 -239 199 -239q152 0 328 194v611h200v-717q0 -101 70 -101q34 0 61 17l46 -146q-66 -38 -152 -38q-94 0 -153.5 54t-69.5 154q-173 -215 -355 -215q-151 0 -215 103q4 -24 12.5 -71.5t13.5 -76t9 -68t4 -71.5v-235h-196v1241h-207z" />
<glyph unicode="&#xb6;" horiz-adv-x="1636" d="M59 911q0 230 163 376.5t413 146.5q167 0 326.5 -60t289.5 -157v188h185v-1389q0 -129 -42 -231t-112.5 -163t-157 -92.5t-182.5 -31.5q-244 0 -547 166l74 162q194 -120 381 -143v796q-124 -67 -258 -67q-145 0 -266 61t-194 176.5t-73 261.5zM281 911q0 -150 97 -238.5 t240 -88.5q133 0 232 55v598q-110 29 -207 29q-152 0 -257 -100.5t-105 -254.5zM1032 -309q98 30 158.5 110t60.5 211v1010q-118 91 -219 143v-1474z" />
<glyph unicode="&#xb7;" horiz-adv-x="581" d="M121 674q0 59 49.5 99t118.5 40q76 0 124 -39.5t48 -99.5q0 -59 -48 -97t-124 -38q-69 0 -118.5 38.5t-49.5 96.5z" />
<glyph unicode="&#xb9;" horiz-adv-x="624" d="M82 1454q70 8 126 51t71 107h147v-631h125v-121h-455v121h183v438q-61 -77 -154 -92z" />
<glyph unicode="&#xba;" horiz-adv-x="854" d="M104 1133q0 133 94 217t228 82q132 2 228 -82t96 -217q0 -135 -93.5 -218.5t-230.5 -83.5q-134 0 -228 84t-94 218zM131 571v99h590v-99h-590zM240 1133q0 -86 52 -140.5t134 -54.5q80 0 133 54.5t53 140.5q0 83 -53 137.5t-133 54.5q-81 0 -133.5 -54t-52.5 -138z" />
<glyph unicode="&#xbb;" horiz-adv-x="1624" d="M102 991l156 53q52 -215 216.5 -337.5t391.5 -122.5h29v-170h-27q-225 0 -390.5 -128.5t-217.5 -344.5l-156 51q48 204 199.5 339t380.5 167q-232 32 -383 161.5t-199 331.5zM748 991l153 53q53 -215 218.5 -337.5t391.5 -122.5h29v-170h-29q-224 0 -389.5 -128.5 t-216.5 -344.5l-155 51q48 204 199 339t380 167q-232 32 -383.5 161.5t-197.5 331.5z" />
<glyph unicode="&#xbc;" horiz-adv-x="1726" d="M82 1139q70 8 126 50.5t71 106.5h147v-632h125v-119h-455v119h183v440q-59 -75 -154 -90zM463 -145l385 817l346 837l139 -59l-385 -815l-346 -840zM932 137v119l450 494h158v-494h150v-119h-150v-164h-147v164h-461zM1071 256h322v342z" />
<glyph unicode="&#xbd;" horiz-adv-x="1830" d="M82 1139q70 8 126 50.5t71 106.5h147v-632h125v-119h-455v119h183v440q-59 -75 -154 -90zM463 -145l385 817l346 837l139 -59l-385 -815l-346 -840zM1104 0v100q2 55 23.5 99t64 78.5t88.5 59.5t115 54q117 50 157.5 81.5t40.5 74.5q-2 48 -43 76t-112 28 q-129 0 -264 -114l-68 81q157 139 338 144q119 2 198.5 -57.5t79.5 -157.5q0 -36 -13 -66.5t-32.5 -54t-58 -48.5t-74 -43.5t-96.5 -47.5q-48 -22 -72 -34t-55.5 -30.5t-46.5 -33.5t-26.5 -35t-12.5 -43h401v139h109v-250h-641z" />
<glyph unicode="&#xbe;" horiz-adv-x="1771" d="M37 637l63 98q132 -100 275 -100q74 0 121 26.5t47 75.5q0 53 -62 82t-188 29h-105v108h105q105 0 162 33.5t57 89.5q0 49 -41.5 78t-105.5 29q-119 0 -242 -103l-70 88q58 56 140 91.5t174 35.5q122 0 204 -55t82 -153q0 -63 -46 -111.5t-124 -73.5q201 -39 201 -182 q0 -88 -87.5 -144.5t-223.5 -56.5q-106 0 -185 32t-151 83zM508 -145l385 817l346 837l139 -59l-385 -815l-346 -840zM977 137v119l450 494h158v-494h150v-119h-150v-164h-147v164h-461zM1116 256h322v342z" />
<glyph unicode="&#xbf;" horiz-adv-x="1017" d="M96 322q0 63 24 116.5t72 98.5t96.5 77.5t119.5 71.5q158 85 197 114q62 48 63 103q0 56 -37 135l71 25q43 -62 62 -92.5t36 -73t17 -80.5q0 -30 -8.5 -55.5t-29 -49.5t-41 -42t-58 -41t-65.5 -38t-78 -40q-120 -64 -171 -109.5t-51 -115.5q0 -72 71.5 -120t172.5 -48 q148 0 309 71l62 -170q-190 -77 -385 -77q-122 0 -223 39.5t-163.5 118t-62.5 182.5zM455 1315q0 54 45.5 90.5t115.5 36.5q66 0 113 -36.5t47 -90.5q0 -56 -46.5 -93.5t-113.5 -37.5q-70 0 -115.5 37t-45.5 94z" />
<glyph unicode="&#xc0;" horiz-adv-x="1742" d="M8 0v170h219l457 1067h-211v168h791v-168h-209l461 -1067h219v-170h-670v170h229l-131 328h-606l-129 -328h246v-170h-666zM451 1870l108 147l406 -372l-58 -78zM618 651h484l-234 586h-16z" />
<glyph unicode="&#xc1;" horiz-adv-x="1742" d="M8 0v170h219l457 1067h-211v168h791v-168h-209l461 -1067h219v-170h-670v170h229l-131 328h-606l-129 -328h246v-170h-666zM618 651h484l-234 586h-16zM762 1655l405 373l109 -148l-455 -303z" />
<glyph unicode="&#xc2;" horiz-adv-x="1742" d="M8 0v170h219l457 1067h-211v168h791v-168h-209l461 -1067h219v-170h-670v170h229l-131 328h-606l-129 -328h246v-170h-666zM500 1602l311 360h107l313 -360l-64 -60l-305 254l-297 -254zM618 651h484l-234 586h-16z" />
<glyph unicode="&#xc3;" horiz-adv-x="1742" d="M8 0v170h219l457 1067h-211v168h791v-168h-209l461 -1067h219v-170h-670v170h229l-131 328h-606l-129 -328h246v-170h-666zM430 1599q3 143 64.5 233.5t171.5 90.5q74 0 124 -34t107 -103q47 -60 77 -84.5t66 -24.5q107 0 119 213l121 -10q-5 -142 -67.5 -233t-172.5 -91 q-69 0 -119 35t-106 103q-50 61 -80.5 85.5t-68.5 24.5q-101 0 -117 -217zM618 651h484l-234 586h-16z" />
<glyph unicode="&#xc4;" horiz-adv-x="1742" d="M8 0v170h219l457 1067h-211v168h791v-168h-209l461 -1067h219v-170h-670v170h229l-131 328h-606l-129 -328h246v-170h-666zM496 1739q0 50 40.5 83t98.5 33q62 0 101.5 -32.5t39.5 -83.5q0 -49 -39.5 -81t-101.5 -32q-58 0 -98.5 32t-40.5 81zM618 651h484l-234 586h-16z M946 1739q0 50 40.5 83t98.5 33q61 0 101.5 -32.5t40.5 -83.5q0 -49 -40.5 -81t-101.5 -32q-58 0 -98.5 32t-40.5 81z" />
<glyph unicode="&#xc5;" horiz-adv-x="1742" d="M8 0v170h219l457 1067h-211v168h791v-168h-209l461 -1067h219v-170h-670v170h229l-131 328h-606l-129 -328h246v-170h-666zM571 1827q0 124 86.5 204t206.5 80q122 0 207.5 -82.5t85.5 -205.5t-85.5 -204t-207.5 -81q-118 0 -205.5 84.5t-87.5 204.5zM618 651h484 l-234 586h-16zM690 1827q0 -73 51.5 -125.5t122.5 -52.5q73 0 124.5 51t51.5 123q0 75 -51 125.5t-125 50.5q-71 0 -122.5 -49.5t-51.5 -122.5z" />
<glyph unicode="&#xc6;" horiz-adv-x="2496" d="M2 0v170h211l670 1067h-203v168h1663v-444h-191v276h-888l125 -457h350v191h164v-537h-164v191h-307l122 -455h598v281h191v-451h-1256v170h252l-86 332h-624l-201 -332h213v-170h-639zM721 653h493l-147 568z" />
<glyph unicode="&#xc7;" horiz-adv-x="1552" d="M104 700q0 161 56 300t150.5 233t219.5 147.5t261 53.5q287 0 452 -203l2 174h191v-457l-136 -12q-148 328 -479 328q-98 0 -188 -39.5t-158.5 -110.5t-109.5 -178t-41 -234q0 -159 67 -286.5t183 -198t257 -70.5q167 0 282 72t202 197l137 -115q-100 -148 -255 -238 t-366 -90h-2l-51 -127q5 0 21 1t26 1q94 0 152.5 -49.5t58.5 -132.5q0 -92 -79.5 -148.5t-190.5 -56.5q-146 0 -293 101l59 100q118 -86 234 -86q60 0 97.5 24.5t37.5 65.5q0 45 -35 68.5t-96 23.5q-49 0 -119 -8l-12 19l86 211q-132 18 -246 79t-197 153.5t-130.5 218.5 t-47.5 269z" />
<glyph unicode="&#xc8;" horiz-adv-x="1615" d="M74 0v170h262v1065h-262v170h1388v-451h-188v281h-729v-455h323v191h164v-537h-164v191h-323v-455h729v281h188v-451h-1388zM420 1870l108 147l406 -372l-57 -78z" />
<glyph unicode="&#xc9;" horiz-adv-x="1615" d="M74 0v170h262v1065h-262v170h1388v-451h-188v281h-729v-455h323v191h164v-537h-164v191h-323v-455h729v281h188v-451h-1388zM731 1655l406 373l108 -148l-454 -303z" />
<glyph unicode="&#xca;" horiz-adv-x="1615" d="M74 0v170h262v1065h-262v170h1388v-451h-188v281h-729v-455h323v191h164v-537h-164v191h-323v-455h729v281h188v-451h-1388zM469 1602l311 360h107l313 -360l-63 -60l-306 254l-296 -254z" />
<glyph unicode="&#xcb;" horiz-adv-x="1615" d="M74 0v170h262v1065h-262v170h1388v-451h-188v281h-729v-455h323v191h164v-537h-164v191h-323v-455h729v281h188v-451h-1388zM465 1739q0 50 40.5 83t98.5 33q62 0 101.5 -32.5t39.5 -83.5q0 -49 -39.5 -81t-101.5 -32q-58 0 -98.5 32t-40.5 81zM915 1739q0 50 41 83 t99 33q60 0 100.5 -32.5t40.5 -83.5q0 -49 -40.5 -81t-100.5 -32q-58 0 -99 32t-41 81z" />
<glyph unicode="&#xcc;" horiz-adv-x="888" d="M35 1870l108 147l406 -372l-57 -78zM74 0v170h264v1065h-264v170h741v-170h-266v-1065h266v-170h-741z" />
<glyph unicode="&#xcd;" horiz-adv-x="888" d="M74 0v170h264v1065h-264v170h741v-170h-266v-1065h266v-170h-741zM346 1655l406 373l108 -148l-454 -303z" />
<glyph unicode="&#xce;" horiz-adv-x="888" d="M74 0v170h264v1065h-264v170h741v-170h-266v-1065h266v-170h-741zM84 1602l311 360h107l313 -360l-63 -60l-306 254l-296 -254z" />
<glyph unicode="&#xcf;" horiz-adv-x="888" d="M74 0v170h264v1065h-264v170h741v-170h-266v-1065h266v-170h-741zM80 1739q0 50 40.5 83t98.5 33q62 0 101.5 -32.5t39.5 -83.5q0 -49 -39.5 -81t-101.5 -32q-58 0 -98.5 32t-40.5 81zM530 1739q0 50 41 83t99 33q60 0 100.5 -32.5t40.5 -83.5q0 -49 -40.5 -81 t-100.5 -32q-58 0 -99 32t-41 81z" />
<glyph unicode="&#xd0;" horiz-adv-x="1673" d="M74 0v170h264v463h-260v131h260v471h-264v170h688q129 0 247.5 -27t220.5 -84t177.5 -139t118.5 -198t43 -255q0 -138 -43 -254t-118.5 -198t-177.5 -139t-220.5 -84t-247.5 -27h-688zM549 170h192q98 0 184.5 17.5t165 58t135 101t89.5 151.5t33 204q0 114 -33 205.5 t-89.5 151.5t-135 100.5t-165 58t-184.5 17.5h-192v-471h450v-131h-450v-463z" />
<glyph unicode="&#xd1;" horiz-adv-x="1921" d="M74 0v170h264v1065h-264v170h465l893 -1038v868h-265v170h717v-170h-256v-1247l-104 -2l-985 1120v-936h252v-170h-717zM512 1599q3 143 64.5 233.5t171.5 90.5q74 0 124 -34t107 -103q47 -60 77 -84.5t66 -24.5q107 0 119 213l121 -10q-5 -142 -67.5 -233t-172.5 -91 q-69 0 -119 35t-106 103q-50 61 -80.5 85.5t-68.5 24.5q-101 0 -117 -217z" />
<glyph unicode="&#xd2;" horiz-adv-x="1667" d="M104 702q0 212 96 380t262.5 260t371.5 92q204 0 369.5 -92t261.5 -260t96 -380q0 -158 -56 -294.5t-153.5 -231.5t-231.5 -149t-286 -54q-205 0 -371.5 91.5t-262.5 259t-96 378.5zM324 702q0 -245 141 -398.5t369 -153.5q224 0 365.5 154.5t141.5 397.5 q0 246 -141.5 400.5t-365.5 154.5q-227 0 -368.5 -155.5t-141.5 -399.5zM420 1898l457 -303l57 78l-406 373z" />
<glyph unicode="&#xd3;" horiz-adv-x="1667" d="M104 702q0 212 96 380t262.5 260t371.5 92q204 0 369.5 -92t261.5 -260t96 -380q0 -158 -56 -294.5t-153.5 -231.5t-231.5 -149t-286 -54q-205 0 -371.5 91.5t-262.5 259t-96 378.5zM324 702q0 -245 141 -398.5t369 -153.5q224 0 365.5 154.5t141.5 397.5 q0 246 -141.5 400.5t-365.5 154.5q-227 0 -368.5 -155.5t-141.5 -399.5zM731 1683l60 -77l454 303l-108 147z" />
<glyph unicode="&#xd4;" horiz-adv-x="1667" d="M104 702q0 212 96 380t262.5 260t371.5 92q204 0 369.5 -92t261.5 -260t96 -380q0 -158 -56 -294.5t-153.5 -231.5t-231.5 -149t-286 -54q-205 0 -371.5 91.5t-262.5 259t-96 378.5zM324 702q0 -245 141 -398.5t369 -153.5q224 0 365.5 154.5t141.5 397.5 q0 246 -141.5 400.5t-365.5 154.5q-227 0 -368.5 -155.5t-141.5 -399.5zM469 1630l311 361h107l313 -361l-63 -59l-306 254l-296 -254z" />
<glyph unicode="&#xd5;" horiz-adv-x="1667" d="M104 702q0 212 96 380t262.5 260t371.5 92q204 0 369.5 -92t261.5 -260t96 -380q0 -158 -56 -294.5t-153.5 -231.5t-231.5 -149t-286 -54q-205 0 -371.5 91.5t-262.5 259t-96 378.5zM324 702q0 -245 141 -398.5t369 -153.5q224 0 365.5 154.5t141.5 397.5 q0 246 -141.5 400.5t-365.5 154.5q-227 0 -368.5 -155.5t-141.5 -399.5zM399 1628q3 143 64.5 233.5t171.5 90.5q74 0 124 -34t107 -103q47 -59 77.5 -84t66.5 -25q106 0 118 213l121 -10q-5 -142 -67 -233t-172 -91q-69 0 -120 35t-106 102q-51 62 -81 86.5t-68 24.5 q-101 0 -117 -217z" />
<glyph unicode="&#xd6;" horiz-adv-x="1667" d="M104 702q0 212 96 380t262.5 260t371.5 92q204 0 369.5 -92t261.5 -260t96 -380q0 -158 -56 -294.5t-153.5 -231.5t-231.5 -149t-286 -54q-205 0 -371.5 91.5t-262.5 259t-96 378.5zM324 702q0 -245 141 -398.5t369 -153.5q224 0 365.5 154.5t141.5 397.5 q0 246 -141.5 400.5t-365.5 154.5q-227 0 -368.5 -155.5t-141.5 -399.5zM465 1767q0 50 40.5 83.5t98.5 33.5q61 0 101 -33t40 -84q0 -49 -39.5 -80.5t-101.5 -31.5q-58 0 -98.5 31.5t-40.5 80.5zM915 1767q0 50 41 83.5t99 33.5q60 0 100.5 -33t40.5 -84q0 -49 -40 -80.5 t-101 -31.5q-58 0 -99 31.5t-41 80.5z" />
<glyph unicode="&#xd7;" horiz-adv-x="1136" d="M170 365l274 274l-274 274l123 119l272 -272l275 272l125 -125l-273 -272l273 -273l-121 -124l-275 274l-274 -274z" />
<glyph unicode="&#xd8;" horiz-adv-x="1667" d="M104 702q0 212 96 380t262.5 260t371.5 92q102 0 200 -25l70 162h180l-94 -223q171 -91 271 -260t100 -386q0 -158 -56 -294.5t-153.5 -231.5t-231.5 -149t-286 -54q-105 0 -203 25l-68 -158h-180l94 217q-172 91 -272.5 260t-100.5 385zM324 702q0 -159 62.5 -284 t174.5 -195l416 1016q-68 18 -143 18q-227 0 -368.5 -155.5t-141.5 -399.5zM688 168q68 -18 146 -18q224 0 365.5 154.5t141.5 397.5q0 160 -63 285t-174 195z" />
<glyph unicode="&#xd9;" horiz-adv-x="1816" d="M14 1235v170h725v-170h-247l-3 -688q0 -175 117.5 -287.5t302.5 -112.5q184 0 302 113.5t118 288.5l-2 686h-250v170h727v-170h-264v-694q0 -248 -176 -409t-455 -161q-188 0 -332 74t-221 203.5t-77 292.5v694h-265zM500 1870l108 147l406 -372l-58 -78z" />
<glyph unicode="&#xda;" horiz-adv-x="1816" d="M14 1235v170h725v-170h-247l-3 -688q0 -175 117.5 -287.5t302.5 -112.5q184 0 302 113.5t118 288.5l-2 686h-250v170h727v-170h-264v-694q0 -248 -176 -409t-455 -161q-188 0 -332 74t-221 203.5t-77 292.5v694h-265zM811 1655l406 373l108 -148l-455 -303z" />
<glyph unicode="&#xdb;" horiz-adv-x="1816" d="M14 1235v170h725v-170h-247l-3 -688q0 -175 117.5 -287.5t302.5 -112.5q184 0 302 113.5t118 288.5l-2 686h-250v170h727v-170h-264v-694q0 -248 -176 -409t-455 -161q-188 0 -332 74t-221 203.5t-77 292.5v694h-265zM549 1602l311 360h107l313 -360l-63 -60l-306 254 l-297 -254z" />
<glyph unicode="&#xdc;" horiz-adv-x="1816" d="M14 1235v170h725v-170h-247l-3 -688q0 -175 117.5 -287.5t302.5 -112.5q184 0 302 113.5t118 288.5l-2 686h-250v170h727v-170h-264v-694q0 -248 -176 -409t-455 -161q-188 0 -332 74t-221 203.5t-77 292.5v694h-265zM545 1739q0 50 40.5 83t98.5 33q62 0 101.5 -32.5 t39.5 -83.5q0 -49 -39.5 -81t-101.5 -32q-58 0 -98.5 32t-40.5 81zM995 1739q0 50 41 83t99 33q60 0 100.5 -32.5t40.5 -83.5q0 -49 -40.5 -81t-100.5 -32q-58 0 -99 32t-41 81z" />
<glyph unicode="&#xdd;" horiz-adv-x="1650" d="M20 1235v170h646v-170h-201l383 -553l377 553h-240v170h645v-170h-207l-489 -686v-379h270v-170h-755v170h274v367l-504 698h-199zM723 1655l405 373l109 -148l-455 -303z" />
<glyph unicode="&#xde;" horiz-adv-x="1452" d="M74 0v170h258v1067h-258v168h731v-154h-275v-223h424q206 0 329.5 -84t123.5 -244q0 -159 -123.5 -243t-329.5 -86l-424 -2v-213h275v-156h-731zM530 520h398q77 0 135 16t96.5 58t38.5 106q0 90 -74 133.5t-196 43.5h-398v-357z" />
<glyph unicode="&#xdf;" horiz-adv-x="1527" d="M59 0v162h217v641h-217v162h217v88q0 218 133 333t377 115q231 0 383 -102t152 -250q0 -53 -19 -97.5t-57 -80.5t-81 -63t-105 -58q-120 -59 -148 -80q-45 -34 -45 -80q0 -17 5.5 -30t21.5 -25t30 -20t47 -19t56 -17.5t74 -20.5q10 -3 15.5 -4.5t14.5 -4t17 -4.5 q82 -22 142 -45.5t113.5 -58.5t81 -83.5t27.5 -109.5q0 -129 -97.5 -203t-252.5 -74q-95 0 -188 39.5t-162 108.5v-121h-156v313l88 8q63 -91 178.5 -150.5t215.5 -59.5q79 0 122.5 28.5t43.5 81.5q0 27 -14.5 46.5t-47.5 35t-75.5 29t-109.5 31.5q-5 1 -8.5 2t-7.5 2 q-74 22 -127 41t-104.5 46t-82.5 56.5t-50 69.5t-19 88q0 55 18 98.5t57.5 77.5t81 58.5t108.5 55.5q101 49 145.5 92t44.5 97q0 78 -88 132t-238 54q-147 0 -229 -70t-82 -202v-1059h-416z" />
<glyph unicode="&#xe0;" d="M100 279q0 98 58 171t149 108.5t199 35.5q164 0 330 -68v90q0 72 -35.5 119t-90 65.5t-126.5 18.5q-159 0 -385 -88l-41 156q242 102 450 102q198 0 308 -97.5t110 -283.5v-354q0 -100 72 -100q31 0 63 16l41 -145q-71 -41 -158 -41q-75 0 -127.5 44t-72.5 126 q-206 -183 -406 -183q-143 0 -241 81.5t-97 226.5zM186 1456l109 148l405 -373l-57 -78zM299 285q0 -70 55 -108t135 -38q70 0 160.5 37.5t186.5 108.5v108q-138 49 -295 53q-101 0 -171.5 -42t-70.5 -119z" />
<glyph unicode="&#xe1;" d="M100 279q0 98 58 171t149 108.5t199 35.5q164 0 330 -68v90q0 72 -35.5 119t-90 65.5t-126.5 18.5q-159 0 -385 -88l-41 156q242 102 450 102q198 0 308 -97.5t110 -283.5v-354q0 -100 72 -100q31 0 63 16l41 -145q-71 -41 -158 -41q-75 0 -127.5 44t-72.5 126 q-206 -183 -406 -183q-143 0 -241 81.5t-97 226.5zM299 285q0 -70 55 -108t135 -38q70 0 160.5 37.5t186.5 108.5v108q-138 49 -295 53q-101 0 -171.5 -42t-70.5 -119zM498 1241l405 373l109 -148l-455 -303z" />
<glyph unicode="&#xe2;" d="M100 279q0 98 58 171t149 108.5t199 35.5q164 0 330 -68v90q0 72 -35.5 119t-90 65.5t-126.5 18.5q-159 0 -385 -88l-41 156q242 102 450 102q198 0 308 -97.5t110 -283.5v-354q0 -100 72 -100q31 0 63 16l41 -145q-71 -41 -158 -41q-75 0 -127.5 44t-72.5 126 q-206 -183 -406 -183q-143 0 -241 81.5t-97 226.5zM236 1188l311 360h106l314 -360l-64 -60l-305 254l-297 -254zM299 285q0 -70 55 -108t135 -38q70 0 160.5 37.5t186.5 108.5v108q-138 49 -295 53q-101 0 -171.5 -42t-70.5 -119z" />
<glyph unicode="&#xe3;" d="M100 279q0 98 58 171t149 108.5t199 35.5q164 0 330 -68v90q0 72 -35.5 119t-90 65.5t-126.5 18.5q-159 0 -385 -88l-41 156q242 102 450 102q198 0 308 -97.5t110 -283.5v-354q0 -100 72 -100q31 0 63 16l41 -145q-71 -41 -158 -41q-75 0 -127.5 44t-72.5 126 q-206 -183 -406 -183q-143 0 -241 81.5t-97 226.5zM166 1186q3 143 64 233t171 90q74 0 124.5 -34t107.5 -103q47 -59 77 -83.5t66 -24.5q107 0 119 213l121 -11q-5 -141 -67.5 -232t-172.5 -91q-69 0 -119.5 35t-105.5 102q-50 61 -81 86t-69 25q-100 0 -116 -217zM299 285 q0 -70 55 -108t135 -38q70 0 160.5 37.5t186.5 108.5v108q-138 49 -295 53q-101 0 -171.5 -42t-70.5 -119z" />
<glyph unicode="&#xe4;" d="M100 279q0 98 58 171t149 108.5t199 35.5q164 0 330 -68v90q0 72 -35.5 119t-90 65.5t-126.5 18.5q-159 0 -385 -88l-41 156q242 102 450 102q198 0 308 -97.5t110 -283.5v-354q0 -100 72 -100q31 0 63 16l41 -145q-71 -41 -158 -41q-75 0 -127.5 44t-72.5 126 q-206 -183 -406 -183q-143 0 -241 81.5t-97 226.5zM231 1325q0 50 41 83.5t99 33.5q61 0 101 -33t40 -84q0 -49 -39.5 -81t-101.5 -32q-58 0 -99 32t-41 81zM299 285q0 -70 55 -108t135 -38q70 0 160.5 37.5t186.5 108.5v108q-138 49 -295 53q-101 0 -171.5 -42t-70.5 -119z M682 1325q0 50 40.5 83.5t98.5 33.5q60 0 101 -33t41 -84q0 -49 -40.5 -81t-101.5 -32q-58 0 -98.5 32t-40.5 81z" />
<glyph unicode="&#xe5;" d="M100 279q0 98 58 171t149 108.5t199 35.5q164 0 330 -68v90q0 72 -35.5 119t-90 65.5t-126.5 18.5q-159 0 -385 -88l-41 156q242 102 450 102q198 0 308 -97.5t110 -283.5v-354q0 -100 72 -100q31 0 63 16l41 -145q-71 -41 -158 -41q-75 0 -127.5 44t-72.5 126 q-206 -183 -406 -183q-143 0 -241 81.5t-97 226.5zM299 285q0 -70 55 -108t135 -38q70 0 160.5 37.5t186.5 108.5v108q-138 49 -295 53q-101 0 -171.5 -42t-70.5 -119zM307 1413q0 124 86.5 204.5t206.5 80.5q121 0 207 -83t86 -206t-85.5 -204t-207.5 -81 q-118 0 -205.5 84.5t-87.5 204.5zM426 1413q0 -73 51.5 -125.5t122.5 -52.5q73 0 124.5 51t51.5 123q0 75 -51 125.5t-125 50.5q-71 0 -122.5 -49.5t-51.5 -122.5z" />
<glyph unicode="&#xe6;" horiz-adv-x="1898" d="M100 279q0 98 58 171t149 108.5t199 35.5q160 0 332 -59v6q0 82 -19.5 138t-56.5 86t-81 42t-103 12q-153 0 -379 -88l-41 156q242 102 442 102q289 0 361 -227q65 108 185 168.5t249 60.5q172 0 288.5 -83.5t116.5 -219.5q0 -93 -58 -161t-146.5 -100t-194.5 -32 q-179 0 -375 70q0 -147 103 -232t249 -83q200 3 355 131l86 -138q-202 -172 -455 -172q-138 0 -260.5 61t-192.5 173q-121 -117 -233 -175.5t-240 -58.5q-143 0 -241 81.5t-97 226.5zM299 285q0 -70 55 -108t135 -38q170 0 375 166q-10 32 -22 96q-135 41 -301 45 q-101 0 -171.5 -42t-70.5 -119zM1044 580q153 -45 312 -45q105 0 174 41t69 112q0 67 -57.5 105t-148.5 38q-74 0 -143.5 -28.5t-125.5 -87t-80 -135.5z" />
<glyph unicode="&#xe7;" horiz-adv-x="1132" d="M84 479q0 107 39 202.5t104.5 163t154.5 106.5t187 38q202 0 316 -143v119h145v-338l-86 -6q-100 202 -319 202q-144 0 -238 -95.5t-94 -246.5q0 -149 98 -244.5t230 -95.5q100 -3 176.5 35t156.5 111l90 -131q-196 -187 -436 -187h-2l-49 -123q5 0 21 1t26 1 q94 0 152.5 -49.5t58.5 -132.5q0 -92 -79.5 -148.5t-190.5 -56.5q-146 0 -293 101l59 100q118 -86 234 -86q60 0 97.5 24.5t37.5 65.5q0 45 -35 68.5t-96 23.5q-49 0 -119 -8l-12 19l86 211q-179 34 -299.5 169t-120.5 330z" />
<glyph unicode="&#xe8;" horiz-adv-x="1144" d="M84 459q0 98 30.5 184t83 148.5t121.5 107.5t148 67.5t160 22.5q184 0 302 -84.5t118 -220.5q0 -91 -58 -157.5t-145.5 -97t-190.5 -30.5q-183 0 -377 84v-18q0 -148 102.5 -237t246.5 -87q202 3 356 133l86 -131q-198 -172 -449 -172q-102 0 -197 32.5t-170.5 92 t-121 154t-45.5 209.5zM182 1454l109 148l405 -373l-57 -78zM299 596q154 -55 311 -55q102 0 169 37.5t67 105.5q0 66 -57 105.5t-148 39.5q-109 0 -205.5 -63t-136.5 -170z" />
<glyph unicode="&#xe9;" horiz-adv-x="1144" d="M84 459q0 98 30.5 184t83 148.5t121.5 107.5t148 67.5t160 22.5q184 0 302 -84.5t118 -220.5q0 -91 -58 -157.5t-145.5 -97t-190.5 -30.5q-183 0 -377 84v-18q0 -148 102.5 -237t246.5 -87q202 3 356 133l86 -131q-198 -172 -449 -172q-102 0 -197 32.5t-170.5 92 t-121 154t-45.5 209.5zM299 596q154 -55 311 -55q102 0 169 37.5t67 105.5q0 66 -57 105.5t-148 39.5q-109 0 -205.5 -63t-136.5 -170zM494 1239l405 373l109 -148l-455 -303z" />
<glyph unicode="&#xea;" horiz-adv-x="1144" d="M84 459q0 98 30.5 184t83 148.5t121.5 107.5t148 67.5t160 22.5q184 0 302 -84.5t118 -220.5q0 -91 -58 -157.5t-145.5 -97t-190.5 -30.5q-183 0 -377 84v-18q0 -148 102.5 -237t246.5 -87q202 3 356 133l86 -131q-198 -172 -449 -172q-102 0 -197 32.5t-170.5 92 t-121 154t-45.5 209.5zM231 1186l312 360h106l314 -360l-64 -60l-305 254l-297 -254zM299 596q154 -55 311 -55q102 0 169 37.5t67 105.5q0 66 -57 105.5t-148 39.5q-109 0 -205.5 -63t-136.5 -170z" />
<glyph unicode="&#xeb;" horiz-adv-x="1144" d="M84 459q0 98 30.5 184t83 148.5t121.5 107.5t148 67.5t160 22.5q184 0 302 -84.5t118 -220.5q0 -91 -58 -157.5t-145.5 -97t-190.5 -30.5q-183 0 -377 84v-18q0 -148 102.5 -237t246.5 -87q202 3 356 133l86 -131q-198 -172 -449 -172q-102 0 -197 32.5t-170.5 92 t-121 154t-45.5 209.5zM227 1323q0 50 41 83.5t99 33.5q61 0 101 -33t40 -84q0 -49 -39.5 -81t-101.5 -32q-58 0 -99 32t-41 81zM299 596q154 -55 311 -55q102 0 169 37.5t67 105.5q0 66 -57 105.5t-148 39.5q-109 0 -205.5 -63t-136.5 -170zM678 1323q0 50 40.5 83.5 t98.5 33.5q60 0 100.5 -33t40.5 -84q0 -49 -40.5 -81t-100.5 -32q-58 0 -98.5 32t-40.5 81z" />
<glyph unicode="&#xec;" horiz-adv-x="727" d="M-61 1430l108 147l406 -373l-58 -78zM59 0v162h217v641h-217v162h418v-803h219v-162h-637z" />
<glyph unicode="&#xed;" horiz-adv-x="727" d="M59 0v162h217v641h-217v162h418v-803h219v-162h-637zM250 1214l405 373l109 -147l-455 -303z" />
<glyph unicode="&#xee;" horiz-adv-x="727" d="M-12 1161l311 361h107l313 -361l-64 -59l-305 254l-297 -254zM59 0v162h217v641h-217v162h418v-803h219v-162h-637z" />
<glyph unicode="&#xef;" horiz-adv-x="727" d="M-16 1298q0 50 40.5 83.5t98.5 33.5q61 0 101 -33t40 -84q0 -49 -39.5 -80.5t-101.5 -31.5q-58 0 -98.5 31.5t-40.5 80.5zM59 0v162h217v641h-217v162h418v-803h219v-162h-637zM434 1298q0 50 40.5 83.5t98.5 33.5q60 0 101 -33t41 -84q0 -49 -40.5 -80.5t-101.5 -31.5 q-58 0 -98.5 31.5t-40.5 80.5z" />
<glyph unicode="&#xf0;" horiz-adv-x="1239" d="M66 416q0 194 142.5 323t348.5 129q219 0 379 -120q-46 271 -289 469l-172 -207l-121 94l170 203q-95 64 -254 145l78 166q152 -73 295 -170l174 209l119 -96l-170 -205q389 -323 389 -766q0 -142 -46.5 -260t-126 -195t-184 -119.5t-220.5 -42.5q-219 -2 -365.5 122.5 t-146.5 320.5zM285 418q0 -123 84.5 -204t210.5 -81q71 0 136.5 29t118 84t84 143t31.5 197q-74 59 -165 91t-183 32q-136 0 -226.5 -83t-90.5 -208z" />
<glyph unicode="&#xf1;" horiz-adv-x="1486" d="M59 0v162h217v641h-217v162h418v-228q114 126 219.5 189t227.5 63q167 0 256.5 -106.5t89.5 -315.5v-405h192v-162h-569v162h178v399q0 114 -56 177t-161 63q-176 0 -377 -223v-416h178v-162h-596zM350 1184q3 143 64.5 233t171.5 90q74 0 124 -34t107 -103 q47 -59 77.5 -83.5t66.5 -24.5q106 0 118 213l121 -11q-5 -142 -67 -232.5t-172 -90.5q-69 0 -120 35t-106 102q-51 62 -81 86.5t-68 24.5q-101 0 -117 -218z" />
<glyph unicode="&#xf2;" d="M84 479q0 151 74.5 269t195 179.5t262.5 61.5q138 0 258.5 -61.5t196.5 -180t76 -268.5t-73 -267.5t-193.5 -179t-264.5 -61.5q-106 0 -202.5 36.5t-169.5 101t-116.5 161t-43.5 209.5zM203 1454l456 -303l58 78l-406 373zM293 479q0 -157 91.5 -252.5t231.5 -95.5 q139 0 231.5 95.5t92.5 252.5t-92.5 252.5t-231.5 95.5q-140 0 -231.5 -95.5t-91.5 -252.5z" />
<glyph unicode="&#xf3;" d="M84 479q0 151 74.5 269t195 179.5t262.5 61.5q138 0 258.5 -61.5t196.5 -180t76 -268.5t-73 -267.5t-193.5 -179t-264.5 -61.5q-106 0 -202.5 36.5t-169.5 101t-116.5 161t-43.5 209.5zM293 479q0 -157 91.5 -252.5t231.5 -95.5q139 0 231.5 95.5t92.5 252.5t-92.5 252.5 t-231.5 95.5q-140 0 -231.5 -95.5t-91.5 -252.5zM514 1239l59 -78l455 303l-108 148z" />
<glyph unicode="&#xf4;" d="M84 479q0 151 74.5 269t195 179.5t262.5 61.5q138 0 258.5 -61.5t196.5 -180t76 -268.5t-73 -267.5t-193.5 -179t-264.5 -61.5q-106 0 -202.5 36.5t-169.5 101t-116.5 161t-43.5 209.5zM252 1186l311 360h107l313 -360l-63 -60l-306 254l-297 -254zM293 479 q0 -157 91.5 -252.5t231.5 -95.5q139 0 231.5 95.5t92.5 252.5t-92.5 252.5t-231.5 95.5q-140 0 -231.5 -95.5t-91.5 -252.5z" />
<glyph unicode="&#xf5;" d="M84 479q0 151 74.5 269t195 179.5t262.5 61.5q138 0 258.5 -61.5t196.5 -180t76 -268.5t-73 -267.5t-193.5 -179t-264.5 -61.5q-106 0 -202.5 36.5t-169.5 101t-116.5 161t-43.5 209.5zM182 1184q3 143 64.5 233t171.5 90q74 0 124 -34t107 -103q47 -59 77.5 -83.5 t66.5 -24.5q106 0 118 213l121 -11q-5 -142 -67 -232.5t-172 -90.5q-69 0 -120 35t-106 102q-51 62 -81 86.5t-68 24.5q-101 0 -117 -218zM293 479q0 -157 91.5 -252.5t231.5 -95.5q139 0 231.5 95.5t92.5 252.5t-92.5 252.5t-231.5 95.5q-140 0 -231.5 -95.5t-91.5 -252.5z " />
<glyph unicode="&#xf6;" d="M84 479q0 151 74.5 269t195 179.5t262.5 61.5q138 0 258.5 -61.5t196.5 -180t76 -268.5t-73 -267.5t-193.5 -179t-264.5 -61.5q-106 0 -202.5 36.5t-169.5 101t-116.5 161t-43.5 209.5zM248 1323q0 50 40.5 83.5t98.5 33.5q61 0 101 -33t40 -84q0 -49 -39.5 -81 t-101.5 -32q-58 0 -98.5 32t-40.5 81zM293 479q0 -157 91.5 -252.5t231.5 -95.5q139 0 231.5 95.5t92.5 252.5t-92.5 252.5t-231.5 95.5q-140 0 -231.5 -95.5t-91.5 -252.5zM698 1323q0 50 41 83.5t99 33.5q60 0 100.5 -33t40.5 -84q0 -49 -40.5 -81t-100.5 -32 q-58 0 -99 32t-41 81z" />
<glyph unicode="&#xf8;" d="M84 479q0 151 74.5 269t195 179.5t262.5 61.5q60 0 115 -12l64 145h174l-84 -200q119 -64 190.5 -179.5t71.5 -263.5q0 -150 -73 -267.5t-193.5 -179t-264.5 -61.5q-57 0 -120 13l-62 -144h-172l84 197q-120 65 -191 180t-71 262zM293 479q0 -95 35 -169.5t98 -119.5 l254 631q-30 6 -64 6q-140 0 -231.5 -95.5t-91.5 -252.5zM547 137q35 -6 69 -6q139 0 231.5 95.5t92.5 252.5q0 96 -36.5 172t-100.5 121z" />
<glyph unicode="&#xf9;" horiz-adv-x="1378" d="M20 803v162h394v-566q0 -241 202 -241q158 0 336 200v445h-176v162h377v-717q0 -101 70 -101q40 0 63 17l45 -146q-70 -38 -153 -38q-97 0 -157 57.5t-67 163.5q-103 -114 -201 -172t-206 -58q-160 0 -247 107.5t-87 314.5v410h-193zM223 1430l109 147l405 -373l-57 -78z " />
<glyph unicode="&#xfa;" horiz-adv-x="1378" d="M20 803v162h394v-566q0 -241 202 -241q158 0 336 200v445h-176v162h377v-717q0 -101 70 -101q40 0 63 17l45 -146q-70 -38 -153 -38q-97 0 -157 57.5t-67 163.5q-103 -114 -201 -172t-206 -58q-160 0 -247 107.5t-87 314.5v410h-193zM535 1214l405 373l109 -147 l-455 -303z" />
<glyph unicode="&#xfb;" horiz-adv-x="1378" d="M20 803v162h394v-566q0 -241 202 -241q158 0 336 200v445h-176v162h377v-717q0 -101 70 -101q40 0 63 17l45 -146q-70 -38 -153 -38q-97 0 -157 57.5t-67 163.5q-103 -114 -201 -172t-206 -58q-160 0 -247 107.5t-87 314.5v410h-193zM272 1161l312 361h106l314 -361 l-64 -59l-305 254l-297 -254z" />
<glyph unicode="&#xfc;" horiz-adv-x="1378" d="M20 803v162h394v-566q0 -241 202 -241q158 0 336 200v445h-176v162h377v-717q0 -101 70 -101q40 0 63 17l45 -146q-70 -38 -153 -38q-97 0 -157 57.5t-67 163.5q-103 -114 -201 -172t-206 -58q-160 0 -247 107.5t-87 314.5v410h-193zM268 1298q0 50 41 83.5t99 33.5 q61 0 101 -33t40 -84q0 -49 -39.5 -80.5t-101.5 -31.5q-58 0 -99 31.5t-41 80.5zM719 1298q0 50 40.5 83.5t98.5 33.5q60 0 100.5 -33t40.5 -84q0 -49 -40 -80.5t-101 -31.5q-58 0 -98.5 31.5t-40.5 80.5z" />
<glyph unicode="&#xfd;" horiz-adv-x="1339" d="M33 -387l82 154q103 -76 202 -76q89 0 158 56t123 179l14 33l-413 844h-160v162h541v-148h-166l291 -647l284 647h-158v148h488v-162h-152l-405 -909q-87 -191 -194.5 -286t-250.5 -95q-81 0 -145 25.5t-139 74.5zM602 1214l406 373l108 -147l-454 -303z" />
<glyph unicode="&#xfe;" horiz-adv-x="1333" d="M6 -285h217v1530h-217v160h414v-619q78 95 179 150t204 55q186 0 316 -140.5t130 -358.5q0 -226 -143.5 -373.5t-355.5 -147.5q-183 0 -330 133v-389h239v-161h-653v161zM420 254q141 -117 287 -117q145 0 240 101t95 256q0 146 -84.5 236.5t-214.5 88.5 q-171 -3 -323 -192v-373z" />
<glyph unicode="&#xff;" horiz-adv-x="1339" d="M33 -387l82 154q103 -76 202 -76q89 0 158 56t123 179l14 33l-413 844h-160v162h541v-148h-166l291 -647l284 647h-158v148h488v-162h-152l-405 -909q-87 -191 -194.5 -286t-250.5 -95q-81 0 -145 25.5t-139 74.5zM336 1298q0 50 40.5 83.5t98.5 33.5q61 0 101 -33 t40 -84q0 -49 -39.5 -80.5t-101.5 -31.5q-58 0 -98.5 31.5t-40.5 80.5zM786 1298q0 50 41 83.5t99 33.5q60 0 100.5 -33t40.5 -84q0 -49 -40 -80.5t-101 -31.5q-58 0 -99 31.5t-41 80.5z" />
<glyph unicode="&#x152;" horiz-adv-x="2322" d="M104 698q0 172 63 309t172 222.5t250 130.5t302 45h1278v-447h-191v279h-682v-442h285v182h172v-537h-172v185h-285v-455h682v276h191v-446h-1278q-162 0 -302.5 43.5t-249.5 127.5t-172 219.5t-63 307.5zM324 698q0 -114 33.5 -205t90.5 -150.5t136.5 -99t166 -56.5 t183.5 -17h151v1067h-151q-97 0 -184 -18t-166 -59.5t-136 -102.5t-90.5 -153t-33.5 -206z" />
<glyph unicode="&#x153;" horiz-adv-x="1986" d="M84 481q0 150 74.5 268.5t193.5 180t258 61.5q133 0 248 -61.5t184 -169.5q73 107 191 169t246 62q179 0 293 -85.5t114 -221.5q0 -91 -57.5 -157.5t-145 -97t-190.5 -30.5q-176 0 -373 82q0 -35 -2 -51q13 -133 120 -214.5t243 -78.5q107 0 185.5 33t154.5 98l86 -125 q-202 -172 -441 -172q-131 0 -245.5 58t-184.5 161q-68 -103 -180.5 -161t-245.5 -58q-103 0 -198.5 37t-168 102t-116 161.5t-43.5 209.5zM295 481q0 -157 89.5 -253.5t225.5 -96.5q135 0 225.5 96.5t90.5 253.5q0 156 -90.5 252t-225.5 96q-136 0 -225.5 -95.5 t-89.5 -252.5zM1139 596q157 -55 311 -55q102 0 169 37.5t67 105.5q0 66 -57.5 106.5t-149.5 40.5q-108 0 -204 -63t-136 -172z" />
<glyph unicode="&#x178;" horiz-adv-x="1650" d="M20 1235v170h646v-170h-201l383 -553l377 553h-240v170h645v-170h-207l-489 -686v-379h270v-170h-755v170h274v367l-504 698h-199zM457 1739q0 50 40.5 83t98.5 33q62 0 101.5 -32.5t39.5 -83.5q0 -49 -39.5 -81t-101.5 -32q-58 0 -98.5 32t-40.5 81zM907 1739 q0 50 41 83t99 33q60 0 100.5 -32.5t40.5 -83.5q0 -49 -40.5 -81t-100.5 -32q-58 0 -99 32t-41 81z" />
<glyph unicode="&#x2000;" horiz-adv-x="1055" />
<glyph unicode="&#x2001;" horiz-adv-x="2111" />
<glyph unicode="&#x2002;" horiz-adv-x="1055" />
<glyph unicode="&#x2003;" horiz-adv-x="2111" />
<glyph unicode="&#x2004;" horiz-adv-x="703" />
<glyph unicode="&#x2005;" horiz-adv-x="527" />
<glyph unicode="&#x2006;" horiz-adv-x="351" />
<glyph unicode="&#x2007;" horiz-adv-x="351" />
<glyph unicode="&#x2008;" horiz-adv-x="263" />
<glyph unicode="&#x2009;" horiz-adv-x="422" />
<glyph unicode="&#x200a;" horiz-adv-x="117" />
<glyph unicode="&#x2010;" horiz-adv-x="643" d="M59 397v174h527v-174h-527z" />
<glyph unicode="&#x2011;" horiz-adv-x="643" d="M59 397v174h527v-174h-527z" />
<glyph unicode="&#x2012;" horiz-adv-x="643" d="M59 397v174h527v-174h-527z" />
<glyph unicode="&#x2013;" horiz-adv-x="1183" d="M59 397v172h1069v-172h-1069z" />
<glyph unicode="&#x2014;" horiz-adv-x="1726" d="M59 397v172h1610v-172h-1610z" />
<glyph unicode="&#x2018;" horiz-adv-x="622" d="M133 1118q0 98 70.5 210t193.5 220l56 -57q-98 -103 -148.5 -180t-56.5 -154q47 14 90 14q58 0 99.5 -34t41.5 -84q0 -56 -47.5 -90.5t-116.5 -34.5q-85 0 -133.5 50.5t-48.5 139.5z" />
<glyph unicode="&#x2019;" horiz-adv-x="622" d="M145 1405q0 56 47 90.5t117 34.5q83 0 133 -51.5t50 -141.5q0 -97 -71 -207.5t-194 -218.5l-57 58q99 103 150 179.5t55 154.5q-37 -15 -88 -15q-60 0 -101 32.5t-41 84.5z" />
<glyph unicode="&#x201a;" horiz-adv-x="622" d="M145 90q0 56 47 90.5t117 34.5q83 0 133 -50.5t50 -139.5q0 -98 -71 -208.5t-194 -219.5l-57 57q99 103 150 179t55 153q-41 -13 -88 -13q-59 0 -100.5 33.5t-41.5 83.5z" />
<glyph unicode="&#x201c;" horiz-adv-x="1085" d="M133 1118q0 98 70.5 210t193.5 220l56 -57q-98 -103 -148.5 -180t-56.5 -154q47 14 90 14q58 0 99.5 -34t41.5 -84q0 -56 -47.5 -90.5t-116.5 -34.5q-85 0 -133.5 50.5t-48.5 139.5zM596 1116q0 98 71 209t195 219l56 -57q-101 -106 -151.5 -181t-55.5 -153q41 14 90 14 q58 0 99.5 -33t41.5 -83q0 -56 -47 -90.5t-115 -34.5q-87 0 -135.5 50t-48.5 140z" />
<glyph unicode="&#x201d;" horiz-adv-x="1085" d="M145 1399q0 55 47 90t117 35q83 0 133 -52t50 -143q0 -95 -71 -206.5t-194 -219.5l-57 58q99 102 150 179t55 154q-44 -14 -88 -14q-60 0 -101 33t-41 86zM608 1397q0 53 47.5 88t116.5 35q84 0 133 -51t49 -142q0 -97 -70.5 -207.5t-193.5 -220.5l-57 57 q100 102 151 179t54 155q-35 -14 -86 -14q-60 0 -102 34t-42 87z" />
<glyph unicode="&#x201e;" horiz-adv-x="1085" d="M145 96q0 55 47 89t117 34q83 0 133 -50.5t50 -141.5q0 -97 -71 -207.5t-194 -218.5l-57 57q98 102 149.5 179t55.5 153q-47 -15 -88 -15q-60 0 -101 34t-41 87zM608 90q0 56 47.5 90.5t116.5 34.5q84 0 133 -50t49 -140q0 -98 -70.5 -209t-193.5 -219l-57 57 q100 102 151 178.5t54 153.5q-41 -13 -86 -13q-60 0 -102 33.5t-42 83.5z" />
<glyph unicode="&#x2022;" horiz-adv-x="870" d="M156 670q0 101 81 166t199 65q123 0 202 -64.5t79 -166.5q0 -94 -79.5 -156.5t-201.5 -62.5q-117 0 -198.5 63t-81.5 156z" />
<glyph unicode="&#x2026;" horiz-adv-x="1744" d="M121 106q0 60 49.5 100t118.5 40q76 0 124 -39t48 -101q0 -58 -48 -95.5t-124 -37.5q-69 0 -118.5 38.5t-49.5 94.5zM702 106q0 61 49 100.5t119 39.5q75 0 122.5 -39t47.5 -101q0 -57 -48 -95t-122 -38q-70 0 -119 38.5t-49 94.5zM1284 106q0 61 49 100.5t119 39.5 q75 0 123.5 -39.5t48.5 -100.5q0 -57 -48.5 -95t-123.5 -38q-70 0 -119 38.5t-49 94.5z" />
<glyph unicode="&#x202f;" horiz-adv-x="422" />
<glyph unicode="&#x2039;" horiz-adv-x="1069" d="M84 412v174h66q239 0 415 122t228 334l153 -53q-46 -202 -200.5 -331.5t-395.5 -159.5q243 -29 397.5 -158.5t200.5 -333.5l-153 -53q-52 213 -228 336t-415 123h-68z" />
<glyph unicode="&#x203a;" horiz-adv-x="1069" d="M119 989l155 53q52 -212 227 -334t412 -122h70v-174h-68q-238 0 -413.5 -123t-225.5 -336l-155 53q46 204 200.5 333.5t395.5 158.5q-243 30 -397.5 159.5t-200.5 331.5z" />
<glyph unicode="&#x205f;" horiz-adv-x="527" />
<glyph unicode="&#x20ac;" horiz-adv-x="1490" d="M70 426v125h159q-4 54 -4 82q0 33 2 49h-155v123h172q33 150 122 263t208.5 171.5t252.5 58.5q248 0 400 -176l2 148h172l-2 -389l-105 -7q-50 85 -104.5 140.5t-134.5 90t-181 34.5q-146 0 -260 -88.5t-157 -245.5h688v-123h-709q-2 -16 -2 -49q0 -28 4 -82h703v-125 h-674q50 -138 161.5 -215.5t262.5 -77.5q138 0 232.5 48.5t187.5 144.5l100 -136q-213 -217 -520 -217q-230 0 -403 122.5t-234 330.5h-184z" />
<glyph unicode="&#x2122;" horiz-adv-x="1765" d="M72 1196v209h620v-209h-94v129h-162v-424h105v-90h-316v90h103v424h-160v-129h-96zM756 809v90h96v418h-96v88h215l221 -447l217 447h213v-88h-94v-418h94v-90h-289v90h86v326l-207 -422h-51l-209 424v-328h86v-90h-282z" />
<glyph unicode="&#x25fc;" horiz-adv-x="962" d="M0 0v963h963v-963h-963z" />
</font>
</defs>
</svg>
