<?xml version="1.0" standalone="no"?>
<!DOCTYPE svg PUBLIC "-//W3C//DTD SVG 1.1//EN" "http://www.w3.org/Graphics/SVG/1.1/DTD/svg11.dtd" >
<svg xmlns="http://www.w3.org/2000/svg" xmlns:xlink="http://www.w3.org/1999/xlink" version="1.1">
<metadata></metadata>
<defs>
<font id="calisto_mtregular" horiz-adv-x="1366" >
<font-face units-per-em="2048" ascent="1638" descent="-410" />
<missing-glyph horiz-adv-x="522" />
<glyph horiz-adv-x="0" />
<glyph unicode="&#xd;" horiz-adv-x="522" />
<glyph unicode=" "  horiz-adv-x="522" />
<glyph unicode="&#x09;" horiz-adv-x="522" />
<glyph unicode="&#xa0;" horiz-adv-x="522" />
<glyph unicode="!" horiz-adv-x="575" d="M177 75q0 47 32.5 79.5t78.5 32.5q47 0 79 -32.5t32 -79.5q0 -46 -32.5 -78.5t-78.5 -32.5t-78.5 32.5t-32.5 78.5zM187 1349q105 38 203 89l29 -24q-50 -375 -93 -1047h-76q-20 454 -63 982z" />
<glyph unicode="&#x22;" horiz-adv-x="831" d="M133 1264q0 64 26.5 93.5t71.5 29.5q44 0 73 -29.5t29 -81.5q0 -36 -26 -178l-54 -295h-43l-55 296q-22 122 -22 165zM498 1266q0 63 27.5 92t74.5 29q44 0 72 -29t28 -81q0 -82 -19 -181l-57 -293h-48l-54 292l-22 121q-2 25 -2 50z" />
<glyph unicode="#" d="M88 356v123h224l77 371h-301v122h326l86 405h123l-86 -405h420l85 405h123l-85 -405h196v-122h-222l-75 -371h297v-123h-322l-86 -402h-123l86 402h-422l-85 -402h-123l85 402h-198zM434 479h422l76 371h-420z" />
<glyph unicode="$" horiz-adv-x="981" d="M73 25q24 92 32 139t17 143h67q15 -117 79 -180.5t163 -70.5v569q-220 130 -279.5 208.5t-59.5 185.5q0 136 95 241t244 127v108h92v-105q117 0 198 -21t151 -65q-43 -119 -66 -248l-67 9q-3 118 -41 164q-54 66 -175 75v-516q233 -125 303.5 -214t70.5 -203 q0 -144 -99 -256.5t-275 -147.5v-164h-92v156q-98 2 -174 15.5t-184 50.5zM255 1093q0 -71 38 -128t138 -120v451q-83 -14 -129.5 -69t-46.5 -134zM523 61q95 19 146.5 82.5t51.5 158.5q0 87 -48 151.5t-150 117.5v-510z" />
<glyph unicode="%" horiz-adv-x="1686" d="M75 1015q0 220 86.5 321.5t220.5 101.5q135 0 203.5 -95.5t68.5 -272.5q0 -216 -84 -315.5t-213 -99.5q-126 0 -204 88.5t-78 271.5zM231 1025q0 -180 47 -250q32 -48 90 -48q55 0 87 49q47 72 47 262q0 197 -52 279q-31 49 -85 49q-56 0 -87 -49q-47 -76 -47 -292z M362 -78l847 1516h109l-849 -1516h-107zM1031 282q0 220 86.5 321.5t220.5 101.5q135 0 204 -95.5t69 -272.5q0 -216 -84.5 -315.5t-213.5 -99.5q-126 0 -204 88.5t-78 271.5zM1188 292q0 -180 46 -250q33 -48 91 -48q54 0 86 49q47 72 47 262q0 197 -52 279q-31 49 -85 49 q-56 0 -86 -49q-47 -76 -47 -292z" />
<glyph unicode="&#x26;" horiz-adv-x="1599" d="M59 319q0 126 86 234t334 238q-51 113 -70.5 186.5t-19.5 141.5q0 121 110.5 220t272.5 99q118 0 185 -63t67 -164q0 -234 -345 -401q57 -116 107.5 -199t156.5 -234q91 115 134.5 221.5t43.5 165.5q0 22 -18 41.5t-76 39.5v58q142 -11 238 -11q102 0 217 11v-58 q-115 -18 -161 -56t-146 -225q-72 -135 -172 -259q96 -93 158 -127.5t116 -34.5q50 0 105 20.5t140 76.5l47 -57q-168 -142 -231 -177t-114 -35q-154 0 -348 195q-110 -100 -218 -147.5t-234 -47.5q-161 0 -263 101t-102 247zM247 373q0 -112 79.5 -191.5t194.5 -79.5 q149 0 293 134q-169 214 -301 481q-100 -57 -146 -100q-62 -58 -91 -118t-29 -126zM572 1162q0 -103 71 -276q137 63 190 127.5t53 150.5q0 90 -45 142.5t-107 52.5q-41 0 -81.5 -25t-60.5 -70t-20 -102z" />
<glyph unicode="'" horiz-adv-x="362" d="M81 1264q0 65 26 94t71 29t74.5 -29.5t29.5 -80.5q0 -34 -26 -179l-54 -295h-44l-54 296q-23 124 -23 165z" />
<glyph unicode="(" horiz-adv-x="662" d="M73 514q0 220 68 416.5t212 345.5q105 109 265 185v-83q-96 -66 -157 -150q-85 -121 -142.5 -314t-57.5 -401q0 -219 61 -411.5t141 -303.5q57 -77 155 -147v-83q-130 60 -219 140q-147 131 -236.5 334t-89.5 472z" />
<glyph unicode=")" horiz-adv-x="662" d="M43 -349q96 66 157 151q86 120 143 313t57 401q0 219 -61 411.5t-141 303.5q-56 77 -155 147v83q130 -60 219 -140q147 -131 237 -334t90 -472q0 -220 -68 -416.5t-212 -344.5q-106 -110 -266 -186v83z" />
<glyph unicode="*" horiz-adv-x="961" d="M60 1094l58 178q128 -78 323 -167l-22 145l-36 209h187q-43 -248 -56 -365l250 130q27 14 74 41l58 -180q-125 -13 -358 -53l124 -128l132 -126l-154 -110l-104 214q-26 53 -61 112q-61 -115 -111 -219l-52 -107l-156 110l262 254q-103 23 -155 32z" />
<glyph unicode="+" d="M139 596v131h478v478h132v-478h478v-131h-478v-478h-132v478h-478z" />
<glyph unicode="," horiz-adv-x="575" d="M144 48q67 76 118 166q74 -25 116.5 -83t42.5 -127q0 -193 -209 -376l-43 53q123 125 123 237q0 44 -25 71.5t-56 27.5q-13 0 -36 -7z" />
<glyph unicode="-" horiz-adv-x="598" d="M55 398q22 68 40 140q128 -2 192 -2q143 0 251 15l12 -13q-30 -75 -49 -153q-114 5 -194 5q-75 0 -239 -5z" />
<glyph unicode="." horiz-adv-x="575" d="M176 76q0 47 32.5 79.5t79.5 32.5q46 0 78.5 -32.5t32.5 -79.5q0 -46 -32.5 -79t-78.5 -33q-47 0 -79.5 33t-32.5 79z" />
<glyph unicode="/" horiz-adv-x="1087" d="M117 -37l717 1463h136l-717 -1463h-136z" />
<glyph unicode="0" horiz-adv-x="1044" d="M76 657q0 418 153 616q123 159 319 159q124 0 220.5 -67t153 -213.5t56.5 -392.5q0 -241 -51 -435t-174 -292q-93 -73 -236 -73q-225 0 -333 183t-108 515zM275 713q0 -207 18.5 -331t57 -202t80 -108.5t99.5 -30.5q70 0 123 45.5t91.5 172.5t38.5 375q0 231 -35 438 q-16 91 -46 154t-72 93.5t-107 30.5q-62 0 -104.5 -31t-73.5 -93q-23 -45 -40 -137q-30 -158 -30 -376z" />
<glyph unicode="1" horiz-adv-x="1044" d="M235 1204v54q197 81 281 120q39 18 98 54l29 -22q-23 -297 -23 -740q0 -382 2 -434q2 -102 16 -129q7 -13 20 -20q5 -2 155 -42v-56q-206 11 -301 11q-110 0 -255 -11v56q146 38 160 46t21 21q9 18 13 129q1 38 1 400l-1 400l-1 94q-1 57 -15 75t-45 18q-34 0 -155 -24z " />
<glyph unicode="2" horiz-adv-x="1044" d="M48 -11v59q304 317 433 473.5t184 287.5q38 88 38 188q0 132 -64 201t-166 69q-92 0 -164 -59q-55 -44 -110 -162h-71q31 120 48 247q83 70 167.5 104.5t170.5 34.5q103 0 193 -48.5t136 -136.5t46 -194q0 -96 -35 -182q-44 -112 -147 -240t-432 -483h419q91 0 120.5 18 t69.5 100q4 7 12 22h76q-82 -195 -121 -299q-201 11 -362 11q-144 0 -441 -11z" />
<glyph unicode="3" horiz-adv-x="1044" d="M104 10q29 128 43 260h60q36 -116 95.5 -163t148.5 -47q128 0 213 88t85 236q0 147 -90 234.5t-255 87.5q-15 0 -34 -1v70q175 51 244.5 130.5t69.5 173.5q0 89 -55 143t-150 54q-82 0 -143 -46q-45 -35 -86 -120h-67q32 109 53 221q72 51 146 76t150 25q95 0 169 -37.5 t111.5 -106t37.5 -141.5q0 -179 -195 -317q109 -29 169 -92q96 -100 96 -263q0 -212 -158.5 -364t-396.5 -152q-132 0 -261 51z" />
<glyph unicode="4" horiz-adv-x="1044" d="M30 481q57 74 102 136l330 464q66 95 189 276q74 33 138 75l27 -20q-20 -352 -20 -690q0 -81 2 -239q102 1 201 6l11 -23q-32 -61 -55 -129q-76 7 -157 9q-2 -39 -2 -60q0 -151 21.5 -178t167.5 -63v-56q-154 11 -264 11q-115 0 -280 -11v56q135 25 166 41q16 9 24 33 t8 143l-1 84q-130 2 -357 2q-149 0 -243 -5q0 62 -8 138zM159 483h479v691z" />
<glyph unicode="5" horiz-adv-x="1044" d="M107 16q24 118 33 245h60q40 -102 97.5 -144t141.5 -42q155 0 232 107.5t77 244.5q0 113 -55 202t-164 136t-232 47q-38 0 -111 -9l-23 30q106 288 155 575q176 -11 335 -11q136 0 267 11l14 -17q-45 -76 -83 -158q-196 9 -355 9h-114q-30 -120 -64 -243q219 0 368 -94 q211 -132 211 -396q0 -154 -73 -278.5t-212.5 -198t-269.5 -73.5q-101 0 -235 57z" />
<glyph unicode="6" horiz-adv-x="1044" d="M64 498q0 292 172 536q194 276 618 403l23 -79q-186 -78 -303 -169.5t-190 -209.5q-50 -80 -90 -219q152 115 197.5 136.5t104.5 21.5q166 0 271.5 -115.5t105.5 -313.5t-122 -364t-342 -166q-189 0 -317 144t-128 395zM270 489q0 -216 102 -346q79 -100 183 -100 q121 0 183.5 104t62.5 246q0 66 -29.5 166t-95.5 159t-153 59q-70 0 -133.5 -40t-91.5 -98t-28 -150z" />
<glyph unicode="7" horiz-adv-x="1044" d="M113 1079q78 168 133 329q171 -11 337 -11q184 0 393 11v-61q-134 -361 -280 -813q-120 -370 -175 -575q-61 7 -91 7q-29 0 -84 -7l-18 17q66 138 117 260q81 194 183 460l206 543l-391 3q-113 0 -145 -21q-46 -29 -111 -142h-74z" />
<glyph unicode="8" horiz-adv-x="1044" d="M104 295q0 108 58 196.5t244 221.5q-168 125 -217 199t-49 165q0 143 116 249t306 106q171 0 263 -83t92 -207q0 -97 -60 -183t-216 -189q130 -90 188.5 -144t89 -116t30.5 -146q0 -166 -125 -285.5t-328 -119.5q-187 0 -289.5 95.5t-102.5 240.5zM271 317 q0 -111 77.5 -188.5t189.5 -77.5q103 0 171 69t68 170q0 65 -30.5 124t-102.5 126q-51 48 -163 121q-107 -77 -158.5 -164.5t-51.5 -179.5zM307 1146q0 -58 21 -101t74 -92t167 -128q113 77 158 146.5t45 148.5q0 101 -65.5 165.5t-170.5 64.5q-104 0 -166.5 -58.5 t-62.5 -145.5z" />
<glyph unicode="9" horiz-adv-x="1044" d="M83 918q0 228 136 371t332 143q192 0 312.5 -130.5t120.5 -382.5q0 -204 -89.5 -410t-255.5 -338.5t-439 -219.5l-19 81q162 60 282.5 154t204.5 230q60 97 105 253q-112 -109 -184 -147.5t-140 -38.5q-148 0 -257 118t-109 317zM259 1026q0 -199 82 -298t198 -99 q101 0 178 83.5t77 220.5q0 170 -81.5 293t-208.5 123q-100 0 -172.5 -84t-72.5 -239z" />
<glyph unicode=":" horiz-adv-x="575" d="M176 76q0 47 32.5 79.5t79.5 32.5q46 0 78.5 -32.5t32.5 -79.5q0 -46 -32.5 -79t-78.5 -33q-47 0 -79.5 33t-32.5 79zM176 869q0 46 32.5 78.5t79.5 32.5q46 0 78.5 -32.5t32.5 -78.5q0 -47 -32.5 -79.5t-78.5 -32.5q-47 0 -79.5 32.5t-32.5 79.5z" />
<glyph unicode=";" horiz-adv-x="575" d="M142 48q67 76 118 166q74 -25 116.5 -83t42.5 -127q0 -193 -209 -376l-43 53q123 125 123 237q0 44 -25 71.5t-56 27.5q-13 0 -36 -7zM177 869q0 46 32.5 78.5t79.5 32.5q46 0 79 -32.5t33 -78.5q0 -47 -33 -79.5t-79 -32.5t-79 33t-33 79z" />
<glyph unicode="&#x3c;" d="M139 604l1 119l1087 456v-142l-911 -374l911 -374v-142z" />
<glyph unicode="=" d="M139 366v131h1088v-131h-1088zM139 826v131h1088v-131h-1088z" />
<glyph unicode="&#x3e;" d="M139 147v142l910 374l-910 374v142l1088 -458l-2 -118z" />
<glyph unicode="?" horiz-adv-x="788" d="M48 1092q21 118 31 237q81 57 143 80q81 29 164 29q147 0 242 -91.5t95 -222.5q0 -57 -18 -113.5t-47 -104.5q-12 -20 -122 -171q-71 -99 -101.5 -180.5t-47.5 -218.5h-82q4 118 28.5 203t109.5 248q66 128 88 198q15 48 15 98q0 95 -55.5 152t-141.5 57 q-78 0 -134.5 -44t-95.5 -156h-71zM239 76q0 47 32.5 79.5t79.5 32.5q46 0 78.5 -32.5t32.5 -79.5q0 -46 -32.5 -78.5t-78.5 -32.5t-79 32.5t-33 78.5z" />
<glyph unicode="@" horiz-adv-x="1878" d="M97 444q0 264 124 492.5t347.5 357t474.5 128.5q207 0 373.5 -85.5t253.5 -250t87 -349.5q0 -183 -82 -363t-207.5 -261.5t-260.5 -81.5q-78 0 -116.5 36t-38.5 103q0 54 18 145q-137 -166 -227 -225.5t-166 -59.5q-72 0 -127 63.5t-55 171.5q0 143 94.5 323t250.5 293 q115 83 206 83q67 0 111.5 -34.5t60.5 -103.5l33 110l157 22l-117 -399q-93 -318 -93 -378q0 -34 21.5 -56t54.5 -22q72 0 174.5 73t175.5 237t73 342q0 171 -82 316t-233 222.5t-333 77.5q-231 0 -429 -122.5t-313.5 -352.5t-115.5 -478q0 -230 101.5 -418t285.5 -284.5 t396 -96.5q263 0 475.5 141t328.5 412h58q-90 -274 -327 -444t-540 -170q-374 0 -623 251.5t-249 634.5zM653 296q0 -66 35.5 -105.5t80.5 -39.5q57 0 121.5 44t134.5 136t102 187q55 156 55 252q0 69 -36 108t-89 39q-74 0 -151 -78q-112 -114 -194 -314q-59 -144 -59 -229 z" />
<glyph unicode="A" horiz-adv-x="1579" d="M8 -11v59q91 20 125 45q25 19 52 64q57 99 290 637l275 638h63q135 -347 332 -787l233 -509q16 -27 35 -40q13 -9 147 -48v-59q-182 11 -268 11q-88 0 -300 -11v59q121 25 141 40t20 35q0 21 -21 71l-100 244q-213 2 -310 2l-275 -2l-104 -253q-26 -61 -26 -76 q0 -13 12.5 -21.5t116.5 -30.5q11 -3 31 -9v-59q-171 11 -241 11q-89 0 -228 -11zM486 538q139 -4 199 -4q18 0 307 4l-253 600z" />
<glyph unicode="B" horiz-adv-x="1323" d="M50 -11v59q31 7 47 10q145 28 161 42q12 10 15 51q8 93 8 527l-2 442q-1 138 -13 162q-6 12 -21 19.5t-153 37.5q-14 3 -42 10v59q183 -11 338 -11q101 0 210.5 4t169.5 4q205 0 305 -86q99 -87 99 -221q0 -76 -37.5 -151.5t-105.5 -126.5q-50 -37 -152 -70 q108 -8 166 -31q88 -36 140 -109t52 -182q0 -222 -208 -351q-141 -88 -419 -88q-63 0 -197 7q-93 5 -103 5q-18 0 -258 -12zM463 886q0 -37 1 -108q90 -1 100 -1q168 0 246 28t126 98.5t48 163.5q0 133 -95 200q-68 48 -222 48q-88 0 -192 -15q-12 -151 -12 -414zM464 97 q107 -16 192 -16q190 0 283 88t93 241q0 106 -52 172t-125.5 89t-233.5 23q-95 0 -157 -2v-595z" />
<glyph unicode="C" horiz-adv-x="1473" d="M95 681q0 333 217.5 545t575.5 212q220 0 490 -90q-2 -88 -2 -132q0 -128 15 -269h-84q-37 175 -79 241t-136 105.5t-232 39.5q-290 0 -437 -206q-114 -161 -114 -404q0 -290 160.5 -457.5t420.5 -167.5q112 0 218 29t258 105l42 -76q-161 -101 -309 -149t-306 -48 q-201 0 -365 91.5t-248.5 259t-84.5 371.5z" />
<glyph unicode="D" horiz-adv-x="1665" d="M48 -11v59q163 31 181.5 37t26.5 14t11 22q5 21 7 170q6 325 6 473l-6 438l1 34q0 50 -29 64q-17 10 -198 49v59q198 -11 431 -11l446 6q227 0 362.5 -65.5t210.5 -208.5t75 -333q0 -350 -238 -578t-639 -228q-23 0 -183 5.5t-188 5.5q-97 0 -277 -12zM469 697 q0 -352 6 -589q162 -20 272 -20q171 0 282 55q159 81 241.5 236t82.5 381q0 118 -27.5 215.5t-73.5 155.5q-67 86 -175 131.5t-312 45.5q-123 0 -290 -15q-6 -263 -6 -596z" />
<glyph unicode="E" d="M40 -11v59l162 35q39 11 48 22q15 19 15 79v18l5 235q1 68 1 267q0 289 -2 423.5t-10 152.5q-6 12 -18.5 19.5t-92.5 25.5l-108 24v59q188 -11 449 -11q143 0 680 11q2 -173 24 -342h-70q-40 136 -65 181q-17 31 -42 41q-33 13 -146 13h-404l-7 -322l-3 -197h242 q140 0 165 7.5t40.5 30.5t38.5 133q3 11 9 34h66q-11 -165 -11 -254q0 -92 11 -252h-66q-29 145 -36 162q-10 24 -35 34.5t-149 10.5h-274l5 -588h419l37 1q86 0 108 7q38 13 67 43.5t107 172.5q8 14 24 41h69q-12 -32 -124 -376q-364 11 -665 11q-210 0 -464 -11z" />
<glyph unicode="F" horiz-adv-x="1280" d="M42 -11v59q40 8 60 11q121 18 143.5 40t22.5 92l6 285q1 66 1 252q0 453 -4 512q-3 39 -20 53q-22 19 -155 45q-18 3 -54 11v59q233 -11 513 -11q294 0 645 11l22 -375h-69q-42 159 -63 203q-14 30 -44.5 43.5t-136.5 13.5h-436q-6 -132 -10 -510h274q79 0 102.5 9t39 35 t34.5 118q3 17 11 50h67q-9 -209 -9 -272q0 -20 9 -255h-67q-5 28 -7 42q-21 129 -47 153t-134 24h-273q-1 -100 -1 -134q0 -399 6 -429q4 -20 22 -30q23 -14 227 -46v-59q-226 11 -325 11z" />
<glyph unicode="G" horiz-adv-x="1686" d="M89 654q0 349 221.5 566.5t589.5 217.5q92 0 176 -11q19 -2 342 -61q-1 -55 -1 -88q0 -134 13 -303h-75q-46 171 -86.5 225t-131.5 88q-120 46 -260 46q-310 0 -466 -234q-109 -165 -109 -406q0 -308 172.5 -467t435.5 -159q166 0 349 70q4 108 4 317q0 113 -6 133 t-24 31q-23 14 -136 37l-39 9v55l342 -7q113 0 257 7v-55l-153 -37q-24 -6 -35 -17.5t-15 -33.5q-8 -45 -8 -225q0 -108 8 -293q-44 -7 -189 -40q-190 -42 -240 -48q-97 -12 -206 -12q-352 0 -541 186.5t-189 508.5z" />
<glyph unicode="H" horiz-adv-x="1642" d="M44 -11v59q108 24 161 34q40 7 51 20q15 17 15 71q3 191 3 546l-4 495v32q0 35 -11.5 48.5t-48.5 22.5l-166 32v59q202 -11 337 -11q142 0 311 11v-59l-168 -33q-32 -8 -44 -22.5t-12 -51.5l-5 -474q154 -3 325 -3q221 0 397 3l-1 71l-1 215l-2 187q-1 42 -12 52 q-16 17 -78 26l-135 30v59q231 -11 334 -11q113 0 313 11v-59q-165 -34 -186 -43t-28 -20q-11 -18 -12 -110q-2 -150 -2 -514l4 -474v-28q0 -47 17 -60q28 -21 207 -52v-59q-274 11 -348 11q-123 0 -299 -11v59l183 41q17 7 26 20q14 21 15 79l5 470q-263 5 -403 5 q-151 0 -319 -5l3 -483q0 -52 10 -66t52 -26q10 -3 164 -35v-59q-244 11 -345 11q-125 0 -303 -11z" />
<glyph unicode="I" horiz-adv-x="748" d="M52 -11v59q29 8 44 10q142 23 162.5 42.5t20.5 98.5l-1 50l2 367q0 566 -2 626q-2 33 -21.5 51t-151.5 43q-18 4 -53 13v59q217 -11 339 -11q136 0 309 11v-59q-35 -8 -52 -11q-133 -23 -154 -43.5t-21 -91.5v-35l-4 -402l3 -584q0 -70 20.5 -89t140.5 -33q23 -3 67 -12 v-59q-161 11 -310 11q-154 0 -338 -11z" />
<glyph unicode="J" horiz-adv-x="897" d="M56 -11q16 153 16 335v22h79q10 -168 57.5 -226.5t118.5 -58.5q90 0 117 91q17 57 17 558q0 497 -3 534.5t-16 50.5q-22 19 -158 43q-18 3 -53 11v59q221 -11 337 -11q130 0 314 11v-59q-29 -6 -44 -9q-140 -22 -160 -39t-24.5 -68t-4.5 -571q0 -281 -4 -334 q-11 -118 -57.5 -195.5t-133.5 -125.5t-191 -48q-80 0 -207 30z" />
<glyph unicode="K" horiz-adv-x="1579" d="M33 -11v59q32 7 48 10q137 20 159 40q16 14 18 74q7 179 7 478l-5 544q0 73 -4.5 84.5t-13.5 17.5q-34 22 -165 44q-15 2 -44 9v59q213 -11 309 -11q35 0 63 1l276 10v-59l-43 -9q-139 -27 -153.5 -36.5t-20.5 -28.5q-4 -12 -7 -204l-5 -356q257 208 520 479q66 68 66 97 q0 13 -11 22q-16 11 -105 30q-8 2 -23 6v59q141 -11 245 -11q79 0 300 11v-59q-138 -33 -166 -45t-49 -28l-176 -165l-272 -248l-123 -109q97 -103 324 -317l321 -295q31 -25 67 -39.5t220 -54.5v-59q-229 11 -318 11q-75 0 -348 -11v59q94 21 107.5 31t13.5 22q0 14 -19 35 q-73 84 -427 420l-147 142l3 -513q0 -59 8 -72q9 -16 37 -26q21 -7 181 -39v-59q-170 11 -307 11q-130 0 -341 -11z" />
<glyph unicode="L" horiz-adv-x="1343" d="M46 -11v59q153 28 180 38.5t36.5 28.5t9.5 105l5 613l-3 395q0 51 -15 64q-23 20 -148 42q-22 4 -65 15v59q245 -11 332 -11q54 0 345 11v-59q-180 -31 -211 -41q-22 -7 -32 -22q-15 -21 -17 -87t-2 -740q0 -133 3 -355h441q99 0 129 12t62 53t120 206h85l-80 -223 q-21 -62 -51 -163q-414 11 -721 11q-217 0 -403 -11z" />
<glyph unicode="M" horiz-adv-x="1985" d="M8 1349v59q167 -11 254 -11q99 0 213 11q41 -105 66 -160q33 -74 261 -561q97 -207 196 -404l427 898q39 83 93 227q134 -11 205 -11q66 0 223 11v-59q-30 -8 -45 -11q-139 -28 -155 -41q-26 -20 -26 -101v-13l-4 -317q0 -598 5 -726q1 -27 15.5 -40t170.5 -43 q13 -2 39 -9v-59q-180 11 -317 11q-140 0 -331 -11v59q39 10 59 14q122 23 139.5 32.5t23.5 26.5q9 29 9 162v873q-91 -180 -411 -867q-88 -189 -130 -289h-57q-224 497 -549 1156l13 -932q0 -111 18 -127t151 -39q15 -3 46 -10v-59q-173 11 -280 11t-283 -11v59q29 8 43 10 q132 26 148 45q24 28 25 137l5 225q5 308 5 597l-1 122q0 73 -9 91.5t-29 26.5q-38 15 -170 35q-19 3 -56 12z" />
<glyph unicode="N" horiz-adv-x="1665" d="M-1 1349v59q127 -11 200 -11q59 0 211 11l284 -355q39 -47 602 -729q1 140 1 203q0 149 -9 545q-4 185 -9.5 201t-23 29t-139.5 36q-16 3 -47 11v59q178 -11 283 -11q102 0 282 11v-59q-27 -7 -40 -9q-134 -28 -149 -37q-11 -6 -18 -18q-10 -16 -14 -60 q-1 -19 -4.5 -272.5t-3.5 -490.5q0 -280 10 -473l-65 -30l-417 518l-547 658l5 -591q5 -388 11 -414q4 -18 18 -31q22 -20 149 -42q15 -2 45 -9v-59q-153 11 -258 11q-88 0 -307 -11v59q35 8 53 12q120 21 139 39q11 9 16 31q10 46 13 348q5 428 5 506q0 251 -7 279 q-4 20 -26 33.5t-189 41.5q-18 3 -54 11z" />
<glyph unicode="O" horiz-adv-x="1622" d="M96 689q0 328 211.5 538.5t543.5 210.5q309 0 492 -186t183 -512q0 -362 -206 -571.5t-542 -209.5q-315 0 -498.5 190t-183.5 540zM315 719q0 -330 144.5 -495.5t365.5 -165.5q146 0 259 77t171 225.5t58 328.5q0 226 -74 375t-183 213.5t-245 64.5q-149 0 -267 -78.5 t-173.5 -227t-55.5 -317.5z" />
<glyph unicode="P" horiz-adv-x="1260" d="M44 -11v59q39 10 58 13q132 27 147 39q25 22 25 117l3 484l-1 484v22q0 64 -19.5 82t-162.5 48q-16 4 -50 12v59q129 -11 330 -11l395 4q220 0 321 -93q101 -94 101 -255q0 -187 -136 -313.5t-374 -126.5q-92 0 -218 26q-1 -156 -1 -223q0 -254 10 -295q4 -17 19 -26 q28 -16 188 -39q14 -2 40 -8v-59q-190 11 -355 11q-156 0 -320 -11zM464 723q106 -24 182 -24q164 0 253.5 86t89.5 229q0 139 -82.5 217t-252.5 78q-75 0 -181 -16q-8 -302 -9 -570z" />
<glyph unicode="Q" horiz-adv-x="1622" d="M95 678q0 340 209.5 550t542.5 210q199 0 353.5 -79t241.5 -241.5t87 -382.5q0 -340 -197 -550t-489 -210q-85 0 -204 25l336 -133q123 -45 217.5 -66t167.5 -21q105 0 274 53l28 -58q-186 -101 -247.5 -125t-102.5 -24q-93 0 -191 36q-173 65 -446 228 q-155 93 -246.5 126t-244.5 54v77q60 -7 128 -24q-97 79 -157 224.5t-60 330.5zM316 729q0 -334 156 -518q131 -154 345 -154q155 0 270 78t172 228.5t57 326.5q0 194 -66 350.5t-184 227.5t-256 71q-136 0 -249.5 -67.5t-179 -215.5t-65.5 -327z" />
<glyph unicode="R" horiz-adv-x="1473" d="M39 -11v59l43 9q143 27 162.5 44.5t22.5 62.5q2 29 5 514l-4 470q-1 108 -5.5 124t-19.5 24q-49 26 -155 43q-16 3 -49 10v59q265 -11 425 -11q92 0 172 2q106 4 147 4q195 0 294 -92q98 -93 98 -251q0 -106 -44.5 -187.5t-128.5 -137.5q-61 -40 -174 -71l333 -434 q62 -81 78 -95q25 -21 65 -36q56 -22 189 -51v-59q-158 11 -230 11q-83 0 -170 -11q-45 75 -122 188.5t-94 134.5q-10 12 -19 25l-220 302q-89 2 -180 13l8 -504q2 -30 18 -45q24 -20 150 -43q18 -3 55 -12v-59q-181 11 -319 11q-148 0 -331 -11zM458 737q104 -11 161 -11 q182 0 269.5 81t87.5 225q0 126 -77.5 199t-225.5 73q-53 0 -209 -12z" />
<glyph unicode="S" horiz-adv-x="1130" d="M112 39q14 141 14 374h77q33 -150 68.5 -210t107.5 -98.5t158 -38.5q118 0 207 66t89 185q0 97 -64 172q-65 74 -281.5 167.5t-289.5 179.5q-73 85 -73 203q0 103 59 196.5t173.5 148t237.5 54.5q148 0 358 -71q-5 -146 -5 -176q0 -61 5 -165h-76q-26 128 -59 187 t-100.5 92.5t-151.5 33.5q-119 0 -189.5 -66t-70.5 -160q0 -83 58 -145q57 -62 278.5 -157t301.5 -196q79 -102 79 -229q0 -114 -59.5 -212t-179 -156.5t-257.5 -58.5q-94 0 -188.5 18t-226.5 62z" />
<glyph unicode="T" horiz-adv-x="1343" d="M42 1018q19 174 34 390q443 -11 632 -11q157 0 572 11q13 -223 30 -390h-75q-47 183 -61 214.5t-40.5 45t-134.5 13.5h-222q-8 -266 -8 -658q0 -364 8 -492q2 -30 15 -41q17 -14 165 -43q14 -2 42 -9v-59q-198 11 -353 11q-147 0 -301 -11v59q35 9 53 12q137 23 158 39 q9 8 13.5 22.5t7.5 221.5q4 320 4 474q0 269 -4 474h-238l-43 -1q-57 0 -75 -12q-28 -17 -50 -72q-17 -42 -52 -188h-77z" />
<glyph unicode="U" horiz-adv-x="1642" d="M28 1349v59q186 -11 321 -11q141 0 325 11v-59q-31 -7 -47 -10q-141 -22 -159 -38t-20 -67q-6 -136 -6 -512q0 -251 13.5 -341t66 -154t144.5 -98.5t196 -34.5q157 0 254.5 65t129 173.5t31.5 424.5q0 418 -7 493q-3 33 -19 46.5t-150 42.5q-14 3 -43 10v59 q196 -11 298 -11q115 0 262 11v-59q-28 -8 -42 -11q-133 -27 -151 -42t-22 -52q-10 -79 -12 -466q-1 -299 -11 -380q-13 -112 -47 -180.5t-104.5 -130t-161.5 -90.5q-120 -38 -251 -38q-146 0 -260.5 36t-177.5 97.5t-94 145t-31 242.5l4 454q0 253 -2 285q-4 49 -15 66 q-8 14 -24 21q-12 6 -139 31q-16 3 -49 12z" />
<glyph unicode="V" horiz-adv-x="1430" d="M15 1349v59q216 -11 284 -11q97 0 284 11v-59q-18 -5 -27 -7q-98 -24 -115.5 -38.5t-17.5 -33.5q0 -10 3 -22q18 -73 150 -433l190 -523q123 318 215 589q116 339 124 376q2 8 2 14q0 19 -15 31q-22 17 -146 50v56q6 0 72 -3q154 -8 198 -8q85 0 203 11v-56 q-104 -27 -132 -47.5t-58 -89.5q-61 -138 -307 -814l-161 -442h-66q-130 381 -317 859q-156 398 -178 439q-15 27 -36 41.5t-149 50.5z" />
<glyph unicode="W" horiz-adv-x="2134" d="M18 1349v59q231 -11 295 -11q85 0 273 11v-59q-119 -30 -139.5 -46t-20.5 -39q0 -21 42 -146q186 -565 290 -831l274 737q-67 183 -90.5 224t-48.5 56t-142 45v59q186 -11 288 -11q107 0 279 11v-59l-36 -9q-83 -16 -107 -35q-15 -13 -15 -39q0 -11 2 -21q6 -26 111 -330 l215 -611q69 190 166 486l149 456q3 14 3 25q0 18 -11 26.5t-149 51.5v59q186 -11 243 -11q68 0 229 11v-59q-114 -30 -142 -52q-18 -15 -34 -50q-26 -57 -234 -643q-6 -15 -220 -645h-69l-246 685q-33 92 -88 231q-133 -343 -334 -916h-72q-164 476 -356 1001 q-95 260 -122 304q-14 23 -36 38q-33 21 -147 47z" />
<glyph unicode="X" horiz-adv-x="1536" d="M45 -11v59q114 24 156 52.5t163 180.5q219 275 317 412q-97 149 -310 446q-85 118 -122 143.5t-188 66.5v59q156 -11 287 -11q134 0 333 11v-59q-122 -27 -146 -44q-13 -9 -13 -21q0 -16 33 -70q141 -229 240 -365q161 217 286 405q22 33 22 42q0 10 -13 19t-130 34v59 q168 -11 263 -11q105 0 242 11v-59q-126 -25 -170 -52.5t-138 -145.5q-182 -231 -298 -396q86 -136 224 -332l206 -291q16 -18 40 -32q37 -21 157 -52v-59q-177 11 -284 11q-100 0 -312 -11v59q131 35 142 43t11 23q0 23 -28 69q-142 232 -272 415q-121 -150 -301 -413 q-37 -55 -37 -70q0 -16 15 -28t105 -32q10 -2 29 -7v-59q-146 11 -281 11q-124 0 -228 -11z" />
<glyph unicode="Y" horiz-adv-x="1536" d="M23 1349v59q158 -11 281 -11q120 0 294 11v-59q-115 -29 -132.5 -42t-17.5 -27q0 -13 17 -42q90 -156 342 -543q126 200 329 546q21 35 21 48q0 14 -11 21q-32 20 -140 39v59q183 -11 266 -11q100 0 246 11v-59q-123 -24 -174 -56.5t-121 -136.5q-152 -226 -361 -560 q-1 -50 -1 -59q0 -348 4 -383.5t22 -51.5q28 -22 168 -47q12 -2 35 -7v-59q-186 11 -301 11q-92 0 -341 -11v59q35 7 52 10q124 20 150 40q15 12 23 60.5t8 281.5l-1 134q-84 134 -278 422l-182 264q-20 23 -49 39q-45 25 -148 50z" />
<glyph unicode="Z" horiz-adv-x="1343" d="M88 -11v66q128 163 222 289q154 207 694 951h-508q-114 0 -154.5 -33.5t-77.5 -178.5q-5 -18 -16 -54h-71q19 129 32 380q406 -12 517 -12q263 0 539 12v-61q-96 -123 -173.5 -226t-272.5 -374l-306 -423q-102 -138 -160 -223h609q104 0 141 35t91 182q8 21 24 62h72 l-45 -235l-27 -157q-356 11 -483 11q-198 0 -647 -11z" />
<glyph unicode="[" horiz-adv-x="662" d="M203 -418q5 398 5 938q0 504 -5 927q148 -7 206 -7q67 0 194 7v-96h-237v-1673h237v-96q-121 7 -191 7q-68 0 -209 -7z" />
<glyph unicode="\" horiz-adv-x="1087" d="M116 1426h136l720 -1463h-136z" />
<glyph unicode="]" horiz-adv-x="662" d="M58 -322h237v1673h-237v96q121 -7 191 -7q68 0 209 7q-5 -398 -5 -938q0 -504 5 -927q-148 7 -206 7q-66 0 -194 -7v96z" />
<glyph unicode="^" horiz-adv-x="961" d="M37 667l431 717h30l425 -717h-92l-350 586l-350 -586h-94z" />
<glyph unicode="_" horiz-adv-x="1024" d="M-12 -154h1048v-102h-1048v102z" />
<glyph unicode="`" horiz-adv-x="682" d="M119 1408l14 19q91 -2 98 -2q35 0 105 2q57 -165 125 -349h-59q-137 177 -283 330z" />
<glyph unicode="a" horiz-adv-x="1004" d="M73 215q0 64 24 115.5t69 90.5q35 29 118 70q195 95 340 153q-5 141 -47 187t-129 46q-82 0 -140.5 -50.5t-104.5 -158.5l-65 7q20 104 28 207q195 88 352 88q68 0 123 -19.5t87 -54t48.5 -82.5t16.5 -153l-9 -413q0 -84 19 -110t49 -26q36 0 113 54l31 -41 q-141 -126 -154 -134q-28 -16 -70 -16q-65 0 -100.5 32.5t-47.5 109.5q-120 -93 -178 -117.5t-126 -24.5q-111 0 -179 67.5t-68 172.5zM254 258q0 -75 41 -120t96 -45q57 0 123.5 37.5t88 84.5t21.5 171v171q-261 -117 -315.5 -170.5t-54.5 -128.5z" />
<glyph unicode="b" horiz-adv-x="1044" d="M-24 1270v56q195 60 327 133l26 -23q-27 -197 -27 -590l1 -85q150 157 195 182.5t126 25.5q95 0 178 -46t127.5 -142t44.5 -225q0 -250 -167 -420.5t-402 -170.5q-130 0 -273 69q15 341 15 888l-2 203v46q0 69 -15 90t-44 21q-31 0 -110 -12zM303 126q94 -54 190 -54 q135 0 220.5 98.5t85.5 298.5q0 175 -70.5 262t-169.5 87q-61 0 -115 -32t-90.5 -86t-45.5 -105q-5 -30 -5 -157v-312z" />
<glyph unicode="c" horiz-adv-x="918" d="M68 433q0 239 150 393t370 154q150 0 289 -77q-7 -34 -20 -88q-17 -71 -38 -181l-67 5q-4 126 -63.5 186.5t-162.5 60.5q-74 0 -142 -40.5t-106.5 -132t-38.5 -207.5q0 -186 90.5 -290.5t209.5 -104.5q125 0 301 99l37 -60q-157 -116 -261 -163q-50 -22 -122 -22 q-175 0 -283 102q-143 135 -143 366z" />
<glyph unicode="d" horiz-adv-x="1110" d="M83 414q0 144 49 248q37 80 107 151.5t156.5 114t173.5 42.5q40 0 89 -10t107 -30q2 50 2 58q0 235 -9 260q-12 37 -66 37q-18 0 -64 -7q-12 -2 -35 -5v55q108 31 157 50.5t166 80.5l25 -20q-22 -232 -22 -864q0 -350 9 -390t60 -40q30 0 106 13v-54q-209 -62 -324 -129 l-25 19q12 75 15 150q-125 -113 -183.5 -141t-139.5 -28q-153 0 -253.5 114.5t-100.5 324.5zM251 497q0 -188 81 -286.5t194 -98.5q75 0 137 43t82 104t20 239q0 197 -9 228q-17 60 -78.5 101.5t-152.5 41.5q-114 0 -194 -94.5t-80 -277.5z" />
<glyph unicode="e" horiz-adv-x="938" d="M74 450q0 240 138.5 385t338.5 145q155 0 239.5 -85.5t86.5 -261.5q-42 -24 -77 -59q-71 1 -89 1q-265 0 -461 -8v-6q0 -220 76 -333q77 -116 206 -116q65 0 136 25.5t177 93.5l38 -59l-199 -147q-41 -28 -85 -41q-64 -19 -131 -19q-163 0 -278.5 131t-115.5 354z M263 651q37 -1 56 -1q164 0 380 19q-6 99 -44 150q-56 75 -151 75q-82 0 -146 -56.5t-95 -186.5z" />
<glyph unicode="f" horiz-adv-x="618" d="M52 -11v56q123 28 135 50q16 29 16 390q0 176 3 353q-73 -2 -144 -9v48q74 30 144 72q1 172 10 212q15 72 74 143t155 119q69 36 149 36q60 0 111 -14t130 -54q-38 -104 -69 -214l-55 7q-15 100 -58.5 141t-114.5 41q-62 0 -102.5 -39t-56.5 -119q-11 -53 -11 -215 q0 -20 1 -59q71 -2 85 -2l170 2l13 -13q-31 -43 -51 -92q-110 7 -217 9q-2 -143 -2 -372l2 -261v-12q0 -79 16.5 -97t128.5 -43q12 -3 34 -8v-56q-135 11 -232 11q-85 0 -264 -11z" />
<glyph unicode="g" horiz-adv-x="1004" d="M25 -209q0 41 15 69q7 12 49 40l158 112q-70 14 -104.5 52t-34.5 85q0 32 20 47q52 40 162 141q-85 44 -127.5 113.5t-42.5 164.5q0 152 107.5 253.5t293.5 101.5q44 0 91.5 -8.5t99.5 -26.5q54 1 84 1q137 0 195 5l9 -14q-23 -45 -45 -94q-74 9 -154 10q64 -102 64 -200 q0 -144 -105 -241t-294 -97q-50 0 -107 11q-75 -70 -75 -103q0 -27 25 -40q43 -23 221 -23l176 3q156 0 215 -52t59 -155q0 -144 -122 -238q-178 -138 -457 -138q-195 0 -285.5 69t-90.5 152zM199 -185q0 -53 55 -93q75 -55 213 -55q156 0 257.5 58.5t101.5 159.5 q0 60 -40.5 92.5t-153.5 32.5l-42 -1h-252q-80 -68 -109.5 -112.5t-29.5 -81.5zM297 659q0 -143 58 -214t142 -71q79 0 131 61t52 179q0 147 -55.5 215t-141.5 68q-79 0 -132.5 -60t-53.5 -178z" />
<glyph unicode="h" horiz-adv-x="1130" d="M27 1275v58q132 39 195 64t126 62l25 -15q-9 -79 -13 -208q-9 -267 -9 -368q0 -29 1 -99l131 127q38 32 79 47q57 20 119 20q115 0 183 -58t80 -161q7 -59 7 -557q0 -77 15.5 -95t111.5 -40q11 -2 31 -7v-56q-179 11 -254 11q-98 0 -230 -11v56l121 37q11 5 19.5 16 t12.5 36q4 19 5 108l7 288q0 140 -17.5 187.5t-61 77t-99.5 29.5q-75 0 -141 -44.5t-91.5 -112t-25.5 -230.5q0 -226 9 -290q6 -43 19.5 -55t105.5 -37q11 -3 34 -10v-56q-147 11 -242 11q-98 0 -241 -11v56q21 6 32 9q90 24 102.5 37t16.5 89q7 125 7 486q0 555 -14 587 t-60 32q-29 0 -96 -10z" />
<glyph unicode="i" horiz-adv-x="575" d="M56 -11v56q135 33 152 60.5t17 287.5l-1 213v41q0 112 -15 135t-48 23q-21 0 -105 -9v56q168 43 316 128l26 -21q-20 -212 -20 -601q0 -182 9 -224q6 -28 21 -40.5t104 -38.5q11 -3 33 -10v-56q-131 11 -215 11q-51 0 -274 -11zM201 1356q0 44 30.5 74.5t73.5 30.5 q44 0 74.5 -30.5t30.5 -74.5q0 -43 -30.5 -74t-74.5 -31q-43 0 -73.5 31t-30.5 74z" />
<glyph unicode="j" horiz-adv-x="532" d="M-140 -400q24 104 31 219l64 -4q15 -93 41 -120.5t67 -27.5q53 0 86.5 43t42.5 198q4 72 4 526l-3 277q0 59 -15 76t-52 17q-18 0 -68 -6q-11 -2 -34 -4v57q90 23 159.5 50.5t162.5 78.5l28 -23q-18 -232 -18 -477l2 -400q0 -200 -43.5 -297t-138 -155t-189.5 -58 q-58 0 -127 30zM181 1352q0 43 31 74t74 31q44 0 75 -31t31 -74q0 -44 -31 -75t-75 -31q-43 0 -74 31t-31 75z" />
<glyph unicode="k" horiz-adv-x="1044" d="M22 1269v54q186 60 320 133l24 -21q-11 -140 -15 -283.5t-4 -637.5l244 234q59 56 73 75q10 13 10 24q0 13 -11.5 22.5t-56.5 13.5v55q134 -11 200 -11q48 0 212 11v-55q-132 -30 -173.5 -52t-154.5 -124l-172 -154l283 -353q62 -77 106 -104t157 -54v-53 q-137 11 -209 11q-50 0 -249 -11v56q52 12 59 18q9 8 9 19t-8 24q-12 21 -97 127l-222 281q0 -294 6 -361q3 -40 21 -58t101 -38q15 -3 43 -12v-56q-151 11 -226 11q-51 0 -260 -11v56q119 24 134.5 39.5t19.5 101.5q4 114 4 642l-2 278q0 13 0.5 26.5t0.5 28.5 q0 79 -15.5 98t-55.5 19q-33 0 -96 -9z" />
<glyph unicode="l" horiz-adv-x="555" d="M30 -11v56q136 42 148 54t15 58q3 61 3 551l-2 475v14q0 55 -15 72t-47 17q-27 0 -102 -13v55q178 57 322 131l27 -18q-24 -188 -24 -699q0 -516 4 -570.5t22.5 -73t144.5 -53.5v-56q-161 11 -250 11q-95 0 -246 -11z" />
<glyph unicode="m" horiz-adv-x="1729" d="M43 786v57q186 51 318 127l24 -21q-14 -80 -17 -172l145 134q27 24 66 39q54 20 114 20q111 0 185 -60q53 -43 75 -133q111 124 162 152q76 41 167 41q75 0 136.5 -31.5t89 -73t35.5 -88t8 -152.5l-2 -274q0 -205 8 -239q5 -22 21 -32.5t133 -34.5v-56q-126 11 -214 11 q-77 0 -269 -11v56q19 6 29 9q90 26 103.5 40.5t18.5 83.5q10 139 10 316q0 170 -14.5 222.5t-57.5 82.5t-105 30q-86 0 -153.5 -51.5t-88.5 -132.5q-12 -43 -12 -270q0 -259 16 -283t146 -47v-56q-130 11 -237 11q-110 0 -243 -11v56l26 7q94 25 106 44q22 34 23 187l6 296 q0 143 -46 197.5t-131 54.5q-71 0 -137 -42t-97 -113q-24 -54 -24 -184l2 -174q0 -195 14 -217.5t119 -47.5q12 -2 34 -8v-56q-120 11 -216 11q-89 0 -261 -11v56q118 24 133 41q18 23 18 148v27l4 293q0 191 -15.5 217.5t-53.5 26.5q-30 0 -101 -12z" />
<glyph unicode="n" horiz-adv-x="1130" d="M28 785v58q180 42 326 127l27 -17q-14 -85 -17 -175l127 126q32 28 75 44q59 22 123 22q143 0 216 -95q49 -63 49 -217l-3 -242q0 -243 6 -287q5 -30 19 -42t95 -31q15 -4 45 -11v-56q-118 11 -210 11q-80 0 -274 -11v56q116 34 130.5 46t17.5 39q11 99 11 303 q0 218 -9 263q-14 66 -59 102t-108 36q-66 0 -130 -38.5t-94.5 -103.5t-30.5 -192q0 -360 15 -389.5t117 -55.5q13 -3 38 -10v-56q-134 11 -225 11q-88 0 -262 -11v56q118 28 134 41q10 8 14 42q11 95 11 259q0 339 -7 368q-11 42 -59 42q-22 0 -69 -7q-13 -2 -39 -5z" />
<glyph unicode="o" horiz-adv-x="1110" d="M77 456q0 242 137 383t360 141q211 0 334.5 -127t123.5 -355q0 -246 -138.5 -389.5t-358.5 -143.5q-213 0 -335.5 128t-122.5 363zM269 543q0 -164 21 -242q33 -126 104.5 -189.5t166.5 -63.5q123 0 202 93.5t79 300.5q0 232 -89.5 343.5t-210.5 111.5 q-120 0 -196.5 -87.5t-76.5 -266.5z" />
<glyph unicode="p" horiz-adv-x="1087" d="M7 -385l48 12q86 19 104 39t21 80q2 40 2 462l-3 415l1 33q0 100 -15 124q-9 15 -36 15q-29 0 -116 -9v56q207 60 314 126l33 -20q-14 -87 -18 -191q127 145 191 184q48 29 124 29q159 0 260.5 -110.5t101.5 -314.5q0 -165 -68 -290.5t-193.5 -204.5t-240.5 -79 q-37 0 -81.5 11t-95.5 32q3 -266 9 -313q4 -26 19 -38.5t115 -36.5q14 -3 42 -11v-55q-155 11 -243 11q-71 0 -275 -11v55zM337 171q55 -48 112.5 -72.5t118.5 -24.5q111 0 195.5 97.5t84.5 277.5q0 185 -85 291q-63 80 -164 80q-66 0 -131 -40t-96 -103.5t-33 -159.5z" />
<glyph unicode="q" horiz-adv-x="1067" d="M75 412q0 267 192 435q142 123 303 123q50 0 112 -17t137 -52q45 28 88 69l35 -19q-16 -76 -19 -136q-6 -115 -6 -576q0 -467 8 -536q3 -30 16 -41q22 -18 111 -37q13 -2 38 -10v-55q-144 11 -236 11q-63 0 -280 -11v55l57 13q83 17 104 40.5t21 85.5l1 386 q-110 -103 -179.5 -137t-152.5 -34q-144 0 -247 117t-103 326zM245 499q0 -190 81.5 -289t191.5 -99q77 0 138.5 42t84.5 106q16 47 16 194v180q0 102 -47 159q-72 86 -189 86q-109 0 -192.5 -99.5t-83.5 -279.5z" />
<glyph unicode="r" horiz-adv-x="725" d="M32 -11v56q137 34 154.5 52.5t17.5 99.5l2 217q0 319 -6 343q-10 40 -56 40q-26 0 -86 -10q-9 -1 -26 -3v57q187 47 319 129l26 -19q-16 -97 -19 -212q121 147 169 180t113 33q43 0 96 -21q-22 -102 -36 -208h-50q-9 48 -30 69.5t-47 21.5q-40 0 -86 -37 q-68 -55 -98.5 -126.5t-30.5 -202.5q0 -232 13 -312q5 -30 27.5 -47t141.5 -44v-56q-125 11 -227 11q-85 0 -281 -11z" />
<glyph unicode="s" horiz-adv-x="788" d="M82 20q16 141 16 258h69q29 -118 88.5 -169t146.5 -51q78 0 121 39.5t43 100.5q0 59 -42 109q-43 50 -191 124t-197 134q-50 60 -50 136q0 108 97.5 193.5t259.5 85.5q113 0 244 -53q-14 -81 -27 -229l-70 6q-7 88 -62.5 139t-138.5 51q-72 0 -114.5 -38.5t-42.5 -88.5 q0 -44 33 -82q46 -52 198 -127t205 -141q52 -67 52 -152q0 -122 -98 -211t-268 -89q-123 0 -272 55z" />
<glyph unicode="t" horiz-adv-x="618" d="M25 834v54q84 38 145.5 104t123.5 198h58l-23 -255l277 3l8 -16q-25 -41 -46 -88q-118 6 -239 8l-9 -514v-6q0 -119 26.5 -171.5t90.5 -52.5q53 0 140 45l29 -57q-109 -68 -166 -89.5t-99 -21.5q-66 0 -112 34.5t-61 95.5q-9 34 -9 208q0 186 11 529q-70 -2 -145 -8z" />
<glyph unicode="u" horiz-adv-x="1130" d="M7 852v56q182 10 335 44l25 -19q-21 -173 -21 -420q0 -215 13.5 -274.5t58.5 -93.5t108 -34q72 0 135.5 39t88.5 99t25 185q0 15 -6 337q-5 43 -25.5 58t-113.5 20l-36 3v56q214 16 334 44l26 -19q-9 -83 -13.5 -207.5t-4.5 -290.5q0 -209 11 -248t56 -39q26 0 105 12 v-56q-103 -27 -173.5 -55t-149.5 -74l-30 22q13 74 15 148q-118 -110 -177 -140t-132 -30q-138 0 -206 68q-69 67 -69 205v350q-1 187 -21.5 215t-122.5 35q-12 1 -35 4z" />
<glyph unicode="v" horiz-adv-x="1024" d="M14 890v56q123 -11 210 -11q81 0 238 11v-56q-15 -3 -23 -4q-65 -11 -79 -23t-14 -29v-10q2 -9 14 -43q57 -167 84 -235l119 -301q33 80 134 344q63 164 69.5 192.5t6.5 49.5q0 18 -9 28q-13 14 -48 23q-10 3 -28 8v56l39 -3q112 -8 164 -8q50 0 131 11v-56 q-97 -29 -121 -68q-32 -53 -344 -857h-60q-253 650 -330 812q-26 55 -52 75q-19 15 -101 38z" />
<glyph unicode="w" horiz-adv-x="1556" d="M12 890v56q134 -11 219 -11q84 0 232 11v-56q-90 -17 -106 -30q-13 -9 -13 -32q0 -11 3 -22q9 -38 75 -218l131 -352q14 35 205 480q-42 108 -65 130.5t-109 43.5v56q167 -11 232 -11q66 0 218 11v-56q-78 -12 -105 -32q-15 -11 -15 -31q0 -15 4 -34q11 -43 70 -204 q84 -227 124 -326q188 519 188 562q0 23 -13 36.5t-71 28.5v56q113 -11 168 -11q47 0 166 11v-56q-63 -15 -89 -35t-42 -49t-110 -283l-204 -558h-61l-237 632l-263 -632h-64l-175 461q-135 344 -151.5 374t-37.5 47q-29 22 -104 43z" />
<glyph unicode="x" horiz-adv-x="1067" d="M24 -11v56q83 14 116 42.5t324 389.5q-31 52 -167 252q-57 83 -91.5 109t-129.5 52v56q122 -11 213 -11q89 0 230 11v-56q-16 -3 -25 -4q-37 -6 -55 -19q-9 -7 -9 -19q0 -43 140 -240q86 102 135 186q26 42 26 58q0 14 -9 20q-14 12 -51 16l-14 2v56q85 -11 163 -11 q70 0 185 11v-56q-63 -6 -94.5 -24t-70.5 -66l-220 -271q254 -387 292 -426q28 -29 129 -58v-56q-135 11 -223 11q-95 0 -215 -11v56q12 3 19 4q52 11 65 23q11 9 11 23q0 18 -14 44q-35 68 -165 258q-220 -259 -220 -303q0 -15 10 -23q21 -15 76 -23q7 -1 19 -3v-56 q-117 11 -187 11q-73 0 -193 -11z" />
<glyph unicode="y" horiz-adv-x="1044" d="M14 890v56q155 -11 225 -11q53 0 225 11v-56q-88 -15 -108 -31q-14 -10 -14 -26q0 -20 32 -100q108 -269 211 -479l105 299q89 238 89 276q0 19 -9 28q-13 14 -49 24q-10 3 -28 9v56q126 -11 183 -11q69 0 152 11v-56q-77 -19 -104 -47.5t-103 -227.5l-195 -520 q-85 -242 -129 -321q-57 -104 -130 -154t-140 -50q-35 0 -92 12q-15 61 -26 89t-40 82l38 27q76 -67 150 -67q71 0 121 51q71 71 124 257l-195 446q-92 212 -158 333q-21 38 -38 51q-25 20 -97 39z" />
<glyph unicode="z" horiz-adv-x="981" d="M62 -11v56l168 213l451 586l-252 -6q-109 -3 -137 -11t-45 -27t-46 -116q-3 -10 -10 -31h-63q10 106 13 293q189 -11 395 -11t373 11v-67q-486 -606 -612 -786l387 7q54 5 77.5 29t50.5 147q2 11 8 33h70l-10 -144l-3 -176q-190 11 -337 11q-100 0 -478 -11z" />
<glyph unicode="{" horiz-adv-x="981" d="M283 470v41q107 14 167.5 76.5t60.5 138.5q0 48 -23 144.5t-23 164.5q0 139 104.5 252t271.5 135v-35q-118 -29 -172 -92t-54 -145q0 -52 22.5 -150t22.5 -163q0 -102 -74 -197t-221 -147q144 -54 219.5 -150.5t75.5 -198.5q0 -66 -22.5 -163.5t-22.5 -150.5 q0 -81 54 -144.5t172 -92.5v-35q-167 23 -271.5 135.5t-104.5 253.5q0 67 23 163.5t23 145.5q0 75 -60.5 137.5t-167.5 76.5z" />
<glyph unicode="|" horiz-adv-x="1087" d="M478 -277v1703h132v-1703h-132z" />
<glyph unicode="}" horiz-adv-x="981" d="M177 -407q118 29 172 92.5t54 145.5q0 52 -23 149.5t-23 163.5q0 102 74.5 197t221.5 147q-144 53 -220 150t-76 199q0 65 23 163t23 151q0 81 -54 144t-172 92v35q167 -22 271.5 -135t104.5 -253q0 -68 -23 -164t-23 -145q0 -75 60.5 -137.5t167.5 -76.5v-41 q-107 -14 -167.5 -76.5t-60.5 -138.5q0 -48 23 -144.5t23 -164.5q0 -139 -104.5 -252t-271.5 -136v35z" />
<glyph unicode="~" d="M143 513q8 153 79 228.5t171 75.5q50 0 98 -13q102 -29 267.5 -100.5t231.5 -71.5q72 0 121.5 47t59.5 137h52q-4 -146 -78 -225.5t-181 -79.5q-51 0 -107 16.5t-268 103.5q-149 62 -213 62q-70 0 -116.5 -42.5t-64.5 -137.5h-52z" />
<glyph unicode="&#xa1;" horiz-adv-x="575" d="M165 -406q49 376 93 1048h76q20 -454 62 -983q-104 -38 -202 -88zM184 933q0 46 32.5 78.5t79.5 32.5q46 0 78.5 -32.5t32.5 -78.5t-32.5 -78.5t-78.5 -32.5t-79 32.5t-33 78.5z" />
<glyph unicode="&#xa2;" horiz-adv-x="918" d="M62 662q0 201 109.5 345.5t279.5 186.5v236h94v-222q20 1 31 1q134 0 295 -82q-37 -152 -58 -264h-67q-3 123 -54.5 182.5t-146.5 68.5v-771q133 10 288 99l38 -63q-225 -166 -326 -181v-233h-94v230q-169 10 -279 135t-110 332zM233 735q0 -153 63 -251.5t155 -129.5 v752q-97 -26 -150 -106q-68 -104 -68 -265z" />
<glyph unicode="&#xa3;" horiz-adv-x="1087" d="M84 31q162 112 219 212t57 258q0 85 -16 191q-100 -1 -205 -16l-17 16q28 50 50 99q75 -5 160 -5q-23 129 -23 216q0 184 123.5 307t306.5 123q159 0 293 -115q-63 -96 -108 -203l-56 12q-1 119 -47.5 170.5t-120.5 51.5q-88 0 -146.5 -63.5t-58.5 -185.5q0 -86 30 -313 q208 1 277 7l12 -18q-30 -45 -51 -99q-102 12 -230 16q9 -95 9 -162q0 -127 -35 -196t-175 -196q115 60 189 60q52 0 150 -34.5t137 -34.5q44 0 77 19q46 28 128 111l50 -47q-109 -133 -131 -155q-58 -61 -101 -84q-27 -14 -63 -14q-62 0 -191 50.5t-194 50.5 q-97 0 -261 -101z" />
<glyph unicode="&#xa4;" horiz-adv-x="1409" d="M216 265l127 125q-48 69 -69.5 132.5t-21.5 139.5q0 77 21.5 140.5t69.5 132.5l-127 126l89 90l127 -126q67 45 135 67.5t137 22.5q75 0 139 -21.5t134 -69.5l127 127l88 -90l-126 -127q90 -131 90 -272q0 -76 -21.5 -139t-68.5 -132l126 -126l-88 -89l-127 126 q-69 -48 -132.5 -69.5t-140.5 -21.5t-140 21.5t-132 68.5l-126 -125zM379 663q0 -135 95 -230.5t230 -95.5t230 95.5t95 230.5q0 134 -95 229.5t-230 95.5t-230 -95.5t-95 -229.5z" />
<glyph unicode="&#xa5;" horiz-adv-x="1536" d="M23 1349v59q158 -11 281 -11q120 0 294 11v-59q-115 -29 -132.5 -42t-17.5 -27q0 -18 61 -113q18 -28 53 -85h479q35 63 55 93q61 94 61 115q0 13 -11 20q-32 20 -140 39v59q183 -11 266 -11q100 0 246 11v-59q-109 -21 -155 -46t-79 -63q-15 -18 -109 -158h282v-93h-343 q-26 -40 -138 -214h481v-92h-540l-55 -87q-1 -50 -1 -59q0 -348 4 -383.5t22 -51.5q28 -22 168 -47q12 -2 35 -7v-59q-186 11 -301 11q-92 0 -341 -11v59q35 7 52 10q124 20 150 40q15 12 23 60.5t8 281.5l-1 134l-69 109h-528v92h466l-143 214h-323v93h261 q-105 154 -121 174q-22 26 -53 44q-45 24 -147 49zM619 989l188 -294l178 294h-366z" />
<glyph unicode="&#xa6;" horiz-adv-x="1087" d="M478 -277v723h132v-723h-132zM478 701v725h132v-725h-132z" />
<glyph unicode="&#xa7;" horiz-adv-x="897" d="M73 506q0 99 59 187.5t198 182.5q-135 114 -166 162.5t-31 114.5q0 124 97.5 215t250.5 91q93 0 174.5 -34t152.5 -103q-63 -104 -110 -205l-68 31q10 51 10 80q0 68 -44.5 110.5t-120.5 42.5q-75 0 -126.5 -50.5t-51.5 -117.5q0 -51 37 -103q36 -53 211 -199 t227.5 -231.5t52.5 -171.5q0 -197 -250 -361q112 -99 152 -163t40 -116q0 -113 -101.5 -205t-256.5 -92q-182 0 -320 137q61 91 114 189l63 -24q-12 -50 -12 -77q0 -60 48 -104.5t119 -44.5q79 0 129.5 49t50.5 122q0 53 -35 104q-36 51 -196 179q-189 152 -253 253 q-44 69 -44 152zM232 563q0 -63 53 -141t228 -226q79 72 114 135.5t35 130.5q0 63 -54 145t-218 220q-158 -125 -158 -264z" />
<glyph unicode="&#xa8;" horiz-adv-x="682" d="M68 1250q0 43 30 73.5t74 30.5q43 0 73 -30.5t30 -73.5t-30.5 -73.5t-72.5 -30.5q-43 0 -73.5 30.5t-30.5 73.5zM410 1249q0 43 29.5 73t72.5 30t73 -30t30 -73q0 -42 -30 -72.5t-73 -30.5q-42 0 -72 30.5t-30 72.5z" />
<glyph unicode="&#xa9;" horiz-adv-x="1556" d="M69 678q0 185 95.5 355.5t265.5 262t348 91.5q179 0 349 -91.5t265.5 -262t95.5 -355.5q0 -184 -94 -353t-263 -262.5t-353 -93.5t-352.5 93.5t-262.5 262.5t-94 353zM131 678q0 -168 85.5 -322t239.5 -240t322 -86t322.5 86t240 240t85.5 322q0 169 -87 324.5 t-242 239.5t-319 84q-163 0 -318 -84t-242 -239.5t-87 -324.5zM320 672q0 192 140 327.5t358 135.5q46 0 76.5 -6t108.5 -32q25 -8 37 -8q16 0 27 8.5t22 36.5h40l20 -280h-39q-36 119 -114.5 177.5t-188.5 58.5q-83 0 -147 -34t-104 -91q-30 -43 -50 -114t-20 -150 q0 -212 91 -312.5t240 -100.5q195 0 312 162l37 -19q-139 -203 -383 -203q-200 0 -331.5 129.5t-131.5 314.5z" />
<glyph unicode="&#xaa;" horiz-adv-x="682" d="M55 986q0 53 29.5 92t116.5 78q123 56 206 86q-2 78 -25.5 103t-74.5 25q-48 0 -83 -28.5t-65 -95.5l-64 6q14 67 20 131q132 55 237 55q97 0 143 -44q45 -45 45 -145l-6 -243q0 -47 9.5 -60.5t22.5 -13.5q19 0 75 37l30 -37q-97 -79 -104 -83q-21 -11 -53 -11 q-44 0 -69.5 19t-33.5 54q-78 -50 -109.5 -61.5t-75.5 -11.5q-79 0 -125 43t-46 105zM195 1012q0 -42 22.5 -66.5t52.5 -24.5q36 0 75 21.5t51 47.5t12 97v88q-150 -62 -181.5 -91.5t-31.5 -71.5z" />
<glyph unicode="&#xab;" horiz-adv-x="874" d="M50 464l241 278q35 42 79 96h84l-215 -374l215 -372h-84q-170 209 -320 372zM421 464q37 45 110 128q114 131 210 246h85l-216 -374l216 -372h-85z" />
<glyph unicode="&#xac;" d="M139 826v131h1088v-591h-132v460h-956z" />
<glyph unicode="&#xad;" horiz-adv-x="597" d="M55 398q22 68 40 140q128 -2 192 -2q143 0 251 15l12 -13q-30 -75 -49 -153q-114 5 -194 5q-75 0 -239 -5z" />
<glyph unicode="&#xae;" horiz-adv-x="1556" d="M69 678q0 185 95.5 355.5t265.5 262t348 91.5q179 0 349 -91.5t265.5 -262t95.5 -355.5q0 -184 -94 -353t-263 -262.5t-353 -93.5t-352.5 93.5t-262.5 262.5t-94 353zM131 678q0 -168 85.5 -322t239.5 -240t322 -86t322.5 86t240 240t85.5 322q0 169 -87 324.5 t-242 239.5t-319 84q-163 0 -318 -84t-242 -239.5t-87 -324.5zM374 249v33q50 0 70.5 13t29.5 39q4 13 4 86v523q0 74 -3 87q-7 23 -25.5 35.5t-63.5 12.5v36h386q145 0 221 -65.5t76 -158.5q0 -76 -51.5 -133.5t-170.5 -88.5l209 -298q38 -53 68 -73q19 -12 53 -15v-33 h-184l-294 405h-76v-309q6 -33 28.5 -48t89.5 -15v-33h-367zM623 697q161 0 223 51t62 131q0 81 -56.5 136t-144.5 55q-38 0 -84 -16v-357z" />
<glyph unicode="&#xaf;" horiz-adv-x="1024" d="M-17 1513v83h1059v-83h-1059z" />
<glyph unicode="&#xb0;" horiz-adv-x="811" d="M98 1078q0 128 89.5 218t217.5 90q129 0 218.5 -90t89.5 -218q0 -127 -90 -217t-218 -90q-127 0 -217 90t-90 217zM182 1079q0 -92 65 -157.5t158 -65.5q92 0 157.5 65.5t65.5 157.5q0 93 -65 158t-158 65t-158 -65t-65 -158z" />
<glyph unicode="&#xb1;" d="M139 -45v132h1088v-132h-1088zM139 764v132h478v478h132v-478h478v-132h-478v-478h-132v478h-478z" />
<glyph unicode="&#xb2;" horiz-adv-x="705" d="M60 669v40q243 239 302.5 331t59.5 154q0 56 -31.5 88.5t-81.5 32.5q-46 0 -84 -29t-68 -88h-52q22 83 32 164q48 38 99.5 56.5t107.5 18.5q100 0 161 -58.5t61 -147.5q0 -78 -53.5 -161.5t-269.5 -278.5h171q72 0 94 10q17 9 42 51q5 8 17 25h59q-60 -143 -81 -208 q-135 4 -248 4q-127 0 -237 -4z" />
<glyph unicode="&#xb3;" horiz-adv-x="705" d="M87 683q22 83 30 166h45q19 -68 52.5 -95t83.5 -27q62 0 103.5 44t41.5 118q0 70 -41.5 112.5t-110.5 42.5q-20 0 -55 -3v51q87 19 131.5 64.5t44.5 88.5q0 36 -27.5 61.5t-70.5 25.5q-42 0 -74 -25.5t-54 -77.5h-50q20 80 33 156q54 25 100 37.5t85 12.5q88 0 136 -43 t48 -106q0 -42 -22 -78t-79 -78q71 -18 110.5 -68t39.5 -119q0 -116 -92 -201t-236 -85q-69 0 -172 26z" />
<glyph unicode="&#xb4;" horiz-adv-x="682" d="M222 1078q68 184 126 349l112 -2q17 0 90 2l14 -19q-146 -153 -282 -330h-60z" />
<glyph unicode="&#xb5;" horiz-adv-x="1024" d="M56 -331q0 44 29 163q20 80 23 104q11 103 11 187l-1 67v726h164v-533q0 -171 28 -221q38 -67 115 -67q59 0 117.5 33.5t117.5 100.5v687h165v-654q0 -125 18.5 -153.5t49.5 -28.5q26 0 44 22q26 31 37 102h42q-9 -121 -63 -176.5t-135 -55.5q-66 0 -107.5 43t-50.5 147 q-87 -102 -162 -146t-152 -44q-52 0 -91 21q-29 16 -64 64q-1 -30 -1 -46q0 -77 34 -239q13 -61 13 -103q0 -49 -27.5 -80t-65.5 -31t-63 29t-25 82z" />
<glyph unicode="&#xb6;" horiz-adv-x="918" d="M-14 981q0 110 43 180q58 96 154.5 145.5t252.5 49.5h495v-55h-133v-1743h-72v1743h-187v-1743h-73v1043q-191 8 -285.5 50.5t-144.5 131t-50 198.5z" />
<glyph unicode="&#xb8;" horiz-adv-x="682" d="M68 -326q112 0 166 35q30 20 30 58q0 24 -12.5 37t-37.5 13q-7 0 -22 -2l-10 29q51 52 73 80t60 88h63q-25 -53 -63 -103q39 -9 61.5 -40t22.5 -74t-28 -86.5t-90.5 -68t-153.5 -24.5q-20 0 -59 3v55z" />
<glyph unicode="&#xb9;" horiz-adv-x="705" d="M187 1294v41q112 29 245 97l22 -15q-12 -115 -12 -294l2 -216q0 -139 9 -159q14 -28 104 -40v-43q-112 6 -194 6t-168 -6v43q80 15 93 23.5t18 34t5 198.5q0 310 -7.5 327t-29.5 17q-21 0 -87 -14z" />
<glyph unicode="&#xba;" horiz-adv-x="748" d="M56 1122q0 142 89 229t241 87q144 0 225 -78.5t81 -211.5q0 -145 -90.5 -233.5t-240.5 -88.5q-144 0 -224.5 79.5t-80.5 216.5zM203 1173q0 -92 11 -135q19 -72 61.5 -110.5t102.5 -38.5q75 0 121.5 54t46.5 172q0 131 -53.5 196.5t-126.5 65.5t-118 -50.5t-45 -153.5z " />
<glyph unicode="&#xbb;" horiz-adv-x="874" d="M49 92l215 375l-215 371h85l320 -371q-38 -46 -110 -129q-115 -131 -210 -246h-85zM421 92l214 375l-214 371h83q171 -208 321 -371l-241 -278q-36 -42 -80 -97h-83z" />
<glyph unicode="&#xbc;" horiz-adv-x="1686" d="M197 1294v41q112 29 245 97l22 -15q-12 -115 -12 -294l2 -216q0 -139 9 -159q14 -28 104 -40v-43q-112 6 -194 6t-168 -6v43q80 15 93 23.5t18 34t5 198.5q0 310 -7.5 327t-29.5 17q-21 0 -87 -14zM364 -78l847 1516h110l-849 -1516h-108zM1001 235q188 220 324 414 q67 21 127 56l23 -22q-12 -189 -12 -340q0 -39 1 -108q60 0 108 9l9 -18q-25 -44 -40 -93q-38 1 -77 2q1 -105 18 -126.5t90 -31.5v-42q-124 8 -174 8t-173 -8v42q84 10 100.5 30t18.5 133q-267 -1 -337 -5q-1 51 -6 100zM1095 235h249v315q-195 -245 -249 -315z" />
<glyph unicode="&#xbd;" horiz-adv-x="1686" d="M197 1294v41q112 29 245 97l22 -15q-12 -115 -12 -294l2 -216q0 -139 9 -159q14 -28 104 -40v-43q-112 6 -194 6t-168 -6v43q80 15 93 23.5t18 34t5 198.5q0 310 -7.5 327t-29.5 17q-21 0 -87 -14zM364 -78l847 1516h110l-849 -1516h-108zM1030 -22q243 239 302.5 331 t59.5 154q0 56 -31.5 88.5t-81.5 32.5q-46 0 -84 -29t-68 -88h-52q22 83 32 164q48 38 99.5 56.5t107.5 18.5q100 0 161 -58.5t61 -147.5q0 -78 -53.5 -161.5t-269.5 -278.5h171q72 0 94 10q17 9 42 51q5 8 17 25h59q-60 -143 -81 -208q-135 4 -248 4q-127 0 -237 -4v40z " />
<glyph unicode="&#xbe;" horiz-adv-x="1686" d="M98 683q22 83 30 166h45q19 -68 52.5 -95t83.5 -27q62 0 103.5 44t41.5 118q0 70 -41.5 112.5t-110.5 42.5q-20 0 -55 -3v51q87 19 131.5 64.5t44.5 88.5q0 36 -27.5 61.5t-70.5 25.5q-42 0 -74 -25.5t-54 -77.5h-50q20 80 33 156q54 25 100 37.5t85 12.5q88 0 136 -43 t48 -106q0 -42 -22 -78t-79 -78q71 -18 110.5 -68t39.5 -119q0 -116 -92 -201t-236 -85q-69 0 -172 26zM364 -78l847 1516h110l-849 -1516h-108zM1001 235q188 220 324 414q67 21 127 56l23 -22q-12 -189 -12 -340q0 -39 1 -108q60 0 108 9l9 -18q-25 -44 -40 -93 q-38 1 -77 2q1 -105 18 -126.5t90 -31.5v-42q-124 8 -174 8t-173 -8v42q84 10 100.5 30t18.5 133q-267 -1 -337 -5q-1 51 -6 100zM1095 235h249v315q-195 -245 -249 -315z" />
<glyph unicode="&#xbf;" horiz-adv-x="788" d="M72 -115q0 56 18 112.5t47 105.5q11 19 121 171q72 99 102.5 180t46.5 218h83q-4 -117 -28.5 -202.5t-109.5 -248.5q-66 -127 -88 -198q-15 -48 -15 -98q0 -94 55.5 -151.5t141.5 -57.5q78 0 134 44t95 156h72q-21 -117 -32 -237q-79 -56 -141 -79q-82 -30 -166 -30 q-147 0 -241.5 91.5t-94.5 223.5zM332 932q0 46 33 79t79 33t78.5 -33t32.5 -79t-32.5 -78.5t-78.5 -32.5q-47 0 -79.5 32.5t-32.5 78.5z" />
<glyph unicode="&#xc0;" horiz-adv-x="1579" d="M8 -11v59q91 20 125 45q25 19 52 64q57 99 290 637l275 638h63q135 -347 332 -787l233 -509q16 -27 35 -40q13 -9 147 -48v-59q-182 11 -268 11q-88 0 -300 -11v59q121 25 141 40t20 35q0 21 -21 71l-100 244q-213 2 -310 2l-275 -2l-104 -253q-26 -61 -26 -76 q0 -13 12.5 -21.5t116.5 -30.5q11 -3 31 -9v-59q-171 11 -241 11q-89 0 -228 -11zM486 538q139 -4 199 -4q18 0 307 4l-253 600zM567 1836l14 19q91 -2 98 -2q35 0 105 2q57 -165 125 -349h-59q-137 177 -283 330z" />
<glyph unicode="&#xc1;" horiz-adv-x="1579" d="M8 -11v59q91 20 125 45q25 19 52 64q57 99 290 637l275 638h63q135 -347 332 -787l233 -509q16 -27 35 -40q13 -9 147 -48v-59q-182 11 -268 11q-88 0 -300 -11v59q121 25 141 40t20 35q0 21 -21 71l-100 244q-213 2 -310 2l-275 -2l-104 -253q-26 -61 -26 -76 q0 -13 12.5 -21.5t116.5 -30.5q11 -3 31 -9v-59q-171 11 -241 11q-89 0 -228 -11zM486 538q139 -4 199 -4q18 0 307 4l-253 600zM670 1506q68 184 126 349l112 -2q17 0 90 2l14 -19q-146 -153 -282 -330h-60z" />
<glyph unicode="&#xc2;" horiz-adv-x="1579" d="M8 -11v59q91 20 125 45q25 19 52 64q57 99 290 637l275 638h63q135 -347 332 -787l233 -509q16 -27 35 -40q13 -9 147 -48v-59q-182 11 -268 11q-88 0 -300 -11v59q121 25 141 40t20 35q0 21 -21 71l-100 244q-213 2 -310 2l-275 -2l-104 -253q-26 -61 -26 -76 q0 -13 12.5 -21.5t116.5 -30.5q11 -3 31 -9v-59q-171 11 -241 11q-89 0 -228 -11zM486 538q139 -4 199 -4q18 0 307 4l-253 600zM494 1518l154 234q36 56 56 84l93 -1q15 0 79 1q53 -86 208 -318h-68l-238 184l-219 -184h-65z" />
<glyph unicode="&#xc3;" horiz-adv-x="1579" d="M8 -11v59q91 20 125 45q25 19 52 64q57 99 290 637l275 638h63q135 -347 332 -787l233 -509q16 -27 35 -40q13 -9 147 -48v-59q-182 11 -268 11q-88 0 -300 -11v59q121 25 141 40t20 35q0 21 -21 71l-100 244q-213 2 -310 2l-275 -2l-104 -253q-26 -61 -26 -76 q0 -13 12.5 -21.5t116.5 -30.5q11 -3 31 -9v-59q-171 11 -241 11q-89 0 -228 -11zM456 1558q32 137 92 200q38 41 93 41q60 0 167 -52t154 -52q36 0 56 18.5t41 85.5h63q-43 -151 -89.5 -197t-103.5 -46q-49 0 -158.5 52t-152.5 52q-28 0 -53 -21t-48 -81h-61zM486 538 q139 -4 199 -4q18 0 307 4l-253 600z" />
<glyph unicode="&#xc4;" horiz-adv-x="1579" d="M8 -11v59q91 20 125 45q25 19 52 64q57 99 290 637l275 638h63q135 -347 332 -787l233 -509q16 -27 35 -40q13 -9 147 -48v-59q-182 11 -268 11q-88 0 -300 -11v59q121 25 141 40t20 35q0 21 -21 71l-100 244q-213 2 -310 2l-275 -2l-104 -253q-26 -61 -26 -76 q0 -13 12.5 -21.5t116.5 -30.5q11 -3 31 -9v-59q-171 11 -241 11q-89 0 -228 -11zM486 538q139 -4 199 -4q18 0 307 4l-253 600zM516 1678q0 43 30 73.5t74 30.5q43 0 73 -30.5t30 -73.5t-30.5 -73.5t-72.5 -30.5q-43 0 -73.5 30.5t-30.5 73.5zM858 1677q0 43 29.5 73 t72.5 30t73 -30t30 -73q0 -42 -30 -72.5t-73 -30.5q-42 0 -72 30.5t-30 72.5z" />
<glyph unicode="&#xc5;" horiz-adv-x="1579" d="M8 -11v59q91 20 125 45q25 19 52 64q57 99 290 637l275 638h63q135 -347 332 -787l233 -509q16 -27 35 -40q13 -9 147 -48v-59q-182 11 -268 11q-88 0 -300 -11v59q121 25 141 40t20 35q0 21 -21 71l-100 244q-213 2 -310 2l-275 -2l-104 -253q-26 -61 -26 -76 q0 -13 12.5 -21.5t116.5 -30.5q11 -3 31 -9v-59q-171 11 -241 11q-89 0 -228 -11zM486 538q139 -4 199 -4q18 0 307 4l-253 600zM584 1678q0 85 60 145.5t146 60.5q85 0 145 -60.5t60 -145.5t-60 -145t-145 -60q-86 0 -146 60t-60 145zM667 1678q0 -51 36 -87t87 -36 q50 0 86 36t36 87t-35.5 87t-86.5 36q-52 0 -87.5 -36t-35.5 -87z" />
<glyph unicode="&#xc6;" horiz-adv-x="2218" d="M-14 -11v59q89 14 113 27.5t72 67.5q70 78 123 156l19 28l625 877q39 55 39 75q0 11 -10 17q-7 5 -200 53v59q209 -11 546 -11q400 0 710 11q3 -155 23 -347h-71q-59 184 -89 212t-123 28h-440q-8 -210 -9 -521h269q114 0 141 11q21 7 34 29t36 125q3 14 10 41h69 q-13 -145 -13 -213l13 -297h-69q-5 27 -8 41q-19 132 -52.5 150t-203.5 18h-226q1 -388 9 -588h420q134 0 173 26.5t135 194.5q9 16 28 48h70q-52 -146 -126 -377q-350 11 -665 11q-221 0 -460 -11v59q31 7 47 9q131 18 157 41q19 17 19 79l1 97l3 213q-138 4 -247 4 q-123 0 -311 -4l-216 -308q-35 -49 -35 -64q0 -14 15 -25.5t114 -35.5q8 -1 24 -6v-59q-205 11 -271 11q-101 0 -212 -11zM635 587h490v712z" />
<glyph unicode="&#xc7;" horiz-adv-x="1473" d="M95 681q0 333 217.5 545t575.5 212q220 0 490 -90q-2 -88 -2 -132q0 -128 15 -269h-84q-37 175 -79 241t-136 105.5t-232 39.5q-290 0 -437 -206q-114 -161 -114 -404q0 -290 160.5 -457.5t420.5 -167.5q112 0 218 29t258 105l42 -76q-161 -101 -309 -149t-306 -48 q-201 0 -365 91.5t-248.5 259t-84.5 371.5zM533 -326q112 0 166 35q30 20 30 58q0 24 -12.5 37t-37.5 13q-7 0 -22 -2l-10 29q51 52 73 80t60 88h63q-25 -53 -63 -103q39 -9 61.5 -40t22.5 -74t-28 -86.5t-90.5 -68t-153.5 -24.5q-20 0 -59 3v55z" />
<glyph unicode="&#xc8;" d="M40 -11v59l162 35q39 11 48 22q15 19 15 79v18l5 235q1 68 1 267q0 289 -2 423.5t-10 152.5q-6 12 -18.5 19.5t-92.5 25.5l-108 24v59q188 -11 449 -11q143 0 680 11q2 -173 24 -342h-70q-40 136 -65 181q-17 31 -42 41q-33 13 -146 13h-404l-7 -322l-3 -197h242 q140 0 165 7.5t40.5 30.5t38.5 133q3 11 9 34h66q-11 -165 -11 -254q0 -92 11 -252h-66q-29 145 -36 162q-10 24 -35 34.5t-149 10.5h-274l5 -588h419l37 1q86 0 108 7q38 13 67 43.5t107 172.5q8 14 24 41h69q-12 -32 -124 -376q-364 11 -665 11q-210 0 -464 -11zM460 1836 l14 19q91 -2 98 -2q35 0 105 2q57 -165 125 -349h-59q-137 177 -283 330z" />
<glyph unicode="&#xc9;" d="M40 -11v59l162 35q39 11 48 22q15 19 15 79v18l5 235q1 68 1 267q0 289 -2 423.5t-10 152.5q-6 12 -18.5 19.5t-92.5 25.5l-108 24v59q188 -11 449 -11q143 0 680 11q2 -173 24 -342h-70q-40 136 -65 181q-17 31 -42 41q-33 13 -146 13h-404l-7 -322l-3 -197h242 q140 0 165 7.5t40.5 30.5t38.5 133q3 11 9 34h66q-11 -165 -11 -254q0 -92 11 -252h-66q-29 145 -36 162q-10 24 -35 34.5t-149 10.5h-274l5 -588h419l37 1q86 0 108 7q38 13 67 43.5t107 172.5q8 14 24 41h69q-12 -32 -124 -376q-364 11 -665 11q-210 0 -464 -11zM563 1506 q68 184 126 349l112 -2q17 0 90 2l14 -19q-146 -153 -282 -330h-60z" />
<glyph unicode="&#xca;" d="M40 -11v59l162 35q39 11 48 22q15 19 15 79v18l5 235q1 68 1 267q0 289 -2 423.5t-10 152.5q-6 12 -18.5 19.5t-92.5 25.5l-108 24v59q188 -11 449 -11q143 0 680 11q2 -173 24 -342h-70q-40 136 -65 181q-17 31 -42 41q-33 13 -146 13h-404l-7 -322l-3 -197h242 q140 0 165 7.5t40.5 30.5t38.5 133q3 11 9 34h66q-11 -165 -11 -254q0 -92 11 -252h-66q-29 145 -36 162q-10 24 -35 34.5t-149 10.5h-274l5 -588h419l37 1q86 0 108 7q38 13 67 43.5t107 172.5q8 14 24 41h69q-12 -32 -124 -376q-364 11 -665 11q-210 0 -464 -11zM387 1518 l154 234q36 56 56 84l93 -1q15 0 79 1q53 -86 208 -318h-68l-238 184l-219 -184h-65z" />
<glyph unicode="&#xcb;" d="M40 -11v59l162 35q39 11 48 22q15 19 15 79v18l5 235q1 68 1 267q0 289 -2 423.5t-10 152.5q-6 12 -18.5 19.5t-92.5 25.5l-108 24v59q188 -11 449 -11q143 0 680 11q2 -173 24 -342h-70q-40 136 -65 181q-17 31 -42 41q-33 13 -146 13h-404l-7 -322l-3 -197h242 q140 0 165 7.5t40.5 30.5t38.5 133q3 11 9 34h66q-11 -165 -11 -254q0 -92 11 -252h-66q-29 145 -36 162q-10 24 -35 34.5t-149 10.5h-274l5 -588h419l37 1q86 0 108 7q38 13 67 43.5t107 172.5q8 14 24 41h69q-12 -32 -124 -376q-364 11 -665 11q-210 0 -464 -11zM409 1678 q0 43 30 73.5t74 30.5q43 0 73 -30.5t30 -73.5t-30.5 -73.5t-72.5 -30.5q-43 0 -73.5 30.5t-30.5 73.5zM751 1677q0 43 29.5 73t72.5 30t73 -30t30 -73q0 -42 -30 -72.5t-73 -30.5q-42 0 -72 30.5t-30 72.5z" />
<glyph unicode="&#xcc;" horiz-adv-x="748" d="M52 -11v59q29 8 44 10q142 23 162.5 42.5t20.5 98.5l-1 50l2 367q0 566 -2 626q-2 33 -21.5 51t-151.5 43q-18 4 -53 13v59q217 -11 339 -11q136 0 309 11v-59q-35 -8 -52 -11q-133 -23 -154 -43.5t-21 -91.5v-35l-4 -402l3 -584q0 -70 20.5 -89t140.5 -33q23 -3 67 -12 v-59q-161 11 -310 11q-154 0 -338 -11zM151 1836l14 19q91 -2 98 -2q35 0 105 2q57 -165 125 -349h-59q-137 177 -283 330z" />
<glyph unicode="&#xcd;" horiz-adv-x="748" d="M52 -11v59q29 8 44 10q142 23 162.5 42.5t20.5 98.5l-1 50l2 367q0 566 -2 626q-2 33 -21.5 51t-151.5 43q-18 4 -53 13v59q217 -11 339 -11q136 0 309 11v-59q-35 -8 -52 -11q-133 -23 -154 -43.5t-21 -91.5v-35l-4 -402l3 -584q0 -70 20.5 -89t140.5 -33q23 -3 67 -12 v-59q-161 11 -310 11q-154 0 -338 -11zM254 1506q68 184 126 349l112 -2q17 0 90 2l14 -19q-146 -153 -282 -330h-60z" />
<glyph unicode="&#xce;" horiz-adv-x="748" d="M52 -11v59q29 8 44 10q142 23 162.5 42.5t20.5 98.5l-1 50l2 367q0 566 -2 626q-2 33 -21.5 51t-151.5 43q-18 4 -53 13v59q217 -11 339 -11q136 0 309 11v-59q-35 -8 -52 -11q-133 -23 -154 -43.5t-21 -91.5v-35l-4 -402l3 -584q0 -70 20.5 -89t140.5 -33q23 -3 67 -12 v-59q-161 11 -310 11q-154 0 -338 -11zM78 1518l154 234q36 56 56 84l93 -1q15 0 79 1q53 -86 208 -318h-68l-238 184l-219 -184h-65z" />
<glyph unicode="&#xcf;" horiz-adv-x="748" d="M52 -11v59q29 8 44 10q142 23 162.5 42.5t20.5 98.5l-1 50l2 367q0 566 -2 626q-2 33 -21.5 51t-151.5 43q-18 4 -53 13v59q217 -11 339 -11q136 0 309 11v-59q-35 -8 -52 -11q-133 -23 -154 -43.5t-21 -91.5v-35l-4 -402l3 -584q0 -70 20.5 -89t140.5 -33q23 -3 67 -12 v-59q-161 11 -310 11q-154 0 -338 -11zM100 1678q0 43 30 73.5t74 30.5q43 0 73 -30.5t30 -73.5t-30.5 -73.5t-72.5 -30.5q-43 0 -73.5 30.5t-30.5 73.5zM442 1677q0 43 29.5 73t72.5 30t73 -30t30 -73q0 -42 -30 -72.5t-73 -30.5q-42 0 -72 30.5t-30 72.5z" />
<glyph unicode="&#xd0;" horiz-adv-x="1665" d="M48 -11v59q172 33 189.5 40t23.5 18q10 16 12 105q2 63 6 477h-231v94h231l-4 451q0 38 -9.5 52t-38.5 23q-16 6 -179 41v59q198 -11 431 -11l446 6q227 0 362.5 -65.5t210.5 -208.5t75 -333q0 -350 -238 -578t-639 -228q-23 0 -183 5.5t-188 5.5q-97 0 -277 -12z M469 688q2 -417 6 -580q162 -20 272 -20q171 0 282 55q159 81 241.5 236t82.5 381q0 118 -27.5 215.5t-73.5 155.5q-67 86 -175 131.5t-312 45.5q-123 0 -290 -15l-4 -189l-2 -322h421v-94h-421z" />
<glyph unicode="&#xd1;" horiz-adv-x="1665" d="M-1 1349v59q127 -11 200 -11q59 0 211 11l284 -355q39 -47 602 -729q1 140 1 203q0 149 -9 545q-4 185 -9.5 201t-23 29t-139.5 36q-16 3 -47 11v59q178 -11 283 -11q102 0 282 11v-59q-27 -7 -40 -9q-134 -28 -149 -37q-11 -6 -18 -18q-10 -16 -14 -60 q-1 -19 -4.5 -272.5t-3.5 -490.5q0 -280 10 -473l-65 -30l-417 518l-547 658l5 -591q5 -388 11 -414q4 -18 18 -31q22 -20 149 -42q15 -2 45 -9v-59q-153 11 -258 11q-88 0 -307 -11v59q35 8 53 12q120 21 139 39q11 9 16 31q10 46 13 348q5 428 5 506q0 251 -7 279 q-4 20 -26 33.5t-189 41.5q-18 3 -54 11zM499 1558q32 137 92 200q38 41 93 41q60 0 167 -52t154 -52q36 0 56 18.5t41 85.5h63q-43 -151 -89.5 -197t-103.5 -46q-49 0 -158.5 52t-152.5 52q-28 0 -53 -21t-48 -81h-61z" />
<glyph unicode="&#xd2;" horiz-adv-x="1622" d="M96 689q0 328 211.5 538.5t543.5 210.5q309 0 492 -186t183 -512q0 -362 -206 -571.5t-542 -209.5q-315 0 -498.5 190t-183.5 540zM315 719q0 -330 144.5 -495.5t365.5 -165.5q146 0 259 77t171 225.5t58 328.5q0 226 -74 375t-183 213.5t-245 64.5q-149 0 -267 -78.5 t-173.5 -227t-55.5 -317.5zM588 1836l14 19q91 -2 98 -2q35 0 105 2q57 -165 125 -349h-59q-137 177 -283 330z" />
<glyph unicode="&#xd3;" horiz-adv-x="1622" d="M96 689q0 328 211.5 538.5t543.5 210.5q309 0 492 -186t183 -512q0 -362 -206 -571.5t-542 -209.5q-315 0 -498.5 190t-183.5 540zM315 719q0 -330 144.5 -495.5t365.5 -165.5q146 0 259 77t171 225.5t58 328.5q0 226 -74 375t-183 213.5t-245 64.5q-149 0 -267 -78.5 t-173.5 -227t-55.5 -317.5zM691 1506q68 184 126 349l112 -2q17 0 90 2l14 -19q-146 -153 -282 -330h-60z" />
<glyph unicode="&#xd4;" horiz-adv-x="1622" d="M96 689q0 328 211.5 538.5t543.5 210.5q309 0 492 -186t183 -512q0 -362 -206 -571.5t-542 -209.5q-315 0 -498.5 190t-183.5 540zM315 719q0 -330 144.5 -495.5t365.5 -165.5q146 0 259 77t171 225.5t58 328.5q0 226 -74 375t-183 213.5t-245 64.5q-149 0 -267 -78.5 t-173.5 -227t-55.5 -317.5zM515 1518l154 234q36 56 56 84l93 -1q15 0 79 1q53 -86 208 -318h-68l-238 184l-219 -184h-65z" />
<glyph unicode="&#xd5;" horiz-adv-x="1622" d="M96 689q0 328 211.5 538.5t543.5 210.5q309 0 492 -186t183 -512q0 -362 -206 -571.5t-542 -209.5q-315 0 -498.5 190t-183.5 540zM315 719q0 -330 144.5 -495.5t365.5 -165.5q146 0 259 77t171 225.5t58 328.5q0 226 -74 375t-183 213.5t-245 64.5q-149 0 -267 -78.5 t-173.5 -227t-55.5 -317.5zM477 1558q32 137 92 200q38 41 93 41q60 0 167 -52t154 -52q36 0 56 18.5t41 85.5h63q-43 -151 -89.5 -197t-103.5 -46q-49 0 -158.5 52t-152.5 52q-28 0 -53 -21t-48 -81h-61z" />
<glyph unicode="&#xd6;" horiz-adv-x="1622" d="M96 689q0 328 211.5 538.5t543.5 210.5q309 0 492 -186t183 -512q0 -362 -206 -571.5t-542 -209.5q-315 0 -498.5 190t-183.5 540zM315 719q0 -330 144.5 -495.5t365.5 -165.5q146 0 259 77t171 225.5t58 328.5q0 226 -74 375t-183 213.5t-245 64.5q-149 0 -267 -78.5 t-173.5 -227t-55.5 -317.5zM537 1678q0 43 30 73.5t74 30.5q43 0 73 -30.5t30 -73.5t-30.5 -73.5t-72.5 -30.5q-43 0 -73.5 30.5t-30.5 73.5zM879 1677q0 43 29.5 73t72.5 30t73 -30t30 -73q0 -42 -30 -72.5t-73 -30.5q-42 0 -72 30.5t-30 72.5z" />
<glyph unicode="&#xd7;" d="M182 1070l92 93l408 -409l408 409l93 -93l-408 -409l404 -404l-93 -93l-404 405l-404 -405l-92 93l404 404z" />
<glyph unicode="&#xd8;" horiz-adv-x="1622" d="M94 0l164 176q-160 189 -160 503q0 337 211 548t543 211q272 0 448 -144l155 166l72 -71l-155 -167q156 -186 156 -482q0 -362 -205.5 -571.5t-542.5 -209.5q-274 0 -448 144l-162 -174zM317 699q0 -212 80 -374l784 841q-66 89 -162.5 132.5t-205.5 43.5 q-149 0 -268 -79t-173.5 -229.5t-54.5 -334.5zM454 234q65 -85 162 -130.5t211 -45.5q146 0 259.5 77t171 226t57.5 334q0 218 -79 380z" />
<glyph unicode="&#xd9;" horiz-adv-x="1642" d="M28 1349v59q186 -11 321 -11q141 0 325 11v-59q-31 -7 -47 -10q-141 -22 -159 -38t-20 -67q-6 -136 -6 -512q0 -251 13.5 -341t66 -154t144.5 -98.5t196 -34.5q157 0 254.5 65t129 173.5t31.5 424.5q0 418 -7 493q-3 33 -19 46.5t-150 42.5q-14 3 -43 10v59 q196 -11 298 -11q115 0 262 11v-59q-28 -8 -42 -11q-133 -27 -151 -42t-22 -52q-10 -79 -12 -466q-1 -299 -11 -380q-13 -112 -47 -180.5t-104.5 -130t-161.5 -90.5q-120 -38 -251 -38q-146 0 -260.5 36t-177.5 97.5t-94 145t-31 242.5l4 454q0 253 -2 285q-4 49 -15 66 q-8 14 -24 21q-12 6 -139 31q-16 3 -49 12zM599 1836l14 19q91 -2 98 -2q35 0 105 2q57 -165 125 -349h-59q-137 177 -283 330z" />
<glyph unicode="&#xda;" horiz-adv-x="1642" d="M28 1349v59q186 -11 321 -11q141 0 325 11v-59q-31 -7 -47 -10q-141 -22 -159 -38t-20 -67q-6 -136 -6 -512q0 -251 13.5 -341t66 -154t144.5 -98.5t196 -34.5q157 0 254.5 65t129 173.5t31.5 424.5q0 418 -7 493q-3 33 -19 46.5t-150 42.5q-14 3 -43 10v59 q196 -11 298 -11q115 0 262 11v-59q-28 -8 -42 -11q-133 -27 -151 -42t-22 -52q-10 -79 -12 -466q-1 -299 -11 -380q-13 -112 -47 -180.5t-104.5 -130t-161.5 -90.5q-120 -38 -251 -38q-146 0 -260.5 36t-177.5 97.5t-94 145t-31 242.5l4 454q0 253 -2 285q-4 49 -15 66 q-8 14 -24 21q-12 6 -139 31q-16 3 -49 12zM702 1506q68 184 126 349l112 -2q17 0 90 2l14 -19q-146 -153 -282 -330h-60z" />
<glyph unicode="&#xdb;" horiz-adv-x="1642" d="M28 1349v59q186 -11 321 -11q141 0 325 11v-59q-31 -7 -47 -10q-141 -22 -159 -38t-20 -67q-6 -136 -6 -512q0 -251 13.5 -341t66 -154t144.5 -98.5t196 -34.5q157 0 254.5 65t129 173.5t31.5 424.5q0 418 -7 493q-3 33 -19 46.5t-150 42.5q-14 3 -43 10v59 q196 -11 298 -11q115 0 262 11v-59q-28 -8 -42 -11q-133 -27 -151 -42t-22 -52q-10 -79 -12 -466q-1 -299 -11 -380q-13 -112 -47 -180.5t-104.5 -130t-161.5 -90.5q-120 -38 -251 -38q-146 0 -260.5 36t-177.5 97.5t-94 145t-31 242.5l4 454q0 253 -2 285q-4 49 -15 66 q-8 14 -24 21q-12 6 -139 31q-16 3 -49 12zM526 1518l154 234q36 56 56 84l93 -1q15 0 79 1q53 -86 208 -318h-68l-238 184l-219 -184h-65z" />
<glyph unicode="&#xdc;" horiz-adv-x="1642" d="M28 1349v59q186 -11 321 -11q141 0 325 11v-59q-31 -7 -47 -10q-141 -22 -159 -38t-20 -67q-6 -136 -6 -512q0 -251 13.5 -341t66 -154t144.5 -98.5t196 -34.5q157 0 254.5 65t129 173.5t31.5 424.5q0 418 -7 493q-3 33 -19 46.5t-150 42.5q-14 3 -43 10v59 q196 -11 298 -11q115 0 262 11v-59q-28 -8 -42 -11q-133 -27 -151 -42t-22 -52q-10 -79 -12 -466q-1 -299 -11 -380q-13 -112 -47 -180.5t-104.5 -130t-161.5 -90.5q-120 -38 -251 -38q-146 0 -260.5 36t-177.5 97.5t-94 145t-31 242.5l4 454q0 253 -2 285q-4 49 -15 66 q-8 14 -24 21q-12 6 -139 31q-16 3 -49 12zM548 1678q0 43 30 73.5t74 30.5q43 0 73 -30.5t30 -73.5t-30.5 -73.5t-72.5 -30.5q-43 0 -73.5 30.5t-30.5 73.5zM890 1677q0 43 29.5 73t72.5 30t73 -30t30 -73q0 -42 -30 -72.5t-73 -30.5q-42 0 -72 30.5t-30 72.5z" />
<glyph unicode="&#xdd;" horiz-adv-x="1536" d="M23 1349v59q158 -11 281 -11q120 0 294 11v-59q-115 -29 -132.5 -42t-17.5 -27q0 -13 17 -42q90 -156 342 -543q126 200 329 546q21 35 21 48q0 14 -11 21q-32 20 -140 39v59q183 -11 266 -11q100 0 246 11v-59q-123 -24 -174 -56.5t-121 -136.5q-152 -226 -361 -560 q-1 -50 -1 -59q0 -348 4 -383.5t22 -51.5q28 -22 168 -47q12 -2 35 -7v-59q-186 11 -301 11q-92 0 -341 -11v59q35 7 52 10q124 20 150 40q15 12 23 60.5t8 281.5l-1 134q-84 134 -278 422l-182 264q-20 23 -49 39q-45 25 -148 50zM649 1506q68 184 126 349l112 -2 q17 0 90 2l14 -19q-146 -153 -282 -330h-60z" />
<glyph unicode="&#xde;" horiz-adv-x="1260" d="M0 -11v59l142 29q61 12 73 38q15 35 15 459l-1 307l1 203q0 45 -1 71q-2 53 -2 72v18q0 33 -12 45.5t-77 27.5l-138 31v59q202 -11 350 -11q146 0 296 11v-59l-137 -31q-73 -16 -82.5 -39.5t-11.5 -184.5h454q185 0 281 -93t96 -257q0 -131 -71 -237t-188.5 -156.5 t-313.5 -50.5h-258q0 -144 5 -173q4 -20 17 -30.5t66 -19.5l170 -29v-59q-180 11 -326 11q-150 0 -347 -11zM415 391h231q85 0 151 11t126.5 54.5t90 104.5t29.5 147q0 141 -81 216.5t-258 75.5h-289v-609z" />
<glyph unicode="&#xdf;" horiz-adv-x="1130" d="M40 -11v59q104 24 118.5 33t22 23t9.5 49q4 53 6 330l2 356q-68 -1 -145 -8v47q75 26 145 70q-3 59 -3 92q0 196 135.5 307.5t320.5 111.5q121 0 190.5 -64t69.5 -157q0 -80 -44.5 -157t-132 -143t-87.5 -96q0 -15 26 -43q52 -57 138 -122q151 -113 202 -196.5t51 -167.5 q0 -137 -102.5 -237.5t-252.5 -100.5q-107 0 -236 55q29 106 44 223h65q9 -92 55.5 -139.5t114.5 -47.5q67 0 113 48t46 122q0 69 -41 136.5t-168 169.5q-159 128 -187 165q-29 36 -29 65q0 46 78 124q116 115 154 186q29 55 29 117q0 71 -49.5 119t-127.5 48 q-69 0 -114 -32t-66.5 -84.5t-28.5 -182.5q-1 -36 -4 -366l1 -303q0 -288 6 -409q-89 11 -151 11q-60 0 -173 -11z" />
<glyph unicode="&#xe0;" horiz-adv-x="1004" d="M73 215q0 64 24 115.5t69 90.5q35 29 118 70q195 95 340 153q-5 141 -47 187t-129 46q-82 0 -140.5 -50.5t-104.5 -158.5l-65 7q20 104 28 207q195 88 352 88q68 0 123 -19.5t87 -54t48.5 -82.5t16.5 -153l-9 -413q0 -84 19 -110t49 -26q36 0 113 54l31 -41 q-141 -126 -154 -134q-28 -16 -70 -16q-65 0 -100.5 32.5t-47.5 109.5q-120 -93 -178 -117.5t-126 -24.5q-111 0 -179 67.5t-68 172.5zM254 258q0 -75 41 -120t96 -45q57 0 123.5 37.5t88 84.5t21.5 171v171q-261 -117 -315.5 -170.5t-54.5 -128.5zM279 1408l14 19 q91 -2 98 -2q35 0 105 2q57 -165 125 -349h-59q-137 177 -283 330z" />
<glyph unicode="&#xe1;" horiz-adv-x="1004" d="M73 215q0 64 24 115.5t69 90.5q35 29 118 70q195 95 340 153q-5 141 -47 187t-129 46q-82 0 -140.5 -50.5t-104.5 -158.5l-65 7q20 104 28 207q195 88 352 88q68 0 123 -19.5t87 -54t48.5 -82.5t16.5 -153l-9 -413q0 -84 19 -110t49 -26q36 0 113 54l31 -41 q-141 -126 -154 -134q-28 -16 -70 -16q-65 0 -100.5 32.5t-47.5 109.5q-120 -93 -178 -117.5t-126 -24.5q-111 0 -179 67.5t-68 172.5zM254 258q0 -75 41 -120t96 -45q57 0 123.5 37.5t88 84.5t21.5 171v171q-261 -117 -315.5 -170.5t-54.5 -128.5zM382 1078q68 184 126 349 l112 -2q17 0 90 2l14 -19q-146 -153 -282 -330h-60z" />
<glyph unicode="&#xe2;" horiz-adv-x="1004" d="M73 215q0 64 24 115.5t69 90.5q35 29 118 70q195 95 340 153q-5 141 -47 187t-129 46q-82 0 -140.5 -50.5t-104.5 -158.5l-65 7q20 104 28 207q195 88 352 88q68 0 123 -19.5t87 -54t48.5 -82.5t16.5 -153l-9 -413q0 -84 19 -110t49 -26q36 0 113 54l31 -41 q-141 -126 -154 -134q-28 -16 -70 -16q-65 0 -100.5 32.5t-47.5 109.5q-120 -93 -178 -117.5t-126 -24.5q-111 0 -179 67.5t-68 172.5zM206 1090l154 234q36 56 56 84l93 -1q15 0 79 1q53 -86 208 -318h-68l-238 184l-219 -184h-65zM254 258q0 -75 41 -120t96 -45 q57 0 123.5 37.5t88 84.5t21.5 171v171q-261 -117 -315.5 -170.5t-54.5 -128.5z" />
<glyph unicode="&#xe3;" horiz-adv-x="1004" d="M73 215q0 64 24 115.5t69 90.5q35 29 118 70q195 95 340 153q-5 141 -47 187t-129 46q-82 0 -140.5 -50.5t-104.5 -158.5l-65 7q20 104 28 207q195 88 352 88q68 0 123 -19.5t87 -54t48.5 -82.5t16.5 -153l-9 -413q0 -84 19 -110t49 -26q36 0 113 54l31 -41 q-141 -126 -154 -134q-28 -16 -70 -16q-65 0 -100.5 32.5t-47.5 109.5q-120 -93 -178 -117.5t-126 -24.5q-111 0 -179 67.5t-68 172.5zM128 1130q32 137 92 200q38 41 93 41q60 0 167 -52t154 -52q36 0 56 18.5t41 85.5h63q-43 -151 -89.5 -197t-103.5 -46q-49 0 -158.5 52 t-152.5 52q-28 0 -53 -21t-48 -81h-61zM254 258q0 -75 41 -120t96 -45q57 0 123.5 37.5t88 84.5t21.5 171v171q-261 -117 -315.5 -170.5t-54.5 -128.5z" />
<glyph unicode="&#xe4;" horiz-adv-x="1004" d="M73 215q0 64 24 115.5t69 90.5q35 29 118 70q195 95 340 153q-5 141 -47 187t-129 46q-82 0 -140.5 -50.5t-104.5 -158.5l-65 7q20 104 28 207q195 88 352 88q68 0 123 -19.5t87 -54t48.5 -82.5t16.5 -153l-9 -413q0 -84 19 -110t49 -26q36 0 113 54l31 -41 q-141 -126 -154 -134q-28 -16 -70 -16q-65 0 -100.5 32.5t-47.5 109.5q-120 -93 -178 -117.5t-126 -24.5q-111 0 -179 67.5t-68 172.5zM228 1250q0 43 30 73.5t74 30.5q43 0 73 -30.5t30 -73.5t-30.5 -73.5t-72.5 -30.5q-43 0 -73.5 30.5t-30.5 73.5zM254 258q0 -75 41 -120 t96 -45q57 0 123.5 37.5t88 84.5t21.5 171v171q-261 -117 -315.5 -170.5t-54.5 -128.5zM570 1249q0 43 29.5 73t72.5 30t73 -30t30 -73q0 -42 -30 -72.5t-73 -30.5q-42 0 -72 30.5t-30 72.5z" />
<glyph unicode="&#xe5;" horiz-adv-x="1004" d="M73 215q0 64 24 115.5t69 90.5q35 29 118 70q195 95 340 153q-5 141 -47 187t-129 46q-82 0 -140.5 -50.5t-104.5 -158.5l-65 7q20 104 28 207q195 88 352 88q68 0 123 -19.5t87 -54t48.5 -82.5t16.5 -153l-9 -413q0 -84 19 -110t49 -26q36 0 113 54l31 -41 q-141 -126 -154 -134q-28 -16 -70 -16q-65 0 -100.5 32.5t-47.5 109.5q-120 -93 -178 -117.5t-126 -24.5q-111 0 -179 67.5t-68 172.5zM254 258q0 -75 41 -120t96 -45q57 0 123.5 37.5t88 84.5t21.5 171v171q-261 -117 -315.5 -170.5t-54.5 -128.5zM296 1250q0 85 60 145.5 t146 60.5q85 0 145 -60.5t60 -145.5t-60 -145t-145 -60q-86 0 -146 60t-60 145zM379 1250q0 -51 36 -87t87 -36q50 0 86 36t36 87t-35.5 87t-86.5 36q-52 0 -87.5 -36t-35.5 -87z" />
<glyph unicode="&#xe6;" horiz-adv-x="1473" d="M73 214q0 119 72 188.5t475 240.5v32q0 110 -41.5 156t-125.5 46q-86 0 -146 -49t-106 -158l-66 9q19 100 31 201q86 45 173 67.5t176 22.5q93 0 161 -39q44 -25 73 -82q69 65 131 92q91 39 194 39q156 0 240 -83t91 -260q-41 -25 -81 -58l-145 1q-195 1 -402 -9 q-4 -39 -4 -64q0 -113 43 -211.5t111.5 -141.5t137.5 -43q51 0 107 21q73 27 197 101l36 -57q-196 -148 -261.5 -179.5t-139.5 -31.5q-97 0 -177 49.5t-143 147.5q-114 -114 -188 -150.5t-168 -36.5q-115 0 -185 68t-70 171zM249 257q0 -72 46.5 -120t115.5 -48 q61 0 117 35.5t116 114.5q-32 127 -32 214q0 35 6 99q-243 -95 -320 -174q-49 -51 -49 -121zM787 653q268 3 437 16q-6 113 -62.5 170.5t-138.5 57.5q-80 0 -143.5 -57t-92.5 -187z" />
<glyph unicode="&#xe7;" horiz-adv-x="918" d="M68 433q0 239 150 393t370 154q150 0 289 -77q-7 -34 -20 -88q-17 -71 -38 -181l-67 5q-4 126 -63.5 186.5t-162.5 60.5q-74 0 -142 -40.5t-106.5 -132t-38.5 -207.5q0 -186 90.5 -290.5t209.5 -104.5q125 0 301 99l37 -60q-157 -116 -261 -163q-50 -22 -122 -22 q-175 0 -283 102q-143 135 -143 366zM225 -326q112 0 166 35q30 20 30 58q0 24 -12.5 37t-37.5 13q-7 0 -22 -2l-10 29q51 52 73 80t60 88h63q-25 -53 -63 -103q39 -9 61.5 -40t22.5 -74t-28 -86.5t-90.5 -68t-153.5 -24.5q-20 0 -59 3v55z" />
<glyph unicode="&#xe8;" horiz-adv-x="938" d="M74 450q0 240 138.5 385t338.5 145q155 0 239.5 -85.5t86.5 -261.5q-42 -24 -77 -59q-71 1 -89 1q-265 0 -461 -8q-1 -224 76 -339q77 -116 206 -116q65 0 136 25.5t177 93.5l38 -59l-199 -147q-41 -28 -85 -41q-64 -19 -131 -19q-163 0 -278.5 131t-115.5 354zM247 1408 l14 19q91 -2 98 -2q35 0 105 2q57 -165 125 -349h-59q-137 177 -283 330zM263 651q37 -1 56 -1q164 0 380 19q-6 99 -44 150q-56 75 -151 75q-82 0 -146 -56.5t-95 -186.5z" />
<glyph unicode="&#xe9;" horiz-adv-x="938" d="M74 450q0 240 138.5 385t338.5 145q155 0 239.5 -85.5t86.5 -261.5q-42 -24 -77 -59q-71 1 -89 1q-265 0 -461 -8q-1 -224 76 -339q77 -116 206 -116q65 0 136 25.5t177 93.5l38 -59l-199 -147q-41 -28 -85 -41q-64 -19 -131 -19q-163 0 -278.5 131t-115.5 354zM263 651 q37 -1 56 -1q164 0 380 19q-6 99 -44 150q-56 75 -151 75q-82 0 -146 -56.5t-95 -186.5zM390 1078q68 184 126 349l112 -2q17 0 90 2l14 -19q-146 -153 -282 -330h-60z" />
<glyph unicode="&#xea;" horiz-adv-x="938" d="M74 450q0 240 138.5 385t338.5 145q155 0 239.5 -85.5t86.5 -261.5q-42 -24 -77 -59q-71 1 -89 1q-265 0 -461 -8q-1 -224 76 -339q77 -116 206 -116q65 0 136 25.5t177 93.5l38 -59l-199 -147q-41 -28 -85 -41q-64 -19 -131 -19q-163 0 -278.5 131t-115.5 354zM214 1090 l154 234q36 56 56 84l93 -1q15 0 79 1q53 -86 208 -318h-68l-238 184l-219 -184h-65zM263 651q37 -1 56 -1q164 0 380 19q-6 99 -44 150q-56 75 -151 75q-82 0 -146 -56.5t-95 -186.5z" />
<glyph unicode="&#xeb;" horiz-adv-x="938" d="M74 450q0 240 138.5 385t338.5 145q155 0 239.5 -85.5t86.5 -261.5q-42 -24 -77 -59q-71 1 -89 1q-265 0 -461 -8q-1 -224 76 -339q77 -116 206 -116q65 0 136 25.5t177 93.5l38 -59l-199 -147q-41 -28 -85 -41q-64 -19 -131 -19q-163 0 -278.5 131t-115.5 354zM236 1250 q0 43 30 73.5t74 30.5q43 0 73 -30.5t30 -73.5t-30.5 -73.5t-72.5 -30.5q-43 0 -73.5 30.5t-30.5 73.5zM263 651q37 -1 56 -1q164 0 380 19q-6 99 -44 150q-56 75 -151 75q-82 0 -146 -56.5t-95 -186.5zM578 1249q0 43 29.5 73t72.5 30t73 -30t30 -73q0 -42 -30 -72.5 t-73 -30.5q-42 0 -72 30.5t-30 72.5z" />
<glyph unicode="&#xec;" horiz-adv-x="575" d="M56 -11v56q135 33 152 60.5t17 287.5l-1 213v41q0 112 -15 135t-48 23q-21 0 -105 -9v56q168 43 316 128l26 -21q-20 -212 -20 -601q0 -182 9 -224q6 -28 21 -40.5t104 -38.5q11 -3 33 -10v-56q-131 11 -215 11q-51 0 -274 -11zM65 1408l14 19q91 -2 98 -2q35 0 105 2 q57 -165 125 -349h-59q-137 177 -283 330z" />
<glyph unicode="&#xed;" horiz-adv-x="575" d="M56 -11v56q135 33 152 60.5t17 287.5l-1 213v41q0 112 -15 135t-48 23q-21 0 -105 -9v56q168 43 316 128l26 -21q-20 -212 -20 -601q0 -182 9 -224q6 -28 21 -40.5t104 -38.5q11 -3 33 -10v-56q-131 11 -215 11q-51 0 -274 -11zM168 1078q68 184 126 349l112 -2 q17 0 90 2l14 -19q-146 -153 -282 -330h-60z" />
<glyph unicode="&#xee;" horiz-adv-x="575" d="M-8 1090l154 234q36 56 56 84l93 -1q15 0 79 1q53 -86 208 -318h-68l-238 184l-219 -184h-65zM56 -11v56q135 33 152 60.5t17 287.5l-1 213v41q0 112 -15 135t-48 23q-21 0 -105 -9v56q168 43 316 128l26 -21q-20 -212 -20 -601q0 -182 9 -224q6 -28 21 -40.5t104 -38.5 q11 -3 33 -10v-56q-131 11 -215 11q-51 0 -274 -11z" />
<glyph unicode="&#xef;" horiz-adv-x="575" d="M14 1250q0 43 30 73.5t74 30.5q43 0 73 -30.5t30 -73.5t-30.5 -73.5t-72.5 -30.5q-43 0 -73.5 30.5t-30.5 73.5zM56 -11v56q135 33 152 60.5t17 287.5l-1 213v41q0 112 -15 135t-48 23q-21 0 -105 -9v56q168 43 316 128l26 -21q-20 -212 -20 -601q0 -182 9 -224 q6 -28 21 -40.5t104 -38.5q11 -3 33 -10v-56q-131 11 -215 11q-51 0 -274 -11zM356 1249q0 43 29.5 73t72.5 30t73 -30t30 -73q0 -42 -30 -72.5t-73 -30.5q-42 0 -72 30.5t-30 72.5z" />
<glyph unicode="&#xf0;" horiz-adv-x="1100" d="M74 447q0 232 131 370.5t328 138.5q106 0 205 -52q-68 146 -209 292l-236 -132l-41 75l215 119q-84 80 -163 134l45 67q128 -72 220 -143l250 143l43 -77l-220 -124q196 -167 289 -356.5t93 -383.5q0 -263 -134.5 -408t-356.5 -145q-214 0 -336.5 128.5t-122.5 353.5z M269 515q0 -245 87 -356.5t209 -111.5q119 0 198.5 95t79.5 296q0 221 -88 329.5t-215 108.5q-119 0 -195 -87t-76 -274z" />
<glyph unicode="&#xf1;" horiz-adv-x="1130" d="M28 785v58q180 42 326 127l27 -17q-14 -85 -17 -175l127 126q32 28 75 44q59 22 123 22q143 0 216 -95q49 -63 49 -217l-3 -242q0 -243 6 -287q5 -30 19 -42t95 -31q15 -4 45 -11v-56q-118 11 -210 11q-80 0 -274 -11v56q116 34 130.5 46t17.5 39q11 99 11 303 q0 218 -9 263q-14 66 -59 102t-108 36q-66 0 -130 -38.5t-94.5 -103.5t-30.5 -192q0 -360 15 -389.5t117 -55.5q13 -3 38 -10v-56q-134 11 -225 11q-88 0 -262 -11v56q118 28 134 41q10 8 14 42q11 95 11 259q0 339 -7 368q-11 42 -59 42q-22 0 -69 -7q-13 -2 -39 -5z M232 1130q32 137 92 200q38 41 93 41q60 0 167 -52t154 -52q36 0 56 18.5t41 85.5h63q-43 -151 -89.5 -197t-103.5 -46q-49 0 -158.5 52t-152.5 52q-28 0 -53 -21t-48 -81h-61z" />
<glyph unicode="&#xf2;" horiz-adv-x="1110" d="M77 456q0 242 137 383t360 141q211 0 334.5 -127t123.5 -355q0 -246 -138.5 -389.5t-358.5 -143.5q-213 0 -335.5 128t-122.5 363zM269 543q0 -164 21 -242q33 -126 104.5 -189.5t166.5 -63.5q123 0 202 93.5t79 300.5q0 232 -89.5 343.5t-210.5 111.5 q-120 0 -196.5 -87.5t-76.5 -266.5zM332 1408l14 19q91 -2 98 -2q35 0 105 2q57 -165 125 -349h-59q-137 177 -283 330z" />
<glyph unicode="&#xf3;" horiz-adv-x="1110" d="M77 456q0 242 137 383t360 141q211 0 334.5 -127t123.5 -355q0 -246 -138.5 -389.5t-358.5 -143.5q-213 0 -335.5 128t-122.5 363zM269 543q0 -164 21 -242q33 -126 104.5 -189.5t166.5 -63.5q123 0 202 93.5t79 300.5q0 232 -89.5 343.5t-210.5 111.5 q-120 0 -196.5 -87.5t-76.5 -266.5zM435 1078q68 184 126 349l112 -2q17 0 90 2l14 -19q-146 -153 -282 -330h-60z" />
<glyph unicode="&#xf4;" horiz-adv-x="1110" d="M77 456q0 242 137 383t360 141q211 0 334.5 -127t123.5 -355q0 -246 -138.5 -389.5t-358.5 -143.5q-213 0 -335.5 128t-122.5 363zM259 1090l154 234q36 56 56 84l93 -1q15 0 79 1q53 -86 208 -318h-68l-238 184l-219 -184h-65zM269 543q0 -164 21 -242 q33 -126 104.5 -189.5t166.5 -63.5q123 0 202 93.5t79 300.5q0 232 -89.5 343.5t-210.5 111.5q-120 0 -196.5 -87.5t-76.5 -266.5z" />
<glyph unicode="&#xf5;" horiz-adv-x="1110" d="M77 456q0 242 137 383t360 141q211 0 334.5 -127t123.5 -355q0 -246 -138.5 -389.5t-358.5 -143.5q-213 0 -335.5 128t-122.5 363zM221 1130q32 137 92 200q38 41 93 41q60 0 167 -52t154 -52q36 0 56 18.5t41 85.5h63q-43 -151 -89.5 -197t-103.5 -46q-49 0 -158.5 52 t-152.5 52q-28 0 -53 -21t-48 -81h-61zM269 543q0 -164 21 -242q33 -126 104.5 -189.5t166.5 -63.5q123 0 202 93.5t79 300.5q0 232 -89.5 343.5t-210.5 111.5q-120 0 -196.5 -87.5t-76.5 -266.5z" />
<glyph unicode="&#xf6;" horiz-adv-x="1110" d="M77 456q0 242 137 383t360 141q211 0 334.5 -127t123.5 -355q0 -246 -138.5 -389.5t-358.5 -143.5q-213 0 -335.5 128t-122.5 363zM269 543q0 -164 21 -242q33 -126 104.5 -189.5t166.5 -63.5q123 0 202 93.5t79 300.5q0 232 -89.5 343.5t-210.5 111.5 q-120 0 -196.5 -87.5t-76.5 -266.5zM281 1250q0 43 30 73.5t74 30.5q43 0 73 -30.5t30 -73.5t-30.5 -73.5t-72.5 -30.5q-43 0 -73.5 30.5t-30.5 73.5zM623 1249q0 43 29.5 73t72.5 30t73 -30t30 -73q0 -42 -30 -72.5t-73 -30.5q-42 0 -72 30.5t-30 72.5z" />
<glyph unicode="&#xf7;" d="M139 596v131h1088v-131h-1088zM599 202q0 35 24.5 59.5t59.5 24.5t59.5 -24.5t24.5 -59.5t-24.5 -59.5t-59.5 -24.5t-59.5 24.5t-24.5 59.5zM599 1121q0 35 24.5 59.5t59.5 24.5t59.5 -24.5t24.5 -59.5t-24.5 -59.5t-59.5 -24.5t-59.5 24.5t-24.5 59.5z" />
<glyph unicode="&#xf8;" horiz-adv-x="1110" d="M76 0l103 117q-102 132 -102 340q0 241 137 382t358 141q177 0 290 -86l102 115l70 -60l-104 -119q102 -129 102 -332q0 -249 -134.5 -391t-357.5 -142q-180 0 -292 84l-100 -115zM268 521q0 -153 35 -264l456 519q-85 121 -217 121q-114 0 -194 -84t-80 -292zM349 165 q80 -117 212 -117q122 0 201.5 93t79.5 295q0 144 -37 251z" />
<glyph unicode="&#xf9;" horiz-adv-x="1130" d="M7 852v56q182 10 335 44l25 -19q-21 -173 -21 -420q0 -215 13.5 -274.5t58.5 -93.5t108 -34q72 0 135.5 39t88.5 99t25 185q0 15 -6 337q-5 43 -25.5 58t-113.5 20l-36 3v56q214 16 334 44l26 -19q-9 -83 -13.5 -207.5t-4.5 -290.5q0 -209 11 -248t56 -39q26 0 105 12 v-56q-103 -27 -173.5 -55t-149.5 -74l-30 22q13 74 15 148q-118 -110 -177 -140t-132 -30q-138 0 -206 68q-69 67 -69 205v350q-1 187 -21.5 215t-122.5 35q-12 1 -35 4zM343 1408l14 19q91 -2 98 -2q35 0 105 2q57 -165 125 -349h-59q-137 177 -283 330z" />
<glyph unicode="&#xfa;" horiz-adv-x="1130" d="M7 852v56q182 10 335 44l25 -19q-21 -173 -21 -420q0 -215 13.5 -274.5t58.5 -93.5t108 -34q72 0 135.5 39t88.5 99t25 185q0 15 -6 337q-5 43 -25.5 58t-113.5 20l-36 3v56q214 16 334 44l26 -19q-9 -83 -13.5 -207.5t-4.5 -290.5q0 -209 11 -248t56 -39q26 0 105 12 v-56q-103 -27 -173.5 -55t-149.5 -74l-30 22q13 74 15 148q-118 -110 -177 -140t-132 -30q-138 0 -206 68q-69 67 -69 205v350q-1 187 -21.5 215t-122.5 35q-12 1 -35 4zM446 1078q68 184 126 349l112 -2q17 0 90 2l14 -19q-146 -153 -282 -330h-60z" />
<glyph unicode="&#xfb;" horiz-adv-x="1130" d="M7 852v56q182 10 335 44l25 -19q-21 -173 -21 -420q0 -215 13.5 -274.5t58.5 -93.5t108 -34q72 0 135.5 39t88.5 99t25 185q0 15 -6 337q-5 43 -25.5 58t-113.5 20l-36 3v56q214 16 334 44l26 -19q-9 -83 -13.5 -207.5t-4.5 -290.5q0 -209 11 -248t56 -39q26 0 105 12 v-56q-103 -27 -173.5 -55t-149.5 -74l-30 22q13 74 15 148q-118 -110 -177 -140t-132 -30q-138 0 -206 68q-69 67 -69 205v350q-1 187 -21.5 215t-122.5 35q-12 1 -35 4zM270 1090l154 234q36 56 56 84l93 -1q15 0 79 1q53 -86 208 -318h-68l-238 184l-219 -184h-65z" />
<glyph unicode="&#xfc;" horiz-adv-x="1130" d="M7 852v56q182 10 335 44l25 -19q-21 -173 -21 -420q0 -215 13.5 -274.5t58.5 -93.5t108 -34q72 0 135.5 39t88.5 99t25 185q0 15 -6 337q-5 43 -25.5 58t-113.5 20l-36 3v56q214 16 334 44l26 -19q-9 -83 -13.5 -207.5t-4.5 -290.5q0 -209 11 -248t56 -39q26 0 105 12 v-56q-103 -27 -173.5 -55t-149.5 -74l-30 22q13 74 15 148q-118 -110 -177 -140t-132 -30q-138 0 -206 68q-69 67 -69 205v350q-1 187 -21.5 215t-122.5 35q-12 1 -35 4zM292 1250q0 43 30 73.5t74 30.5q43 0 73 -30.5t30 -73.5t-30.5 -73.5t-72.5 -30.5q-43 0 -73.5 30.5 t-30.5 73.5zM634 1249q0 43 29.5 73t72.5 30t73 -30t30 -73q0 -42 -30 -72.5t-73 -30.5q-42 0 -72 30.5t-30 72.5z" />
<glyph unicode="&#xfd;" horiz-adv-x="1044" d="M14 890v56q155 -11 225 -11q53 0 225 11v-56q-88 -15 -108 -31q-14 -10 -14 -26q0 -20 32 -100q108 -269 211 -479l105 299q89 238 89 276q0 19 -9 28q-13 14 -49 24q-10 3 -28 9v56q126 -11 183 -11q69 0 152 11v-56q-77 -19 -104 -47.5t-103 -227.5l-195 -520 q-85 -242 -129 -321q-57 -104 -130 -154t-140 -50q-35 0 -92 12q-15 61 -26 89t-40 82l38 27q76 -67 150 -67q71 0 121 51q71 71 124 257l-195 446q-92 212 -158 333q-21 38 -38 51q-25 20 -97 39zM403 1078q68 184 126 349l112 -2q17 0 90 2l14 -19q-146 -153 -282 -330 h-60z" />
<glyph unicode="&#xfe;" horiz-adv-x="1087" d="M7 -385l48 12q83 18 101 36.5t22 60.5t4 351l-5 910v42q0 206 -16 235q-13 23 -55 23q-30 0 -97 -10v58q133 39 195.5 64t125.5 62l25 -15q-9 -87 -12 -169l-8 -528q125 148 197 193q48 30 127 30q158 0 259 -111t101 -318q0 -240 -158 -405t-349 -165q-35 0 -78 11 t-94 32q3 -268 9 -314q4 -26 18.5 -38t115.5 -36q14 -3 42 -11v-55q-149 11 -243 11q-71 0 -275 -11v55zM337 171q55 -48 112.5 -72.5t118.5 -24.5q111 0 195.5 97.5t84.5 277.5q0 185 -85 291q-63 80 -164 80q-66 0 -131 -40t-96 -103.5t-33 -159.5z" />
<glyph unicode="&#xff;" horiz-adv-x="1044" d="M14 890v56q155 -11 225 -11q53 0 225 11v-56q-88 -15 -108 -31q-14 -10 -14 -26q0 -20 32 -100q108 -269 211 -479l105 299q89 238 89 276q0 19 -9 28q-13 14 -49 24q-10 3 -28 9v56q126 -11 183 -11q69 0 152 11v-56q-77 -19 -104 -47.5t-103 -227.5l-195 -520 q-85 -242 -129 -321q-57 -104 -130 -154t-140 -50q-35 0 -92 12q-15 61 -26 89t-40 82l38 27q76 -67 150 -67q71 0 121 51q71 71 124 257l-195 446q-92 212 -158 333q-21 38 -38 51q-25 20 -97 39zM249 1250q0 43 30 73.5t74 30.5q43 0 73 -30.5t30 -73.5t-30.5 -73.5 t-72.5 -30.5q-43 0 -73.5 30.5t-30.5 73.5zM591 1249q0 43 29.5 73t72.5 30t73 -30t30 -73q0 -42 -30 -72.5t-73 -30.5q-42 0 -72 30.5t-30 72.5z" />
<glyph unicode="&#x152;" horiz-adv-x="2218" d="M90 700q0 316 206 512t573 196q17 0 162 -4q246 -7 463 -7q180 0 532 11q-1 -28 -1 -44q0 -94 25 -298h-73q-10 29 -14 44q-40 141 -71 165.5t-164 24.5h-400q-6 -183 -6 -516h304q98 0 121.5 21t50.5 148q2 12 9 36h67l-10 -235l10 -273h-70l-35 162q-8 23 -25 31 q-30 14 -156 14h-266q-1 -55 -1 -88q0 -301 7 -498h458q102 0 139 29q47 37 133 201l21 39l73 -6q-62 -175 -126 -376q-464 11 -612 11q-128 0 -355 -6q-184 -5 -203 -5q-270 0 -435 88t-248 254.5t-83 368.5zM310 707q0 -288 158 -456t412 -168q136 0 198 19 q23 7 37.5 30.5t15.5 173.5q5 363 5 424l-5 403q0 13 0.5 25.5t0.5 25.5q0 65 -14.5 85t-63.5 28q-98 16 -191 16q-173 0 -301.5 -74t-190 -213t-61.5 -319z" />
<glyph unicode="&#x153;" horiz-adv-x="1686" d="M72 454q0 228 132 377t356 149q132 0 234 -61q70 -41 128 -132q70 90 142 133q102 60 220 60q154 0 240 -86.5t91 -258.5q-46 -25 -81 -60q-149 3 -189 3q-119 0 -359 -14q-1 -34 -1 -51q0 -194 85.5 -296t205.5 -102q65 0 131.5 24.5t175.5 96.5l36 -60 q-169 -140 -260 -182q-61 -29 -144 -29q-104 0 -174 45.5t-130 150.5q-78 -101 -153 -141q-103 -55 -234 -55q-206 0 -329 129t-123 360zM263 541q0 -267 100 -400q71 -95 196 -95q116 0 196.5 96.5t80.5 298.5q0 229 -102 356q-78 98 -201 98q-117 0 -193.5 -87.5 t-76.5 -266.5zM998 651q228 1 436 20q-2 108 -55.5 165t-142.5 57q-86 0 -150.5 -59t-87.5 -183z" />
<glyph unicode="&#x178;" horiz-adv-x="1536" d="M23 1349v59q158 -11 281 -11q120 0 294 11v-59q-115 -29 -132.5 -42t-17.5 -27q0 -13 17 -42q90 -156 342 -543q126 200 329 546q21 35 21 48q0 14 -11 21q-32 20 -140 39v59q183 -11 266 -11q100 0 246 11v-59q-123 -24 -174 -56.5t-121 -136.5q-152 -226 -361 -560 q-1 -50 -1 -59q0 -348 4 -383.5t22 -51.5q28 -22 168 -47q12 -2 35 -7v-59q-186 11 -301 11q-92 0 -341 -11v59q35 7 52 10q124 20 150 40q15 12 23 60.5t8 281.5l-1 134q-84 134 -278 422l-182 264q-20 23 -49 39q-45 25 -148 50zM495 1678q0 43 30 73.5t74 30.5 q43 0 73 -30.5t30 -73.5t-30.5 -73.5t-72.5 -30.5q-43 0 -73.5 30.5t-30.5 73.5zM837 1677q0 43 29.5 73t72.5 30t73 -30t30 -73q0 -42 -30 -72.5t-73 -30.5q-42 0 -72 30.5t-30 72.5z" />
<glyph unicode="&#x2c6;" horiz-adv-x="682" d="M46 1090l154 234q36 56 56 84l93 -1q15 0 79 1q53 -86 208 -318h-68l-238 184l-219 -184h-65z" />
<glyph unicode="&#x2dc;" horiz-adv-x="682" d="M8 1130q32 137 92 200q38 41 93 41q60 0 167 -52t154 -52q36 0 56 18.5t41 85.5h63q-43 -151 -89.5 -197t-103.5 -46q-49 0 -158.5 52t-152.5 52q-28 0 -53 -21t-48 -81h-61z" />
<glyph unicode="&#x2000;" horiz-adv-x="942" />
<glyph unicode="&#x2001;" horiz-adv-x="1884" />
<glyph unicode="&#x2002;" horiz-adv-x="942" />
<glyph unicode="&#x2003;" horiz-adv-x="1884" />
<glyph unicode="&#x2004;" horiz-adv-x="628" />
<glyph unicode="&#x2005;" horiz-adv-x="471" />
<glyph unicode="&#x2006;" horiz-adv-x="314" />
<glyph unicode="&#x2007;" horiz-adv-x="314" />
<glyph unicode="&#x2008;" horiz-adv-x="235" />
<glyph unicode="&#x2009;" horiz-adv-x="376" />
<glyph unicode="&#x200a;" horiz-adv-x="104" />
<glyph unicode="&#x2010;" horiz-adv-x="598" d="M55 398q22 68 40 140q128 -2 192 -2q143 0 251 15l12 -13q-30 -75 -49 -153q-114 5 -194 5q-75 0 -239 -5z" />
<glyph unicode="&#x2011;" horiz-adv-x="598" d="M55 398q22 68 40 140q128 -2 192 -2q143 0 251 15l12 -13q-30 -75 -49 -153q-114 5 -194 5q-75 0 -239 -5z" />
<glyph unicode="&#x2012;" horiz-adv-x="598" d="M55 398q22 68 40 140q128 -2 192 -2q143 0 251 15l12 -13q-30 -75 -49 -153q-114 5 -194 5q-75 0 -239 -5z" />
<glyph unicode="&#x2013;" horiz-adv-x="1024" d="M-12 466v92h1048v-92h-1048z" />
<glyph unicode="&#x2014;" horiz-adv-x="2048" d="M-12 466v92h2072v-92h-2072z" />
<glyph unicode="&#x2018;" horiz-adv-x="575" d="M154 1062q0 193 209 376l43 -53q-123 -126 -123 -237q0 -44 25 -71.5t56 -27.5q13 0 36 7l31 -39q-67 -75 -118 -166q-75 26 -117 83.5t-42 127.5z" />
<glyph unicode="&#x2019;" horiz-adv-x="575" d="M142 1272q67 76 118 166q74 -26 116.5 -83.5t42.5 -127.5q0 -193 -209 -376l-43 53q123 126 123 237q0 44 -25 71.5t-56 27.5q-13 0 -36 -7z" />
<glyph unicode="&#x201a;" horiz-adv-x="575" d="M144 48q67 76 118 166q74 -25 116.5 -83t42.5 -127q0 -193 -209 -376l-43 53q123 125 123 237q0 44 -25 71.5t-56 27.5q-13 0 -36 -7z" />
<glyph unicode="&#x201c;" horiz-adv-x="1024" d="M155 1062q0 193 209 376l43 -53q-123 -126 -123 -237q0 -44 25 -71.5t56 -27.5q13 0 36 7l31 -39q-67 -75 -118 -166q-75 26 -117 83.5t-42 127.5zM602 1062q0 193 209 376l43 -53q-123 -126 -123 -237q0 -44 25 -71.5t56 -27.5q13 0 36 7l31 -39q-67 -75 -118 -166 q-74 26 -116.5 83.5t-42.5 127.5z" />
<glyph unicode="&#x201d;" horiz-adv-x="1024" d="M145 1272q67 76 118 166q74 -26 116.5 -83.5t42.5 -127.5q0 -193 -209 -376l-43 53q123 126 123 237q0 44 -25 71.5t-56 27.5q-13 0 -36 -7zM592 1272q68 76 118 166q75 -26 117 -83.5t42 -127.5q0 -193 -209 -376l-43 53q123 126 123 237q0 44 -25 71.5t-55 27.5 q-14 0 -37 -7z" />
<glyph unicode="&#x201e;" horiz-adv-x="1024" d="M145 48q67 76 118 166q74 -25 116.5 -83t42.5 -127q0 -193 -209 -376l-43 53q123 125 123 237q0 44 -25 71.5t-56 27.5q-13 0 -36 -7zM592 48q68 76 118 166q75 -25 117 -83t42 -127q0 -193 -209 -376l-43 53q123 125 123 237q0 44 -25 71.5t-55 27.5q-14 0 -37 -7z" />
<glyph unicode="&#x2022;" horiz-adv-x="725" d="M112 677q0 104 73.5 177.5t177.5 73.5t177.5 -73.5t73.5 -177.5t-73.5 -177.5t-177.5 -73.5t-177.5 73.5t-73.5 177.5z" />
<glyph unicode="&#x2026;" horiz-adv-x="2048" d="M229 77q0 46 32.5 79t79.5 33q46 0 79 -33t33 -79t-33 -79t-79 -33t-79 32.5t-33 79.5zM912 77q0 46 32.5 79t79.5 33q46 0 78.5 -33t32.5 -79t-32.5 -79t-78.5 -33q-47 0 -79.5 32.5t-32.5 79.5zM1594 77q0 46 33 79t79 33q47 0 79.5 -33t32.5 -79t-32.5 -79t-79.5 -33 q-46 0 -79 32.5t-33 79.5z" />
<glyph unicode="&#x202f;" horiz-adv-x="376" />
<glyph unicode="&#x2039;" horiz-adv-x="512" d="M54 464q37 45 110 128q114 131 209 246h86l-216 -374l216 -372h-86z" />
<glyph unicode="&#x203a;" horiz-adv-x="512" d="M54 92l215 375l-215 371h85l320 -371q-38 -46 -110 -129q-115 -131 -210 -246h-85z" />
<glyph unicode="&#x205f;" horiz-adv-x="471" />
<glyph unicode="&#x20ac;" horiz-adv-x="1047" d="M-6 553l12 92h90v70q0 23 2 33h-104l12 92h100q44 281 197.5 436.5t366.5 155.5q140 0 282 -60q0 -258 6 -364h-84q-24 319 -229 319q-296 0 -346 -487h594l-12 -92h-586v-103h571l-12 -92h-551q50 -455 346 -455q131 0 287 92l45 -69q-191 -162 -399 -162 q-193 0 -321 153t-161 441h-106z" />
<glyph unicode="&#x2122;" horiz-adv-x="2005" d="M30 1155l21 201h728l22 -201h-34q-10 72 -52.5 106.5t-141.5 34.5h-75v-579q0 -84 20 -106.5t86 -25.5v-36h-374v36q65 6 82.5 27.5t17.5 103.5v580h-76q-95 0 -135 -31.5t-55 -109.5h-34zM870 549v36q56 0 75.5 10t28.5 31t9 90v466q0 89 -19.5 113t-93.5 24v37h286 l273 -572l265 572h279v-37q-71 -2 -91 -25.5t-20 -109.5v-468q0 -85 19 -106t92 -25v-36h-398v36q59 1 79.5 12t30 32t9.5 86v492l-307 -658h-32l-308 649v-482q0 -64 5 -81q9 -25 28 -37.5t60 -12.5h36v-36h-306z" />
<glyph unicode="&#x25fc;" horiz-adv-x="945" d="M0 0v945h945v-945h-945z" />
</font>
</defs>
</svg>
