<?xml version="1.0" standalone="no"?>
<!DOCTYPE svg PUBLIC "-//W3C//DTD SVG 1.1//EN" "http://www.w3.org/Graphics/SVG/1.1/DTD/svg11.dtd" >
<svg xmlns="http://www.w3.org/2000/svg" xmlns:xlink="http://www.w3.org/1999/xlink" version="1.1">
<metadata></metadata>
<defs>
<font id="crimsonitalic" horiz-adv-x="912" >
<font-face units-per-em="2048" ascent="1434" descent="-614" />
<missing-glyph horiz-adv-x="454" />
<glyph horiz-adv-x="0" />
<glyph unicode="&#xd;" horiz-adv-x="682" />
<glyph unicode=" "  horiz-adv-x="454" />
<glyph unicode="&#x09;" horiz-adv-x="454" />
<glyph unicode="&#xa0;" horiz-adv-x="454" />
<glyph unicode="!" horiz-adv-x="468" d="M40 72q0 56 38 94t94 38q36 0 61 -28t25 -64q0 -58 -37 -99t-93 -41q-38 0 -63 30t-25 70zM160 332q0 4 17 144t43 342t46 336q6 34 40 71t78 37q30 0 46 -26t16 -60q0 -24 -33 -147t-91 -335t-94 -354q-4 -18 -25 -31t-31 -13q-12 0 -12 36z" />
<glyph unicode="&#x22;" horiz-adv-x="662" d="M214 894q8 80 8 151t-4 136t-4 91q6 34 46 79t88 45q46 0 57 -21t-1 -109q-12 -62 -57 -188t-61 -180q-10 -30 -42 -30q-12 0 -22 7t-8 19zM514 894q8 80 8 151t-4 136t-4 91q6 34 46 79t88 45q46 0 57 -21t-1 -109q-12 -62 -57 -188t-61 -180q-10 -30 -42 -30 q-12 0 -22 7t-8 19z" />
<glyph unicode="#" horiz-adv-x="894" d="M26 362q0 24 17 59t29 35h158l60 184h-158q-10 0 -10 6q0 24 17 59t29 35h158l102 306q0 14 62 14q22 0 38 -8q-2 -6 -28 -82t-52 -150l-24 -72l-4 -8h186l102 306q0 14 62 14q22 0 38 -8q-2 -6 -28 -82t-52 -150l-24 -72l-4 -8h160q10 0 10 -4q0 -24 -17 -60t-29 -36 h-158l-60 -184h158q10 0 10 -6q0 -24 -17 -59t-29 -35h-158l-102 -306q0 -14 -62 -14q-26 0 -38 6q2 8 28 84t52 150l24 72l4 8h-186l-102 -306q0 -14 -62 -14q-26 0 -38 6q2 8 28 84t52 150l24 72l4 8h-160q-10 0 -10 6zM326 456h184l60 184h-184z" />
<glyph unicode="$" horiz-adv-x="870" d="M37 239q-5 107 1 115q10 12 48 12q14 0 20 -12q0 -68 34 -145t100 -119l166 480q-6 6 -46 36t-51 40t-42 37t-42 47t-28 50t-23 64t-6 72q0 158 129 262t275 104q44 0 82 -4l30 88q64 0 62 -14l-30 -86q18 -2 37 -7t43 -12t40 -11q-14 -152 -40 -278q-2 -14 -18 -14 q-28 0 -42 14q10 152 -54 212l-158 -458l16 -12q12 -10 62 -46t70 -55t53 -56t46 -79t13 -94q0 -168 -141 -277t-299 -109q-36 0 -72 6l-32 -94q-64 0 -62 18l32 90q-56 16 -150 60q-18 68 -23 175zM298 62q34 -10 74 -10q92 0 166 62t74 168q0 82 -37 134t-115 112z M318 1000q0 -82 39 -137t113 -111l156 450q-34 12 -82 12q-110 0 -168 -65t-58 -149z" />
<glyph unicode="%" horiz-adv-x="1260" d="M4 -2l1192 1306q22 22 44 22q44 0 54 -26l-1192 -1300q-24 -24 -68 -24q-24 0 -30 22zM148 938q0 152 108 280t256 128q110 0 168 -77t58 -187q0 -150 -108 -278t-250 -128q-108 0 -170 77t-62 185zM274 956q0 -90 32 -157t98 -67q90 0 147 110t57 240q0 84 -27 147 t-89 63q-90 0 -154 -106t-64 -230zM572 246q0 152 108 280t256 128q110 0 168 -77t58 -187q0 -150 -108 -278t-250 -128q-108 0 -170 77t-62 185zM698 264q0 -90 32 -157t98 -67q90 0 147 110t57 240q0 84 -27 147t-89 63q-90 0 -154 -106t-64 -230z" />
<glyph unicode="&#x26;" horiz-adv-x="1562" d="M-14 214q0 94 56 163t162 99q12 4 37 11t39 9q12 142 84 273t198 217t274 86q68 0 118 -50t50 -118q0 -74 -42 -140t-101 -111t-142 -84t-146 -60t-131 -37q10 -208 107 -313t271 -105q142 0 258 97t116 233q0 62 -30 92q-90 -30 -159 -78t-69 -108q0 -30 8 -44 q-6 -4 -20 -1t-20 11q-42 34 -42 114q0 64 56 115t174 101q402 172 382 498q22 2 40 -16q44 -88 44 -188q0 -114 -69 -206t-181 -146q12 -24 12 -72q0 -180 -172 -323t-392 -143q-100 0 -183 24t-150 75t-105 138t-40 205q-92 -22 -142 -51t-50 -73q0 -10 2 -18t8 -15t9 -11 t11 -10t10 -8q38 -34 38 -66q0 -42 -25 -64t-63 -22q-32 0 -50 10q-40 34 -40 110zM442 548q376 130 376 322q0 118 -102 118t-183 -126t-91 -314z" />
<glyph unicode="'" horiz-adv-x="362" d="M214 894q8 80 8 151t-4 136t-4 91q6 34 46 79t88 45q46 0 57 -21t-1 -109q-12 -62 -57 -188t-61 -180q-10 -30 -42 -30q-12 0 -22 7t-8 19z" />
<glyph unicode="(" horiz-adv-x="520" d="M98 354q-14 170 13 333t77 284t122 232t129 176t115 117q14 -6 14 -26q-74 -86 -157 -243t-149 -411t-46 -488q32 -376 190 -546q0 -20 -10 -24q-100 38 -189 197t-109 399z" />
<glyph unicode=")" horiz-adv-x="520" d="M-10 -216q74 86 157 243t149 411t46 488q-32 376 -190 546q0 20 10 24q100 -38 189 -197t109 -399q14 -170 -13 -333t-77 -284t-122 -232t-129 -176t-115 -117q-18 8 -14 26z" />
<glyph unicode="*" horiz-adv-x="800" d="M128 912q0 18 7 35t36 35t79 18q32 0 85 -7t71 -7q50 0 50 34q0 20 -51 99t-51 127q0 36 21 59t47 23q22 0 36 -14t20 -41t8 -52t2 -61q0 -132 24 -132q16 0 45 37t58 82t69 82t74 37q46 0 46 -48t-66 -94t-133 -81t-67 -61q0 -18 39 -31t85 -21t85 -32t39 -60 q0 -28 -22 -50t-52 -22q-36 0 -76 41t-73 83t-53 42t-27 -36t-13 -103t-20 -111q-12 -42 -35 -64t-47 -22q-20 0 -33 15t-13 41q0 44 65 149t65 127q0 18 -18 18q-16 0 -110 -41t-136 -41q-60 0 -60 48z" />
<glyph unicode="+" horiz-adv-x="908" d="M36 450q0 36 26 70h344l66 350q4 16 34 24t48 8q12 0 16 -5t2 -11l-70 -366h342q6 0 6 -16q0 -44 -24 -70h-340l-70 -356q-6 -32 -70 -32q-28 0 -28 16l72 372h-344q-10 0 -10 16z" />
<glyph unicode="," horiz-adv-x="400" d="M-56 -178q38 18 87 66t49 108q0 52 -17 92t-17 70q0 44 32 72t78 28q40 0 56 -20q6 -14 6 -48q0 -128 -72 -246q-38 -62 -89 -105t-85 -57q-6 0 -17 14t-11 26z" />
<glyph unicode="-" horiz-adv-x="742" d="M106 428q0 20 14 56t28 38l454 24q12 0 12 -24q0 -22 -16 -61t-30 -41l-452 -22q-10 0 -10 30z" />
<glyph unicode="." horiz-adv-x="416" d="M16 66q0 54 42 96t92 42q38 0 62 -25t24 -65q0 -54 -41 -98t-91 -44q-38 0 -63 27t-25 67z" />
<glyph unicode="/" horiz-adv-x="764" d="M-64 -56l850 1534q8 14 37 29t55 15q16 0 24 -12l-848 -1534q-6 -12 -35 -28t-59 -16q-18 0 -24 12z" />
<glyph unicode="0" d="M161 317q-17 143 15 321q34 176 109 321t186 234t235 89q94 0 162 -52t100 -140t39 -205t-21 -247q-36 -176 -111 -321t-186 -234t-233 -89q-124 0 -201 90t-94 233zM325 234q35 -170 137 -170q118 0 216 168t148 418q46 236 12 399t-136 163q-114 0 -214 -164t-148 -408 q-50 -236 -15 -406z" />
<glyph unicode="1" d="M258 -6q-6 8 0 33t12 25q24 0 78 13t60 27q16 34 32 114l140 720q12 52 16 80t6 55t-5 37t-21 10q-12 0 -57 -14t-71 -26q-22 12 -18 40q0 10 6 12q348 164 356 164h4q16 0 16 -38q-32 -66 -56 -188l-152 -788q-22 -122 -20 -178q2 -14 50 -27t66 -13q6 0 0 -36 q-2 -8 -3 -14t-3 -8q-184 10 -220 10q-26 0 -216 -10z" />
<glyph unicode="2" d="M80 30q82 74 254 251t260 277q104 116 151 215t47 199q0 84 -45 133t-119 49q-68 0 -137 -37t-104 -71t-57 -64q-10 0 -20 13t-8 19q10 22 44 64t86 89t123 82t139 35q114 0 195 -73t81 -187q0 -126 -58 -228t-178 -224q-26 -28 -59 -60t-66 -63t-67 -64t-65 -62t-61 -56 t-53 -49t-41 -38t-27 -25l-9 -9h340q144 0 210 148q8 18 26 18q6 0 19 -5t15 -7q-128 -240 -154 -300h-650q-12 12 -12 30z" />
<glyph unicode="3" d="M126 96q0 46 25 81t59 35q30 0 48 -14t34 -43t22 -37q38 -48 128 -48q96 0 190 105t94 263q0 100 -52 158t-142 58q-38 0 -118 -20q-8 14 -8 28q0 26 6 34q84 14 165 57t140 116t59 157q0 78 -43 114t-111 36q-42 0 -83 -17t-65 -37t-48 -42t-26 -24q-8 0 -11 17t1 31 q148 180 330 180q78 0 140 -57t62 -161q0 -90 -71 -174t-161 -134q82 -10 144 -94t62 -176q0 -88 -40 -169t-101 -139t-134 -102t-143 -66t-124 -22q-138 0 -210 50q-18 22 -18 56z" />
<glyph unicode="4" d="M116 386l770 852q12 14 34 32t32 18q12 0 20 -12t6 -24l-154 -790h112q8 0 12 -25t-2 -57q-4 -16 -14 -32h-130l-68 -350q-14 -10 -86 -10q-38 0 -53 3t-13 13l68 344h-524q-16 10 -10 38zM258 462h414l114 586z" />
<glyph unicode="5" d="M126 96q0 46 26 81t58 35q30 0 48 -14t34 -43t22 -37q38 -48 128 -48q96 0 190 105t94 263q0 26 -4 51t-19 59t-40 58t-71 41t-108 17q-68 0 -150 -26q-12 8 -28 28q52 152 111 361t69 235q408 12 468 26q20 -10 20 -26q0 -22 -23 -67t-43 -73q-52 -12 -219 -15t-173 -5 q-4 -6 -22 -69t-44 -148t-42 -131q30 12 94 24t100 12q140 0 217 -91t77 -205q0 -88 -39 -170t-100 -141t-135 -104t-144 -67t-124 -22q-138 0 -210 50q-18 22 -18 56z" />
<glyph unicode="6" d="M162 346q0 128 63 285t185 297q90 102 244 201t324 157q8 0 12 -19t2 -31q-432 -184 -582 -536q-84 -198 -84 -380q0 -68 14 -124t50 -99t90 -43q90 0 180 115t90 279q0 100 -47 159t-145 59q-46 0 -96 -28q-12 8 -12 20q0 20 76 61t124 41q114 0 187 -88t73 -212 q0 -112 -67 -223t-173 -180t-214 -69q-134 0 -214 96t-80 262z" />
<glyph unicode="7" d="M206 28q118 148 300 419t306 469l124 198h-464q-34 0 -68 -28t-53 -56t-43 -70q-2 -6 -14 -6q-24 0 -42 10q4 10 62 135t70 167h572q30 0 78 3l48 3q12 0 8 -18q-2 -10 -10 -26t-17 -29t-26 -39t-27 -40l-708 -1126q-6 -6 -20 -6q-22 0 -50 14t-26 26z" />
<glyph unicode="8" d="M166 308q10 58 42 109t82 93t81 64t81 52q12 6 18 10q12 8 4 12q-64 46 -107 129t-23 183q26 128 138 227t234 99q128 0 200 -83t46 -221q-30 -150 -266 -294q-12 -2 -2 -12q86 -60 141 -152t37 -190q-28 -148 -155 -250t-269 -102q-154 0 -233 90t-49 236zM314 314 q-24 -116 24 -188t128 -72q92 0 158 60t86 162q8 46 -6 95t-36 82t-57 68t-48 46t-31 23q-8 4 -10 4q-6 0 -8 -2q-88 -54 -135 -118t-65 -160zM486 984q-26 -136 144 -256q8 -4 10 -4q6 0 12 4q142 90 174 244q18 94 -18 169t-116 75q-70 0 -128 -64t-78 -168z" />
<glyph unicode="9" d="M168 38q432 184 582 536q84 198 84 380q0 68 -14 124t-50 99t-90 43q-92 0 -181 -115t-89 -279q0 -100 46 -159t146 -59q44 0 96 28q12 -8 12 -20q0 -20 -76 -61t-124 -41q-114 0 -187 88t-73 212q0 112 67 223t173 180t214 69q132 0 213 -96t81 -262q0 -128 -63 -285 t-185 -297q-90 -102 -245 -201t-323 -157q-8 0 -12 19t-2 31z" />
<glyph unicode=":" horiz-adv-x="472" d="M38 68q0 56 42 100t94 44q40 0 65 -27t25 -69q0 -56 -42 -100t-94 -44q-40 0 -65 27t-25 69zM166 734q0 56 43 99t95 43q40 0 65 -27t25 -67q0 -56 -42 -101t-94 -45q-40 0 -66 28t-26 70z" />
<glyph unicode=";" horiz-adv-x="504" d="M-34 -178q38 18 87 66t49 108q0 52 -17 92t-17 70q0 44 32 72t78 28q40 0 56 -20q6 -14 6 -48q0 -128 -72 -246q-38 -62 -89 -105t-85 -57q-6 0 -17 14t-11 26zM198 734q0 56 43 99t95 43q40 0 65 -27t25 -67q0 -56 -42 -101t-94 -45q-40 0 -66 28t-26 70z" />
<glyph unicode="&#x3c;" horiz-adv-x="894" d="M24 406q0 52 46 76l762 374q4 2 8 2q14 0 14 -70q0 -36 -10 -40l-670 -330l548 -336q4 -2 4 -10q0 -18 -21 -59t-29 -41q-4 0 -8 2l-624 380q-20 14 -20 52z" />
<glyph unicode="=" horiz-adv-x="1120" d="M68 246q0 10 17 55t29 45h832q12 0 12 -10q0 -4 -36 -90l-14 -12h-830q-10 0 -10 12zM126 530q0 8 16 54t28 46h830q12 0 12 -10t-34 -90q-2 -6 -6 -9t-8 -3h-2h-828q-8 0 -8 12z" />
<glyph unicode="&#x3e;" horiz-adv-x="896" d="M-14 66l10 16l682 336l-544 330q-4 2 -4 8q0 12 22 58t30 46l8 -4l614 -374q24 -14 24 -40q0 -64 -48 -88l-770 -380q-8 -4 -12 -4q-12 0 -12 96z" />
<glyph unicode="?" horiz-adv-x="640" d="M80 64q0 56 40 98t90 42q38 0 64 -26t26 -66q0 -54 -43 -97t-93 -43q-38 0 -61 26t-23 66zM132 566q0 98 98 166q164 112 232 160q92 64 92 152q0 56 -29 88t-75 32t-87 -46t-77 -46q-68 0 -68 104q8 26 63 56t109 30q108 0 187 -81t79 -177q0 -126 -88 -208 q-26 -24 -108 -75t-122 -79q-66 -44 -66 -120q0 -38 26 -74t52 -54q0 -20 -20 -32q-46 0 -122 64t-76 140z" />
<glyph unicode="@" horiz-adv-x="1518" d="M58 282q0 370 233 621t551 251q266 0 410 -167t144 -423q0 -146 -48 -262t-121 -181t-149 -99t-142 -34q-68 0 -104 39t-36 89q0 28 10 80q2 12 10 64q-50 -88 -135 -179t-161 -91q-82 0 -129 67t-47 173q0 238 185 439t393 201q76 0 146 -26l-128 -634q-14 -70 1 -110 t53 -40q110 0 214 158t104 316q0 254 -126 402t-360 148q-126 0 -250 -59t-222 -162t-159 -256t-61 -327q0 -116 52 -223t134 -173q52 -40 92 -58q-16 -14 -64 -14q-34 0 -78 30t-70 60q-142 168 -142 380zM492 300q0 -194 102 -194q72 0 161 145t119 295l42 214 q-28 30 -90 30q-116 0 -225 -159t-109 -331z" />
<glyph unicode="A" horiz-adv-x="1172" d="M-110 -6q-2 4 2 26t10 32q22 0 60 10t54 28q50 54 124 188l552 990q12 22 39 40t41 18q4 0 10 -6l172 -1068q4 -28 10 -64t9 -52t3 -20q6 -26 36 -42t52 -19t38 -3q4 -12 1 -32t-7 -26q-184 10 -218 10q-38 0 -69 -2t-69 -4t-70 -4q-6 8 -2 29t14 29q114 0 114 62 q0 60 -6 98l-44 300h-398q-96 -174 -142 -262q-58 -112 -58 -150q0 -26 46 -37t78 -11q2 -4 -1 -26t-7 -32q-26 2 -57 4t-58 4t-63 2q-38 0 -67 -2t-63 -4t-66 -4zM384 578h350l-76 492z" />
<glyph unicode="B" horiz-adv-x="1132" d="M-11 23q5 21 13 29q28 0 78 9t56 23q14 28 38 148l166 854q20 103 20 141v7q0 16 -46 24t-76 8q-4 8 -1 29t11 29q190 -10 218 -10q32 0 118 2t146 2q138 0 225 -61t87 -183q0 -216 -240 -342q74 -6 140 -85t66 -195q0 -202 -167 -330t-423 -128h-428q-6 8 -1 29zM322 86 q24 -34 140 -34q158 0 257 103t99 285q0 30 -1 49t-16 59t-42 65t-85 45t-138 20h-114l-88 -450q-17 -79 -17 -116q0 -19 5 -26zM436 740h188q100 0 171 88t71 216q0 94 -54 155t-174 61q-86 0 -98 -20t-38 -150z" />
<glyph unicode="C" horiz-adv-x="1290" d="M118 530q0 242 117 430t301 282q176 90 377 90h17q118 -2 322 -52q-12 -218 -20 -292q0 -10 -16 -10q-26 0 -46 10q1 10 1 19q0 106 -82 181q-89 82 -217 82q-240 0 -403 -194q-161 -192 -161 -504v-8q0 -74 13 -146t44 -141t77 -120t117 -83t157 -32q262 0 422 304 q12 0 26 -4t22 -8l8 -4q-6 -32 -64 -144t-80 -130q-138 -72 -390 -72q-238 0 -390 159t-152 387z" />
<glyph unicode="D" horiz-adv-x="1368" d="M-11 23q5 21 13 29q28 0 78 9t56 23q14 28 38 148l166 854q21 101 21 138q0 6 -1 10q-2 14 -48 23t-74 9q-4 8 -1 29t11 29q190 -10 218 -10q34 0 131 1t139 1q316 0 463 -182q106 -132 106 -317q0 -71 -15 -149q-26 -136 -83 -250t-154 -212t-249 -155t-348 -57h-466 q-6 8 -1 29zM318 80q12 -28 146 -28q228 0 404 147t230 427q21 110 21 201q0 175 -78 278q-119 157 -365 157q-124 0 -134 -22q-12 -26 -38 -148l-170 -868q-19 -90 -19 -125q0 -13 3 -19z" />
<glyph unicode="E" horiz-adv-x="1108" d="M-12 23q4 21 12 29q28 0 79 9t57 23q14 28 38 148l166 854q19 95 19 135q0 7 -1 13q-2 14 -48 23t-74 9q-4 8 0 29t12 29q190 -10 218 -10q84 0 290 7t310 7q-2 -14 -2 -57q0 -33 1 -82q3 -115 3 -133q-10 -10 -36 -10q-22 0 -22 14q-8 112 -52 156t-124 44h-160 q-122 0 -132 -22q-22 -42 -40 -144l-74 -384q0 -4 6 -6t18 -4t25 -2h29h98q124 0 155 18t69 108q6 12 8 18q6 14 32 14q22 0 28 -10l-72 -378q-8 -8 -32 -8q-22 0 -26 16q-6 124 -26 140t-194 16q-134 0 -138 -18l-78 -396q-18 -86 -18 -119q0 -15 4 -19q20 -20 128 -20h88 q154 0 248 62q88 60 156 202q6 12 30 12q36 0 44 -12q-12 -24 -56 -105t-70 -134t-40 -93q-96 0 -299 4t-333 4q-46 0 -117 -3t-105 -3q-6 8 -2 29z" />
<glyph unicode="F" horiz-adv-x="1016" d="M-12 23q4 21 12 29q28 0 79 9t57 23q14 28 38 148l166 854q19 95 19 135q0 7 -1 13q-2 14 -48 23t-74 9q-4 8 0 29t12 29q190 -10 218 -10q84 0 290 7t310 7q-2 -14 -2 -57q0 -33 1 -82q3 -115 3 -133q-10 -10 -36 -10q-22 0 -22 14q-8 112 -52 156t-124 44h-160 q-122 0 -132 -22q-22 -42 -40 -144l-74 -384q0 -4 6 -6t18 -4t25 -2h29h98q124 0 155 18t69 108q6 12 8 18q6 14 32 14q22 0 28 -10l-72 -378q-8 -8 -32 -8q-22 0 -26 16q-6 124 -26 140t-194 16q-134 0 -138 -18l-74 -382q-19 -95 -19 -135q0 -7 1 -13q2 -14 56 -23t84 -9 q4 -8 0 -29t-12 -29q-190 10 -234 10q-46 0 -116 -5t-104 -5q-6 8 -2 29z" />
<glyph unicode="G" horiz-adv-x="1394" d="M118 530q0 242 117 430t301 282q176 90 377 90h17q118 -2 322 -52q-2 -42 -11 -165t-9 -127q0 -10 -16 -10q-26 0 -46 10q1 10 1 19q0 106 -82 181q-89 82 -217 82q-240 0 -403 -194q-161 -192 -161 -504v-8q0 -128 38 -242t133 -197t231 -83q122 0 224 68q16 12 20 34 l40 206q21 101 21 138q0 6 -1 10q-2 14 -52 23t-80 9q-4 8 -1 29t11 29q190 -10 216 -10q24 0 220 10q6 -8 3 -29t-11 -29q-28 0 -75 -9t-53 -23q-14 -28 -38 -148l-28 -142q-6 -18 -1 -44t5 -28q0 -22 -44 -44q-72 -38 -105 -53t-126 -35t-207 -20q-228 0 -379 160 t-151 386z" />
<glyph unicode="H" horiz-adv-x="1372" d="M-12 23q4 21 12 29q28 0 79 9t57 23q14 28 38 148l166 854q19 95 19 135q0 7 -1 13q-2 14 -48 23t-74 9q-4 8 0 29t12 29q190 -10 218 -10q26 0 220 10q6 -8 1 -29t-13 -29q-28 0 -78 -9t-56 -23q-20 -40 -38 -148l-74 -374h584l74 374q18 115 18 143q0 18 -48 28 q-46 9 -74 9q-4 8 0 29t12 29q190 -10 218 -10q24 0 220 10q6 -8 1 -29t-13 -29q-28 0 -78 -9t-56 -23q-14 -28 -38 -148l-166 -854q-21 -101 -21 -138q0 -6 1 -10q2 -14 48 -23t74 -9q4 -8 0 -29t-12 -29q-190 10 -216 10q-24 0 -220 -10q-6 8 -2 29t12 29q28 0 79 9t57 23 q14 28 38 148l78 400h-584l-78 -400q-21 -101 -21 -138q0 -6 1 -10q2 -14 48 -23t74 -9q4 -8 0 -29t-12 -29q-190 10 -214 10q-28 0 -222 -10q-6 8 -2 29z" />
<glyph unicode="I" horiz-adv-x="626" d="M-12 23q4 21 12 29q28 0 79 9t57 23q14 28 38 148l166 854q19 95 19 135q0 7 -1 13q-2 14 -48 23t-74 9q-4 8 0 29t12 29q190 -10 218 -10q26 0 220 10q6 -8 1 -29t-13 -29q-28 0 -78 -9t-56 -23q-14 -28 -38 -148l-166 -854q-21 -101 -21 -138q0 -6 1 -10q2 -14 48 -23 t74 -9q4 -8 0 -29t-12 -29q-190 10 -214 10q-28 0 -222 -10q-6 8 -2 29z" />
<glyph unicode="J" horiz-adv-x="626" d="M-216 -440l2 12q162 50 245 198t137 448l160 868q18 115 18 143q0 19 -48 28q-46 9 -74 9q-4 8 0 29t12 29q190 -10 218 -10q26 0 220 10q6 -8 1 -29t-13 -29q-28 0 -78 -9t-56 -23q-20 -40 -38 -148l-162 -854q-36 -188 -103 -330t-145 -218t-151 -113t-139 -37 q-6 10 -6 26z" />
<glyph unicode="K" horiz-adv-x="1228" d="M-10 23q4 21 12 29q28 0 78 9t56 23q14 28 38 148l166 854q21 101 21 138q0 6 -1 10q-2 14 -48 23t-74 9q-4 8 0 29t12 29q190 -10 218 -10q24 0 218 10q6 -8 2 -29t-12 -29q-28 0 -79 -9t-57 -23q-14 -28 -38 -148l-78 -406q64 38 248 198q24 20 58 50t47 41t34 30 t31 28t25 24t28 29t29 31t38 41q34 38 38 62q1 4 1 8q0 42 -95 42q-8 24 12 60q204 -12 210 -12q48 0 117 6t87 6q2 -10 -4 -35t-12 -25q-2 0 -13 -1t-21 -2t-26 -4t-33 -8t-35 -12t-36 -19t-34 -28q-138 -132 -514 -458q-16 -14 -4 -32q252 -416 362 -556q68 -82 184 -92 q10 -14 -12 -58q-206 0 -260 22q-66 28 -110 86q-48 66 -320 506q-2 6 -16 6q-10 0 -18 -4l-74 -378q-19 -95 -19 -135q0 -7 1 -13q2 -14 48 -23t74 -9q4 -8 0 -29t-12 -29q-190 10 -216 10q-24 0 -220 -10q-6 8 -2 29z" />
<glyph unicode="L" horiz-adv-x="1060" d="M-11 23q5 21 13 29q28 0 78 9t56 23q14 28 38 148l166 854q21 101 21 138q0 6 -1 10q-2 14 -48 23t-74 9q-4 8 -1 29t11 29q190 -10 218 -10q26 0 220 10q6 -8 1 -29t-13 -29q-28 0 -78 -9t-56 -23q-14 -28 -38 -148l-170 -862q-19 -97 -19 -129q0 -12 3 -15 q20 -20 128 -20h106q122 0 216 54q96 54 170 210q6 12 30 12q36 0 44 -12q-12 -24 -56 -105t-70 -134t-40 -93q-96 0 -299 4t-333 4q-46 0 -117 -3t-105 -3q-6 8 -1 29z" />
<glyph unicode="M" horiz-adv-x="1676" d="M-48 -6q-2 4 2 26t10 32q30 0 86 10t70 26q26 30 42 100q194 842 212 956q9 42 9 66q0 8 -1 14q-2 16 -50 29t-72 13q-4 10 1 32t11 26q116 -8 180 -8q78 0 162 8q6 -56 56 -318t98 -494l46 -234l112 202q112 200 226 402l112 202l128 240q116 -8 140 -8q88 0 184 8 l-4 -58q-26 0 -78 -11t-62 -25q-16 -30 -24 -76l-152 -874q-17 -95 -17 -152q0 -24 3 -42q2 -18 48 -26t74 -8q10 -32 -6 -58q-186 10 -220 10q-10 0 -226 -10q-2 4 2 26t10 32q86 0 126 22q16 10 32 84q2 12 27 166t66 406t65 402l-586 -1034q-12 -20 -44 -60t-46 -42 q-2 0 -16 4l-228 1168q-40 -192 -95 -442t-91 -411t-36 -165q-8 -34 -4 -62q4 -20 56 -28t84 -8q4 -8 0 -30t-8 -28q-186 10 -194 10q-4 0 -220 -10z" />
<glyph unicode="N" horiz-adv-x="1464" d="M-24 -6q-10 24 12 58q26 0 83 12t69 28q28 38 46 136l168 868q12 67 12 104q0 21 -4 32q-6 16 -56 25t-80 9q-10 34 10 58q168 -8 170 -8q60 0 164 8q32 -78 248 -460t290 -540l148 758q12 62 12 101q0 27 -6 43q-6 18 -54 29t-80 11q-12 28 6 58q148 -8 204 -8 q36 0 208 8q12 -28 -8 -58q-26 0 -82 -11t-68 -27q-26 -34 -44 -136l-158 -814q-36 -194 -50 -280q-8 -8 -34 -8q-30 0 -54 46l-600 1102l-176 -908q-12 -65 -12 -103q0 -23 4 -35q6 -14 56 -27t78 -13q10 -22 -8 -58q-186 10 -208 10q-38 0 -69 -2t-68 -4t-69 -4z" />
<glyph unicode="O" horiz-adv-x="1420" d="M122 546q0 336 213 560t495 224q232 0 373 -160t141 -406q0 -344 -206 -565t-500 -221q-236 0 -376 162t-140 406zM310 536q0 -94 16 -176t53 -159t108 -121t169 -44q146 0 263 114t177 284t60 352q0 82 -15 158t-50 154t-107 125t-172 47q-196 0 -349 -214t-153 -520z " />
<glyph unicode="P" horiz-adv-x="1022" d="M-12 23q4 21 12 29q28 0 79 9t57 23q14 28 38 148l166 854q19 95 19 135q0 7 -1 13q-2 14 -48 23t-74 9q-4 8 0 29t12 29q190 -10 222 -10t93 2t121 2q160 0 261 -83t101 -219q0 -188 -140 -320t-326 -132q-64 0 -90 20q-16 16 -16 32q0 4 8 8q16 -8 66 -8q118 0 219 106 t101 266q0 272 -232 272q-84 0 -96 -20t-38 -150l-168 -858q-19 -95 -19 -135q0 -7 1 -13q2 -14 48 -23t74 -9q4 -8 0 -29t-12 -29q-190 10 -216 10t-220 -10q-6 8 -2 29z" />
<glyph unicode="Q" horiz-adv-x="1420" d="M122 546q0 336 213 560t495 224q232 0 373 -160t141 -406q0 -302 -162 -512t-410 -260q32 -18 92 -58t87 -54t81 -28t118 -14q90 0 182 26q10 0 24 -10t14 -16q-216 -110 -352 -110q-84 0 -173 51t-194 124t-195 105q-158 56 -246 201t-88 337zM310 536q0 -94 16 -176 t53 -159t108 -121t169 -44q146 0 263 114t177 284t60 352q0 82 -15 158t-50 154t-107 125t-172 47q-196 0 -349 -214t-153 -520z" />
<glyph unicode="R" horiz-adv-x="1158" d="M-12 23q4 21 12 29q28 0 79 9t57 23q14 28 38 148l166 854q19 95 19 135q0 7 -1 13q-2 14 -48 23t-74 9q-4 8 0 29t12 29q190 -10 224 -10q32 0 118 2t146 2q134 0 223 -74t89 -208t-99 -241t-229 -155q102 -280 212 -468q36 -62 74 -88t112 -32q10 -14 -12 -58 q-146 0 -226 19t-112 81q-110 216 -210 488q-8 24 -52 24h-98l-72 -374q-21 -101 -21 -138q0 -6 1 -10q2 -14 48 -23t74 -9q4 -8 0 -29t-12 -29q-190 10 -214 10q-28 0 -222 -10q-6 8 -2 29zM420 666h100q134 0 242 94t108 264q0 38 -8 73t-30 75t-72 64t-122 24 q-86 0 -98 -20t-38 -150z" />
<glyph unicode="S" horiz-adv-x="944" d="M68 368q8 12 50 12q14 0 20 -12q0 -64 25 -134t90 -130t157 -60q104 0 179 68t75 182q0 68 -31 125t-62 86t-97 83q-22 16 -73 53t-76 59t-58 60t-48 86t-15 106q0 162 134 271t286 109q42 0 81 -5t60 -9t68 -17t65 -17q-12 -140 -42 -288q-2 -14 -20 -14q-28 0 -42 14 q1 19 1 36q0 101 -39 164q-46 74 -148 74q-114 0 -181 -72t-67 -158q0 -48 11 -85t42 -73t47 -52t68 -55t62 -47q14 -10 65 -48t72 -58t54 -58t47 -81t14 -97q0 -176 -141 -289t-315 -113q-148 0 -294 84q-18 72 -23 173q-3 56 -3 89q0 26 2 38z" />
<glyph unicode="T" horiz-adv-x="1174" d="M118 1000q56 144 116 344q16 8 40 -6q46 -28 100 -28h726q58 0 118 30q24 12 36 4q-18 -220 -18 -344q-16 -16 -40 -14q-20 0 -24 10v13q0 101 -30 164q-32 67 -98 67h-236l-198 -1008q-21 -101 -21 -138q0 -6 1 -10q2 -14 48 -23t74 -9q4 -8 1 -29t-11 -29 q-190 10 -216 10t-222 -10q-6 8 -1 29t13 29q28 0 78 9t56 23q14 28 38 148l198 1008h-240q-66 0 -125 -67t-101 -177q-6 -10 -28 -10q-22 -2 -34 14z" />
<glyph unicode="U" horiz-adv-x="1322" d="M196 502l114 584q21 101 21 138q0 6 -1 10q-2 14 -48 23t-74 9q-4 8 0 29t12 29q190 -10 216 -10q24 0 220 10q6 -8 1 -29t-13 -29q-28 0 -78 -9t-56 -23q-14 -28 -38 -148l-96 -494q-21 -107 -21 -189q0 -100 31 -163q66 -132 242 -132q156 0 257 98t153 342l106 542 q12 65 12 103q0 23 -4 35q-6 14 -53 27t-73 13q-10 22 8 58q186 -10 200 -10q38 0 68 2t67 4t69 4q10 -26 -10 -58q-26 0 -84 -12t-70 -28q-26 -34 -44 -136l-106 -540q-58 -292 -196 -426t-362 -134q-212 0 -316 144q-68 97 -68 234q0 62 14 132z" />
<glyph unicode="V" horiz-adv-x="1192" d="M124 1266q-2 0 0 14t6 28t6 16q210 -10 214 -10q42 0 232 10q2 -10 -3 -33t-11 -25q-14 0 -37 -4t-53 -20t-34 -42q-2 -10 -2 -27q0 -39 10 -115q10 -82 40 -279t54 -358t26 -165l450 792q42 70 54 140q1 7 1 13q0 32 -34 47q-41 18 -73 18q-6 2 -2 26t12 32 q170 -10 196 -10q38 0 66 2t59 4t59 4q2 -8 -4 -33t-10 -25q-20 0 -62 -13t-68 -39q-46 -46 -132 -202l-546 -948q-38 -68 -84 -68q-4 0 -12 32q-26 154 -75 473t-83 527q-18 124 -48 192q-10 22 -49 34t-63 12z" />
<glyph unicode="W" horiz-adv-x="1682" d="M130 1266q-2 0 0 14t6 28t6 16q30 -2 67 -4t67 -4t68 -2q36 0 226 10q2 -10 -4 -33t-12 -25q-14 0 -37 -4t-53 -20t-34 -42v-12q0 -26 4 -98q12 -204 60 -800l458 968q14 28 39 47t41 19q8 0 16 -32q10 -104 118 -1004l342 760q38 84 48 140q6 28 -19 48t-50 25t-43 5 q-6 2 -1 26t13 32q170 -10 198 -10q38 0 66 2t59 4t59 4q2 -8 -4 -33t-10 -25q-16 0 -59 -15t-71 -37q-40 -32 -96 -152l-466 -998q-12 -26 -39 -47t-45 -21q-12 0 -12 32q-16 144 -122 994l-456 -958q-12 -26 -38 -47t-44 -21q-14 0 -14 32l-96 1036q0 8 -2 28t-2 27t-2 22 t-3 21t-3 17t-5 18t-7 15t-10 14q-14 18 -47 29t-55 11z" />
<glyph unicode="X" horiz-adv-x="1240" d="M-118 -6q-2 8 4 30t10 28q16 0 46 4t81 24t81 52l474 532l-178 432q-38 98 -96 138q-44 32 -98 32q-4 2 -4 13t5 26t11 19q226 -10 230 -10q50 0 240 10q2 -10 -3 -34t-11 -24q-34 0 -76 -15t-48 -49q-6 -22 10 -60l148 -358q308 348 344 400q14 22 16 32q2 8 -6 18 t-38 20t-78 10q-6 2 -2 24t10 34q124 -10 198 -10q92 0 206 10q4 -8 -1 -29t-15 -29q-14 0 -38 -4t-68 -24t-74 -52l-426 -462l246 -590q34 -80 166 -80q10 -18 -10 -58q-186 10 -188 10q-14 0 -274 -10q-6 8 -2 33t12 25q26 0 70 16t50 40q2 6 -4 24l-192 468 q-204 -230 -398 -468q-14 -22 -16 -32q-2 -8 9 -18t43 -20t80 -10q4 -8 0 -30t-8 -28q-170 10 -208 10q-40 0 -230 -10z" />
<glyph unicode="Y" horiz-adv-x="1112" d="M114 1279q0 11 5 26t11 19q226 -10 230 -10q50 0 240 10q2 -10 -3 -34t-11 -24q-34 0 -76 -15t-48 -49q-4 -16 10 -60l162 -480q272 380 350 522q10 14 12 30q2 8 -7 19t-40 21t-79 10q-4 4 0 28t8 30q170 -10 186 -10t206 10q0 -6 -6 -32t-10 -26q-120 0 -178 -80 l-410 -582q-8 -12 -20 -62l-62 -308q-21 -101 -21 -138q0 -6 1 -10q2 -14 48 -23t74 -9q4 -8 1 -29t-11 -29q-190 10 -216 10q-28 0 -222 -10q-6 8 -1 29t13 29q28 0 78 9t56 23q14 28 38 148l58 302q4 34 -2 56l-166 506q-30 92 -96 138q-44 32 -98 32q-4 2 -4 13z" />
<glyph unicode="Z" horiz-adv-x="1204" d="M-20 28l1036 1232l-458 -2q-92 0 -172 -74t-136 -200q-6 -8 -22 -8q-36 0 -46 16q64 118 128 346q102 -16 150 -16h362q130 0 394 20q8 -2 17 -18t7 -26q-4 -8 -170 -211t-420 -504t-444 -519h488q122 0 220 106q18 20 37 46t27 41t27 49t21 38q2 6 26 6q28 0 42 -18 q-94 -196 -146 -332h-940q-16 0 -26 10t-2 18z" />
<glyph unicode="[" horiz-adv-x="520" d="M14 -182l308 1616q0 4 4 13t15 21t27 12q90 0 196 8l104 10q10 0 10 -12q0 -10 -3 -20t-8 -18t-12 -15t-12 -11t-9 -6l-4 -4q-92 -22 -192 -22q-6 0 -10 -4t-4 -8l-2 -4l-288 -1472q-2 -14 10 -16q124 -14 186 -50q6 -2 16 -16t10 -26q0 -10 -4 -17t-8 -9l-2 -4 q-162 32 -314 32q-18 0 -14 22z" />
<glyph unicode="\" horiz-adv-x="736" d="M230 1510q10 14 28 14q28 0 49 -26t25 -48l248 -1458q4 -22 -16 -47t-38 -25q-16 0 -24 6z" />
<glyph unicode="]" horiz-adv-x="516" d="M-116 -210q0 22 40 62q98 34 192 34q6 0 10 4t6 8l2 4l286 1472q2 16 -10 16q-44 0 -90 5t-70 11l-24 6q-24 24 -24 44q0 42 16 42l18 -2q16 -2 44 -5t64 -5t81 -4t89 -2q26 0 26 -30q0 -10 -2 -16l-308 -1592q0 -4 -3 -13t-14 -21t-27 -12q-68 0 -141 -6t-113 -12 l-40 -6q-8 6 -8 18z" />
<glyph unicode="^" horiz-adv-x="606" d="M26 998q4 8 56 51t128 125t138 180l5 10l4 8t3 4t5 3t7 1q20 0 26 -13t25 -69t51 -122q12 -26 42 -68t53 -73t23 -35q-4 -16 -14 -33t-20 -17q-28 0 -105 93t-109 151q-66 -78 -174 -161t-128 -83q-16 0 -16 48z" />
<glyph unicode="_" horiz-adv-x="950" d="M-78 -74q0 10 19 55t29 45h828q12 0 12 -8q0 -12 -36 -92l-12 -12h-830q-10 0 -10 12z" />
<glyph unicode="`" horiz-adv-x="402" d="M40 1182q0 30 26 45t52 15q46 0 74 -20q20 -14 105 -112t85 -110q0 -4 -6 -12t-10 -8q-26 0 -176 88t-150 114z" />
<glyph unicode="a" horiz-adv-x="898" d="M38 226q0 126 55 247t139 206t186 138t192 53q86 0 156 -26l-122 -632q-12 -47 -12 -75q0 -39 24 -39q10 0 25 8t29 20t30 28t27 28t21 22l8 10q4 0 12 -15t8 -23q-24 -42 -112 -115t-150 -73q-32 0 -50 29t-18 75q0 32 14 106q8 48 10 62q-46 -84 -132 -177t-162 -93 q-80 0 -129 65t-49 171zM186 302q0 -196 102 -196q72 0 161 146t119 296l42 212q-26 30 -92 30q-116 0 -224 -158t-108 -330z" />
<glyph unicode="b" horiz-adv-x="858" d="M86 222q0 22 12 94l158 802q18 82 18 106q0 38 -122 38q-4 6 -1 21t9 21q110 10 264 66q12 -8 12 -38q0 -20 -26 -150l-124 -612q94 156 191 228t159 72q68 0 104 -60t36 -166q0 -172 -82 -327t-198 -242t-224 -87q-86 0 -136 62t-50 172zM236 312q-13 -67 -13 -117 q0 -141 105 -141q78 0 151 105t111 232t38 213q0 156 -78 156q-68 0 -176 -145t-138 -303z" />
<glyph unicode="c" horiz-adv-x="718" d="M48 280q0 228 168 409t334 181q64 0 124 -50q18 -24 18 -54q0 -38 -18 -64t-50 -26q-48 0 -72 40q-44 72 -104 72q-88 0 -166 -136t-78 -328q0 -218 138 -218q16 0 34 6t35 15t34 21t31 24t28 25t22 22t14 17l8 8q4 0 14 -16t10 -24q-30 -50 -125 -133t-177 -83 q-106 0 -164 76t-58 216z" />
<glyph unicode="d" horiz-adv-x="898" d="M38 232q0 232 185 435t383 203h10h16l46 248q2 12 7 36t8 42t3 28q0 38 -122 38q-4 6 -1 21t9 21q110 10 264 66q12 -8 12 -38q0 -20 -26 -150l-188 -970q-8 -32 -8 -66q0 -48 20 -48q10 0 25 8t29 20t30 28t27 28t21 22l8 10q4 0 12 -15t8 -23q-24 -42 -112 -115 t-150 -73q-32 0 -50 29t-18 75q0 32 14 106q4 16 10 62q-36 -74 -127 -172t-169 -98q-86 0 -131 72t-45 170zM186 300q0 -194 102 -194q74 0 162 147t118 299l24 130q1 9 1 18q0 28 -14 55q-19 35 -57 35q-120 0 -228 -158t-108 -332z" />
<glyph unicode="e" horiz-adv-x="726" d="M46 278q0 218 163 405t339 187q70 0 101 -36t31 -88q0 -88 -94 -176t-204 -136t-176 -48q-4 -12 -4 -64q0 -216 138 -216q16 0 34 6t35 15t34 21t31 24t28 25t22 22t16 17l6 8q4 0 14 -16t10 -24q-32 -54 -127 -135t-177 -81q-106 0 -163 75t-57 215zM210 436 q76 0 199 86t123 186q0 38 -26 59t-58 21q-92 0 -160 -125t-78 -227z" />
<glyph unicode="f" horiz-adv-x="592" d="M-248 -416q0 22 2 32q12 80 58 80q34 0 76 -46q30 -30 58 -30q56 0 93 101t87 357l120 674h-170q-4 0 -4 6q0 18 30 43t62 25h94q46 238 168 391t246 153q82 0 108 -50v-18q-8 -94 -60 -94q-34 0 -76 46q-30 30 -58 30q-56 0 -93 -101t-87 -357h200q10 0 10 -24 q0 -22 -18 -50h-206q-70 -414 -118 -666q-46 -240 -168 -396t-246 -156q-82 0 -108 50z" />
<glyph unicode="g" horiz-adv-x="824" d="M-96 -270q0 150 288 282l-36 24q-50 34 -50 72q0 34 71 78t129 58q-64 0 -145 64t-81 170q0 164 117 279t261 115q78 0 170 -44q12 -6 37 0t53 17t36 13q24 -8 53 -30t29 -40q0 -28 -24 -28q-4 0 -67 2q-31 1 -51 1t-28 -1q0 -2 8 -27t14 -56t6 -55q0 -74 -21 -137 t-56 -103t-58 -60t-47 -34t-87 -39t-103 -46t-40 -41t63 -45t138 -51t138 -85t63 -139q0 -142 -127 -226t-341 -84q-138 0 -225 52t-87 144zM52 -220q0 -176 286 -176q98 0 158 47t60 113q0 44 -28 82t-82 65t-94 43t-98 34q-202 -86 -202 -208zM228 494q0 -80 32 -136 t92 -56q90 0 142 90t52 196q0 82 -34 154t-88 72q-90 0 -143 -102t-53 -218z" />
<glyph unicode="h" horiz-adv-x="940" d="M44 0l216 1118q2 12 7 36t8 42t3 28q0 38 -122 38q-4 6 -1 21t9 21q110 10 264 66q12 -8 12 -38q0 -20 -26 -150l-102 -522l-36 -184q42 80 178 237t220 157q110 0 110 -132q0 -86 -28 -218l-66 -308q-8 -32 -8 -64q0 -50 20 -50q10 0 25 8t29 20t30 28t27 28t19 22 l10 10q4 0 12 -15t8 -23q-24 -42 -112 -115t-150 -73q-32 0 -50 29t-18 75q0 48 14 106l70 330q14 64 14 108q0 86 -38 86t-113 -70t-149 -188t-96 -226q-14 -72 -50 -238q-26 -8 -72 -8q-36 0 -68 8z" />
<glyph unicode="i" horiz-adv-x="524" d="M50 682q26 44 108 116t144 72q32 0 55 -30t23 -74q0 -32 -14 -106l-102 -448q-8 -40 -8 -64q0 -50 20 -50q10 0 25 8t29 20t30 28t27 28t21 22l8 10q4 0 12 -15t8 -23q-24 -42 -112 -115t-150 -73q-32 0 -50 29t-18 75q0 32 14 106l102 448q8 48 8 64q0 50 -20 50 q-10 0 -25 -8t-29 -20t-30 -28t-27 -28t-19 -22l-10 -10q-4 0 -12 15t-8 23zM232 1178q0 46 30 80t74 34q30 0 51 -24t21 -56q0 -48 -31 -84t-77 -36q-32 0 -50 25t-18 61z" />
<glyph unicode="j" horiz-adv-x="498" d="M-170 -430q100 58 176 183t108 291l120 602q8 48 8 64q0 50 -20 50q-10 0 -25 -8t-29 -20t-30 -28t-27 -28t-19 -22l-10 -10q-4 0 -12 15t-8 23q26 44 108 116t144 72q32 0 55 -30t23 -74q0 -32 -14 -106l-110 -570q-40 -202 -142 -338q-58 -76 -138 -137t-140 -85 q-18 14 -18 40zM266 1178q0 46 30 80t74 34q30 0 51 -24t21 -56q0 -48 -31 -84t-77 -36q-32 0 -50 25t-18 61z" />
<glyph unicode="k" horiz-adv-x="920" d="M44 0l218 1118q18 82 18 106q0 38 -122 38q-4 6 -1 21t9 21q110 10 264 66q12 -8 12 -38q0 -20 -26 -150l-104 -538l22 26q22 26 53 57t72 65t92 56t99 22q60 0 105 -39t45 -97q0 -128 -118 -204t-304 -108q132 -198 192 -259t122 -61q22 0 67 41t69 71q4 0 12 -15t8 -23 q-22 -38 -105 -111t-139 -73q-44 0 -86 24t-80 74t-63 90t-63 109t-52 93l-74 -382q-36 -10 -70 -10q-32 0 -72 10zM276 460q122 0 245 68t123 180q0 68 -66 68q-84 0 -183 -110t-119 -206z" />
<glyph unicode="l" horiz-adv-x="486" d="M74 92q0 32 14 106l180 920q18 82 18 106q0 38 -122 38q-4 6 -1 21t9 21q110 10 264 66q12 -8 12 -38q0 -20 -26 -150l-190 -970q-8 -32 -8 -64q0 -50 20 -50q10 0 25 8t29 20t30 28t27 28t21 22l8 10q4 0 12 -15t8 -23q-24 -42 -112 -115t-150 -73q-32 0 -50 29t-18 75z " />
<glyph unicode="m" horiz-adv-x="1428" d="M44 682q26 44 108 116t144 72q32 0 55 -30t23 -74q0 -22 -16 -106q-10 -48 -40 -186q76 134 182 265t174 131q134 0 134 -190q0 -98 -28 -178q66 116 182 242t186 126q124 0 124 -132q0 -90 -28 -218l-66 -308q-8 -40 -8 -64q0 -50 20 -50q10 0 25 8t29 20t30 28t27 28 t19 22l10 10q4 0 12 -15t8 -23q-24 -42 -112 -115t-150 -73q-32 0 -50 29t-18 75q0 32 14 106l70 330q14 64 14 108q0 30 -2 46t-10 28t-26 12q-66 0 -194 -158t-154 -300l-50 -264q-42 -6 -74 -6t-70 6l112 568q8 42 8 76q0 78 -40 78q-68 0 -190 -168t-152 -310l-50 -244 q-30 -8 -72 -8q-22 0 -70 8l132 646q8 48 8 64q0 50 -20 50q-10 0 -25 -8t-29 -20t-30 -28t-27 -28t-21 -22l-8 -10q-4 0 -12 15t-8 23z" />
<glyph unicode="n" horiz-adv-x="994" d="M44 682q26 44 108 116t144 72q32 0 55 -30t23 -74q0 -38 -16 -106l-36 -168q40 78 173 228t219 150q124 0 124 -132q0 -82 -28 -218l-66 -308q-8 -40 -8 -64q0 -50 20 -50q10 0 25 8t29 20t30 28t27 28t21 22l8 10q4 0 12 -15t8 -23q-24 -42 -112 -115t-150 -73 q-32 0 -50 29t-18 75q0 32 14 106l70 330q14 64 14 108q0 30 -2 46t-10 28t-26 12q-68 0 -203 -154t-167 -324q-8 -40 -50 -244q-32 -8 -72 -8q-38 0 -70 8l132 646q8 48 8 64q0 50 -20 50q-10 0 -25 -8t-29 -20t-30 -28t-27 -28t-21 -22l-8 -10q-4 0 -12 15t-8 23z" />
<glyph unicode="o" horiz-adv-x="828" d="M48 276q0 214 142 404t312 190q116 0 175 -80t59 -214q0 -212 -143 -399t-313 -187q-116 0 -174 76t-58 210zM204 316q0 -120 30 -191t84 -71q78 0 140 83t92 193t30 216q0 260 -106 260q-116 0 -193 -160t-77 -330z" />
<glyph unicode="p" horiz-adv-x="896" d="M-111 -442q1 26 9 30q54 0 80 32q18 24 32 86l158 794l-96 -96q-12 16 -12 40q0 8 6 14l118 126l52 282q30 8 76 8q36 0 64 -14q-24 -118 -32 -168q192 178 296 178q174 0 174 -242q0 -152 -74 -301t-192 -243t-238 -94q-76 0 -92 26l-66 -306q-6 -26 -6 -56 q0 -38 28 -46q26 -6 94 -6q6 -2 4 -28t-10 -28q-14 0 -37 1t-33 1q-146 0 -296 -18q-8 2 -7 28zM258 262q-5 -29 -5 -54q0 -50 20 -89q31 -59 79 -59q122 0 218 179t96 367q0 154 -106 154q-48 0 -121 -51t-115 -109z" />
<glyph unicode="q" horiz-adv-x="852" d="M38 232q0 232 185 435t383 203q88 0 158 -26l-122 -632l-92 -512q-4 -32 -4 -42q0 -18 4 -29t26 -21t62 -10q4 0 5 -12t-2 -26t-7 -16q-14 0 -41 1t-39 1q-152 0 -300 -16q-4 2 -3 28t9 26q124 12 136 74l112 602q-46 -84 -132 -177t-162 -93q-86 0 -131 72t-45 170z M186 300q0 -194 102 -194q74 0 162 147t118 299l24 130q1 9 1 18q0 28 -14 55q-19 35 -57 35q-120 0 -228 -158t-108 -332z" />
<glyph unicode="r" horiz-adv-x="712" d="M42 682q26 44 108 116t144 72q32 0 55 -30t23 -74q0 -22 -16 -106q-10 -54 -34 -168q52 126 140 252t152 126q60 0 98 -42q18 -22 18 -56q0 -40 -19 -64t-53 -24t-60 30q-12 16 -40 16q-56 0 -153 -167t-125 -319l-44 -244q-32 -6 -68 -6q-38 0 -74 6l120 646q8 48 8 64 q0 50 -20 50q-10 0 -25 -8t-29 -20t-30 -28t-27 -28t-19 -22l-10 -10q-4 0 -12 15t-8 23z" />
<glyph unicode="s" horiz-adv-x="644" d="M4 108q0 42 21 67t53 25q18 0 30 -10t32 -42t24 -38q42 -58 106 -58q54 0 76 37t22 79q0 32 -19 69t-32 53t-53 62q-48 54 -71 83t-48 82t-25 107q0 92 80 172t198 80q110 0 172 -54q20 -28 20 -64q0 -34 -19 -58t-49 -24q-44 0 -94 70q-2 2 -7 10t-7 11t-7 9t-8 9t-9 8 t-11 7t-12 4t-15 3t-18 1q-48 0 -73 -37t-25 -75q0 -22 6 -44t24 -47t27 -37t39 -44t36 -40q122 -142 122 -250q0 -110 -81 -178t-209 -68q-106 0 -176 60q-20 34 -20 60z" />
<glyph unicode="t" horiz-adv-x="556" d="M82 758q0 18 30 43t62 25h60l22 118q24 30 72 81t58 51q18 0 34 -12l-44 -238h150q10 0 10 -24q0 -22 -18 -50h-156l-106 -540q-8 -40 -8 -64q0 -50 20 -50q10 0 25 8t29 20t30 28t27 28t21 22l8 10q4 0 12 -15t8 -23q-24 -42 -112 -115t-150 -73q-32 0 -50 29t-18 75 q0 32 14 106l108 554h-134q-4 0 -4 6z" />
<glyph unicode="u" horiz-adv-x="982" d="M40 682q26 44 108 116t144 72q32 0 55 -30t23 -74q0 -32 -14 -106l-70 -330q-14 -62 -14 -108q0 -86 38 -86t113 71t149 193t96 238q6 36 21 105t23 115q26 8 62 8q46 0 78 -8l-124 -646q-8 -40 -8 -64q0 -50 20 -50q10 0 25 8t29 20t30 28t27 28t21 22l8 10q4 0 12 -15 t8 -23q-24 -42 -112 -115t-150 -73q-32 0 -50 29t-18 75q0 32 14 106q6 30 11 57t13 60t12 57q-48 -104 -180 -244t-222 -140q-100 0 -100 144q0 70 28 206l66 308q8 48 8 64q0 50 -20 50q-10 0 -25 -8t-29 -20t-30 -28t-27 -28t-21 -22l-8 -10q-4 0 -12 15t-8 23z" />
<glyph unicode="v" horiz-adv-x="878" d="M34 682q26 44 108 116t144 72q32 0 55 -32t23 -76v-106v-304q0 -166 8 -222q102 88 154 155t102 167t50 214q0 74 -52 126q10 30 36 54t58 24q54 0 82 -44t28 -116q0 -90 -74 -219t-174 -238t-201 -187t-151 -78q-16 18 -16 308v414q0 50 -20 50q-10 0 -25 -8t-29 -20 t-30 -28t-27 -28t-19 -22l-10 -10q-4 0 -12 15t-8 23z" />
<glyph unicode="w" horiz-adv-x="1258" d="M34 682q26 44 108 116t144 72q32 0 55 -32t23 -76v-106v-304q0 -116 8 -172q100 108 226 330q34 62 86 184q36 44 86 56q6 -270 12 -384q8 -180 30 -214q152 132 214 306q28 76 28 208q0 74 -52 126q10 30 36 54t58 24q54 0 82 -44t28 -116q0 -118 -103 -294t-230 -302 t-195 -126q-10 10 -24 133t-16 179l-4 128q-308 -440 -404 -440q-16 18 -16 308v414q0 50 -20 50q-10 0 -25 -8t-29 -20t-30 -28t-27 -28t-19 -22l-10 -10q-4 0 -12 15t-8 23z" />
<glyph unicode="x" horiz-adv-x="964" d="M30 82q0 38 20 63t54 25q20 0 46 -28t46 -30h3q31 0 57 46q70 118 138 250l-56 276q-14 76 -64 76q-26 0 -78 -42t-74 -70q-4 0 -12 15t-8 23q22 38 105 111t139 73q46 0 84 -46t54 -126l28 -136q98 196 128 236q54 72 116 72q56 0 94 -24q22 -30 22 -68t-20 -63t-54 -25 q-20 0 -46 28t-46 30h-3q-31 0 -57 -46q-94 -164 -120 -214l64 -310q14 -74 70 -74q22 0 73 41t73 69q4 0 12 -15t8 -23q-22 -38 -105 -111t-139 -73q-46 0 -84 46t-54 126l-34 172q-14 -28 -39 -79t-37 -75t-33 -62t-36 -56t-35 -38t-40 -28t-44 -8q-56 0 -94 24 q-22 30 -22 68z" />
<glyph unicode="y" horiz-adv-x="894" d="M-222 -384q0 64 46 88q22 -14 74 -26t86 -12q158 0 272 166q14 20 22 46t11 64t4 59q1 11 1 28t-1 41q-1 48 -1 54q0 98 -5 198t-18 204t-38 169t-59 65q-10 0 -25 -8t-29 -20t-30 -28t-27 -28t-21 -22l-8 -10q-4 0 -12 15t-8 23q26 44 108 116t144 72q60 0 100 -107 t55 -274t19 -269t4 -190q80 98 155 247t75 293q0 118 -50 214q26 86 100 86q88 0 88 -158q0 -220 -172 -505t-389 -479t-351 -194q-52 0 -86 24t-34 58z" />
<glyph unicode="z" horiz-adv-x="774" d="M-20 38q0 14 150 178t302 326t152 164q-64 -42 -126 -42q-42 0 -122 34q-72 34 -108 34q-20 0 -41 -20t-34 -41t-27 -47t-16 -28q-20 0 -24 32q16 54 80 148t124 94q42 0 154 -40q62 -22 112 -22q44 0 112 32l68 30q22 -10 22 -40q0 -10 -89 -112t-195 -218t-198 -215 t-92 -101q44 22 92 22q52 0 124 -34q80 -34 106 -34q18 0 39 19t34 40t27 47t16 28q20 0 24 -32q-108 -240 -210 -240q-46 0 -160 44q-54 20 -142 20q-26 0 -49 -11t-47 -29t-36 -24q-18 6 -22 38z" />
<glyph unicode="{" horiz-adv-x="420" d="M36 108q12 66 74 166q64 106 72 150q24 130 -108 168q-4 8 0 22q4 18 8 22q150 40 174 168q8 40 -14 150q-22 100 -10 166q26 132 108 230t160 128q10 0 18 -12t6 -26q-52 -24 -115 -90t-77 -134q-12 -68 12 -182q24 -98 6 -186t-74 -151t-106 -83q42 -20 75 -83t15 -151 t-80 -186q-70 -114 -82 -182q-14 -68 23 -134t81 -90q-2 -14 -15 -26t-23 -12q-66 30 -110 128t-18 230z" />
<glyph unicode="|" horiz-adv-x="414" d="M0 -230l338 1744q32 32 88 32q12 0 22 -4t8 -10l-336 -1744q-30 -34 -92 -34q-10 0 -20 5t-8 11z" />
<glyph unicode="}" horiz-adv-x="424" d="M-72 -212q52 24 115 90t77 134q12 68 -12 182q-24 98 -6 186t74 151t106 83q-42 20 -75 83t-15 151t80 186q70 114 82 182q14 68 -23 134t-81 90q4 14 15 26t21 12q66 -30 111 -128t19 -230q-12 -66 -74 -166q-64 -106 -72 -150q-24 -130 108 -168q4 -8 0 -22 q-2 -14 -8 -22q-150 -40 -174 -168q-8 -40 14 -150q22 -100 10 -166q-26 -132 -109 -230t-161 -128q-10 0 -17 12t-5 26z" />
<glyph unicode="~" horiz-adv-x="1090" d="M118 538q0 56 95 113t181 57q88 0 208 -53t208 -53q34 0 70 15t53 27t63 46q12 -12 12 -20q0 -50 -85 -110t-185 -60q-88 0 -211 53t-211 53q-34 0 -70 -15t-53 -27t-63 -46q-12 12 -12 20z" />
<glyph unicode="&#xa1;" horiz-adv-x="406" d="M-74 -446q0 32 66 286q88 344 172 672q4 20 14 34t18 10q34 -18 34 -42q-120 -912 -122 -926q-10 -52 -39 -89t-69 -37q-36 0 -55 26t-19 66zM142 738q0 56 40 99t90 43q38 0 62 -27t24 -67q0 -56 -40 -97t-90 -41q-38 0 -62 25t-24 65z" />
<glyph unicode="&#xa2;" horiz-adv-x="716" d="M36 280q0 228 168 409t334 181q64 0 124 -50q18 -24 18 -54q0 -38 -18 -64t-50 -26q-48 0 -72 40q-44 72 -104 72q-88 0 -166 -136t-78 -328q0 -218 138 -218q16 0 34 6t35 15t34 21t31 24t28 25t22 22t14 17l8 8q4 0 14 -16t10 -24q-30 -50 -125 -133t-177 -83 q-106 0 -164 76t-58 216zM156 -72l352 1020q64 0 62 -16l-352 -1022q-64 0 -62 18z" />
<glyph unicode="&#xa3;" horiz-adv-x="894" d="M-4 20q24 34 63 80t53 64q50 104 90 310q6 32 10 86h-112q-12 32 34 78h84q8 132 20 196q36 188 162 312t278 124q98 0 128 -74q0 -42 -22 -80t-56 -38q-38 0 -70 54t-70 54q-146 0 -200 -286q-10 -56 -28 -262h262q2 -2 0 -17t-13 -35t-21 -26h-236q-4 -38 -8 -64 q-38 -188 -170 -320q26 10 150 10q54 0 151 -32t129 -32q28 0 56 19t42 35t39 52t27 40q18 0 18 -34q0 -10 -4 -18q-126 -232 -264 -232q-64 0 -181 37t-159 37q-64 0 -154 -76q-16 0 -23 13t-5 25z" />
<glyph unicode="&#xa4;" horiz-adv-x="1008" d="M72 308l120 102q-24 58 -24 126q0 174 124 310l-74 112q0 2 -1 2t-1 2q0 16 34 43t66 35l74 -110q96 62 202 62q116 0 192 -82l132 110q2 2 8 2q16 0 33 -29t19 -61l-134 -112q22 -60 22 -126q0 -160 -112 -296l78 -116q0 -2 1 -2t1 -2q0 -16 -34 -43t-66 -35l-74 110 q-102 -70 -212 -70q-120 0 -196 80l-118 -100q-2 -2 -8 -2q-16 0 -33 29t-19 61zM308 546q0 -106 46 -174t120 -68q100 0 176 118t76 260q0 106 -46 175t-118 69q-100 0 -177 -119t-77 -261z" />
<glyph unicode="&#xa5;" horiz-adv-x="1184" d="M172 1220q0 10 4 25t10 19q214 -10 220 -10q50 0 230 10q2 -10 -3 -33t-11 -23q-32 0 -72 -14t-46 -46q-4 -16 10 -58l152 -458q86 122 196 287t136 211q10 14 12 28q2 8 -7 18t-38 20t-75 10q-4 4 0 27t8 29q160 -10 180 -10q18 0 198 10q0 -6 -6 -31t-10 -25 q-114 0 -170 -76l-392 -556q-8 -10 -18 -58l-60 -294q-22 -108 -18 -142q2 -14 45 -22t71 -8q4 -8 1 -28t-11 -28q-180 10 -206 10t-212 -10q-6 8 -1 28t13 28q28 0 75 8t53 22q10 20 36 142l56 288q4 32 -2 54l-160 482q-32 92 -90 132q-38 30 -94 30q-4 2 -4 12zM308 292 q0 38 26 60h492q6 0 6 -14q0 -38 -24 -62h-492q-8 0 -8 16zM338 448q0 38 26 60h492q6 0 6 -14q0 -38 -24 -62h-492q-8 0 -8 16z" />
<glyph unicode="&#xa6;" horiz-adv-x="422" d="M4 -230l140 726q32 32 88 32q12 0 22 -4t8 -10l-138 -726q-30 -34 -92 -34q-10 0 -20 5t-8 11zM200 782l140 726q32 32 88 32q12 0 22 -4t8 -10l-138 -726q-30 -34 -90 -34q-10 0 -21 5t-9 11z" />
<glyph unicode="&#xa7;" horiz-adv-x="790" d="M34 -88q4 22 31 47t49 25q24 0 62 -24q28 -16 56 -16q52 0 107 28t65 80q20 108 -162 332q-174 214 -136 408q18 98 102 208t204 200q138 106 288 106q42 0 74 -16q6 -18 0 -52q-4 -22 -31 -47t-49 -25q-24 0 -62 24q-28 16 -58 16q-52 0 -106 -28t-64 -80 q-20 -108 162 -332q174 -214 136 -408q-18 -96 -107 -211t-199 -197q-138 -106 -288 -106q-42 0 -74 16q-6 18 0 52zM224 880q-38 -196 130 -400q6 -8 22 -27t24 -29t23 -30l24 -32t21 -32t18 -36t13 -37t9 -39t2 -39t-4 -43q-4 -18 -8 -34q26 34 38 53t26 50t22 65 q38 196 -130 400q-6 8 -22 27t-24 29t-23 30l-24 32t-21 32t-18 36t-13 37t-9 39t-2 39t4 43q4 18 8 34q-26 -34 -38 -53t-26 -50t-22 -65z" />
<glyph unicode="&#xa8;" horiz-adv-x="570" d="M34 1092q8 38 40 65t66 27t55 -28t13 -66t-39 -64t-65 -26t-56 27t-14 65zM374 1092q8 38 41 65t67 27t54 -28t12 -66t-39 -64t-65 -26t-56 27t-14 65z" />
<glyph unicode="&#xa9;" horiz-adv-x="1206" d="M114 572q0 258 192 458t432 200q182 0 297 -123t115 -311q0 -258 -193 -458t-433 -200q-182 0 -296 123t-114 311zM174 584q0 -166 102 -275t262 -109q210 0 382 177t172 405q0 166 -103 276t-263 110q-210 0 -381 -178t-171 -406zM358 614q0 134 98 243t228 109 q116 0 200 -38q4 -8 4 -16q2 -28 2 -100q0 -24 -32 -24q-8 0 -12 4q0 12 -6 28t-20 35t-47 31t-79 12q-86 0 -156 -79t-70 -189q0 -84 47 -130t109 -46q42 0 75 8t51 23t28 26t18 28t10 19q4 2 8 2l28 -8q-6 -16 -30 -68t-32 -56q-94 -38 -204 -38q-96 0 -157 63t-61 161z " />
<glyph unicode="&#xaa;" horiz-adv-x="760" d="M118 664q0 174 146 312t294 138q66 0 120 -18l-94 -442q-6 -18 -6 -44q0 -34 14 -34q30 0 110 80q4 0 9 -10t5 -16q-18 -28 -86 -80t-116 -52q-24 0 -38 21t-14 53q0 24 10 74q2 16 6 28t4 14q-38 -60 -104 -124t-124 -64q-62 0 -99 45t-37 119zM232 718q0 -138 78 -138 q56 0 124 102t92 208l32 148q-20 20 -70 20q-88 0 -172 -110t-84 -230z" />
<glyph unicode="&#xab;" horiz-adv-x="968" d="M54 484q0 30 30 48q78 44 149 91t100 68t106 82t93 73q32 -8 36 -30q-4 -10 -88 -90t-166 -154l-82 -74q208 -300 208 -316q-12 -20 -42 -36q-46 60 -141 151t-183 159q-20 14 -20 28zM414 484q0 30 30 48q78 44 149 91t100 68t106 82t93 73q32 -8 36 -30q-4 -10 -88 -90 t-166 -154l-82 -74q208 -300 208 -316q-12 -20 -42 -36q-46 60 -141 151t-183 159q-20 14 -20 28z" />
<glyph unicode="&#xac;" horiz-adv-x="1080" d="M98 656q0 24 14 41t28 17h846l-94 -484q-24 -24 -70 -24q-12 0 -21 4t-7 12l74 406h-764q-6 16 -6 28z" />
<glyph unicode="&#xad;" horiz-adv-x="740" d="M104 428q0 20 14 56t28 38l454 24q12 0 12 -24q0 -22 -16 -61t-30 -41l-452 -22q-10 0 -10 30z" />
<glyph unicode="&#xae;" horiz-adv-x="1206" d="M148 814q44 226 224 386t390 160t329 -160t75 -386t-225 -387t-391 -161t-328 161t-74 387zM210 814q-40 -200 64 -342t290 -142t345 142t199 342q38 200 -66 341t-290 141t-344 -141t-198 -341zM370 560q0 2 3 5t3 5q22 4 34 6t19 11t9 13t5 25t7 35l66 338q8 44 8 58 q0 12 -16 19t-28 7q-4 0 -4 4t3 11t3 9q10 0 38 -3t48 -3q28 0 70 4t70 4q62 0 105 -32t43 -90q0 -100 -116 -158q-2 -2 -2 -6v-2q8 -44 64 -154q18 -34 28 -51t27 -30t39 -13q0 -14 -4 -22q-12 -6 -36 -6q-86 0 -123 44t-99 208q-8 18 -34 18q-24 0 -26 -16l-34 -178v-22 q0 -14 6 -16q24 -12 38 -12q2 0 2 -6q0 -4 -4 -20q-76 4 -100 4q-26 0 -110 -4q0 4 -1 8t-1 8zM588 880q0 -24 76 -24q44 0 72 38t28 88q0 76 -76 76q-64 0 -68 -20l-28 -150q0 -2 -2 -4z" />
<glyph unicode="&#xaf;" horiz-adv-x="526" d="M40 998q0 12 9 36t15 24h412q10 0 10 -14q0 -42 -20 -64h-420q-6 6 -6 18z" />
<glyph unicode="&#xb0;" horiz-adv-x="532" d="M180 1034q0 94 71 164t153 70q66 0 108 -45t42 -113q0 -92 -70 -164t-154 -72q-66 0 -108 46t-42 114zM252 1048q0 -42 25 -71t67 -29q52 0 95 45t43 103q0 42 -25 70t-67 28q-54 0 -96 -43t-42 -103z" />
<glyph unicode="&#xb1;" horiz-adv-x="978" d="M-2 58q0 36 26 70h782q6 0 6 -16q0 -44 -24 -70h-780q-10 0 -10 16zM110 628q0 36 26 70h342l68 350q4 16 34 24t48 8q12 0 16 -5t2 -11l-72 -366h342q8 0 8 -16q0 -44 -24 -70h-342l-68 -356q-6 -32 -72 -32q-26 0 -26 16l70 372h-344q-8 0 -8 16z" />
<glyph unicode="&#xb2;" horiz-adv-x="690" d="M92 542q60 52 162 152t152 156q112 128 112 240q0 50 -35 82t-81 32q-82 0 -158 -100q-6 0 -13 15t-5 19q18 40 91 98t163 58q76 0 135 -43t59 -123q0 -74 -41 -136t-123 -146q-46 -46 -115 -103t-115 -91l-46 -34h236q72 0 120 102q2 8 18 8q12 0 28 -16 q-28 -54 -96 -202h-440q-8 8 -8 32z" />
<glyph unicode="&#xb3;" horiz-adv-x="632" d="M90 560q0 28 21 56t43 28q18 0 29 -7t24 -27t15 -22q28 -32 88 -32q58 0 105 59t47 157q0 62 -34 97t-92 35q-36 0 -64 -8q-8 12 -8 14q0 24 2 28q82 14 149 65t67 117q0 38 -22 67t-60 29q-26 0 -50 -12t-39 -26t-28 -28t-15 -16q-6 0 -12 12t-4 22q90 128 206 128 q50 0 92 -35t42 -99q0 -56 -47 -107t-105 -85q64 -4 114 -56t50 -110q0 -98 -68 -173t-146 -106t-140 -31q-106 0 -148 30q-12 18 -12 36z" />
<glyph unicode="&#xb4;" horiz-adv-x="402" d="M20 1000q0 12 85 110t105 112q28 20 74 20q26 0 52 -15t26 -45q0 -26 -150 -114t-176 -88q-4 0 -10 8t-6 12z" />
<glyph unicode="&#xb5;" horiz-adv-x="986" d="M-22 -292q0 90 60 326t104 374q6 26 38 216t38 222q22 28 46 28q18 0 46 -22t40 -54q-10 -60 -118 -352q-16 -84 -16 -146q0 -70 17 -119t45 -49q34 0 69 25t73 81t60 93t64 113q24 86 53 215t45 187q22 28 46 28q18 0 46 -22t40 -54l-152 -378q-28 -124 -11 -206t79 -82 q50 0 100 50q6 -4 10 -21t2 -23q-20 -54 -69 -100t-95 -46q-52 0 -75 46t-22 110t5 132q-80 -140 -148 -219t-138 -79q-98 0 -98 194q-2 -8 -21 -78t-37 -154t-18 -142q0 -86 66 -190q-2 -20 -31 -37t-57 -17q-18 0 -35 9t-34 45t-17 96z" />
<glyph unicode="&#xb6;" horiz-adv-x="966" d="M128 880q0 134 84 239t189 152t197 47q60 0 145 -2t117 -2t60 2t64 4t64 4q6 -8 1 -29t-13 -29q-24 0 -64 -9t-46 -23q-20 -40 -38 -148q-94 -542 -126 -714q-46 -240 -168 -396t-246 -156q-82 0 -108 50q0 22 2 32q12 80 58 80q34 0 76 -46q30 -30 58 -30q56 0 93 101 t87 357l136 710q24 122 20 150q-4 20 -38 20q-64 0 -119 -123t-55 -243q0 -168 70 -226q20 -10 20 -20q0 -36 -66 -61t-122 -25q-166 0 -249 104t-83 230z" />
<glyph unicode="&#xb7;" horiz-adv-x="444" d="M108 504q0 54 42 97t92 43q38 0 62 -26t24 -66q0 -56 -41 -99t-91 -43q-38 0 -63 27t-25 67z" />
<glyph unicode="&#xb8;" horiz-adv-x="322" d="M16 -258q2 10 11 19t19 9t29 -13t35 -13q38 0 64 20t30 46q6 32 -8 50t-36 18q-16 0 -52 -14q-4 0 -11 10t-3 16q10 14 40 51t40 51h38l-42 -46h46q36 0 54 -29t10 -69q-14 -68 -72 -110t-132 -42q-38 0 -60 18v28z" />
<glyph unicode="&#xb9;" horiz-adv-x="540" d="M109 530q3 20 7 20q16 0 58 8t46 18q12 24 20 70l74 378q6 36 9 51t5 34t-1 25t-9 6q-32 0 -106 -28q-10 10 -10 28q0 8 6 12q50 24 121 60t117 60t48 24h2q10 0 10 -24q-20 -40 -34 -114l-94 -474q-14 -74 -12 -108q2 -8 42 -17t52 -9q2 0 4 -10t0 -16l-6 -18 q-138 6 -198 6q-12 0 -150 -6q-4 4 -1 24z" />
<glyph unicode="&#xba;" horiz-adv-x="678" d="M126 694q0 150 109 282t239 132q90 0 135 -56t45 -150q0 -148 -110 -278t-240 -130q-178 0 -178 200zM246 722q0 -84 24 -134t64 -50q88 0 144 112t56 232q0 182 -80 182q-90 0 -149 -112t-59 -230z" />
<glyph unicode="&#xbb;" horiz-adv-x="970" d="M26 176q4 10 88 90t166 154l82 74q-208 300 -208 316q12 20 42 36q46 -60 141 -151t183 -159q20 -14 20 -28q0 -30 -30 -48q-78 -44 -149 -91t-100 -68t-106 -82t-93 -73q-32 8 -36 30zM386 176q4 10 88 90t166 154l82 74q-208 300 -208 316q12 20 42 36q46 -60 141 -151 t183 -159q20 -14 20 -28q0 -30 -30 -48q-78 -44 -149 -91t-100 -68t-106 -82t-93 -73q-32 8 -36 30z" />
<glyph unicode="&#xbc;" horiz-adv-x="1274" d="M77 530q3 20 7 20q16 0 58 8t46 18q12 24 20 70l74 378q6 36 9 51t5 34t-1 25t-9 6q-32 0 -106 -28q-10 10 -10 28q0 8 6 12q50 24 121 60t117 60t48 24h2q10 0 10 -24q-20 -40 -34 -114l-94 -474q-14 -74 -12 -108q2 -8 42 -17t52 -9q2 0 4 -10t0 -16l-6 -18 q-138 6 -198 6q-12 0 -150 -6q-4 4 -1 24zM218 8q0 4 4 12l894 1264q46 0 46 -22q0 -8 -2 -10l-892 -1264q-50 -2 -50 20zM590 240l526 556q14 14 44 14q8 0 16 -11t6 -19l-94 -476h70q6 0 7 -21t-3 -41q-2 -14 -10 -30h-80l-40 -210q-28 -6 -72 -6h-15t-14 1t-13 1t-10 1 t-6 3t-2 4l40 206h-342q-14 6 -8 28zM720 304h238l68 324z" />
<glyph unicode="&#xbd;" horiz-adv-x="1378" d="M79 530q3 20 7 20q16 0 58 8t46 18q12 24 20 70l74 378q6 36 9 51t5 34t-1 25t-9 6q-32 0 -106 -28q-10 10 -10 28q0 8 6 12q50 24 121 60t117 60t48 24h2q10 0 10 -24q-20 -40 -34 -114l-94 -474q-14 -74 -12 -108q2 -8 42 -17t52 -9q2 0 4 -10t0 -16l-6 -18 q-138 6 -198 6q-12 0 -150 -6q-4 4 -1 24zM220 8q0 4 4 12l894 1264q46 0 46 -22q0 -8 -2 -10l-892 -1264q-50 -2 -50 20zM718 36q60 52 162 152t152 156q112 128 112 240q0 50 -35 82t-81 32q-84 0 -160 -100q-6 0 -12 15t-4 19q18 40 91 98t163 58q76 0 135 -43t59 -123 q0 -74 -41 -136t-123 -146q-20 -22 -47 -46t-53 -45t-53 -42t-49 -38t-40 -30t-26 -19l-10 -8h238q72 0 120 102q2 8 18 8q12 0 28 -16q-28 -54 -96 -202h-440q-8 8 -8 32z" />
<glyph unicode="&#xbe;" horiz-adv-x="1302" d="M64 560q0 28 21 56t43 28q18 0 29 -7t24 -27t15 -22q28 -32 88 -32q58 0 105 59t47 157q0 62 -34 97t-92 35q-36 0 -64 -8q-8 12 -8 14q0 24 2 28q82 14 149 65t67 117q0 38 -22 67t-60 29q-26 0 -50 -12t-39 -26t-28 -28t-15 -16q-6 0 -12 12t-4 22q90 128 206 128 q50 0 92 -35t42 -99q0 -56 -47 -107t-105 -85q64 -4 114 -56t50 -110q0 -98 -68 -173t-146 -106t-140 -31q-106 0 -148 30q-12 18 -12 36zM218 8q0 4 4 12l894 1264q46 0 46 -22q0 -8 -2 -10l-892 -1264q-50 -2 -50 20zM620 240l526 556q14 14 44 14q8 0 16 -11t6 -19 l-94 -476h70q6 0 7 -21t-3 -41q-2 -14 -10 -30h-80l-40 -210q-28 -6 -72 -6h-15t-14 1t-13 1t-10 1t-6 3t-2 4l40 206h-342q-14 6 -8 28zM750 304h238l68 324z" />
<glyph unicode="&#xbf;" horiz-adv-x="620" d="M-66 -160q0 126 88 208q26 24 108 75t122 79q66 44 66 120q0 38 -26 74t-52 54q0 20 20 32q46 0 122 -64t76 -140q0 -98 -98 -166q-164 -112 -232 -160q-92 -64 -92 -152q0 -56 29 -88t75 -32t87 46t77 46q68 0 68 -104q-8 -26 -63 -56t-109 -30q-108 0 -187 81t-79 177z M290 732q0 54 43 97t93 43q38 0 61 -26t23 -66q0 -56 -40 -98t-90 -42q-38 0 -64 26t-26 66z" />
<glyph unicode="&#xc0;" horiz-adv-x="1172" d="M-110 -6q-2 4 2 26t10 32q22 0 60 10t54 28q50 54 124 188l552 990q12 22 39 40t41 18q4 0 10 -6l172 -1068q4 -28 10 -64t9 -52t3 -20q6 -26 36 -42t52 -19t38 -3q4 -12 1 -32t-7 -26q-184 10 -218 10q-38 0 -69 -2t-69 -4t-70 -4q-6 8 -2 29t14 29q114 0 114 62 q0 60 -6 98l-44 300h-398q-96 -174 -142 -262q-58 -112 -58 -150q0 -26 46 -37t78 -11q2 -4 -1 -26t-7 -32q-26 2 -57 4t-58 4t-63 2q-38 0 -67 -2t-63 -4t-66 -4zM384 578h350l-76 492zM472 1592q0 18 27 31t69 13q40 0 54 -10q38 -24 125 -100t87 -86q0 -4 -5 -12t-7 -8 q-32 0 -191 70t-159 102z" />
<glyph unicode="&#xc1;" horiz-adv-x="1172" d="M-110 -6q-2 4 2 26t10 32q22 0 60 10t54 28q50 54 124 188l552 990q12 22 39 40t41 18q4 0 10 -6l172 -1068q4 -28 10 -64t9 -52t3 -20q6 -26 36 -42t52 -19t38 -3q4 -12 1 -32t-7 -26q-184 10 -218 10q-38 0 -69 -2t-69 -4t-70 -4q-6 8 -2 29t14 29q114 0 114 62 q0 60 -6 98l-44 300h-398q-96 -174 -142 -262q-58 -112 -58 -150q0 -26 46 -37t78 -11q2 -4 -1 -26t-7 -32q-26 2 -57 4t-58 4t-63 2q-38 0 -67 -2t-63 -4t-66 -4zM384 578h350l-76 492zM692 1442q0 10 87 86t125 100q16 10 54 10q42 0 69 -13t27 -31q0 -32 -159 -102 t-191 -70q-2 0 -7 8t-5 12z" />
<glyph unicode="&#xc2;" horiz-adv-x="1172" d="M-110 -6q-2 4 2 26t10 32q22 0 60 10t54 28q50 54 124 188l552 990q12 22 39 40t41 18q4 0 10 -6l172 -1068q4 -28 10 -64t9 -52t3 -20q6 -26 36 -42t52 -19t38 -3q4 -12 1 -32t-7 -26q-184 10 -218 10q-38 0 -69 -2t-69 -4t-70 -4q-6 8 -2 29t14 29q114 0 114 62 q0 60 -6 98l-44 300h-398q-96 -174 -142 -262q-58 -112 -58 -150q0 -26 46 -37t78 -11q2 -4 -1 -26t-7 -32q-26 2 -57 4t-58 4t-63 2q-38 0 -67 -2t-63 -4t-66 -4zM384 578h350l-76 492zM554 1442q140 106 264 216q18 14 28 14q14 0 20 -14q68 -110 156 -216q-4 -20 -30 -20 l-178 118q-144 -70 -240 -118q-24 0 -20 20z" />
<glyph unicode="&#xc3;" horiz-adv-x="1172" d="M-110 -6q-2 4 2 26t10 32q22 0 60 10t54 28q50 54 124 188l552 990q12 22 39 40t41 18q4 0 10 -6l172 -1068q4 -28 10 -64t9 -52t3 -20q6 -26 36 -42t52 -19t38 -3q4 -12 1 -32t-7 -26q-184 10 -218 10q-38 0 -69 -2t-69 -4t-70 -4q-6 8 -2 29t14 29q114 0 114 62 q0 60 -6 98l-44 300h-398q-96 -174 -142 -262q-58 -112 -58 -150q0 -26 46 -37t78 -11q2 -4 -1 -26t-7 -32q-26 2 -57 4t-58 4t-63 2q-38 0 -67 -2t-63 -4t-66 -4zM384 578h350l-76 492zM498 1498q0 36 38 74q68 66 156 66q72 0 122 -28q84 -48 144 -48q64 0 130 76 q12 -4 12 -20q0 -38 -36 -74q-68 -66 -156 -66q-72 0 -122 28q-84 48 -144 48q-64 0 -130 -76q-14 4 -14 20z" />
<glyph unicode="&#xc4;" horiz-adv-x="1172" d="M-110 -6q-2 4 2 26t10 32q22 0 60 10t54 28q50 54 124 188l552 990q12 22 39 40t41 18q4 0 10 -6l172 -1068q4 -28 10 -64t9 -52t3 -20q6 -26 36 -42t52 -19t38 -3q4 -12 1 -32t-7 -26q-184 10 -218 10q-38 0 -69 -2t-69 -4t-70 -4q-6 8 -2 29t14 29q114 0 114 62 q0 60 -6 98l-44 300h-398q-96 -174 -142 -262q-58 -112 -58 -150q0 -26 46 -37t78 -11q2 -4 -1 -26t-7 -32q-26 2 -57 4t-58 4t-63 2q-38 0 -67 -2t-63 -4t-66 -4zM384 578h350l-76 492zM532 1556q8 42 40 71t72 29q38 0 60 -29t14 -71t-41 -71t-73 -29q-38 0 -59 29t-13 71 zM868 1556q8 42 40 71t72 29q38 0 60 -29t14 -71t-40 -71t-72 -29q-38 0 -60 29t-14 71z" />
<glyph unicode="&#xc5;" horiz-adv-x="1172" d="M-110 -6q-2 4 2 26t10 32q22 0 60 10t54 28q50 54 124 188l552 990q12 22 39 40t41 18q4 0 10 -6l172 -1068q4 -28 10 -64t9 -52t3 -20q6 -26 36 -42t52 -19t38 -3q4 -12 1 -32t-7 -26q-184 10 -218 10q-38 0 -69 -2t-69 -4t-70 -4q-6 8 -2 29t14 29q114 0 114 62 q0 60 -6 98l-44 300h-398q-96 -174 -142 -262q-58 -112 -58 -150q0 -26 46 -37t78 -11q2 -4 -1 -26t-7 -32q-26 2 -57 4t-58 4t-63 2q-38 0 -67 -2t-63 -4t-66 -4zM384 578h350l-76 492zM630 1498q14 74 74 126t128 52t105 -52t21 -126t-73 -127t-123 -53q-68 0 -107 53 t-25 127zM692 1498q-8 -46 16 -79t66 -33t77 33t45 79t-13 78t-65 32t-80 -32t-46 -78z" />
<glyph unicode="&#xc6;" horiz-adv-x="1570" d="M-119 22q1 26 7 26q22 0 66 12t62 30q78 70 158 188l616 894q10 20 10 30q0 48 -60 48q-6 6 -5 29t5 33l196 2q84 0 286 7t306 7q0 -2 24 -272q-10 -10 -36 -10q-24 0 -24 14q-16 112 -64 156t-128 44h-160q-122 0 -130 -22q-16 -36 -28 -144l-42 -400q0 -4 6 -6t18 -4 t25 -2h29h98q124 0 154 19t62 109q4 10 6 16q6 14 30 14q22 0 28 -10l-40 -378q-8 -8 -32 -8q-22 0 -26 16q-18 122 -38 140q-22 16 -196 16q-132 0 -134 -18l-38 -380q-8 -132 -2 -138q22 -20 130 -20h88q150 0 238 62q82 58 140 202q6 12 28 12q38 0 46 -12 q-10 -22 -49 -105t-60 -135t-31 -92q-96 0 -300 4t-332 4l-248 -6q-4 8 1 37t11 31q28 0 80 11t66 27q34 42 44 148l34 366h-290l-242 -352q-90 -128 -90 -162q0 -20 45 -36t69 -16v-12t-2 -24t-4 -18q-186 10 -188 10q-38 0 -66 -2t-61 -4t-65 -4q-2 2 -1 28zM534 682h248 l40 418z" />
<glyph unicode="&#xc7;" horiz-adv-x="1290" d="M118 530q0 242 117 430t301 282t394 90q118 -2 322 -52q-12 -218 -20 -292q0 -10 -16 -10q-26 0 -46 10q8 118 -81 200t-217 82q-240 0 -403 -194t-161 -512q0 -74 13 -146t44 -141t77 -120t117 -83t157 -32q262 0 422 304q12 0 26 -4t22 -8l8 -4q-6 -32 -64 -144 t-80 -130q-138 -72 -390 -72q-238 0 -390 159t-152 387zM454 -294q4 12 15 22t21 10q12 0 34 -15t42 -15q44 0 74 23t36 55q6 38 -11 59t-41 21t-62 -16q-4 0 -12 12t-4 18q4 4 42 52t52 68h46l-50 -54h56q42 0 63 -34t11 -82q-16 -80 -85 -129t-157 -49q-46 0 -70 20v34z " />
<glyph unicode="&#xc8;" horiz-adv-x="1108" d="M-12 23q4 21 12 29q28 0 79 9t57 23q14 28 38 148l166 854q22 112 18 148q-2 14 -48 23t-74 9q-4 8 0 29t12 29q190 -10 218 -10q84 0 290 7t310 7q-4 -24 -1 -139t3 -133q-10 -10 -36 -10q-22 0 -22 14q-8 112 -52 156t-124 44h-160q-122 0 -132 -22q-22 -42 -40 -144 l-74 -384q0 -4 6 -6t18 -4t25 -2h29h98q124 0 155 18t69 108q6 12 8 18q6 14 32 14q22 0 28 -10l-72 -378q-8 -8 -32 -8q-22 0 -26 16q-6 124 -26 140t-194 16q-134 0 -138 -18l-78 -396q-26 -126 -14 -138q20 -20 128 -20h88q154 0 248 62q88 60 156 202q6 12 30 12 q36 0 44 -12q-12 -24 -56 -105t-70 -134t-40 -93q-96 0 -299 4t-333 4q-46 0 -117 -3t-105 -3q-6 8 -2 29zM486 1592q0 18 27 31t69 13q40 0 54 -10q38 -24 125 -100t87 -86q0 -4 -5 -12t-7 -8q-32 0 -191 70t-159 102z" />
<glyph unicode="&#xc9;" horiz-adv-x="1108" d="M-12 23q4 21 12 29q28 0 79 9t57 23q14 28 38 148l166 854q22 112 18 148q-2 14 -48 23t-74 9q-4 8 0 29t12 29q190 -10 218 -10q84 0 290 7t310 7q-4 -24 -1 -139t3 -133q-10 -10 -36 -10q-22 0 -22 14q-8 112 -52 156t-124 44h-160q-122 0 -132 -22q-22 -42 -40 -144 l-74 -384q0 -4 6 -6t18 -4t25 -2h29h98q124 0 155 18t69 108q6 12 8 18q6 14 32 14q22 0 28 -10l-72 -378q-8 -8 -32 -8q-22 0 -26 16q-6 124 -26 140t-194 16q-134 0 -138 -18l-78 -396q-26 -126 -14 -138q20 -20 128 -20h88q154 0 248 62q88 60 156 202q6 12 30 12 q36 0 44 -12q-12 -24 -56 -105t-70 -134t-40 -93q-96 0 -299 4t-333 4q-46 0 -117 -3t-105 -3q-6 8 -2 29zM578 1442q0 10 87 86t125 100q16 10 54 10q42 0 69 -13t27 -31q0 -32 -159 -102t-191 -70q-2 0 -7 8t-5 12z" />
<glyph unicode="&#xca;" horiz-adv-x="1108" d="M-12 23q4 21 12 29q28 0 79 9t57 23q14 28 38 148l166 854q22 112 18 148q-2 14 -48 23t-74 9q-4 8 0 29t12 29q190 -10 218 -10q84 0 290 7t310 7q-4 -24 -1 -139t3 -133q-10 -10 -36 -10q-22 0 -22 14q-8 112 -52 156t-124 44h-160q-122 0 -132 -22q-22 -42 -40 -144 l-74 -384q0 -4 6 -6t18 -4t25 -2h29h98q124 0 155 18t69 108q6 12 8 18q6 14 32 14q22 0 28 -10l-72 -378q-8 -8 -32 -8q-22 0 -26 16q-6 124 -26 140t-194 16q-134 0 -138 -18l-78 -396q-26 -126 -14 -138q20 -20 128 -20h88q154 0 248 62q88 60 156 202q6 12 30 12 q36 0 44 -12q-12 -24 -56 -105t-70 -134t-40 -93q-96 0 -299 4t-333 4q-46 0 -117 -3t-105 -3q-6 8 -2 29zM494 1442q140 106 264 216q18 14 28 14q14 0 20 -14q68 -110 156 -216q-4 -20 -30 -20l-178 118q-144 -70 -240 -118q-24 0 -20 20z" />
<glyph unicode="&#xcb;" horiz-adv-x="1108" d="M-12 23q4 21 12 29q28 0 79 9t57 23q14 28 38 148l166 854q22 112 18 148q-2 14 -48 23t-74 9q-4 8 0 29t12 29q190 -10 218 -10q84 0 290 7t310 7q-4 -24 -1 -139t3 -133q-10 -10 -36 -10q-22 0 -22 14q-8 112 -52 156t-124 44h-160q-122 0 -132 -22q-22 -42 -40 -144 l-74 -384q0 -4 6 -6t18 -4t25 -2h29h98q124 0 155 18t69 108q6 12 8 18q6 14 32 14q22 0 28 -10l-72 -378q-8 -8 -32 -8q-22 0 -26 16q-6 124 -26 140t-194 16q-134 0 -138 -18l-78 -396q-26 -126 -14 -138q20 -20 128 -20h88q154 0 248 62q88 60 156 202q6 12 30 12 q36 0 44 -12q-12 -24 -56 -105t-70 -134t-40 -93q-96 0 -299 4t-333 4q-46 0 -117 -3t-105 -3q-6 8 -2 29zM468 1556q8 42 40 71t72 29q38 0 60 -29t14 -71t-41 -71t-73 -29q-38 0 -59 29t-13 71zM804 1556q8 42 40 71t72 29q38 0 60 -29t14 -71t-40 -71t-72 -29 q-38 0 -60 29t-14 71z" />
<glyph unicode="&#xcc;" horiz-adv-x="626" d="M-12 23q4 21 12 29q28 0 79 9t57 23q14 28 38 148l166 854q22 112 18 148q-2 14 -48 23t-74 9q-4 8 0 29t12 29q190 -10 218 -10q26 0 220 10q6 -8 1 -29t-13 -29q-28 0 -78 -9t-56 -23q-14 -28 -38 -148l-166 -854q-24 -118 -20 -148q2 -14 48 -23t74 -9q4 -8 0 -29 t-12 -29q-190 10 -214 10q-28 0 -222 -10q-6 8 -2 29zM242 1592q0 18 27 31t69 13q40 0 54 -10q38 -24 125 -100t87 -86q0 -4 -5 -12t-7 -8q-32 0 -191 70t-159 102z" />
<glyph unicode="&#xcd;" horiz-adv-x="626" d="M-12 23q4 21 12 29q28 0 79 9t57 23q14 28 38 148l166 854q22 112 18 148q-2 14 -48 23t-74 9q-4 8 0 29t12 29q190 -10 218 -10q26 0 220 10q6 -8 1 -29t-13 -29q-28 0 -78 -9t-56 -23q-14 -28 -38 -148l-166 -854q-24 -118 -20 -148q2 -14 48 -23t74 -9q4 -8 0 -29 t-12 -29q-190 10 -214 10q-28 0 -222 -10q-6 8 -2 29zM350 1442q0 10 87 86t125 100q16 10 54 10q42 0 69 -13t27 -31q0 -32 -159 -102t-191 -70q-2 0 -7 8t-5 12z" />
<glyph unicode="&#xce;" horiz-adv-x="626" d="M-12 23q4 21 12 29q28 0 79 9t57 23q14 28 38 148l166 854q22 112 18 148q-2 14 -48 23t-74 9q-4 8 0 29t12 29q190 -10 218 -10q26 0 220 10q6 -8 1 -29t-13 -29q-28 0 -78 -9t-56 -23q-14 -28 -38 -148l-166 -854q-24 -118 -20 -148q2 -14 48 -23t74 -9q4 -8 0 -29 t-12 -29q-190 10 -214 10q-28 0 -222 -10q-6 8 -2 29zM292 1442q140 106 264 216q18 14 28 14q14 0 20 -14q68 -110 156 -216q-4 -20 -30 -20l-178 118q-144 -70 -240 -118q-24 0 -20 20z" />
<glyph unicode="&#xcf;" horiz-adv-x="626" d="M-12 23q4 21 12 29q28 0 79 9t57 23q14 28 38 148l166 854q22 112 18 148q-2 14 -48 23t-74 9q-4 8 0 29t12 29q190 -10 218 -10q26 0 220 10q6 -8 1 -29t-13 -29q-28 0 -78 -9t-56 -23q-14 -28 -38 -148l-166 -854q-24 -118 -20 -148q2 -14 48 -23t74 -9q4 -8 0 -29 t-12 -29q-190 10 -214 10q-28 0 -222 -10q-6 8 -2 29zM258 1574q8 38 40 65t66 27t55 -28t13 -66t-39 -64t-65 -26t-56 27t-14 65zM598 1574q8 38 41 65t67 27t54 -28t12 -66t-39 -64t-65 -26t-56 27t-14 65z" />
<glyph unicode="&#xd0;" horiz-adv-x="1368" d="M-11 23q5 21 13 29q28 0 78 9t56 23q14 28 38 148l166 854q24 118 20 148q-2 14 -48 23t-74 9q-4 8 -1 29t11 29q190 -10 218 -10q34 0 131 1t139 1q316 0 463 -182t91 -466q-26 -136 -83 -250t-154 -212t-249 -155t-348 -57h-466q-6 8 -1 29zM140 648q8 40 18 50h660 q14 0 10 -16q-8 -38 -20 -56h-662q-12 0 -6 22zM318 80q12 -28 146 -28q228 0 404 147t230 427q62 322 -57 479t-365 157q-124 0 -134 -22q-12 -26 -38 -148l-170 -868q-26 -124 -16 -144z" />
<glyph unicode="&#xd1;" horiz-adv-x="1464" d="M-24 -6q-10 24 12 58q26 0 83 12t69 28q28 38 46 136l168 868q18 104 8 136q-6 16 -56 25t-80 9q-10 34 10 58q168 -8 170 -8q60 0 164 8q32 -78 248 -460t290 -540l148 758q20 106 6 144q-6 18 -54 29t-80 11q-12 28 6 58q148 -8 204 -8q36 0 208 8q12 -28 -8 -58 q-26 0 -82 -11t-68 -27q-26 -34 -44 -136l-158 -814q-36 -194 -50 -280q-8 -8 -34 -8q-30 0 -54 46l-600 1102l-176 -908q-20 -104 -8 -138q6 -14 56 -27t78 -13q10 -22 -8 -58q-186 10 -208 10q-38 0 -69 -2t-68 -4t-69 -4zM582 1498q0 36 38 74q68 66 156 66q72 0 122 -28 q84 -48 144 -48q64 0 130 76q12 -4 12 -20q0 -38 -36 -74q-68 -66 -156 -66q-72 0 -122 28q-84 48 -144 48q-64 0 -130 -76q-14 4 -14 20z" />
<glyph unicode="&#xd2;" horiz-adv-x="1420" d="M122 546q0 336 213 560t495 224q232 0 373 -160t141 -406q0 -344 -206 -565t-500 -221q-236 0 -376 162t-140 406zM310 536q0 -94 16 -176t53 -159t108 -121t169 -44q146 0 263 114t177 284t60 352q0 82 -15 158t-50 154t-107 125t-172 47q-196 0 -349 -214t-153 -520z M566 1592q0 18 27 31t69 13q40 0 54 -10q38 -24 125 -100t87 -86q0 -4 -5 -12t-7 -8q-32 0 -191 70t-159 102z" />
<glyph unicode="&#xd3;" horiz-adv-x="1420" d="M122 546q0 336 213 560t495 224q232 0 373 -160t141 -406q0 -344 -206 -565t-500 -221q-236 0 -376 162t-140 406zM310 536q0 -94 16 -176t53 -159t108 -121t169 -44q146 0 263 114t177 284t60 352q0 82 -15 158t-50 154t-107 125t-172 47q-196 0 -349 -214t-153 -520z M706 1442q0 10 87 86t125 100q16 10 54 10q42 0 69 -13t27 -31q0 -32 -159 -102t-191 -70q-2 0 -7 8t-5 12z" />
<glyph unicode="&#xd4;" horiz-adv-x="1420" d="M122 546q0 336 213 560t495 224q232 0 373 -160t141 -406q0 -344 -206 -565t-500 -221q-236 0 -376 162t-140 406zM310 536q0 -94 16 -176t53 -159t108 -121t169 -44q146 0 263 114t177 284t60 352q0 82 -15 158t-50 154t-107 125t-172 47q-196 0 -349 -214t-153 -520z M616 1442q140 106 264 216q18 14 28 14q14 0 20 -14q68 -110 156 -216q-4 -20 -30 -20l-178 118q-144 -70 -240 -118q-24 0 -20 20z" />
<glyph unicode="&#xd5;" horiz-adv-x="1420" d="M122 546q0 336 213 560t495 224q232 0 373 -160t141 -406q0 -344 -206 -565t-500 -221q-236 0 -376 162t-140 406zM310 536q0 -94 16 -176t53 -159t108 -121t169 -44q146 0 263 114t177 284t60 352q0 82 -15 158t-50 154t-107 125t-172 47q-196 0 -349 -214t-153 -520z M550 1498q0 36 38 74q68 66 156 66q72 0 122 -28q84 -48 144 -48q64 0 130 76q12 -4 12 -20q0 -38 -36 -74q-68 -66 -156 -66q-72 0 -122 28q-84 48 -144 48q-64 0 -130 -76q-14 4 -14 20z" />
<glyph unicode="&#xd6;" horiz-adv-x="1420" d="M122 546q0 336 213 560t495 224q232 0 373 -160t141 -406q0 -344 -206 -565t-500 -221q-236 0 -376 162t-140 406zM310 536q0 -94 16 -176t53 -159t108 -121t169 -44q146 0 263 114t177 284t60 352q0 82 -15 158t-50 154t-107 125t-172 47q-196 0 -349 -214t-153 -520z M588 1556q8 42 40 71t72 29q38 0 60 -29t14 -71t-41 -71t-73 -29q-38 0 -59 29t-13 71zM924 1556q8 42 40 71t72 29q38 0 60 -29t14 -71t-40 -71t-72 -29q-38 0 -60 29t-14 71z" />
<glyph unicode="&#xd7;" horiz-adv-x="822" d="M28 216l308 270q4 4 4 6q0 8 -10 18l-194 266q0 18 22 42t32 24l8 -8l208 -282q4 -4 8 -4l4 2l316 282q6 6 12 6q10 0 18 -27t8 -55l-306 -272l-4 -4q0 -2 2 -4l200 -272q0 -20 -16 -44t-28 -24t-14 6l-206 280q-4 4 -6 4q-4 0 -8 -4l-322 -280q-6 -6 -10 -6q-8 0 -17 28 t-9 52z" />
<glyph unicode="&#xd8;" horiz-adv-x="1420" d="M122 546q0 336 213 560t495 224q232 0 373 -160t141 -406q0 -344 -206 -565t-500 -221q-236 0 -376 162t-140 406zM192 20l1032 1314q14 -4 33 -20t13 -24l-1034 -1316q-14 6 -32 22t-12 24zM310 536q0 -94 16 -176t53 -159t108 -121t169 -44q146 0 263 114t177 284 t60 352q0 82 -15 158t-50 154t-107 125t-172 47q-196 0 -349 -214t-153 -520z" />
<glyph unicode="&#xd9;" horiz-adv-x="1322" d="M194 502l114 584q24 118 20 148q-2 14 -48 23t-74 9q-4 8 0 29t12 29q190 -10 216 -10q24 0 220 10q6 -8 1 -29t-13 -29q-28 0 -78 -9t-56 -23q-14 -28 -38 -148l-96 -494q-46 -238 10 -352q66 -132 242 -132q156 0 257 98t153 342l106 542q20 104 8 138q-6 14 -53 27 t-73 13q-10 22 8 58q186 -10 200 -10q38 0 68 2t67 4t69 4q10 -26 -10 -58q-26 0 -84 -12t-70 -28q-26 -34 -44 -136l-106 -540q-58 -292 -196 -426t-362 -134q-212 0 -316 144q-98 140 -54 366zM606 1592q0 18 27 31t69 13q40 0 54 -10q38 -24 125 -100t87 -86q0 -4 -5 -12 t-7 -8q-32 0 -191 70t-159 102z" />
<glyph unicode="&#xda;" horiz-adv-x="1322" d="M194 502l114 584q24 118 20 148q-2 14 -48 23t-74 9q-4 8 0 29t12 29q190 -10 216 -10q24 0 220 10q6 -8 1 -29t-13 -29q-28 0 -78 -9t-56 -23q-14 -28 -38 -148l-96 -494q-46 -238 10 -352q66 -132 242 -132q156 0 257 98t153 342l106 542q20 104 8 138q-6 14 -53 27 t-73 13q-10 22 8 58q186 -10 200 -10q38 0 68 2t67 4t69 4q10 -26 -10 -58q-26 0 -84 -12t-70 -28q-26 -34 -44 -136l-106 -540q-58 -292 -196 -426t-362 -134q-212 0 -316 144q-98 140 -54 366zM808 1442q0 10 87 86t125 100q16 10 54 10q42 0 69 -13t27 -31 q0 -32 -159 -102t-191 -70q-2 0 -7 8t-5 12z" />
<glyph unicode="&#xdb;" horiz-adv-x="1322" d="M194 502l114 584q24 118 20 148q-2 14 -48 23t-74 9q-4 8 0 29t12 29q190 -10 216 -10q24 0 220 10q6 -8 1 -29t-13 -29q-28 0 -78 -9t-56 -23q-14 -28 -38 -148l-96 -494q-46 -238 10 -352q66 -132 242 -132q156 0 257 98t153 342l106 542q20 104 8 138q-6 14 -53 27 t-73 13q-10 22 8 58q186 -10 200 -10q38 0 68 2t67 4t69 4q10 -26 -10 -58q-26 0 -84 -12t-70 -28q-26 -34 -44 -136l-106 -540q-58 -292 -196 -426t-362 -134q-212 0 -316 144q-98 140 -54 366zM624 1442q140 106 264 216q18 14 28 14q14 0 20 -14q68 -110 156 -216 q-4 -20 -30 -20l-178 118q-144 -70 -240 -118q-24 0 -20 20z" />
<glyph unicode="&#xdc;" horiz-adv-x="1322" d="M194 502l114 584q24 118 20 148q-2 14 -48 23t-74 9q-4 8 0 29t12 29q190 -10 216 -10q24 0 220 10q6 -8 1 -29t-13 -29q-28 0 -78 -9t-56 -23q-14 -28 -38 -148l-96 -494q-46 -238 10 -352q66 -132 242 -132q156 0 257 98t153 342l106 542q20 104 8 138q-6 14 -53 27 t-73 13q-10 22 8 58q186 -10 200 -10q38 0 68 2t67 4t69 4q10 -26 -10 -58q-26 0 -84 -12t-70 -28q-26 -34 -44 -136l-106 -540q-58 -292 -196 -426t-362 -134q-212 0 -316 144q-98 140 -54 366zM628 1556q8 42 40 71t72 29q38 0 60 -29t14 -71t-41 -71t-73 -29 q-38 0 -59 29t-13 71zM964 1556q8 42 40 71t72 29q38 0 60 -29t14 -71t-40 -71t-72 -29q-38 0 -60 29t-14 71z" />
<glyph unicode="&#xdd;" horiz-adv-x="1112" d="M114 1279q0 11 5 26t11 19q226 -10 230 -10q50 0 240 10q2 -10 -3 -34t-11 -24q-34 0 -76 -15t-48 -49q-4 -16 10 -60l162 -480q272 380 350 522q10 14 12 30q2 8 -7 19t-40 21t-79 10q-4 4 0 28t8 30q170 -10 186 -10t206 10q0 -6 -6 -32t-10 -26q-120 0 -178 -80 l-410 -582q-8 -12 -20 -62l-62 -308q-24 -118 -20 -148q2 -14 48 -23t74 -9q4 -8 1 -29t-11 -29q-190 10 -216 10q-28 0 -222 -10q-6 8 -1 29t13 29q28 0 78 9t56 23q14 28 38 148l58 302q4 34 -2 56l-166 506q-30 92 -96 138q-44 32 -98 32q-4 2 -4 13zM666 1442 q0 10 87 86t125 100q16 10 54 10q42 0 69 -13t27 -31q0 -32 -159 -102t-191 -70q-2 0 -7 8t-5 12z" />
<glyph unicode="&#xde;" horiz-adv-x="940" d="M-12 23q4 21 12 29q28 0 79 9t57 23q14 28 38 148l166 854q22 112 18 148q-2 14 -48 23t-74 9q-4 8 0 29t12 29q190 -10 218 -10q26 0 220 10q6 -8 1 -29t-13 -29q-28 0 -78 -9t-56 -23q-14 -28 -38 -148l-18 -86q56 22 142 22q160 0 261 -83t101 -219q0 -188 -140 -320 t-326 -132q-66 0 -90 20q-16 16 -16 32q0 4 8 8q16 -8 66 -8q118 0 219 106t101 266q0 272 -232 272q-102 0 -110 -48l-132 -684q-24 -118 -20 -148q2 -14 48 -23t74 -9q4 -8 0 -29t-12 -29q-190 10 -214 10q-28 0 -222 -10q-6 8 -2 29z" />
<glyph unicode="&#xdf;" horiz-adv-x="1000" d="M-250 -416q0 22 2 34q12 78 58 78q34 0 76 -46q30 -30 58 -30q56 0 93 101t87 357l120 674h-170q-4 0 -4 6q0 18 30 43t62 25h94q46 238 168 391t246 153q88 0 161 -59t73 -167q0 -50 -11 -91t-35 -73t-41 -51t-48 -44t-39 -33q-92 -84 -106 -120q-6 -14 -6 -28 q0 -20 12 -42t23 -36t37 -43t34 -39q6 -8 46 -51t50 -58t33 -51t31 -69t8 -71q0 -110 -79 -181t-197 -71q-128 0 -200 72q-14 40 -12 52q6 82 80 82q24 0 47 -36t54 -73t73 -37q108 0 108 124q0 82 -150 256q-40 46 -57 68t-36 64t-19 84q0 26 5 46t21 41t28 34t47 46t57 55 q106 106 106 224q0 86 -51 138t-117 52q-64 0 -105 -104t-87 -354q-18 -98 -63 -347t-73 -393q-46 -240 -168 -396t-246 -156q-82 0 -108 50z" />
<glyph unicode="&#xe0;" horiz-adv-x="898" d="M38 226q0 126 55 247t139 206t186 138t192 53q86 0 156 -26l-122 -632q-28 -114 12 -114q10 0 25 8t29 20t30 28t27 28t21 22l8 10q4 0 12 -15t8 -23q-24 -42 -112 -115t-150 -73q-32 0 -50 29t-18 75q0 32 14 106q8 48 10 62q-46 -84 -132 -177t-162 -93q-80 0 -129 65 t-49 171zM186 302q0 -196 102 -196q72 0 161 146t119 296l42 212q-26 30 -92 30q-116 0 -224 -158t-108 -330zM338 1206q0 30 26 45t52 15q46 0 74 -20q20 -14 105 -112t85 -110q0 -4 -6 -12t-10 -8q-26 0 -176 88t-150 114z" />
<glyph unicode="&#xe1;" horiz-adv-x="898" d="M38 226q0 126 55 247t139 206t186 138t192 53q86 0 156 -26l-122 -632q-28 -114 12 -114q10 0 25 8t29 20t30 28t27 28t21 22l8 10q4 0 12 -15t8 -23q-24 -42 -112 -115t-150 -73q-32 0 -50 29t-18 75q0 32 14 106q8 48 10 62q-46 -84 -132 -177t-162 -93q-80 0 -129 65 t-49 171zM186 302q0 -196 102 -196q72 0 161 146t119 296l42 212q-26 30 -92 30q-116 0 -224 -158t-108 -330zM484 1024q0 12 85 110t105 112q28 20 74 20q26 0 52 -15t26 -45q0 -26 -150 -114t-176 -88q-4 0 -10 8t-6 12z" />
<glyph unicode="&#xe2;" horiz-adv-x="898" d="M38 226q0 126 55 247t139 206t186 138t192 53q86 0 156 -26l-122 -632q-28 -114 12 -114q10 0 25 8t29 20t30 28t27 28t21 22l8 10q4 0 12 -15t8 -23q-24 -42 -112 -115t-150 -73q-32 0 -50 29t-18 75q0 32 14 106q8 48 10 62q-46 -84 -132 -177t-162 -93q-80 0 -129 65 t-49 171zM186 302q0 -196 102 -196q72 0 161 146t119 296l42 212q-26 30 -92 30q-116 0 -224 -158t-108 -330zM336 1010q142 136 232 232q16 16 24 16q10 0 18 -16q64 -120 136 -232q-4 -22 -26 -22l-156 128q-132 -78 -210 -128q-8 0 -14 7t-4 15z" />
<glyph unicode="&#xe3;" horiz-adv-x="898" d="M38 226q0 126 55 247t139 206t186 138t192 53q86 0 156 -26l-122 -632q-28 -114 12 -114q10 0 25 8t29 20t30 28t27 28t21 22l8 10q4 0 12 -15t8 -23q-24 -42 -112 -115t-150 -73q-32 0 -50 29t-18 75q0 32 14 106q8 48 10 62q-46 -84 -132 -177t-162 -93q-80 0 -129 65 t-49 171zM186 302q0 -196 102 -196q72 0 161 146t119 296l42 212q-26 30 -92 30q-116 0 -224 -158t-108 -330zM256 1032q6 42 40 72q70 64 158 64q60 0 112 -26q8 -4 35 -19t48 -21t47 -6q58 0 130 72q14 -4 12 -18q-6 -42 -42 -74q-70 -64 -156 -64q-50 0 -110 28 q-4 2 -27 14t-34 16t-32 9t-41 5q-58 0 -130 -72q-12 4 -10 20z" />
<glyph unicode="&#xe4;" horiz-adv-x="898" d="M38 226q0 126 55 247t139 206t186 138t192 53q86 0 156 -26l-122 -632q-28 -114 12 -114q10 0 25 8t29 20t30 28t27 28t21 22l8 10q4 0 12 -15t8 -23q-24 -42 -112 -115t-150 -73q-32 0 -50 29t-18 75q0 32 14 106q8 48 10 62q-46 -84 -132 -177t-162 -93q-80 0 -129 65 t-49 171zM186 302q0 -196 102 -196q72 0 161 146t119 296l42 212q-26 30 -92 30q-116 0 -224 -158t-108 -330zM296 1114q8 38 40 65t66 27t55 -28t13 -66t-39 -64t-65 -26t-56 27t-14 65zM636 1114q8 38 41 65t67 27t54 -28t12 -66t-39 -64t-65 -26t-56 27t-14 65z" />
<glyph unicode="&#xe5;" horiz-adv-x="898" d="M38 226q0 126 55 247t139 206t186 138t192 53q86 0 156 -26l-122 -632q-28 -114 12 -114q10 0 25 8t29 20t30 28t27 28t21 22l8 10q4 0 12 -15t8 -23q-24 -42 -112 -115t-150 -73q-32 0 -50 29t-18 75q0 32 14 106q8 48 10 62q-46 -84 -132 -177t-162 -93q-80 0 -129 65 t-49 171zM186 302q0 -196 102 -196q72 0 161 146t119 296l42 212q-26 30 -92 30q-116 0 -224 -158t-108 -330zM440 1172q14 74 73 126t127 52t105 -52t21 -126t-73 -127t-123 -53q-68 0 -106 53t-24 127zM502 1172q-8 -46 15 -79t65 -33t79 33t45 79t-15 78t-65 32t-79 -32 t-45 -78z" />
<glyph unicode="&#xe6;" horiz-adv-x="1118" d="M12 160q0 62 37 116t81 84q14 8 78 29t150 47t106 32q4 2 7 6t4 8t3 15t4 17l22 120q4 16 4 42q0 42 -31 80t-81 38q-42 0 -67 -28t-47 -88q-34 -90 -102 -90q-46 0 -46 58q0 30 22 66q62 54 161 106t185 52q58 0 98 -41t46 -97q52 58 132 98t158 40q136 0 136 -130 q0 -118 -166 -221t-304 -121q-8 -48 -8 -82q0 -210 140 -210q16 0 33 6t33 15t33 21t31 24t28 25t23 22l17 17l6 8q4 0 13 -14t11 -26q-60 -84 -147 -150t-159 -66q-66 0 -127 42t-81 110q-28 -36 -129 -96t-139 -60q-70 0 -119 44t-49 132zM164 202q0 -48 25 -79t65 -31 q42 0 110 53t70 71l30 186q-132 -26 -196 -62q-104 -54 -104 -138zM612 460q78 0 195 75t117 173q0 36 -25 58t-57 22q-88 0 -151 -103t-79 -225z" />
<glyph unicode="&#xe7;" horiz-adv-x="718" d="M48 280q0 228 168 409t334 181q64 0 124 -50q18 -24 18 -54q0 -38 -18 -64t-50 -26q-48 0 -72 40q-44 72 -104 72q-88 0 -166 -136t-78 -328q0 -218 138 -218q16 0 34 6t35 15t34 21t31 24t28 25t22 22t14 17l8 8q4 0 14 -16t10 -24q-30 -50 -125 -133t-177 -83 q-106 0 -164 76t-58 216zM98 -248q2 10 11 19t19 9t29 -13t35 -13q38 0 64 20t30 46q6 32 -8 50t-36 18q-16 0 -52 -14q-4 0 -11 10t-3 16q10 14 40 51t40 51h38l-42 -46h46q36 0 54 -29t10 -69q-14 -68 -72 -110t-132 -42q-38 0 -60 18v28z" />
<glyph unicode="&#xe8;" horiz-adv-x="726" d="M46 278q0 218 163 405t339 187q70 0 101 -36t31 -88q0 -88 -94 -176t-204 -136t-176 -48q-4 -12 -4 -64q0 -216 138 -216q16 0 34 6t35 15t34 21t31 24t28 25t22 22t16 17l6 8q4 0 14 -16t10 -24q-32 -54 -127 -135t-177 -81q-106 0 -163 75t-57 215zM210 436 q76 0 199 86t123 186q0 38 -26 59t-58 21q-92 0 -160 -125t-78 -227zM272 1206q0 30 26 45t52 15q46 0 74 -20q20 -14 105 -112t85 -110q0 -4 -6 -12t-10 -8q-26 0 -176 88t-150 114z" />
<glyph unicode="&#xe9;" horiz-adv-x="726" d="M46 278q0 218 163 405t339 187q70 0 101 -36t31 -88q0 -88 -94 -176t-204 -136t-176 -48q-4 -12 -4 -64q0 -216 138 -216q16 0 34 6t35 15t34 21t31 24t28 25t22 22t16 17l6 8q4 0 14 -16t10 -24q-32 -54 -127 -135t-177 -81q-106 0 -163 75t-57 215zM210 436 q76 0 199 86t123 186q0 38 -26 59t-58 21q-92 0 -160 -125t-78 -227zM434 1024q0 12 85 110t105 112q28 20 74 20q26 0 52 -15t26 -45q0 -26 -150 -114t-176 -88q-4 0 -10 8t-6 12z" />
<glyph unicode="&#xea;" horiz-adv-x="726" d="M46 278q0 218 163 405t339 187q70 0 101 -36t31 -88q0 -88 -94 -176t-204 -136t-176 -48q-4 -12 -4 -64q0 -216 138 -216q16 0 34 6t35 15t34 21t31 24t28 25t22 22t16 17l6 8q4 0 14 -16t10 -24q-32 -54 -127 -135t-177 -81q-106 0 -163 75t-57 215zM210 436 q76 0 199 86t123 186q0 38 -26 59t-58 21q-92 0 -160 -125t-78 -227zM286 1010q142 136 232 232q16 16 24 16q10 0 18 -16q64 -120 136 -232q-4 -22 -26 -22l-156 128q-132 -78 -210 -128q-8 0 -14 7t-4 15z" />
<glyph unicode="&#xeb;" horiz-adv-x="726" d="M46 278q0 218 163 405t339 187q70 0 101 -36t31 -88q0 -88 -94 -176t-204 -136t-176 -48q-4 -12 -4 -64q0 -216 138 -216q16 0 34 6t35 15t34 21t31 24t28 25t22 22t16 17l6 8q4 0 14 -16t10 -24q-32 -54 -127 -135t-177 -81q-106 0 -163 75t-57 215zM210 436 q76 0 199 86t123 186q0 38 -26 59t-58 21q-92 0 -160 -125t-78 -227zM226 1114q8 38 40 65t66 27t55 -28t13 -66t-39 -64t-65 -26t-56 27t-14 65zM566 1114q8 38 41 65t67 27t54 -28t12 -66t-39 -64t-65 -26t-56 27t-14 65z" />
<glyph unicode="&#xec;" horiz-adv-x="524" d="M56 682q26 44 108 116t144 72q32 0 55 -30t23 -74q0 -32 -14 -106l-102 -448q-8 -40 -8 -64q0 -50 20 -50q10 0 25 8t29 20t30 28t27 28t21 22l8 10q4 0 12 -15t8 -23q-24 -42 -112 -115t-150 -73q-32 0 -50 29t-18 75q0 32 14 106l102 448q8 48 8 64q0 50 -20 50 q-10 0 -25 -8t-29 -20t-30 -28t-27 -28t-19 -22l-10 -10q-4 0 -12 15t-8 23zM58 1140q0 30 26 45t52 15q46 0 74 -20q20 -14 105 -112t85 -110q0 -4 -6 -12t-10 -8q-26 0 -176 88t-150 114z" />
<glyph unicode="&#xed;" horiz-adv-x="524" d="M56 682q26 44 108 116t144 72q32 0 55 -30t23 -74q0 -32 -14 -106l-102 -448q-8 -40 -8 -64q0 -50 20 -50q10 0 25 8t29 20t30 28t27 28t21 22l8 10q4 0 12 -15t8 -23q-24 -42 -112 -115t-150 -73q-32 0 -50 29t-18 75q0 32 14 106l102 448q8 48 8 64q0 50 -20 50 q-10 0 -25 -8t-29 -20t-30 -28t-27 -28t-19 -22l-10 -10q-4 0 -12 15t-8 23zM196 1024q0 12 85 110t105 112q28 20 74 20q26 0 52 -15t26 -45q0 -26 -150 -114t-176 -88q-4 0 -10 8t-6 12z" />
<glyph unicode="&#xee;" horiz-adv-x="524" d="M56 682q26 44 108 116t144 72q32 0 55 -30t23 -74q0 -32 -14 -106l-102 -448q-8 -40 -8 -64q0 -50 20 -50q10 0 25 8t29 20t30 28t27 28t21 22l8 10q4 0 12 -15t8 -23q-24 -42 -112 -115t-150 -73q-32 0 -50 29t-18 75q0 32 14 106l102 448q8 48 8 64q0 50 -20 50 q-10 0 -25 -8t-29 -20t-30 -28t-27 -28t-19 -22l-10 -10q-4 0 -12 15t-8 23zM104 1010q142 136 232 232q16 16 24 16q10 0 18 -16q64 -120 136 -232q-4 -22 -26 -22l-156 128q-132 -78 -210 -128q-8 0 -14 7t-4 15z" />
<glyph unicode="&#xef;" horiz-adv-x="524" d="M56 682q26 44 108 116t144 72q32 0 55 -30t23 -74q0 -32 -14 -106l-102 -448q-8 -40 -8 -64q0 -50 20 -50q10 0 25 8t29 20t30 28t27 28t21 22l8 10q4 0 12 -15t8 -23q-24 -42 -112 -115t-150 -73q-32 0 -50 29t-18 75q0 32 14 106l102 448q8 48 8 64q0 50 -20 50 q-10 0 -25 -8t-29 -20t-30 -28t-27 -28t-19 -22l-10 -10q-4 0 -12 15t-8 23zM128 1102q0 46 29 79t73 33q30 0 52 -24t22 -56q0 -48 -31 -84t-77 -36q-32 0 -50 26t-18 62zM394 1102q0 46 29 79t73 33q30 0 52 -24t22 -56q0 -48 -31 -84t-77 -36q-32 0 -50 26t-18 62z" />
<glyph unicode="&#xf0;" horiz-adv-x="874" d="M78 280q0 114 55 249t160 238t225 103q78 0 108 -18q2 68 -25 151t-77 155l-212 -140q-10 8 -17 30t-1 34l192 126q-94 106 -216 136q4 32 26 32q148 -24 260 -120l230 152q10 -10 17 -32t3 -30l-204 -136q84 -94 129 -226t45 -278q0 -314 -145 -515t-325 -201 q-122 0 -175 85t-53 205zM234 316q0 -98 25 -180t91 -82q100 0 180 145t80 347q0 122 -6 160q-6 40 -37 70t-65 30q-100 0 -184 -147t-84 -343z" />
<glyph unicode="&#xf1;" horiz-adv-x="994" d="M44 682q26 44 108 116t144 72q32 0 55 -30t23 -74q0 -38 -16 -106l-36 -168q40 78 173 228t219 150q124 0 124 -132q0 -82 -28 -218l-66 -308q-8 -40 -8 -64q0 -50 20 -50q10 0 25 8t29 20t30 28t27 28t21 22l8 10q4 0 12 -15t8 -23q-24 -42 -112 -115t-150 -73 q-32 0 -50 29t-18 75q0 32 14 106l70 330q14 64 14 108q0 30 -2 46t-10 28t-26 12q-68 0 -203 -154t-167 -324q-8 -40 -50 -244q-32 -8 -72 -8q-38 0 -70 8l132 646q8 48 8 64q0 50 -20 50q-10 0 -25 -8t-29 -20t-30 -28t-27 -28t-21 -22l-8 -10q-4 0 -12 15t-8 23z M260 1032q6 42 40 72q70 64 158 64q60 0 112 -26q8 -4 35 -19t48 -21t47 -6q58 0 130 72q14 -4 12 -18q-6 -42 -42 -74q-70 -64 -156 -64q-50 0 -110 28q-4 2 -27 14t-34 16t-32 9t-41 5q-58 0 -130 -72q-12 4 -10 20z" />
<glyph unicode="&#xf2;" horiz-adv-x="828" d="M48 276q0 214 142 404t312 190q116 0 175 -80t59 -214q0 -212 -143 -399t-313 -187q-116 0 -174 76t-58 210zM204 316q0 -120 30 -191t84 -71q78 0 140 83t92 193t30 216q0 260 -106 260q-116 0 -193 -160t-77 -330zM284 1140q0 30 26 45t52 15q46 0 74 -20 q20 -14 105 -112t85 -110q0 -4 -6 -12t-10 -8q-26 0 -176 88t-150 114z" />
<glyph unicode="&#xf3;" horiz-adv-x="828" d="M48 276q0 214 142 404t312 190q116 0 175 -80t59 -214q0 -212 -143 -399t-313 -187q-116 0 -174 76t-58 210zM204 316q0 -120 30 -191t84 -71q78 0 140 83t92 193t30 216q0 260 -106 260q-116 0 -193 -160t-77 -330zM402 1024q0 12 85 110t105 112q28 20 74 20 q26 0 52 -15t26 -45q0 -26 -150 -114t-176 -88q-4 0 -10 8t-6 12z" />
<glyph unicode="&#xf4;" horiz-adv-x="828" d="M48 276q0 214 142 404t312 190q116 0 175 -80t59 -214q0 -212 -143 -399t-313 -187q-116 0 -174 76t-58 210zM204 316q0 -120 30 -191t84 -71q78 0 140 83t92 193t30 216q0 260 -106 260q-116 0 -193 -160t-77 -330zM294 1010q142 136 232 232q16 16 24 16q10 0 18 -16 q64 -120 136 -232q-4 -22 -26 -22l-156 128q-132 -78 -210 -128q-8 0 -14 7t-4 15z" />
<glyph unicode="&#xf5;" horiz-adv-x="828" d="M48 276q0 214 142 404t312 190q116 0 175 -80t59 -214q0 -212 -143 -399t-313 -187q-116 0 -174 76t-58 210zM204 316q0 -120 30 -191t84 -71q78 0 140 83t92 193t30 216q0 260 -106 260q-116 0 -193 -160t-77 -330zM228 1032q6 42 40 72q70 64 158 64q60 0 112 -26 q8 -4 35 -19t48 -21t47 -6q58 0 130 72q14 -4 12 -18q-6 -42 -42 -74q-70 -64 -156 -64q-50 0 -110 28q-4 2 -27 14t-34 16t-32 9t-41 5q-58 0 -130 -72q-12 4 -10 20z" />
<glyph unicode="&#xf6;" horiz-adv-x="828" d="M48 276q0 214 142 404t312 190q116 0 175 -80t59 -214q0 -212 -143 -399t-313 -187q-116 0 -174 76t-58 210zM204 316q0 -120 30 -191t84 -71q78 0 140 83t92 193t30 216q0 260 -106 260q-116 0 -193 -160t-77 -330zM274 1114q8 38 40 65t66 27t55 -28t13 -66t-39 -64 t-65 -26t-56 27t-14 65zM614 1114q8 38 41 65t67 27t54 -28t12 -66t-39 -64t-65 -26t-56 27t-14 65z" />
<glyph unicode="&#xf7;" horiz-adv-x="1014" d="M66 468q0 42 20 74h842q6 0 6 -16q0 -38 -24 -78h-836q-8 0 -8 20zM338 96q0 46 29 79t73 33q30 0 51 -24t21 -56q0 -48 -30 -84t-76 -36q-32 0 -50 26t-18 62zM486 868q0 46 29 79t73 33q30 0 52 -24t22 -56q0 -48 -31 -84t-77 -36q-32 0 -50 26t-18 62z" />
<glyph unicode="&#xf8;" horiz-adv-x="828" d="M48 276q0 214 142 404t312 190q116 0 175 -80t59 -214q0 -212 -143 -399t-313 -187q-116 0 -174 76t-58 210zM66 40l616 798q48 -24 38 -38l-616 -800q-48 24 -38 40zM204 316q0 -120 30 -191t84 -71q78 0 140 83t92 193t30 216q0 260 -106 260q-116 0 -193 -160 t-77 -330z" />
<glyph unicode="&#xf9;" horiz-adv-x="982" d="M40 682q26 44 108 116t144 72q32 0 55 -30t23 -74q0 -32 -14 -106l-70 -330q-14 -62 -14 -108q0 -86 38 -86t113 71t149 193t96 238q6 36 21 105t23 115q26 8 62 8q46 0 78 -8l-124 -646q-8 -40 -8 -64q0 -50 20 -50q10 0 25 8t29 20t30 28t27 28t21 22l8 10q4 0 12 -15 t8 -23q-24 -42 -112 -115t-150 -73q-32 0 -50 29t-18 75q0 32 14 106q6 30 11 57t13 60t12 57q-48 -104 -180 -244t-222 -140q-100 0 -100 144q0 70 28 206l66 308q8 48 8 64q0 50 -20 50q-10 0 -25 -8t-29 -20t-30 -28t-27 -28t-21 -22l-8 -10q-4 0 -12 15t-8 23zM310 1140 q0 30 26 45t52 15q46 0 74 -20q20 -14 105 -112t85 -110q0 -4 -6 -12t-10 -8q-26 0 -176 88t-150 114z" />
<glyph unicode="&#xfa;" horiz-adv-x="982" d="M40 682q26 44 108 116t144 72q32 0 55 -30t23 -74q0 -32 -14 -106l-70 -330q-14 -62 -14 -108q0 -86 38 -86t113 71t149 193t96 238q6 36 21 105t23 115q26 8 62 8q46 0 78 -8l-124 -646q-8 -40 -8 -64q0 -50 20 -50q10 0 25 8t29 20t30 28t27 28t21 22l8 10q4 0 12 -15 t8 -23q-24 -42 -112 -115t-150 -73q-32 0 -50 29t-18 75q0 32 14 106q6 30 11 57t13 60t12 57q-48 -104 -180 -244t-222 -140q-100 0 -100 144q0 70 28 206l66 308q8 48 8 64q0 50 -20 50q-10 0 -25 -8t-29 -20t-30 -28t-27 -28t-21 -22l-8 -10q-4 0 -12 15t-8 23zM432 1024 q0 12 85 110t105 112q28 20 74 20q26 0 52 -15t26 -45q0 -26 -150 -114t-176 -88q-4 0 -10 8t-6 12z" />
<glyph unicode="&#xfb;" horiz-adv-x="982" d="M40 682q26 44 108 116t144 72q32 0 55 -30t23 -74q0 -32 -14 -106l-70 -330q-14 -62 -14 -108q0 -86 38 -86t113 71t149 193t96 238q6 36 21 105t23 115q26 8 62 8q46 0 78 -8l-124 -646q-8 -40 -8 -64q0 -50 20 -50q10 0 25 8t29 20t30 28t27 28t21 22l8 10q4 0 12 -15 t8 -23q-24 -42 -112 -115t-150 -73q-32 0 -50 29t-18 75q0 32 14 106q6 30 11 57t13 60t12 57q-48 -104 -180 -244t-222 -140q-100 0 -100 144q0 70 28 206l66 308q8 48 8 64q0 50 -20 50q-10 0 -25 -8t-29 -20t-30 -28t-27 -28t-21 -22l-8 -10q-4 0 -12 15t-8 23zM324 1010 q142 136 232 232q16 16 24 16q10 0 18 -16q64 -120 136 -232q-4 -22 -26 -22l-156 128q-132 -78 -210 -128q-8 0 -14 7t-4 15z" />
<glyph unicode="&#xfc;" horiz-adv-x="982" d="M40 682q26 44 108 116t144 72q32 0 55 -30t23 -74q0 -32 -14 -106l-70 -330q-14 -62 -14 -108q0 -86 38 -86t113 71t149 193t96 238q6 36 21 105t23 115q26 8 62 8q46 0 78 -8l-124 -646q-8 -40 -8 -64q0 -50 20 -50q10 0 25 8t29 20t30 28t27 28t21 22l8 10q4 0 12 -15 t8 -23q-24 -42 -112 -115t-150 -73q-32 0 -50 29t-18 75q0 32 14 106q6 30 11 57t13 60t12 57q-48 -104 -180 -244t-222 -140q-100 0 -100 144q0 70 28 206l66 308q8 48 8 64q0 50 -20 50q-10 0 -25 -8t-29 -20t-30 -28t-27 -28t-21 -22l-8 -10q-4 0 -12 15t-8 23zM300 1114 q8 38 40 65t66 27t55 -28t13 -66t-39 -64t-65 -26t-56 27t-14 65zM640 1114q8 38 41 65t67 27t54 -28t12 -66t-39 -64t-65 -26t-56 27t-14 65z" />
<glyph unicode="&#xfd;" horiz-adv-x="894" d="M-222 -384q0 64 46 88q22 -14 74 -26t86 -12q158 0 272 166q14 20 22 46t11 64t4 59t0 69t-1 54q0 98 -5 198t-18 204t-38 169t-59 65q-10 0 -25 -8t-29 -20t-30 -28t-27 -28t-21 -22l-8 -10q-4 0 -12 15t-8 23q26 44 108 116t144 72q60 0 100 -107t55 -274t19 -269 t4 -190q80 98 155 247t75 293q0 118 -50 214q26 86 100 86q88 0 88 -158q0 -220 -172 -505t-389 -479t-351 -194q-52 0 -86 24t-34 58zM458 1024q0 12 85 110t105 112q28 20 74 20q26 0 52 -15t26 -45q0 -26 -150 -114t-176 -88q-4 0 -10 8t-6 12z" />
<glyph unicode="&#xfe;" horiz-adv-x="898" d="M-109 -442q1 26 9 30q54 0 80 32q18 24 32 86l158 794l-96 -96q-12 16 -12 40q0 8 6 14l118 126l102 536q2 12 7 36t8 42t3 28q0 38 -122 38q-4 6 -1 21t9 21q110 10 264 66q12 -8 12 -38q0 -20 -26 -150q-4 -22 -50 -254t-46 -238q192 178 296 178q174 0 174 -242 q0 -152 -74 -301t-192 -243t-238 -94q-76 0 -92 26l-66 -306q-6 -26 -6 -56q0 -38 28 -46q26 -6 94 -6q6 -2 4 -28t-10 -28q-14 0 -37 1t-33 1q-146 0 -296 -18q-8 2 -7 28zM260 262q-16 -84 15 -143t79 -59q122 0 218 179t96 367q0 154 -106 154q-48 0 -121 -51t-115 -109z " />
<glyph unicode="&#xff;" horiz-adv-x="894" d="M-222 -384q0 64 46 88q22 -14 74 -26t86 -12q158 0 272 166q14 20 22 46t11 64t4 59t0 69t-1 54q0 98 -5 198t-18 204t-38 169t-59 65q-10 0 -25 -8t-29 -20t-30 -28t-27 -28t-21 -22l-8 -10q-4 0 -12 15t-8 23q26 44 108 116t144 72q60 0 100 -107t55 -274t19 -269 t4 -190q80 98 155 247t75 293q0 118 -50 214q26 86 100 86q88 0 88 -158q0 -220 -172 -505t-389 -479t-351 -194q-52 0 -86 24t-34 58zM262 1114q8 38 40 65t66 27t55 -28t13 -66t-39 -64t-65 -26t-56 27t-14 65zM602 1114q8 38 41 65t67 27t54 -28t12 -66t-39 -64t-65 -26 t-56 27t-14 65z" />
<glyph unicode="&#x152;" horiz-adv-x="1772" d="M114 548q0 324 207 554t505 230q72 0 191 -10t183 -8q84 0 283 7t303 7q-4 -24 -1 -139t3 -133q-10 -10 -36 -10q-22 0 -22 14q-8 112 -52 156t-124 44h-160q-122 0 -132 -22q-22 -42 -40 -144l-74 -384q0 -4 6 -6t18 -4t25 -2h29h98q124 0 155 18t69 108q6 12 8 18 q6 14 32 14q22 0 28 -10l-72 -378q-8 -8 -32 -8q-22 0 -26 16q-6 124 -26 140t-194 16q-134 0 -138 -18l-78 -396q-26 -126 -14 -138q20 -20 128 -20h88q154 0 248 62q88 60 156 202q6 12 30 12q36 0 44 -12q-12 -24 -56 -105t-70 -134t-40 -93q-76 0 -285 5t-347 3 q-58 -2 -154 -12t-128 -10q-260 0 -398 163t-138 407zM302 544q0 -246 89 -377t259 -131q68 0 117 19t66 36t25 33q24 48 36 108l166 882q16 84 -65 121t-187 37q-144 0 -263 -111t-181 -277t-62 -340z" />
<glyph unicode="&#x153;" horiz-adv-x="1228" d="M48 276q0 214 142 404t312 190q174 0 220 -174q158 174 328 174q70 0 101 -36t31 -88q0 -88 -94 -176t-204 -136t-176 -48q-4 -12 -4 -64q0 -216 138 -216q16 0 34 6t35 15t34 21t31 24t28 25t22 22t14 17l8 8q4 0 14 -16t10 -24q-32 -54 -127 -135t-177 -81 q-156 0 -202 156q-138 -154 -286 -154q-116 0 -174 76t-58 210zM204 316q0 -120 30 -191t84 -71q102 0 182 145t80 347q0 260 -106 260q-116 0 -193 -160t-77 -330zM712 436q84 4 203 89t119 183q0 38 -26 59t-58 21q-84 0 -153 -115t-85 -237z" />
<glyph unicode="&#x178;" horiz-adv-x="1112" d="M114 1279q0 11 5 26t11 19q226 -10 230 -10q50 0 240 10q2 -10 -3 -34t-11 -24q-34 0 -76 -15t-48 -49q-4 -16 10 -60l162 -480q272 380 350 522q10 14 12 30q2 8 -7 19t-40 21t-79 10q-4 4 0 28t8 30q170 -10 186 -10t206 10q0 -6 -6 -32t-10 -26q-120 0 -178 -80 l-410 -582q-8 -12 -20 -62l-62 -308q-24 -118 -20 -148q2 -14 48 -23t74 -9q4 -8 1 -29t-11 -29q-190 10 -216 10q-28 0 -222 -10q-6 8 -1 29t13 29q28 0 78 9t56 23q14 28 38 148l58 302q4 34 -2 56l-166 506q-30 92 -96 138q-44 32 -98 32q-4 2 -4 13zM504 1556 q8 42 40 71t72 29q38 0 60 -29t14 -71t-41 -71t-73 -29q-38 0 -59 29t-13 71zM840 1556q8 42 40 71t72 29q38 0 60 -29t14 -71t-40 -71t-72 -29q-38 0 -60 29t-14 71z" />
<glyph unicode="&#x2c6;" horiz-adv-x="492" d="M40 1002q142 136 232 232q16 16 24 16q10 0 18 -16q64 -120 136 -232q-4 -22 -26 -22l-156 128q-132 -78 -210 -128q-8 0 -14 7t-4 15z" />
<glyph unicode="&#x2dc;" horiz-adv-x="892" d="M1244 1000q6 42 40 72q70 64 158 64q60 0 112 -26q8 -4 35 -19t48 -21t47 -6q58 0 130 72q14 -4 12 -18q-6 -42 -42 -74q-70 -64 -156 -64q-50 0 -110 28q-4 2 -27 14t-34 16t-32 9t-41 5q-58 0 -130 -72q-12 4 -10 20z" />
<glyph unicode="&#x2000;" horiz-adv-x="838" />
<glyph unicode="&#x2001;" horiz-adv-x="1676" />
<glyph unicode="&#x2002;" horiz-adv-x="838" />
<glyph unicode="&#x2003;" horiz-adv-x="1676" />
<glyph unicode="&#x2004;" horiz-adv-x="558" />
<glyph unicode="&#x2005;" horiz-adv-x="419" />
<glyph unicode="&#x2006;" horiz-adv-x="279" />
<glyph unicode="&#x2007;" horiz-adv-x="279" />
<glyph unicode="&#x2008;" horiz-adv-x="209" />
<glyph unicode="&#x2009;" horiz-adv-x="335" />
<glyph unicode="&#x200a;" horiz-adv-x="93" />
<glyph unicode="&#x2010;" horiz-adv-x="742" d="M106 428q0 20 14 56t28 38l454 24q12 0 12 -24q0 -22 -16 -61t-30 -41l-452 -22q-10 0 -10 30z" />
<glyph unicode="&#x2011;" horiz-adv-x="742" d="M106 428q0 20 14 56t28 38l454 24q12 0 12 -24q0 -22 -16 -61t-30 -41l-452 -22q-10 0 -10 30z" />
<glyph unicode="&#x2012;" horiz-adv-x="742" d="M106 428q0 20 14 56t28 38l454 24q12 0 12 -24q0 -22 -16 -61t-30 -41l-452 -22q-10 0 -10 30z" />
<glyph unicode="&#x2013;" horiz-adv-x="1128" d="M106 426q0 22 14 55t30 43h832q12 0 12 -26q0 -22 -14 -55t-30 -43h-832q-12 0 -12 26z" />
<glyph unicode="&#x2014;" horiz-adv-x="1600" d="M106 426q0 22 14 55t30 43h1304q12 0 12 -26q0 -22 -14 -55t-30 -43h-1304q-12 0 -12 26z" />
<glyph unicode="&#x2018;" horiz-adv-x="366" d="M204 1110q16 84 80 159t117 109t67 34q22 0 28 -36q-56 -32 -97 -75t-53 -67t-16 -40q-4 -26 26 -71t24 -73q-8 -36 -50 -61t-88 -25q-18 0 -36 6q-20 46 -2 140z" />
<glyph unicode="&#x2019;" horiz-adv-x="386" d="M166 1004q56 32 97 75t54 68t17 39q4 26 -25 71t-23 73q8 36 49 61t87 25q18 0 36 -6q20 -42 0 -140q-16 -84 -80 -159t-116 -109t-66 -34q-24 0 -30 36z" />
<glyph unicode="&#x201a;" horiz-adv-x="392" d="M-90 -160q56 32 97 75t54 68t17 39q4 26 -26 71t-24 73q8 36 50 61t88 25q18 0 36 -6q20 -42 0 -140q-16 -84 -80 -159t-116 -108t-66 -33q-24 0 -30 34z" />
<glyph unicode="&#x201c;" horiz-adv-x="632" d="M204 1110q16 84 80 159t117 109t67 34q22 0 28 -36q-56 -32 -97 -75t-53 -67t-16 -40q-4 -26 26 -71t24 -73q-8 -36 -50 -61t-88 -25q-18 0 -36 6q-20 46 -2 140zM472 970q-20 42 0 140q16 84 80 159t116 109t66 34q24 0 30 -36q-56 -32 -97 -75t-54 -68t-17 -39 q-4 -26 26 -71t24 -73q-8 -36 -49 -61t-87 -25q-20 0 -38 6z" />
<glyph unicode="&#x201d;" horiz-adv-x="654" d="M166 1004q56 32 97 75t54 68t17 39q4 26 -25 71t-23 73q8 36 49 61t87 25q18 0 36 -6q20 -42 0 -140q-16 -84 -80 -159t-116 -109t-66 -34q-24 0 -30 36zM434 1004q56 32 97 75t53 67t16 40q4 26 -25 71t-23 73q8 36 49 61t87 25q18 0 36 -6q20 -46 2 -140 q-16 -84 -80 -159t-117 -109t-67 -34q-22 0 -28 36z" />
<glyph unicode="&#x201e;" horiz-adv-x="658" d="M-90 -160q56 32 97 75t54 68t17 39q4 26 -26 71t-24 73q8 36 50 61t88 25q18 0 36 -6q20 -42 0 -140q-16 -84 -80 -159t-116 -108t-66 -33q-24 0 -30 34zM176 -164q56 32 97 75t53 67t16 40q4 26 -25 71t-23 73q8 36 50 61t88 25q18 0 36 -6q20 -42 0 -140 q-16 -84 -80 -159t-116 -108t-66 -33q-24 0 -30 34z" />
<glyph unicode="&#x2022;" horiz-adv-x="668" d="M132 526q16 88 88 152t154 64t128 -64t30 -152t-88 -152t-154 -64t-128 64t-30 152z" />
<glyph unicode="&#x2026;" horiz-adv-x="1360" d="M18 64q0 56 39 98t89 42q38 0 63 -25t25 -65q0 -54 -41 -98t-91 -44q-38 0 -61 26t-23 66zM492 64q0 56 39 98t89 42q38 0 63 -25t25 -65q0 -54 -41 -98t-91 -44q-38 0 -61 26t-23 66zM962 64q0 56 40 98t90 42q38 0 63 -25t25 -65q0 -54 -42 -98t-92 -44q-38 0 -61 26 t-23 66z" />
<glyph unicode="&#x202f;" horiz-adv-x="335" />
<glyph unicode="&#x2039;" horiz-adv-x="608" d="M54 484q0 30 30 48q78 44 149 91t100 68t106 82t93 73q32 -8 36 -30q-4 -10 -88 -90t-166 -154l-82 -74q208 -300 208 -316q-12 -20 -42 -36q-46 60 -141 151t-183 159q-20 14 -20 28z" />
<glyph unicode="&#x203a;" horiz-adv-x="610" d="M26 176q4 10 88 90t166 154l82 74q-208 300 -208 316q12 20 42 36q46 -60 141 -151t183 -159q20 -14 20 -28q0 -30 -30 -48q-78 -44 -149 -91t-100 -68t-106 -82t-93 -73q-32 8 -36 30z" />
<glyph unicode="&#x205f;" horiz-adv-x="419" />
<glyph unicode="&#x20ac;" horiz-adv-x="1236" d="M56 500q0 40 26 62h676q6 0 6 -16q0 -38 -24 -62h-676q-8 0 -8 16zM86 696q0 40 26 62h676q6 0 6 -16q0 -38 -24 -62h-676q-8 0 -8 16zM160 504q0 230 112 410t278 268t344 84q104 -2 292 -50q0 -10 -7 -127t-9 -151q0 -14 -20 -14q-34 0 -42 14q6 110 -74 186t-190 76 q-206 0 -355 -183t-147 -481q0 -188 98 -336t274 -148q128 0 234 96q76 68 132 180l50 -14q-6 -30 -58 -138t-70 -124q-120 -68 -336 -68q-206 0 -356 154t-150 366z" />
<glyph unicode="&#x25fc;" horiz-adv-x="870" d="M0 0v870h870v-870h-870z" />
<glyph unicode="&#xfb01;" horiz-adv-x="1040" d="M-352 -380q-2 46 22 82t60 36q24 0 63 -61t85 -61q72 0 132 143t82 271l120 678v4q0 10 -6 10h-130q-4 0 -4 6q0 18 32 52t64 34h58q8 0 12 18q40 246 172 406t284 160q114 0 172 -54q46 -44 64 -84q0 -48 -24 -88t-66 -40q-20 0 -37 12t-26 24t-23 38q-44 80 -74 98 q-26 18 -58 18q-58 0 -125 -111t-109 -311l-7 -35t-7 -39v-4q0 -8 6 -8q192 0 282 10q126 12 188 12q8 0 18 -11t10 -23q0 -74 -16 -142l-102 -448q-8 -40 -8 -64q0 -50 20 -50q10 0 25 8t29 20t30 28t27 28t21 22l8 10q4 0 12 -15t8 -23q-24 -42 -112 -115t-150 -73 q-32 0 -50 29t-18 75q0 48 14 106l88 388q6 42 6 56q0 90 -52 90l-294 -10q-10 0 -12 -16l-110 -598q-48 -278 -170 -424t-262 -146q-70 0 -110 25t-52 57z" />
<glyph unicode="&#xfb02;" horiz-adv-x="1060" d="M-352 -380q-2 46 22 82t60 36q24 0 63 -61t85 -61q72 0 132 143t82 271l120 678v4q0 10 -6 10h-130q-4 0 -4 6q0 18 32 52t64 34h58q8 0 12 18q40 246 172 406t284 160q64 0 126 -21t64 -21q24 0 86 16t70 16q10 0 10 -32q-38 -64 -60 -174l-190 -970q-8 -32 -8 -64 q0 -50 20 -50q10 0 25 8t29 20t30 28t27 28t21 22l8 10q4 0 12 -15t8 -23q-24 -42 -112 -115t-150 -73q-32 0 -50 29t-18 75q0 32 14 106l180 920q8 32 8 60q0 62 -56 103t-130 41q-200 0 -284 -496v-4q0 -8 6 -8h230q10 0 10 -24q0 -32 -22 -68h-234q-10 0 -12 -16 l-110 -598q-48 -278 -170 -424t-262 -146q-70 0 -110 25t-52 57z" />
<glyph unicode="&#xfb03;" horiz-adv-x="1562" d="M-352 -382q0 44 20 82t60 38q22 0 39 -19t27 -42t31 -42t49 -19q62 0 128 127t86 237q0 4 18 112l106 616v4q0 10 -6 10h-130q-4 0 -4 6q0 18 32 52t64 34h58q8 0 12 18q46 234 199 384t305 150q74 0 135 -19t85 -41q36 34 116 63t138 29q114 0 172 -54q46 -44 64 -84 q0 -48 -24 -88t-66 -40q-20 0 -37 12t-26 24t-23 38q-44 80 -74 98q-26 18 -58 18q-48 0 -92 -48t-71 -110t-50 -143t-32 -123t-13 -72v-4q0 -8 6 -8l292 10q126 12 188 12q8 0 18 -11t10 -23q0 -74 -16 -142l-102 -448q-8 -40 -8 -64q0 -50 20 -50q10 0 25 8t29 20t30 28 t27 28t19 22l10 10q4 0 12 -15t8 -23q-24 -42 -112 -115t-150 -73q-32 0 -50 29t-18 75q0 48 14 106l88 388q6 42 6 56q0 90 -52 90l-304 -10q-10 0 -12 -16l-86 -494q-34 -174 -104 -309t-149 -207t-150 -108t-125 -36q-122 0 -192 98q-102 -116 -244 -116q-122 0 -166 84z M150 -216q0 -4 2 -10v-6q24 -122 120 -122q98 0 200 124t150 350l102 588v4q0 10 -6 10h-354q-10 0 -12 -16l-110 -620q-36 -182 -90 -292q-2 -2 -2 -10zM374 822q0 -8 8 -8h356q8 0 12 18q40 208 110 336q2 2 2 10q0 4 -2 10v6q-6 34 -53 65t-107 31q-112 0 -195 -107 t-117 -275q-8 -40 -14 -82v-4z" />
<glyph unicode="&#xfb04;" horiz-adv-x="1582" d="M-352 -382q0 44 20 82t60 38q22 0 39 -19t27 -42t31 -42t49 -19q62 0 128 127t86 237q0 4 18 112l106 616v4q0 10 -6 10h-130q-4 0 -4 6q0 18 32 52t64 34h58q8 0 12 18q46 234 199 384t305 150q74 0 135 -19t85 -41q36 34 116 63t138 29q64 0 126 -21t64 -21q26 0 88 16 t68 16q10 0 10 -32q-38 -64 -60 -174l-190 -970q-8 -32 -8 -64q0 -50 20 -50q10 0 25 8t29 20t30 28t27 28t19 22l10 10q4 0 12 -15t8 -23q-24 -42 -112 -115t-150 -73q-32 0 -50 29t-18 75q0 32 14 106l180 920q8 32 8 60q0 62 -56 103t-130 41q-200 0 -284 -496v-4 q0 -8 6 -8h230q10 0 10 -24q0 -32 -22 -68h-234q-8 0 -12 -16l-96 -494q-34 -174 -103 -309t-149 -207t-151 -108t-125 -36q-122 0 -192 98q-102 -116 -244 -116q-122 0 -166 84zM150 -216q0 -4 2 -10v-6q24 -122 120 -122q98 0 200 124t150 350l102 588v4q0 10 -6 10h-354 q-10 0 -12 -16l-110 -620q-36 -182 -90 -292q-2 -2 -2 -10zM374 822q0 -8 8 -8h356q8 0 12 18q40 208 110 336q2 2 2 10q0 4 -2 10v6q-6 34 -53 65t-107 31q-112 0 -195 -107t-117 -275q-8 -40 -14 -82v-4z" />
</font>
</defs>
</svg>
