<?xml version="1.0" standalone="no"?>
<!DOCTYPE svg PUBLIC "-//W3C//DTD SVG 1.1//EN" "http://www.w3.org/Graphics/SVG/1.1/DTD/svg11.dtd" >
<svg xmlns="http://www.w3.org/2000/svg" xmlns:xlink="http://www.w3.org/1999/xlink" version="1.1">
<metadata></metadata>
<defs>
<font id="crimsonsemibold" horiz-adv-x="974" >
<font-face units-per-em="2048" ascent="1434" descent="-614" />
<missing-glyph horiz-adv-x="432" />
<glyph horiz-adv-x="0" />
<glyph unicode="&#xd;" horiz-adv-x="682" />
<glyph unicode=" "  horiz-adv-x="432" />
<glyph unicode="&#x09;" horiz-adv-x="432" />
<glyph unicode="&#xa0;" horiz-adv-x="432" />
<glyph unicode="!" horiz-adv-x="510" d="M124 112q0 52 38 89t92 37t92 -39t38 -91q0 -54 -37 -92t-91 -38t-93 40t-39 94zM146 1160q0 52 33 88t83 36q46 0 76 -37t30 -89q0 -10 -76 -766q-14 -34 -36 -38q-24 4 -36 28q-74 702 -74 778z" />
<glyph unicode="&#x22;" horiz-adv-x="614" d="M76 1246q0 52 33 103t81 51q36 0 58 -30q0 -120 -32 -424q-20 -30 -44 -42q-12 0 -20 14q-76 258 -76 328zM356 1246q0 52 33 103t81 51q36 0 58 -30q0 -120 -32 -424q-20 -30 -44 -42q-12 0 -20 14q-76 258 -76 328z" />
<glyph unicode="#" horiz-adv-x="958" d="M101 354q1 24 12 54t23 34h124l42 266h-136q-10 4 -10 28t11 54t23 34h132l34 212q8 26 50 26q18 0 26 -6l-38 -232h250l34 212q8 26 50 26q16 0 26 -6l-36 -232h124q14 0 14 -26t-10 -55t-22 -35h-126l-42 -266h132q12 -4 13 -27t-10 -53t-23 -36h-130l-34 -214 q-2 -8 -19 -16t-37 -8q-8 0 -14 2t-6 4l-2 2l38 230h-250l-34 -214q-2 -8 -18 -16t-36 -8q-8 0 -14 2t-8 4v2l38 230h-132q-10 4 -9 28zM334 442h248l42 266h-248z" />
<glyph unicode="$" horiz-adv-x="1016" d="M106 344q4 8 23 16t29 8q24 0 26 -16q14 -66 61 -146t127 -120l78 466l-12 8q-162 100 -214 156q-94 96 -94 222q0 146 120 244t272 98q24 0 48 -2l12 74q74 0 74 -16l-12 -68q32 -6 94 -21t92 -21q12 -72 22 -296q-4 -10 -22 -10q-48 0 -52 14q-8 62 -48 132t-100 106 l-72 -428q8 -4 52 -32q12 -8 56 -34t62 -38t55 -40t54 -51t39 -57t31 -74t9 -86q0 -154 -124 -253t-286 -99q-34 0 -74 4l-12 -76q-74 0 -74 18l10 66q-80 12 -204 40q-38 176 -46 312zM334 1018q0 -114 156 -226l66 408q-16 4 -34 4q-88 0 -138 -51t-50 -135zM446 60 q24 -4 52 -4q84 0 146 52t62 156q0 82 -49 137t-137 109z" />
<glyph unicode="%" horiz-adv-x="1354" d="M80 972q0 130 88 222t218 92q134 0 219 -89t85 -221q0 -126 -86 -220t-218 -94q-130 0 -218 90t-88 220zM116 -8l998 1264q24 24 60 24t48 -20l-1000 -1264q-6 -10 -29 -19t-43 -9q-12 0 -21 6t-11 11t-2 7zM240 996q0 -104 45 -191t115 -87q130 0 130 234q0 106 -42 193 t-114 87q-134 0 -134 -236zM666 302q0 130 88 223t218 93q132 0 217 -89t85 -221q0 -128 -85 -222t-217 -94q-130 0 -218 90t-88 220zM826 328q0 -104 45 -192t115 -88q128 0 128 236q0 106 -41 193t-113 87q-134 0 -134 -236z" />
<glyph unicode="&#x26;" horiz-adv-x="1378" d="M108 314q0 76 26 138t78 110t94 77t108 65q-6 8 -25 39t-27 46t-23 45t-22 53t-13 56t-6 65q0 126 86 209t218 83q144 0 234 -62t90 -166q0 -120 -81 -202t-211 -146q124 -190 288 -388q116 162 116 196q0 20 -19 28t-45 8h-28q-6 8 -6 30t6 26h148q54 0 238 8 q6 -4 5 -31t-7 -31q-24 0 -73 -9t-67 -23q-8 -6 -42 -51t-83 -111t-87 -108q6 -6 23 -25t26 -29t25 -26t27 -25t25 -19t25 -15t21 -5q32 0 65 34t51 66q14 0 29 -12t19 -24q-8 -20 -37 -60t-91 -86t-124 -46q-106 0 -224 136q-154 -140 -356 -140q-156 0 -265 88t-109 234z M324 392q0 -122 76 -201t198 -79q110 0 188 78q-40 46 -111 142t-136 190t-73 106q-68 -50 -105 -103t-37 -133zM486 1068q0 -102 104 -276q84 48 124 105t40 147q0 66 -34 125t-96 59q-60 0 -99 -45t-39 -115z" />
<glyph unicode="'" horiz-adv-x="346" d="M74 1256q0 58 36 106t88 48q42 0 64 -34q-10 -246 -36 -414q-18 -26 -48 -38q-14 0 -20 12q-84 248 -84 320z" />
<glyph unicode="(" horiz-adv-x="554" d="M70 590q0 314 132 537t308 339q8 -6 19 -24t9 -22q-110 -96 -197 -327t-87 -503t87 -503t197 -327q2 -4 -9 -23t-19 -25q-176 116 -308 340t-132 538z" />
<glyph unicode=")" horiz-adv-x="554" d="M16 -240q110 96 197 327t87 503t-87 503t-197 327q-2 4 9 22t19 24q176 -116 308 -339t132 -537t-132 -538t-308 -340q-8 6 -19 25t-9 23z" />
<glyph unicode="*" horiz-adv-x="886" d="M72 916q-6 34 15 61t63 35q50 8 120 -8t106 -12q20 4 24 14q4 8 -6 26q-18 32 -68 76t-76 88q-20 36 -14 72t34 52q30 16 63 4t53 -48q24 -46 29 -117t21 -103q10 -20 20 -22q12 0 22 10q24 26 51 88t61 100q28 32 66 37t60 -17q24 -24 23 -60t-31 -66q-36 -36 -102 -62 t-92 -52q-12 -18 -12 -28t18 -18q32 -16 100 -23t114 -27q38 -16 55 -49t3 -63q-16 -30 -49 -40t-73 8q-46 22 -92 77t-78 71l-28 6q-6 -4 -10 -22q-4 -36 10 -101t8 -115q-4 -40 -31 -66t-57 -22q-34 6 -54 35t-14 69q8 52 45 113t43 95q4 20 -4 28q-4 6 -22 4 q-34 -8 -93 -42t-109 -44q-40 -8 -73 9t-39 49z" />
<glyph unicode="+" horiz-adv-x="1084" d="M62 460q0 12 7 45t19 45h394q2 378 2 398q38 22 86 22q28 0 28 -14v-406h408q16 0 16 -26q0 -56 -28 -88h-396v-400q-36 -24 -90 -24q-24 0 -24 18v406h-410q-12 0 -12 24z" />
<glyph unicode="," horiz-adv-x="426" d="M36 -252q134 94 134 218q0 28 -40 74t-40 102q0 36 35 78t101 42q34 0 68 -22q32 -56 32 -136q0 -110 -80 -230t-174 -170q-12 2 -24 18t-12 26z" />
<glyph unicode="-" horiz-adv-x="752" d="M114 420q0 48 28 108q416 22 482 24q14 0 14 -18q0 -54 -28 -114q-40 -2 -482 -22q-14 0 -14 22z" />
<glyph unicode="." horiz-adv-x="442" d="M90 112q0 52 39 89t93 37t91 -38t37 -92t-37 -92t-91 -38t-93 40t-39 94z" />
<glyph unicode="/" horiz-adv-x="834" d="M58 -56l596 1540q4 12 28 25t60 13q28 0 32 -18l-590 -1530q-4 -14 -28 -29t-62 -15q-14 0 -23 3t-11 7z" />
<glyph unicode="0" d="M48 630q0 266 126 452t316 186q194 0 315 -178t121 -460q0 -266 -123 -451t-313 -185q-192 0 -317 178t-125 458zM266 622q0 -234 63 -391t157 -157q110 0 166 163t56 415q0 238 -58 387t-154 149q-108 0 -169 -161t-61 -405z" />
<glyph unicode="1" d="M206 1086q0 16 4 18q80 36 184 83t160 72t60 25h4q14 0 22 -34q-18 -64 -18 -190v-800q0 -126 14 -168q4 -16 51 -25t77 -9q6 -10 6 -34t-6 -32q-160 12 -248 12q-84 0 -244 -12q-6 8 -6 32t6 34q30 0 76 9t52 25q14 42 14 168v742q0 52 -10 71t-32 19q-18 0 -67 -14 t-75 -28q-24 16 -24 36z" />
<glyph unicode="2" d="M64 32q122 134 168 186t132 159t144 199q108 162 108 328q0 100 -64 168t-156 68q-144 0 -256 -156q-10 0 -25 13t-15 27q12 28 42 68t78 85t119 76t145 31q146 0 247 -97t101 -239q0 -160 -136 -324q-228 -276 -404 -448h372q68 0 106 42t70 122q6 14 28 14q28 0 40 -12 q-18 -56 -65 -194t-51 -148h-712q-16 16 -16 32z" />
<glyph unicode="3" d="M92 130q0 40 25 71t67 31q18 0 38 -11t29 -20t28 -33t25 -28q26 -30 67 -50t81 -20q92 0 152 76t60 222q0 118 -71 201t-169 83q-36 0 -112 -20q-16 20 -16 44q0 14 4 20q54 12 104 31t97 49t75 76t28 102q0 86 -54 144t-138 58q-108 0 -224 -116q-10 2 -17 18t-7 30 q58 82 148 139t200 57q40 0 86 -15t92 -44t76 -81t30 -116q0 -52 -23 -100t-59 -83t-65 -56t-57 -37q30 0 77 -21t96 -58t84 -100t35 -135q0 -132 -80 -238t-198 -159t-246 -53q-140 0 -236 60q-10 10 -21 37t-11 45z" />
<glyph unicode="4" d="M40 392q64 80 344 439t326 417q30 40 48 40q12 0 27 -16t15 -30v-770h106q10 0 19 -26t9 -62q0 -12 -12 -36h-122v-344q-30 -16 -110 -16q-94 0 -94 22v338h-536q-20 10 -20 44zM194 472h402v518z" />
<glyph unicode="5" d="M94 130q0 40 26 71t66 31q20 0 39 -11t29 -20t29 -33t23 -28q62 -70 146 -70q94 0 154 76t60 222q0 118 -87 209t-213 91q-110 0 -176 -30q-16 0 -16 34q36 172 112 600h328q118 0 182 18q26 -14 26 -26q0 -18 -25 -79t-43 -87q-106 -10 -264 -14h-152q-54 -270 -60 -298 q110 34 212 34q152 0 271 -114t119 -258q0 -200 -159 -330t-359 -130q-138 0 -236 60q-10 10 -21 37t-11 45z" />
<glyph unicode="6" d="M80 462q0 304 212 534q108 116 252 192t272 104q24 -8 18 -56q-408 -156 -504 -506q96 70 198 70q172 0 269 -111t97 -279q0 -170 -124 -296t-290 -126q-168 0 -284 144t-116 330zM296 460q0 -94 20 -181t68 -151t116 -64q78 0 128 84t50 218q0 140 -55 233t-167 93 q-88 0 -146 -60q-14 -98 -14 -172z" />
<glyph unicode="7" d="M64 936q46 164 84 332l592 2q26 0 63 1t65 3t32 2q12 0 12 -24q0 -10 -7 -26t-24 -50t-25 -52l-536 -1134q-10 -6 -28 -6q-24 0 -56 12t-32 30q92 140 271 488t293 582h-488q-62 0 -93 -39t-55 -121q-4 -12 -24 -12q-32 0 -44 12z" />
<glyph unicode="8" d="M88 308q0 60 25 114t67 93t82 64t82 45q8 8 0 12q-40 30 -67 54t-66 67t-61 96t-22 113q0 126 111 218t249 92q144 0 246 -79t102 -213q0 -96 -63 -168t-157 -118q-6 -2 0 -10q60 -34 115 -80t104 -123t49 -151q0 -152 -122 -251t-286 -99q-166 0 -277 84t-111 240z M300 312q0 -106 53 -178t135 -72q86 0 135 54t49 140q0 46 -23 93t-46 77t-69 68t-56 45t-46 31q-12 6 -16 6h-8q-108 -90 -108 -264zM332 1010q0 -152 192 -260q8 -6 16 -6t12 4q88 80 88 224q0 86 -43 157t-117 71q-62 0 -105 -56t-43 -134z" />
<glyph unicode="9" d="M80 870q0 170 125 296t291 126q168 0 283 -144t115 -330q0 -306 -210 -534q-108 -116 -252 -192t-272 -104q-26 10 -20 56q410 156 506 506q-96 -70 -198 -70q-172 0 -270 111t-98 279zM296 914q0 -140 56 -233t168 -93q88 0 146 60q12 76 12 172q0 94 -19 180t-67 151 t-116 65q-78 0 -129 -84t-51 -218z" />
<glyph unicode=":" horiz-adv-x="460" d="M100 96q0 52 39 89t93 37t91 -38t37 -92t-37 -92t-91 -38t-93 40t-39 94zM100 756q0 52 39 89t93 37t91 -38t37 -92t-37 -92t-91 -38t-93 40t-39 94z" />
<glyph unicode=";" horiz-adv-x="488" d="M78 -252q134 94 134 218q0 28 -41 74t-41 102q0 36 35 78t101 42q38 0 72 -22q30 -52 30 -136q0 -110 -80 -230t-174 -170q-12 2 -24 18t-12 26zM110 736q0 52 39 89t93 37q52 0 88 -37t36 -89q0 -54 -36 -94t-88 -40q-54 0 -93 40t-39 94z" />
<glyph unicode="&#x3c;" horiz-adv-x="988" d="M60 434q0 30 36 48l740 374q8 4 12 4q12 0 32 -104l-4 -18l-644 -320l648 -326q8 -2 8 -12q0 -14 -12 -62t-20 -48q-4 0 -12 4l-748 380q-36 20 -36 80z" />
<glyph unicode="=" horiz-adv-x="1122" d="M136 281q2 23 14 53t26 34h806q12 -4 12 -27t-12 -52t-26 -35h-812q-10 4 -8 27zM136 569q2 23 14 53t26 34h806q12 -4 12 -27t-12 -52t-26 -35h-812q-10 4 -8 27z" />
<glyph unicode="&#x3e;" horiz-adv-x="988" d="M100 80l6 12l650 326l-644 320q-4 6 -4 18q14 104 32 104q2 0 10 -4l742 -374q36 -18 36 -48q0 -60 -36 -80l-748 -380q-8 -4 -12 -4q-8 0 -20 47t-12 63z" />
<glyph unicode="?" horiz-adv-x="754" d="M108 1182q0 58 24 82q48 24 140 24q46 0 111 -21t132 -62t114 -114t47 -163q0 -106 -57 -173t-171 -135q-130 -78 -160 -122q-12 -20 -12 -112q-12 -30 -32 -30q-22 4 -36 22q-28 84 -28 190q0 46 14 84t44 69t49 46t59 41q94 60 144 108t50 104q0 54 -36 91t-92 37 q-46 0 -105 -41t-91 -41q-40 0 -74 34t-34 82zM128 112q0 54 38 90t90 36q54 0 91 -36t37 -90t-36 -94t-88 -40t-92 39t-40 95z" />
<glyph unicode="@" horiz-adv-x="1512" d="M94 336q0 200 93 386t273 310t402 124q142 0 255 -49t183 -133t106 -189t36 -225q0 -230 -127 -402t-301 -172q-80 0 -130 43t-50 129q0 42 12 74q-40 -78 -122 -160t-162 -82q-88 0 -140 67t-52 193q0 142 89 290t228 243t275 95q114 0 184 -26l-118 -620q-6 -24 -6 -48 q0 -94 72 -94q90 0 177 141t87 319q0 104 -29 196t-87 167t-156 119t-224 44q-196 0 -355 -112t-242 -280t-83 -344q0 -166 76 -297t192 -199q70 -42 152 -54q0 -12 -27 -25t-49 -13q-42 0 -84 16q-146 54 -247 209t-101 359zM566 300q0 -154 92 -154q68 0 143 123t105 279 l40 204q-24 26 -68 26q-118 0 -215 -151t-97 -327z" />
<glyph unicode="A" horiz-adv-x="1306" d="M-24 21q0 23 4 37q22 0 68 16t60 34q40 60 82 164q346 830 406 986q10 22 35 44t39 22q20 0 28 -8l408 -1042q16 -40 33 -85t21 -53q18 -40 67 -58t79 -18q6 -10 7 -37t-3 -31q-18 0 -105 7t-139 7q-54 0 -155 -7t-111 -7q-8 8 -8 36t8 32q80 0 116 30q12 12 12 30 t-32 105t-64 165l-30 78q-6 8 -12 8h-198q-128 0 -208 -4q-12 0 -12 -8q-54 -128 -82 -204q-36 -98 -36 -140q0 -32 55 -46t89 -14q6 -6 6 -33t-4 -35q-178 14 -204 14q-28 0 -214 -14q-6 6 -6 29zM414 580q0 -8 4 -8q70 -6 170 -6q72 0 164 6l6 10l-168 430z" />
<glyph unicode="B" horiz-adv-x="1218" d="M80 28q0 24 6 32q32 0 79 8t53 24q14 42 14 168v796q0 126 -14 168q-6 16 -53 24t-79 8q-6 8 -6 32t6 34q172 -8 260 -8q36 0 135 3t161 3q100 0 187 -27t152 -100t65 -181q0 -102 -71 -176t-139 -100q-16 -6 -6 -12q94 -8 201 -101t107 -231q0 -92 -51 -178t-133 -138 q-126 -82 -406 -82h-462q-6 10 -6 34zM460 228q0 -108 16 -128q26 -30 142 -30q108 0 186 65t78 217q0 134 -70 224t-240 90h-112v-438zM460 742h152q90 0 142 65t52 167q0 134 -63 202t-175 68q-92 0 -100 -22q-8 -20 -8 -136v-344z" />
<glyph unicode="C" horiz-adv-x="1352" d="M90 644q0 286 197 488t487 202q232 0 420 -40q0 -2 15 -74t29 -143t14 -81q0 -12 -16 -22t-32 -10q-20 0 -28 10q-8 40 -25 76t-57 88t-119 84t-187 32q-204 0 -321 -166t-117 -392q0 -164 49 -302t160 -232t265 -94q158 0 256 88q54 48 88 121t44 119q48 0 68 -20 q0 -32 -30 -158t-48 -138q-202 -92 -434 -92q-288 0 -483 190t-195 466z" />
<glyph unicode="D" horiz-adv-x="1472" d="M80 28q0 24 6 32q32 0 79 8t53 24q14 42 14 168v796q0 126 -14 168q-6 16 -53 24t-79 8q-6 8 -6 32t6 34q172 -8 260 -8q38 0 140 2t158 2q336 0 536 -177t200 -471q0 -310 -195 -493t-561 -183h-538q-6 10 -6 34zM460 260q0 -122 14 -152q22 -38 144 -38q236 0 370 142 t134 426q0 300 -150 453t-384 153q-108 0 -118 -24q-10 -28 -10 -134v-826z" />
<glyph unicode="E" horiz-adv-x="1192" d="M80 28q0 24 6 32q32 0 79 8t53 24q14 42 14 168v796q0 126 -14 168q-6 16 -54 25t-78 9q-6 10 -6 34t6 32q160 -12 260 -12q64 0 312 8t336 8q8 -60 32 -167t26 -117q-10 -10 -42 -10q-24 0 -30 14q-32 102 -85 147t-139 45h-168q-112 0 -120 -22t-8 -132v-362 q0 -18 84 -18h106q114 0 144 23t54 119q4 16 28 16t36 -12v-380q-8 -8 -34 -8q-24 0 -30 16q-30 108 -64 128q-28 14 -182 14q-142 0 -142 -22v-340q0 -132 12 -152q24 -28 136 -28h124q140 0 210 56q72 58 116 196q2 12 28 12q44 0 56 -12q-6 -18 -29 -82t-35 -97t-26 -81 t-18 -78q-52 0 -294 2t-392 2q-68 0 -156 -2t-106 -2q-6 10 -6 34z" />
<glyph unicode="F" horiz-adv-x="1086" d="M80 24q0 24 6 34q30 0 78 9t54 25q14 42 14 168v796q0 126 -14 168q-6 16 -53 24t-79 8q-6 8 -6 32t6 34q214 -10 260 -10q64 0 312 8t336 8q8 -60 32 -167t26 -117q-10 -10 -42 -10q-24 0 -30 14q-32 102 -85 147t-139 45h-168q-112 0 -120 -22t-8 -132v-366 q0 -18 84 -18h106q114 0 144 23t54 119q4 16 28 16t36 -12v-380q-8 -8 -34 -8q-24 0 -30 16q-30 108 -64 128q-28 14 -182 14q-142 0 -142 -22v-336q0 -132 12 -168q6 -16 63 -25t89 -9q6 -10 6 -34t-6 -32q-160 12 -280 12q-24 0 -258 -12q-6 8 -6 32z" />
<glyph unicode="G" horiz-adv-x="1444" d="M88 644q0 284 198 487t486 203q232 0 420 -40q0 -2 15 -74t28 -143t13 -81q0 -12 -15 -22t-31 -10q-20 0 -28 10q-10 40 -26 76t-56 88t-118 84t-186 32q-142 0 -244 -84t-149 -209t-47 -271q0 -162 50 -300t160 -230t260 -92q112 0 200 44q16 6 16 28v218q0 94 -10 126 q-12 42 -140 42q-6 4 -8 31t6 35l276 -12q36 0 75 2t86 5t75 5q6 -14 6 -39t-6 -27q-22 0 -66 -9t-54 -21q-16 -26 -16 -116v-178q0 -16 8 -40t8 -30q0 -18 -56 -44q-220 -100 -452 -100q-290 0 -484 190t-194 466z" />
<glyph unicode="H" horiz-adv-x="1472" d="M80 26q0 26 6 34q28 0 77 10t55 26q14 42 14 168v788q0 126 -14 168q-6 16 -55 26t-77 10q-6 8 -6 34t6 34q160 -12 260 -12q98 0 258 12q6 -8 6 -34t-6 -34q-28 0 -77 -10t-55 -26q-12 -36 -12 -168v-316l2 -6q264 -6 278 -6q30 0 270 6q4 4 4 8v314q0 126 -14 168 q-6 16 -55 26t-77 10q-6 8 -6 34t6 34q160 -12 260 -12q98 0 258 12q6 -8 6 -34t-6 -34q-28 0 -77 -10t-55 -26q-12 -36 -12 -168v-788q0 -132 12 -168q6 -16 55 -26t77 -10q6 -8 6 -34t-6 -34q-160 12 -260 12q-98 0 -258 -12q-6 8 -6 34t6 34q28 0 77 10t55 26 q14 42 14 168v364l-4 8q-252 6 -270 6q-260 0 -280 -10v-6v-362q0 -132 12 -168q6 -16 55 -26t77 -10q6 -8 6 -34t-6 -34q-160 12 -260 12q-98 0 -258 -12q-6 8 -6 34z" />
<glyph unicode="I" horiz-adv-x="690" d="M80 24q0 24 6 34q30 0 78 9t54 25q14 42 14 168v796q0 126 -14 168q-6 16 -54 25t-78 9q-6 10 -6 34t6 32q160 -12 260 -12q98 0 258 12q6 -8 6 -32t-6 -34q-30 0 -78 -9t-54 -25q-12 -36 -12 -168v-796q0 -132 12 -168q6 -16 54 -25t78 -9q6 -10 6 -34t-6 -32 q-160 12 -260 12q-98 0 -258 -12q-6 8 -6 32z" />
<glyph unicode="J" horiz-adv-x="662" d="M-230 -344q0 50 33 87t79 37q42 0 104 -62q54 -54 88 -54q144 0 144 588v804q0 132 -12 168q-6 16 -55 25t-79 9q-6 10 -6 34t6 32q160 -12 262 -12q96 0 256 12q6 -8 6 -32t-6 -34q-30 0 -78 -9t-54 -25q-12 -36 -12 -168v-796q0 -326 -143 -515t-389 -189 q-74 0 -120 36q-24 32 -24 64z" />
<glyph unicode="K" horiz-adv-x="1380" d="M80 26q0 26 6 34q28 0 77 10t55 26q14 42 14 168v788q0 126 -14 168q-6 16 -55 26t-77 10q-6 8 -6 34t6 34q160 -12 260 -12q98 0 258 12q6 -8 6 -34t-6 -34q-28 0 -77 -10t-55 -26q-12 -36 -12 -168v-372q104 78 216 190l60 60l49 49t36 37t37 40t33 39t41 53 q24 30 24 64q0 44 -112 44q-6 10 -6 32t4 36q222 -12 246 -12q80 0 232 12q4 -8 3 -35t-7 -31q-148 -16 -212 -82q-38 -42 -104 -108t-159 -158t-155 -154q-14 -14 0 -32q372 -466 432 -522q114 -132 274 -142q6 -12 4 -37t-4 -31q-46 -1 -87 -1q-121 0 -187 9 q-126 6 -220 118q-20 24 -85 103t-159 193t-158 192q-4 6 -18 6q-10 0 -18 -8v-340q0 -132 12 -168q6 -16 55 -26t77 -10q6 -8 6 -34t-6 -34q-160 12 -260 12q-98 0 -258 -12q-6 8 -6 34z" />
<glyph unicode="L" horiz-adv-x="1144" d="M80 28q0 24 6 32q32 0 79 8t53 24q14 42 14 168v796q0 126 -14 168q-6 16 -54 25t-78 9q-6 10 -6 34t6 32q160 -12 260 -12q98 0 258 12q6 -8 6 -32t-6 -34q-30 0 -78 -9t-54 -25q-12 -36 -12 -168v-796q0 -132 12 -152q24 -28 136 -28h124q140 0 210 56q72 58 116 196 q2 12 28 12q44 0 56 -12q-6 -18 -29 -82t-35 -97t-26 -81t-18 -78q-52 0 -294 2t-392 2q-68 0 -156 -2t-106 -2q-6 10 -6 34z" />
<glyph unicode="M" horiz-adv-x="1816" d="M43 20q-1 22 5 36q32 0 93 15t73 41q18 36 24 138q6 132 30 902q0 50 -8 64q-8 16 -58 29t-78 13q-6 6 -5 34t5 32q34 -2 97 -7t115 -5l186 12q20 -56 87 -210t161 -373t152 -357q0 -4 8 -4q2 0 6 4t4 6q122 308 270 698l78 232q80 -8 186 -8q38 0 230 12q4 -6 6 -34 t0 -34q-22 0 -67 -9t-55 -19q-18 -20 -18 -80q2 -42 6 -213t9 -350t9 -293q8 -158 24 -198q8 -18 56 -26t78 -8q6 -12 7 -36t-3 -32q-12 0 -108 7t-148 7q-54 0 -153 -7t-123 -7q-4 4 -6 30t4 38q106 0 134 28q18 18 18 78q0 10 -2 56t-2 62q-20 736 -22 778q0 46 -16 46 q-4 0 -10 -14q-44 -108 -198 -512t-190 -494q-10 -22 -36 -56t-44 -36q-6 0 -18 4l-468 1108q-22 -814 -26 -900q0 -68 8 -100q8 -22 71 -35t95 -13q6 -8 7 -34t-3 -34q-22 2 -100 8t-130 6t-131 -6t-111 -8q-4 6 -5 28z" />
<glyph unicode="N" horiz-adv-x="1538" d="M66 25q0 23 6 33q30 0 89 13t69 33q22 42 22 170v788q0 114 -28 158q-10 16 -64 28t-80 12q-8 8 -8 33t6 33q190 -10 218 -10q92 0 184 8q38 -70 162 -225t293 -361t259 -324q2 8 2 98v508q0 154 -22 198q-10 18 -67 30t-89 12q-6 6 -7 30t5 36q28 -2 106 -8t130 -6 t130 6t106 8q7 -19 7 -34q0 -18 -9 -32q-32 0 -92 -12t-70 -32q-20 -40 -20 -192v-746q0 -72 8 -280q-8 -8 -44 -8q-32 0 -64 46l-842 1052v-816q0 -128 20 -166q8 -18 69 -32t89 -14q10 -14 10 -33q0 -15 -6 -35q-18 0 -103 7t-137 7t-125 -6t-107 -8q-6 10 -6 33z" />
<glyph unicode="O" horiz-adv-x="1504" d="M88 656q0 278 199 478t465 200q268 0 467 -197t199 -481q0 -278 -200 -477t-466 -199q-268 0 -466 196t-198 480zM348 712q0 -162 45 -306t149 -245t248 -101q126 0 213 84t121 201t34 255q0 162 -46 307t-150 246t-248 101q-96 0 -169 -48t-115 -128t-62 -172t-20 -194z " />
<glyph unicode="P" horiz-adv-x="1134" d="M80 24q0 24 6 34q30 0 78 9t54 25q14 42 14 168v796q0 126 -14 168q-6 16 -53 24t-79 8q-6 8 -6 32t6 34q172 -8 264 -8q36 0 134 3t162 3q174 0 306 -95t132 -257q0 -184 -119 -296t-297 -112q-72 0 -114 32q-24 24 -24 48q0 16 8 16q26 -8 78 -8q98 0 163 77t65 205 q0 138 -73 226t-203 88q-92 0 -100 -22q-8 -20 -8 -136v-826q0 -132 12 -168q6 -16 54 -25t78 -9q6 -10 6 -34t-6 -32q-160 12 -260 12q-98 0 -258 -12q-6 8 -6 32z" />
<glyph unicode="Q" horiz-adv-x="1506" d="M88 656q0 278 199 478t465 200q268 0 467 -197t199 -481q0 -222 -134 -400t-338 -244q52 -26 118 -64t101 -56t94 -33t131 -15q28 0 140 16q28 0 42 -20q2 -4 2 -8q-212 -112 -370 -112q-92 0 -192 55t-212 127t-206 98q-218 56 -362 237t-144 419zM348 712 q0 -162 45 -306t149 -245t248 -101q126 0 213 84t121 201t34 255q0 162 -46 307t-150 246t-248 101q-96 0 -169 -48t-115 -128t-62 -172t-20 -194z" />
<glyph unicode="R" horiz-adv-x="1318" d="M80 24q0 24 6 34q30 0 78 9t54 25q14 42 14 168v796q0 126 -14 168q-6 16 -53 24t-79 8q-6 8 -6 32t6 34q172 -8 264 -8q36 0 134 3t162 3q172 0 295 -94t123 -262q0 -108 -88 -201t-186 -123q94 -138 308 -424q116 -148 280 -158q6 -12 4 -36t-6 -30q-44 -1 -82 -1 q-114 0 -180 9q-132 6 -218 120q-16 22 -148 206t-174 248q-20 26 -48 26h-66v-340q0 -132 12 -168q6 -16 54 -25t78 -9q6 -10 6 -34t-6 -32q-160 12 -260 12q-98 0 -258 -12q-6 8 -6 32zM460 670h98q110 0 188 74t78 186q0 140 -61 227t-195 87q-92 0 -100 -22 q-8 -20 -8 -136v-416z" />
<glyph unicode="S" horiz-adv-x="1024" d="M96 360q4 8 25 17t31 9q20 0 24 -18q8 -40 28 -88t57 -100t101 -86t142 -34q90 0 153 56t63 160q0 32 -8 61t-28 56t-34 44t-51 43t-50 35t-57 36t-52 31q-82 52 -118 77t-94 78t-83 112t-25 131q0 152 124 254t284 102q42 0 85 -5t70 -12t80 -19t85 -20q14 -114 22 -308 q-2 -14 -22 -14q-52 0 -56 18q-12 96 -86 188t-180 92q-94 0 -144 -52t-50 -142q0 -24 5 -45t17 -43t22 -38t33 -37t35 -32t43 -32t41 -29t45 -31t43 -27q10 -6 50 -32t57 -37t52 -37t52 -45t43 -49t38 -58t21 -65t9 -77q0 -160 -129 -264t-297 -104q-120 0 -372 56 q-36 172 -44 324z" />
<glyph unicode="T" horiz-adv-x="1258" d="M20 996q16 68 54 356q14 6 34 0q8 -2 32 -12t56 -17t72 -7h722q40 0 73 7t58 17t33 12q20 4 32 0q42 -310 52 -356q-16 -16 -48 -16q-18 0 -24 12q-18 106 -73 175t-129 69h-218v-976q0 -132 12 -168q6 -16 54 -25t78 -9q6 -10 6 -34t-6 -32q-160 12 -260 12t-260 -12 q-6 8 -6 32t6 34q30 0 79 9t55 25q14 42 14 168v976h-224q-74 0 -129 -69t-73 -175q-6 -12 -22 -12q-34 0 -50 16z" />
<glyph unicode="U" horiz-adv-x="1456" d="M48 1292q0 24 6 32q160 -12 262 -12q98 0 258 12q6 -8 6 -32t-6 -34q-30 0 -79 -9t-55 -25q-12 -36 -12 -168v-430q0 -232 74 -354q84 -154 288 -154q154 0 254 111t102 355v440q0 144 -24 192q-10 18 -63 31t-83 13q-8 10 -8 32t6 32q176 -12 236 -12q52 0 126 5t100 7 q6 -10 7 -30t-7 -34q-32 0 -89 -12t-67 -32q-24 -54 -24 -190v-464q0 -288 -148 -431t-388 -143q-252 0 -390 152q-130 142 -130 412v504q0 138 -12 168q-6 16 -55 25t-79 9q-6 10 -6 34z" />
<glyph unicode="V" horiz-adv-x="1326" d="M-10 1291q0 27 4 33q168 -12 258 -12q106 0 266 12q4 -8 4 -34t-6 -32q-18 0 -42 -4t-52 -18t-28 -38q0 -34 42 -142q38 -94 112 -281t127 -320t55 -137q144 336 294 726q40 106 40 152q0 32 -54 47t-92 15q-8 6 -7 31t7 35q168 -12 224 -12q52 0 121 6t89 6q6 -10 5 -35 t-7 -31q-100 0 -134 -44q-34 -42 -90 -184q-122 -300 -402 -968q-14 -32 -40 -53t-46 -21q-6 0 -24 28q-38 100 -209 517t-199 491q-56 134 -80 178q-16 28 -60 42t-72 14q-4 6 -4 33z" />
<glyph unicode="W" horiz-adv-x="1856" d="M-7 1291q1 27 5 33q172 -12 264 -12q90 0 250 12q4 -8 4 -34t-6 -32q-18 0 -42 -4t-52 -18t-28 -38q0 -12 40 -140q22 -70 71 -218t85 -261t54 -175q22 70 77 238t122 369l81 243q8 28 29 49t37 21q12 0 24 -32q218 -578 338 -928q18 60 98 322t106 358q32 114 32 152 q0 32 -54 47t-92 15q-8 6 -7 31t7 35q168 -12 226 -12q52 0 121 6t89 6q6 -10 5 -35t-7 -31q-24 0 -69 -12t-65 -32q-40 -46 -76 -158q-94 -304 -310 -984q-10 -32 -35 -58t-43 -26q-16 0 -30 28q-34 98 -167 454t-165 450q-30 -98 -129 -398t-145 -446q-6 -24 -31 -56 t-41 -32t-30 28q-28 92 -168 510t-172 516q-36 116 -70 162q-18 26 -58 40t-68 14q-6 6 -5 33z" />
<glyph unicode="X" horiz-adv-x="1380" d="M-16 26q2 24 6 32q20 0 50 4t82 25t78 57q46 58 212 283t168 227l-282 430q-72 114 -120 144t-124 30q-8 0 -8 29t8 37q12 0 118 -6t164 -6q32 0 272 12q4 -8 3 -37t-7 -29q-32 0 -73 -14t-41 -40q0 -22 20 -52l228 -346q254 332 272 370q0 2 4 12t4 14q0 20 -39 37 t-103 17q-6 0 -8 30t4 38q114 -12 240 -12t230 12q6 -10 6 -36t-8 -32q-124 0 -200 -92q-28 -34 -171 -207t-183 -227q366 -558 396 -588q32 -42 91 -63t105 -21q6 -10 6 -34t-4 -32q-240 12 -264 12q-66 0 -172 -6t-132 -6q-8 8 -7 37t9 29q26 0 70 17t44 41q0 10 -8 22 l-284 434q-238 -312 -302 -424q-14 -28 -14 -32q0 -22 47 -40t111 -18q6 -8 8 -32t-2 -34q-210 12 -246 12q-10 0 -250 -12q-6 10 -4 34z" />
<glyph unicode="Y" horiz-adv-x="1222" d="M-15 1289q1 25 7 35q176 -12 268 -12q110 0 270 12q6 -10 6 -35t-8 -31q-122 0 -122 -58q0 -14 20 -48l256 -456q94 148 258 474q8 24 8 38q0 18 -47 33t-99 15q-6 6 -6 34t4 34q168 -12 216 -12q56 0 132 6t90 6q4 -8 4 -35t-6 -33q-124 0 -162 -64q-252 -418 -342 -592 q-10 -18 -10 -52v-288q0 -132 12 -168q6 -16 54 -25t78 -9q6 -10 6 -34t-6 -32q-160 12 -260 12q-98 0 -258 -12q-6 8 -6 32t6 34q30 0 78 9t54 25q14 42 14 168v292q0 16 -14 48q-38 70 -89 165t-105 190t-72 129q-40 72 -98 124q-22 24 -61 37t-63 13q-8 6 -7 31z" />
<glyph unicode="Z" horiz-adv-x="1272" d="M54 36l820 1198h-426q-118 0 -178 -69t-102 -199q-6 -10 -26 -10q-42 0 -54 12q44 162 68 364q72 -16 214 -16h334q162 0 442 20q6 -2 17 -22t11 -32q-2 -8 -205 -307t-405 -595l-202 -296h476q118 0 190 72q54 54 104 186q4 10 28 10q38 0 54 -16q-14 -46 -38 -118 t-40 -124t-24 -94h-1014q-18 0 -33 14t-11 22z" />
<glyph unicode="[" horiz-adv-x="566" d="M154 -214v1656q0 46 38 46q260 0 358 22q8 0 8 -18q0 -32 -20 -42q-30 -12 -79 -23t-97 -19t-52 -8v-1572q4 0 52 -8t97 -19t79 -23q20 -10 20 -42q0 -18 -8 -18q-98 22 -358 22q-38 0 -38 46z" />
<glyph unicode="\" horiz-adv-x="820" d="M58 1504q12 14 38 14q54 0 66 -32q596 -1518 596 -1530q-6 -20 -52 -20q-38 0 -50 32q-84 214 -290 746t-308 790z" />
<glyph unicode="]" horiz-adv-x="566" d="M8 -264q0 32 20 42q30 12 79 23t97 19t52 8v1572q-4 0 -52 8t-97 19t-79 23q-20 10 -20 42q0 18 8 18q100 -22 358 -22q38 0 38 -46v-1656q0 -46 -38 -46q-258 0 -358 -22q-8 0 -8 18z" />
<glyph unicode="^" horiz-adv-x="780" d="M100 876q142 236 238 412q14 26 34 26q24 0 36 -26q118 -214 236 -412q0 -14 -11 -24t-23 -10q-46 46 -106 112t-96 110l-36 44q-132 -164 -236 -266q-12 0 -24 10t-12 24z" />
<glyph unicode="_" horiz-adv-x="1000" d="M24 -66q10 92 30 92h898q8 0 8 -10q0 -16 -20 -90q-2 -6 -5 -9t-5 -3h-2h-890q-14 0 -14 20z" />
<glyph unicode="`" horiz-adv-x="590" d="M152 1320q0 8 6 19t27 22t53 11q52 0 68 -16q34 -40 80 -106t76 -115t30 -55q0 -10 -9 -21t-19 -11q-26 0 -169 111t-143 161z" />
<glyph unicode="a" horiz-adv-x="904" d="M66 220q0 56 32 101t72 59q168 58 360 134q12 14 12 46v52q0 74 -43 135t-103 61q-50 0 -75 -37t-39 -107q-20 -92 -102 -92q-36 0 -61 26t-25 62q0 32 20 66q50 48 160 103t214 55q108 0 184 -82t76 -206v-394q0 -88 54 -88q18 0 62 22q10 -2 10 -24q0 -20 -8 -34 q-30 -28 -83 -59t-95 -31q-44 0 -85 36t-53 80q-24 -24 -107 -72t-129 -48q-104 0 -176 71t-72 165zM284 240q0 -58 40 -95t90 -37q42 0 85 24t43 38v276q-146 -56 -160 -62q-98 -48 -98 -144z" />
<glyph unicode="b" horiz-adv-x="1040" d="M1 1266q-1 14 0 28t5 16q208 20 334 78q8 0 17 -11t9 -21q-22 -76 -22 -188v-360v-9t1 -9t4 -6t7 2q36 28 104 64t116 36q172 0 282 -125t110 -293q0 -212 -152 -348t-364 -136q-40 0 -114 19t-86 21q-32 5 -56 5q-29 0 -46 -7q-6 0 -21 19t-15 27q24 56 24 194v854 q0 72 -12 100q-16 36 -122 36q-2 0 -3 14zM344 196q0 -56 47 -95t113 -39q98 0 167 103t69 225q0 182 -71 273t-191 91q-38 0 -74 -16t-52 -34q-8 -8 -8 -20v-488z" />
<glyph unicode="c" horiz-adv-x="868" d="M70 394q0 196 158 344t346 148q130 0 192 -42q28 -32 28 -76q0 -48 -28 -79t-68 -31q-22 0 -41 12t-44 39t-31 31q-60 50 -126 50q-72 0 -127 -91t-55 -215q0 -178 88 -264t218 -86q128 0 218 100q20 -6 20 -32q0 -22 -8 -38q-40 -60 -127 -120t-201 -60q-174 0 -293 117 t-119 293z" />
<glyph unicode="d" horiz-adv-x="1066" d="M72 406q0 106 52 200t131 152t163 92t154 34q56 0 110 -12q10 0 10 44v200q0 72 -12 100q-16 36 -120 36q-2 0 -4 14t-1 28t5 16q210 20 336 78q8 0 16 -11t8 -21q-20 -76 -20 -188v-896q0 -112 16 -136q16 -28 104 -28q4 -4 4 -26q0 -26 -12 -34q-50 -4 -122 -20 t-125 -30t-57 -14q-16 0 -16 44v52q-2 10 -6 10q-36 -32 -113 -69t-143 -37q-144 0 -251 123t-107 299zM298 472q0 -158 65 -260t177 -102q52 0 102 28t50 50v508q0 32 -57 64t-127 32q-100 0 -155 -94t-55 -226z" />
<glyph unicode="e" horiz-adv-x="890" d="M72 400q0 190 132 337t288 147q88 0 156 -30t102 -77t50 -92t16 -87q0 -88 -50 -90q-114 -10 -494 -18v-8q0 -176 92 -262q94 -88 212 -88q132 0 224 102q20 -6 20 -32q0 -18 -10 -38q-40 -62 -126 -121t-200 -59q-176 0 -294 116t-118 300zM280 566q224 0 292 8 q36 0 36 40q0 66 -36 130t-108 64q-50 0 -89 -32t-58 -77t-28 -81t-9 -52z" />
<glyph unicode="f" horiz-adv-x="664" d="M50 24q0 24 6 34q30 0 76 9t52 25q12 36 12 168v512h-128q-10 2 -10 22q10 18 58 66h80v20q0 196 133 356t247 160q64 0 112 -24q48 -28 48 -72q0 -50 -27 -80t-63 -30q-14 0 -28 5t-23 12t-23 18t-22 15q-34 24 -68 24q-36 0 -61 -48t-25 -128q0 -164 4 -228h236 q10 0 10 -24q0 -36 -36 -64h-206v-512q0 -132 12 -168q6 -16 54 -25t78 -9q6 -10 6 -34t-6 -32q-160 12 -248 12q-84 0 -244 -12q-6 8 -6 32z" />
<glyph unicode="g" horiz-adv-x="942" d="M46 -208q0 56 60 110t132 90q-54 16 -98 71t-44 121q10 26 65 69t105 71q-80 38 -128 108t-48 150q0 124 101 213t247 89q116 0 200 -48q26 -12 28 -12l232 28q20 -8 20 -20q0 -14 -17 -49t-31 -43q-16 2 -44 4t-46 3t-30 3q-12 0 -12 -6q50 -70 50 -160 q0 -118 -102 -209t-248 -91q-56 0 -108 16q-60 -42 -60 -76q0 -20 32 -40t76 -20q168 0 248 -2q122 -2 205 -71t83 -143q0 -154 -161 -273t-367 -119q-142 0 -241 64t-99 172zM234 -134q0 -98 69 -156t187 -58q116 0 192 59t76 129q0 58 -65 100t-179 42q-162 0 -202 -6 q-78 -52 -78 -110zM288 600q0 -96 44 -172t122 -76q136 0 136 214q0 100 -40 175t-120 75q-74 0 -108 -63t-34 -153z" />
<glyph unicode="h" horiz-adv-x="1106" d="M34 24q0 24 6 34q28 0 74 9t52 25q14 42 14 168v856q0 72 -12 100q-16 36 -122 36q-2 0 -3 14t0 28t5 16q208 20 334 78q8 0 17 -11t9 -21q-20 -92 -20 -188v-432q0 -8 2 -8t10 8q42 48 127 98t149 50q158 0 212 -103t54 -345v-176q0 -132 12 -168q6 -16 52 -25t76 -9 q6 -10 6 -34t-6 -32q-160 12 -244 12q-72 0 -232 -12q-6 8 -6 32t6 34q28 0 69 9t47 25q12 36 12 168v180q0 158 -35 231t-129 73q-52 0 -117 -43t-65 -67v-374q0 -132 12 -168q6 -16 49 -25t71 -9q6 -10 6 -34t-6 -32q-160 12 -238 12q-82 0 -242 -12q-6 8 -6 32z" />
<glyph unicode="i" horiz-adv-x="588" d="M57 764q-1 24 5 28q184 18 338 96q8 -2 18 -15t10 -19q-16 -64 -16 -124v-96v-374q0 -132 12 -168q6 -16 49 -25t71 -9q6 -10 6 -34t-6 -32q-160 12 -238 12q-82 0 -242 -12q-6 8 -6 32t6 34q28 0 74 9t52 25q14 36 14 168v304q0 106 -14 134q-10 20 -55 29t-73 9 q-4 4 -5 28zM168 1208q0 52 36 88t86 36t87 -36t37 -88q0 -50 -36 -85t-88 -35t-87 35t-35 85z" />
<glyph unicode="j" horiz-adv-x="526" d="M-28 -404q32 24 47 35t51 56t56 93t37 135t17 193v456q0 102 -14 134q-10 20 -55 29t-73 9q-4 4 -4 29t6 27q184 18 338 96q8 -2 18 -15t10 -19q-18 -72 -18 -124v-98v-444q0 -354 -218 -532q-44 -36 -103 -63t-83 -27q-12 10 -12 30zM138 1208q0 52 37 88t87 36t87 -36 t37 -88t-37 -88t-87 -36t-87 36t-37 88z" />
<glyph unicode="k" horiz-adv-x="1108" d="M34 24q0 24 6 34q28 0 74 9t52 25q14 42 14 168v856q0 72 -12 100q-16 36 -122 36q-2 0 -3 14t0 28t5 16q208 20 334 78q8 0 17 -11t9 -21q-20 -92 -20 -188l-2 -696q48 18 156 112q104 90 142 126t38 52q0 30 -112 38q-6 12 -5 37t9 27q56 -8 228 -8q62 0 198 8 q8 -12 6 -35t-8 -29q-114 -10 -176 -52q-92 -70 -294 -244q190 -214 322 -352q88 -90 210 -90q6 -10 6 -28t-4 -26q-54 -18 -166 -18q-82 0 -153 30t-107 72q-156 168 -262 292l-26 20v-144q0 -132 12 -168q6 -16 51 -25t75 -9q6 -10 6 -34t-6 -32q-160 12 -244 12 q-82 0 -242 -12q-6 8 -6 32z" />
<glyph unicode="l" horiz-adv-x="566" d="M34 24q0 24 6 34q28 0 74 9t52 25q14 42 14 168v856q0 72 -12 100q-16 36 -122 36q-2 0 -3 14t0 28t5 16q208 20 334 78q8 0 17 -11t9 -21q-20 -92 -20 -188v-908q0 -132 12 -168q6 -16 51 -25t75 -9q6 -10 6 -34t-6 -32q-160 12 -244 12q-82 0 -242 -12q-6 8 -6 32z" />
<glyph unicode="m" horiz-adv-x="1676" d="M57 764q-1 24 5 28q184 18 338 96q8 -2 18 -15t10 -19q-16 -64 -16 -110q0 -10 4 -10t10 6q52 52 129 98t143 46q96 0 151 -38t85 -130q72 70 159 119t153 49q158 0 212 -103t54 -345v-176q0 -132 12 -168q6 -16 51 -25t75 -9q6 -10 6 -34t-6 -32q-160 12 -244 12 q-70 0 -230 -12q-6 8 -6 32t6 34q28 0 68 9t46 25q14 42 14 168v188q0 144 -34 220t-128 76q-60 0 -126 -44t-66 -68q0 -2 1 -9t1 -9q8 -96 8 -166v-188q0 -132 12 -168q6 -16 51 -25t75 -9q6 -10 6 -34t-6 -32q-160 12 -242 12q-74 0 -234 -12q-6 8 -6 32t6 34q28 0 70 9 t48 25q12 36 12 168v182q0 154 -35 228t-125 74q-58 0 -119 -41t-61 -69v-374q0 -132 12 -168q6 -16 49 -25t71 -9q6 -10 6 -34t-6 -32q-160 12 -238 12q-82 0 -242 -12q-6 8 -6 32t6 34q28 0 74 9t52 25q14 36 14 168v298q0 112 -14 140q-10 20 -55 29t-73 9q-4 4 -5 28z " />
<glyph unicode="n" horiz-adv-x="1130" d="M57 764q-1 24 5 28q184 18 338 96q8 0 18 -13t10 -21q-16 -64 -16 -114q0 -12 4 -12q2 0 10 8q44 48 127 98t147 50q158 0 212 -103t54 -345v-176q0 -132 12 -168q6 -16 52 -25t76 -9q6 -10 6 -34t-6 -32q-160 12 -244 12q-72 0 -232 -12q-6 8 -6 32t6 34q28 0 69 9 t47 25q12 36 12 168v180q0 158 -35 231t-129 73q-52 0 -117 -43t-65 -67v-374q0 -132 12 -168q6 -16 49 -25t71 -9q6 -10 6 -34t-6 -32q-160 12 -238 12q-82 0 -242 -12q-6 8 -6 32t6 34q28 0 74 9t52 25q14 36 14 168v304q0 106 -14 134q-10 20 -55 29t-73 9q-4 4 -5 28z " />
<glyph unicode="o" horiz-adv-x="1040" d="M72 430q0 192 128 324t316 132q200 0 325 -124t125 -316t-129 -326t-317 -134q-200 0 -324 126t-124 318zM300 470q0 -156 63 -282t177 -126q74 0 121 54t62 125t15 159q0 156 -65 284t-177 128q-56 0 -97 -30t-61 -82t-29 -108t-9 -122z" />
<glyph unicode="p" horiz-adv-x="1064" d="M24 -412q0 24 8 34q28 0 74 9t52 25q14 42 14 168v740q0 102 -14 134q-10 20 -55 29t-73 9q-6 4 -6 28t6 28q200 20 338 90q8 -2 18 -12t10 -16q-16 -48 -16 -76q0 -14 6 -10q32 32 107 75t123 43q172 0 274 -129t102 -291q0 -202 -151 -342t-327 -140q-28 0 -128 20 q-6 0 -6 -28v-152q0 -132 12 -168q6 -16 51 -25t75 -9q6 -10 6 -34t-6 -32q-160 12 -244 12q-82 0 -242 -12q-8 8 -8 32zM380 196q0 -64 50 -98t110 -34q90 0 157 94t67 236q0 168 -65 264t-181 96q-54 0 -96 -24t-42 -42v-492z" />
<glyph unicode="q" horiz-adv-x="1034" d="M70 392q0 210 164 351t352 141q34 0 119 -24t117 -24q26 0 56 10q8 -2 23 -19t15 -27q-22 -50 -22 -188v-788q0 -132 12 -168q6 -16 52 -25t74 -9q6 -10 6 -34t-6 -32q-160 12 -244 12q-82 0 -242 -12q-6 8 -6 32t6 34q30 0 75 9t51 25q14 42 14 168v232q0 12 -3 21 t-11 3q-34 -28 -107 -62t-131 -34q-156 0 -260 126t-104 282zM296 478q0 -156 67 -263t183 -107q52 0 96 23t44 41v504q0 42 -50 81t-118 39q-76 0 -129 -54t-73 -122t-20 -142z" />
<glyph unicode="r" horiz-adv-x="830" d="M57 764q-1 24 5 28q184 18 338 96q8 -2 18 -15t10 -19q-2 -12 -9 -83t-7 -89q2 -10 10 -6q42 82 106 145t136 63q88 0 124 -46q16 -32 16 -76q0 -52 -30 -91t-64 -39q-14 0 -27 6t-31 20t-22 18q-40 32 -72 32q-56 0 -101 -65t-45 -107v-276q0 -132 12 -168q6 -16 66 -25 t94 -9q6 -10 6 -34t-6 -32q-160 12 -272 12q-88 0 -248 -12q-6 8 -6 32t6 34q28 0 74 9t52 25q14 36 14 168v304q0 106 -14 134q-10 20 -55 29t-73 9q-4 4 -5 28z" />
<glyph unicode="s" horiz-adv-x="774" d="M88 256q6 12 32 12q24 0 32 -12q18 -92 81 -148t135 -56q56 0 92 36t36 92q0 32 -12 58t-38 46t-49 33t-63 34t-62 33q-88 50 -136 104t-48 136q0 122 103 192t229 70q38 0 73 -6t75 -15t66 -13q34 -136 34 -232q0 -12 -28 -12q-18 0 -36 12q-18 76 -67 135t-125 59 q-60 0 -94 -32t-34 -86q0 -30 10 -53t34 -43t40 -30t54 -29t52 -27q124 -68 164 -110q58 -62 58 -148q0 -130 -102 -203t-248 -73q-40 0 -79 6t-91 19t-64 15q-8 30 -16 116t-8 120z" />
<glyph unicode="t" horiz-adv-x="656" d="M26 794q10 18 58 66h82v116q22 22 164 172q8 6 18 8t18 0t8 -6v-290h240q12 0 12 -24q0 -36 -36 -64h-216v-510q0 -158 118 -158q58 0 118 48q10 -10 10 -22q0 -22 -12 -34q-102 -110 -210 -110q-98 0 -165 59t-67 195v532h-130q-10 2 -10 22z" />
<glyph unicode="u" horiz-adv-x="1078" d="M23 786q-1 24 5 28q176 12 332 74q8 -2 18 -17t10 -21q-16 -32 -16 -126v-108v-192q0 -164 40 -242t136 -78q54 0 105 31t51 61v386q0 106 -16 136q-12 20 -52 30t-68 10q-4 2 -4 28t6 28q176 12 332 74q8 -2 18 -17t10 -21q-18 -36 -18 -126v-110v-366q0 -74 16 -112 q14 -28 104 -28q6 -6 6 -24q0 -26 -14 -36q-50 -4 -122 -20t-124 -30t-56 -14q-18 0 -18 40v64q-2 8 -4 8q-42 -38 -123 -73t-161 -35q-96 0 -155 60t-78 139t-19 179v216q0 102 -18 136q-12 20 -52 30t-66 10q-4 4 -5 28z" />
<glyph unicode="v" horiz-adv-x="1004" d="M-4 839q0 23 6 35q22 -2 69 -6t89 -6t78 -2q2 0 226 14q6 -8 5 -35t-9 -31q-26 0 -67 -12t-41 -32q0 -16 2 -20l214 -468q96 236 168 404q16 36 16 68q0 30 -43 45t-85 15q-8 2 -8 30t6 36q140 -14 186 -14q2 0 198 14q6 -10 4 -35t-8 -31q-30 0 -79 -16t-65 -52 q-22 -52 -147 -330t-157 -358q-38 -74 -70 -74q-10 0 -22 12q-44 96 -111 249t-122 275t-109 234q-28 60 -118 60q-6 8 -6 31z" />
<glyph unicode="w" horiz-adv-x="1510" d="M-4 841q0 23 6 33q2 0 91 -7t137 -7q8 0 232 14q6 -10 5 -35t-7 -31q-26 0 -67 -14t-41 -38q0 -14 6 -28q136 -288 200 -440q148 364 148 374q0 38 -34 88q-18 28 -51 43t-55 15q-8 8 -8 32t6 34q140 -14 226 -14q6 0 230 14q6 -10 6 -34t-6 -32q-38 0 -74 -16t-36 -44 q0 -16 4 -26q12 -28 78 -184t98 -238q104 252 156 386q16 44 16 62q0 52 -130 60q-6 6 -7 31t5 35q168 -14 192 -14q36 0 69 2t67 6t52 6q4 -8 4 -33t-8 -33q-16 0 -39 -4t-55 -20t-42 -44q-186 -446 -292 -690q-14 -34 -35 -53t-35 -19q-12 0 -24 12q-190 490 -222 568 l-208 -506q-14 -30 -36 -52t-38 -22q-10 0 -22 12q-216 500 -338 758q-28 60 -118 60q-6 10 -6 33z" />
<glyph unicode="x" horiz-adv-x="1038" d="M16 25q0 25 6 33q120 10 178 74q26 26 113 136t111 136q-26 36 -121 174t-125 174q-22 28 -64 42t-72 14q-6 6 -6 31t6 35q126 -14 236 -14q60 0 228 14q6 -6 6 -32t-8 -34q-88 0 -88 -40q0 -8 14 -26l130 -186q14 16 37 45t40 50t35 45t27 40t9 24q0 28 -46 38t-80 10 q-6 4 -7 30t5 36q168 -14 206 -14q98 0 202 14q4 -8 4 -34t-6 -32q-112 0 -160 -56q-28 -34 -105 -131t-109 -135q28 -38 130 -180t132 -178q50 -70 144 -70q6 -6 6 -32t-6 -34q-114 12 -234 12q-34 0 -238 -12q-6 10 -5 36t7 30q26 0 58 12t32 30q0 2 -2 5t-5 7t-5 8 q-122 172 -150 212q-122 -152 -148 -190q-14 -20 -14 -34q0 -42 126 -50q6 -2 6 -30t-6 -36q-136 12 -200 12q-58 0 -220 -12q-4 8 -4 33z" />
<glyph unicode="y" horiz-adv-x="1002" d="M-1 841q1 27 5 33q160 -14 234 -14q78 0 226 14q6 -8 5 -35t-9 -31q-26 0 -67 -12t-41 -32q0 -12 4 -20l208 -468q96 236 168 404q18 40 18 68q0 30 -44 45t-86 15q-8 4 -7 30t7 36q102 -14 194 -14q62 0 188 14q6 -10 5 -35t-7 -31q-30 0 -79 -16t-65 -52 q-30 -70 -142 -321t-172 -387q-110 -250 -172 -336q-108 -142 -208 -142q-50 0 -82 25t-32 71q0 44 36 76q98 0 162 29t116 105q30 42 82 172q-132 310 -322 716q-28 60 -118 60q-6 6 -5 33z" />
<glyph unicode="z" horiz-adv-x="906" d="M62 36q0 18 6 24l482 716q-212 4 -244 4q-20 0 -37 -5t-30 -12t-25 -21t-19 -24t-16 -28l-13 -26t-10 -27t-8 -21q-8 -16 -46 -16q-22 0 -22 6q24 98 34 268q112 -14 184 -14h266q118 0 250 16q8 -12 8 -48q-508 -744 -508 -748h252q84 0 141 60t75 132q2 12 20 12 q38 0 52 -20q-36 -122 -86 -264h-680q-8 2 -17 14t-9 22z" />
<glyph unicode="{" horiz-adv-x="518" d="M40 596q0 16 6 22q68 20 116 68t48 122q0 38 -40 154q-34 84 -34 146q0 134 103 244t189 128q10 0 19 -16t5 -28q-54 -26 -106 -93t-52 -145q0 -70 40 -166q36 -84 36 -168q0 -102 -69 -180t-127 -88q58 -10 127 -88t69 -180q0 -84 -36 -168q-40 -96 -40 -166 q0 -78 52 -145t106 -93q4 -12 -5 -28t-19 -16q-86 18 -189 128t-103 244q0 58 38 160q36 92 36 140q0 74 -48 122t-116 68q-6 6 -6 22z" />
<glyph unicode="|" horiz-adv-x="408" d="M152 -230v1744q-2 12 10 16q40 12 76 12q8 0 12 -3t4 -7v-2l2 -1744q0 -10 -42 -21t-52 -11t-10 16z" />
<glyph unicode="}" horiz-adv-x="518" d="M70 -244q52 28 104 94t52 144q0 76 -38 164t-38 170q0 102 70 180t128 88q-58 10 -128 88t-70 180q0 88 40 180q36 88 36 154q0 78 -52 144t-104 94q-4 12 4 28t18 16q86 -18 189 -128t103 -244q0 -66 -34 -152q-38 -102 -38 -148q0 -74 48 -122t116 -68q4 -4 4 -22 t-4 -22q-68 -20 -116 -68t-48 -122q0 -50 36 -142q36 -96 36 -158q0 -134 -103 -244t-189 -128q-10 0 -18 16t-4 28z" />
<glyph unicode="~" horiz-adv-x="1116" d="M102 544q0 58 84 117t168 59q90 0 244 -60q146 -60 236 -60q84 0 176 92q16 -8 16 -26q0 -56 -81 -117t-169 -61q-86 0 -246 62q-146 58 -236 58t-176 -90q-16 8 -16 26z" />
<glyph unicode="&#xa1;" horiz-adv-x="462" d="M102 744q0 52 37 90t91 38t93 -39t39 -93q0 -52 -39 -90t-93 -38t-91 39t-37 93zM118 -308q0 10 76 766q14 34 36 38q24 -4 36 -28q74 -704 74 -776q0 -52 -34 -88t-84 -36q-46 0 -75 36t-29 88z" />
<glyph unicode="&#xa2;" horiz-adv-x="928" d="M88 394q0 196 158 344t346 148q128 0 192 -42q28 -32 28 -76q0 -48 -28 -79t-68 -31q-22 0 -41 12t-44 39t-31 31q-60 50 -126 50q-72 0 -127 -91t-55 -215q0 -178 88 -264t218 -86q128 0 218 100q20 -6 20 -32q0 -22 -8 -38q-40 -60 -127 -120t-201 -60q-174 0 -293 117 t-119 293zM386 -68l168 1020q64 0 64 -12l-168 -1024q-58 0 -64 16z" />
<glyph unicode="&#xa3;" horiz-adv-x="950" d="M88 32q0 16 7 34t21 37t24 32t27 31t21 22q38 42 63 121t25 155q0 36 -24 148h-152q-8 8 11 43t33 35h92q-14 70 -14 94q-2 196 128 342t278 146q72 0 144 -46q18 -18 18 -60q0 -52 -25 -79t-61 -27q-46 0 -104 62q-48 48 -78 48q-118 0 -118 -252q0 -76 38 -228h320 q16 -20 6 -44t-24 -34h-284q4 -30 4 -56q0 -100 -53 -194t-105 -142q44 22 100 22q40 0 122 -45t158 -45q98 0 162 128q4 2 15 -7t13 -17q6 -12 2 -32q-26 -74 -102 -157t-178 -83q-80 0 -182 58t-162 58q-26 0 -50 -19t-50 -52t-34 -41q-12 0 -22 15t-10 29z" />
<glyph unicode="&#xa4;" horiz-adv-x="1138" d="M152 308l108 102q-60 94 -60 204q0 130 76 232l-104 112q-8 8 4 25t36 34t48 23l104 -110q90 62 204 62q126 0 224 -82l120 110q8 8 24 -4t33 -36t23 -48l-120 -112q58 -96 58 -206q0 -118 -66 -216l108 -116q8 -8 -4 -25t-36 -34t-48 -23l-104 110q-96 -70 -212 -70 q-128 0 -228 80l-104 -100q-8 -8 -25 4t-35 36t-24 48zM366 638q0 -136 65 -231t153 -95q82 0 132 80t50 196q0 138 -63 235t-151 97q-82 0 -134 -83t-52 -199z" />
<glyph unicode="&#xa5;" horiz-adv-x="1362" d="M53 1247q1 25 7 35q146 -10 268 -10q134 0 268 10q4 -10 4 -35t-6 -31q-120 0 -120 -58q0 -16 18 -46l258 -456q98 154 258 472q8 24 8 40q0 18 -48 33t-100 15q-6 6 -6 33t4 33q168 -12 216 -12q56 0 132 6t90 6q4 -8 4 -34t-6 -32q-124 0 -162 -64q-234 -388 -340 -596 q-6 -12 -8 -28h190q16 -20 5 -45t-25 -35h-172v-80h192q16 -20 5 -45t-25 -35h-174v-28q0 -132 12 -168q6 -16 55 -25t79 -9q6 -10 6 -34t-6 -32q-160 12 -260 12t-260 -12q-6 8 -6 32t6 34q30 0 79 9t55 25q12 36 12 168v28h-196q-8 8 9 44t31 36h156v80h-196q-8 8 9 44 t31 36h154q-2 14 -8 24q-82 160 -270 492q-42 76 -96 124q-22 24 -60 36t-64 12q-8 6 -7 31z" />
<glyph unicode="&#xa6;" horiz-adv-x="422" d="M160 -230v728q-2 12 10 16q34 10 78 10q8 0 12 -3t4 -5v-4v-728q0 -10 -42 -20t-52 -10t-10 16zM160 786v728q-2 12 10 16q34 10 78 10q8 0 12 -3t4 -5v-4v-728q0 -10 -42 -20t-52 -10t-10 16z" />
<glyph unicode="&#xa7;" horiz-adv-x="908" d="M74 772q0 96 88 224t168 196q-74 -78 -84 -174q-48 -70 -48 -146q0 -112 61 -204t165 -188q8 -8 50 -45t57 -52t47 -51t46 -60t27 -59t13 -69q0 -14 -2 -30q-6 -8 -17 -24t-13 -20q-48 -40 -64 -76q-8 -12 -8 -34v-28q8 6 18 12q-114 -114 -294 -114q-44 0 -92 22 q-12 24 -12 52t22 54t54 26q28 0 80 -36q24 -18 68 -18q56 0 106 28t50 80q0 102 -250 330q-74 70 -116 116t-81 125t-39 163zM244 992q0 -34 13 -69t27 -59t46 -60t47 -51t57 -52t50 -45q104 -96 165 -188t61 -204q0 -76 -48 -150q-10 -94 -84 -170q80 68 168 196t88 224 q0 84 -38 163t-80 126t-116 115q-252 230 -252 330q0 52 51 80t107 28q40 0 70 -22q54 -32 78 -32q32 0 53 24t21 52q0 32 -12 56q-52 22 -92 22q-180 0 -294 -114q10 6 18 12v-28t-8 -34q-8 -16 -23 -35t-27 -31l-12 -12q-4 -6 -11 -15t-12 -17t-9 -14q-2 -14 -2 -26z" />
<glyph unicode="&#xa8;" horiz-adv-x="744" d="M58 1032q0 48 35 81t83 33t83 -34t35 -82t-35 -82t-83 -34t-83 35t-35 83zM452 1032q0 48 35 81t83 33t83 -34t35 -82t-36 -82t-84 -34t-82 35t-34 83z" />
<glyph unicode="&#xa9;" horiz-adv-x="1312" d="M110 652q0 226 159 386t385 160t387 -160t161 -386t-161 -385t-387 -159t-385 159t-159 385zM188 652q0 -196 136 -332t332 -136t333 137t137 331q0 196 -137 333t-333 137q-194 0 -331 -137t-137 -333zM370 640q0 126 86 212t206 86q88 0 198 -34q0 -2 15 -61t15 -63 q0 -16 -32 -16q-8 0 -12 4q-32 110 -170 110q-80 0 -129 -66t-49 -156q0 -106 56 -174t136 -68q82 0 124 38q12 12 22 32t16 36l6 16q32 0 40 -8q0 -10 -15 -66t-23 -58q-122 -46 -202 -46q-126 0 -207 78t-81 204z" />
<glyph unicode="&#xaa;" horiz-adv-x="732" d="M90 660q0 38 23 69t49 41q224 82 256 94q8 8 8 26v38q0 50 -28 87t-74 37q-36 0 -53 -22t-27 -70q-12 -62 -74 -62q-26 0 -44 19t-18 43t14 44q34 32 112 70t154 38t131 -57t55 -141v-268q0 -58 38 -58q10 0 46 18q10 0 10 -18q0 -14 -8 -26q-70 -62 -130 -62 q-32 0 -60 24t-38 52q-106 -80 -166 -80q-74 0 -125 50t-51 114zM246 672q0 -40 28 -66t62 -26q28 0 59 21t31 31v172q-8 -4 -53 -18t-61 -22q-66 -32 -66 -92z" />
<glyph unicode="&#xab;" horiz-adv-x="980" d="M46 494q0 16 12 34q74 44 143 93t117 87t84 69t56 51l20 18q38 -10 48 -30q-8 -22 -114 -143t-166 -177q60 -56 166 -177t114 -143q-10 -22 -48 -32l-20 20q-20 18 -56 49t-84 70t-117 88t-143 93q-12 16 -12 30zM414 494q0 16 12 34q74 44 143 93t117 87t84 69t56 51 l20 18q38 -10 48 -30q-8 -22 -114 -143t-168 -177q62 -56 168 -177t114 -143q-10 -22 -48 -32l-20 20q-20 18 -56 49t-84 70t-117 88t-143 93q-12 16 -12 30z" />
<glyph unicode="&#xac;" horiz-adv-x="1176" d="M92 746q8 94 28 94h916v-502q-2 -2 -19 -7t-43 -11t-44 -6q-16 0 -26 14v398h-800q-12 0 -12 20z" />
<glyph unicode="&#xad;" horiz-adv-x="634" d="M62 414q0 114 24 114h2l482 24h2q12 0 12 -18q0 -44 -6 -74t-14 -38l-6 -8l-482 -22h-4t-6 6t-4 16z" />
<glyph unicode="&#xae;" horiz-adv-x="1308" d="M108 768q0 226 159 386t385 160t387 -160t161 -386t-161 -386t-387 -160t-385 160t-159 386zM186 768q0 -196 137 -333t331 -137t332 137t138 333q0 194 -137 331t-333 137q-194 0 -331 -136t-137 -332zM404 520q0 12 2 16q50 0 56 16q4 10 4 68v322q0 58 -4 68 q-6 14 -56 14q-2 4 -2 16t2 14q36 -2 118 -2q16 0 56 1t66 1q72 0 127 -40t55 -108q0 -44 -37 -82t-79 -52q46 -66 134 -174q48 -56 104 -60v-32q-64 0 -112 4q-54 4 -94 54q-100 132 -130 182q-6 12 -20 12h-22v-138q0 -54 6 -68q6 -16 54 -16q4 -4 4 -16t-4 -14 q-102 6 -110 6q-14 0 -116 -6q-2 2 -2 14zM572 796h36q48 0 79 26t31 72q0 124 -100 124q-38 0 -42 -8q-4 -10 -4 -58v-156z" />
<glyph unicode="&#xaf;" horiz-adv-x="952" d="M1118 1116q0 76 24 76h422q10 0 10 -12q0 -32 -10 -68q-2 -6 -6 -10l-6 -6h-4h-418q-12 0 -12 20z" />
<glyph unicode="&#xb0;" horiz-adv-x="568" d="M74 1072q0 86 62 148t150 62q86 0 147 -61t61 -149t-61 -149t-147 -61q-88 0 -150 62t-62 148zM158 1072q0 -52 38 -89t90 -37t88 37t36 89t-36 90t-88 38t-90 -38t-38 -90z" />
<glyph unicode="&#xb1;" horiz-adv-x="1170" d="M102 40q0 12 7 45t19 45h916q20 0 20 -26q0 -52 -32 -88h-918q-12 0 -12 24zM102 636q0 12 7 45t19 45h396v398q38 22 84 22q30 0 30 -14v-406h406q20 0 20 -26q0 -52 -32 -88h-394v-400q-36 -24 -90 -24q-24 0 -24 18v406h-410q-12 0 -12 24z" />
<glyph unicode="&#xb2;" horiz-adv-x="708" d="M76 534q208 226 260 294q94 124 94 228q0 62 -36 99t-94 37q-20 0 -40 -6t-34 -13t-29 -21t-22 -21t-19 -22t-14 -17q-6 -4 -19 8t-13 24q32 60 100 113t146 53q106 0 170 -57t64 -155q0 -102 -126 -236q-54 -58 -220 -208h232q20 0 37 7t29 23t19 26t15 31t10 23 q4 8 16 8q18 0 28 -10q-62 -200 -76 -234h-458q-20 10 -20 26z" />
<glyph unicode="&#xb3;" horiz-adv-x="656" d="M74 580q0 28 19 48t45 20q10 0 18 -3t17 -10t14 -13t14 -18t13 -16q30 -38 84 -38q62 0 97 44t35 128q0 72 -43 123t-101 51q-32 0 -72 -10q-10 14 -10 26q0 18 2 22q72 12 127 52t55 108q0 46 -31 78t-79 32q-76 0 -136 -72q-28 14 -22 34q32 46 93 84t129 38t125 -41 t57 -119q0 -68 -41 -108t-89 -56q52 0 121 -54t69 -146q0 -124 -102 -197t-236 -73q-110 0 -150 36q-22 34 -22 50z" />
<glyph unicode="&#xb4;" horiz-adv-x="724" d="M548 1080q0 10 69 114t119 162q16 16 68 16q32 0 52 -11t26 -22t6 -19q0 -50 -142 -161t-168 -111q-10 0 -20 11t-10 21z" />
<glyph unicode="&#xb5;" horiz-adv-x="1056" d="M126 -364q0 58 14 354t30 430q0 24 -10 130t-10 128q0 10 2 73t2 89q18 44 48 44q18 0 75 -30t57 -48q0 -78 -36 -252q-4 -26 -14 -68l-10 -42q6 -106 37 -185t91 -79q90 0 163 82t93 182q-6 72 -6 184q0 136 -2 212q28 44 54 44q18 0 77 -30t59 -48q0 -22 -7 -59 t-21 -104t-22 -115q-26 -104 -34 -138q0 -108 35 -164t87 -56q70 0 120 82q6 0 15 -13t13 -23v-32q-24 -74 -71 -133t-103 -59q-44 0 -78 52t-49 107t-23 113q-42 -118 -113 -199t-159 -81q-62 0 -112 85t-60 169q0 -2 4 -127t14 -271t30 -250q-28 -44 -68 -44q-22 0 -67 35 t-45 55z" />
<glyph unicode="&#xb6;" horiz-adv-x="1010" d="M66 938q0 172 114 269t252 97q60 0 102 -4t102 -4l240 10q8 -8 8 -35t-8 -31q-26 0 -62 -12t-42 -28q-6 -20 -6 -128v-390l98 26q14 0 14 -16q-2 -14 -22 -42t-30 -32q-38 -16 -62 -20v-366q0 -100 10 -130q6 -20 59 -33t79 -13q6 -6 6 -31t-4 -33q-34 2 -87 5t-101 5 t-102 2q-56 0 -296 -12q-6 12 -4 36t8 28q24 0 73 13t57 31q10 26 10 132v342q-184 0 -295 107t-111 257zM560 234q0 -102 10 -140q2 -12 48 -12t48 10q10 32 10 136q-2 288 -2 356q-98 -8 -114 -8v-342zM560 660q100 0 116 12v532q-10 10 -58 10q-46 0 -58 -12v-542z" />
<glyph unicode="&#xb7;" horiz-adv-x="468" d="M102 528q0 54 39 93t93 39t93 -39t39 -93t-38 -94t-92 -40q-56 0 -95 40t-39 94z" />
<glyph unicode="&#xb8;" horiz-adv-x="946" d="M792 -240q0 12 4 12q56 -28 100 -28t65 19t21 45q0 28 -16 47t-42 19q-16 0 -52 -14q-4 0 -14 11t-8 17q42 70 60 106h54q-28 -38 -32 -46q4 0 24 1t24 1q38 0 66 -29t28 -69q0 -70 -51 -115t-129 -45q-60 0 -90 30q-12 24 -12 38z" />
<glyph unicode="&#xb9;" horiz-adv-x="582" d="M76 1132q0 14 4 16q78 32 153 69t113 55l38 20h4q14 0 28 -42q-22 -66 -22 -166v-398q0 -72 18 -102q8 -10 47 -19t53 -9q4 0 4 -24t-4 -28q-20 0 -90 4t-106 4t-109 -4t-93 -4q-6 4 -6 28t6 24q20 0 59 9t45 19q16 32 16 100v344q0 100 -38 100q-14 0 -100 -32 q-20 6 -20 36z" />
<glyph unicode="&#xba;" horiz-adv-x="796" d="M74 800q0 128 94 217t230 89q138 0 231 -86t93 -212q0 -128 -94 -219t-230 -91q-138 0 -231 88t-93 214zM246 824q0 -106 42 -188t126 -82q74 0 105 67t31 159q0 106 -43 189t-125 83q-136 0 -136 -228z" />
<glyph unicode="&#xbb;" horiz-adv-x="980" d="M86 176q8 22 114 143t168 177q-62 56 -168 177t-114 143q10 20 48 30l20 -18q20 -20 56 -51t84 -69t117 -87t143 -93q12 -18 12 -34q0 -14 -12 -30q-74 -44 -143 -93t-117 -88t-84 -70t-56 -49l-20 -20q-38 10 -48 32zM454 176q8 22 114 143t166 177q-60 56 -166 177 t-114 143q10 20 48 30l20 -18q20 -20 56 -51t84 -69t117 -87t143 -93q12 -18 12 -34q0 -14 -12 -30q-74 -44 -143 -93t-117 -88t-84 -70t-56 -49l-20 -20q-38 10 -48 32z" />
<glyph unicode="&#xbc;" horiz-adv-x="1436" d="M70 1128q138 64 292 152q6 -2 18 -15t12 -21q-22 -66 -22 -174v-388q0 -68 20 -104q6 -10 43 -18t53 -8q6 -4 4 -24t-4 -24q-22 0 -58 2t-67 3t-59 1q-4 0 -196 -6q-6 4 -6 24t6 24q20 0 57 9t43 19q16 32 16 100v352q0 80 -36 80q-12 0 -92 -30q-8 2 -16 20t-8 26z M380 -28l696 1328q18 28 66 28q22 0 26 -16l-690 -1320q-6 -12 -26 -25t-42 -13q-12 0 -19 5t-9 9zM798 232q44 52 228 288t196 252q16 20 32 20q8 0 19 -9t11 -21v-478h58q38 -34 16 -86h-72v-196q-8 -8 -76 -8q-66 0 -72 14v190h-320q-20 8 -20 34zM922 290h216v278 q-28 -36 -68 -87t-85 -110t-63 -81z" />
<glyph unicode="&#xbd;" horiz-adv-x="1498" d="M72 1128q138 64 292 152q28 -18 28 -36q-20 -60 -20 -174v-388q0 -74 16 -104q6 -10 44 -18t54 -8q6 -4 5 -24t-3 -24q-4 0 -77 3t-111 3l-192 -6q-6 4 -6 24t6 24q20 0 55 9t41 19q20 40 20 100v352q0 80 -36 80q-14 0 -94 -30q-8 2 -15 19t-7 27zM356 -28l696 1328 q18 28 66 28q22 0 26 -16l-690 -1320q-6 -12 -26 -25t-42 -13q-12 0 -19 5t-9 9zM876 24q24 26 78 83t94 102t80 95q104 132 104 240q0 60 -37 98t-95 38q-20 0 -40 -6t-34 -13t-29 -20t-21 -20t-18 -22t-14 -17q-6 -4 -20 7t-14 23q32 60 100 113t146 53q106 0 171 -56 t65 -154q0 -100 -128 -236q-66 -70 -220 -210h232q20 0 37 7t29 23t19 26t15 31t10 23q4 8 16 8q20 0 28 -8q-70 -228 -74 -236h-460q-20 10 -20 28z" />
<glyph unicode="&#xbe;" horiz-adv-x="1438" d="M68 580q0 28 18 48t44 20q10 0 18 -3t17 -10t14 -13t14 -18t13 -16q30 -38 84 -38q62 0 98 44t36 128q0 72 -43 123t-101 51q-32 0 -72 -10q-12 18 -12 26q0 18 2 22q72 12 127 52t55 108q0 46 -32 78t-80 32q-72 0 -132 -72q-30 16 -24 34q32 46 92 84t128 38t126 -42 t58 -118q0 -68 -42 -108t-90 -56q52 0 123 -54t71 -146q0 -124 -103 -197t-237 -73q-110 0 -150 36q-20 30 -20 50zM394 -28l694 1328q18 28 68 28q22 0 26 -16l-690 -1320q-6 -12 -27 -25t-43 -13q-12 0 -19 5t-7 9zM796 232q44 52 228 288t196 252q16 20 32 20q8 0 19 -9 t11 -21v-478h58q38 -34 16 -86h-72v-196q-8 -8 -76 -8q-64 0 -72 14v190h-320q-20 8 -20 34zM920 290h216v278q-28 -36 -68 -87t-85 -110t-63 -81z" />
<glyph unicode="&#xbf;" horiz-adv-x="734" d="M72 -76q0 74 32 133t76 95t118 80q130 78 160 122q12 20 12 112q12 30 32 30q22 -4 36 -22q28 -84 28 -190q0 -46 -14 -84t-44 -69t-49 -46t-59 -41q-92 -60 -142 -108t-50 -104q0 -54 36 -91t90 -37q46 0 105 41t91 41q40 0 74 -34t34 -82q0 -58 -24 -82 q-48 -24 -140 -24q-46 0 -110 21t-132 62t-114 114t-46 163zM360 740q0 54 37 94t89 40t91 -39t39 -95q0 -54 -37 -90t-89 -36q-54 0 -92 36t-38 90z" />
<glyph unicode="&#xc0;" horiz-adv-x="1306" d="M-24 21q0 23 4 37q22 0 68 16t60 34q40 60 82 164q346 830 406 986q10 22 35 44t39 22q20 0 28 -8l408 -1042q16 -40 33 -85t21 -53q18 -40 67 -58t79 -18q6 -10 7 -37t-3 -31q-18 0 -105 7t-139 7q-54 0 -155 -7t-111 -7q-8 8 -8 36t8 32q80 0 116 30q12 12 12 30 t-32 105t-64 165l-30 78q-6 8 -12 8h-198q-128 0 -208 -4q-12 0 -12 -8q-54 -128 -82 -204q-36 -98 -36 -140q0 -32 55 -46t89 -14q6 -6 6 -33t-4 -35q-178 14 -204 14q-28 0 -214 -14q-6 6 -6 29zM372 1664q0 30 32 48t76 18q24 0 36 -6q58 -44 149 -133t91 -101t-8 -23 t-18 -11q-38 0 -198 80t-160 128zM414 580q0 -8 4 -8q70 -6 170 -6q72 0 164 6l6 10l-168 430z" />
<glyph unicode="&#xc1;" horiz-adv-x="1306" d="M-24 21q0 23 4 37q22 0 68 16t60 34q40 60 82 164q346 830 406 986q10 22 35 44t39 22q20 0 28 -8l408 -1042q16 -40 33 -85t21 -53q18 -40 67 -58t79 -18q6 -10 7 -37t-3 -31q-18 0 -105 7t-139 7q-54 0 -155 -7t-111 -7q-8 8 -8 36t8 32q80 0 116 30q12 12 12 30 t-32 105t-64 165l-30 78q-6 8 -12 8h-198q-128 0 -208 -4q-12 0 -12 -8q-54 -128 -82 -204q-36 -98 -36 -140q0 -32 55 -46t89 -14q6 -6 6 -33t-4 -35q-178 14 -204 14q-28 0 -214 -14q-6 6 -6 29zM414 580q0 -8 4 -8q70 -6 170 -6q72 0 164 6l6 10l-168 430zM610 1490 q0 12 90 101t148 133q12 6 36 6q44 0 77 -19t33 -47q0 -48 -161 -128t-199 -80q-8 0 -16 11t-8 23z" />
<glyph unicode="&#xc2;" horiz-adv-x="1306" d="M-24 21q0 23 4 37q22 0 68 16t60 34q40 60 82 164q346 830 406 986q10 22 35 44t39 22q20 0 28 -8l408 -1042q16 -40 33 -85t21 -53q18 -40 67 -58t79 -18q6 -10 7 -37t-3 -31q-18 0 -105 7t-139 7q-54 0 -155 -7t-111 -7q-8 8 -8 36t8 32q80 0 116 30q12 12 12 30 t-32 105t-64 165l-30 78q-6 8 -12 8h-198q-128 0 -208 -4q-12 0 -12 -8q-54 -128 -82 -204q-36 -98 -36 -140q0 -32 55 -46t89 -14q6 -6 6 -33t-4 -35q-178 14 -204 14q-28 0 -214 -14q-6 6 -6 29zM410 1494l46 40q46 40 88 82q58 56 86 94q16 18 22 18q12 0 26 -18 q72 -84 80 -92q34 -34 67 -63t52 -44t21 -17q0 -38 -20 -38q-38 0 -224 120q-48 -34 -127 -77t-97 -43q-20 0 -20 38zM414 580q0 -8 4 -8q70 -6 170 -6q72 0 164 6l6 10l-168 430z" />
<glyph unicode="&#xc3;" horiz-adv-x="1306" d="M-24 21q0 23 4 37q22 0 68 16t60 34q40 60 82 164q346 830 406 986q10 22 35 44t39 22q20 0 28 -8l408 -1042q16 -40 33 -85t21 -53q18 -40 67 -58t79 -18q6 -10 7 -37t-3 -31q-18 0 -105 7t-139 7q-54 0 -155 -7t-111 -7q-8 8 -8 36t8 32q80 0 116 30q12 12 12 30 t-32 105t-64 165l-30 78q-6 8 -12 8h-198q-128 0 -208 -4q-12 0 -12 -8q-54 -128 -82 -204q-36 -98 -36 -140q0 -32 55 -46t89 -14q6 -6 6 -33t-4 -35q-178 14 -204 14q-28 0 -214 -14q-6 6 -6 29zM340 1498q0 44 32 84q68 84 162 84q66 0 158 -50q100 -56 144 -56 q42 0 74 20t52 43t24 25q6 0 11 -9t5 -15q0 -42 -34 -84q-68 -84 -162 -84q-64 0 -156 50q-104 58 -146 58t-74 -21t-52 -45t-24 -26q-14 0 -14 26zM414 580q0 -8 4 -8q70 -6 170 -6q72 0 164 6l6 10l-168 430z" />
<glyph unicode="&#xc4;" horiz-adv-x="1306" d="M-24 21q0 23 4 37q22 0 68 16t60 34q40 60 82 164q346 830 406 986q10 22 35 44t39 22q20 0 28 -8l408 -1042q16 -40 33 -85t21 -53q18 -40 67 -58t79 -18q6 -10 7 -37t-3 -31q-18 0 -105 7t-139 7q-54 0 -155 -7t-111 -7q-8 8 -8 36t8 32q80 0 116 30q12 12 12 30 t-32 105t-64 165l-30 78q-6 8 -12 8h-198q-128 0 -208 -4q-12 0 -12 -8q-54 -128 -82 -204q-36 -98 -36 -140q0 -32 55 -46t89 -14q6 -6 6 -33t-4 -35q-178 14 -204 14q-28 0 -214 -14q-6 6 -6 29zM340 1572q0 48 35 82t83 34t83 -34t35 -82t-35 -82t-83 -34t-83 34t-35 82z M414 580q0 -8 4 -8q70 -6 170 -6q72 0 164 6l6 10l-168 430zM766 1572q0 48 35 82t83 34t83 -34t35 -82t-36 -82t-84 -34t-82 34t-34 82z" />
<glyph unicode="&#xc5;" horiz-adv-x="1306" d="M-24 21q0 23 4 37q22 0 68 16t60 34q40 60 82 164q346 830 406 986q10 22 35 44t39 22q20 0 28 -8l408 -1042q16 -40 33 -85t21 -53q18 -40 67 -58t79 -18q6 -10 7 -37t-3 -31q-18 0 -105 7t-139 7q-54 0 -155 -7t-111 -7q-8 8 -8 36t8 32q80 0 116 30q12 12 12 30 t-32 105t-64 165l-30 78q-6 8 -12 8h-198q-128 0 -208 -4q-12 0 -12 -8q-54 -128 -82 -204q-36 -98 -36 -140q0 -32 55 -46t89 -14q6 -6 6 -33t-4 -35q-178 14 -204 14q-28 0 -214 -14q-6 6 -6 29zM414 580q0 -8 4 -8q70 -6 170 -6q72 0 164 6l6 10l-168 430zM484 1512 q0 78 55 132t133 54q76 0 131 -54t55 -132t-55 -134t-131 -56t-132 56t-56 134zM564 1512q0 -46 32 -78t76 -32t76 32t32 78q0 44 -32 76t-76 32t-76 -32t-32 -76z" />
<glyph unicode="&#xc6;" horiz-adv-x="1774" d="M-54 28q54 28 78 62q98 80 106 90q30 20 368 560l276 452q-2 8 -13 15t-25 13t-18 8q-4 30 -46 60q6 0 56 7t103 12t101 5q64 0 311 8t335 8q8 -58 32 -161t28 -123q-10 -10 -42 -10q-24 0 -30 14q-32 102 -85 147t-139 45h-170q-110 0 -118 -22q-12 -34 -12 -132v-362 q0 -18 88 -18h106q114 0 144 23t54 119q4 16 26 16q26 0 38 -12v-380q-8 -8 -36 -8q-24 0 -30 16q-30 110 -62 128q-28 14 -182 14q-146 0 -146 -22v-344q0 -120 16 -148q24 -28 136 -28h114q142 0 218 56q74 58 118 196q4 12 28 12q42 0 54 -12q-6 -18 -29 -82t-35 -97 t-26 -81t-18 -78q-78 0 -422 3t-406 3q-20 2 -40 5t-34 7t-25 7t-16 7t-3 6t17 11t29 18t18 15q70 70 74 118q8 32 8 166q-18 0 -45 60t-35 60h-186q-20 0 -35 -2t-35 -4t-38 -4q-8 0 -60 -90q-34 -52 -110 -184q-20 -46 24 -112q2 -12 12 -23t21 -18t21 -15l12 -6 q-18 0 -54 -10t-56 -12q-114 2 -206 -2q-28 2 -57 14t-45 16zM504 580q-2 -8 2 -8q46 -4 154 -4q110 0 156 4v510z" />
<glyph unicode="&#xc7;" horiz-adv-x="1352" d="M90 644q0 286 197 488t487 202q232 0 420 -40q0 -2 15 -74t29 -143t14 -81q0 -12 -16 -22t-32 -10q-20 0 -28 10q-8 40 -25 76t-57 88t-119 84t-187 32q-204 0 -321 -166t-117 -392q0 -164 49 -302t160 -232t265 -94q158 0 256 88q54 48 88 121t44 119q48 0 68 -20 q0 -32 -30 -158t-48 -138q-202 -92 -434 -92q-288 0 -483 190t-195 466zM628 -276q0 10 7 17t13 7q4 0 36 -15t56 -15q48 0 74 20t26 50q0 34 -18 55t-46 21q-12 0 -60 -16q-4 0 -15 12t-9 20q60 102 68 118h58q-32 -42 -36 -52q4 0 26 1t28 1q44 0 75 -32t31 -78 q0 -78 -60 -128t-154 -50q-58 0 -92 26q-8 16 -8 38z" />
<glyph unicode="&#xc8;" horiz-adv-x="1192" d="M80 28q0 24 6 32q32 0 79 8t53 24q14 42 14 168v796q0 126 -14 168q-6 16 -54 25t-78 9q-6 10 -6 34t6 32q160 -12 260 -12q64 0 312 8t336 8q8 -60 32 -167t26 -117q-10 -10 -42 -10q-24 0 -30 14q-32 102 -85 147t-139 45h-168q-112 0 -120 -22t-8 -132v-362 q0 -18 84 -18h106q114 0 144 23t54 119q4 16 28 16t36 -12v-380q-8 -8 -34 -8q-24 0 -30 16q-30 108 -64 128q-28 14 -182 14q-142 0 -142 -22v-340q0 -132 12 -152q24 -28 136 -28h124q140 0 210 56q72 58 116 196q2 12 28 12q44 0 56 -12q-6 -18 -29 -82t-35 -97t-26 -81 t-18 -78q-52 0 -294 2t-392 2q-68 0 -156 -2t-106 -2q-6 10 -6 34zM330 1664q0 30 32 48t76 18q24 0 36 -6q58 -44 149 -133t91 -101t-8 -23t-18 -11q-38 0 -198 80t-160 128z" />
<glyph unicode="&#xc9;" horiz-adv-x="1192" d="M80 28q0 24 6 32q32 0 79 8t53 24q14 42 14 168v796q0 126 -14 168q-6 16 -54 25t-78 9q-6 10 -6 34t6 32q160 -12 260 -12q64 0 312 8t336 8q8 -60 32 -167t26 -117q-10 -10 -42 -10q-24 0 -30 14q-32 102 -85 147t-139 45h-168q-112 0 -120 -22t-8 -132v-362 q0 -18 84 -18h106q114 0 144 23t54 119q4 16 28 16t36 -12v-380q-8 -8 -34 -8q-24 0 -30 16q-30 108 -64 128q-28 14 -182 14q-142 0 -142 -22v-340q0 -132 12 -152q24 -28 136 -28h124q140 0 210 56q72 58 116 196q2 12 28 12q44 0 56 -12q-6 -18 -29 -82t-35 -97t-26 -81 t-18 -78q-52 0 -294 2t-392 2q-68 0 -156 -2t-106 -2q-6 10 -6 34zM494 1490q0 12 90 101t148 133q12 6 36 6q44 0 77 -19t33 -47q0 -48 -161 -128t-199 -80q-8 0 -16 11t-8 23z" />
<glyph unicode="&#xca;" horiz-adv-x="1192" d="M80 28q0 24 6 32q32 0 79 8t53 24q14 42 14 168v796q0 126 -14 168q-6 16 -54 25t-78 9q-6 10 -6 34t6 32q160 -12 260 -12q64 0 312 8t336 8q8 -60 32 -167t26 -117q-10 -10 -42 -10q-24 0 -30 14q-32 102 -85 147t-139 45h-168q-112 0 -120 -22t-8 -132v-362 q0 -18 84 -18h106q114 0 144 23t54 119q4 16 28 16t36 -12v-380q-8 -8 -34 -8q-24 0 -30 16q-30 108 -64 128q-28 14 -182 14q-142 0 -142 -22v-340q0 -132 12 -152q24 -28 136 -28h124q140 0 210 56q72 58 116 196q2 12 28 12q44 0 56 -12q-6 -18 -29 -82t-35 -97t-26 -81 t-18 -78q-52 0 -294 2t-392 2q-68 0 -156 -2t-106 -2q-6 10 -6 34zM358 1494l46 40q46 40 88 82q58 56 86 94q16 18 22 18q12 0 26 -18q72 -84 80 -92q34 -34 67 -63t52 -44t21 -17q0 -38 -20 -38q-38 0 -224 120q-48 -34 -127 -77t-97 -43q-20 0 -20 38z" />
<glyph unicode="&#xcb;" horiz-adv-x="1192" d="M80 28q0 24 6 32q32 0 79 8t53 24q14 42 14 168v796q0 126 -14 168q-6 16 -54 25t-78 9q-6 10 -6 34t6 32q160 -12 260 -12q64 0 312 8t336 8q8 -60 32 -167t26 -117q-10 -10 -42 -10q-24 0 -30 14q-32 102 -85 147t-139 45h-168q-112 0 -120 -22t-8 -132v-362 q0 -18 84 -18h106q114 0 144 23t54 119q4 16 28 16t36 -12v-380q-8 -8 -34 -8q-24 0 -30 16q-30 108 -64 128q-28 14 -182 14q-142 0 -142 -22v-340q0 -132 12 -152q24 -28 136 -28h124q140 0 210 56q72 58 116 196q2 12 28 12q44 0 56 -12q-6 -18 -29 -82t-35 -97t-26 -81 t-18 -78q-52 0 -294 2t-392 2q-68 0 -156 -2t-106 -2q-6 10 -6 34zM260 1572q0 48 35 82t83 34t83 -34t35 -82t-35 -82t-83 -34t-83 34t-35 82zM686 1572q0 48 35 82t83 34t83 -34t35 -82t-36 -82t-84 -34t-82 34t-34 82z" />
<glyph unicode="&#xcc;" horiz-adv-x="690" d="M80 24q0 24 6 34q30 0 78 9t54 25q14 42 14 168v796q0 126 -14 168q-6 16 -54 25t-78 9q-6 10 -6 34t6 32q160 -12 260 -12q98 0 258 12q6 -8 6 -32t-6 -34q-30 0 -78 -9t-54 -25q-12 -36 -12 -168v-796q0 -132 12 -168q6 -16 54 -25t78 -9q6 -10 6 -34t-6 -32 q-160 12 -260 12q-98 0 -258 -12q-6 8 -6 32zM106 1664q0 30 32 48t76 18q24 0 36 -6q58 -44 149 -133t91 -101t-8 -23t-18 -11q-38 0 -198 80t-160 128z" />
<glyph unicode="&#xcd;" horiz-adv-x="690" d="M80 24q0 24 6 34q30 0 78 9t54 25q14 42 14 168v796q0 126 -14 168q-6 16 -54 25t-78 9q-6 10 -6 34t6 32q160 -12 260 -12q98 0 258 12q6 -8 6 -32t-6 -34q-30 0 -78 -9t-54 -25q-12 -36 -12 -168v-796q0 -132 12 -168q6 -16 54 -25t78 -9q6 -10 6 -34t-6 -32 q-160 12 -260 12q-98 0 -258 -12q-6 8 -6 32zM210 1490q0 12 90 101t148 133q12 6 36 6q44 0 77 -19t33 -47q0 -48 -161 -128t-199 -80q-8 0 -16 11t-8 23z" />
<glyph unicode="&#xce;" horiz-adv-x="690" d="M80 24q0 24 6 34q30 0 78 9t54 25q14 42 14 168v796q0 126 -14 168q-6 16 -54 25t-78 9q-6 10 -6 34t6 32q160 -12 260 -12q98 0 258 12q6 -8 6 -32t-6 -34q-30 0 -78 -9t-54 -25q-12 -36 -12 -168v-796q0 -132 12 -168q6 -16 54 -25t78 -9q6 -10 6 -34t-6 -32 q-160 12 -260 12q-98 0 -258 -12q-6 8 -6 32zM106 1494l46 40q46 40 88 82q58 56 86 94q16 18 22 18q12 0 26 -18q72 -84 80 -92q34 -34 67 -63t52 -44t21 -17q0 -38 -20 -38q-38 0 -224 120q-48 -34 -127 -77t-97 -43q-20 0 -20 38z" />
<glyph unicode="&#xcf;" horiz-adv-x="690" d="M14 1572q0 48 35 82t83 34t83 -34t35 -82t-35 -82t-83 -34t-83 34t-35 82zM80 24q0 24 6 34q30 0 78 9t54 25q14 42 14 168v796q0 126 -14 168q-6 16 -54 25t-78 9q-6 10 -6 34t6 32q160 -12 260 -12q98 0 258 12q6 -8 6 -32t-6 -34q-30 0 -78 -9t-54 -25 q-12 -36 -12 -168v-796q0 -132 12 -168q6 -16 54 -25t78 -9q6 -10 6 -34t-6 -32q-160 12 -260 12q-98 0 -258 -12q-6 8 -6 32zM440 1572q0 48 35 82t83 34t83 -34t35 -82t-36 -82t-84 -34t-82 34t-34 82z" />
<glyph unicode="&#xd0;" horiz-adv-x="1478" d="M78 635q-2 15 0 34t8 27h664q6 0 6 -31t-6 -45h-666q-4 0 -6 15zM86 28q0 24 6 32q32 0 79 8t53 24q14 42 14 168v796q0 126 -14 168q-6 16 -53 24t-79 8q-6 8 -6 32t6 34q172 -8 260 -8q36 0 140 2t158 2q336 0 536 -177t200 -471q0 -310 -195 -493t-561 -183h-538 q-6 10 -6 34zM466 260q0 -122 14 -152q22 -38 144 -38q236 0 370 142t134 426q0 300 -150 453t-384 153q-108 0 -118 -24q-10 -28 -10 -134v-826z" />
<glyph unicode="&#xd1;" horiz-adv-x="1538" d="M66 25q0 23 6 33q30 0 89 13t69 33q22 42 22 170v788q0 114 -28 158q-10 16 -64 28t-80 12q-8 8 -8 33t6 33q190 -10 218 -10q92 0 184 8q38 -70 162 -225t293 -361t259 -324q2 8 2 98v508q0 154 -22 198q-10 18 -67 30t-89 12q-6 6 -7 30t5 36q28 -2 106 -8t130 -6 t130 6t106 8q14 -40 -2 -66q-32 0 -92 -12t-70 -32q-20 -40 -20 -192v-746q0 -72 8 -280q-8 -8 -44 -8q-32 0 -64 46l-842 1052v-816q0 -128 20 -166q8 -18 69 -32t89 -14q18 -24 4 -68q-18 0 -103 7t-137 7t-125 -6t-107 -8q-6 10 -6 33zM452 1498q0 44 32 84q68 84 162 84 q66 0 158 -50q100 -56 144 -56q42 0 74 20t52 43t24 25q6 0 11 -9t5 -15q0 -42 -34 -84q-68 -84 -162 -84q-64 0 -156 50q-104 58 -146 58t-74 -21t-52 -45t-24 -26q-14 0 -14 26z" />
<glyph unicode="&#xd2;" horiz-adv-x="1504" d="M88 656q0 278 199 478t465 200q268 0 467 -197t199 -481q0 -278 -200 -477t-466 -199q-268 0 -466 196t-198 480zM348 712q0 -162 45 -306t149 -245t248 -101q126 0 213 84t121 201t34 255q0 162 -46 307t-150 246t-248 101q-96 0 -169 -48t-115 -128t-62 -172t-20 -194z M468 1664q0 30 32 48t76 18q24 0 36 -6q58 -44 149 -133t91 -101t-8 -23t-18 -11q-38 0 -198 80t-160 128z" />
<glyph unicode="&#xd3;" horiz-adv-x="1504" d="M88 656q0 278 199 478t465 200q268 0 467 -197t199 -481q0 -278 -200 -477t-466 -199q-268 0 -466 196t-198 480zM348 712q0 -162 45 -306t149 -245t248 -101q126 0 213 84t121 201t34 255q0 162 -46 307t-150 246t-248 101q-96 0 -169 -48t-115 -128t-62 -172t-20 -194z M654 1490q0 12 90 101t148 133q12 6 36 6q44 0 77 -19t33 -47q0 -48 -161 -128t-199 -80q-8 0 -16 11t-8 23z" />
<glyph unicode="&#xd4;" horiz-adv-x="1504" d="M88 656q0 278 199 478t465 200q268 0 467 -197t199 -481q0 -278 -200 -477t-466 -199q-268 0 -466 196t-198 480zM348 712q0 -162 45 -306t149 -245t248 -101q126 0 213 84t121 201t34 255q0 162 -46 307t-150 246t-248 101q-96 0 -169 -48t-115 -128t-62 -172t-20 -194z M508 1494l46 40q46 40 88 82q58 56 86 94q16 18 22 18q12 0 26 -18q72 -84 80 -92q34 -34 67 -63t52 -44t21 -17q0 -38 -20 -38q-38 0 -224 120q-48 -34 -127 -77t-97 -43q-20 0 -20 38z" />
<glyph unicode="&#xd5;" horiz-adv-x="1504" d="M88 656q0 278 199 478t465 200q268 0 467 -197t199 -481q0 -278 -200 -477t-466 -199q-268 0 -466 196t-198 480zM348 712q0 -162 45 -306t149 -245t248 -101q126 0 213 84t121 201t34 255q0 162 -46 307t-150 246t-248 101q-96 0 -169 -48t-115 -128t-62 -172t-20 -194z M426 1498q0 44 32 84q68 84 162 84q66 0 158 -50q100 -56 144 -56q42 0 74 20t52 43t24 25q6 0 11 -9t5 -15q0 -42 -34 -84q-68 -84 -162 -84q-64 0 -156 50q-104 58 -146 58t-74 -21t-52 -45t-24 -26q-14 0 -14 26z" />
<glyph unicode="&#xd6;" horiz-adv-x="1504" d="M88 656q0 278 199 478t465 200q268 0 467 -197t199 -481q0 -278 -200 -477t-466 -199q-268 0 -466 196t-198 480zM348 712q0 -162 45 -306t149 -245t248 -101q126 0 213 84t121 201t34 255q0 162 -46 307t-150 246t-248 101q-96 0 -169 -48t-115 -128t-62 -172t-20 -194z M422 1572q0 48 35 82t83 34t83 -34t35 -82t-35 -82t-83 -34t-83 34t-35 82zM848 1572q0 48 35 82t83 34t83 -34t35 -82t-36 -82t-84 -34t-82 34t-34 82z" />
<glyph unicode="&#xd7;" horiz-adv-x="930" d="M110 212q278 276 286 284l-286 284q0 20 19 50t33 30q10 0 14 -4q292 -282 296 -286l288 286q4 4 12 4q12 0 30 -34t18 -50q-272 -270 -278 -276l278 -288q0 -24 -16 -54t-32 -30q-10 0 -14 4l-292 292l-296 -294q-4 -4 -12 -4q-12 0 -30 35t-18 51z" />
<glyph unicode="&#xd8;" horiz-adv-x="1504" d="M88 656q0 278 199 478t465 200q268 0 467 -197t199 -481q0 -278 -200 -477t-466 -199q-268 0 -466 196t-198 480zM312 14l796 1330q16 -4 43 -20t23 -24l-794 -1332q-10 4 -26 12t-30 18t-12 16zM348 712q0 -162 45 -306t149 -245t248 -101q126 0 213 84t121 201t34 255 q0 162 -46 307t-150 246t-248 101q-96 0 -169 -48t-115 -128t-62 -172t-20 -194z" />
<glyph unicode="&#xd9;" horiz-adv-x="1456" d="M48 1292q0 24 6 32q160 -12 262 -12q98 0 258 12q6 -8 6 -32t-6 -34q-30 0 -79 -9t-55 -25q-12 -36 -12 -168v-430q0 -232 74 -354q84 -154 288 -154q154 0 254 111t102 355v440q0 144 -24 192q-10 18 -63 31t-83 13q-8 10 -8 32t6 32q176 -12 236 -12q52 0 126 5t100 7 q6 -10 7 -30t-7 -34q-32 0 -89 -12t-67 -32q-24 -54 -24 -190v-464q0 -288 -148 -431t-388 -143q-252 0 -390 152q-130 142 -130 412v504q0 138 -12 168q-6 16 -55 25t-79 9q-6 10 -6 34zM458 1664q0 30 32 48t76 18q24 0 36 -6q58 -44 149 -133t91 -101t-8 -23t-18 -11 q-38 0 -198 80t-160 128z" />
<glyph unicode="&#xda;" horiz-adv-x="1456" d="M48 1292q0 24 6 32q160 -12 262 -12q98 0 258 12q6 -8 6 -32t-6 -34q-30 0 -79 -9t-55 -25q-12 -36 -12 -168v-430q0 -232 74 -354q84 -154 288 -154q154 0 254 111t102 355v440q0 144 -24 192q-10 18 -63 31t-83 13q-8 10 -8 32t6 32q176 -12 236 -12q52 0 126 5t100 7 q6 -10 7 -30t-7 -34q-32 0 -89 -12t-67 -32q-24 -54 -24 -190v-464q0 -288 -148 -431t-388 -143q-252 0 -390 152q-130 142 -130 412v504q0 138 -12 168q-6 16 -55 25t-79 9q-6 10 -6 34zM752 1490q0 12 90 101t148 133q12 6 36 6q44 0 77 -19t33 -47q0 -48 -161 -128 t-199 -80q-8 0 -16 11t-8 23z" />
<glyph unicode="&#xdb;" horiz-adv-x="1456" d="M48 1292q0 24 6 32q160 -12 262 -12q98 0 258 12q6 -8 6 -32t-6 -34q-30 0 -79 -9t-55 -25q-12 -36 -12 -168v-430q0 -232 74 -354q84 -154 288 -154q154 0 254 111t102 355v440q0 144 -24 192q-10 18 -63 31t-83 13q-8 10 -8 32t6 32q176 -12 236 -12q52 0 126 5t100 7 q6 -10 7 -30t-7 -34q-32 0 -89 -12t-67 -32q-24 -54 -24 -190v-464q0 -288 -148 -431t-388 -143q-252 0 -390 152q-130 142 -130 412v504q0 138 -12 168q-6 16 -55 25t-79 9q-6 10 -6 34zM534 1494l46 40q46 40 88 82q58 56 86 94q16 18 22 18q12 0 26 -18q72 -84 80 -92 q34 -34 67 -63t52 -44t21 -17q0 -38 -20 -38q-38 0 -224 120q-48 -34 -127 -77t-97 -43q-20 0 -20 38z" />
<glyph unicode="&#xdc;" horiz-adv-x="1456" d="M48 1292q0 24 6 32q160 -12 262 -12q98 0 258 12q6 -8 6 -32t-6 -34q-30 0 -79 -9t-55 -25q-12 -36 -12 -168v-430q0 -232 74 -354q84 -154 288 -154q154 0 254 111t102 355v440q0 144 -24 192q-10 18 -63 31t-83 13q-8 10 -8 32t6 32q176 -12 236 -12q52 0 126 5t100 7 q6 -10 7 -30t-7 -34q-32 0 -89 -12t-67 -32q-24 -54 -24 -190v-464q0 -288 -148 -431t-388 -143q-252 0 -390 152q-130 142 -130 412v504q0 138 -12 168q-6 16 -55 25t-79 9q-6 10 -6 34zM454 1572q0 48 35 82t83 34t83 -34t35 -82t-35 -82t-83 -34t-83 34t-35 82zM880 1572 q0 48 35 82t83 34t83 -34t35 -82t-36 -82t-84 -34t-82 34t-34 82z" />
<glyph unicode="&#xdd;" horiz-adv-x="1222" d="M-15 1289q1 25 7 35q176 -12 268 -12q110 0 270 12q6 -10 6 -35t-8 -31q-122 0 -122 -58q0 -14 20 -48l256 -456q94 148 258 474q8 24 8 38q0 18 -47 33t-99 15q-6 6 -6 34t4 34q168 -12 216 -12q56 0 132 6t90 6q4 -8 4 -35t-6 -33q-124 0 -162 -64q-252 -418 -342 -592 q-10 -18 -10 -52v-288q0 -132 12 -168q6 -16 54 -25t78 -9q6 -10 6 -34t-6 -32q-160 12 -260 12q-98 0 -258 -12q-6 8 -6 32t6 34q30 0 78 9t54 25q14 42 14 168v292q0 16 -14 48q-38 70 -89 165t-105 190t-72 129q-40 72 -98 124q-22 24 -61 37t-63 13q-8 6 -7 31z M600 1490q0 12 90 101t148 133q12 6 36 6q44 0 77 -19t33 -47q0 -48 -161 -128t-199 -80q-8 0 -16 11t-8 23z" />
<glyph unicode="&#xde;" horiz-adv-x="1116" d="M80 24q0 24 6 34q30 0 78 9t54 25q14 42 14 168v796q0 126 -14 168q-6 16 -54 25t-78 9q-6 10 -6 34t6 32q160 -12 260 -12q98 0 258 12q6 -8 6 -32t-6 -34q-30 0 -78 -9t-54 -25q-14 -38 -14 -142q0 -2 1 -31t1 -33q56 12 162 12q182 0 312 -102t130 -260 q0 -168 -117 -283t-291 -115q-68 0 -114 34q-24 24 -24 46q0 14 8 14q20 -6 78 -6q98 0 162 76t64 198q0 136 -71 229t-197 93q-84 0 -94 -26q-8 -20 -8 -136v-532q0 -132 12 -168q6 -16 54 -25t78 -9q6 -10 6 -34t-6 -32q-160 12 -260 12q-98 0 -258 -12q-6 8 -6 32z" />
<glyph unicode="&#xdf;" horiz-adv-x="1134" d="M46 26q0 26 6 34q30 0 76 8t52 24q12 36 12 168v512h-116q-10 2 -10 22q10 18 58 66h68v20q0 190 132 351t274 161q144 0 247 -72t103 -196q0 -110 -110 -208q-12 -12 -45 -39t-48 -41t-30 -36t-15 -40q0 -12 4 -25t13 -27t17 -25t23 -25t25 -23t29 -23t29 -21l30 -21 t26 -18q56 -40 87 -67t62 -81t31 -114q0 -130 -92 -220t-210 -90q-68 0 -129 21t-81 49q-8 28 -8 50q2 48 23 80t59 32q12 0 24 -5t20 -10t17 -17t13 -18t13 -22t11 -20q38 -64 86 -64q94 0 94 128q0 44 -28 87t-55 66t-85 67q-8 6 -40 29t-43 32t-37 31t-37 38t-25 39 t-20 47t-6 52q0 26 13 52t27 42t43 46t41 44q90 100 90 218q0 100 -46 169t-132 69q-90 0 -133 -100t-43 -252v-700q0 -132 12 -168q6 -16 44 -24t66 -8q6 -8 6 -34t-6 -34q-160 12 -226 12q-84 0 -244 -12q-6 8 -6 34z" />
<glyph unicode="&#xe0;" horiz-adv-x="904" d="M66 220q0 56 32 101t72 59q168 58 360 134q12 14 12 46v52q0 74 -43 135t-103 61q-50 0 -75 -37t-39 -107q-20 -92 -102 -92q-36 0 -61 26t-25 62q0 32 20 66q50 48 160 103t214 55q108 0 184 -82t76 -206v-394q0 -88 54 -88q18 0 62 22q10 -2 10 -24q0 -20 -8 -34 q-30 -28 -83 -59t-95 -31q-44 0 -85 36t-53 80q-24 -24 -107 -72t-129 -48q-104 0 -176 71t-72 165zM176 1280q0 8 7 19t28 22t53 11q50 0 68 -18q34 -40 79 -106t75 -115t30 -55q0 -10 -9 -20t-19 -10q-26 0 -169 111t-143 161zM284 240q0 -58 40 -95t90 -37q42 0 85 24 t43 38v276q-146 -56 -160 -62q-98 -48 -98 -144z" />
<glyph unicode="&#xe1;" horiz-adv-x="904" d="M66 220q0 56 32 101t72 59q168 58 360 134q12 14 12 46v52q0 74 -43 135t-103 61q-50 0 -75 -37t-39 -107q-20 -92 -102 -92q-36 0 -61 26t-25 62q0 32 20 66q50 48 160 103t214 55q108 0 184 -82t76 -206v-394q0 -88 54 -88q18 0 62 22q10 -2 10 -24q0 -20 -8 -34 q-30 -28 -83 -59t-95 -31q-44 0 -85 36t-53 80q-24 -24 -107 -72t-129 -48q-104 0 -176 71t-72 165zM284 240q0 -58 40 -95t90 -37q42 0 85 24t43 38v276q-146 -56 -160 -62q-98 -48 -98 -144zM352 1038q0 6 30 56t75 116t79 104q18 18 68 18q32 0 53 -11t28 -22t7 -19 q0 -50 -143 -161t-169 -111q-10 0 -19 10t-9 20z" />
<glyph unicode="&#xe2;" horiz-adv-x="904" d="M66 220q0 56 32 101t72 59q168 58 360 134q12 14 12 46v52q0 74 -43 135t-103 61q-50 0 -75 -37t-39 -107q-20 -92 -102 -92q-36 0 -61 26t-25 62q0 32 20 66q50 48 160 103t214 55q108 0 184 -82t76 -206v-394q0 -88 54 -88q18 0 62 22q10 -2 10 -24q0 -20 -8 -34 q-30 -28 -83 -59t-95 -31q-44 0 -85 36t-53 80q-24 -24 -107 -72t-129 -48q-104 0 -176 71t-72 165zM258 1056q98 112 120 140q30 38 76 110q10 18 22 18q10 0 22 -18q2 -2 27 -42t45 -64q30 -38 59 -72t46 -52t19 -20q0 -48 -16 -48t-85 49t-117 91q-46 -42 -114 -91 t-84 -49q-20 0 -20 48zM284 240q0 -58 40 -95t90 -37q42 0 85 24t43 38v276q-146 -56 -160 -62q-98 -48 -98 -144z" />
<glyph unicode="&#xe3;" horiz-adv-x="904" d="M66 220q0 56 32 101t72 59q168 58 360 134q12 14 12 46v52q0 74 -43 135t-103 61q-50 0 -75 -37t-39 -107q-20 -92 -102 -92q-36 0 -61 26t-25 62q0 32 20 66q50 48 160 103t214 55q108 0 184 -82t76 -206v-394q0 -88 54 -88q18 0 62 22q10 -2 10 -24q0 -20 -8 -34 q-30 -28 -83 -59t-95 -31q-44 0 -85 36t-53 80q-24 -24 -107 -72t-129 -48q-104 0 -176 71t-72 165zM150 1052q0 36 28 88q56 88 136 88q48 0 134 -56q84 -56 130 -56q36 0 62 21t41 45t19 26q14 0 14 -22q0 -32 -32 -90q-56 -88 -136 -88q-52 0 -132 52q-90 60 -132 60 q-36 0 -60 -21t-37 -46t-17 -27q-18 0 -18 26zM284 240q0 -58 40 -95t90 -37q42 0 85 24t43 38v276q-146 -56 -160 -62q-98 -48 -98 -144z" />
<glyph unicode="&#xe4;" horiz-adv-x="904" d="M66 220q0 56 32 101t72 59q168 58 360 134q12 14 12 46v52q0 74 -43 135t-103 61q-50 0 -75 -37t-39 -107q-20 -92 -102 -92q-36 0 -61 26t-25 62q0 32 20 66q50 48 160 103t214 55q108 0 184 -82t76 -206v-394q0 -88 54 -88q18 0 62 22q10 -2 10 -24q0 -20 -8 -34 q-30 -28 -83 -59t-95 -31q-44 0 -85 36t-53 80q-24 -24 -107 -72t-129 -48q-104 0 -176 71t-72 165zM110 1126q0 48 35 81t83 33t83 -34t35 -82t-35 -82t-83 -34t-83 35t-35 83zM284 240q0 -58 40 -95t90 -37q42 0 85 24t43 38v276q-146 -56 -160 -62q-98 -48 -98 -144z M504 1126q0 48 35 81t83 33t83 -34t35 -82t-36 -82t-84 -34t-82 35t-34 83z" />
<glyph unicode="&#xe5;" horiz-adv-x="904" d="M66 220q0 56 32 101t72 59q168 58 360 134q12 14 12 46v52q0 74 -43 135t-103 61q-50 0 -75 -37t-39 -107q-20 -92 -102 -92q-36 0 -61 26t-25 62q0 32 20 66q50 48 160 103t214 55q108 0 184 -82t76 -206v-394q0 -88 54 -88q18 0 62 22q10 -2 10 -24q0 -20 -8 -34 q-30 -28 -83 -59t-95 -31q-44 0 -85 36t-53 80q-24 -24 -107 -72t-129 -48q-104 0 -176 71t-72 165zM248 1218q0 86 62 148t150 62q86 0 147 -61t61 -149t-61 -149t-147 -61q-88 0 -150 62t-62 148zM284 240q0 -58 40 -95t90 -37q42 0 85 24t43 38v276q-146 -56 -160 -62 q-98 -48 -98 -144zM332 1218q0 -52 38 -89t90 -37t88 37t36 89t-36 90t-88 38t-90 -38t-38 -90z" />
<glyph unicode="&#xe6;" horiz-adv-x="1348" d="M66 220q0 56 30 100t70 60q48 20 192 74l176 66q16 10 20 36q2 30 0 64q-8 78 -52 133t-106 55q-50 0 -75 -37t-39 -109q-20 -90 -102 -90q-36 0 -61 26t-25 62t20 66q44 44 156 101t216 57q134 0 210 -116q120 116 254 116q88 0 156 -30t102 -77t50 -92t16 -87 q0 -86 -52 -90q-116 -10 -492 -18q-2 -182 92 -270t212 -88q130 0 222 102q20 -6 20 -32q0 -18 -10 -38q-40 -62 -126 -121t-200 -59q-100 0 -188 40t-138 116q-62 -54 -157 -105t-143 -51q-104 0 -176 71t-72 165zM284 240q0 -58 40 -95t90 -37q48 0 104 32t56 66 q-26 68 -34 182v56q-144 -52 -158 -60q-98 -48 -98 -144zM738 566q224 0 292 8q36 0 36 40q0 66 -36 130t-108 64q-50 0 -89 -32t-58 -77t-28 -81t-9 -52z" />
<glyph unicode="&#xe7;" horiz-adv-x="868" d="M70 394q0 196 158 344t346 148q130 0 192 -42q28 -32 28 -76q0 -48 -28 -79t-68 -31q-22 0 -41 12t-44 39t-31 31q-60 50 -126 50q-72 0 -127 -91t-55 -215q0 -178 88 -264t218 -86q128 0 218 100q20 -6 20 -32q0 -22 -8 -38q-40 -60 -127 -120t-201 -60q-174 0 -293 117 t-119 293zM336 -240q0 12 4 12q56 -28 100 -28t65 19t21 45q0 28 -16 47t-42 19q-16 0 -52 -14q-4 0 -14 11t-8 17q42 70 60 106h54q-28 -38 -32 -46q4 0 24 1t24 1q38 0 66 -29t28 -69q0 -70 -51 -115t-129 -45q-60 0 -90 30q-12 24 -12 38z" />
<glyph unicode="&#xe8;" horiz-adv-x="890" d="M72 400q0 190 132 337t288 147q88 0 156 -30t102 -77t50 -92t16 -87q0 -88 -50 -90q-114 -10 -494 -18q-2 -182 92 -270t212 -88q132 0 224 102q20 -6 20 -32q0 -18 -10 -38q-40 -62 -126 -121t-200 -59q-176 0 -294 116t-118 300zM252 1306q0 8 7 19t28 22t53 11 q50 0 68 -18q34 -40 79 -106t75 -115t30 -55q0 -10 -9 -20t-19 -10q-26 0 -169 111t-143 161zM280 566q224 0 292 8q36 0 36 40q0 66 -36 130t-108 64q-50 0 -89 -32t-58 -77t-28 -81t-9 -52z" />
<glyph unicode="&#xe9;" horiz-adv-x="890" d="M72 400q0 190 132 337t288 147q88 0 156 -30t102 -77t50 -92t16 -87q0 -88 -50 -90q-114 -10 -494 -18q-2 -182 92 -270t212 -88q132 0 224 102q20 -6 20 -32q0 -18 -10 -38q-40 -62 -126 -121t-200 -59q-176 0 -294 116t-118 300zM280 566q224 0 292 8q36 0 36 40 q0 66 -36 130t-108 64q-50 0 -89 -32t-58 -77t-28 -81t-9 -52zM404 1064q0 6 30 56t75 116t79 104q18 18 68 18q32 0 53 -11t28 -22t7 -19q0 -50 -143 -161t-169 -111q-10 0 -19 10t-9 20z" />
<glyph unicode="&#xea;" horiz-adv-x="890" d="M72 400q0 190 132 337t288 147q88 0 156 -30t102 -77t50 -92t16 -87q0 -88 -50 -90q-114 -10 -494 -18q-2 -182 92 -270t212 -88q132 0 224 102q20 -6 20 -32q0 -18 -10 -38q-40 -62 -126 -121t-200 -59q-176 0 -294 116t-118 300zM266 1056q98 112 120 140q30 38 76 110 q10 18 22 18q10 0 22 -18q2 -2 27 -42t45 -64q30 -38 59 -72t46 -52t19 -20q0 -48 -16 -48t-85 49t-117 91q-46 -42 -114 -91t-84 -49q-20 0 -20 48zM280 566q224 0 292 8q36 0 36 40q0 66 -36 130t-108 64q-50 0 -89 -32t-58 -77t-28 -81t-9 -52z" />
<glyph unicode="&#xeb;" horiz-adv-x="890" d="M72 400q0 190 132 337t288 147q88 0 156 -30t102 -77t50 -92t16 -87q0 -88 -50 -90q-114 -10 -494 -18q-2 -182 92 -270t212 -88q132 0 224 102q20 -6 20 -32q0 -18 -10 -38q-40 -62 -126 -121t-200 -59q-176 0 -294 116t-118 300zM150 1100q0 48 35 81t83 33t83 -34 t35 -82t-35 -82t-83 -34t-83 35t-35 83zM280 566q224 0 292 8q36 0 36 40q0 66 -36 130t-108 64q-50 0 -89 -32t-58 -77t-28 -81t-9 -52zM544 1100q0 48 35 81t83 33t83 -34t35 -82t-36 -82t-84 -34t-82 35t-34 83z" />
<glyph unicode="&#xec;" horiz-adv-x="588" d="M65 764q-1 24 5 28q184 18 338 96q8 -2 18 -15t10 -19q-16 -64 -16 -124v-96v-374q0 -132 12 -168q6 -16 49 -25t71 -9q6 -10 6 -34t-6 -32q-160 12 -238 12q-82 0 -242 -12q-6 8 -6 32t6 34q28 0 74 9t52 25q14 42 14 168v304q0 102 -14 134q-10 20 -55 29t-73 9 q-4 4 -5 28zM82 1306q0 8 7 19t28 22t53 11q50 0 68 -18q34 -40 79 -106t75 -115t30 -55q0 -10 -9 -20t-19 -10q-26 0 -169 111t-143 161z" />
<glyph unicode="&#xed;" horiz-adv-x="588" d="M65 764q-1 24 5 28q184 18 338 96q8 -2 18 -15t10 -19q-16 -64 -16 -124v-96v-374q0 -132 12 -168q6 -16 49 -25t71 -9q6 -10 6 -34t-6 -32q-160 12 -238 12q-82 0 -242 -12q-6 8 -6 32t6 34q28 0 74 9t52 25q14 42 14 168v304q0 102 -14 134q-10 20 -55 29t-73 9 q-4 4 -5 28zM176 1064q0 6 30 56t75 116t79 104q18 18 68 18q32 0 53 -11t28 -22t7 -19q0 -50 -143 -161t-169 -111q-10 0 -19 10t-9 20z" />
<glyph unicode="&#xee;" horiz-adv-x="588" d="M65 764q-1 24 5 28q184 18 338 96q8 -2 18 -15t10 -19q-16 -64 -16 -124v-96v-374q0 -132 12 -168q6 -16 49 -25t71 -9q6 -10 6 -34t-6 -32q-160 12 -238 12q-82 0 -242 -12q-6 8 -6 32t6 34q28 0 74 9t52 25q14 42 14 168v304q0 102 -14 134q-10 20 -55 29t-73 9 q-4 4 -5 28zM82 1056q98 112 120 140q30 38 76 110q10 18 22 18q10 0 22 -18q2 -2 27 -42t45 -64q30 -38 59 -72t46 -52t19 -20q0 -48 -16 -48t-85 49t-117 91q-46 -42 -114 -91t-84 -49q-20 0 -20 48z" />
<glyph unicode="&#xef;" horiz-adv-x="588" d="M-2 1108q0 48 37 83t85 35t83 -35t35 -83t-36 -83t-84 -35t-84 35t-36 83zM67 764q-1 24 5 28q184 18 338 96q8 -2 18 -15t10 -19q-16 -64 -16 -124v-96v-374q0 -132 12 -168q6 -16 49 -25t71 -9q6 -10 6 -34t-6 -32q-160 12 -238 12q-82 0 -242 -12q-6 8 -6 32t6 34 q28 0 74 9t52 25q14 42 14 168v304q0 102 -14 134q-10 20 -55 29t-73 9q-4 4 -5 28zM362 1108q0 48 36 83t84 35t84 -35t36 -83t-37 -83t-85 -35t-83 35t-35 83z" />
<glyph unicode="&#xf0;" horiz-adv-x="1060" d="M74 428q0 198 121 329t299 131q88 0 148 -24q-58 166 -180 282l-200 -134q-50 52 -36 66l178 120q-96 76 -226 130q-4 42 20 52q140 -26 294 -122l222 150q52 -52 38 -66l-192 -130q98 -70 172 -156q220 -252 220 -550q0 -230 -126 -374t-308 -144q-188 0 -316 118 t-128 322zM298 440q0 -158 67 -267t159 -109q102 0 152 104t50 260q0 176 -50 276q-62 108 -178 108q-72 0 -119 -57t-64 -136t-17 -179z" />
<glyph unicode="&#xf1;" horiz-adv-x="1130" d="M57 764q-1 24 5 28q184 18 338 96q8 0 18 -13t10 -21q-16 -64 -16 -114q0 -12 4 -12q2 0 10 8q44 48 127 98t147 50q158 0 212 -103t54 -345v-176q0 -132 12 -168q6 -16 52 -25t76 -9q6 -10 6 -34t-6 -32q-160 12 -244 12q-72 0 -232 -12q-6 8 -6 32t6 34q28 0 69 9 t47 25q12 36 12 168v180q0 158 -35 231t-129 73q-52 0 -117 -43t-65 -67v-374q0 -132 12 -168q6 -16 49 -25t71 -9q6 -10 6 -34t-6 -32q-160 12 -238 12q-82 0 -242 -12q-6 8 -6 32t6 34q28 0 74 9t52 25q14 36 14 168v304q0 106 -14 134q-10 20 -55 29t-73 9q-4 4 -5 28z M310 1052q0 36 28 88q56 88 136 88q48 0 134 -56q84 -56 130 -56q36 0 62 21t41 45t19 26q14 0 14 -22q0 -32 -32 -90q-56 -88 -136 -88q-52 0 -132 52q-90 60 -132 60q-36 0 -60 -21t-37 -46t-17 -27q-18 0 -18 26zM732 1406z" />
<glyph unicode="&#xf2;" horiz-adv-x="1040" d="M72 430q0 192 128 324t316 132q200 0 325 -124t125 -316t-129 -326t-317 -134q-200 0 -324 126t-124 318zM260 1306q0 8 7 19t28 22t53 11q50 0 68 -18q34 -40 79 -106t75 -115t30 -55q0 -10 -9 -20t-19 -10q-26 0 -169 111t-143 161zM300 470q0 -156 63 -282t177 -126 q74 0 121 54t62 125t15 159q0 156 -65 284t-177 128q-56 0 -97 -30t-61 -82t-29 -108t-9 -122z" />
<glyph unicode="&#xf3;" horiz-adv-x="1040" d="M72 430q0 192 128 324t316 132q200 0 325 -124t125 -316t-129 -326t-317 -134q-200 0 -324 126t-124 318zM300 470q0 -156 63 -282t177 -126q74 0 121 54t62 125t15 159q0 156 -65 284t-177 128q-56 0 -97 -30t-61 -82t-29 -108t-9 -122zM360 1064q0 6 30 56t75 116 t79 104q18 18 68 18q32 0 53 -11t28 -22t7 -19q0 -50 -143 -161t-169 -111q-10 0 -19 10t-9 20z" />
<glyph unicode="&#xf4;" horiz-adv-x="1040" d="M72 430q0 192 128 324t316 132q200 0 325 -124t125 -316t-129 -326t-317 -134q-200 0 -324 126t-124 318zM298 1056q98 112 120 140q30 38 76 110q10 18 22 18q10 0 22 -18q2 -2 27 -42t45 -64q30 -38 59 -72t46 -52t19 -20q0 -48 -16 -48t-85 49t-117 91 q-46 -42 -114 -91t-84 -49q-20 0 -20 48zM300 470q0 -156 63 -282t177 -126q74 0 121 54t62 125t15 159q0 156 -65 284t-177 128q-56 0 -97 -30t-61 -82t-29 -108t-9 -122z" />
<glyph unicode="&#xf5;" horiz-adv-x="1040" d="M72 430q0 192 128 324t316 132q200 0 325 -124t125 -316t-129 -326t-317 -134q-200 0 -324 126t-124 318zM236 1052q0 36 28 88q56 88 136 88q48 0 134 -56q84 -56 130 -56q36 0 62 21t41 45t19 26q14 0 14 -22q0 -32 -32 -90q-56 -88 -136 -88q-52 0 -132 52 q-90 60 -132 60q-36 0 -60 -21t-37 -46t-17 -27q-18 0 -18 26zM300 470q0 -156 63 -282t177 -126q74 0 121 54t62 125t15 159q0 156 -65 284t-177 128q-56 0 -97 -30t-61 -82t-29 -108t-9 -122z" />
<glyph unicode="&#xf6;" horiz-adv-x="1040" d="M72 430q0 192 128 324t316 132q200 0 325 -124t125 -316t-129 -326t-317 -134q-200 0 -324 126t-124 318zM194 1100q0 48 35 81t83 33t83 -34t35 -82t-35 -82t-83 -34t-83 35t-35 83zM300 470q0 -156 63 -282t177 -126q74 0 121 54t62 125t15 159q0 156 -65 284t-177 128 q-56 0 -97 -30t-61 -82t-29 -108t-9 -122zM588 1100q0 48 35 81t83 33t83 -34t35 -82t-36 -82t-84 -34t-82 35t-34 83z" />
<glyph unicode="&#xf7;" horiz-adv-x="1216" d="M128 468q0 60 28 88h914q18 0 18 -26q0 -54 -30 -88h-918q-12 0 -12 26zM496 120q0 46 33 79t79 33t79 -33t33 -79t-33 -79t-79 -33t-79 33t-33 79zM496 870q0 46 33 79t79 33t79 -33t33 -79t-33 -79t-79 -33t-79 33t-33 79z" />
<glyph unicode="&#xf8;" horiz-adv-x="1040" d="M72 430q0 192 128 324t316 132q200 0 325 -124t125 -316t-129 -326t-317 -134q-200 0 -324 126t-124 318zM208 0l598 868q8 -2 21 -8t25 -14t10 -12l-598 -870q-6 2 -20 9t-26 15t-10 12zM300 470q0 -156 63 -282t177 -126q74 0 121 54t62 125t15 159q0 156 -65 284 t-177 128q-56 0 -97 -30t-61 -82t-29 -108t-9 -122z" />
<glyph unicode="&#xf9;" horiz-adv-x="1078" d="M23 786q-1 24 5 28q176 12 332 74q8 -2 18 -17t10 -21q-16 -32 -16 -126v-108v-192q0 -164 40 -242t136 -78q54 0 105 31t51 61v386q0 106 -16 136q-12 20 -52 30t-68 10q-4 2 -4 28t6 28q176 12 332 74q8 -2 18 -17t10 -21q-18 -36 -18 -126v-110v-366q0 -74 16 -112 q14 -28 104 -28q6 -6 6 -24q0 -26 -14 -36q-50 -4 -122 -20t-124 -30t-56 -14q-18 0 -18 40v64q-2 8 -4 8q-42 -38 -123 -73t-161 -35q-96 0 -155 60t-78 139t-19 179v216q0 102 -18 136q-12 20 -52 30t-66 10q-4 4 -5 28zM278 1280q0 8 7 19t28 22t53 11q50 0 68 -18 q34 -40 79 -106t75 -115t30 -55q0 -10 -9 -20t-19 -10q-26 0 -169 111t-143 161z" />
<glyph unicode="&#xfa;" horiz-adv-x="1078" d="M23 786q-1 24 5 28q176 12 332 74q8 -2 18 -17t10 -21q-16 -32 -16 -126v-108v-192q0 -164 40 -242t136 -78q54 0 105 31t51 61v386q0 106 -16 136q-12 20 -52 30t-68 10q-4 2 -4 28t6 28q176 12 332 74q8 -2 18 -17t10 -21q-18 -36 -18 -126v-110v-366q0 -74 16 -112 q14 -28 104 -28q6 -6 6 -24q0 -26 -14 -36q-50 -4 -122 -20t-124 -30t-56 -14q-18 0 -18 40v64q-2 8 -4 8q-42 -38 -123 -73t-161 -35q-96 0 -155 60t-78 139t-19 179v216q0 102 -18 136q-12 20 -52 30t-66 10q-4 4 -5 28zM458 1038q0 6 30 56t75 116t79 104q18 18 68 18 q32 0 53 -11t28 -22t7 -19q0 -50 -143 -161t-169 -111q-10 0 -19 10t-9 20z" />
<glyph unicode="&#xfb;" horiz-adv-x="1078" d="M23 786q-1 24 5 28q176 12 332 74q8 -2 18 -17t10 -21q-16 -32 -16 -126v-108v-192q0 -164 40 -242t136 -78q54 0 105 31t51 61v386q0 106 -16 136q-12 20 -52 30t-68 10q-4 2 -4 28t6 28q176 12 332 74q8 -2 18 -17t10 -21q-18 -36 -18 -126v-110v-366q0 -74 16 -112 q14 -28 104 -28q6 -6 6 -24q0 -26 -14 -36q-50 -4 -122 -20t-124 -30t-56 -14q-18 0 -18 40v64q-2 8 -4 8q-42 -38 -123 -73t-161 -35q-96 0 -155 60t-78 139t-19 179v216q0 102 -18 136q-12 20 -52 30t-66 10q-4 4 -5 28zM296 1056q98 112 120 140q30 38 76 110 q10 18 22 18q10 0 22 -18q2 -2 27 -42t45 -64q30 -38 59 -72t46 -52t19 -20q0 -48 -16 -48t-85 49t-117 91q-46 -42 -114 -91t-84 -49q-20 0 -20 48z" />
<glyph unicode="&#xfc;" horiz-adv-x="1078" d="M23 786q-1 24 5 28q176 12 332 74q8 -2 18 -17t10 -21q-16 -32 -16 -126v-108v-192q0 -164 40 -242t136 -78q54 0 105 31t51 61v386q0 106 -16 136q-12 20 -52 30t-68 10q-4 2 -4 28t6 28q176 12 332 74q8 -2 18 -17t10 -21q-18 -36 -18 -126v-110v-366q0 -74 16 -112 q14 -28 104 -28q6 -6 6 -24q0 -26 -14 -36q-50 -4 -122 -20t-124 -30t-56 -14q-18 0 -18 40v64q-2 8 -4 8q-42 -38 -123 -73t-161 -35q-96 0 -155 60t-78 139t-19 179v216q0 102 -18 136q-12 20 -52 30t-66 10q-4 4 -5 28zM192 1126q0 48 35 81t83 33t83 -34t35 -82t-35 -82 t-83 -34t-83 35t-35 83zM586 1126q0 48 35 81t83 33t83 -34t35 -82t-36 -82t-84 -34t-82 35t-34 83z" />
<glyph unicode="&#xfd;" horiz-adv-x="1002" d="M-1 841q1 27 5 33q160 -14 234 -14q78 0 226 14q6 -8 5 -35t-9 -31q-26 0 -67 -12t-41 -32q0 -12 4 -20l208 -468q96 236 168 404q18 40 18 68q0 30 -44 45t-86 15q-8 4 -7 30t7 36q102 -14 194 -14q62 0 188 14q6 -10 5 -35t-7 -31q-30 0 -79 -16t-65 -52 q-30 -70 -142 -321t-172 -387q-110 -250 -172 -336q-108 -142 -208 -142q-50 0 -82 25t-32 71q0 44 36 76q98 0 162 29t116 105q30 42 82 172q-132 310 -322 716q-28 60 -118 60q-6 6 -5 33zM492 1064q0 6 30 56t75 116t79 104q18 18 68 18q32 0 53 -11t28 -22t7 -19 q0 -50 -143 -161t-169 -111q-10 0 -19 10t-9 20z" />
<glyph unicode="&#xfe;" horiz-adv-x="1030" d="M-8 -412q0 24 8 34q30 0 76 9t52 25q12 30 12 168v1292q0 72 -12 100q-16 36 -120 36q-2 0 -4 14t-1 28t5 16q210 20 336 78q8 0 17 -11t9 -21q-22 -92 -22 -188v-390q0 -8 2 -10q2 -4 6 0q128 118 228 118q172 0 275 -130t103 -290q0 -202 -151 -342t-329 -140 q-28 0 -128 20q-6 0 -6 -28v-152q0 -132 12 -168q6 -16 52 -25t76 -9q6 -10 6 -34t-6 -32q-160 12 -244 12t-244 -12q-8 8 -8 32zM348 196q0 -64 50 -98t110 -34q90 0 158 94t68 236q0 168 -66 264t-182 96q-54 0 -96 -24t-42 -42v-492z" />
<glyph unicode="&#xff;" horiz-adv-x="1002" d="M-1 841q1 27 5 33q160 -14 234 -14q78 0 226 14q6 -8 5 -35t-9 -31q-26 0 -67 -12t-41 -32q0 -12 4 -20l208 -468q96 236 168 404q18 40 18 68q0 30 -44 45t-86 15q-8 4 -7 30t7 36q102 -14 194 -14q62 0 188 14q6 -10 5 -35t-7 -31q-30 0 -79 -16t-65 -52 q-30 -70 -142 -321t-172 -387q-110 -250 -172 -336q-108 -142 -208 -142q-50 0 -82 25t-32 71q0 44 36 76q98 0 162 29t116 105q30 42 82 172q-132 310 -322 716q-28 60 -118 60q-6 6 -5 33zM234 1100q0 48 35 81t83 33t83 -34t35 -82t-35 -82t-83 -34t-83 35t-35 83z M628 1100q0 48 35 81t83 33t83 -34t35 -82t-36 -82t-84 -34t-82 35t-34 83z" />
<glyph unicode="&#x152;" horiz-adv-x="2032" d="M90 656q0 278 197 476t459 198q64 0 226 -9t214 -9q64 0 312 8t336 8q8 -58 32 -161t28 -123q-10 -10 -44 -10q-22 0 -28 14q-32 102 -85 147t-139 45h-170q-110 0 -118 -22q-10 -28 -10 -132v-362q0 -18 86 -18h104q114 0 145 23t55 119q4 16 26 16q26 0 38 -12v-380 q-8 -8 -36 -8q-24 0 -30 16q-30 110 -62 128q-28 14 -184 14q-142 0 -142 -22v-344q0 -124 14 -148q26 -30 136 -30h112q140 0 220 58q70 56 116 196q2 12 28 12q44 0 56 -12q-6 -18 -29 -82t-35 -97t-26 -81t-18 -78q-52 0 -297 2t-395 2q-172 0 -256 -4q-10 0 -16 -1 t-14 -1t-47 -1t-107 -1q-266 0 -459 194t-193 472zM340 712q0 -162 46 -305t151 -243t249 -100q188 0 240 72q46 62 46 204v628q0 138 -68 200q-88 84 -296 84q-124 0 -211 -84t-122 -201t-35 -255z" />
<glyph unicode="&#x153;" horiz-adv-x="1562" d="M72 430q0 192 128 324t316 132q226 0 352 -158q60 72 139 114t157 42q88 0 156 -30t102 -77t50 -92t16 -87q0 -86 -52 -90q-16 -2 -490 -18q0 -102 30 -176t78 -112t96 -54t98 -16q130 0 222 102q20 -6 20 -32q0 -18 -10 -38q-40 -62 -126 -121t-200 -59q-196 0 -314 144 q-128 -142 -320 -142q-200 0 -324 126t-124 318zM300 470q0 -156 63 -282t177 -126q74 0 121 54t62 125t15 159q0 156 -65 284t-177 128q-56 0 -97 -30t-61 -82t-29 -108t-9 -122zM952 566q224 0 292 8q36 0 36 40q0 66 -36 130t-108 64q-50 0 -89 -32t-58 -77t-28 -81 t-9 -52z" />
<glyph unicode="&#x178;" horiz-adv-x="1222" d="M-15 1289q1 25 7 35q176 -12 268 -12q110 0 270 12q6 -10 6 -35t-8 -31q-122 0 -122 -58q0 -14 20 -48l256 -456q94 148 258 474q8 24 8 38q0 18 -47 33t-99 15q-6 6 -6 34t4 34q168 -12 216 -12q56 0 132 6t90 6q4 -8 4 -35t-6 -33q-124 0 -162 -64q-252 -418 -342 -592 q-10 -18 -10 -52v-288q0 -132 12 -168q6 -16 54 -25t78 -9q6 -10 6 -34t-6 -32q-160 12 -260 12q-98 0 -258 -12q-6 8 -6 32t6 34q30 0 78 9t54 25q14 42 14 168v292q0 16 -14 48q-38 70 -89 165t-105 190t-72 129q-40 72 -98 124q-22 24 -61 37t-63 13q-8 6 -7 31z M326 1578q0 48 35 82t83 34t83 -34t35 -82t-35 -82t-83 -34t-83 34t-35 82zM752 1578q0 48 35 82t83 34t83 -34t35 -82t-36 -82t-84 -34t-82 34t-34 82z" />
<glyph unicode="&#x2000;" horiz-adv-x="865" />
<glyph unicode="&#x2001;" horiz-adv-x="1730" />
<glyph unicode="&#x2002;" horiz-adv-x="865" />
<glyph unicode="&#x2003;" horiz-adv-x="1730" />
<glyph unicode="&#x2004;" horiz-adv-x="576" />
<glyph unicode="&#x2005;" horiz-adv-x="432" />
<glyph unicode="&#x2006;" horiz-adv-x="288" />
<glyph unicode="&#x2007;" horiz-adv-x="288" />
<glyph unicode="&#x2008;" horiz-adv-x="216" />
<glyph unicode="&#x2009;" horiz-adv-x="346" />
<glyph unicode="&#x200a;" horiz-adv-x="96" />
<glyph unicode="&#x2010;" horiz-adv-x="752" d="M114 420q0 48 28 108q416 22 482 24q14 0 14 -18q0 -54 -28 -114q-40 -2 -482 -22q-14 0 -14 22z" />
<glyph unicode="&#x2011;" horiz-adv-x="752" d="M114 420q0 48 28 108q416 22 482 24q14 0 14 -18q0 -54 -28 -114q-40 -2 -482 -22q-14 0 -14 22z" />
<glyph unicode="&#x2012;" horiz-adv-x="752" d="M114 420q0 48 28 108q416 22 482 24q14 0 14 -18q0 -54 -28 -114q-40 -2 -482 -22q-14 0 -14 22z" />
<glyph unicode="&#x2013;" horiz-adv-x="1118" d="M112 412q0 22 7 70t21 48h850q12 0 12 -18q0 -32 -18 -104q-2 -6 -5 -9t-7 -3l-2 -2h-846l-8 4q-4 6 -4 14z" />
<glyph unicode="&#x2014;" horiz-adv-x="1792" d="M110 422q0 22 7 70t21 48h1526q12 0 12 -18q0 -40 -16 -104q-2 -6 -6 -9t-6 -5h-4h-1522l-8 4q-4 6 -4 14z" />
<glyph unicode="&#x2018;" horiz-adv-x="362" d="M78 1110q0 52 21 103t51 85t63 61t56 40t29 13q26 0 40 -36q-130 -78 -130 -164q0 -44 44 -96q40 -48 40 -68q0 -36 -40 -64t-88 -28q-28 0 -56 14q-30 44 -30 140z" />
<glyph unicode="&#x2019;" horiz-adv-x="378" d="M66 994q130 78 130 166q0 40 -44 92q-38 46 -38 68q0 36 39 65t87 29q28 0 56 -14q28 -40 28 -140q0 -52 -21 -103t-50 -85t-61 -61t-55 -40t-29 -13q-28 0 -42 36z" />
<glyph unicode="&#x201a;" horiz-adv-x="390" d="M32 -168q132 80 132 164q0 40 -44 92q-40 48 -40 70q0 36 40 65t88 29q24 0 56 -16q28 -40 28 -140q0 -52 -21 -103t-51 -85t-62 -60t-55 -39t-29 -13q-28 0 -42 36z" />
<glyph unicode="&#x201c;" horiz-adv-x="654" d="M78 1110q0 52 21 103t51 85t63 61t56 40t29 13q26 0 40 -36q-130 -78 -130 -164q0 -42 42 -92t42 -72q0 -36 -40 -64t-88 -28q-28 0 -56 14q-30 44 -30 140zM370 1110q0 52 21 103t51 85t62 61t55 40t29 13q28 0 42 -36q-132 -80 -132 -164q0 -46 38 -88q46 -50 46 -76 q0 -36 -39 -64t-87 -28q-28 0 -56 14q-30 44 -30 140z" />
<glyph unicode="&#x201d;" horiz-adv-x="654" d="M38 992q132 80 132 164q0 46 -38 88q-46 50 -46 76q0 36 39 64t87 28q28 0 56 -14q30 -44 30 -140q0 -52 -21 -103t-51 -85t-62 -61t-55 -40t-29 -13q-28 0 -42 36zM330 992q130 78 130 164q0 42 -42 92t-42 72q0 36 40 64t88 28q28 0 56 -14q30 -44 30 -140 q0 -52 -21 -103t-51 -85t-63 -61t-56 -40t-29 -13q-26 0 -40 36z" />
<glyph unicode="&#x201e;" horiz-adv-x="654" d="M52 -172q132 80 132 164q0 46 -38 88q-46 50 -46 76q0 36 39 64t87 28q28 0 56 -14q30 -44 30 -140q0 -52 -21 -103t-51 -85t-62 -61t-55 -40t-29 -13q-28 0 -42 36zM344 -172q130 78 130 164q0 42 -42 92t-42 72q0 36 40 64t88 28q28 0 56 -14q30 -44 30 -140 q0 -52 -21 -103t-51 -85t-63 -61t-56 -40t-29 -13q-26 0 -40 36z" />
<glyph unicode="&#x2022;" horiz-adv-x="648" d="M76 526q0 102 73 175t175 73t174 -73t72 -175t-72 -175t-174 -73t-175 73t-73 175z" />
<glyph unicode="&#x2026;" horiz-adv-x="1708" d="M92 112q0 52 39 89t93 37t91 -38t37 -92t-37 -92t-91 -38t-93 40t-39 94zM680 112q0 52 39 89t93 37t91 -38t37 -92t-37 -92t-91 -38t-93 40t-39 94zM1268 112q0 52 39 89t93 37t91 -38t37 -92t-37 -92t-91 -38t-93 40t-39 94z" />
<glyph unicode="&#x202f;" horiz-adv-x="346" />
<glyph unicode="&#x2039;" horiz-adv-x="984" d="M420 494q0 16 12 34q74 44 143 93t117 87t84 69t56 51l20 18q38 -10 48 -30q-8 -22 -114 -143t-168 -177q62 -56 168 -177t114 -143q-10 -22 -48 -32l-20 20q-20 18 -56 49t-84 70t-117 88t-143 93q-12 16 -12 30z" />
<glyph unicode="&#x203a;" horiz-adv-x="984" d="M420 176q8 22 114 143t168 177q-62 56 -168 177t-114 143q10 20 48 30l20 -18q20 -20 56 -51t84 -69t117 -87t143 -93q12 -18 12 -34q0 -14 -12 -30q-74 -44 -143 -93t-117 -88t-84 -70t-56 -49l-20 -20q-38 10 -48 32z" />
<glyph unicode="&#x205f;" horiz-adv-x="432" />
<glyph unicode="&#x20ac;" horiz-adv-x="1342" d="M16 488q-10 10 8 48t32 38h54q-2 22 -2 46q0 32 2 64h-94q-10 10 8 48t32 38h68q50 224 227 368t415 144q226 0 404 -36q0 -2 15 -72t28 -138t13 -78q0 -12 -15 -21t-31 -9q-20 0 -28 10q-64 268 -372 268q-174 0 -282 -125t-134 -311h408q16 -20 5 -48t-25 -38h-394v-14 q0 -48 4 -96h410q16 -20 5 -48t-25 -38h-376q38 -186 150 -305t288 -119q150 0 246 86q52 46 85 116t43 114q46 0 64 -18q0 -30 -28 -152t-46 -134q-192 -88 -418 -88q-240 0 -416 141t-222 359h-106z" />
<glyph unicode="&#x25fc;" horiz-adv-x="870" d="M0 0v870h870v-870h-870z" />
</font>
</defs>
</svg>
