<?xml version="1.0" standalone="no"?>
<!DOCTYPE svg PUBLIC "-//W3C//DTD SVG 1.1//EN" "http://www.w3.org/Graphics/SVG/1.1/DTD/svg11.dtd" >
<svg xmlns="http://www.w3.org/2000/svg" xmlns:xlink="http://www.w3.org/1999/xlink" version="1.1">
<metadata></metadata>
<defs>
<font id="dyernormal" horiz-adv-x="514" >
<font-face units-per-em="2048" ascent="1638" descent="-410" />
<missing-glyph horiz-adv-x="364" />
<glyph horiz-adv-x="0" />
<glyph unicode="&#xd;" horiz-adv-x="364" />
<glyph unicode=" "  horiz-adv-x="364" />
<glyph unicode="&#x09;" horiz-adv-x="364" />
<glyph unicode="&#xa0;" horiz-adv-x="364" />
<glyph unicode="!" d="M128 1576h256l-5 -270l-15 -455q0 -142 -1 -223.5t-3 -191.5t-2 -165h-202q0 132 -1.5 212.5t-3.5 192t-2 173.5l-13 457zM156 0v201h202v-201h-202z" />
<glyph unicode="&#x22;" horiz-adv-x="792" d="M137 1576h202q-21 -230 -21 -312h-160q0 81 -21 312zM454 1576h201q0 -79 -7 -157t-14 -155h-159q0 39 -4.5 116t-16.5 196z" />
<glyph unicode="#" horiz-adv-x="1172" d="M56 452l22 178h221l24 209h-220l21 179h220l50 405h183l-49 -405h191l51 405h180l-48 -405h220l-21 -179h-222l-25 -209h222l-23 -178h-220l-55 -452h-185l57 452h-192l-54 -452h-185l57 452h-220zM481 630h191l26 209h-189z" />
<glyph unicode="$" horiz-adv-x="1042" d="M73 196l149 197q56 -90 139.5 -152t155.5 -62q91 0 143 49t52 134q0 77 -58 155q-40 55 -164 164q-39 35 -77 69q-45 39 -77 69q-82 77 -124 144q-50 81 -50 169q0 56 14 99.5t44 80.5q56 69 159 101q0 16 -2.5 31t-7.5 36q-8 30 -30 65h264q-38 -71 -38 -126 q57 -11 104 -32q49 -18 101 -52l-132 -176q-54 42 -84 53q-35 14 -68 13q-56 0 -83 -22.5t-27 -60.5q0 -56 98 -149q63 -58 98 -91q56 -52 102 -92q161 -155 207 -231q54 -91 54 -230q0 -69 -21.5 -127t-64.5 -103q-84 -89 -238 -113q0 -63 39 -133h-266q21 32 30 66 q11 35 11 67q-94 16 -178 62q-43 24 -86.5 56t-87.5 72z" />
<glyph unicode="%" horiz-adv-x="1614" d="M124 940q0 180 56 321q66 162 186 162q129 0 203 -158q61 -133 61 -317q0 -186 -62 -281q-67 -104 -200 -104q-126 0 -189 117q-55 99 -55 260zM280 954q0 -56 6 -96t21 -66q22 -43 63 -43q65 0 88 68q17 47 17 151q0 52 -5.5 93t-19.5 80q-30 91 -80 91 q-41 0 -65.5 -90.5t-24.5 -187.5zM394 0q19 20 39.5 48.5t39.5 62.5q13 21 22 42q5 9 20 48l488 1222h246q-24 -29 -44.5 -56.5t-35.5 -50.5q-27 -39 -45 -82l-486 -1234h-244zM984 356q0 179 56 319q67 164 185 164q130 0 204 -158q30 -67 45.5 -145t15.5 -172 q0 -185 -62 -282q-67 -103 -200 -103q-125 0 -189 115q-27 51 -41 114.5t-14 147.5zM1140 370q0 -112 26 -162q24 -44 64 -44q62 0 88 68q17 47 17 151q0 96 -25 174q-30 91 -80 91q-41 0 -65.5 -90.5t-24.5 -187.5z" />
<glyph unicode="&#x26;" horiz-adv-x="1204" d="M101 500q0 76 23.5 149t69.5 145q84 124 200 190q-95 30 -147 91q-57 68 -58 169q0 140 97.5 236t251.5 96q48 0 89 -4.5t75 -15.5q68 -17 122 -56l-94 -188q-56 36 -101.5 52.5t-100.5 16.5q-58 0 -96.5 -37.5t-38.5 -99.5q0 -68 76.5 -119t194.5 -51l-16 -178 q-153 -17 -248 -136q-91 -110 -91 -260q0 -130 75 -214q79 -93 214 -93q60 0 107 15q31 8 64.5 24.5t73.5 43.5l14 10q5 7 7 23v280v13v12q0 42 -5 63q-10 56 -37 96h286q-23 -44 -33 -90q-3 -24 -4.5 -46.5t-1.5 -47.5v-370q0 -19 -21 -39l-83 -60q-76 -50 -154 -80 q-55 -20 -108 -30t-110 -10q-231 0 -369 149q-123 138 -123 351z" />
<glyph unicode="'" horiz-adv-x="474" d="M137 1576h202q-21 -230 -21 -312h-160q0 81 -21 312z" />
<glyph unicode="(" horiz-adv-x="512" d="M88 789q0 250 82 465q75 201 202 315q16 13 25 7q10 -5 29 -20q7 -5 15 -10.5t24 -19.5q6 -4 7 -11q0 -9 -10 -25q-82 -152 -120 -301q-21 -84 -32 -183.5t-11 -212.5q0 -96 9 -183.5t31 -180.5q45 -205 128 -351l7 -16l-3 -6l-67 -54l-10 -4q-6 0 -26 17 q-124 108 -199 307q-81 211 -81 467z" />
<glyph unicode=")" horiz-adv-x="512" d="M28 57l10 21q40 70 71.5 157.5t56.5 192.5q19 90 30 184t11 181q0 111 -11 210.5t-31 179t-49.5 154.5t-73.5 153q-9 20 -9 25t7 11l38 29q9 8 21 16q4 3 7.5 5.5t10.5 2.5q5 0 15 -10q124 -108 202 -314q82 -215 82 -466q0 -257 -79 -467q-76 -196 -200 -307 q-17 -15 -28 -17l-8 4l-67 48q-3 2 -4.5 4t-1.5 3z" />
<glyph unicode="*" horiz-adv-x="815" d="M73 1268l78 205q26 -30 59 -52q11 -6 27 -13.5t41 -17.5q5 -5 29 -10l23 -7v56v11q0 38 -4 60q-7 43 -29 76h222q-9 -16 -15.5 -32t-10.5 -37q-5 -38 -5 -78v-56q9 0 14 2l20 8q13 5 16 7q21 8 34.5 13.5t18.5 9.5q38 17 73 60l78 -205l-34 3q-31 0 -58 -6q-13 -3 -26 -7 t-31 -12l-65 -24q8 -15 20 -32l24 -29q25 -31 48 -53q29 -31 68 -50l-177 -131q0 15 -1.5 22.5t-12.5 38.5q-5 16 -17 35t-30 43q-3 5 -10 12.5t-10 10.5l-11 11q-6 6 -11 12l-21 -22l-19 -21q-11 -13 -17 -23q-10 -15 -23 -40q-18 -37 -24 -79l-176 131q20 10 36.5 21.5 t32.5 26.5l46 55l28 37l17 24l-66 24l-58 19q-25 6 -57 6z" />
<glyph unicode="+" horiz-adv-x="801" d="M106 498l83 176h119v165h172v-165h213l-84 -176h-129v-164h-172v164h-202z" />
<glyph unicode="," horiz-adv-x="316" d="M36 -146q27 31 45 59q9 15 15.5 28.5t12.5 32.5q-26 17 -43 52q-17 37 -18 64q0 46 32.5 77t81.5 31q56 0 91 -44q37 -39 37 -98q0 -80 -67.5 -157.5t-119.5 -77.5q-34 0 -67 33z" />
<glyph unicode="-" horiz-adv-x="607" d="M146 590l90 203h230l-90 -203h-230z" />
<glyph unicode="." horiz-adv-x="316" d="M48 106q0 43 32 74.5t76 31.5t75 -31t31 -75q0 -45 -31 -75.5t-75 -30.5q-46 0 -77 30t-31 76z" />
<glyph unicode="/" horiz-adv-x="1011" d="M77 0l635 1576h219l-641 -1576h-213z" />
<glyph unicode="0" horiz-adv-x="955" d="M57 617q0 96 10 186.5t33 183.5t56 169.5t77 136.5q97 130 227 130q145 0 252 -127q91 -107 142 -302q23 -89 34.5 -179.5t11.5 -184.5q0 -312 -106 -478q-111 -173 -332 -173q-201 0 -311 195q-94 170 -94 443zM241 629q0 -174 48 -308q60 -163 173 -163q99 0 159 73 q51 66 74 184q10 48 14.5 108.5t4.5 131.5q0 216 -64 388q-72 201 -188 201q-100 0 -164 -211q-56 -186 -57 -404z" />
<glyph unicode="1" horiz-adv-x="471" d="M63 1204l265 251v-1269q0 -26 1 -48t5 -45t12 -46t22 -47h-262q26 40 36 96q5 32 6 90v915q0 38 -20 65q-11 15 -26 24.5t-39 13.5z" />
<glyph unicode="2" horiz-adv-x="950" d="M36 0v164l124 143l117 140q45 57 104 127q121 148 183 254q74 129 74 227q0 88 -58 142t-145 54q-49 0 -98 -26q-24 -12 -45.5 -29.5t-45.5 -41.5l-145 175q80 48 139 68q84 26 208 26q181 0 286 -101t105 -246q0 -45 -10 -93t-28 -98q-33 -86 -99 -187 q-25 -39 -56.5 -83.5t-76.5 -99.5q-71 -93 -155 -192q-73 -83 -131 -143h377q69 0 95 9q37 8 84 47v-236h-803z" />
<glyph unicode="3" horiz-adv-x="972" d="M8 77l135 196q56 -64 112.5 -87.5t165.5 -23.5q122 0 216.5 95.5t94.5 228.5q0 154 -107 231q-91 65 -242 65v158q114 18 161 49q70 43 70 132q0 50 -40 84q-39 37 -91 38q-22 0 -44 -4.5t-45.5 -13.5t-42.5 -20t-42 -27l-111 180q35 17 64.5 28.5t64.5 20.5 q30 9 62.5 12.5t72.5 3.5q148 0 256 -75q119 -84 119 -215q0 -74 -37 -137q-33 -58 -105 -100q87 -39 152 -136q36 -56 55 -123t19 -143q0 -228 -148 -372q-141 -141 -357 -141q-132 0 -215.5 17t-192.5 79z" />
<glyph unicode="4" horiz-adv-x="895" d="M19 416v142l313 710q5 11 11.5 32.5t9 32t11.5 50.5q3 15 6 32h231l-371 -820h201v373l183 93v-466h271v-179h-271v-230q0 -31 1 -50.5t4.5 -39t8.5 -35.5q8 -26 25 -61h-264q14 19 23 43t14 53q5 35 5 90v230h-412z" />
<glyph unicode="5" horiz-adv-x="962" d="M-4 92l134 190q30 -27 56.5 -46t56.5 -34q69 -32 141 -32q144 0 238.5 102t94.5 251q0 121 -75 197q-79 81 -207 81q-36 0 -64 -3t-58 -11q-53 -14 -110 -52v680h644v-246q-25 19 -46 32t-39 22q-34 13 -88 12h-295v-255q16 3 44 5.5t54 2.5q189 0 311 -124t122 -324 q0 -256 -147 -407.5t-412 -151.5q-108 0 -184.5 22.5t-170.5 88.5z" />
<glyph unicode="6" horiz-adv-x="943" d="M59 538q0 219 127 475q58 120 130 219t159 181h236q-113 -113 -200 -230q-109 -148 -177 -302q-77 -180 -77 -343q0 -155 64 -255q70 -107 188 -106q92 0 149 64q28 35 42 79t14 101q0 76 -43.5 130t-102.5 54q-23 0 -40.5 -6t-33.5 -20q-29 -26 -29 -62q0 -18 4.5 -31 t16.5 -28q15 -21 61 -44q-50 -52 -93 -52q-62 0 -108 56q-23 30 -33.5 62t-10.5 71q0 96 74.5 168t174.5 72q153 0 257 -109t104 -278q0 -186 -116 -301.5t-287 -115.5q-205 0 -327.5 152.5t-122.5 398.5z" />
<glyph unicode="7" horiz-adv-x="890" d="M67 1180v235h774v-141q-128 -240 -223 -481q-89 -220 -172 -491q-14 -36 -19 -82q-6 -38 -6 -79q0 -68 16 -141h-288q8 43 18 86q15 70 31 124q21 77 54 169q17 46 43 113q23 58 46 117q37 96 47 121q31 79 83 204q24 57 47 116l81 189h-385q-68 0 -147 -59z" />
<glyph unicode="8" horiz-adv-x="913" d="M57 479q0 83 12 148.5t39 121.5q51 108 146 172q-46 36 -77 95t-31 127q0 59 21 109t64.5 91.5t95 61.5t112.5 20q134 0 221 -65q98 -74 99 -208q0 -77 -27 -133q-15 -30 -33 -52.5t-48 -43.5q91 -47 147 -134q35 -58 52.5 -129t17.5 -156q0 -225 -100 -372 q-109 -153 -295 -153q-190 0 -301 124q-115 130 -115 376zM251 467q0 -124 51 -208q61 -99 163 -100q114 0 165 98q23 42 33.5 105.5t10.5 150.5q0 129 -45 206q-58 97 -173 96q-111 0 -163 -102q-43 -82 -42 -246zM330 1135q0 -51 34 -90q36 -36 92 -36q63 0 97 37t34 94 q0 48 -38 80.5t-97 32.5q-52 0 -87 -33.5t-35 -84.5z" />
<glyph unicode="9" horiz-adv-x="1004" d="M19 87l153 164q22 -21 46.5 -37.5t49.5 -27.5q45 -19 111 -19q116 0 202 101q72 87 116 232q18 65 27 125.5t9 123.5q-47 -46 -110 -72q-30 -12 -63 -18t-72 -6q-180 0 -280 110q-97 105 -97 267q0 167 90 276q101 118 282 117q230 0 352 -195q103 -170 103 -429 q0 -205 -60 -385q-66 -195 -187 -306q-135 -127 -325 -127q-95 0 -189 29q-45 15 -84.5 34t-73.5 43zM301 1055q0 -92 53 -153t143 -61q75 0 130.5 37t79.5 97q-20 106 -65 178q-61 97 -159 98q-73 0 -127.5 -59.5t-54.5 -136.5z" />
<glyph unicode=":" horiz-adv-x="316" d="M48 106q0 43 32 74.5t76 31.5t75 -31t31 -75q0 -45 -31 -75.5t-75 -30.5q-46 0 -77 30t-31 76zM48 778q0 44 31.5 75.5t76.5 31.5t75.5 -31t30.5 -76q0 -44 -31.5 -75t-74.5 -31q-45 0 -76.5 30.5t-31.5 75.5z" />
<glyph unicode=";" horiz-adv-x="316" d="M36 -146q27 31 45 59q9 15 15.5 28.5t12.5 32.5q-26 17 -43 52q-17 37 -18 64q0 46 32.5 77t81.5 31q56 0 91 -44q37 -39 37 -98q0 -80 -67.5 -157.5t-119.5 -77.5q-34 0 -67 33zM46 735q0 46 33.5 80t79.5 34q47 0 80.5 -34t33.5 -80q0 -43 -32.5 -75.5t-81.5 -32.5 q-45 0 -79 32t-34 76z" />
<glyph unicode="&#x3c;" horiz-adv-x="802" d="M109 538v89l450 290l101 -124l-323 -211l323 -210l-101 -123z" />
<glyph unicode="=" horiz-adv-x="709" d="M50 366l78 171h502l-79 -171h-501zM50 638l78 170h502l-79 -170h-501z" />
<glyph unicode="&#x3e;" horiz-adv-x="802" d="M143 372l324 210l-324 211l100 124l450 -290v-89l-450 -289z" />
<glyph unicode="?" horiz-adv-x="1040" d="M90 1295q28 62 65 108.5t88 83.5q120 87 295 87q165 0 286 -103q132 -111 132 -289q0 -53 -5.5 -94t-19.5 -79q-19 -61 -68 -120q-31 -39 -100 -102l-208 -203q-57 -56 -72.5 -102.5t-15.5 -148.5v-62h-203v156q0 89 46 164q15 26 50 66t86 92q47 47 92 94q63 66 67 69 q39 44 65.5 76t41.5 57q38 59 39 114q0 40 -16 75.5t-50 69.5q-66 66 -157 65q-70 0 -140 -44q-74 -49 -117 -132zM259 106q0 42 31.5 74t75.5 32t75.5 -32t31.5 -74q0 -43 -31 -76q-32 -30 -76 -30q-46 0 -76.5 30.5t-30.5 75.5z" />
<glyph unicode="@" horiz-adv-x="1411" d="M50 812q0 320 188 538q195 226 504 226q295 0 461 -227q153 -210 153 -537q0 -243 -91 -364q-80 -108 -225 -107q-92 0 -151 31q-30 15 -52 37t-38 51q-4 -3 -14 -7t-21.5 -7.5t-40.5 -3.5q-147 0 -236 88q-103 97 -103 278q0 170 109 294q113 129 289 130h191 q-8 -55 -13.5 -108.5t-5.5 -81.5v-433q0 -108 99 -107q46 0 79 70q38 82 39 240q0 250 -108 412q-117 179 -323 180q-218 0 -357.5 -170t-139.5 -422q0 -250 137.5 -411t361.5 -161v-194q-315 0 -508 225q-184 214 -184 541zM569 803q0 -97 41 -150q17 -20 40 -31t52 -11 q13 0 22 1t18 5q15 2 33 15v444q-90 -12 -148 -86t-58 -187z" />
<glyph unicode="A" horiz-adv-x="1114" d="M42 0q31 46 45 92q7 26 10.5 47t3.5 47v237q0 272 113.5 541.5t309.5 437.5q209 179 409 179h27q5 0 15 -1t23 -4q-24 -40 -32 -86q-3 -22 -5 -44t-2 -48v-1212q0 -26 1 -48t4 -39q8 -51 34 -99h-286q27 39 38 96q4 29 4 72v18v293h-457l-1 -90q0 -23 -1 -54t-1 -39 q0 -102 8.5 -176.5t34.5 -119.5h-295zM328 674h426v674q-106 -57 -206 -190q-84 -114 -146 -257q-53 -123 -74 -227z" />
<glyph unicode="B" horiz-adv-x="1126" d="M113 0q27 39 37 96q2 15 4 39t2 51v1206q0 56 -6 88q-10 56 -37 96h615q115 0 180 -37q84 -49 84 -158q0 -34 -8.5 -61t-27.5 -54q-34 -48 -107 -78q99 -26 165 -115q72 -94 72 -215q0 -200 -158 -406q-74 -97 -167 -177t-211 -147q-227 -128 -437 -128zM360 286 q50 11 100.5 35t111 68.5t110.5 93.5t90 104q88 125 88 246q0 106 -74 181.5t-185 75.5h-241v-804zM360 1285h335q31 0 52 15q18 16 18 41q0 23 -18 36q-11 6 -23 9.5t-29 3.5h-335v-105z" />
<glyph unicode="C" horiz-adv-x="1101" d="M80 1053q0 231 139 384t346 153q28 0 61.5 -1.5t55.5 -2.5l186 -10v-275q-34 22 -69.5 40t-64.5 28q-58 17 -136 18q-137 0 -220.5 -95t-83.5 -252q0 -220 139 -420q118 -171 305 -286q170 -103 301 -103v-244q-127 31 -240.5 80.5t-219.5 120.5q-228 151 -357 360 q-142 234 -142 505z" />
<glyph unicode="D" horiz-adv-x="1177" d="M113 0q27 42 37 101q5 33 6 88v1217q0 26 -2 50t-4 40q-10 56 -37 96h542q200 0 321.5 -143t121.5 -399q0 -254 -158 -499q-147 -227 -376 -378.5t-451 -172.5zM360 316q195 66 357 278q172 225 172 457q0 163 -77 254q-72 80 -192 80h-260v-1069z" />
<glyph unicode="E" horiz-adv-x="1085" d="M113 0q27 39 37 96q2 15 4 39t2 51v1206q0 56 -6 88q-10 56 -37 96h831v-260q-50 32 -86 44.5t-99 12.5h-399v-84h672v-261q-26 16 -44 25t-38 17q-40 14 -103 14h-487v-881h399q67 0 119 21l66 37v-261h-831z" />
<glyph unicode="F" horiz-adv-x="1085" d="M113 0q27 39 37 96q2 15 4 39t2 51v1206q0 56 -6 88q-10 56 -37 96h831v-260q-56 33 -82 42q-40 15 -103 15h-399v-84h672v-261q-26 16 -44 25t-38 17q-40 14 -103 14h-487v-898q0 -28 2.5 -51.5t9.5 -43t17.5 -42t26.5 -49.5h-303z" />
<glyph unicode="G" horiz-adv-x="1204" d="M80 1091q0 226 139 359q133 126 346 126h362v-285q-161 96 -313 96q-136 0 -226 -81q-98 -89 -98 -240q0 -213 183 -457q169 -222 372 -312v671v13v11q0 42 -5 63q-9 55 -37 97h283q-24 -47 -33 -100l-3 -84v-775q0 -40 5 -73t18 -78q7 -27 8 -29q5 -15 17 -39 q-420 114 -712 417q-306 317 -306 700z" />
<glyph unicode="H" horiz-adv-x="1189" d="M113 0q27 39 37 96q2 15 4 39t2 51v1206q0 56 -6 88q-10 56 -37 96h289q-26 -41 -34 -87t-8 -97v-103h471v103v14q0 49 -7 74q-9 57 -35 96h287q-13 -21 -20.5 -40.5t-14.5 -46.5q-2 -17 -4.5 -47.5t-2.5 -49.5v-1206q0 -31 1 -50.5t4 -36.5q9 -51 35 -99h-285 q27 38 34.5 85t7.5 101v592h-471v-592q0 -26 1 -48t3 -39q9 -53 36 -99h-287zM360 982h471v102h-471v-102z" />
<glyph unicode="I" d="M113 0q27 39 37 96q2 15 4 39t2 51v1206q0 56 -6 88q-10 56 -37 96h287q-26 -45 -33 -91t-7 -93v-1206q0 -26 1 -48t3 -39q10 -53 36 -99h-287z" />
<glyph unicode="J" horiz-adv-x="938" d="M56 0v264l58 -20q26 -4 37 -4h23q183 0 320 162q149 177 149 458v532v14v11q0 43 -4 63q-12 60 -38 96h286q-24 -42 -32 -90q-2 -15 -5 -46t-3 -48v-601q0 -241 -122 -428q-111 -171 -299 -271q-179 -92 -370 -92z" />
<glyph unicode="K" horiz-adv-x="1093" d="M118 0q24 51 32 106q2 17 4 37.5t2 42.5v1206q0 47 -5 79q-5 53 -33 105h276q-9 -23 -17 -49.5t-11 -46.5q-6 -39 -6 -88v-172l133 122l112 105q22 21 27 46q4 11 6 32.5t2 50.5h439q-33 -24 -70 -52q-25 -19 -74 -58l-98 -85l-335 -288l116 -240l170 -356l120 -251 q15 -29 34.5 -62.5t41.5 -65t43.5 -59t46.5 -59.5h-353q0 19 1 27l1 19q0 57 -11 107q-4 26 -10.5 46.5t-16.5 38.5l-325 676v-728q0 -48 6 -89q3 -18 10 -42t18 -55h-276z" />
<glyph unicode="L" horiz-adv-x="967" d="M113 0q27 39 37 96q2 15 4 39t2 51v1206q0 56 -6 88q-10 56 -37 96h303q-56 -100 -56 -184v-1189h389q81 0 184 58v-261h-820z" />
<glyph unicode="M" horiz-adv-x="1452" d="M21 0q35 51 56.5 101.5t21.5 86.5l39 450q5 63 16.5 166t17.5 179.5t6 140.5q0 77 5.5 141.5t12.5 126.5q0 56 -6 88q-10 56 -37 96h351q5 -19 8.5 -27.5t11.5 -24.5q10 -15 16 -23.5t18 -18.5l161 -153l175 151q40 34 60 96h354q-30 -41 -36 -85q-3 -21 -5 -45t-2 -54 q5 -64 10 -138.5t5 -131.5l36 -481q0 -123 14 -257l24 -196q0 -40 21 -86q10 -21 25.5 -49t31.5 -53h-329q26 42 37 92q5 34 7.5 52t2.5 42l-90 1172l-341 -282l-326 276l-91 -1166q0 -22 3 -46t7 -48q10 -47 37 -92h-328z" />
<glyph unicode="N" horiz-adv-x="1183" d="M113 0q27 39 37 96q2 15 4 39t2 51v1206q0 56 -6 88q-10 56 -37 96h329q-11 -29 -11 -57q0 -25 1.5 -33t7.5 -26.5t22 -42.5q22 -32 66 -95q11 -15 71 -99l133 -184l92 -129v482v14v11q0 43 -5 63q-10 56 -37 96h287q-25 -44 -34 -90q-3 -22 -4.5 -45.5t-1.5 -48.5v-1339 q0 -26 0.5 -47.5t3.5 -38.5q9 -53 36 -99h-287q27 37 37 95q5 35 5 90l-1 458q-1 15 -2 28.5t-7 28.5q-8 24 -22 44q-76 111 -80 118q-38 52 -59 80l-293 408v-1032q0 -26 1 -48t3 -39q9 -53 36 -99h-287z" />
<glyph unicode="O" horiz-adv-x="1408" d="M61 763q0 398 168.5 607t479.5 209q298 0 468.5 -206.5t170.5 -578.5q0 -365 -177 -579.5t-481 -214.5q-287 0 -458 207.5t-171 555.5zM262 775q0 -241 110 -405q119 -177 323 -177q214 0 339 189q111 170 111 430q0 253 -116 414q-121 168 -334 168q-210 0 -327 -186 q-52 -84 -79 -193t-27 -240z" />
<glyph unicode="P" horiz-adv-x="1049" d="M113 0q27 39 37 96q2 15 4 39t2 51v1206q0 56 -6 88q-10 56 -37 96h592q46 0 100.5 -20.5t84.5 -53.5t43.5 -78t13.5 -86q0 -26 -4.5 -52t-17 -54.5t-30 -50.5t-35.5 -39q-44 -40 -103 -53q-20 -4 -52 -5h-345v-898q0 -26 1 -48t3 -39q9 -53 36 -99h-287zM360 1289h331 q21 0 36 14t15 35t-14.5 36.5t-36.5 15.5h-331v-101z" />
<glyph unicode="Q" horiz-adv-x="1187" d="M80 655q0 220 61 434q67 232 178 366q128 154 284 154q148 0 271 -150q109 -135 174 -356q29 -108 44.5 -211.5t15.5 -210.5q0 -61 -6.5 -122t-20.5 -122t-32 -109.5t-49 -105.5l142 -135l-179 -137l-111 113q-106 -76 -268 -76q-262 0 -395 213q-108 177 -109 455z M288 643q0 -183 71 -306q81 -148 231 -148q25 0 34.5 1.5t24.5 5.5t31 10t31 13l-257 275l144 125l245 -243q26 60 41.5 145.5t15.5 159.5q0 242 -90 477q-97 248 -220 248q-130 0 -221 -264q-40 -118 -60.5 -243.5t-20.5 -255.5z" />
<glyph unicode="R" horiz-adv-x="1101" d="M113 0q27 39 37 96q2 15 4 39t2 51v1206q0 56 -6 88q-10 56 -37 96h592q46 0 100.5 -20.5t84.5 -53.5t43.5 -78t13.5 -86q0 -26 -4.5 -52t-17 -54.5t-30 -50.5t-35.5 -39q-44 -40 -103 -53q-20 -4 -52 -5h-64l108 -284l99 -277l104 -290q23 -60 60 -126q9 -17 25.5 -43 t42.5 -64h-327q11 24 16.5 48t5.5 51t-5 58q-6 25 -7 28.5t-7 18.5t-30 78q-29 80 -49 132q-15 41 -32 91q-9 26 -42 114l-170 465h-73v-898q0 -26 1 -48t3 -39q9 -53 36 -99h-287zM360 1289h331q21 0 36 14t15 35t-14.5 36.5t-36.5 15.5h-331v-101z" />
<glyph unicode="S" horiz-adv-x="1042" d="M10 132l167 232q48 -81 139 -128q45 -23 91 -35t95 -12q121 0 193 67q80 71 80 211q0 77 -34 154q-31 67 -89 132q-42 46 -120 114q-70 60 -153 136q-86 82 -125 142q-51 84 -51 171q0 145 90 221q78 69 209 69q93 0 161.5 -19t148.5 -68l-132 -183q-63 43 -75 50 q-35 22 -74 22h-3q-110 0 -110 -83q0 -54 97.5 -146.5t201.5 -184.5q43 -41 76 -77t61 -72q65 -82 104.5 -180.5t39.5 -210.5q0 -213 -146 -348q-141 -128 -350 -129q-99 0 -173 19q-76 16 -159 53q-60 27 -160 83z" />
<glyph unicode="T" horiz-adv-x="1009" d="M19 1329v247h805q58 0 115 15q12 3 23 5.5t57 17.5q0 -97 -77 -166t-174 -69h-169v-1193q0 -26 1 -48t4 -39q9 -53 36 -99h-287q27 39 37 96q4 29 4 72v18v1199h-191q-80 0 -184 -56z" />
<glyph unicode="U" horiz-adv-x="1183" d="M80 1152q0 77 8 130.5t24 89.5t22 70q3 14 5.5 32t2.5 31v11q0 15 -3 25q0 9 -0.5 15t-6.5 20h335q-83 -90 -123 -164q-50 -94 -50 -198q0 -183 87 -370q75 -165 204 -307q120 -132 239 -193v1048v14v11q0 43 -5 63q-10 56 -37 96h287q-25 -44 -34 -90q-3 -22 -4.5 -45.5 t-1.5 -48.5v-1220q0 -54 6 -98q8 -43 37 -93q-243 54 -488 265q-108 95 -199.5 207t-163.5 240q-141 256 -141 459z" />
<glyph unicode="V" horiz-adv-x="974" d="M2 1576h326q-17 -32 -26 -74q-3 -23 -5.5 -49.5t-2.5 -39.5v-19t3 -21l4 -34l50 -259l82 -416q22 -111 37 -197q11 -58 18 -103q9 77 52 291l83 425l54 259q7 38 7 86q0 31 -1 45t-5 35t-10 38.5t-15 32.5h320q-16 -20 -29 -43t-24 -54q-15 -42 -26 -94 q-29 -150 -44 -226q-7 -37 -28 -138q-15 -85 -88 -434q-17 -87 -38 -192q-24 -113 -34 -162q-5 -26 -7.5 -38.5t-4.5 -24.5l-7 -82q0 -52 16 -88h-365q12 25 17 51q4 12 5.5 29.5t1.5 35.5q0 33 -3.5 55t-5.5 35t-5 27q-19 117 -63 344q-8 46 -33 172.5t-29 146.5 q-12 60 -23 120l-74 369q-14 67 -35 114q-17 45 -45 77z" />
<glyph unicode="W" horiz-adv-x="1381" d="M-13 1576h341q-17 -32 -26 -74q-3 -23 -5.5 -49.5t-2.5 -39.5v-19t3 -21l4 -37l49 -268l123 -698l111 538l-140 668h206q2 -20 3 -28t5 -21q10 -62 17.5 -115t9.5 -77l43 241h201l-147 -670l103 -538q5 41 15 95.5t38 181.5l87 423q53 255 56 275.5t4 32.5t1 37 q0 36 -1.5 49t-5.5 39q-7 43 -26 75h341q-13 -15 -30.5 -43.5t-30.5 -54.5t-20.5 -48t-13.5 -45l-246 -1152l-10 -55l-3 -62q0 -20 1 -34.5t5 -30.5t8 -27.5t9 -23.5h-328l12 42l4 50q0 36 -5 67t-7.5 44t-6.5 30l-49 271l-49 -271l-13 -67q-3 -26 -3.5 -37.5t-0.5 -38.5 q0 -28 2.5 -48.5t10.5 -41.5h-328q5 13 10 24.5t8 27t4.5 31t1.5 33.5q0 17 -1 25.5t-3.5 33.5t-3.5 33t-5 25l-231 1152q-6 42 -34 95q-25 53 -61 96z" />
<glyph unicode="X" horiz-adv-x="1021" d="M23 0q44 47 78 109q12 22 28 57q12 25 17 35l256 644l-209 542q-10 36 -45 91.5t-77 97.5h323l-10 -37l-2 -40q0 -59 20 -103l112 -306l113 306q5 19 9 49t4 55l-2 39l-11 37h325q-22 -23 -41 -47q-10 -13 -36 -49q-29 -47 -47 -93l-208 -540l255 -646q16 -46 44 -91 q33 -60 79 -110h-329l12 40l2 50q0 16 -1 30t-4 28q-5 30 -14 50q-5 10 -36 91q-21 52 -41 104q-26 69 -50 134q-18 49 -26 74q-10 -31 -25 -74q-21 -58 -51 -133t-40 -102q-35 -88 -38 -98q-18 -37 -18 -106q0 -29 2.5 -49.5t11.5 -38.5h-330z" />
<glyph unicode="Y" horiz-adv-x="950" d="M-34 1576h385l-2 -26q0 -54 40 -100l78 -88l36 45l44 56q14 17 22 30.5t13 26.5q11 25 11 56h385q-21 -8 -46.5 -26.5t-66.5 -54.5q-25 -21 -46 -41.5t-49 -49.5l-106 -116l-90 -106v-996q0 -31 1 -50.5t5 -41.5t11.5 -45t22.5 -49h-286q28 40 36 96q5 32 6 90v985 l-93 104q-13 14 -66 72q-25 27 -34 36q-25 27 -46 49.5t-40 40.5q-32 33 -63.5 59t-61.5 44z" />
<glyph unicode="Z" horiz-adv-x="998" d="M66 0v90l548 1293h-250q-26 0 -50.5 -4t-52.5 -13q-36 -10 -94 -41v251h754l-598 -1380h360q71 0 122 12.5t107 45.5v-254h-846z" />
<glyph unicode="[" horiz-adv-x="687" d="M109 -4q13 18 22.5 43t15.5 52q5 35 4 89v1212v14v11q0 43 -4 63q-12 60 -38 96h560v-260q-28 17 -47.5 27t-34.5 16q-40 14 -104 14h-127v-1173h127q67 0 119 20l67 37v-261h-560z" />
<glyph unicode="\" horiz-adv-x="1011" d="M77 1576h217l637 -1576h-214z" />
<glyph unicode="]" horiz-adv-x="687" d="M19 -2v261q31 -17 51 -27.5t39 -16t44.5 -10t49.5 -4.5h129v1172h-129q-65 0 -102 -13q-25 -8 -82 -44v260h560q-28 -39 -37 -85q-5 -41 -5 -99v-1210q0 -26 0.5 -49t3.5 -39q11 -56 38 -96h-560z" />
<glyph unicode="^" horiz-adv-x="798" d="M52 782l280 316h137l278 -316h-199l-151 166l-146 -166h-199z" />
<glyph unicode="_" horiz-adv-x="533" d="M0 -188h534v-188h-534v188z" />
<glyph unicode="`" horiz-adv-x="630" d="M94 1576h210l228 -312h-193z" />
<glyph unicode="a" horiz-adv-x="1114" d="M42 187h956q-19 -28 -32 -110q-5 -27 -10 -77h-872q-5 49 -9 77q-14 82 -33 110zM42 324q29 43 45 93q8 27 12.5 49t4.5 44q0 108 31 228q26 100 79 227q114 270 310 437q209 179 409 179h27q5 0 15 -1t23 -4q-24 -40 -32 -86q-3 -22 -5 -44t-2 -48v-888q0 -26 1 -47.5 t4 -38.5q8 -51 34 -100h-286q27 39 38 96q4 29 4 72v18l1 138h-437q-11 -49 -14 -69q-5 -35 -5 -69q0 -26 1 -40q3 -18 2 -25q8 -75 35 -121h-295zM379 844h375v504q-106 -57 -206 -190q-45 -61 -80 -121.5t-68 -135.5q-5 -14 -10.5 -28.5t-10.5 -28.5z" />
<glyph unicode="b" horiz-adv-x="1126" d="M113 0q27 39 37 96q2 15 4 39t2 51v1206q0 56 -6 88q-10 56 -37 96h615q115 0 180 -37q84 -49 84 -158q0 -34 -8.5 -61t-27.5 -54q-34 -48 -107 -78q99 -26 165 -115q72 -94 72 -215q0 -200 -158 -406q-74 -97 -167 -177t-211 -147q-227 -128 -437 -128zM360 286 q50 11 100.5 35t111 68.5t110.5 93.5t90 104q88 125 88 246q0 106 -74 181.5t-185 75.5h-241v-804zM360 1285h335q31 0 52 15q18 16 18 41q0 23 -18 36q-11 6 -23 9.5t-29 3.5h-335v-105z" />
<glyph unicode="c" horiz-adv-x="1101" d="M80 1053q0 231 139 384t346 153q28 0 61.5 -1.5t55.5 -2.5l186 -10v-275q-34 22 -69.5 40t-64.5 28q-58 17 -136 18q-137 0 -220.5 -95t-83.5 -252q0 -220 139 -420q118 -171 305 -286q170 -103 301 -103v-244q-127 31 -240.5 80.5t-219.5 120.5q-228 151 -357 360 q-142 234 -142 505z" />
<glyph unicode="d" horiz-adv-x="1177" d="M113 0q27 42 37 101q5 33 6 88v1217q0 26 -2 50t-4 40q-10 56 -37 96h542q200 0 321.5 -143t121.5 -399q0 -254 -158 -499q-147 -227 -376 -378.5t-451 -172.5zM360 316q195 66 357 278q172 225 172 457q0 163 -77 254q-72 80 -192 80h-260v-1069z" />
<glyph unicode="e" horiz-adv-x="1085" d="M113 187h831v-187h-788q-5 49 -10 77q-14 82 -33 110zM113 324q27 39 37 96q2 15 4 39.5t2 50.5v882q0 56 -6 88q-10 56 -37 96h831v-260q-50 32 -86 44.5t-99 12.5h-399v-84h672v-261q-26 16 -44 25t-38 17q-40 14 -103 14h-487v-556h399q69 0 119 21l66 36v-261h-831z " />
<glyph unicode="f" horiz-adv-x="1085" d="M113 0q27 39 37 96q2 15 4 39t2 51v1206q0 56 -6 88q-10 56 -37 96h831v-260q-56 33 -82 42q-40 15 -103 15h-399v-84h672v-261q-26 16 -44 25t-38 17q-40 14 -103 14h-487v-898q0 -28 2.5 -51.5t9.5 -43t17.5 -42t26.5 -49.5h-303z" />
<glyph unicode="g" horiz-adv-x="1204" d="M80 1091q0 226 139 359q133 126 346 126h362v-285q-161 96 -313 96q-136 0 -226 -81q-98 -89 -98 -240q0 -213 183 -457q169 -222 372 -312v671v13v11q0 42 -5 63q-9 55 -37 97h283q-24 -47 -33 -100l-3 -84v-775q0 -40 5 -73t18 -78q7 -27 8 -29q5 -15 17 -39 q-420 114 -712 417q-306 317 -306 700z" />
<glyph unicode="h" horiz-adv-x="1189" d="M113 0q27 39 37 96q2 15 4 39t2 51v1206q0 56 -6 88q-10 56 -37 96h289q-26 -41 -34 -87t-8 -97v-103h471v103v14q0 49 -7 74q-9 57 -35 96h287q-13 -21 -20.5 -40.5t-14.5 -46.5q-2 -17 -4.5 -47.5t-2.5 -49.5v-1206q0 -31 1 -50.5t4 -36.5q9 -51 35 -99h-285 q27 38 34.5 85t7.5 101v592h-471v-592q0 -26 1 -48t3 -39q9 -53 36 -99h-287zM360 982h471v102h-471v-102z" />
<glyph unicode="i" horiz-adv-x="507" d="M113 187h287q-19 -27 -33 -110q-5 -27 -10 -77h-201q-5 49 -10 77q-14 82 -33 110zM113 323q27 39 37 95q2 15 4 39.5t2 50.5v884q0 56 -6 88q-10 56 -37 96h287q-26 -45 -33 -91t-7 -93v-884q0 -26 1 -48t3 -38q10 -53 36 -99h-287z" />
<glyph unicode="j" horiz-adv-x="938" d="M56 0v264l58 -20q26 -4 37 -4h23q183 0 320 162q149 177 149 458v532v14v11q0 43 -4 63q-12 60 -38 96h286q-24 -42 -32 -90q-2 -15 -5 -46t-3 -48v-601q0 -241 -122 -428q-111 -171 -299 -271q-179 -92 -370 -92z" />
<glyph unicode="k" horiz-adv-x="1093" d="M118 0q24 51 32 106q2 17 4 37.5t2 42.5v1206q0 47 -5 79q-5 53 -33 105h276q-9 -23 -17 -49.5t-11 -46.5q-6 -39 -6 -88v-172l133 122l112 105q22 21 27 46q4 11 6 32.5t2 50.5h439q-33 -24 -70 -52q-25 -19 -74 -58l-98 -85l-335 -288l116 -240l170 -356l120 -251 q15 -29 34.5 -62.5t41.5 -65t43.5 -59t46.5 -59.5h-353q0 19 1 27l1 19q0 57 -11 107q-4 26 -10.5 46.5t-16.5 38.5l-325 676v-728q0 -48 6 -89q3 -18 10 -42t18 -55h-276z" />
<glyph unicode="l" horiz-adv-x="967" d="M113 0q27 39 37 96q2 15 4 39t2 51v1206q0 56 -6 88q-10 56 -37 96h303q-56 -100 -56 -184v-1189h389q81 0 184 58v-261h-820z" />
<glyph unicode="m" horiz-adv-x="1452" d="M21 0q35 51 56.5 101.5t21.5 86.5l39 450q5 63 16.5 166t17.5 179.5t6 140.5q0 77 5.5 141.5t12.5 126.5q0 56 -6 88q-10 56 -37 96h351q5 -19 8.5 -27.5t11.5 -24.5q10 -15 16 -23.5t18 -18.5l161 -153l175 151q40 34 60 96h354q-30 -41 -36 -85q-3 -21 -5 -45t-2 -54 q5 -64 10 -138.5t5 -131.5l36 -481q0 -123 14 -257l24 -196q0 -40 21 -86q10 -21 25.5 -49t31.5 -53h-329q26 42 37 92q5 34 7.5 52t2.5 42l-90 1172l-341 -282l-326 276l-91 -1166q0 -22 3 -46t7 -48q10 -47 37 -92h-328z" />
<glyph unicode="n" horiz-adv-x="1183" d="M113 0q27 39 37 96q2 15 4 39t2 51v1206q0 56 -6 88q-10 56 -37 96h329q-11 -29 -11 -57q0 -25 1.5 -33t7.5 -26.5t22 -42.5q22 -32 66 -95q11 -15 71 -99l133 -184l92 -129v482v14v11q0 43 -5 63q-10 56 -37 96h287q-25 -44 -34 -90q-3 -22 -4.5 -45.5t-1.5 -48.5v-1206 q0 -26 0.5 -48t3.5 -39q10 -53 36 -99h-287q27 39 37 96q5 35 5 90v383l-464 649v-1032q0 -26 1 -48t3 -39q9 -53 36 -99h-287z" />
<glyph unicode="o" horiz-adv-x="1198" d="M52 187h1093q-18 -27 -33 -110q-5 -27 -11 -77h-1013q-5 49 -8 77q-12 82 -28 110zM52 923q0 159 38 279t111 205t171.5 126.5t229.5 41.5q127 0 223.5 -40t170 -124t111.5 -199.5t38 -263.5q0 -143 -40.5 -260t-116 -203.5t-174 -129.5t-227.5 -43q-122 0 -212 41 t-165 126.5t-115 192.5q-43 115 -43 251zM223 933q0 -98 20 -166t68 -136q52 -72 123.5 -112.5t156.5 -40.5q88 0 164 43t131 120q46 67 67 142.5t21 178.5q0 101 -22.5 171t-73.5 136q-54 69 -125.5 107.5t-161.5 38.5q-89 0 -160.5 -42t-122.5 -119q-46 -68 -65.5 -141.5 t-19.5 -179.5z" />
<glyph unicode="p" horiz-adv-x="1049" d="M113 0q27 39 37 96q2 15 4 39t2 51v1206q0 56 -6 88q-10 56 -37 96h592q46 0 100.5 -20.5t84.5 -53.5t43.5 -78t13.5 -86q0 -26 -4.5 -52t-17 -54.5t-30 -50.5t-35.5 -39q-44 -40 -103 -53q-20 -4 -52 -5h-345v-898q0 -26 1 -48t3 -39q9 -53 36 -99h-287zM360 1289h331 q21 0 36 14t15 35t-14.5 36.5t-36.5 15.5h-331v-101z" />
<glyph unicode="q" horiz-adv-x="1187" d="M80 655q0 220 61 434q67 232 178 366q128 154 284 154q148 0 271 -150q109 -135 174 -356q29 -108 44.5 -211.5t15.5 -210.5q0 -61 -6.5 -122t-20.5 -122t-32 -109.5t-49 -105.5l142 -135l-179 -137l-111 113q-106 -76 -268 -76q-262 0 -395 213q-108 177 -109 455z M288 643q0 -183 71 -306q81 -148 231 -148q25 0 34.5 1.5t24.5 5.5t31 10t31 13l-257 275l144 125l245 -243q26 60 41.5 145.5t15.5 159.5q0 242 -90 477q-97 248 -220 248q-130 0 -221 -264q-40 -118 -60.5 -243.5t-20.5 -255.5z" />
<glyph unicode="r" horiz-adv-x="1101" d="M113 0q27 39 37 96q2 15 4 39t2 51v1206q0 56 -6 88q-10 56 -37 96h592q46 0 100.5 -20.5t84.5 -53.5t43.5 -78t13.5 -86q0 -26 -4.5 -52t-17 -54.5t-30 -50.5t-35.5 -39q-44 -40 -103 -53q-20 -4 -52 -5h-64l108 -284l99 -277l104 -290q23 -60 60 -126q9 -17 25.5 -43 t42.5 -64h-327q11 24 16.5 48t5.5 51t-5 58q-6 25 -7 28.5t-7 18.5t-30 78q-29 80 -49 132q-15 41 -32 91q-9 26 -42 114l-170 465h-73v-898q0 -26 1 -48t3 -39q9 -53 36 -99h-287zM360 1289h331q21 0 36 14t15 35t-14.5 36.5t-36.5 15.5h-331v-101z" />
<glyph unicode="s" horiz-adv-x="1091" d="M29 -18v256q38 -17 65 -27.5t50.5 -15t51 -7t61.5 -2.5q169 0 272 125q93 118 93 290q0 116 -29 238l-56 237q-32 125 -32 207q0 129 87 219q95 97 245 98h33t40 -4l78 -9v-235q-20 14 -37 23t-37 17q-29 12 -69 12q-53 0 -85 -45q-28 -41 -28 -89q0 -75 31 -195l60 -245 q15 -61 23 -123.5t8 -117.5q0 -269 -178 -442t-440 -173q-5 0 -43.5 3.5t-61.5 3.5h-13h-14h-13h-12h-28.5t-21.5 1z" />
<glyph unicode="t" horiz-adv-x="1009" d="M19 1329v247h805q58 0 115 15q12 3 23 5.5t57 17.5q0 -97 -77 -166t-174 -69h-169v-1193q0 -26 1 -48t4 -39q9 -53 36 -99h-287q27 39 37 96q4 29 4 72v18v1199h-191q-80 0 -184 -56z" />
<glyph unicode="u" horiz-adv-x="1183" d="M82 187h990q-18 -27 -32 -110q-4 -27 -10 -77h-906q-5 49 -9 77q-14 82 -33 110zM82 1152q0 77 8.5 133t23.5 88q7 14 13.5 34.5t10.5 43.5t4 54v11q0 15 -3 25q0 9 -0.5 15t-6.5 20h335q-83 -90 -123 -164q-52 -97 -52 -198q0 -179 89 -370q67 -148 196 -226 q105 -64 247 -80v854v14v11q0 43 -5 63q-10 56 -37 96h287q-25 -44 -34 -90q-3 -22 -4.5 -45.5t-1.5 -48.5v-895q0 -55 6 -98q8 -44 37 -93q-158 26 -315 51q-188 32 -296 91q-148 80 -240 245q-66 118 -104 259q-35 123 -35 200z" />
<glyph unicode="v" horiz-adv-x="974" d="M2 1576h326q-17 -32 -26 -74q-3 -23 -5.5 -49.5t-2.5 -39.5v-19t3 -21l4 -34l50 -259l82 -416q22 -111 37 -197q11 -58 18 -103q9 77 52 291l83 425l54 259q7 38 7 86q0 31 -1 45t-5 35t-10 38.5t-15 32.5h320q-16 -20 -29 -43t-24 -54q-15 -42 -26 -94 q-29 -150 -44 -226q-7 -37 -28 -138q-15 -85 -88 -434q-17 -87 -38 -192q-24 -113 -34 -162q-5 -26 -7.5 -38.5t-4.5 -24.5l-7 -82q0 -52 16 -88h-365q12 25 17 51q4 12 5.5 29.5t1.5 35.5q0 33 -3.5 55t-5.5 35t-5 27q-19 117 -63 344q-8 46 -33 172.5t-29 146.5 q-12 60 -23 120l-74 369q-14 67 -35 114q-17 45 -45 77z" />
<glyph unicode="w" horiz-adv-x="1381" d="M-13 1576h341q-17 -32 -26 -74q-3 -23 -5.5 -49.5t-2.5 -39.5v-19t3 -21l4 -37l49 -268l123 -698l111 538l-140 668h206q2 -20 3 -28t5 -21q10 -62 17.5 -115t9.5 -77l43 241h201l-147 -670l103 -538q5 41 15 95.5t38 181.5l87 423q53 255 56 275.5t4 32.5t1 37 q0 36 -1.5 49t-5.5 39q-7 43 -26 75h341q-13 -15 -30.5 -43.5t-30.5 -54.5t-20.5 -48t-13.5 -45l-246 -1152l-10 -55l-3 -62q0 -20 1 -34.5t5 -30.5t8 -27.5t9 -23.5h-328l12 42l4 50q0 36 -5 67t-7.5 44t-6.5 30l-49 271l-49 -271l-13 -67q-3 -26 -3.5 -37.5t-0.5 -38.5 q0 -28 2.5 -48.5t10.5 -41.5h-328q5 13 10 24.5t8 27t4.5 31t1.5 33.5q0 17 -1 25.5t-3.5 33.5t-3.5 33t-5 25l-231 1152q-6 42 -34 95q-25 53 -61 96z" />
<glyph unicode="x" horiz-adv-x="1021" d="M23 0q44 47 78 109q12 22 28 57q12 25 17 35l256 644l-209 542q-10 36 -45 91.5t-77 97.5h323l-10 -37l-2 -40q0 -59 20 -103l112 -306l113 306q5 19 9 49t4 55l-2 39l-11 37h325q-22 -23 -41 -47q-10 -13 -36 -49q-29 -47 -47 -93l-208 -540l255 -646q16 -46 44 -91 q33 -60 79 -110h-329l12 40l2 50q0 16 -1 30t-4 28q-5 30 -14 50q-5 10 -36 91q-21 52 -41 104q-26 69 -50 134q-18 49 -26 74q-10 -31 -25 -74q-21 -58 -51 -133t-40 -102q-35 -88 -38 -98q-18 -37 -18 -106q0 -29 2.5 -49.5t11.5 -38.5h-330z" />
<glyph unicode="y" horiz-adv-x="950" d="M-34 1576h385l-2 -26q0 -54 40 -100l78 -88l36 45l44 56q14 17 22 30.5t13 26.5q11 25 11 56h385q-21 -8 -46.5 -26.5t-66.5 -54.5q-25 -21 -46 -41.5t-49 -49.5l-106 -116l-90 -106v-996q0 -31 1 -50.5t5 -41.5t11.5 -45t22.5 -49h-286q28 40 36 96q5 32 6 90v985 l-93 104q-13 14 -66 72q-25 27 -34 36q-25 27 -46 49.5t-40 40.5q-32 33 -63.5 59t-61.5 44z" />
<glyph unicode="z" horiz-adv-x="998" d="M66 0v90l548 1293h-250q-26 0 -50.5 -4t-52.5 -13q-36 -10 -94 -41v251h754l-598 -1380h360q71 0 122 12.5t107 45.5v-254h-846z" />
<glyph unicode="{" horiz-adv-x="607" d="M77 789q14 25 23.5 49.5t17.5 55.5q15 57 14 117q-5 52 -9 108.5t-4 105.5q0 63 -4.5 109.5t-8.5 94.5q0 73 50 112q51 36 136 35h306q-8 -18 -15 -39.5t-15 -55.5q-13 -59 -13 -91h-158q-16 0 -30 -0.5t-20 -2.5q-29 -5 -29 -37q4 -34 7 -84.5t3 -94.5l11 -179 q0 -69 -15 -128q-5 -28 -12.5 -48t-14.5 -27q12 -16 26 -77q7 -31 11.5 -64.5t4.5 -63.5q-5 -32 -8 -80.5t-3 -96.5l-10 -179q0 -26 15 -34q19 -6 64 -6h158q0 -38 12 -91q6 -28 13 -51.5t18 -45.5h-306q-46 0 -77 7.5t-56 26.5q-53 38 -53 114l5 118l15 177l6 122 q0 62 -12 116.5t-43 107.5z" />
<glyph unicode="|" d="M156 -106v1788h206v-1788h-206z" />
<glyph unicode="}" horiz-adv-x="607" d="M10 0q8 20 14.5 40t17 64.5t10.5 83.5h158h26q15 0 27 2t19.5 11.5t7.5 26.5q-4 33 -7 83.5t-3 94.5l-10 178q0 71 14 130t27 75q-11 12 -26 75t-15 128q4 32 7 82t3 96l10 180q0 24 -17 32q-10 4 -25.5 6t-37.5 2h-158q0 23 -2 41t-9 49q-12 56 -31 96h306q86 0 133 -33 q53 -36 53 -114q0 -34 -2.5 -66.5t-4.5 -52.5q0 -34 -3.5 -69t-10.5 -108l-6 -122q0 -62 14 -117q6 -29 16.5 -54.5t26.5 -50.5q-30 -48 -43.5 -104t-13.5 -120q0 -45 14 -214l13 -203q0 -76 -50 -112t-136 -36h-306z" />
<glyph unicode="~" horiz-adv-x="693" d="M63 810v219q62 -59 138 -60q45 0 173 39q66 18 118 18q90 0 138 -34v-219q-62 59 -138 60q-56 0 -118 -18t-109.5 -29t-63.5 -11q-87 0 -138 35z" />
<glyph horiz-adv-x="1615" d="M113 0q27 39 37 96q2 15 4 39t2 51v1206q0 56 -6 88q-10 56 -37 96h303q-56 -100 -56 -184v-1189h982q83 0 184 58v-261h-1413zM523 1576h385l-2 -26q0 -52 40 -100l78 -88l36 45l43 56q26 31 37 57q5 12 8 26.5t3 29.5h383q-20 -8 -46 -26.5t-65 -54.5q-44 -36 -97 -91 l-104 -116q-35 -40 -69 -79q-13 -15 -21 -27v-672q0 -26 0.5 -47.5t3.5 -38.5q9 -51 36 -100h-287q27 39 37 96q2 15 3.5 39.5t1.5 50.5v661l-93 104q-27 30 -52 57q-37 42 -49 51q-18 21 -34 38q-36 37 -50 52q-64 65 -126 103z" />
<glyph horiz-adv-x="1996" d="M66 0v90l548 1293h-250q-26 0 -50.5 -4t-52.5 -13q-36 -10 -94 -41v251h754l-598 -1380h1274q71 0 122 12.5t107 45.5v-254h-1760zM998 324q28 43 36 96q5 32 5 90v882v14q0 47 -5 74q-8 54 -36 96h830v-260q-50 32 -85.5 44.5t-99.5 12.5h-399v-84h672v-261 q-26 16 -44 25t-38 17q-40 14 -103 14h-487v-556h399q69 0 119 21l66 36v-261h-830z" />
<glyph horiz-adv-x="1374" d="M66 0v90l548 1293h-250q-26 0 -50.5 -4t-52.5 -13q-36 -10 -94 -41v251h754l-598 -1380h737q69 0 120 13q25 5 53.5 17t55.5 28v-254h-1223zM1003 323q27 39 37 95q5 35 5 90v884v14v11q0 43 -5 63q-10 56 -37 96h287q-25 -44 -34 -90q-3 -22 -4.5 -45.5t-1.5 -48.5v-884 q0 -26 1 -48t3 -38q10 -53 36 -99h-287z" />
<glyph horiz-adv-x="1543" d="M113 0q27 39 37 96q2 15 4 39t2 51v1206q0 56 -6 88q-10 56 -37 96h303q-56 -100 -56 -184v-1189h818q81 0 184 58v-261h-1249zM532 324q27 39 37 96q5 35 5 90v882v14v11q0 43 -5 63q-10 56 -37 96h831v-260q-50 32 -86 44.5t-99 12.5h-399v-84h672v-261q-50 30 -82 42 q-40 14 -104 14h-486v-556h399q70 0 118 21l67 36v-261h-831z" />
<glyph horiz-adv-x="1002" d="M113 0q27 39 37 96q2 15 4 39t2 51v1206q0 56 -6 88q-10 56 -37 96h303q-56 -100 -56 -184v-1189h389q81 0 184 58v-261h-820zM647 323q28 43 36 95q5 32 6 90v884v14q0 47 -6 74q-8 54 -36 96h286q-12 -23 -20.5 -45t-12.5 -45q-7 -46 -7 -94v-884q0 -31 1 -50.5 t4 -35.5q9 -52 35 -99h-286z" />
<glyph unicode="&#xa1;" d="M113 0q5 73 9 151.5t4 149.5l18 426q0 103 2.5 204.5t6 215t3.5 159.5h202q0 -107 2.5 -196t5 -199t2.5 -183q0 -46 13 -258q6 -106 6 -181q0 -85 4 -154t9 -135h-287zM153 1375v201h205v-201h-205z" />
<glyph unicode="&#xa2;" horiz-adv-x="712" d="M52 1040q0 123 58 211t160 122v203h205v-189l114 -6v-227q-46 30 -89 45q-42 12 -88 12q-174 0 -174 -179q0 -135 86 -257q73 -101 191 -167q107 -61 183 -61v-200q-16 3 -30.5 6.5t-16.5 3.5q-19 3 -46 15v-115h-205v208q-78 48 -139 105.5t-108 128.5 q-101 157 -101 341z" />
<glyph unicode="&#xa3;" horiz-adv-x="921" d="M149 0v1111q0 109 24 194t73 147q97 124 271 124q50 0 93 -4.5t78 -15.5q39 -10 75.5 -27t79.5 -47l-105 -208q-36 45 -70 67q-61 42 -138 42q-91 0 -136 -84q-36 -74 -36 -227v-36h431v-195h-431v-48h431v-195h-431v-395h431v-203h-640z" />
<glyph unicode="&#xa4;" horiz-adv-x="898" d="M47 1043l141 139l121 -123q15 8 28 12.5t39 10.5q34 10 73 10q75 1 140 -33l123 123l140 -140l-124 -122q14 -27 23.5 -65t9.5 -75q0 -40 -8 -73t-25 -67l123 -122l-139 -139l-123 121q-35 -15 -67.5 -23.5t-72.5 -8.5q-78 0 -140 33l-122 -122l-139 138l122 123 q-17 33 -24 68q-9 36 -9 72q0 77 33 140zM320 780q0 -26 9.5 -49.5t28.5 -41.5q37 -38 91 -39q53 0 91.5 38.5t38.5 91.5q0 51 -38 90t-92 39q-28 0 -50.5 -9t-40.5 -29q-38 -37 -38 -91z" />
<glyph unicode="&#xa5;" horiz-adv-x="950" d="M-34 1576h385l-2 -26q0 -54 40 -100l78 -88l36 45l44 56q14 17 22 30.5t13 26.5q11 25 11 56h385q-21 -8 -46.5 -26.5t-66.5 -54.5q-25 -21 -46 -41.5t-49 -49.5l-77 -85l-119 -137v-146h215v-195h-215v-52h215v-196h-215v-407q0 -31 1 -50.5t5 -41.5t11.5 -45t22.5 -49 h-286q28 40 36 96q5 32 6 90v407h-217v196h217v52h-217v195h217v135l-93 104q-13 14 -66 72q-25 27 -34 36q-25 27 -46 49.5t-40 40.5q-32 33 -63.5 59t-61.5 44z" />
<glyph unicode="&#xa6;" d="M156 -106v679h206v-679h-206zM156 1004v678h206v-678h-206z" />
<glyph unicode="&#xa7;" horiz-adv-x="1101" d="M56 -2v240q29 -14 47 -21.5t36 -15.5q48 -15 68 -15q108 0 133 47q9 21 14.5 76t5.5 147q0 35 -2 64.5t-7 56.5q-7 58 -27 130l-41 155q-8 35 -17 75t-15 72q-10 56 -10 129q0 127 88 219q95 98 245 98h5q42 66 112 104q76 41 171 41q44 0 73 -4l78 -9v-223 q-36 26 -67.5 33t-75.5 7q-55 0 -87 -45q-13 -19 -19.5 -41.5t-6.5 -47.5q0 -37 7.5 -82.5t23.5 -109.5l60 -248q15 -63 23 -124.5t8 -116.5q0 -269 -178 -442t-440 -173q-17 0 -42.5 1.5t-59.5 5.5q-26 0 -48.5 4t-54.5 13zM469 1124q0 -74 30 -191l61 -249 q30 -128 30 -240l-3 -84q30 53 45.5 112.5t15.5 128.5q0 110 -29 226q-15 57 -29 115q-16 66 -28 109q-30 120 -30 195q-15 -9 -26.5 -21.5t-20.5 -31.5q-15 -31 -16 -69z" />
<glyph unicode="&#xa8;" horiz-adv-x="630" d="M42 1375v201h201v-201h-201zM387 1375v201h202v-201h-202z" />
<glyph unicode="&#xa9;" horiz-adv-x="1379" d="M63 950q0 259 184.5 442.5t442.5 183.5t442 -184t184 -442q0 -259 -184 -442q-92 -92 -202.5 -138.5t-239.5 -46.5q-259 0 -443 184.5t-184 442.5zM351 1070q0 -217 167 -376q77 -72 175.5 -123t223.5 -81v254q-108 0 -216 91q-122 102 -122 228q0 43 25.5 66t66.5 23 q33 0 68 -11q16 -5 41 -17.5t53 -28.5v280l-92 4l-86 4q-137 0 -220.5 -91.5t-83.5 -221.5z" />
<glyph unicode="&#xab;" horiz-adv-x="840" d="M90 677v138l316 203v-190l-123 -84l123 -84v-187zM454 677v138l316 203v-190l-122 -84l122 -84v-187z" />
<glyph unicode="&#xad;" horiz-adv-x="524" d="M146 590v203h230v-203h-230z" />
<glyph unicode="&#xae;" horiz-adv-x="1379" d="M63 950q0 259 184.5 442.5t442.5 183.5t442 -184t184 -442q0 -259 -184 -442q-92 -92 -202.5 -138.5t-239.5 -46.5q-259 0 -443 184.5t-184 442.5zM410 553h222q-13 22 -15 46q-4 12 -5 21.5t-1 24.5v118l96 116l40 -96q27 -67 50 -128q5 -11 6.5 -24.5t3 -21.5t1.5 -10 q-2 -2 -4 -20.5t-7 -25.5h242l-36 58l-30 61l-54 149l-78 205l49 65q22 27 38 49t22 32q19 28 28 60q5 15 8.5 30t3.5 27q0 40 -26.5 67t-65.5 27h-488q8 -10 12 -20t6.5 -25t2.5 -47v-646q0 -33 -5 -56q-6 -21 -16 -36zM611 998v232h127q30 -1 30 -16q-2 -9 -6 -16l-15 -23 z" />
<glyph unicode="&#xaf;" horiz-adv-x="721" d="M31 1408l78 168h569l-79 -168h-568z" />
<glyph unicode="&#xb0;" horiz-adv-x="551" d="M84 1232q0 79 56.5 135t135.5 56q77 0 134 -55.5t57 -135.5q0 -78 -57 -135t-134 -57q-80 0 -136 57t-56 135zM214 1232q0 -25 18.5 -43t43.5 -18t43 18q8 9 13 19.5t5 23.5q0 24 -18 42q-16 19 -41 19q-24 0 -44 -18t-20 -43z" />
<glyph unicode="&#xb4;" horiz-adv-x="630" d="M103 1264l227 312h210l-243 -312h-194z" />
<glyph unicode="&#xb6;" horiz-adv-x="1047" d="M57 1429q0 74 51 110.5t135 36.5h743q-29 -42 -35.5 -82.5t-6.5 -101.5v-1396h-195v1394h-72v-1394h-198v713l-352 519q-69 99 -70 201zM301 1350q0 -14 3 -26.5t10 -28.5q12 -27 30 -51l135 -194v340h-109q-42 0 -57 -8q-13 -5 -12 -32z" />
<glyph unicode="&#xb7;" d="M156 624v244h202v-244h-202z" />
<glyph unicode="&#xb8;" horiz-adv-x="630" d="M182 -391l38 130q19 -13 46 -20q12 -3 23.5 -5t23.5 -2q28 0 49 15q9 7 14 16t5 24q0 55 -72 54q-16 0 -35.5 -2t-40.5 -7v203h114v-88q9 0 15 2h12q63 0 109.5 -48t46.5 -117q0 -84 -65.5 -134.5t-151.5 -50.5q-11 0 -29 3t-41 7q-40 7 -61 20z" />
<glyph unicode="&#xbb;" horiz-adv-x="840" d="M71 473v187l122 84l-122 84v190l316 -203v-138zM435 473v187l123 84l-123 84v190l316 -203v-138z" />
<glyph unicode="&#xbf;" horiz-adv-x="1040" d="M96 393q0 101 25 172q19 63 68 120q16 21 40 45.5t60 58.5l208 201q77 76 85 159q3 30 3 155h203v-156q0 -91 -46 -165q-15 -26 -48.5 -64t-86.5 -94q-111 -110 -160 -163q-37 -40 -64 -73t-43 -59q-38 -60 -38 -114q0 -41 15.5 -75.5t49.5 -69.5q65 -65 157 -64 q74 0 140 44q74 47 117 130l181 -101q-55 -121 -153 -193q-120 -87 -295 -87q-165 0 -285 103q-133 111 -133 290zM579 1469q0 44 31.5 74.5t76.5 30.5t76 -30t31 -75q0 -44 -32 -75.5t-75 -31.5q-45 0 -76.5 31.5t-31.5 75.5z" />
<glyph unicode="&#x152;" horiz-adv-x="1906" d="M56 778q0 180 42.5 324t130.5 255q172 220 473 219q42 0 76 -3.5t67 -13.5q51 -12 93 -37l-9 29q-1 3 -5.5 9.5t-11.5 15.5h852v-260q-50 32 -86 44.5t-99 12.5h-399v-84h525v-205h-525v-881h486q67 0 120 21l66 37v-261h-942l25 44q-35 -18 -94 -31t-139 -13 q-298 0 -472 210.5t-174 567.5zM261 778q0 -252 112 -414q121 -171 328 -171q39 0 72 5.5t68 19.5q65 24 109 60v1008q-46 43 -99 69q-63 28 -149 28q-207 0 -329 -181q-112 -169 -112 -424z" />
<glyph unicode="&#x153;" horiz-adv-x="1906" d="M56 778q0 180 42.5 324t130.5 255q172 220 473 219q42 0 76 -3.5t67 -13.5q51 -12 93 -37l-9 29q-1 3 -5.5 9.5t-11.5 15.5h852v-260q-50 32 -86 44.5t-99 12.5h-399v-84h525v-205h-525v-881h486q67 0 120 21l66 37v-261h-942l25 44q-35 -18 -94 -31t-139 -13 q-298 0 -472 210.5t-174 567.5zM261 778q0 -252 112 -414q121 -171 328 -171q39 0 72 5.5t68 19.5q65 24 109 60v1008q-46 43 -99 69q-63 28 -149 28q-207 0 -329 -181q-112 -169 -112 -424z" />
<glyph unicode="&#x178;" horiz-adv-x="950" d="M-34 1576h385l-2 -26q0 -54 40 -100l78 -88l36 45l44 56q14 17 22 30.5t13 26.5q11 25 11 56h385q-21 -8 -46.5 -26.5t-66.5 -54.5q-25 -21 -46 -41.5t-49 -49.5l-106 -116l-90 -106v-996q0 -31 1 -50.5t5 -41.5t11.5 -45t22.5 -49h-286q28 40 36 96q5 32 6 90v985 l-93 104q-13 14 -66 72q-25 27 -34 36q-25 27 -46 49.5t-40 40.5q-32 33 -63.5 59t-61.5 44zM198 1806v221h221v-221h-221zM578 1806v221h221v-221h-221z" />
<glyph unicode="&#x2c6;" horiz-adv-x="630" d="M2 1264l231 312h169l230 -312h-193l-121 151l-122 -151h-194z" />
<glyph unicode="&#x2dc;" horiz-adv-x="630" d="M34 1346v197q51 33 138 33q53 0 108 -16q135 -39 182 -39q38 0 73 14q20 9 35 18.5t31 25.5v-198q-51 -33 -139 -33q-32 0 -68.5 6.5t-80.5 21.5q-85 28 -141 28q-37 0 -73 -15q-15 -7 -32.5 -19t-32.5 -24z" />
<glyph unicode="&#x2000;" horiz-adv-x="1013" />
<glyph unicode="&#x2001;" horiz-adv-x="2027" />
<glyph unicode="&#x2002;" horiz-adv-x="1013" />
<glyph unicode="&#x2003;" horiz-adv-x="2027" />
<glyph unicode="&#x2004;" horiz-adv-x="675" />
<glyph unicode="&#x2005;" horiz-adv-x="506" />
<glyph unicode="&#x2006;" horiz-adv-x="337" />
<glyph unicode="&#x2007;" horiz-adv-x="337" />
<glyph unicode="&#x2008;" horiz-adv-x="253" />
<glyph unicode="&#x2009;" horiz-adv-x="405" />
<glyph unicode="&#x200a;" horiz-adv-x="112" />
<glyph unicode="&#x2010;" horiz-adv-x="607" d="M146 590l90 203h230l-90 -203h-230z" />
<glyph unicode="&#x2011;" horiz-adv-x="607" d="M146 590l90 203h230l-90 -203h-230z" />
<glyph unicode="&#x2012;" horiz-adv-x="607" d="M146 590l90 203h230l-90 -203h-230z" />
<glyph unicode="&#x2013;" horiz-adv-x="1154" d="M106 590l95 203h841l-96 -203h-840z" />
<glyph unicode="&#x2014;" horiz-adv-x="1576" d="M106 590v203h1365v-203h-1365z" />
<glyph unicode="&#x2018;" horiz-adv-x="411" d="M97 1343q0 78 70 159q66 74 116 74q35 0 68 -33q-9 -10 -19 -22q-14 -18 -25 -35q-20 -30 -29 -63q25 -15 44 -51q17 -36 17 -64q0 -46 -33 -77q-33 -30 -82 -30q-56 0 -91.5 42.5t-35.5 99.5z" />
<glyph unicode="&#x2019;" horiz-adv-x="411" d="M84 1234q27 30 45 57.5t29 62.5q-14 8 -24 20t-21 30q-16 36 -16 65q0 45 32 76t81 31q27 0 50.5 -10t41.5 -33q37 -42 37 -99q0 -78 -68 -155.5t-120 -77.5q-34 0 -67 33z" />
<glyph unicode="&#x201a;" horiz-adv-x="411" d="M84 -146q30 35 46.5 60.5t27.5 59.5q-26 16 -45 52q-8 17 -12 33t-4 31q0 46 32 77t81 31q56 0 92 -44q37 -40 37 -98q0 -80 -68.5 -157.5t-119.5 -77.5q-34 0 -67 33z" />
<glyph unicode="&#x201c;" horiz-adv-x="752" d="M97 1343q0 78 70 159q66 74 116 74q35 0 68 -33q-9 -10 -19 -22q-14 -18 -25 -35q-20 -30 -29 -63q25 -15 44 -51q17 -36 17 -64q0 -46 -33 -77q-33 -30 -82 -30q-56 0 -91.5 42.5t-35.5 99.5zM437 1343q0 39 17.5 79t52.5 80q66 74 117 74q34 0 67 -33q-9 -10 -19 -22 q-14 -18 -24 -33.5t-17 -31t-12 -33.5q25 -15 43 -51q17 -36 18 -64q0 -46 -33 -77q-33 -30 -82 -30q-56 0 -92 42.5t-36 99.5z" />
<glyph unicode="&#x201d;" horiz-adv-x="752" d="M84 1234q27 30 45 57.5t29 62.5q-14 8 -24 20t-21 30q-16 36 -16 65q0 45 32 76t81 31q27 0 50.5 -10t41.5 -33q37 -42 37 -99q0 -78 -68 -155.5t-120 -77.5q-34 0 -67 33zM425 1234q27 30 45 59q9 15 15.5 28.5t12.5 32.5q-14 8 -23.5 20t-20.5 30q-16 36 -17 65 q0 45 32.5 76t81.5 31q27 0 50.5 -10t40.5 -33q38 -42 38 -99q0 -79 -70 -158q-66 -76 -118 -75q-34 0 -67 33z" />
<glyph unicode="&#x201e;" horiz-adv-x="752" d="M84 -146q30 35 46.5 60.5t27.5 59.5q-26 16 -45 52q-8 17 -12 33t-4 31q0 46 32 77t81 31q56 0 92 -44q37 -40 37 -98q0 -80 -68.5 -157.5t-119.5 -77.5q-34 0 -67 33zM425 -146q30 35 45 59q9 15 15.5 28.5t12.5 32.5q-26 16 -44 52q-8 17 -12.5 33t-4.5 31 q0 46 32.5 77t81.5 31q56 0 91 -44q38 -40 38 -98q0 -80 -68 -157.5t-120 -77.5q-34 0 -67 33z" />
<glyph unicode="&#x2022;" horiz-adv-x="765" d="M106 789q0 127 81 219t196 92t196 -91.5t81 -219.5t-82 -220t-195 -92q-114 0 -195.5 90.5t-81.5 221.5z" />
<glyph unicode="&#x2026;" horiz-adv-x="950" d="M48 106q0 43 32 74.5t76 31.5t75 -31t31 -75q0 -45 -31 -75.5t-75 -30.5q-46 0 -77 30t-31 76zM368 106q0 43 32 74.5t75 31.5q45 0 76 -31t31 -75q0 -45 -31.5 -75.5t-75.5 -30.5q-45 0 -76 30t-31 76zM688 106q0 44 31.5 75t74.5 31q44 0 76 -31.5t32 -74.5 q0 -44 -32 -76q-32 -30 -76 -30q-46 0 -76 30t-30 76z" />
<glyph unicode="&#x202f;" horiz-adv-x="405" />
<glyph unicode="&#x2039;" horiz-adv-x="479" d="M82 677v138l315 203v-190l-121 -84l121 -84v-187z" />
<glyph unicode="&#x203a;" horiz-adv-x="479" d="M82 473v187l121 84l-121 84v190l315 -203v-138z" />
<glyph unicode="&#x205f;" horiz-adv-x="506" />
<glyph unicode="&#x2122;" horiz-adv-x="1442" d="M73 1385v191h485q32 0 95 21q0 -74 -35 -127t-90 -53h-84v-536q0 -12 0.5 -24t3 -24.5t5.5 -22t12 -21.5h-224q5 6 9 15.5t8 19.5q3 14 3.5 24t0.5 33v536h-95q-15 0 -22 -1.5t-19.5 -6t-25.5 -10.5t-27 -14zM608 789q7 10 13.5 22.5t12.5 28.5q11 26 11 43l16 177 l20 232l9 129v38l-3 72q-1 12 -3.5 23.5t-11.5 21.5h217q1 -1 2.5 -3.5t8.5 -9.5q4 -5 10 -10t9 -8l77 -66l78 66q1 1 9 8t11 10q5 5 9 13h217q-8 -11 -14 -47l-2 -70v-24v-14q0 -40 17 -247q7 -86 11.5 -139t15.5 -152q0 -16 9 -43q5 -11 11 -24q11 -17 17 -27h-242 q6 9 10.5 20t7.5 25.5t4 22t1 24.5l-37 469l-133 -107l-132 107l-39 -469q0 -33 7 -51q4 -14 6.5 -21t10.5 -20h-241z" />
<glyph unicode="&#x25fc;" horiz-adv-x="1576" d="M0 0v1576h1576v-1576h-1576z" />
</font>
</defs>
</svg>
