<?xml version="1.0" standalone="no"?>
<!DOCTYPE svg PUBLIC "-//W3C//DTD SVG 1.1//EN" "http://www.w3.org/Graphics/SVG/1.1/DTD/svg11.dtd" >
<svg xmlns="http://www.w3.org/2000/svg" xmlns:xlink="http://www.w3.org/1999/xlink" version="1.1">
<metadata></metadata>
<defs>
<font id="1669_elzevirnormal" horiz-adv-x="1675" >
<font-face units-per-em="2048" ascent="1638" descent="-410" />
<missing-glyph horiz-adv-x="446" />
<glyph unicode="&#x31;&#x2f;&#x34;" horiz-adv-x="1011" d="M96 709q6 32 15 51q92 8 344 8q311 0 344 -10q2 -2 14 -2q27 0 53 20q31 -48 31 -74q0 -30 -39 -30q-33 0 -61 14q-56 -29 -58 -29q2 0 2 2q0 15 -49 15q-12 0 -20 -3t-19.5 -12t-19.5 -14q-23 0 -41 7t-32.5 17t-16.5 11v2q0 6 -17 6q-22 0 -131 -14.5t-157 -14.5 q-83 0 -142 50zM100 2q0 8 2 10q36 28 128.5 162t123.5 160q14 11 23.5 23t13.5 19t10.5 23t8.5 21q22 7 31.5 11t23 17t20.5 33q44 37 105 127q3 -6 19.5 -25.5t29 -40.5t12.5 -38q0 -14 -1 -27t-2 -21t-1 -10q0 -45 7.5 -183.5t7.5 -182.5q0 -8 22 -8q10 0 64 6t55 6 q9 -6 12 -23q19 -16 19 -41q0 -24 -16 -43.5t-36 -19.5q-11 0 -20 6l-43 -18l-66 -66q-1 -14 -1.5 -41.5t-2 -45t-5.5 -36t-14.5 -28t-27.5 -9.5q-2 0 -27 5q-17 -7 -26 -7q-43 0 -43 78q0 20 7 87.5t7 68.5q-10 16 -92 16q-130 0 -166 -22q-13 1 -33 13.5t-24 12.5 q-15 0 -23 -8q-3 1 -20 3.5t-24 4t-18 5.5t-15.5 10.5t-4.5 15.5zM201 1475q0 31 13.5 43t55.5 12q88 0 105 -10q69 16 114 16q22 0 59.5 -7t57.5 -7q9 0 42.5 3t41.5 3q53 0 53 -41q0 -23 -12 -53l-47 -11q-67 -15 -76 -57l-8 -106q-14 -41 -14 -66l4 -27q4 -32 4 -69v-31 q0 -14 1.5 -29.5t6.5 -37.5t17 -36t30 -14q9 0 41.5 9.5t40.5 9.5q45 -51 45 -62q0 -20 -45 -65q-16 0 -56 17.5t-52 17.5h-158q-13 0 -84 -25t-88 -25q-37 0 -57 33q8 55 10 66q20 3 57 28l53 41q10 7 17 16t11.5 22t7.5 21t4 26.5t1 24v28v24.5q-14 32 -14 55q0 10 9 28 t9 24q0 21 -24 66.5t-62 60.5q-114 0 -114 84zM328 100q0 -12 18 -18l60 22l38 -6l19 6q4 -2 16 -2q35 0 35 64q0 82 -4 82v-2q20 14 20 28q0 6 -6 11.5t-12 5.5q-8 0 -39 -17q-12 -13 -31 -35t-38 -45t-36 -44.5t-28 -35.5z" />
<glyph unicode="&#x31;&#x2f;&#x32;" horiz-adv-x="1011" d="M96 709q6 32 15 51q92 8 344 8q311 0 344 -10q2 -2 14 -2q27 0 53 20q31 -48 31 -74q0 -30 -39 -30q-33 0 -61 14q-56 -29 -58 -29q2 0 2 2q0 15 -49 15q-12 0 -20 -3t-19.5 -12t-19.5 -14q-23 0 -41 7t-32.5 17t-16.5 11v2q0 6 -17 6q-22 0 -131 -14.5t-157 -14.5 q-83 0 -142 50zM201 1475q0 31 13.5 43t55.5 12q88 0 105 -10q69 16 114 16q22 0 59.5 -7t57.5 -7q9 0 42.5 3t41.5 3q53 0 53 -41q0 -23 -12 -53l-47 -11q-67 -15 -76 -57l-8 -106q-14 -41 -14 -66l4 -27q4 -32 4 -69v-31q0 -14 1.5 -29.5t6.5 -37.5t17 -36t30 -14 q9 0 41.5 9.5t40.5 9.5q45 -51 45 -62q0 -20 -45 -65q-16 0 -56 17.5t-52 17.5h-158q-13 0 -84 -25t-88 -25q-37 0 -57 33q8 55 10 66q20 3 57 28l53 41q10 7 17 16t11.5 22t7.5 21t4 26.5t1 24v28v24.5q-14 32 -14 55q0 10 9 28t9 24q0 21 -24 66.5t-62 60.5 q-114 0 -114 84zM221 451q0 17 21 35t51 36t39 27q8 0 26.5 13.5t45.5 27.5t57 14q77 0 119 -31l125 -94q8 -27 8 -63q0 -81 -82 -160q-80 -80 -80 -117q0 -47 108 -47q21 0 45 7t43 17t34.5 20t25 17t10.5 7q19 -6 19 -23q0 -24 -43 -76q-29 -36 -49 -68.5t-26.5 -47.5 t-13.5 -24t-18 -9q-1 0 -22 4t-35 4q-9 0 -39.5 -4t-61.5 -4q-12 0 -46 1t-52 1q-39 0 -83.5 -8t-55.5 -8q-62 0 -62 47q0 43 148 108q14 5 93 95t79 106q0 62 -21 102q-94 52 -131 52q-2 0 -24 -5t-56 -10.5t-67 -5.5q-29 0 -29 64z" />
<glyph unicode="&#x33;&#x2f;&#x34;" horiz-adv-x="1011" d="M90 582q7 39 14 51q92 8 342 8q146 0 236 -3t108 -6l17 -3q27 0 53 20q31 -48 31 -74q0 -30 -41 -30q-34 0 -59 14q-17 -8 -32 -15.5l-21 -10.5t-7 -3q2 0 2 2q0 15 -49 15q-14 0 -21 -3.5t-17 -11.5t-21 -14q-23 0 -41 7t-32.5 17t-16.5 11v2q0 6 -17 6q-28 0 -80 -8 l-76 -10q-5 0 -61.5 -5.5t-71.5 -5.5q-80 0 -139 50zM92 -123q0 4 22.5 31.5t55.5 68.5t51 70q43 70 106 141t74 105q24 8 52 22q20 9 129 166l36 -45q11 -14 15.5 -20.5t7.5 -16.5t2 -22q0 -14 -1 -27t-2 -21t-1 -10q0 -45 7 -183.5t7 -182.5q0 -8 25 -8q9 0 62 6t55 6 q9 -6 12 -23q18 -15 18 -40t-14.5 -44.5t-36.5 -19.5q-9 0 -18 6l-45 -18l-66 -66q0 -93 -7 -119q-13 -40 -44 -41q-2 0 -5.5 1t-9.5 2l-12 2q-18 -7 -26 -7q-43 0 -43 78q0 20 7 87.5t7 68.5q-10 16 -92 16q-136 0 -164 -22q-13 1 -34 13.5t-25 12.5q-15 0 -23 -8 q-2 0 -20 3t-24 5t-17.5 6t-16 11t-4.5 16zM199 766q0 76 100 76q37 0 78 -15q36 -36 65 -51l41 -20q71 19 120.5 67.5t49.5 102.5q0 56 -55 108q-2 10 -7.5 17.5t-11 13t-18 12t-21 10t-29 12t-32.5 13.5h2q0 -4 -110 -4q-72 0 -72 37q0 16 16 45l25 16q136 18 139 21 q36 15 70.5 52.5t34.5 82.5q0 40 -32 73t-75 33q-62 0 -119 -63q-56 -27 -96 -27q-53 0 -53 54q0 40 23 83.5t77 71.5q46 21 101 51q7 -1 46 -2t71 -3t76 -13t74 -29.5t51.5 -54.5t21.5 -86q0 -31 -43 -99.5t-43 -78.5q0 -19 13.5 -38.5t57.5 -53.5q53 -42 69.5 -83 t16.5 -110q0 -58 -4 -76q-1 -4 -8.5 -30.5t-7.5 -36.5q-20 -42 -49 -58l-72 -32q-2 2 -10 2q-14 0 -29 -15l-37 -26q-128 -51 -219 -51q-4 0 -31 4t-37 4q-14 -2 -28 -2q-8 0 -10 -2q-16 19 -39 35t-32 28t-9 35zM319 -27q0 -12 21 -18l57 22l39 -6l19 6q4 -2 18 -2 q33 0 33 64q0 82 -2 82v-2q18 15 18 26q0 6 -5.5 12.5t-12.5 6.5q-8 0 -39 -17q-12 -13 -31.5 -35t-38.5 -45t-36 -44.5t-29 -35.5z" />
<glyph unicode="&#x2e;&#x2e;&#x2e;" horiz-adv-x="1447" d="M51 158q0 28 27 37l37 16q2 1 22 17.5t37.5 26t32.5 9.5q44 0 84.5 -40t40.5 -83q0 -14 -2 -18q4 -36 4 -76q-9 -55 -86 -55q-55 0 -126 53.5t-71 112.5zM551 166q0 49 29 74t96 36q41 0 94 -40q39 -33 39 -89q0 -60 -43.5 -102.5t-106.5 -42.5q-57 0 -82.5 38.5 t-25.5 125.5zM1004 113q0 21 31 78t57 61l45 -6h8q56 0 97.5 -43t41.5 -94q0 -71 -80 -80q-23 -23 -53 -23q-33 0 -90 39t-57 68z" />
<glyph unicode="&#xfb01;" horiz-adv-x="1083" d="M-2 37q0 63 45 63q14 0 31 -10h16q57 26 57 162q0 7 -1 19t-1 20q0 15 6.5 102.5t6.5 110.5q0 196 -78 196q-22 0 -51 -16q-21 12 -21 25q0 20 74 55q75 35 88 53.5t12 86.5v34q0 44 8 63q62 212 188 347t269 135h19q16 4 28 4q21 0 164 -33q39 -36 39 -90q0 -84 -72 -84 q-77 0 -178 125q-28 4 -37 4q-115 0 -193.5 -103t-78.5 -245q0 -5 -7 -76t-7 -92q0 -111 71 -111q32 0 62 15q173 0 222.5 10t98.5 59h13q36 0 36 -47v-88q-8 -13 -8 -201q0 -430 17 -454q14 -17 38 -17q1 0 14.5 4.5t37 8.5t49.5 4q16 0 33 -10q4 -12 4 -15 q0 -34 -17.5 -48.5t-54.5 -14.5q-25 0 -77 8t-58 8q-10 0 -95.5 -8t-119.5 -8q-4 0 -12.5 1t-12.5 1l-28 22q3 29 43 41l69 23q8 16 8 51q0 9 -3 43t-3 43q0 33 13 59l-9 224q-6 180 -18 192q-42 19 -193 19q-68 0 -114 -11q-23 -71 -23 -176q0 -24 3 -109t3 -94 q0 -15 -2 -54.5t-2 -47.5q0 -111 103 -152q12 -3 12 -20q0 -20 -12 -35.5t-31 -15.5q-15 0 -46 11t-46 11q-21 0 -83.5 -5.5t-117 -11t-55.5 -5.5q-35 0 -35 45z" />
<glyph unicode="&#xfb02;" horiz-adv-x="1187" d="M-10 6q0 20 37.5 36.5t82.5 33t56 33.5q4 16 4 151q0 132 -4 168q18 30 18 164q0 61 -10 84q-46 -12 -68 -12q-25 0 -41 12.5t-16 25.5q0 21 51 50q24 13 34 18t21.5 13.5t14 10.5t6.5 11.5t3 12.5t-1 18v24v49q-2 23 -2 52q0 48 8 67q4 8 21 62.5t42.5 102t65.5 85.5 l107 98q146 35 196 35q20 0 70 -8t64 -8q8 0 24 4q2 0 31.5 25.5t36.5 25.5q37 0 37 -162q0 -29 -6.5 -192.5t-6.5 -194.5q0 -111 15 -141q0 -1 -0.5 -15t-1.5 -40.5t-2 -62t-1.5 -90t-1.5 -114.5q-4 -137 -4 -346q0 -39 64 -39q21 0 35 2q30 -9 30 -61q-16 -7 -387 -10 q-16 10 -16 34q0 20 9.5 26t23 3t30 1t30 16t23 51.5t9.5 103.5q0 7 -1 19t-1 16q6 21 6 90q0 48 -1 94t-2.5 77.5t-3 55.5t-2.5 37.5t-1 14.5t5 12t9 23t4 20v6l-24 21q-21 6 -56 6t-66.5 -3.5t-50 -6.5t-22.5 -3q-28 0 -74 11l-41 -11q-39 -12 -51.5 -66.5t-17.5 -225.5 q12 -32 12 -74q0 -97 -8 -144l-6 -55q0 -53 47 -80h12q30 0 55 -14.5t25 -34.5q0 -11 -10.5 -24t-20.5 -13q-8 0 -29 10.5t-24 10.5q-32 -4 -76 -4q-1 0 -24.5 8t-32.5 8q-160 -39 -203 -39q-57 0 -57 45zM328 831q13 -30 25 -37.5t42 -7.5q61 0 119 9q40 -19 78 -19 q84 0 103.5 52t19.5 243q0 264 -170 264q-78 0 -145.5 -72t-67.5 -157q0 -25 6 -49q-10 -105 -10 -226z" />
<glyph unicode="&#xfb03;" horiz-adv-x="1603" d="M-10 766q0 16 15.5 22.5t33.5 7t33.5 11.5t15.5 35q0 20 -1.5 37.5t-2.5 23.5t0 6q12 133 39 202.5t98 148.5q69 77 129.5 105t175.5 28q43 16 70 16q63 0 135 -90q2 -2 8 -2q11 0 25 20l18 29q51 55 121.5 86t145.5 31q37 0 137 -17q85 -18 121 -29t39 -16.5t4.5 -19 t15.5 -27.5q0 -37 -24 -67.5t-58 -30.5q-10 0 -38 20.5t-71.5 55t-70.5 53.5h-84q-15 6 -27 6q-16 0 -45 -13.5t-51.5 -26.5t-24.5 -13q-2 -2 -79 -115l-2 -19q-2 -18 -4.5 -48.5t-4.5 -67.5t-4 -83t-2 -87q0 -73 17 -103t59 -30q38 0 98.5 12t104.5 12h82q49 0 106 11 q21 34 78 34q29 -23 29 -61q0 -12 -7.5 -53.5t-7.5 -52.5q0 -14 7.5 -60.5t7.5 -62.5v4q2 -12 0 -28t-5.5 -84.5t-3.5 -139.5q0 -97 13 -154q9 -37 29.5 -60.5t39 -31t33 -21t14.5 -32.5q0 -35 -38 -49q-39 26 -113 26q-36 0 -145 -16q-17 -10 -29 -10q-25 0 -47.5 16.5 t-22.5 36.5q0 37 45 37t62.5 15t17.5 46q0 198 -10.5 389t-24.5 215h-37q-27 0 -117 4.5t-155 4.5q-63 0 -63 -56q0 -8 5 -46t5 -50q0 -10 -5 -37t-5 -78q0 -61 1.5 -115.5t2.5 -76t0 -21.5v4q0 -40 13 -114q12 -73 30 -78q3 0 11.5 1t16.5 1q24 0 36 -1.5t24 -13t12 -34.5 q0 -47 -37 -47q-11 0 -38 7.5t-48.5 15t-19.5 7.5q-15 0 -38.5 -6t-25.5 -6l-12 4l-66 -10q-56 -10 -73 -8q-40 0 -62 16q6 74 80 74q19 0 25 -2q4 2 6.5 13t2.5 21l1 11q0 33 -6 180t-6 178q0 13 8 52.5t8 50.5q0 2 -4 16t-8 35.5t-4 42.5q0 27 8 43l-29 18q-15 -6 -29 -6 q-13 0 -40 8.5t-33 8.5q-13 0 -58.5 -9.5t-60.5 -9.5q-21 0 -62 5t-43 5q-27 0 -36 -30.5t-9 -126.5v-291v2q0 -31 2 -51q0 -4 1.5 -59t5.5 -95l23 -11q122 -53 134 -75q-6 -20 -112 -20l-168 6q-12 0 -52.5 -10.5t-56.5 -10.5q-12 0 -12 27t45 66q18 16 28.5 31.5t14 35.5 t4 32t-0.5 39t-1 40q0 125 -8 276q12 52 12 125v29q0 8 -16.5 21t-16.5 22q-67 27 -67 49zM225 840q0 -11 3.5 -19.5t11.5 -13t15.5 -7.5t21.5 -3.5t24 -0.5t27.5 0.5t27.5 0.5q64 0 122 1.5t80 2.5t22 0q20 0 65 57v16q0 28 9.5 124t9.5 114q0 31 -2 45l-33 49 q-42 64 -67 91t-38 31.5t-41 4.5q-3 0 -9 -1t-9 -1q-136 -24 -187 -102.5t-51 -251.5q0 -51 2 -82q1 0 0 -5t-2.5 -19t-1.5 -31z" />
<glyph unicode="&#xfb04;" horiz-adv-x="1593" d="M-10 762q0 16 15.5 22.5t33.5 7t33.5 11.5t15.5 35q0 20 -1.5 38t-2.5 24.5t0 6.5q12 98 41 174t96 152q71 79 130.5 107t174.5 28q32 14 70 14q63 0 135 -90q2 -2 8 -2q10 0 25 21l18 28q46 55 119 86t148 31q52 0 204 -31q39 39 62 52l28 -7q7 -7 7 -147 q0 -156 -9 -475q7 -14 7 -37q0 -17 -7 -61l2 -84q7 -32 7 -84q0 -8 -5.5 -108t-5.5 -142q3 -134 13 -176q9 -42 29 -68t38.5 -34t32.5 -16t14 -18q0 -19 -18.5 -34t-44.5 -15q-14 0 -50.5 5.5t-39.5 5.5q-85 0 -269 4q-6 9 -6 16q0 22 20 37.5t43.5 24.5t43.5 31.5t20 56.5 v14q11 33 11 139q0 20 -5 35l3 340q-13 42 -25 61q-8 0 -25 -1t-26 -1q-27 0 -107 4.5t-135 4.5q-63 0 -63 -56q0 -8 5 -46t5 -50q0 -5 -5 -23.5t-5 -85.5q0 -61 1.5 -117t2.5 -78.5t0 -21.5v4q0 -37 12 -112q13 -77 31 -80q3 0 11.5 1t16.5 1q24 0 37 -2t24 -14t11 -35 q0 -47 -37 -47q-12 0 -50.5 16t-45.5 16q-13 0 -41.5 -7t-30.5 -7t-14 4q-7 0 -66 -9t-73 -9q-39 0 -60 18q3 74 78 74q5 0 25 -4q10 2 10 47q0 34 -6 178.5t-6 177.5q0 13 8 53t8 52q0 2 -3.5 17t-7 37.5t-3.5 43.5q0 19 6 37l-29 18q-20 -4 -29 -4t-38 7.5t-35 7.5 q-13 0 -58.5 -8.5t-60.5 -8.5q-21 0 -62 5t-43 5q-27 0 -36 -31t-9 -128v-289v2q0 -31 2 -51q0 -4 1.5 -59t5.5 -95l35 -13q114 -49 122 -75q-6 -18 -112 -18l-168 6q-12 0 -52.5 -10.5t-56.5 -10.5q-10 0 -10 25t43 65q17 15 27.5 30.5t14 36t4.5 32t0 40.5t-1 40 q0 127 -8 278q12 52 12 123v29q0 16 -25 35.5t-50 35t-25 21.5zM225 836q0 -11 4 -18.5t13.5 -12t18 -7t24.5 -3.5t26.5 -1t29.5 0.5t28 0.5q211 0 211 2q20 0 65 57q0 25 9.5 119.5t9.5 116.5q0 29 -2 43l-33 47q-72 97 -90 113t-58 16q-3 0 -8 -1t-8 -1 q-136 -24 -187 -103.5t-51 -249.5q0 -38 2 -61q1 0 0 -5.5t-2.5 -20t-1.5 -31.5zM776 932q0 -72 17.5 -101.5t58.5 -29.5q14 0 65 11t58 11q20 0 196 4v287q17 39 17 49v2l-8 4q-9 9 -9 52q0 74 -11.5 102t-55.5 57h-84q-20 4 -27 4q-23 0 -71 -26l-48 -27h-2 q-16 -23 -79 -114q-2 -2 -6 -43.5t-7.5 -110.5t-3.5 -131z" />
<glyph horiz-adv-x="0" />
<glyph horiz-adv-x="682" />
<glyph unicode=" "  horiz-adv-x="446" />
<glyph unicode="&#x09;" horiz-adv-x="446" />
<glyph unicode="&#xa0;" horiz-adv-x="446" />
<glyph unicode="!" horiz-adv-x="888" d="M571 106q0 52 40 92.5t96 41.5h8q45 0 73.5 -40t28.5 -94q0 -106 -102 -106q-10 2 -34 2.5t-43.5 4t-31.5 13.5q-35 41 -35 86zM618 1104q0 35 9 53q-2 2 -2 17q0 38 25 74t55 36q47 0 81 -94v-94q-4 -101 -24 -135v-11q0 -24 -17.5 -127t-17.5 -108q0 -18 8 -57t8 -46 q0 -6 -4 -22.5t-4 -30.5q0 -24 4 -59.5t4 -40.5q0 -38 -10.5 -54t-34.5 -16h-8q-39 0 -39 103q0 2 1.5 20t3 49.5t1.5 67.5q0 27 -3.5 100t-7 133t-3.5 56q0 12 -12.5 90t-12.5 96z" />
<glyph unicode="&#x22;" horiz-adv-x="888" d="M207 1204q0 23 1 47.5t1 28.5v12q41 35 78 35q41 0 70.5 -30.5t29.5 -73.5q0 -25 -8 -41q6 -15 6 -29q0 -15 -18.5 -53t-18.5 -49q-3 -6 -1.5 -13t5.5 -38.5t4 -63.5q0 -46 -75 -70q-17 4 -34.5 45.5t-17.5 71.5q0 8 7.5 34.5t7.5 35.5q0 18 -11.5 44.5t-11.5 28.5 q0 9 2 11q-16 29 -16 67zM475 1208q0 23 1 48.5t1 29.5v12q54 48 109 48q92 0 92 -76q0 -18 -6 -33q4 -16 4 -25q0 -17 -31 -84q-5 -10 -12 -24.5t-9 -18.5t-5.5 -12.5t-4 -10.5t-1.5 -9t-1 -11v-14q0 -32 2 -55q0 -57 -8.5 -82t-30.5 -25q-12 0 -30 11q-14 5 -30.5 41.5 t-16.5 70.5q0 6 7 33.5t7 36.5q0 18 -11.5 45t-11.5 29q0 7 3 10q-17 27 -17 65z" />
<glyph unicode="#" horiz-adv-x="960" d="M-2 731q4 35 25.5 41.5t129.5 7.5q66 1 109 2q-10 23 -10 86v39q-2 0 -26.5 -2.5t-56 -5t-50.5 -2.5q-68 0 -115 41q4 35 24 41.5t124 7.5q64 1 106 2q2 16 2 37q0 6 -3 53.5t-3 63.5q0 72 43 121q10 -3 15.5 -5t11.5 -5t8.5 -8.5t5 -11.5t3 -18t1.5 -24.5t0.5 -34t0 -43 t0.5 -55.5t1 -68q86 0 127 2q-10 55 -10 140q0 71 43 120l41 -12q3 -21 6 -248q46 0 80 -0.5t50 -1.5t24.5 -2t12 -1.5t5.5 -0.5q14 0 45 17q25 -42 25 -62q0 -24 -33 -24q-19 0 -49 10l-49 -23q2 0 2 2q0 13 -37 13q-11 0 -18 -3t-16.5 -10t-17.5 -12q-20 0 -24 2v-111 q44 0 76.5 -0.5t48 -1.5t24 -2t12 -1.5t5.5 -0.5q14 0 45 17q24 -41 24 -60q0 -24 -32 -24q-16 0 -49 10q-48 -25 -50 -25q2 0 2 2q0 13 -36 13h-21l-31 -25q-16 0 -20 2q-1 -36 -2.5 -64t-2.5 -43t-1.5 -25t-1 -14t-0.5 -6.5v-5.5q0 -21 16 -43q-41 -24 -61 -24 q-25 0 -25 33q0 18 10 51q-6 13 -11.5 25t-8 16.5t-2.5 5.5q0 -2 2 -2q12 0 12 39q0 11 -2 17t-8.5 15.5t-11.5 18.5q0 12 2 14q-24 -6 -62 -6q-7 0 -23 1t-26 1q-2 -37 -3.5 -66.5t-2 -44t-1.5 -24t-1 -13v-5.5q0 -19 16 -41q-42 -25 -61 -25q-25 0 -25 31q0 24 12 51 l-22 49q0 -2 2 -2q12 0 12 60l-24 30l2 4q-4 0 -8 1t-5 1q-3 0 -52 -5t-68 -5q-68 0 -115 41zM344 784q51 2 143 2q0 24 -10 144q-38 0 -133 -12v-134z" />
<glyph unicode="$" horiz-adv-x="1085" d="M14 289q0 49 52 49h6h6t5.5 -1t6 -3t5.5 -5.5t5.5 -9t4.5 -13t4.5 -18.5t3.5 -24q5 -46 55 -81.5t111.5 -51.5t117.5 -16q-4 344 -4 516q-31 4 -76 22q-256 164 -256 310q0 158 203 235q9 51 129 66q0 8 1 24.5t1 24.5q0 7 -1 19.5t-1 19.5q10 13 13 34l4 21q5 0 32 -18 q17 -12 22 -23t5 -35q0 -11 -4 -61h53q122 0 180 -25h11q40 0 64 -49t24 -119q0 -43 -13 -59q-54 0 -71 41l-37 90q-37 70 -182 70h-19q8 -21 8 -58q0 -34 -16 -84q22 -55 22 -119q0 -45 -8 -102l-12 -102q11 -11 71.5 -47.5t82.5 -36.5q208 -135 208 -295q0 -104 -88 -188 t-254 -103q1 -17 3 -40t2 -30q0 -22 -39 -71q-37 12 -43 16q-7 4 -13 107q-21 8 -100 8q-36 0 -82.5 12t-62.5 12q-8 0 -29.5 -2t-24.5 -2q-41 0 -59 53v7q0 9 -13.5 67t-13.5 68zM258 971q0 -58 29 -92.5t106 -77.5q0 73 1.5 129.5t3.5 86.5t3.5 48t2.5 25l2 8q0 22 -17 49 q0 34 2 57q-65 -23 -99 -84.5t-34 -148.5zM471 463q25 -16 25 -115q0 -28 -6 -118l-5 -89l2 -12q156 49 156 199q0 35 -8 59v14q0 23 -6 58l-41 39q-34 34 -96 80q-6 -85 -21 -115z" />
<glyph unicode="%" horiz-adv-x="1306" d="M0 698q0 16 12.5 81.5t12.5 82.5q44 78 98.5 117t136.5 39q107 0 176.5 -68.5t69.5 -183.5q0 -44 -0.5 -69t-8.5 -51.5t-13 -38.5t-27.5 -36.5t-37 -37t-57.5 -48.5q-9 -7 -53.5 -14.5t-48.5 -9.5q-102 23 -154 53q-34 20 -70 76.5t-36 107.5zM113 711q0 -34 20.5 -59 t46.5 -43t31 -27q108 2 151.5 30.5t43.5 110.5q0 62 -13.5 96t-48.5 60q-50 36 -102 36q-58 0 -93.5 -50.5t-35.5 -153.5zM219 -180q11 43 260 555q183 380 277 542q11 19 12.5 23.5t1.5 14.5v10q0 16 -2 22q14 2 35 2q61 0 61 -33q0 -30 -47 -71q0 -46 -41 -131 t-85.5 -156.5t-45.5 -73.5q4 -6 8 -45q-64 -128 -106 -164q4 -16 4 -20q0 -8 -2 -17.5t-7 -22.5t-9.5 -24.5t-13.5 -30.5t-15.5 -31l-19.5 -36t-20 -37t-23 -42t-23 -42l-56 -131q-37 -69 -104 -96zM604 43q0 15 12.5 80t12.5 82q40 77 96 116t139 39q106 0 176 -70.5 t70 -180.5q0 -44 -0.5 -69t-8.5 -51.5t-12.5 -38.5t-27 -36t-37.5 -37.5t-57 -48.5q-9 -7 -54 -15t-49 -10q-103 25 -153 54q-36 25 -71.5 79.5t-35.5 106.5zM717 53q0 -30 17.5 -55t49 -48.5t33.5 -25.5q104 2 148.5 31.5t44.5 110.5q0 62 -13.5 95.5t-48.5 59.5 q-51 39 -102 39q-57 0 -93 -53t-36 -154z" />
<glyph unicode="&#x26;" horiz-adv-x="1683" d="M-4 397q12 17 22 67.5t21 67.5q40 63 137 144q31 26 73.5 52.5t66.5 41t24 18.5q-3 18 -29 52l-41 41q-55 64 -55 145q0 108 86.5 196.5t220.5 88.5q115 0 187.5 -62.5t72.5 -161.5q0 -45 -23 -84t-81 -85l-98 -70q-2 -2 -2 -8q0 -13 49.5 -82.5t99 -132.5t49.5 -60 q3 -2 26 -33t51.5 -57t51.5 -26q11 0 18.5 5t24.5 25q14 19 28.5 34t22 21.5t12.5 14.5t5 18q0 3 -1 5.5t-1 5.5q28 31 63 68.5t50 53.5t34 38t25.5 31t14.5 23t11 24t5 24l-57 38q-58 38 -58 54q0 14 14 27.5t31 13.5t48 -11.5t46 -11.5q12 0 86.5 2t130.5 2q62 0 91 -4 t36.5 -12t7.5 -25q0 -45 -41 -45q-4 0 -20 4h-76q-137 -58 -254 -184q-61 -67 -194 -252l-9 -30q-32 -38 -32 -80q0 -52 51 -97q3 -4 20 -25.5t24 -29t23 -22t32.5 -21.5t35.5 -10q107 -17 119 -17q70 0 123 50q7 7 16 27.5t21 34t32 13.5q80 0 80 -79q0 -92 -98 -144 q-20 -14 -252 -14q-202 0 -276 6q-87 60 -87 133q0 13 4.5 42.5t4.5 35.5q0 37 -41 49q-3 5 -54 70t-98.5 130.5t-48.5 80.5q-5 5 -61 68t-104 112t-62 49q-6 0 -13 -12t-26.5 -40t-48.5 -57q-66 -66 -86.5 -103.5t-20.5 -94.5q0 -76 29 -105q0 -103 65.5 -160t182.5 -57 q54 0 112.5 22t102.5 44t63 22q22 0 31 -12q0 -54 -119 -123l-168 -86l-37 -2q-7 0 -21.5 -1t-21.5 -1q-266 0 -336 178q-19 15 -30.5 31.5t-17 39.5t-7.5 39.5t-4 51t-4 55.5zM385 1092q0 -79 26.5 -152.5t71.5 -73.5q55 0 112.5 64.5t57.5 126.5q0 64 -55 119q0 20 -36 58 t-64 38q-54 0 -83.5 -51.5t-29.5 -128.5z" />
<glyph unicode="'" horiz-adv-x="569" d="M168 981q0 13 12 41t13 35q0 18 -7.5 45t-7.5 28t0.5 3t1.5 5.5t2 6.5q-10 30 -10 49q0 14 7 54t7 52q47 35 99 35q41 0 69.5 -23t28.5 -55q0 -16 -10 -43q4 -20 4 -26q0 -12 -2.5 -25t-7.5 -27t-9 -25t-12.5 -27t-12.5 -23.5t-13 -23.5t-11 -19q-19 -33 -28.5 -67 t-11 -52t-9.5 -29.5t-27 -11.5q-16 0 -30 14q-15 4 -25 45t-10 64z" />
<glyph unicode="(" horiz-adv-x="509" d="M-4 563q0 95 8 152q2 10 36 87t34 105q0 23 -2 33q8 8 14 24.5t9 29.5l3 14q63 141 81 173.5t65 92.5q0 3 -1 5t-1 5q0 34 31 55t71 21q66 0 66 -57q0 -15 -11 -52q-3 -13 -52 -55t-52 -59l-19 -64q-14 -33 -38 -57q-3 -28 -29 -70l-43 -65q-4 -16 -4 -27q0 -17 3 -60.5 t3 -50.5v-12q-51 -201 -51 -244q0 -28 10 -45q0 -7 -1 -20.5t-1 -20.5q0 -194 86 -407q2 -3 2.5 -17.5t7 -34t21.5 -36.5q31 -31 39 -51q0 -3 -1 -5.5t-1 -5.5q0 -20 8 -51q4 -11 35 -35.5t59.5 -51.5t28.5 -46q0 -63 -60 -63q-14 0 -20 6q-11 3 -80 95t-72 107v11 q0 32 -16 51t-31.5 33t-15.5 34q0 23 2 41q0 37 -41 64q-31 75 -31 190q-49 79 -49 334z" />
<glyph unicode=")" horiz-adv-x="638" d="M96 -352q0 16 20 37.5t60 56t64 59.5q17 29 48 126t31 120v6q19 22 19 70v24q-2 -2 12.5 45t29.5 93.5t15 42.5q0 13 -5 54.5t-5 49.5q0 160 -20 308.5t-48 172.5q-15 66 -43.5 120.5t-57.5 89t-56.5 64.5t-44.5 60.5t-17 63.5q0 37 47 37q1 0 41 -5q6 -15 43 -46.5 t39 -34.5q58 -70 84 -109.5t31.5 -59.5t8.5 -54v-4t0.5 -3t0.5 -4v-4l45 -92v-8q0 -31 9.5 -52.5t21.5 -34t21.5 -46t9.5 -84.5v-33q0 -21 12 -86.5t12 -77.5q0 -7 -4 -35l-57 -301q-10 -8 -15 -21t-7.5 -32t-4.5 -27q-6 -19 -16 -45t-18 -45t-25 -57t-25 -56l-88 -198 l-41 -45q-40 -58 -80 -58q-47 0 -47 58z" />
<glyph unicode="*" horiz-adv-x="1007" d="M51 1008q0 32 35 32q26 0 59 -20q-3 0 58.5 -30t129 -60.5t77.5 -30.5q-3 7 -38.5 69t-69.5 119.5t-34 55.5q-24 34 -24 55q0 33 37 33q11 0 26.5 -4.5t37 -16.5t36 -40t14.5 -68q0 -3 -1 -6t-1 -6q9 -11 19 -56q6 -30 11 -46.5t8 -23t12 -20t16 -26.5q16 26 37 139 q27 128 39 157t47 29q45 0 57 -72q-10 -50 -80 -153q-17 -22 -26 -37.5t-11 -23t-4.5 -23.5t-7.5 -31q10 3 73.5 40t121 72.5t55.5 35.5q34 24 59 24q35 0 35 -35q0 -34 -33 -73l-53 -27q-27 -12 -47 -12h-8q-22 -13 -62 -21q-26 -6 -42 -11t-23 -8t-23.5 -13t-30.5 -17 q36 -13 150 -27q133 -18 167 -30t34 -43q0 -43 -72 -58q-23 6 -36 10.5t-25.5 10t-55.5 24.5t-102 43l-113 48l56 -105q24 -46 40.5 -74t21.5 -34t8.5 -10t5 -8t7.5 -23l21 -54q-12 -71 -57 -71q-49 0 -58 73q-1 0 -16 60t-31.5 124.5t-17.5 69.5l-33 -57q-6 -49 -33 -117 q0 -3 1 -6t1 -6q0 -20 -12 -41q-27 -56 -48 -72t-54 -16q-37 0 -37 33q0 22 24 57q136 224 142 244l-172 -82q-16 -23 -105 -53q-78 9 -78 53q0 40 72 55q28 6 75.5 19t51.5 14q128 32 139 41l-63 29q-46 3 -123 24q-4 -2 -17 -2q-24 0 -40 8q-59 22 -79 44.5t-20 54.5z" />
<glyph unicode="+" horiz-adv-x="1245" d="M14 383l13 51q34 6 401 12l6 99q4 57 4 59t-1.5 29.5t-3 61.5t-1.5 50q0 89 51 146q36 -6 49 -14q9 -30 9 -428h188q39 0 69 -0.5t45 -1.5t24.5 -2.5t14 -2t7.5 -0.5q26 0 53 21q31 -48 31 -74q0 -31 -41 -31q-28 0 -60 13q-52 -27 -59 -27q4 0 4 2q0 14 -45 14 q-4 0 -13 -1t-14 -1l-38 -26q-17 0 -33.5 5.5t-27 11.5t-19 12t-9.5 6q-17 -23 -79 -29q0 -279 -13 -324v-2q0 -21 21 -51q-50 -29 -74 -29q-31 0 -31 39q0 32 15 62q-27 53 -27 59q0 -2 2 -2q14 0 14 47v23l-26 39q0 16 5 32.5t10.5 25.5t13 19t8.5 11q-19 10 -25 51 q-18 1 -55 2t-51 2q-27 0 -37 2q-13 0 -66 -5t-69 -5q-82 0 -140 49z" />
<glyph unicode="," horiz-adv-x="546" d="M47 -383q0 14 48.5 46.5t96.5 60t48 28.5l34 60q19 55 19 86q0 102 -197 102q-24 18 -24 78q0 79 26 116t101 37q73 0 126 -34t70 -93q33 -41 38 -52q11 -25 15 -133q0 -12 1 -46l-31 -88l-160 -137q-56 -39 -160 -74q-51 20 -51 43z" />
<glyph unicode="-" horiz-adv-x="829" d="M-31 354q0 18 33 31.5t86 13.5q23 0 37 -2q45 20 108 29q108 12 113 12q49 -7 64 -8h51q94 0 135 -18.5t41 -59.5q0 -29 -15 -58.5t-38 -29.5q-54 0 -54 2h2q-27 -8 -49 -8q-9 0 -33 12.5t-42 16.5q-2 -1 -9 -4t-12 -4q-21 -9 -65 -9q-21 0 -35 2l-158 4q-72 4 -116 26 t-44 52z" />
<glyph unicode="." horiz-adv-x="483" d="M39 111q0 61 51.5 115.5t110.5 54.5q67 0 108 -44.5t41 -107.5q0 -56 -45 -92.5t-108 -36.5q-11 0 -13 2q-5 -8 -20 -8q-53 0 -89 34.5t-36 82.5z" />
<glyph unicode="/" horiz-adv-x="952" d="M-6 -240q10 40 262 555q177 364 273 537q17 30 16 41v12q0 17 -2 23q35 55 96 186q30 9 45 53v13q0 25 12 34q11 5 56.5 60t54.5 55q27 0 27 -26q0 -25 -59.5 -135t-112.5 -189q4 -16 4 -18q0 -30 -24 -75.5t-48 -60.5q0 -38 -26 -100.5t-57.5 -115t-59.5 -97t-29 -47.5 q4 -6 8 -45q-65 -127 -108 -164q6 -9 6 -20q0 -39 -60 -150l-73 -133l-58 -131q-37 -69 -104 -96z" />
<glyph unicode="0" horiz-adv-x="1320" d="M-6 399q0 20 23.5 139.5t23.5 145.5v10q2 4 14 25t15 26.5t14 24t15.5 25.5t15.5 23t18 23.5t18.5 20.5t21.5 20.5t22.5 16.5t25.5 16q129 66 262 66q187 0 320 -121q89 -85 115 -185.5t26 -291.5q-1 -17 -5.5 -35.5t-8.5 -31.5t-13.5 -35.5t-14 -32t-18 -37.5t-18.5 -37 q-6 -5 -44 -41t-73 -66.5t-75 -62.5q-11 -9 -98 -24t-95 -19q-211 46 -286 98q-69 44 -135 142.5t-66 197.5zM168 410q0 -75 14 -95q16 -30 60.5 -68.5t85 -68.5t45.5 -39q30 0 55.5 -1t40.5 -1q234 0 264 156q45 29 45 133q0 75 -22 161t-51 118q-6 7 -19.5 15t-25.5 14 l-11 5q-122 78 -215 78q-115 0 -190.5 -106t-75.5 -301z" />
<glyph unicode="1" horiz-adv-x="1011" d="M-8 883q0 32 16.5 44.5t65.5 12.5q106 0 123 -10q66 14 137 14q26 0 71 -7t68 -7q9 0 49 3t49 3q62 0 62 -41q0 -21 -12 -51l-60 -10q-80 -15 -86 -58l-12 -104q-21 -64 -21 -201q0 -47 1 -112.5t1 -84.5q0 -24 -0.5 -43.5t-1 -29.5t-0.5 -11q0 -15 1.5 -29.5t7.5 -37.5 t21 -37t38 -14q8 0 47 8t47 8q53 -53 53 -59q0 -19 -53 -66q-17 0 -65.5 17.5t-61.5 17.5h-186q-15 0 -100.5 -23.5t-102.5 -23.5q-45 0 -70 31l13 65q26 0 67 27l64 43q45 29 45 71l4 86q-16 29 -16 86q0 34 6 80q24 159 24 191q0 138 -96 170h-18t-32.5 4t-41.5 11.5 t-30.5 25t-14.5 41.5z" />
<glyph unicode="2" horiz-adv-x="1153" d="M16 18q0 52 166 125q21 12 152 189q133 183 133 203q-3 65 -23 118q-105 54 -159 54q-9 0 -90.5 -16.5t-128.5 -16.5q-33 0 -33 71q0 12 12 28.5t27 31.5t44 43t48 49q14 0 57 37q26 20 49.5 30t38 11.5t41.5 1.5q110 0 158 -39q23 -19 69.5 -54t69.5 -55q25 -61 25 -114 q0 -98 -76 -199l-66 -70q-149 -165 -151 -215q0 -43 123 -43q47 0 115 21t113 42l44 21q21 -6 21 -24q0 -26 -50 -88q-31 -40 -56 -82t-35 -57t-30.5 -25t-58.5 -10q-14 0 -46 2t-44 2q-24 0 -57.5 -5t-61.5 -5q-14 0 -52.5 2t-61.5 2q-41 0 -91 -8.5t-63 -8.5q-72 0 -72 51 z" />
<glyph unicode="3" horiz-adv-x="1089" d="M-12 147q0 18 12 39l27 21q23 3 71 8.5t72 9.5t63.5 11t62 17t48 24t41.5 35t25 48q90 84 90 179q0 73 -51 126.5t-119 53.5t-121 -62q-65 -30 -105 -30q-59 0 -59 63q0 37 25 98q11 25 40.5 51t63.5 46t67 36t55 25l21 10l140 -4q41 -2 135 -45q45 -20 95 -111.5 t50 -152.5q0 -79 -59 -156q-2 -4 -45.5 -49.5t-82 -93t-38.5 -65.5q0 -11 27 -39.5t58.5 -56.5t62.5 -54t32 -27q21 -33 40.5 -127.5t19.5 -167.5q0 -13 -10.5 -49t-10.5 -67q-48 -96 -207 -180q-4 4 -8 4q-11 0 -41 -23q-53 -50 -128 -70t-138 -20l-30 4q-30 4 -46 4 q-19 0 -39 -4q-6 -2 -12 -2h2q-19 28 -43 47t-34.5 33t-10.5 43q0 39 29 65.5t81 26.5q36 0 61 -12t51.5 -35t45.5 -33l45 -24q87 26 167.5 117.5t80.5 179.5q0 65 -47 112q-9 31 -54 78.5t-73 56.5l-15 9q-14 9 -23.5 14t-25 10.5t-26.5 5.5q-18 0 -92 -4t-84 -4 q-129 0 -129 57z" />
<glyph unicode="4" horiz-adv-x="1196" d="M-121 41q0 12 2 16q44 36 198 231t191 228q10 9 18 16.5t15 16.5t11 14.5t9 16t6.5 14t6.5 17t6 16.5q101 58 131 178q51 45 133 164q11 -7 25 -27q10 -19 22 -35t18 -23t10.5 -19t4.5 -29q0 -6 -3 -35.5t-3 -42.5q0 -52 -8 -287t-8 -287q0 -18 131 -18q25 0 77 1t78 1 q12 -9 15 -29q24 -18 24 -53q0 -31 -19.5 -56.5t-45.5 -25.5q-13 0 -25 6h-160l-84 -86q-2 -2 -2 -20q0 -21 2 -65.5t2 -55.5q0 -252 -75 -252q-3 0 -19 4q-20 -4 -22 -4q-74 0 -74 213q0 78 8 162l8 112q-9 19 -118 19q-171 0 -211 -27q-21 4 -76 4q-68 0 -94 -20l-74 14 q-31 6 -31 33zM190 168q0 -25 33 -39q41 23 94 45q18 -6 62 -12l29 14q15 -6 30 -6q56 0 56 125q0 10 -4.5 69.5t-4.5 77.5q0 4 1 7t1 4q31 28 31 53q0 37 -31 37q-11 0 -23 -6t-25.5 -19t-25.5 -26t-28.5 -36t-27.5 -39t-28 -44.5t-26 -43.5t-27 -45.5t-24 -41.5 q-62 -30 -62 -74z" />
<glyph unicode="5" horiz-adv-x="960" d="M12 -389q0 23 6 39.5t24.5 33t34 26.5t54.5 33.5t66 41.5q71 50 71 264q0 135 -35.5 244.5t-85.5 118.5l-18 14q0 20 -26.5 47t-53 60.5t-26.5 68.5q0 43 28 125l19 16q2 7 14 45t17.5 52t17.5 42t26.5 46t32.5 33q0 -1 9.5 0.5t36 3.5t57.5 2q27 0 60 -6.5t38 -6.5 q19 0 78 41q2 2 18 2q53 0 91 -16.5t38 -42.5q0 -32 -59 -88q-6 -72 -109 -72q-14 0 -65 3t-64 3q-46 0 -78 -15t-32 -44q0 -22 55.5 -97t105 -133t58.5 -67q84 -128 84 -227q0 -55 -21 -105v-14q0 -37 -40 -125.5t-80.5 -159.5t-45.5 -71v2q-76 -88 -233 -183h-43 q-25 28 -25 66z" />
<glyph unicode="6" horiz-adv-x="1232" d="M-14 299v1q0 2 1 6t1.5 9.5t2 14.5t2.5 19t3 24l4 28q8 63 19 113.5t21 87t29 69.5t32.5 53t41.5 46.5t45.5 40.5t56 44.5t62.5 49.5q14 10 84.5 43.5t71.5 34.5q44 24 213 84.5t190 71.5l41 -13q15 -37 15 -71q0 -33 -15 -54l-22 -10q-86 4 -109 4q-40 0 -62.5 -8 t-49 -28.5t-39.5 -28.5l-25 -6l-96 -62q-34 -21 -52 -41.5t-20 -32.5q-100 -100 -144 -151t-69 -96v-11q0 -24 -18.5 -114t-18.5 -107l60 -119q90 -21 90 -38q0 -6 -13 -13q25 -28 43 -28q1 0 6 4.5t15.5 11t26 13.5t43.5 13t63 9q20 2 31 6t16 14t6 19t2 29t4 36l13 33 q6 15 6 29q0 60 -57 128t-107 68q-24 0 -37 -8q-57 3 -57 35q0 26 23.5 35.5t89.5 9.5q17 0 42 9t35 9q31 0 125 -61v-2q0 -5 30 -40t30 -38q2 -7 18 -38.5t29.5 -67.5t13.5 -60q0 -33 -8 -69q-21 -9 -27 -58l-12 -67l-92 -66q-16 4 -21 4q-21 0 -81.5 -33.5t-73.5 -33.5 q-6 0 -26 1t-34 1q-34 0 -47 -13q-38 3 -130 41.5t-101 40.5q-76 58 -88 135q-45 51 -45 109z" />
<glyph unicode="7" horiz-adv-x="1206" d="M-78 688q0 24 17 117l16 82q13 5 29.5 43.5t33.5 46.5h181q17 -10 28 -10q7 0 35.5 7t36.5 7q27 0 47 -20q22 16 74 16q17 0 54 -3t50 -3q42 0 60 6q20 -4 37 -4q12 0 103.5 6t106.5 6q109 0 109 -125q0 -46 -25 -88q0 -30 -6 -92q0 -8 -45.5 -57.5t-54.5 -55.5 l-139 -161q-25 -28 -45 -56t-47.5 -70t-30.5 -47q-8 -14 -136 -144t-153 -181q-38 -33 -55 -66l-10 -61l-19 -14q-3 -45 -39 -125q-115 -50 -127 -50q-22 0 -35.5 23t-13.5 41q0 25 25 41q0 19 55 86l74 88l90 121q59 77 76 127q4 10 29 30.5t28 26.5q13 37 53.5 114 t77.5 134l29 16q7 15 122 158q0 50 3 102q-6 55 -58 70q-17 -4 -90 -4q-63 0 -145 6l-29 -16q-31 2 -88 2q-4 0 -20 0.5t-30 0.5t-34 -0.5t-35.5 -2t-30 -3.5t-22.5 -6t-8 -10q0 -4 2 -18.5t2 -18.5q0 -7 -9 -22t-30 -30t-47 -15q-27 0 -27 55z" />
<glyph unicode="8" horiz-adv-x="1132" d="M-18 1114q18 62 65 154v6q0 29 41.5 68.5t71.5 39.5h8l10 6q10 5 25.5 12.5t34 15t40 13t39.5 5.5q7 0 21 -2t24 -2q23 0 72 8t53 8q37 0 82.5 -37t65.5 -37q8 0 10 2q0 -17 27 -55.5t39 -50.5l-6 -2q14 -33 43 -82q0 -188 -89 -297l-43 -18q-135 -64 -141 -97q0 -1 1 -3 t1 -3q109 -88 117 -123q40 -15 84 -41q9 -20 31.5 -65t32.5 -71.5t10 -47.5q0 -33 -21 -60v-20q0 -120 -67 -211l-115 -76q-61 -41 -127 -45q-17 0 -23 2l-8 -14q-14 -2 -41 -2q-100 0 -192 50t-129 124q2 6 2 31q0 11 -8.5 82.5t-8.5 91.5q0 91 49 161q50 27 74 62 q88 21 88 70q0 12 -2 16q-230 155 -233 334v26q0 50 -8 74zM135 1163q0 -30 35 -217q4 -4 10.5 -11.5t28 -26t44.5 -34t58 -29.5t70 -18q43 26 88 62l29 40q83 124 84 185q0 32 -19 72l8 8q-25 63 -103.5 115.5t-150.5 52.5q-54 0 -96 -31l-76 -82q-10 -52 -10 -86zM137 324 q0 -116 56 -140q26 -78 69 -88q54 -12 100 -12q30 0 55 5t43.5 12.5t33 22t24 26.5t16.5 33.5t10.5 36t6 40.5t3.5 40.5t1.5 43.5t1.5 41l-3 9q-2 8 -2.5 10.5t-4 11.5t-6 13.5t-7 14t-9.5 16.5l-12.5 17.5t-15.5 19.5t-19 20t-23 22q-67 61 -101 61q-96 0 -156.5 -82.5 t-60.5 -193.5z" />
<glyph unicode="9" horiz-adv-x="1349" d="M-119 -377q0 58 53 58q10 0 34 -9.5t30 -9.5t22 19q21 30 23 30q5 5 71.5 16.5t71.5 20.5q193 108 193 111q81 61 119 184l-64 57l-162 13q-4 0 -18 13.5t-39 26.5t-57 13q-26 16 -82.5 90.5t-57.5 75.5q-12 75 -14 174q26 131 55 156q0 62 67.5 131t165.5 114t181 45h14 l27 11q81 -11 133.5 -20t91 -23.5t58 -26.5t39 -37t30 -46.5t34 -64.5t48.5 -81l17 -46v-6q0 -21 -9 -51q-12 -43 -16 -70t-5.5 -73t-4.5 -84q0 -1 -27.5 -42.5t-56 -99t-31.5 -96.5q-34 -13 -78 -55q-98 -161 -288 -285h-13q-22 0 -22 -18q-184 -99 -215 -105q-6 2 -25 2 q-23 0 -78 -10q-99 -53 -168 -53q-47 0 -47 51zM207 473q0 -113 108 -211t224 -98q126 0 135 127q67 58 67 131q0 72 -73 127q-4 4 -4 10q0 9 15 37t15 33q-32 25 -49 73q-145 60 -178 60q-59 0 -137 -60q-46 -9 -72 -57l-13 -24q-38 -83 -38 -148z" />
<glyph unicode=":" horiz-adv-x="800" d="M342 123q0 12 8 31l7 21t5.5 15.5t6.5 12.5l6 9t8.5 8.5t8.5 7.5t12 9.5l14 10.5q2 -2 20 -2q15 0 29 2q2 1 10 9.5t19.5 16t21.5 7.5q39 0 80 -41l45 -72q2 -2 2 -6q0 -8 -14.5 -44.5t-14.5 -45.5q-9 -43 -59 -43h-14q-72 -25 -94 -25q-36 0 -56 33l-49 78q0 1 -0.5 1.5 t-1 2t-0.5 4.5zM375 707q0 25 1 37.5t8 35t21 34t43.5 21t71.5 9.5q48 0 66 -21q51 -51 51 -127q0 -96 -92 -114q-1 0 -92 16q-78 15 -78 109z" />
<glyph unicode=";" horiz-adv-x="958" d="M459 -80q7 14 131 98q47 30 47 84q0 41 -29.5 81t-72.5 59q-39 39 -39 67q0 50 33 81.5t85 31.5q69 0 115.5 -54t46.5 -135q0 -51 -10.5 -104.5t-19.5 -79.5t-15 -37q-25 -42 -98.5 -89.5t-114.5 -47.5q-44 0 -59 45zM475 745q0 42 35.5 70.5t83.5 28.5q106 0 127 -119 v-10q0 -32 -35.5 -53t-83.5 -21q-59 0 -93 28t-34 76z" />
<glyph unicode="&#x3c;" horiz-adv-x="1175" d="M-14 395q0 43 28 70t67.5 40.5t118 45t146.5 70.5q69 3 359 219l32 22q16 4 41 4q31 -36 31 -94q0 -94 -107 -115q-25 -3 -85 -36t-68 -35q1 1 -83.5 -40t-176 -84.5t-105.5 -47.5l9 -56q20 -29 51 -32q24 -5 40.5 -10.5t32 -13.5t68.5 -34.5t115 -56.5 q158 -80 219 -128.5t61 -86.5q0 -39 -57 -39q-20 0 -29 6h-2q-7 0 -33 29q-24 29 -45 44.5t-62.5 38.5t-70.5 42q-14 7 -64.5 22t-62.5 23q-157 100 -197.5 123.5t-113.5 56.5q-4 -1 -9 -2l-7.5 -1.5t-3.5 -0.5q-37 0 -37 57z" />
<glyph unicode="=" horiz-adv-x="1323" d="M0 258q6 36 14 49q-1 0 20.5 1t61 2.5t91.5 3.5t116.5 3.5t131.5 3t141.5 2.5t140.5 1q39 0 68.5 -0.5t45 -2t25.5 -2.5t14.5 -1.5t6.5 -0.5q26 0 53 21q31 -48 31 -74q0 -31 -41 -31q-28 0 -60 13q-17 -8 -31.5 -15.5t-20.5 -10.5t-7 -3q2 0 2 2q0 17 -45 17 q-14 0 -22 -3t-20 -12.5t-22 -15.5q-17 0 -33.5 5t-25.5 10.5t-19.5 13.5t-11.5 8q-19 -31 -133 -31q-17 0 -90 3t-90 3h-15q-12 0 -68 -4t-67 -4q-83 0 -141 49zM8 508q6 32 15 51q1 0 35.5 1.5t94.5 4t136.5 5t181 4t207.5 1.5q52 0 91.5 -1t59.5 -2t32 -2t16.5 -2t5.5 -1 q26 0 53 21q31 -48 31 -74q0 -31 -39 -31q-35 0 -62 15q-56 -29 -57 -29q2 0 2 2q0 14 -49 14q-14 0 -22 -3t-19 -11.5t-19 -13.5q-23 0 -41 7t-32.5 17t-16.5 11q0 6 -26 6q-97 -6 -166 -13q-46 -6 -97 -13t-59 -8t-34.5 -3t-35 -2h-47.5q-81 0 -139 49z" />
<glyph unicode="&#x3e;" horiz-adv-x="1175" d="M33 772q0 61 33 94q24 0 40 -4q140 -112 248.5 -175.5t143.5 -65.5q35 -19 151 -71t129 -52q35 0 57.5 -35t22.5 -68q0 -57 -37 -57q-4 0 -20 4q-99 -46 -314 -180q-11 -9 -61 -23.5t-64 -21.5l-141 -84l-50 -53q-16 -16 -21 -17q-9 -6 -29 -6q-58 0 -58 39q0 37 62 87.5 t219 127.5l203 100q5 3 25.5 6.5t42.5 13t36 27.5l8 56q-15 4 -106.5 47.5t-174.5 84.5t-83 40q-4 2 -67 34.5t-87 36.5q-108 21 -108 115z" />
<glyph unicode="?" horiz-adv-x="1085" d="M567 571q0 53 39 76q65 58 96 58q12 0 33.5 -3.5t39 -6.5t18.5 -3q13 0 22 6q19 68 19 111q0 49 -22.5 78.5t-55 40t-65 18t-55 21.5t-22.5 41q0 37 33 68.5t74 31.5q78 0 113 -121q127 -109 127 -258q0 -63 -38.5 -114t-97.5 -58h-14q-42 0 -102 -14q-14 -8 -49.5 -67.5 t-43.5 -59.5q-27 0 -38 48.5t-11 106.5zM571 106q0 52 40 92.5t96 41.5h8q45 0 73.5 -40t28.5 -94q0 -106 -102 -106q-10 2 -34 2.5t-43.5 4t-31.5 13.5q-35 41 -35 86z" />
<glyph unicode="@" horiz-adv-x="1409" d="M-2 340q6 40 6 92v39q4 17 10.5 58.5t12 85t6.5 49.5t18 36t17 43l149 220q81 100 223 151q34 0 83 21.5t59 21.5q24 0 45 -8q8 8 24 8q8 0 36 -12t38 -15l139 -20q129 -42 228.5 -194t99.5 -312q0 -224 -178 -330l-62 -36q-81 -27 -133 -27q-21 0 -49 8t-45.5 16.5 t-17.5 10.5q-28 22 -58 22q-24 0 -37 -8l-80 -37l-73 -8q-84 35 -84 100q0 69 76 136l145 55q6 -2 20 -2q58 0 58 76q0 37 -29.5 68.5t-64.5 31.5q-15 0 -27 -6q-15 -6 -40 -39.5t-51 -64t-46 -33.5q-17 17 -17 41q0 30 29 67q7 3 22 30t27 32q77 41 133 41q42 0 133 -27 q70 -82 70 -168q0 -3 -7 -68t-7 -100q0 -7 1 -18.5t1 -18.5q0 -45 9 -69q3 -7 7 -7l2 2q28 -4 31 -4q64 0 141 56l19 12q19 13 38 28t39.5 44t28.5 61q-1 -1 3 21.5t8.5 57t5.5 56.5q0 107 -66 230q-151 274 -428 274q-157 0 -291.5 -96t-187.5 -254q-37 -20 -64.5 -125.5 t-27.5 -224.5q0 -133 34 -160q26 -135 70 -199q55 -79 76 -117q122 -90 141 -90h2l70 -32q30 -15 53 -15q20 0 51 17q4 -4 35 -4q10 0 47.5 2t63.5 2q63 0 63 -23q0 -15 -31 -51l-180 -6q-86 19 -148.5 40t-130.5 62.5t-108 97.5l-92 123v6q0 16 -27.5 75t-27.5 83 q0 3 1 7.5t1 7.5q-4 6 -11.5 29.5t-14 47.5t-7.5 27zM535 340q0 -51 36 -51q11 0 13 2q4 -1 9 -2l7.5 -1.5t3.5 -0.5q29 0 48.5 22.5t19.5 52.5v13q10 27 10 41q0 47 -41 47q-26 0 -66 -36.5t-40 -86.5z" />
<glyph unicode="A" horiz-adv-x="1560" d="M-2 49q0 17 41.5 38t85 38.5t45.5 21.5q30 7 76.5 122.5t58.5 207.5q17 17 29 80t55.5 163t77.5 206q28 85 55.5 143.5t39 78t11.5 28.5q0 5 -3 27.5t-3 27.5q0 18 4.5 29.5t18 20t21.5 11.5t30 11q1 5 3.5 13.5t11.5 30t18.5 37.5t25 29.5t31.5 13.5l31 -18l59 -119 q29 -57 33 -127q9 -9 25 -47.5t24 -46.5q0 -81 37 -113q20 -157 90 -266q43 -98 180 -483l29 -35q3 -23 27 -39t50.5 -23.5t48 -25.5t21.5 -45v-14q-58 -25 -88 -25q-3 0 -20.5 2t-52.5 4t-82 2q-69 0 -156 -2t-92 -2q-39 0 -39 33q0 14 8 22q2 2 45.5 18t82 38.5t38.5 44.5 q0 36 -49 100q-21 177 -63 213q0 45 -4.5 59t-18.5 25q-45 -10 -88 -10q-21 0 -109 8t-108 8q-5 0 -23.5 1t-26 0t-22.5 -5t-29.5 -13.5t-31.5 -25.5q-1 -1 -60 -184t-59 -186l24 -27q16 -6 42.5 -18.5t31.5 -14.5q31 -14 53.5 -30.5t22.5 -26.5q0 -18 -31 -37h-235 q-55 0 -93 -6t-55 -11.5t-22 -5.5q-25 0 -51.5 24t-26.5 52zM504 690q12 -54 78 -63q116 -16 126 -23h19q46 0 85.5 23.5t39.5 54.5q0 3 -4 23q-107 307 -129 358q-26 61 -41 67v5q0 16 -29 22q-29 -19 -48.5 -82t-29.5 -130t-12 -71z" />
<glyph unicode="B" horiz-adv-x="1302" d="M-35 1339v9q0 40 35.5 52.5t157.5 12.5q19 0 106 10.5t115 10.5h16h60q71 0 262 -7q45 -15 98 -41q72 -11 137.5 -107.5t65.5 -162.5q0 -14 -10 -47q0 -3 1 -10t1 -10q0 -53 -45 -86q-78 -63 -86 -76h-5q-28 0 -77 -27.5t-49 -40.5q0 -23 77 -53q79 -34 132 -68t82 -62.5 t44 -67.5t18 -68.5t3 -79.5q0 -155 -78 -268q-37 -55 -161.5 -110.5t-170.5 -55.5q-9 0 -74 9t-96 9q-18 0 -59 -6t-66 -6q-8 0 -39.5 4t-46.5 4q-22 0 -34 -4q-98 -31 -209 -31q-7 0 -19.5 1t-19.5 1l-23 23q4 24 20 39.5t30.5 21t43.5 12t39 9.5q60 29 60 159 q0 21 -5 55.5t-8 88.5q0 141 4.5 427t4.5 439q-6 28 -32 53t-54 25q-5 0 -21 -4q-37 18 -67 18q-22 0 -27 -4zM410 371q0 -153 12 -162q-6 -21 -6 -41q0 -109 133 -109q99 0 188.5 75.5t122.5 193.5q39 23 39 145q0 73 -32 124.5t-126 129.5q-10 6 -65.5 14.5t-103.5 18 t-48 20.5q0 10 10.5 21t29 20.5t36 17t40.5 17t34 14.5q129 76 129 213q0 54 -14 90.5t-70 135.5l-111 65q-23 10 -135 10q-63 0 -63 -192q0 -57 2 -84l4 -47l-6 -623v-67z" />
<glyph unicode="C" horiz-adv-x="1527" d="M-14 680l1 12q17 219 44 283q10 6 19.5 22t16 32.5t9.5 19.5l135 165q151 157 377 197q70 49 200 49q129 0 416 -65q27 12 51 12q95 0 95 -195q0 -143 -25 -165q-29 12 -76 90t-55 84q-16 42 -29 61q0 11 -94 78q-65 12 -221 12q-172 0 -213 -18q-11 -11 -41 -28.5 t-79.5 -54t-106.5 -93.5q-23 -10 -37.5 -30.5t-21 -38.5t-7.5 -19q-123 -164 -123 -338q0 -192 168 -463q37 -34 80 -92q151 -154 455 -154q133 0 223 33q37 12 110 131q58 94 78 94q9 0 16 -18.5t7 -28.5v-49q4 -46 4 -51q0 -98 -98 -144q-34 6 -56 6q-25 0 -68 -9.5 t-112 -26.5t-119 -27q-104 13 -274 16q-8 8 -108.5 36t-129.5 28h-6q-33 38 -117 102l-127 94q-7 6 -31.5 45.5t-39.5 49.5l-45 114q-25 180 -25 199v4q-20 23 -20 39z" />
<glyph unicode="D" horiz-adv-x="1669" d="M-18 61q35 56 104 56q17 0 60.5 -6.5t50.5 -6.5q36 0 46.5 33.5t10.5 147.5q0 3 -6 127t-6 202q0 155 37 265q-2 2 -9 43.5t-13.5 94t-6.5 77.5q0 14 4 26q-2 0 -2 10q0 19 4 48.5t4 35.5q0 96 -90 99q-8 0 -66 -10q-18 -3 -36 -5.5t-21 -3.5q-6 -2 -14 -2q-21 0 -21 21 q0 29 33 49t78 20h24q18 9 50 9q18 0 69 -7q26 -5 41 -7.5t26.5 -3t17 -0.5t19 0.5t27.5 0.5q129 0 451 12q40 -15 119 -18q76 -4 98 -9.5t84 -35.5q34 -8 74 -27t72.5 -40.5t60 -42.5t44 -34.5t17.5 -13.5l30 -36q30 -36 59.5 -83.5t29.5 -74.5q49 -82 49 -215 q0 -151 -51 -250q2 -4 2 -19q0 -46 -49 -92q-5 -19 -14 -36.5t-16 -26t-22 -24t-20 -21.5q-4 -37 -92.5 -104.5t-191.5 -121.5t-150 -59l-70 -4q-41 -3 -67 -23q-35 0 -85.5 1t-64.5 1q-23 0 -45 -1l-22 -1q-44 13 -95 13h-40q-18 -2 -41 -2q-51 0 -76 14l-195 -6l-39 18 q-14 -2 -39 -2q-72 0 -116 29zM461 223l8 -13q8 -12 21 -29t31 -37t44 -40t53 -34q264 0 365 36q6 -2 31 -2q77 0 166 115l118 170q1 7 2 16.5t2 16t1 10.5v12q8 43 45 115q0 5 9 48t9 85q0 82 -57.5 243t-106.5 218q-30 9 -65 47q-43 46 -91 69t-130 33.5t-226 10.5 q-158 0 -219 -25q-4 -78 -4 -119q0 -48 9 -264.5t9 -265.5q0 -5 -6 -23.5t-6 -23.5q0 -24 4 -123t4 -123q0 -12 -10 -61t-10 -62z" />
<glyph unicode="E" horiz-adv-x="1314" d="M-8 18q0 28 31 50q47 -9 79 -9q58 0 72 39l33 117q-12 12 -12 252q0 57 0.5 111t1.5 97.5t2 83t2.5 70.5t3 57t2.5 44t2 31t1 19l1 7q0 22 -4 31l-14 45v192q0 28 -26.5 49.5t-57.5 33.5t-57.5 28t-26.5 33q0 33 18 33q12 0 16 -2l31 -13q2 -1 93.5 -9t121.5 -22 q58 18 207 29q8 -8 127 -8q245 0 319 10q48 -15 48 -168q0 -80 -29 -80q-27 0 -47 39l-33 58q-6 96 -41 96q-11 0 -22 -14q-55 10 -166 10q-124 0 -162 -15q-29 13 -45 13q-18 0 -27.5 -14t-15.5 -64.5t-6 -149.5v-243q0 -5 -1 -15.5t-1 -15.5q0 -48 13 -65t54 -17h125 q43 0 69.5 4t44 8.5t33 22t24.5 31.5t30.5 49.5t40.5 64.5l22 2q23 -30 23 -59q0 -27 -12 -57v-154q0 -7 3 -31.5t3 -31.5q0 -24 -11.5 -40t-31.5 -16q-28 0 -52 64q-14 38 -25 56t-17.5 23t-29 11t-38.5 12q-16 0 -47.5 1t-51.5 1.5t-48 -1t-46 -7.5t-35 -16.5t-25.5 -28.5 t-8.5 -43q0 -15 4 -47q-12 -21 -12 -74q0 -19 9 -84.5t9 -112.5q0 -33 -4 -73.5t-4 -42.5q0 -72 49 -102.5t170 -30.5q29 0 162 10q27 -12 59 -12q56 0 101 40t63 103q-2 18 -2 49q0 80 35 80q26 0 46.5 -48.5t20.5 -123.5q0 -61 -16 -143l-80 -33q-46 4 -68 4q-8 0 -25 -1 t-26 -1q-137 -12 -182 -12h-6h-23q-139 0 -207 8q-8 0 -49.5 8t-56.5 8q-123 0 -371 -22q-20 14 -20 34z" />
<glyph unicode="F" horiz-adv-x="1144" d="M16 25q0 26 15 44.5t39 27.5t44.5 12.5t39.5 3.5h28q21 0 26 21.5t12 142.5q1 7 1 10q12 3 12 20q0 5 -6 33t-6 33q3 6 8 15t7.5 13t5.5 11t4.5 11t2.5 9.5t1 11.5q0 14 -10.5 105.5t-10.5 109.5q0 21 2 23q25 116 25 289v-27q-8 3 -5 40t3 96t-1.5 115t-20 96t-52.5 40 q-16 0 -22 -2q-23 10 -47 10h-13q-57 0 -68.5 7t-11.5 34q0 13 11 31l135 8q20 -14 49 -14h10l15 10h8q32 0 100 -18l135 14q133 14 152 14h2q15 0 49 -6t68 -6q62 0 254 19q45 -15 45 -58q-7 -27 -17 -78v-75q0 -62 -33 -62q-43 0 -49 68q-5 53 -24 78.5t-64 36t-137 10.5 q-78 0 -278 -21l-29 -26v-476q29 -63 108 -63q14 0 67 6t67 6q24 0 30 -2q129 27 135 41l21 133q12 6 20 6q2 0 6 1q7 3 10 -8q3 -18 7 -95q1 -20 3.5 -74.5t2.5 -77.5q0 -165 -35 -165q-8 0 -16 8q-17 87 -54.5 120t-121.5 33q-250 0 -250 -34q0 -130 6 -355 q0 -14 -3 -57.5t-3 -54.5q0 -44 23.5 -77.5t64.5 -33.5q12 0 39 7t39 7q27 0 44 -14t17 -39q0 -59 -53 -59h-86q-21 12 -131 18q-76 3 -140 7l-20 1q-14 0 -76 -16t-73 -16q-52 0 -52 43z" />
<glyph unicode="G" horiz-adv-x="1591" d="M0 750q17 149 45 174q8 50 125.5 197.5t163.5 162.5l41 33q25 3 43 12q252 111 493 111q17 0 75 -13.5t107.5 -27t47.5 -13.5q27 15 49 15q60 0 72 -107v-114q4 -28 4 -37q0 -60 -37 -60q-33 0 -60 47q2 16 2 46q0 28 -10 51t-21.5 37.5t-36.5 30t-39.5 22t-47 19.5 t-43.5 18h-53q-38 3 -48 16h-114q-50 -3 -117 -29.5t-150.5 -87.5t-144.5 -143q-16 -42 -67 -117q-19 -26 -66 -299q3 -16 11.5 -63.5t12.5 -66.5t13.5 -59.5t17.5 -66.5t21 -60.5t28 -66.5q39 -29 56 -59q39 -70 211.5 -147.5t318.5 -77.5q186 0 189 153q0 14 -1 56.5 t-1 72.5q0 108 2 180q-9 9 -21.5 22.5t-17.5 17.5t-13.5 12t-15.5 9.5t-15.5 5.5t-22.5 4.5t-28 2t-40 2.5l-39 6q-25 6 -25 35q0 30 20 41l148 -33q83 -18 145 -18q78 0 140 27q7 7 26.5 16.5t34.5 9.5q19 0 38 -15t19 -32q0 -1 1 -3.5t1 -3.5t-3 -4.5t-9.5 -7.5 t-19.5 -11.5t-33 -16.5q-39 -19 -49 -42.5t-10 -78.5q0 -16 1 -53t1 -53q0 -47 -7.5 -71t-7.5 -34q0 -76 70 -76q2 0 4.5 1t6.5 2t7 2l21 -23l-13 -29q-182 -108 -292 -108q-23 0 -29 2q-18 -12 -33 -12q-12 0 -20 8q-45 -25 -131 -25q-153 0 -332 51q-56 15 -100.5 30.5 t-76.5 27.5t-65 34t-51 33.5t-50.5 44t-47 48t-56.5 61.5q-72 78 -86 256z" />
<glyph unicode="H" horiz-adv-x="1716" d="M6 6q0 34 29 55t62.5 34.5t39.5 27.5l13 35q0 5 -1.5 24.5t-1.5 34.5q0 63 7 340q-11 37 -11 49q0 8 16.5 51.5t16.5 104.5q0 77 -17.5 239t-25.5 181v100q0 12 -20 25.5t-43.5 24.5t-43.5 29t-20 38q0 5 2 8.5t5.5 5.5t7.5 3t10 1h10.5h11.5h10q13 0 78 -7t78 -7 q28 0 49 6q76 -18 90 -18q24 0 37 8l54 24q47 19 57 19q26 0 26 -35q0 -19 -2 -25l-30 -22q-152 -6 -152 -189q0 -14 3 -79.5t3 -77.5v-115q0 -6 -8 -34.5t-8 -41.5q0 -30 63 -52.5t101 -22.5q12 0 33.5 12t29.5 12q17 0 66.5 1t81.5 1q26 0 94 -1t111 -1l258 -12 q1 38 20 268q33 20 33 43q0 3 -1 5t-1 5l-29 31q-2 4 -2 25t1.5 42.5t3 35.5t1.5 16q0 79 -39 88h-10q-17 0 -27 1t-27 6.5t-25.5 20t-8.5 37.5q0 46 43 46q4 0 49 -10.5t60 -10.5l211 16q67 5 143 9q26 -26 26 -45q0 -7 -38 -26.5t-84 -50t-60 -61.5q-2 -2 -2 -188 q0 -305 2 -545v-26q0 -6 -1 -31.5t-1 -44.5q-2 -63 -2 -152q0 -88 24.5 -117.5t69.5 -29.5h64q24 -15 24 -49q0 -25 -26 -43.5t-58 -18.5q-31 0 -61 23l-88 -11q-58 -6 -92 -6q-24 0 -56 4l-20 9q-19 8 -37 8q-12 0 -14 -2q-67 -23 -82 -23q-41 0 -41 49q1 0 19 5.5t41 13.5 t47.5 19.5t43.5 28.5t25 36q-2 27 -2 84q0 22 3 125t3 125q0 83 -10 161l-21 25q-440 -10 -448 -10q-4 0 -31 3t-68.5 6t-80.5 3q-38 0 -52 -2q0 2 -84 2q-40 0 -49 -18v-437q12 -12 45 -77q19 -37 46 -54.5t48 -17.5t36.5 -5t15.5 -22q0 -41 -88 -41q-14 0 -83.5 3t-76.5 3 h-21.5t-9.5 -0.5l-4 -1t-3 -1t-8 -1.5t-18.5 -2t-34.5 -2t-55 -2q-54 0 -98 -33q-39 6 -39 33zM1268 641q0 -37 24 -37l2 1q2 1 6 1q9 15 9 23q0 17 -25 30q-16 -3 -16 -18z" />
<glyph unicode="I" horiz-adv-x="657" d="M-8 1341q0 58 80 58q20 0 39.5 -11.5t35.5 -11.5h9q5 -4 37 -4q46 0 89.5 9t55.5 20q21 -6 49 -6q6 0 61 6t74 6h15l12 -18q-6 -10 -40 -39.5t-67.5 -63.5t-42.5 -59q-16 -301 -16 -987q0 -136 29 -136q2 0 23 4.5t30 4.5q72 0 72 -72q0 -20 -26.5 -28.5t-66.5 -10 t-45 -2.5q-42 10 -67 10q-63 0 -121 -30q-6 2 -27 2q-19 0 -42.5 -5.5t-28.5 -5.5q-20 0 -50 6l-55 13l-8 45v8q0 18 10 35q3 0 9.5 -1t9.5 -1q135 0 135 182l-8 184q0 84 9 178t9 115q0 13 -8 156t-8 174q0 33 12 80t12 86q0 72 -67 72q-10 0 -19 -3h-20q-49 0 -84 41z" />
<glyph unicode="J" horiz-adv-x="710" d="M-215 -487q0 23 20 49l37 41l58 10q52 -43 61 -90q28 -4 70 -4l22 20q75 19 111 109q23 57 28 203.5t5 533.5q0 277 -15 289q2 33 2 133q0 195 -4 270q0 7 -10 21.5t-10 21.5q0 4 1 16t1 19q0 137 -74 137q-22 0 -35 -8q-27 0 -86 12q-1 8 -14 45q68 45 145 45 q20 0 89 -13t87 -13h13l98 12q100 14 125 14q45 0 45 -51q0 -34 -35 -43q-4 0 -10.5 1t-9.5 1q-58 0 -81.5 -29t-23.5 -89q0 -63 10.5 -462t10.5 -472q0 -218 -17 -271q4 -20 4 -38q0 -40 -38 -212q-13 -64 -82 -136t-159.5 -120.5t-160.5 -48.5q-73 0 -125.5 34t-52.5 63z " />
<glyph unicode="K" horiz-adv-x="1542" d="M6 10q0 47 66 68q58 19 85.5 38t31 31.5t6.5 34.5t12 39q-10 42 -10 215q0 33 0.5 64t1.5 53t2.5 41t3 31.5t2.5 21t1 13.5l1 4q0 18 -13.5 62.5t-13.5 84.5q0 15 2 55t2 56q0 17 -3 38.5t-3 28.5q0 5 3 54.5t3 91.5q0 53 -6 65q8 13 8 35q0 42 -15.5 72.5t-39 45 t-46 22.5t-40 10.5t-18.5 3.5l-11 43q8 8 146 8q45 0 291 -4q16 4 18 4q20 0 37.5 -12.5t17.5 -26.5q0 -29 -34 -29q-5 0 -17 2t-16 2q-35 0 -54.5 -45.5t-19.5 -109.5q0 -39 6 -80q-8 -36 -8 -125q0 -172 53 -172q9 0 11 2l227 229q172 187 172 242q0 36 -51 51l-64 18 q-16 13 -16 39q0 16 7 29.5t19 13.5q11 0 72 -20.5t94 -20.5t107 19l192 -2q27 24 49 24q33 0 33 -34q0 -35 -38.5 -55.5t-100.5 -20.5l-85 -40q-85 -40 -114 -69l-80 -61l-18 -33q-40 -31 -159.5 -163.5t-119.5 -151.5q0 -16 23.5 -36t40.5 -26q8 -27 121 -143 q37 -15 47 -31l18 -49q25 -39 86 -109l166 -221q118 -145 215 -145q7 0 35 4q49 -27 49 -66q0 -26 -37 -26q-6 0 -8 2h-88l-16 12q-10 -4 -23 -6l-14 -2q-6 -2 -12 -2l-244 4q-16 -2 -41 -2q-66 0 -66 29q0 14 13.5 25.5t30.5 18.5t30.5 20.5t13.5 31.5q0 45 -104 188 q-20 28 -299 359q-41 47 -68 47q-53 0 -52 -207q0 -35 4.5 -161.5t4.5 -133.5q0 -8 -4 -35.5t-4 -34.5q0 -71 131 -98q10 -30 13 -51l-5 -2q-50 -28 -77 -29q-55 0 -78 33l-5 -1q-6 -1 -12 -1l-118 4l-19 14q-2 -2 -14 -2q-19 0 -25 2q-6 0 -57.5 -15t-79.5 -15 q-41 0 -41 26z" />
<glyph unicode="L" horiz-adv-x="1359" d="M-20 16q2 22 11 35.5t26.5 20t33 8.5t42 4t40.5 4q24 5 33.5 8t23 17.5t17.5 36t9 68t6 109t1 162.5q0 105 -6 225t-6 134q0 22 7 121t7 108q0 43 -6 49v31q0 154 -86 154q-14 0 -35 -6q-19 8 -37 8q-4 0 -24 -4q-27 21 -27 45q0 15 10 32l459 15h37q129 0 129 -19 q0 -3 -2 -7l-2 -5q0 -27 -49 -45q-93 -36 -118 -60t-25 -75q0 -21 10 -66q-10 -283 -13 -563q-10 -38 -10 -74q0 -4 2 -27.5t4 -58.5t2 -67q0 -16 -2 -40t-2 -36q0 -93 84 -145t232 -52q137 0 235 37q4 1 57.5 69.5t69.5 68.5q7 0 13.5 -12t11 -39.5t4.5 -65.5 q0 -123 -131 -123q-10 0 -51.5 2t-59.5 2h-28q-27 0 -216.5 8t-214.5 8q-86 0 -94 -8q-80 0 -108 -4q-28 4 -49 4q-17 0 -68 -5t-66 -5q-43 0 -81 18z" />
<glyph unicode="M" horiz-adv-x="1970" d="M-4 1419q15 21 72 21q26 0 138 -20.5t113 -20.5q8 0 25.5 10t26.5 10q43 0 87.5 -64t57.5 -132q-2 -6 -2 -23q0 -35 35 -70v-6q0 -49 51 -131l80 -141q20 -83 57 -178q35 -54 107 -187q16 -62 90 -182h35l32 45q17 24 17 43v8q30 55 151 314q62 137 90.5 203.5t35 84 t12.5 41.5l12 43q16 8 57 166q41 157 49 164q2 1 11 0q16 0 51 -12q23 6 133 16q29 3 82.5 18t69.5 15q18 0 29 -18t11 -39q0 -15 -38 -32t-85.5 -38t-62.5 -41q4 -36 4 -82q0 -27 -4 -128t-4 -163q0 -67 11.5 -136t11.5 -81q0 -16 -9.5 -59t-9.5 -55q0 -18 14.5 -49 t14.5 -48q0 -9 -5 -48.5t-5 -47.5l6 -149q9 -92 63 -117q14 2 37 2q94 0 94 -66q0 -13 -2.5 -21t-11.5 -13t-15.5 -7.5t-25.5 -6.5t-31 -7q-57 8 -123 8q-25 0 -75 -4q-24 17 -45 17q-14 0 -55.5 -17.5t-71.5 -17.5h-39q-11 0 -15 2h2q-43 18 -43 47q0 23 24.5 42t53.5 19 q21 0 43 -16q38 9 41 51q0 49 -2 72q0 5 1 51t3.5 153.5t5.5 227.5q6 264 6 336q0 29 -9.5 39t-35.5 10q-14 0 -26.5 -8t-22 -22t-17.5 -30t-13.5 -34t-9 -31t-6.5 -25.5t-3 -13.5q-80 -168 -149 -293l-31 -88q-12 -10 -18 -17t-11.5 -20.5t-8.5 -25.5t-12 -45l-18 -66 q-1 -2 -72 -173t-92 -187l-26 20q-19 46 -77 208.5t-62 191.5q-37 26 -45 34l-7 39q-24 24 -51 97q-14 33 -66.5 109t-58.5 120v43q-3 27 -20 37q0 1 -3.5 13t-6 18.5t-6.5 20t-7.5 22t-9 20.5t-10.5 19.5t-10.5 15t-12 11t-12.5 3.5q-31 0 -59.5 -33.5t-28.5 -66.5 q0 -14 10 -31q-6 -15 -6 -61q0 -73 8.5 -142t16.5 -86q-5 -21 -5 -69q0 -26 8.5 -68t8.5 -65q0 -11 -6 -74.5t-6 -75.5q0 -113 96 -125q19 0 50.5 -18.5t31.5 -30.5q0 -33 -80 -33q-69 0 -101 12q-97 -20 -133 -20q-26 0 -57.5 11.5t-42.5 11.5q-1 0 -4 -1.5t-4 -1.5 l-33 -18l-33 8q-14 20 -14 37q0 29 88 53q71 17 91 36.5t20 66.5q0 79 20.5 165.5t20.5 108.5q0 3 -9.5 156t-9.5 188q0 21 13.5 57.5t13.5 53.5q0 28 -12.5 81.5t-12.5 78.5q0 20 2 34v29q0 20 -13 50.5t-37.5 63.5t-68 58t-94.5 29q-48 3 -57 63z" />
<glyph unicode="N" horiz-adv-x="1712" d="M-2 -2q0 59 43 80h8q48 0 110 64.5t62 109.5q0 12 -6 24q16 6 16 46q0 29 -7 118.5t-7 188.5q0 208 39 264q-16 59 -16 139q0 17 2 65.5t2 61.5q0 144 -94 144q-6 0 -46 -5q-5 5 -30 17t-44.5 27t-19.5 30q0 17 36 28t71 11q13 0 54.5 -2t49.5 -2q17 0 59.5 3t49.5 3 q75 0 119 -92q42 -28 106 -129q11 -18 33.5 -38t42.5 -34t37.5 -34t21.5 -39q21 -15 45 -62l84 -111q35 -21 246 -294q190 -248 233 -248q9 0 15 63t6 84q0 24 -4 56q14 46 14 81q0 18 -9 72t-9 80q0 56 6 175t6 132q0 226 -70 275q-14 -2 -30 -2q-64 0 -64 57q0 43 49 43 q29 0 189 -10q182 -15 191 -18t9 -11q0 -30 -49 -33q0 -3 -37 -33q-54 -43 -76.5 -97t-35.5 -136q8 -24 8 -86q0 -24 -5 -92t-5 -98q0 -72 18 -119q-14 -104 -14 -266q0 -12 1 -55.5t1 -76.5v-129v-21q0 -50 -0.5 -79t-3.5 -72t-12 -64.5t-23 -21.5q-2 0 -14 4 q-186 237 -535 639l-39 13q-11 6 -17 35t-7 30l-27 30q-120 143 -140 205l-3 15l-62 39q-36 22 -57 66q-22 44 -38 58.5t-36 14.5q-25 0 -45 -19t-20 -44q0 -13 2 -15l-9 -36q13 -57 13 -107q0 -17 -7.5 -101t-7.5 -110q0 -17 11.5 -82.5t11.5 -81.5q0 -30 -10.5 -93.5 t-10.5 -100.5q0 -35 2 -53q2 -38 23.5 -65t51.5 -42t59.5 -28.5t50 -34t20.5 -48.5q0 -26 -28 -26q-7 0 -48 10t-53 10q-14 -2 -356 -51q-22 0 -31.5 7.5t-9.5 29.5z" />
<glyph unicode="O" d="M-4 621q6 41 6 94v39q12 36 18 96l11 96q0 1 18.5 34.5t18.5 45.5q10 15 40 61.5t43.5 66t42.5 58.5t51 60t54 48t67 45t74 30q26 0 126 27.5t120 27.5q32 0 51 -8q8 8 39 8l41 -6l123 -19q103 -18 149.5 -39t129.5 -92l108 -90q25 -25 50 -60t55 -90.5t48.5 -131 t18.5 -156.5q0 -178 -61 -340q-46 -115 -104 -183t-154 -141q3 0 -6 -6q-51 -35 -140 -69q-56 -23 -90 -25q-1 0 -14 -9.5t-28 -17.5t-25 -8q-12 0 -41 13q-4 0 -13 -1.5t-14 -1.5q-29 0 -119 5.5t-110 5.5l-43 28h-25l-42 12q-43 12 -84.5 31t-72.5 47q-96 23 -143 101 l-86 133v6q0 15 -27.5 73.5t-27.5 82.5q0 3 1 7t1 7q-6 6 -14 30.5t-14 48.5t-7 26zM229 721q0 -149 27 -176q11 -69 32 -125.5t40 -86t39 -58.5t26 -42q81 -81 103 -81l41 -33q101 -77 262 -80q92 0 185 43t116 119q116 110 139 241q25 22 25 267q0 62 -24.5 216.5 t-37.5 180.5q-168 268 -477 268q-109 0 -205 -39t-157 -108.5t-66 -153.5q-29 -20 -48.5 -125.5t-19.5 -226.5z" />
<glyph unicode="P" horiz-adv-x="1224" d="M2 33q0 54 51 63q6 -2 31 -2q133 0 133 230q0 28 -8 159t-8 148q0 78 18 108q0 1 2 168t2 334q0 87 -151 96q-27 3 -27 21q4 30 34.5 54t57.5 24q2 0 30.5 -4t64 -7.5t53.5 -3.5q84 41 231 41q105 0 262 -22q1 0 15.5 -5t31 -11t35 -13.5t33 -17.5t18.5 -19q2 0 4 2 q8 0 58 -37q81 -62 118 -127t37 -155l15 -15l-2 -96q-48 -109 -82 -153l-98 -117h-5q-8 3 -53 -25q-70 -42 -120 -59t-105 -17q-68 0 -68 46q0 18 14 26t62 19q42 10 74 23t65 38.5t54 61.5t34 92.5t13 130.5q0 34 -16.5 80.5t-48 96t-72 91.5t-94.5 69t-109 27h-19 q-26 13 -55 13q-20 0 -34 -7t-23 -24t-14.5 -35t-8.5 -50t-3.5 -58.5t-0.5 -69.5t9 -243.5t9 -231.5q0 -105 -14 -146q4 -50 4 -92q0 -23 -1 -67t-1 -58q0 -99 23 -155q0 -2 93 -43t93 -60t-25 -37t-45 -18q-8 0 -31 6t-30 6q-175 -35 -301 -35q-41 0 -69.5 1.5t-64.5 7 t-55.5 19t-19.5 34.5z" />
<glyph unicode="Q" horiz-adv-x="1714" d="M-29 674q0 118 24 223t65.5 186t98.5 148.5t123 114.5t139 79t145.5 47t144.5 15q143 0 276.5 -56t234.5 -153.5t161.5 -238.5t60.5 -302q0 -253 -123 -426q-47 -26 -135 -106q-13 -2 -25 -6.5t-28.5 -14.5t-29.5 -19.5t-41 -29.5t-50 -35q-94 -21 -117 -33 q-33 -17 -33 -44q0 -46 45 -72q34 0 51.5 -13t31.5 -34t30 -31q71 -46 291 -158q598 -307 1007 -307q93 0 209 17q12 8 46 24.5t53 26.5q86 21 116 41q57 38 58 116v37q0 72 30 72q23 0 46.5 -28.5t23.5 -55.5q0 -20 -16 -33l-21 -67q-7 -35 -49 -66t-115.5 -66t-95.5 -49 q-29 0 -82 -16q-23 -8 -46 -13.5t-39 -8.5t-41 -4t-36.5 -1.5t-42 0t-41.5 0.5q-266 0 -544 56q-46 8 -211.5 79.5t-202.5 79.5q-17 14 -68 36t-61 32q-17 15 -24 19.5t-30 15t-69 26.5q-19 31 -59 54q-3 0 -5.5 -1t-5.5 -1q-26 0 -51.5 16t-73.5 68q-126 132 -325 211 q-218 88 -291 151q-67 16 -150 127q-74 95 -103.5 175t-29.5 196zM207 772q0 -250 112 -403q34 -51 54 -75.5t61 -57.5t90.5 -62t153.5 -86q29 -16 119 -16l176 131q26 22 50.5 54.5t59.5 87t62 91.5q1 4 4.5 41t13.5 77t27 62q16 109 16 156q0 41 -24.5 144.5t-26.5 113.5 q-29 172 -173 271.5t-355 99.5q-55 0 -102 -23t-119 -100q-67 -69 -108 -130t-60 -124.5t-25 -117t-6 -134.5z" />
<glyph unicode="R" horiz-adv-x="1572" d="M4 27q0 37 51 57q27 11 63 18t54 11t31.5 22t13.5 53q0 11 -4 50t-4 53q0 25 2 87.5t2 100.5q0 124 -2 238.5t-4 181t-2 74.5q0 55 4 145t4 127q0 36 -21.5 55.5t-48 22.5t-48 9.5t-21.5 19.5q0 25 49 55q54 -4 102 -4q20 0 152 4t168 4q255 0 374.5 -68.5t133.5 -212.5 q1 -10 8.5 -51.5t7.5 -56.5q0 -98 -139 -205q-96 -75 -96 -119q0 -47 88.5 -172t152.5 -186l15 -47l122 -146q86 -92 160 -92q24 0 53 13q24 -4 40 -24t16 -44q0 -14 -2 -16q-73 -43 -144 -43q-231 0 -413 209q-2 13 -10.5 31t-24 42t-29.5 44t-37.5 52.5t-36.5 51.5 q-16 10 -26 25t-13 27t-5 24t-3 14q-18 26 -89 105.5t-87 90.5q-9 -6 -33 -6q-5 0 -15 1t-15 1q-3 -2 -11.5 -8t-12.5 -8.5t-11 -8.5t-10.5 -10t-7.5 -10t-5 -12q-20 -84 -20 -207q0 -120 20 -246q3 -13 86.5 -51t83.5 -53t-22 -31q-92 10 -185 10q-182 0 -323 -30 q-24 12 -43 12q-14 0 -23 -6q-10 23 -10 33zM420 1268q14 -28 14 -158v-166q0 -237 51 -237h82q71 0 174 86q70 58 96.5 105t26.5 103q0 122 -30 152q-25 81 -110.5 132.5t-193.5 51.5q-57 0 -98 -14z" />
<glyph unicode="S" horiz-adv-x="1005" d="M-6 231q0 58 55 58q24 0 35 -24t14 -59.5t6 -43.5q19 -54 111.5 -96.5t167.5 -42.5q112 0 187 69.5t75 183.5q0 43 -8 74v17q0 23 -6 67l-43 47q-45 51 -139 127q-27 22 -79.5 38t-60.5 22q-266 193 -266 370q0 189 209 281q15 86 244 86q146 0 206 -31q3 0 7.5 1t7.5 1 q38 0 63 -59.5t26 -140.5q0 -57 -13 -72h-11q-18 0 -32 9.5t-24.5 29.5t-17 36.5t-15.5 43.5l-13 39q-12 29 -34.5 47.5t-53.5 25.5t-52 9t-51 2q-119 0 -181 -75.5t-62 -221.5q0 -71 29 -110.5t110 -94.5q95 -66 115 -86q4 -2 57.5 -37t65.5 -35q217 -163 217 -352 q0 -91 -56 -181.5t-153 -129.5q-26 -12 -84.5 -25.5t-104 -23t-47.5 -11.5q-38 10 -104 10q-37 0 -86.5 14.5t-67.5 14.5q-7 0 -29 -2t-26 -2q-41 0 -62 63v7q0 14 -13 82.5t-13 80.5z" />
<glyph unicode="T" horiz-adv-x="1597" d="M-23 1178q10 51 35 139q2 4 2 18q0 8 -4 39.5t-4 40.5q0 37 25 62q14 0 61 -9q2 -5 38.5 -12.5t97.5 -13.5t120 -6q45 0 98.5 11t69.5 11q18 0 70.5 -10t68.5 -10q19 0 62 10t45 10q20 0 89 -7t75 -7q13 0 78 12t116 12q14 0 37.5 -1t34.5 -1q68 0 100 4q46 64 76 64 q55 0 55 -215q0 -9 -4 -111l-16 -28q-15 -6 -29 -6q-43 0 -55 65l-21 102q-12 25 -67 25q-28 0 -45 -10q2 0 -39.5 3.5t-95 7t-78.5 3.5q-170 0 -170 -72q0 -16 2 -20q-14 -20 -14 -51q0 -15 9 -52t9 -45q0 -28 -25 -53q11 -26 11 -45q0 -22 -13 -59q27 -27 27 -113 q0 -32 -9 -73.5t-9 -51.5q0 -27 14 -73l-6 -64q2 -88 2 -211q0 -115 -4 -127q17 -62 30.5 -82t38.5 -20q15 -52 68 -52q7 0 36.5 3.5t37.5 3.5q31 0 44 -14t13 -54q0 -68 -29 -68q-6 0 -30 11.5t-27 11.5q-52 10 -195 10q-146 0 -204 -14q-33 8 -66 8q-7 0 -35 -4 q-5 0 -41 -21.5t-45 -21.5q-16 0 -26.5 21.5t-10.5 46.5q0 35 16.5 51t44 20.5t57 9.5t61 26t51.5 61q20 44 20 733q0 360 -8 407q-6 51 -57 51q-19 0 -96 -22.5t-80 -22.5q-168 0 -201 -26l-127 -150h-31q-20 0 -29 15z" />
<glyph unicode="U" horiz-adv-x="1837" d="M-20 1427q15 15 36 15q18 0 37 -8q100 36 111 36q1 0 8 -2q59 -41 115 -41q5 0 26 3h29q27 0 59 -7q45 10 125 13q38 1 85.5 11.5t56.5 10.5q24 0 41.5 -21t17.5 -48q0 -26 -16.5 -40t-63.5 -14h-18l-84 8q-44 -17 -47 -18q-11 -9 -11 -47v-33q0 -5 -2.5 -39t-5 -85 t-2.5 -97q0 -60 8.5 -161.5t8.5 -147.5q0 -83 -11 -187l6 -18v-14q0 -24 11 -35q4 -15 12 -48t14 -52t16.5 -45t26 -46t37.5 -37q19 -68 97 -123t186 -55q44 0 65 8q6 -2 29 -2q41 0 88.5 17.5t97 56t90 92t66 133t25.5 170.5q0 16 -2 78t-2 78v162q0 181 -5 201 q9 18 15 127q-16 10 -19 69q-4 89 -25 112t-89 23q-30 0 -43 -8q-34 0 -67.5 15t-33.5 38q0 9 11.5 24t29.5 15q13 0 25 -4l37 -12q36 -4 190 -4h230q0 2 -31 2q162 -3 176 -23q-3 -54 -94 -57q-121 -3 -176 -39q0 -23 3 -139t3 -146q0 -48 -13 -141q1 -15 15 -295 q0 -35 -2 -41q-5 -44 -10 -93.5t-5.5 -60t-8 -36.5t-15.5 -40.5t-31 -55.5q0 -61 -104 -140v-6q0 -15 -23 -35q-45 -33 -45 -35q-6 -8 -35 -22l-28 -14q-95 -77 -205 -80q-145 -3 -195 -23l-30 10l-97 13q-4 -4 -10 -4q-27 0 -93 37.5t-93 60.5l-103 102l-73 107 q-70 113 -70 217q0 11 5 258t5 317q0 205 -16 287q-2 1 -43 33q-151 0 -166 12z" />
<glyph unicode="V" horiz-adv-x="1343" d="M-14 1395q15 24 55 24q17 0 65 -13t66 -13q11 0 46 7t48 7h13q33 0 68.5 10t66.5 10h9.5h12t13.5 -0.5t15 -1.5t13.5 -2.5t13 -4t10 -6.5t7 -9t2.5 -12q0 -20 -12.5 -29.5t-30 -12.5t-35.5 -7t-30.5 -17t-12.5 -37q0 -32 12.5 -73t35 -100t34.5 -101q7 -40 57 -140 q2 -22 9 -53.5t24 -81.5t27 -79.5t36.5 -101.5t34.5 -95q6 -15 37 -37l49 143l29 58q14 30 19 73v9l32 65q25 52 25 82q-2 0 6.5 10.5t21 34.5t15.5 51q7 36 29.5 75t25.5 81q3 51 6 63l21 35q12 24 12 39q0 -4 -3 2q-20 48 -25 54q-4 6 -7 8q-13 7 -49 20h-6q-15 0 -31 7 t-16 22q0 18 57 41h8q15 0 61.5 4t76.5 4q93 -18 143 -18q16 0 55.5 6t42.5 6q33 0 33 -37q0 -21 -13.5 -29t-68.5 -12q-21 -2 -32.5 -4.5t-23 -9.5t-17.5 -13t-22 -23.5t-30 -31.5q-6 -13 -10 -44.5t-6 -37.5q-12 -12 -27 -33q-5 -5 -11.5 -48t-12.5 -52 q-42 -66 -65.5 -116t-37.5 -93.5t-56 -169t-95 -272.5q-18 -51 -40 -131t-38 -126t-33 -63l-24 -65q-7 -17 -27 -17q-17 0 -50 45q-3 5 -5 7q-22 49 -35.5 96.5t-53 173t-108.5 317.5q0 64 -51 172l-55 172q-29 19 -29 33v2q0 58 -47 201q-12 35 -39 63.5t-56.5 46 t-57.5 32.5t-46 30t-18 31z" />
<glyph unicode="W" horiz-adv-x="2236" d="M-32 1371q-4 12 18 17q26 7 88 8q180 0 221 -22q83 25 131 25q30 0 49 -8l12 -33q-47 -30 -47 -74q0 -6 4.5 -34t4.5 -38q0 -12 -7 -30q16 -31 45.5 -91.5t46 -92t39.5 -65.5t43 -48q0 -7 129 -262l146 -285q21 -8 43 -8q3 0 6 1t6 1q144 190 160 252q0 10 -35 75 q-31 56 -57 116.5t-40 93.5t-28 44l-106 215q-75 145 -119 189q-3 2 -25.5 3t-40.5 7.5t-18 22.5q0 45 39 46q5 0 14 -7q6 6 84 7q198 0 227 -20q41 27 74 27q55 0 55 -37q0 -10 -18.5 -20t-40.5 -18t-40.5 -23.5t-18.5 -34.5q0 -71 69 -209q29 -56 64 -126 q30 -61 37.5 -72.5t22.5 -16.5q11 -4 20 -8q22 28 80 106q6 14 38 73.5t58.5 121.5t44.5 131q-12 79 -12 82q0 40 24 55h111q39 0 63.5 -4.5t34 -13.5t12 -16.5t2.5 -18.5q0 -26 -43 -56q-21 -15 -46.5 -31t-33.5 -23t-22.5 -25t-34.5 -52q-20 -38 -38 -80.5t-101 -205.5 q-82 -155 -82 -164q18 -64 73.5 -176t94.5 -158q7 0 13.5 4.5t35.5 46t74 121.5q27 51 44 84.5t19.5 40t10 21t19 33t44.5 71.5q49 78 79 142t30 79q106 130 106 266q0 26 -14.5 46.5t-28.5 33t-14 17.5q0 24 39 24q6 0 29.5 -4t43.5 -4q12 0 43 2t45 2q34 0 64 -10 q8 8 24 8q21 0 38.5 -16.5t17.5 -36.5q0 -16 -19.5 -29.5t-44.5 -22.5t-49.5 -26t-32.5 -39q-87 -100 -145 -256q-11 -8 -37 -41q-117 -177 -254 -426q-11 -73 -65 -160l-62 -102q-3 -3 -41 -137q-24 -82 -86 -97q-23 12 -53.5 74t-30.5 96q0 11 2 13q-76 145 -143 258 q-89 -114 -107 -189q-30 -23 -69 -127q-45 -122 -57 -139q-12 -18 -33 -18q-19 0 -37.5 14t-37 43t-33 57.5t-37 73.5t-38.5 74l-82 135q-17 14 -24 41q-27 95 -129 270l-129 219q-25 3 -39.5 25t-18.5 47t-11 49.5t-19 30.5q-1 15 -21.5 51.5t-21.5 42.5l-33 51 q-72 101 -111 101q-16 0 -20 -2l-43 8q-1 4 -15 23.5t-14 27.5q0 1 -1 3z" />
<glyph unicode="X" horiz-adv-x="1382" d="M-6 1370q0 57 162 57q72 0 90 -18l130 13q44 3 73 3h10.5h10.5t7.5 -1t6.5 -3t3.5 -6t1.5 -10q0 -42 -28 -64h-12q-31 0 -46.5 -10t-17 -22t-6 -24t-14.5 -15l26 -41q3 -17 14.5 -41t20.5 -40t32 -51.5t29 -45.5l29 -68q9 -58 57 -72q-2 -2 -2 -12q0 -20 11 -34.5 t30 -14.5q50 78 126.5 224.5t76.5 160.5q33 11 33 33q0 24 -28 44.5t-55.5 36t-27.5 25.5q0 43 199 43h39q24 0 42 1q17 0 29 -1q22 -1 50.5 -6.5t39.5 -17.5t11 -33q0 -12 -9.5 -21.5t-29 -16t-33.5 -10t-41 -8.5t-33 -6q-75 -35 -139 -200q-2 -2 -39.5 -65t-85.5 -147.5 t-71 -129.5l92 -154q98 -154 108 -213q20 -23 66.5 -90.5t46.5 -73.5l39 -57l22 -53q97 -22 97 -80q-14 -39 -60 -39q-13 0 -61.5 7t-63.5 7q-14 0 -33 -6t-40 -6q-70 0 -99 2q-98 4 -98 25q0 42 29 65h26q27 0 41 9t20 22t11 16l2 4q-9 52 -119 232l-49 61q-14 8 -14 23 q0 4 3 18.5t3 18.5q0 6 -3 9.5t-6.5 4.5t-11 2.5t-12.5 3.5h-6q-14 0 -14 12q0 16 14 41l-12 7q-9 4 -17 4q-30 0 -30 -37q-51 -69 -127 -213.5t-76 -159.5q-45 -17 -45 -51q0 -27 24 -45.5t62 -18.5q14 0 18 2q8 -13 8 -39q0 -39 -18 -39q-15 0 -59 9.5t-74 9.5 q-27 0 -81.5 -4.5t-94.5 -9.5l-41 -5q-35 3 -35 52q0 34 29 47q35 6 48 8.5t40.5 10t40 16.5t34 25.5t36 38.5t33 54t36.5 74q12 12 221 352l-119 179q-90 134 -98 180q-18 13 -56 75t-38 70l-51 103l-21 22q-14 0 -76.5 32.5t-62.5 53.5z" />
<glyph unicode="Y" horiz-adv-x="1300" d="M2 1368q0 33 63.5 48.5t135.5 15.5q41 0 57 -19l227 19h4q11 0 11 -17q0 -49 -33 -69h-27q-30 0 -46 -11.5t-22 -24.5t-10 -14l-2 -4q14 -73 93 -227l112 -223l10 -8q0 -30 17.5 -61.5t56.5 -31.5q34 0 78 144l68 180q47 125 47 164v6q20 9 20 27t-22 33.5t-48.5 25.5 t-48.5 27t-22 38q0 39 59 39q13 0 62 -9t55 -9q15 0 61.5 9t77.5 9h142q43 0 43 -53q0 -40 -41 -61q-4 0 -36.5 11t-41.5 11q-48 -11 -84.5 -45t-61 -83.5t-42 -98.5t-38 -107t-38.5 -92q-27 -55 -27 -62q0 -19 -123 -259l6 -277q0 -14 -3 -57.5t-3 -54.5q0 -44 23.5 -77.5 t64.5 -33.5q12 0 41.5 7t36.5 7q27 0 44 -14t17 -39q0 -59 -51 -59h-88q-43 26 -291 26q-11 0 -74 -16t-75 -16q-51 0 -51 43q0 26 15 44.5t38.5 27.5t44 12.5t39.5 3.5h29q15 0 20 7.5t9 41t8 100.5q0 16 1 25q13 3 13 20q0 5 -6.5 31t-6.5 33q0 3 1.5 8t1.5 10 q0 13 -4.5 43t-4.5 33t1 5t1 3l-6 117q-39 86 -61 137v8q0 17 -8 33l-27 10q-10 21 -28 58.5t-44.5 104.5t-29.5 95l-27 35q-5 15 -27 51q-3 4 -8 11t-18.5 25.5t-23.5 33.5t-18 31t-7 22q0 1 1 3t1 3q0 9 -2 11q-6 2 -11 13.5t-17.5 22t-37.5 13.5q-11 5 -29 11.5t-25 9.5 t-15.5 8.5t-11.5 12t-3 15.5z" />
<glyph unicode="Z" horiz-adv-x="1554" d="M-43 10q0 23 9.5 40.5t33.5 43.5q22 28 251.5 281t285.5 327q6 27 14 42.5t14.5 19.5t18.5 7.5t18 6.5l100 121q71 86 107 86l33 76q13 29 56 68.5t48 48.5q5 8 19.5 30t22 37t7.5 25q0 26 -55 26q-15 0 -51 -4l-29 11q-59 -17 -98 -17q-14 0 -80 6t-92 6q-13 0 -69 -15 t-72 -15q-23 0 -73 10t-79 10q-63 0 -99 -20t-63 -84q-38 -84 -86 -84q-12 0 -18 15.5t-6 31.5q0 9 6 46t6 40q5 48 16 92.5t24.5 74.5t27.5 52.5t25 33.5t17 11q14 0 41 -18v-11q0 -16 4.5 -26.5t15.5 -16t18.5 -8t25.5 -5t24 -3.5q6 -16 35 -16q19 0 100 11t195 11 q146 0 193 -41q55 27 135 27q26 0 120 -10.5t105 -10.5q49 0 70 15q71 -15 71 -58q0 -12 -6 -28t-18.5 -36.5t-23.5 -36.5t-29 -41t-27 -38q-14 -35 -115 -125q-17 -16 -69.5 -89.5t-77.5 -82.5q-15 -27 -51 -55l-92 -103q-10 -29 -283 -317q-182 -194 -182 -246 q0 -21 50 -31t87 -10q26 0 47 6q38 -14 68 -14q10 0 63 12.5t74 12.5q15 0 120 -7.5t132 -7.5q142 0 194 58q103 139 139 139q21 0 27 -39v-8q0 -15 -16 -113q-5 -25 -17 -94q-10 -18 -37.5 -33.5t-46.5 -15.5q-10 0 -10 6q-9 -4 -29 -4q-14 0 -18 4q-28 18 -156 18 q-34 -12 -82 -12q-15 0 -70.5 4t-72.5 4q-64 0 -108 -24q-78 10 -166 10q-45 0 -152 -5t-147 -5q-99 0 -148 10q-29 -29 -57 -29q-37 0 -37 39z" />
<glyph unicode="[" horiz-adv-x="673" d="M-6 856q0 10 1 39.5t1 48.5q0 16 -1 56t-1 65q16 16 16 51q0 14 -7 30.5t-7 22.5q0 9 2 11q27 34 27 65q0 7 -2.5 20t-2.5 17q0 45 48 45q8 0 23 -3t24 -3q15 0 102.5 27.5t110.5 27.5q24 0 67 -18q19 -8 35 -8l29 12q37 14 51 14q17 0 26 -12.5t9 -32.5q0 -33 -33 -46 t-96 -15h-125q-53 -3 -78 -10q-20 4 -29 4q-96 0 -96 -64q0 -6 4 -22q-2 -51 -16 -226q22 -22 22 -82q0 -58 -14 -86q29 -63 29 -131q0 -7 -9.5 -97t-9.5 -134q0 -12 0.5 -19t3.5 -14.5t4.5 -10t9 -13.5t11.5 -17q0 -145 -21 -194q29 -37 29 -144q0 -18 -2 -100t-2 -98 q0 -172 80 -172q12 0 16 2q35 -27 113 -27h16q97 0 99 -2q2 2 8 2q10 0 18 -10t8 -21q0 -13 -8.5 -20.5t-29.5 -10.5t-35 -3.5t-48 -0.5h-18q-42 0 -106 2.5t-80 2.5q-15 0 -34.5 -1.5t-27.5 -1.5q-45 0 -55 8q-17 13 -18 89v20q0 -12 -5 189t-10.5 438t-5.5 309 q0 70 2.5 116.5t5.5 64.5l2 18q0 27 -20 53z" />
<glyph unicode="\" horiz-adv-x="952" d="M16 1303q0 26 29 26q15 0 51 -51q14 -21 29 -36.5t23.5 -21.5t14 -15.5t5.5 -24.5v-13q15 -44 45 -53q9 -26 51 -104t43 -82q-2 -6 -2 -23v-10q-1 -13 20 -52q102 -183 271 -528q249 -512 260 -555l-39 -34q-67 27 -104 96l-56 131q-7 13 -23 42t-23 42t-20 37l-19.5 36 t-15.5 31t-13.5 30.5t-9.5 24.5t-7 22.5t-2 17.5q0 4 4 20q-42 36 -106 164q4 39 8 45q0 1 -45 71.5t-86 155t-41 133.5q-25 19 -48.5 62.5t-23.5 73.5q0 14 2 18q-52 78 -112 190.5t-60 133.5z" />
<glyph unicode="]" horiz-adv-x="866" d="M123 1303q0 53 96 53q30 0 95.5 -17.5t105.5 -17.5q32 0 59 6q10 0 92 -4l19 -8q15 -6 37 -6q20 0 41 6t22 6q33 0 33 -121q0 -24 -1 -70t-1 -69q8 -41 8 -219q1 -52 -1 -185.5t-4 -239t-1 -106.5q-2 -7 -0.5 -16t5 -48.5t3.5 -80.5q0 -40 -8 -53v-219v-35l10 -23v-135 q0 -55 -11.5 -105.5t-31.5 -50.5q-4 0 -27 6.5t-32 6.5q-13 0 -54 -6.5t-69 -6.5h-62q-88 0 -149 -22l-86 12q-80 12 -80 45q0 24 28.5 47t39.5 23q6 0 55.5 -19.5t85.5 -19.5q31 0 96 4t117.5 9t52.5 7q2 2 2 230q45 89 45 180q0 48 -22 76l6 317q0 4 -16.5 41.5 t-16.5 48.5q0 23 19 45q-11 94 -11 111v14q-8 188 -8 273v22l14 23q15 111 15 162q-27 71 -70 71q-25 0 -67 -1t-60 -1q-273 0 -305 28q-8 10 -8 32z" />
<glyph unicode="^" horiz-adv-x="958" d="M88 1174q0 10 4 14q0 3 27 18q11 8 28 15l66 67q9 8 21 31t16 27q61 58 141 147q-2 2 -2 8q0 19 45 19q28 0 41.5 -4.5t19.5 -12.5t25.5 -30t48.5 -46l72 -57q3 -31 172 -168q10 -10 10 -59v-23q-37 -18 -73 -18q-29 0 -45.5 9t-23 21.5t-21 42.5t-31.5 54l-33 51 q-8 0 -72 46t-69 54l-49 43q-16 -6 -27 -46.5t-12 -41.5q-14 -20 -36.5 -48.5t-58 -69t-72.5 -68t-63 -27.5q-49 0 -49 52z" />
<glyph unicode="_" horiz-adv-x="1439" d="M-31 -227l13 51q37 5 485 14q522 10 735 10q42 0 74.5 -0.5t49.5 -1t29 -1.5t16 -1.5t7.5 -1t5.5 -0.5q27 0 54 21q30 -47 30 -74q0 -31 -38 -31q-30 0 -62 13q-52 -27 -166 -27q-19 0 -173 10t-198 10q-16 0 -24.5 -2.5t-21 -12.5t-17.5 -13q-148 0 -195 20 q-18 -30 -135 -30q-16 0 -88 4t-92 4h-14q-8 0 -62.5 -5t-72.5 -5q-82 0 -140 49z" />
<glyph unicode="`" horiz-adv-x="888" d="M170 1532q0 45 53 45q42 0 57 -8q29 -15 89 -90q19 -26 27 -41t22 -44t39 -71q28 -66 38.5 -81t53.5 -54q24 -24 35.5 -49.5t11.5 -40.5t1.5 -25t8.5 -10v2q0 -9 -6 -12q-13 -13 -22 -13q-19 0 -37 37l-29 53l-162 179l-12 9q-11 10 -28 24.5t-34.5 30.5t-30 32.5 t-14.5 26.5q-61 52 -61 100z" />
<glyph unicode="a" horiz-adv-x="833" d="M-23 141q0 92 97 189q7 0 125 37l141 43q4 0 7 -1l3 -1q36 0 58 58t22 146q0 100 -38 141.5t-111 41.5q-27 0 -45 -9q-16 -6 -52 -56t-75.5 -97.5t-65.5 -50.5q-23 23 -23 57q0 51 39 96q20 8 54 45q51 56 113.5 82.5t111.5 26.5q59 0 172 -39q88 -107 88 -283 q0 -16 -11.5 -158t-11.5 -196q0 -32 15 -52t28 -20q8 0 29 30t29 30l22 -8q21 -49 21 -93q0 -81 -94 -96l-138 -8l-10 7q-83 65 -102 65q-1 0 -3 -1t-5 -2t-5 -2q-82 -55 -151 -55h-25q-10 2 -26 2q-37 0 -74 -6q-109 44 -109 137zM166 215q0 -38 39.5 -74.5t79.5 -36.5 q3 0 6 1t6 1q20 -4 27 -4q37 0 64.5 37t27.5 80v14q10 23 10 35q0 36 -28 60t-70 24q-46 0 -104 -38.5t-58 -98.5z" />
<glyph unicode="b" horiz-adv-x="1112" d="M-12 1403q0 23 38.5 38t90.5 15h16l66 33q39 20 63 20h4l23 -20q12 -67 12 -158q0 -32 -12.5 -221t-12.5 -246v-28l11 -23q15 -6 30 -6q24 0 117 43q40 16 90 16q91 0 197 -37q115 -42 162 -132t59 -302q-16 -22 -16 -55q0 -169 -121 -248l-187 -98q-12 0 -56 -5t-58 -5 q-27 0 -135 21.5t-115 21.5q-56 -39 -98 -39q-16 0 -33 10l-14 29q0 -1 0 2.5t-0.5 11t-0.5 19t-0.5 28.5t-0.5 37t-0.5 46t-1 54t-1 63t-0.5 72q-4 462 -4 545q0 283 11 312q0 24 -13 81q-1 1 -19.5 15t-38 29t-36 33t-16.5 28zM268 244.5q0 -36.5 10.5 -65.5t31.5 -49 t61.5 -31t101.5 -11h148q71 0 112 80t41 215q0 196 -65 258q-17 17 -29 45q-94 88 -197 88q-23 0 -81 -14.5t-64 -14.5h-4l-55 -67l-9 -246v-51q0 -20 -2 -57v-79.5z" />
<glyph unicode="c" horiz-adv-x="933" d="M0 410q0 70 23 182q17 34 22 41l70 121l164 100q68 45 163 45q165 -21 193 -25q53 -8 108.5 -47.5t55.5 -76.5q0 -28 -27.5 -49t-58.5 -21q-26 0 -56.5 19.5t-55 43t-59 43t-65.5 19.5q-137 0 -215 -84t-78 -232q0 -139 72 -280q52 -98 293 -107q37 0 94.5 35.5 t100.5 70.5l42 36q29 -16 29 -45q0 -24 -35 -54t-85 -60.5t-58 -37.5h-10q-22 0 -58 -22q-4 2 -20 2q-12 0 -49 -11q-52 -16 -88 -16h-14q-44 0 -97 16q-301 91 -301 394z" />
<glyph unicode="d" horiz-adv-x="1056" d="M-14 387q0 132 32 195q20 38 94 120t95 82l16 17q22 2 64 26q42 25 63 31t56 6q29 0 118 -22l90 -21q31 28 31 180q0 12 -3 91.5t-3 126.5q0 31 2 58t2 36q0 71 -59 71l-21 15q-4 16 -4 20q0 41 68 41q25 0 39 -2q2 0 51.5 18.5t58.5 18.5q41 0 41 -197q0 -184 -24 -319 q12 -37 12 -201q0 -51 -3.5 -186t-6.5 -251t-4 -120q0 -125 75 -125q19 0 43 6q17 -24 17 -51q0 -41 -31 -57q-32 4 -51 4q-22 0 -86.5 -13.5t-77.5 -13.5q-22 0 -34.5 14.5t-15.5 33t-10 36.5t-20 23q-119 -64 -285 -64q-213 0 -266 133q-63 63 -63 240zM139 434 q0 -100 39 -151q5 -57 39 -91t150 -94q71 -6 96 -6q171 0 174 96l4 97q4 110 4 139q0 149 -22 168q-77 209 -205 209q-44 0 -111 -21q-10 -17 -37 -32q-131 -64 -131 -314z" />
<glyph unicode="e" horiz-adv-x="874" d="M-6 412l6 42q7 42 16 87.5t29.5 95.5t46.5 72l4 20q29 41 83.5 76t100.5 56.5t50 25.5q3 0 8 -1t8 -1q14 0 36.5 2.5t39 5t18.5 2.5q24 0 71 -24t93 -27q17 -24 72 -70q40 -34 53.5 -57t13.5 -55q0 -99 -71 -99q-5 0 -25 4q-56 -6 -127 -6q-28 0 -154 5t-153 5 q-19 -7 -35 -53t-16 -86q0 -29 10 -39q-2 -2 -2 -12q-1 -11 5 -25.5t16.5 -34t15.5 -30.5q35 -86 103.5 -133t156.5 -47q49 0 90 14q24 31 47 51q63 51 105 51q15 0 22.5 -16.5t7.5 -28.5q0 -29 -89 -112q-28 -26 -27 -23h-9q-23 0 -43 -14q-78 -56 -172 -56 q-191 0 -280 119q-15 19 -38 49q-49 63 -52 74q0 3 -1 10q-2 19 -8 41l-18 19q-5 104 -8 123zM242 698q0 -26 41 -44.5t96 -18.5q32 0 49 10q13 -8 35 -8q37 0 67.5 28t30.5 60q0 61 -209 98l-22 -20q-21 -20 -38.5 -37t-33.5 -37.5t-16 -30.5z" />
<glyph unicode="f" horiz-adv-x="643" d="M-6 33q0 6 32.5 34t66 65t36.5 65q10 205 10 274q0 249 -47 270q-82 0 -82 43q0 4 30 26t60.5 56.5t30.5 69.5v88v-10q3 56 23 73q0 87 88 224q0 21 16 61q141 97 183 116q48 22 131 23h77q207 0 207 -81q0 -2 -1.5 -9.5t-8.5 -22t-17.5 -29t-31 -30.5t-47.5 -26 q-22 5 -46.5 23.5t-43.5 37.5t-52 34t-73 15q-38 0 -78 -21t-76 -61t-60 -108t-26 -152l-4 -159v-13q0 -4 -1.5 -16t-0.5 -15.5t9 -12t24 -11t47 -5.5t77 -3q44 0 59 -6.5t15 -30.5q0 -48 -96 -51q-112 -3 -133 -37q10 -30 10 -135l-4 -359q0 -46 1.5 -70t4 -42t11 -24.5 t17.5 -8.5t29 -2q30 0 89 12l26 -24q2 -6 2 -27t-10 -31q1 1 -10 1q-22 0 -92 -4q-105 -6 -212.5 -13.5t-103.5 -7.5l-31 18q-24 15 -24 29z" />
<glyph unicode="g" horiz-adv-x="995" d="M4 -418q0 79 40.5 155.5t82.5 76.5q15 0 23 -10t8 -40q0 -11 -2 -42.5t-2 -43.5q0 -103 73.5 -160t173.5 -57q89 0 166 39q3 14 31 17q63 5 117.5 81.5t54.5 168.5q0 19 -0.5 28t-4.5 26t-12 25t-24.5 19.5t-40.5 17t-60.5 9.5t-84.5 4q-41 0 -120 -7.5t-85 -7.5 q-70 0 -133 29q-31 13 -64.5 30.5t-71.5 51t-38 63.5q0 38 61 84q24 18 39 30t24 19.5t12 15t4 10.5t0 11t-1 13q0 29 -25 51q-110 88 -110 235q0 18 4 54q-2 4 -2 24q0 116 102 195q104 96 217 96q41 0 179 -27q17 -4 42 -15.5t42.5 -20.5t19.5 -9q4 0 31 5t51 5q2 0 17 -3 t24 -3q8 0 29 18.5t36 18.5q41 0 41 -45q0 -39 -13.5 -77t-39.5 -38q-7 0 -37 19.5t-45 19.5q-26 0 -43.5 -20t-17.5 -49q0 -16 17.5 -60.5t17.5 -70.5q0 -114 -99 -208.5t-237 -94.5q-94 0 -132 -32t-38 -97q0 -19 4.5 -31t19 -24t46.5 -17.5t83 -5.5q16 0 121 3t131 3 q69 0 116 -6.5t76.5 -16.5t48.5 -31.5t28 -43t18 -58.5q27 -36 27 -65q0 -37 -15 -64q-15 -31 -22 -54.5t-8 -31.5t-5 -14t-16 -12q-21 -56 -96 -121.5t-166.5 -110.5t-155.5 -45q-16 0 -55 3t-55 3q-38 0 -47 -4q-10 14 -35 17q-88 17 -131 49l-90 59q-19 43 -19 92z M160 582q0 -104 59 -228q88 -73 164 -73q29 0 52.5 10t38 22t30 39.5t23 44.5t22.5 57t22 58q0 66 2 66q-3 35 -22 59q4 16 4 20q0 42 -47 101q-34 43 -60 57t-63 14q-63 0 -109 -21.5t-70 -58t-35 -78t-11 -89.5z" />
<glyph unicode="h" horiz-adv-x="1077" d="M-4 23q0 22 45 61t45 43q41 100 41 317q-14 25 -14 140q0 137 5 259t10 189t5 72q0 132 -18 182q-72 28 -72 74q0 19 23 39l108 35q73 22 88 22h2h8l23 -31q0 -1 1 -20t1 -39q0 -112 -4 -272.5t-4 -169.5q0 -160 14 -160q15 0 43 14q7 3 31 12t31 11.5t26.5 9t28 9 t26 6.5t29.5 5.5t28 3t32 1.5q151 0 226 -66.5t75 -234.5q0 -18 -4.5 -68t-4.5 -82q0 -3 5.5 -40t5.5 -71q0 -13 -0.5 -26t-1.5 -24.5t-2 -22.5t-2 -20t-2.5 -17.5t-2.5 -14.5t-2 -10t-2 -6v-2q0 -20 16 -36.5t34.5 -25t34.5 -19.5t16 -21q0 -18 -9 -33q-24 -8 -84 -8h-63 q-50 0 -66 -2l-38 12q-3 0 -5.5 1t-5.5 1q-17 0 -46 -7t-44 -7q-33 0 -61 22q2 15 25.5 31t50.5 27.5t49 29.5t22 39q0 2 -2 29.5t-2 42.5q0 272 2 272v-8q0 -3 1 -12t1 -15q-3 125 -41 240q-21 68 -164 68q-87 0 -131.5 -19t-58.5 -54t-14 -101q0 -20 2 -67t2 -67 q0 -37 -4 -69l-3 -9q-4 -10 -8 -23.5t-4 -23.5q0 -1 5 -13t9.5 -33.5t4.5 -45.5q-19 -36 -19 -63q0 -45 54 -84l94 -55l-19 -31q-5 0 -15 -1t-15 -1q-39 0 -66 6q-40 8 -62 12t-26 4t-5.5 -1t-4.5 -1q-19 0 -87 -11t-73 -11q-47 0 -47 33z" />
<glyph unicode="i" horiz-adv-x="579" d="M-4 45q0 40 24 49l86 29q72 23 72 67q0 6 -9 64t-9 111q0 32 8 111t8 85q0 63 -20 96q0 -2 -26 21t-52.5 53t-26.5 45q0 25 35.5 38t93.5 20.5t72 11.5q10 10 30 23.5t35 13.5q35 0 35 -62q0 -28 -6 -43q0 -62 -2 -331t-2 -330q5 -12 26 -18t42 -9t38 -18t17 -43 q0 -22 -8 -41t-25 -19q-10 0 -22 6q-33 9 -95 9q-17 0 -81 -2t-99 -2q-92 0 -115.5 11t-23.5 54zM180 1212q0 31 25 54.5t65 23.5q45 0 97 -37q20 -14 20 -43q0 -36 -28.5 -68t-65.5 -32q-28 0 -70.5 27.5t-42.5 74.5z" />
<glyph unicode="j" horiz-adv-x="493" d="M-236 -510q0 59 56 94q10 -3 52 -44.5t56 -41.5q46 0 80 53l60 84q4 11 12.5 144t13.5 257q4 71 4 97q0 15 -1 15t-1 -1q-4 5 -4 33q0 26 6 60q-8 13 -8 73q0 32 4 118t4 110q0 59 -11 101.5t-26.5 62t-31 32t-26.5 22t-11 21.5q0 29 78 47l110 29q1 1 11.5 13.5t20 22.5 t23.5 19t25 9q14 0 29 -15q12 -15 12 -354q0 -337 -16 -393q14 -35 14 -109q0 -134 -32 -248t-80.5 -187t-106.5 -124.5t-108.5 -73.5t-88.5 -22q-54 0 -86.5 27t-32.5 69zM90 1313q8 30 47 82q14 0 33 1t25 1q60 0 79 -25t19 -65q0 -86 -76 -86q-65 0 -127 92z" />
<glyph unicode="k" horiz-adv-x="1099" d="M-16 41q0 20 31 31.5t66 22t42 28.5q-9 163 -12 377q12 88 12 205q0 39 -7 214.5t-7 213.5q0 19 3.5 40.5t7 36t3.5 15.5q0 17 -92 73l-8 68q63 14 137 41q8 3 48.5 37.5t49.5 34.5q4 0 15 -7.5t22.5 -26t11.5 -40.5q0 -35 -2 -62l-16 -106q-3 -47 -6 -512q0 -30 8 -66 l-6 -75q9 -39 24 -39q9 0 51 22l97 74q18 18 60.5 49.5t43.5 32.5q4 0 4 8q0 9 -17.5 26.5t-17.5 33.5q0 8 11 45h-4h4h270q21 12 35 12q7 0 26 -25.5t19 -38.5q0 -14 -8 -22q-41 0 -58.5 -1t-46.5 -11.5t-51 -32.5q-171 -64 -315 -195q47 -53 252 -262l120 -123q-4 0 7 -7 q18 -12 45 -24q23 -14 59 -30h2q21 -8 45 -8q7 0 19 4q12 -24 12 -43q0 -17 -6 -29q-78 -16 -183 -16q-25 0 -65.5 5t-56.5 5q-12 0 -40 -5t-36 -5q-9 0 -25 20t-16 37q0 2 7.5 7t23 15t28.5 21l-20 35q-6 21 -43 45q-55 92 -111 129q-44 61 -117 102l-4 4q-3 0 -12 -19 t-12 -20l8 -49q-8 -31 -8 -98q0 -23 5.5 -39t17 -38t18.5 -40q31 -5 63 -16q66 -28 66 -66q0 -16 -35 -16q-33 0 -49 8q-28 0 -49 -6h-4q-3 1 -9 1.5t-12 0.5t-25.5 -1t-33.5 -1q-55 0 -80 14l-21 -8q-21 -9 -51.5 -19t-48.5 -10q-27 0 -40 18t-13 46z" />
<glyph unicode="l" horiz-adv-x="598" d="M6 8q0 19 53 72q16 -4 19 -4q23 0 40 24t17 54q0 3 -1 8t-1 8q10 10 10 123q0 39 -4 51v797q6 12 6 24q0 21 -32.5 52t-65.5 54.5t-33 28.5q0 8 41 27.5t109.5 49t99.5 44.5l29 -6q16 -16 16 -596q0 -406 -10 -444q10 -65 10 -135v-138l35 -32q13 8 33 8q53 0 53 -51 q0 -54 -59 -54q-14 0 -50.5 6.5t-39.5 6.5q-85 0 -269 4q-6 9 -6 18z" />
<glyph unicode="m" horiz-adv-x="1644" d="M-29 43q0 21 35 27q88 18 88 166q0 22 -4 88t-4 71v90v44.5v44t-1 35t-3.5 36t-6.5 29t-10.5 31.5t-15.5 26q-13 13 -26 22.5t-19 13.5t-10 10.5t-4 17.5q0 22 31 36.5t85 28.5q48 76 109 76q51 0 51 -57q0 -8 -11 -40.5t-11 -45.5q0 -25 11.5 -35t35.5 -10 q118 118 184 143l170 -4q88 -15 129 -105q20 -45 49 -45q34 0 49 54l62 57q7 5 141 61q172 -29 239.5 -93t67.5 -198q0 -15 -3 -46.5t-3 -49.5q0 -153 10.5 -220t13.5 -103q0 -34 10.5 -55t26 -29.5t31 -15.5t26.5 -20t11 -36q0 -7 -4 -35l-135 -16q-111 -12 -174 -12 q-58 0 -78 8.5t-20 29.5q0 31 55 52q19 7 32 14t21 17t12.5 17t6 23t1.5 25.5t-0.5 34t-0.5 39.5v41l-9 170v116q-5 27 -16 56t-33 62t-61 54t-88 21q-101 0 -144 -50.5t-43 -181.5q0 -11 1 -34t1 -37q-6 -6 -6 -33q0 -8 5.5 -89t5.5 -99q0 -9 -4 -39.5t-5 -38.5 q0 -41 41 -68l80 -39q10 -17 10 -22q0 -19 -28 -32t-56 -13l-86 14q-14 2 -102 10q-17 0 -44.5 -10t-33.5 -10q-51 0 -51 51q0 18 5 24.5t13.5 7.5t18.5 3t20 16.5t18.5 42t13.5 85.5t5 142l-10 13q0 7 4 69l-14 45q4 82 4 111q0 76 -12 123q-77 65 -134 65q-47 0 -100 -41 l-20 -4q-36 -32 -53.5 -49.5t-30 -32.5t-15 -32.5t-4 -33t-2.5 -53t-4 -73.5q8 -19 8 -29q0 -16 -16 -32l8 -195q9 -133 68 -133q14 0 18 2q51 -45 51 -66q0 -10 -2 -12l-33 -18q-52 8 -149 8q-58 0 -109.5 -0.5t-82 -1t-37.5 -0.5q-11 34 -11 53z" />
<glyph unicode="n" horiz-adv-x="1103" d="M6 0q0 27 21 70q2 -2 12 -2q51 0 76 63q0 -4 6 104t12 240t6 187q0 31 -6.5 50t-16.5 26t-19.5 11.5t-16 11.5t-6.5 21t46 42t90.5 49.5t47.5 21.5l64 16q26 -14 26 -39q0 -8 -6 -31t-6 -28q0 -22 20 -33q143 82 297 82q61 0 88.5 -11t87.5 -54q13 -10 21 -15 q31 -68 31 -221v-235q0 -3 1 -10t1 -11q0 -19 -3 -57.5t-3 -44.5q0 -125 65 -125q17 0 23 2l24 -10q6 -15 6 -39q0 -19 -2 -33q-49 -14 -125 -14q-16 0 -118 8t-136 8h-26q-4 28 -4 35q0 33 32 39q68 12 81.5 24.5t13.5 61.5q0 1 0.5 15.5t1 40t1 59t1 83.5t0.5 103 q0 69 -4 155q-5 56 -70.5 109t-132.5 53q-16 0 -28 -2t-29 -9t-26.5 -12t-39 -21.5t-47.5 -26.5q-45 -26 -45 -367q0 -193 16 -231q7 -20 28 -29t40.5 -12t37.5 -22.5t21 -57.5q-40 0 -117 -6q-30 10 -47 10q-16 0 -59 -15q-197 0 -207 23z" />
<glyph unicode="o" horiz-adv-x="1032" d="M-6 418q0 119 63 211l4 20q41 43 127 150l121 45q50 16 97 16q87 0 158 -10t93 -19q21 -9 142 -112q16 -28 71 -148q0 -35 19 -116q2 -14 2 -37q0 -84 -29.5 -138t-167.5 -235q-7 -2 -57.5 -25.5t-102.5 -42t-83 -18.5q-29 0 -60 4t-55 10.5t-43 12.5t-30.5 10t-12.5 4 q-7 9 -31 24.5t-50 30t-30 17.5q-2 4 -27 35.5t-46.5 69.5t-24.5 71q-47 77 -47 170zM170 381q0 -124 46.5 -206t133.5 -105l10 -15q46 -18 93 -18q113 0 181 83t68 212q0 45 -1.5 85t-2.5 55t0 15q4 16 4 27q0 59 -51 133q-98 148 -223 148q-71 0 -131 -59.5t-93.5 -154.5 t-33.5 -200z" />
<glyph unicode="p" horiz-adv-x="1052" d="M-78 -582q0 21 16 34t46 13h26q14 -2 27 -2h4q20 0 29 3.5t20 22.5t15 65t4 124q0 31 -1.5 71t-1.5 50q-2 14 -2 39v-20v65q0 107 2 195q0 40 1.5 109.5t1.5 99.5q0 345 -17 379q-5 11 -50.5 39t-45.5 43q0 26 94 102q66 54 94 72t45 18q50 0 50 -113q0 -18 -5.5 -72.5 t-5.5 -64.5q0 -4 1 -6q1 -1 1 -2q-2 -49 -2 -180q0 -33 1 -116t1 -134q0 -174 185 -174q75 0 137 32.5t70 75.5q36 20 36 176q0 73 -2 121t-7.5 96t-16.5 77t-28 55t-43 39t-60.5 20.5t-81.5 7.5q-11 0 -36 -1t-38 -1q-24 0 -31 10v25q62 45 191 45q70 0 126 -20.5t93 -55 t62 -83t35.5 -101t10.5 -111.5q0 -386 -327 -444q-41 -35 -111 -35q-43 0 -133 19q-14 -172 -14 -318q0 -106 8.5 -154.5t26.5 -65t59 -19.5h98q15 -9 15 -23q0 -24 -76 -76q-27 10 -117 10q-317 0 -317 -17q-8 -5 -11 -5q-20 0 -35.5 19t-15.5 42z" />
<glyph unicode="q" horiz-adv-x="1038" d="M-16 309v135q0 81 41 119q64 186 294 262q13 5 87 13.5t94 17.5q18 -6 53 -6q8 0 19 1t14 1q12 0 28.5 -6.5t42 -18t48.5 -18.5q7 0 37 38t40 38q76 0 76 -664q-1 -54 -1.5 -172.5t-1 -201t-1.5 -83.5v5q1 0 -1 -18t-4.5 -62.5t-2.5 -94.5q0 -30 5 -52t12 -34.5 t21.5 -21.5t24.5 -12.5t30.5 -9t31.5 -9.5q4 -28 4 -41q0 -4 -1 -14t-1 -18q-46 -11 -72 -11q-9 0 -62 6.5t-79 6.5h-19q-6 0 -71.5 -16.5t-81.5 -16.5q-65 0 -74 76q3 5 36 11.5t62 23.5t29 49l16 38q11 154 11 254q0 96 -13 172q-1 8 -19.5 13t-21.5 8q-108 -19 -190 -19 q-170 0 -248 66l-24 4q0 9 -37 43l-49 41zM168 408q6 -21 19 -64.5t20 -64.5t18 -50t22 -46t25 -27q4 -30 43 -59t72 -29q2 0 16.5 -5t38.5 -10.5t50 -5.5q35 0 52.5 1t42 5t35.5 13.5t24.5 26t18.5 42t9 62t4 86.5q0 182 -41 374q-13 58 -73 91.5t-138 33.5 q-93 0 -155 -46.5t-66 -123.5q-37 -64 -37 -204z" />
<glyph unicode="r" horiz-adv-x="731" d="M12 23q0 24 15.5 36t34.5 14t37.5 9t23.5 22q12 65 12 197q0 44 -4 170l-18 186q-3 21 -48 71t-45 60q0 23 20.5 35.5t53.5 12.5q25 0 31 -2l49 32q34 21 57 21q39 0 39 -53l-5 -28q-1 -10 -1 -20q0 -43 37 -43q18 0 41.5 18.5t28.5 33.5l92 45q53 26 96 26q54 0 92 -53 v-37q-52 -106 -90 -106q-6 0 -59.5 23.5t-75.5 23.5q-50 0 -117 -12q-20 -11 -20 -326q0 -173 12 -256q2 -11 30.5 -19.5t63 -17t45.5 -16.5l4 -33q-6 -9 -14.5 -16t-16 -11.5t-20.5 -7.5t-20.5 -5t-23 -2.5t-22 -0.5h-24.5h-22q-40 16 -62 16q-15 0 -67 -19.5t-72 -19.5 q-68 0 -68 52z" />
<glyph unicode="s" horiz-adv-x="722" d="M6 106q0 23 7.5 43.5t23.5 20.5q26 0 53 -27q21 -19 41 -43t29 -34.5t28 -18.5t48 -8q60 0 108.5 40t48.5 89q0 16 -6 25l-55 86q-27 42 -62 68.5t-96 49.5q-73 39 -104.5 68t-44.5 76t-13 139q0 66 50.5 117.5t122.5 76.5t147 25q85 0 149 -29t64 -71q0 -33 -40.5 -67 t-53.5 -34q-7 0 -9 2l-28 45q-18 28 -54 50t-71 22q-57 0 -101.5 -36.5t-44.5 -86.5q0 -51 45 -96l185 -115q164 -123 164 -247q0 -110 -117 -218q-2 -1 -30 -12.5t-49.5 -19.5t-54 -15.5t-57.5 -7.5q-9 0 -41 3t-59 3q-2 0 -27.5 -3t-46.5 -3q-41 0 -41 43q0 48 -4 68.5 t-4 31.5z" />
<glyph unicode="t" horiz-adv-x="745" d="M16 817q0 23 27 57q16 -4 18 -4q21 0 106 68t105 68q2 0 5.5 -1t8.5 -2t9 -2q-3 0 -0.5 -29.5t13.5 -64.5t28 -45q36 0 63 2l207 -6q4 -28 4 -35q0 -78 -100 -78q-26 0 -78.5 1.5t-77.5 1.5q-27 10 -53 10q-47 0 -47 -31q0 -522 10 -549q41 -78 115 -78q35 0 102 23 q21 43 43 43q-4 0 1 -1q61 -13 61 -46q0 -75 -246 -139q-3 -3 -12 -3q-7 0 -52 15q-93 20 -98 21q-49 16 -69 62q-27 66 -27 294q0 190 22 254q-4 55 -22 122q-7 4 -18 11t-29.5 26t-18.5 35z" />
<glyph unicode="u" horiz-adv-x="1030" d="M-23 840q0 39 136 39q96 0 124.5 -12.5t28.5 -61.5q0 -16 -5 -54l-5 -38q2 -25 2 -82q0 -29 -6 -198t-6 -193q0 -34 1.5 -51t11.5 -35t26 -25t51 -13.5t80 -8t119 -1.5q22 22 90 97q-7 65 -7 135q0 86 1.5 154t4 104.5t4.5 59.5t3.5 34.5t1.5 14.5q0 12 -6 22.5t-18.5 20 t-22.5 16t-28 16.5t-26 15l-12 -2l-9 -1.5t-5 -0.5q-20 0 -28.5 16t-8.5 29q0 36 88 36q21 0 65.5 -3t45.5 -3q21 2 45.5 5t36.5 4.5t18 1.5h6l35 -31q-1 -14 -1.5 -36t-1 -54t-1.5 -58v-26q0 -41 -7 -207t-7 -191q0 -145 30 -145q9 0 45 11.5t39 11.5q21 -9 21 -31 q0 -39 -47 -86q-5 0 -73 -22.5t-93 -22.5q-73 0 -99 35q-29 41 -35 44q-3 1 -10 1q-26 0 -53 -21q-77 -53 -162 -53q-13 0 -67.5 3t-75.5 3l-51 33q-36 63 -62 115q2 0 2 262q0 49 -8 112.5t-8 81.5q0 17 8 49.5t8 38.5q0 31 -28 56l-29 30q-22 19 -37 19q-29 26 -29 41z " />
<glyph unicode="v" horiz-adv-x="966" d="M2 840q0 39 61 40q19 0 55.5 -7t66.5 -14t32 -7q8 0 43 5t43 5q45 0 45 -45q0 -28 -22 -37h-13q-49 0 -49 -67q0 -33 17 -99q11 -37 17 -60.5t10.5 -39t17.5 -49.5q3 -11 11.5 -59t16.5 -82t29.5 -64.5t52.5 -30.5q22 0 59.5 86t49.5 168l28 47q0 32 14.5 98.5t14.5 69.5 q0 53 -76 105q-2 4 -2 18q0 41 33 41q15 0 38.5 -2.5t41.5 -5t20 -2.5q117 12 117 16h-2q26 0 47 -6q8 -16 8 -37q0 -19 -12 -28q-34 -27 -61 -58.5t-39 -52t-31.5 -59t-28.5 -54.5q-5 -41 -50.5 -175.5t-69.5 -174.5q0 -26 -15 -69q0 -21 -31 -115t-59 -94q-33 0 -72 39 q-1 6 -7.5 38.5t-9.5 44t-9 36t-13 43t-16 36.5q0 3 1 9.5t1 9.5q0 33 -31 55l-22 63q-14 38 -14 60v6l-27 16q-4 6 -24.5 91t-43.5 108l-20 105q-9 24 -30.5 40.5t-41 24t-34.5 25.5t-15 45z" />
<glyph unicode="w" horiz-adv-x="1468" d="M-31 854q0 16 15 19.5t51 3.5q50 0 76 -5q14 1 127 5q9 -9 24 -9q10 0 39 11q49 -9 49 -66q0 -21 -34.5 -43t-34.5 -47q0 -24 38.5 -114t45.5 -97q27 -37 58.5 -101.5t52 -104.5t32.5 -40q13 0 20 7.5t17.5 22.5t25.5 26l56 94q24 43 24 63t-19.5 54t-23.5 59l-16 33 q0 100 -78 147l-10 2q-9 2 -22.5 6t-27.5 9.5t-23.5 15.5t-10.5 22q0 21 18 45q375 0 375 2h-4q47 -37 47 -57q0 -12 -14 -26h-8q-37 0 -65 -34.5t-28 -76.5q0 -40 27 -64q-6 -6 -6 -14q0 -1 20.5 -42t20.5 -58v-6q4 -5 53 -129q27 -71 70 -80q63 86 69 176q21 29 37 65 q0 10 27.5 89.5t27.5 97.5q0 19 -16.5 32t-35.5 19.5t-35.5 22.5t-16.5 42q0 21 10.5 37.5t26.5 15.5q11 0 20 -5l29 -17h4q9 0 20 4t13 4q5 0 19 -5l14 -5h118q55 6 95 8q26 -17 26 -57q0 -34 -30 -37q-99 -9 -156 -108l-105 -193q0 -3 1.5 -8t1.5 -8q0 -23 -6.5 -48 t-6.5 -26v-6q0 -9 -14 -31q-11 -17 -18.5 -30.5t-14 -28.5t-9.5 -25.5t-10.5 -34t-13.5 -41.5q-12 -21 -42 -143.5t-50 -142.5q-56 12 -71 73l-17 90q-1 3 -18.5 50t-36.5 97t-41 92t-35 42q-3 0 -4.5 2.5t-19.5 -17.5q-4 -4 -12 -13l-17 -19v-4q0 -13 -25 -55 q-12 -19 -19 -31.5t-11.5 -21t-8 -17.5t-5 -13.5t-5 -17.5t-6.5 -22l-16 -95q-12 -69 -72 -79q-36 63 -133 252q-4 9 -15.5 51t-29.5 65v8q0 64 -113 244q-39 12 -39 55q0 3 1 7.5t1 7.5l-37 84q-16 33 -40.5 54.5t-43.5 29.5t-33 21.5t-14 33.5z" />
<glyph unicode="x" horiz-adv-x="985" d="M-10 20q0 76 63 76h17q6 -2 18 -2q19 0 49 23q70 61 102.5 99.5t110.5 154.5q0 6 -37 73q-10 18 -21 38.5t-16 28t-11 17.5t-19.5 28t-28 37t-50.5 66t-73 95q-90 15 -90 61q0 42 109 45q130 3 133 6h84q55 0 55 -39q0 -4 -23 -16.5t-47.5 -33t-27.5 -42.5 q8 -19 82.5 -113t81.5 -94l71 107q41 58 45 121q0 18 -15 40.5t-15 32.5q0 35 41 35h12q3 0 67.5 5t81.5 5q86 0 86 -36q0 -11 -6 -23l-104 -57q-70 -46 -70 -82l-27 -47l-65 -86q-43 -58 -43 -88q0 -53 63 -119q18 -19 43.5 -56.5t53 -66.5t69.5 -55q54 -35 72 -60t18 -63 q-3 -32 -20 -49h-311q-22 16 -25 34v-6q2 16 4 49q51 20 51 68q0 43 -44.5 97.5t-77.5 54.5q-21 0 -39 -35q-16 -29 -32 -49t-24 -26.5t-13 -16t-5 -23.5q0 -17 28.5 -58t28.5 -44q0 -41 -117 -41q-65 0 -108.5 -5t-63.5 -5q-41 0 -56 8.5t-15 31.5z" />
<glyph unicode="y" horiz-adv-x="1017" d="M2 838q22 16 47 16q1 0 11.5 -3.5t29.5 -7t41 -3.5q13 0 85 8t85 8q68 0 68 -31q0 -28 -23 -28q-11 0 -20.5 1.5t-15.5 3.5l-5 1q-23 0 -39 -31q12 -88 39 -178q15 -11 146 -326l24 -12q17 12 26.5 35t12.5 46l4 23q112 190 138 248q34 75 34 119q0 31 -10.5 47.5 t-27 20.5t-33 5.5t-30.5 8t-18 22.5q12 12 134 21l166 12h1q33 0 33 -35q0 -24 -12.5 -40.5t-32.5 -16.5h-8v-2q0 -11 -27 -35q-21 -19 -36.5 -39t-23.5 -34t-26 -49t-32 -60q-8 -15 -21 -66t-20 -61q-25 -40 -43.5 -71.5t-32 -54t-25 -44.5t-17.5 -32.5t-14.5 -30 t-11 -25.5t-11.5 -29.5t-13 -32.5q0 -13 -29 -93.5t-60 -160.5t-32 -83q-55 -67 -78 -150q-7 -26 -15.5 -45t-17.5 -33.5t-24.5 -23.5t-30 -15t-40.5 -9.5t-49 -5.5t-63 -3q-32 22 -32 70q0 88 102 88q20 0 66 -11q27 33 69 107q3 33 15 92q1 2 6.5 8.5t7 8t5.5 7.5t5.5 9 l5 10t5.5 13.5t5.5 16t6.5 20.5t6.5 25.5t7.5 31.5l27 43q12 21 12 34q0 6 -5.5 14.5t-16 23t-17.5 28.5q0 6 -53 138.5t-66 154.5q-4 35 -60.5 179.5t-74.5 172.5q-2 2 -24.5 14t-41 26.5t-18.5 29.5z" />
<glyph unicode="z" horiz-adv-x="831" d="M-4 684q6 109 13 136q18 77 85 77q21 0 48.5 -25.5t39.5 -25.5q6 0 34.5 11t41.5 11l8 -2q9 -3 23.5 -7t32.5 -8t42 -6.5t46 -2.5q20 0 28 8l119 12q11 -8 21 -8q8 0 15.5 2t11 3.5t3.5 0.5q1 0 8.5 -10.5t15 -25t7.5 -21.5q0 -26 -21 -47q-9 -11 -95 -159.5t-122 -188.5 q-9 -34 -58 -108t-52 -79q-60 -25 -60 -71q0 -27 18.5 -49.5t41.5 -22.5q37 0 69.5 -0.5t51 -1t20.5 -0.5q67 9 129 53q53 92 94 92q1 0 13 -4v-14q0 -76 -22 -157t-44 -81q-14 0 -38 29t-38 29q-2 0 -14 -11.5t-27 -11.5q-25 -2 -61 -2q-31 0 -35 2h-268q-13 -10 -62 -10 q-28 0 -41.5 18.5t-13.5 42.5q0 40 37 55l39 70q20 17 37 49q1 14 8.5 30t17.5 29.5t22.5 27t21.5 22t17 16.5l9 8q67 122 118 201t77 111t28 35q0 45 -15.5 66.5t-51.5 21.5q-33 0 -59.5 -2t-64 -5.5t-75.5 -5.5l-64 -35q-10 -3 -30 -47q0 2 -1 -1q0 -1 -1 -5 q-19 -63 -43 -63q-9 0 -16.5 12.5t-12.5 27t-6 15.5z" />
<glyph unicode="|" horiz-adv-x="223" d="M-2 866q4 70 4 140v69q16 16 16 53q0 13 -7 29.5t-7 22.5t4 10q3 5 13 45t22 75.5t23 35.5q14 0 17 -2q21 -14 21 -99q0 -129 -22 -280q20 -20 20 -78q0 -60 -14 -92q25 -55 25 -121q0 -11 -11.5 -112t-11.5 -140q0 -15 2.5 -22.5t11.5 -18.5t15 -21q-3 -133 -27 -194 q29 -19 29 -121q0 -22 -6 -102.5t-6 -94.5q0 -1 2 -28t4 -61.5t2 -51.5q0 -88 -51 -145q-38 7 -50 14q-14 91 -14 780q0 400 12 441q2 4 2 18q0 24 -18 51z" />
<glyph unicode="~" horiz-adv-x="1081" d="M61 1194q3 4 31.5 38t46 51.5t47.5 43.5t61.5 38.5t63.5 12.5q65 0 377 -92q16 -8 41 -8q27 0 87.5 55.5t90.5 55.5q88 -34 88 -70q0 -41 -153 -111l-14 -12q-15 -12 -35 -12q-4 0 -66 4q-8 -8 -43 -8q-66 0 -119 41q-9 0 -106.5 29.5t-128.5 29.5q-15 0 -32 -6t-30 -13 t-16 -8q-10 -4 -65 -44t-70 -40q-25 0 -56 25z" />
<glyph unicode="&#xa1;" horiz-adv-x="747" d="M33 922q0 106 102 106h17q17 1 25.5 0.5t23.5 -2t25.5 -5.5t17.5 -11q35 -41 35 -86q0 -55 -40 -95.5t-96 -40.5q-49 0 -79.5 38.5t-30.5 95.5zM63 -160q0 97 2 122q6 76 23 106v10q0 22 17.5 126t17.5 109q0 20 -8.5 58t-8.5 45q0 8 4.5 24.5t4.5 28.5q0 27 -4.5 62.5 t-4.5 39.5q0 40 12.5 55t39.5 15q41 0 41 -104q0 -4 -2.5 -21.5t-4.5 -47.5t-2 -65q0 -89 16 -287l1 -5q0 -10 12 -89.5t12 -97.5q0 -35 -8 -51q2 -4 2 -18q0 -37 -24 -73t-54 -36q-50 0 -84 94z" />
<glyph unicode="&#xa2;" horiz-adv-x="1028" d="M-2 354q0 49 16 111q-4 28 -4 39q0 77 54.5 160.5t136.5 144.5t164 80q9 83 47 149q5 -1 13 -4q25 -6 30 -16q6 -12 8 -81q1 -28 2 -46q241 -18 250 -27q73 -67 73 -112q0 -18 -10 -35q-7 -11 -16.5 -18t-24.5 -10t-25 -4t-31 -1h-30l-73 31q-7 7 -26.5 25t-48 41 t-38.5 26q2 -139 2 -375q0 -279 -4 -340q12 -6 26 -6q19 0 41 16q6 -2 31 -2q58 0 80 60l25 94q16 31 47 31q26 0 47.5 -19.5t21.5 -44.5q0 -20 -12 -35q-155 -181 -313 -196v-8q0 -37 20 -76q-47 -47 -74 -47q-28 0 -28 59q0 39 8 70q-163 8 -274 111.5t-111 254.5z M182 467q0 -69 29 -227q88 -111 162 -136q4 12 4 37q0 24 -4 38.5t-25 70.5q0 40 10 67l25 64l2 -2q6 0 6 29q0 16 -9 118.5t-9 104.5l-11 176h-6q-174 -146 -174 -340z" />
<glyph unicode="&#xa3;" horiz-adv-x="1130" d="M8 674q0 36 109 39q26 12 37.5 34.5t14 45t5.5 26.5l4 39l21 25q58 176 181 292.5t261 116.5q106 0 162 -13t72 -33.5t16 -57.5t-35.5 -57.5t-62.5 -20.5q-23 0 -88.5 54.5t-90.5 54.5q-63 0 -146 -74t-87 -135q-20 -53 -39 -254q7 -22 26 -33t39.5 -12.5t40.5 -4t33 -14 t13 -35.5q0 -10 -0.5 -13.5t-5 -10.5t-16.5 -9.5t-32 -2.5h-37q-3 -1 -14 -2.5t-14 -2.5t-11.5 -4t-13 -7t-11 -10.5t-13.5 -16.5q-13 -203 -13 -289v-7q0 -84 12.5 -108t75.5 -35q62 -9 97.5 -18t41 -14t14.5 -8t30 -3q23 0 84 45t88 45q43 0 78.5 -24.5t35.5 -48.5 q0 -51 -87 -98.5t-152 -47.5q-97 0 -240 82q-7 0 -61.5 20.5t-69.5 20.5q-14 0 -18 -2q-143 -33 -172 -33q-58 0 -58 33q0 15 78 71q3 2 5.5 3.5t4.5 3.5q64 34 64 289v-2q-2 10 -2 36q0 9 -1 46t-1 65q-3 0 -17 2t-37.5 7.5t-45 13t-37 21t-15.5 30.5z" />
<glyph unicode="&#xa4;" horiz-adv-x="1345" d="M-2 752q0 26 33 26q14 0 20 -2q16 4 72 4q15 106 76 181l131 145q186 176 426 176q142 0 245 -29q29 13 48 13q79 0 79 -150q0 -51 -10 -106t-18 -60q-20 6 -43.5 38.5t-44.5 69t-29 44.5q-9 35 -22 53q0 8 -80 70q-88 16 -101 16q-65 0 -138.5 -42t-90.5 -66 q-24 -32 -40.5 -49.5t-22.5 -20t-11.5 -7.5t-11.5 -16l-23 -43q-91 -117 -127 -215q344 0 385 -14q2 0 25.5 5t32.5 5q11 0 28 -10q-20 -48 -38 -57l-50 -17q-38 -14 -65 -14q-5 0 -33 4t-47 4q-7 0 -26 -2t-31 -2q-2 0 -15 5t-18 5q-9 0 -26.5 -5t-26.5 -5q-17 0 -33 8v4 q0 3 -8 6q-5 0 -9 -0.5t-8.5 -1.5t-19.5 -2.5t-37 -3.5q-6 -34 -6 -63q0 -49 12 -99q78 -2 139 -4t92.5 -3.5t51 -3t26.5 -2.5t8 -1q13 0 42 3t32 3h8q-18 -86 -65 -86q-21 0 -37 8h2q-15 2 -43 -2q-59 -13 -98 -36q-30 0 -47 10l-43 24q-12 -21 -31 -24q14 -30 32 -61 t47 -77t48 -77q134 -93 178 -113t113 -20q47 0 121 22q37 9 108 115q57 84 74 84q9 0 13.5 -15t4.5 -26q-2 -14 -2 -33q0 -8 -2 -10v-23q0 -63 -20 -94.5t-74 -54.5q-11 4 -43 4q-41 0 -76.5 -21t-62.5 -24q-40 9 -156 12q-10 10 -101.5 33.5t-113.5 23.5q-33 41 -100 91 l-107 84q-6 6 -26 39t-33 42l-33 101q-2 2 -2 12q-4 0 -13.5 -1t-13.5 -1q-49 0 -96 8q0 36 8 80q15 6 107 12q-4 61 -11.5 78.5t-7.5 24.5v4l11 51q-6 -2 -37 -2q-3 0 -16.5 -1.5t-21 -0.5t-17.5 6.5t-14.5 21t-4.5 40.5z" />
<glyph unicode="&#xa5;" horiz-adv-x="1490" d="M16 1210q0 29 62.5 43.5t134.5 14.5q40 0 57 -17l228 19q16 0 16 -17q0 -42 -35 -63h-26q-26 0 -42.5 -9t-24.5 -21t-11 -13l-2 -4q3 -36 94 -205l111 -201l10 -8q0 -22 8 -43h111q2 3 6 14.5t12 32.5t18 43l64 162q47 124 47 145v7q23 10 23 24q0 20 -22 35t-49 23 t-49 22t-22 33q0 35 58 35q13 0 61.5 -8.5t54.5 -8.5q19 0 65.5 9t74.5 10q20 -2 44.5 -0.5t49.5 1t45.5 -3.5t33.5 -15t13 -32q0 -34 -43 -55q-39 15 -76 21q-65 -13 -118.5 -73.5t-71.5 -135.5q-25 -28 -43 -86q-15 -50 -29.5 -85t-22.5 -47t-13 -23t-5 -23h-2 q-8 0 -14 -19q51 0 89.5 -1t57 -2t29 -2t15.5 -2t7 -1q28 0 54 20q30 -47 30 -77q0 -37 -43 -37q-35 0 -57 22q-16 -8 -31 -15t-21 -10t-7 -3q2 0 2 2q0 16 -45 16q-3 0 -11 -1t-14 -1l-39 -27q-27 0 -61 21q-23 -32 -50 -78h297q44 0 68 18q4 -28 4 -41q0 -61 -31 -61 q-11 0 -41 12q-16 -8 -31 -15t-21 -10t-7 -3q2 0 2 2q0 14 -49 14q-14 0 -21 -3.5t-17 -11.5t-21 -14q-23 0 -41.5 7t-33 17t-16.5 11q-9 -16 -45 -22q-2 -55 -2 -131q0 -94 60 -125l157 -58q29 -13 29 -47q0 -59 -51 -59h-88q-44 22 -299 26h1h1h8q-12 0 -74 -16t-75 -16 q-54 0 -54 43q0 46 37 61l109 43q26 12 32 62l1 9q0 9 1 27t2.5 41.5t3 60t3.5 75.5q-19 1 -39 2t-30.5 1.5t-14.5 0.5q-12 0 -68 -5.5t-67 -5.5q-83 0 -142 50q6 32 15 51q36 5 340 8v6q-3 7 -16.5 31t-22.5 41q-46 -6 -60 -6l-69 -7q-54 -4 -66 -4q-80 0 -139 50l12 49 q21 6 262 12q0 1 -23.5 46t-48.5 101t-28 84l-29 31l-26 45l-47 62q-27 35 -27 51v4v3l-2 6t-3.5 7.5t-6 8.5t-8.5 8.5t-11.5 8t-16 6.5t-20.5 5q-25 8 -34.5 11.5t-23.5 10t-19 13.5t-5 16z" />
<glyph unicode="&#xa6;" horiz-adv-x="223" d="M-2 866q4 70 4 140v69q16 16 16 53q0 13 -7 29.5t-7 22.5t4 10q3 5 13 45t22 75.5t23 35.5q14 0 17 -2q21 -14 21 -99q0 -129 -22 -280q20 -20 20 -78q0 -60 -14 -92q16 -40 16 -82q0 -86 -65 -86q-17 0 -35 6q0 65 3 107.5t6 58.5l3 16q0 24 -18 51zM6 236q59 16 74 16 q20 0 20 -14q0 -8 -6 -23q29 -16 29 -133q0 -24 -7 -120t-7 -114q0 -4 1 -8l1 -4q0 -14 3 -63t3 -66q0 -88 -51 -145q-38 7 -50 14q-10 52 -10 660z" />
<glyph unicode="&#xa7;" horiz-adv-x="831" d="M16 809q0 98 47 225q33 69 46.5 97.5t29.5 49t25 24t31 7.5l55 64q9 3 44 16.5t56 19t39 5.5q39 0 83 -30t68.5 -59t24.5 -34q0 -21 -39.5 -65t-72.5 -48q-32 0 -50 47q-22 48 -32.5 59t-28.5 11q-51 0 -84 -36t-37 -97q0 -20 121 -215q115 -189 135 -209q56 -59 68 -59 h2l-6 18l24 -37q7 -12 38 -96.5t36 -104.5v-231q0 -86 -46 -201.5t-93 -142.5q-24 -57 -96.5 -107.5t-124.5 -50.5q-16 0 -25 6q-11 6 -36 20.5t-36 21t-30 18.5t-27 19.5t-18.5 18.5t-14.5 22t-4 22q0 39 27 72.5t61 33.5q28 0 55 -24q30 -105 101 -105q33 0 55.5 31 t22.5 84l-7 35q0 8 -2 10q-36 104 -59 158.5t-29 70.5q-8 20 -14.5 29t-13.5 13.5t-26.5 31t-47.5 74.5q-32 57 -57.5 87.5t-37.5 34t-21.5 12t-14.5 28.5q-5 22 -26 60.5t-21 86.5q0 13 1 39.5t1 34.5q0 24 -9.5 64t-9.5 71zM135 821q0 -41 14.5 -114.5t34.5 -124.5 q40 -113 178 -276q40 -47 41 -44q9 -15 45 -102.5t31 -87.5q14 0 39 49t25 90q0 49 -31 94q-16 22 -63 144q-20 53 -36.5 79.5t-26 32t-25.5 22.5t-33 50q-13 24 -22.5 35.5t-14 12.5t-12.5 10t-17.5 26.5t-29 63t-46.5 118.5q-5 -10 -28 -32.5t-23 -45.5z" />
<glyph unicode="&#xa8;" horiz-adv-x="546" d="M33 1212q0 27 46 56.5t73 29.5q55 0 55 -77q0 -80 -60 -80q-14 0 -18 2l-57 31q-39 20 -39 38zM260 1229q0 36 21 57t61 21q34 0 55 -25.5t21 -62.5q0 -67 -66 -76h-10q-36 0 -59 25t-23 61z" />
<glyph unicode="&#xa9;" d="M-4 621q6 41 6 94v39q12 36 18 96l11 96q0 1 18.5 34.5t18.5 45.5q10 15 40 61.5t43.5 66t42.5 58.5t51 60t54 48t67 45t74 30q26 0 126 27.5t120 27.5q32 0 51 -8q8 8 39 8l41 -6l123 -19q103 -18 149.5 -39t129.5 -92l108 -90q25 -25 50 -60t55 -90.5t48.5 -131 t18.5 -156.5q0 -178 -61 -340q-46 -115 -104 -183t-154 -141q3 0 -6 -6q-51 -35 -140 -69q-56 -23 -90 -25q-1 0 -14 -9.5t-28 -17.5t-25 -8q-12 0 -41 13q-4 0 -13 -1.5t-14 -1.5q-29 0 -119 5.5t-110 5.5l-43 28h-25l-42 12q-43 12 -84.5 31t-72.5 47q-96 23 -143 101 l-86 133v6q0 15 -27.5 73.5t-27.5 82.5q0 3 1 7t1 7q-6 6 -14 30.5t-14 48.5t-7 26zM88 698q0 -126 35 -153q27 -142 57 -195q59 -94 66 -112q128 -96 137 -93l96 -26q133 -80 330 -80q72 0 150.5 16t148 54.5t84.5 91.5q149 105 176 241q18 13 35.5 125.5t17.5 208.5 q0 44 -36.5 171t-61.5 159q-220 278 -561 278q-186 0 -346 -93.5t-236 -250.5q-37 -20 -64.5 -122.5t-27.5 -219.5zM412 651q0 45 14 80q-2 6 -2 27q0 64 51 129t124.5 106.5t139.5 46.5l14 -2q14 -1 36 -3t48.5 -4.5t52.5 -4.5t47.5 -4t34.5 -3l13 -1q31 -25 31 -88 q0 -74 -27 -74q-3 0 -22.5 17.5t-28.5 17.5q-9 1 -23 27.5t-20 29.5q-62 39 -74 39q-1 0 -4.5 -0.5t-12 -1.5t-18.5 -2l-86 -6q-141 -108 -141 -246q0 -49 25 -162q55 -65 97.5 -86.5t111.5 -21.5q18 0 46 7.5t40 14.5q38 2 62.5 13t34 25.5t15 31t7 30t7.5 22.5t19 9 q18 0 18 -32q0 -31 -30 -123q-28 -72 -246 -72q-148 0 -251 71t-103 193z" />
<glyph unicode="&#xaa;" horiz-adv-x="759" d="M37 473q0 38 39 41l102 4q39 17 62 17q8 0 36 -3.5t37 -3.5t37 4l96 -6q6 0 39 2t43 2q82 0 82 -53q0 -20 -12.5 -56t-30.5 -36q-4 0 -30.5 14.5t-36.5 14.5q-18 0 -43 -13q8 3 8 7t-25 10q-1 -1 -3.5 -2t-5.5 -2.5t-7.5 -2.5t-9.5 -2.5t-12 -3t-14 -2.5t-16 -1.5 t-18 -0.5q-6 0 -24 1t-27 1q-21 0 -88 -5t-76 -5q-59 0 -80.5 18.5t-21.5 61.5zM47 766q0 93 80 188l66 93q77 92 149 92q27 -21 41 -32.5t27 -22.5t18 -15t4 -4q4 12 8 18q9 18 39 35q55 -9 58 -71v-234l12 -59q6 -39 14 -39q3 0 7.5 3t7.5 3q5 0 29.5 -8t29.5 -8 q0 -87 -137 -87q-5 0 -13.5 -2t-13 0t-17.5 12.5t-36 33.5q-35 30 -49 30q-7 0 -9 -2q-69 -57 -122 -57q-15 0 -21 2h-22q-33 0 -60 -6q-90 44 -90 137zM207 811q0 -80 74 -80q22 0 28 2q13 -8 37 -8q72 0 72 76q0 23 -12 57q10 27 10 51q0 51 -23 91t-55 40 q-59 0 -115 -151q-16 -50 -16 -78z" />
<glyph unicode="&#xab;" horiz-adv-x="1017" d="M12 408q0 35 4 51t11.5 22.5t30 30t46.5 59.5l58 84q32 6 170 209q10 10 53 10h29q20 -39 20 -88q0 -33 -9.5 -53.5t-21 -29t-43.5 -27t-55 -35.5l-51 -39q0 -8 -47.5 -87.5t-54.5 -82.5l-43 -59q4 -15 25 -25.5t41.5 -14.5t21.5 -5q4 -4 35 -32.5t57.5 -55t57.5 -61.5 t49 -69.5t18 -60.5q0 -57 -54 -57q-8 0 -12 4q-6 0 -18 31l-17 34l-67 80q-8 13 -32 26t-28 19q-58 76 -147 170q-2 -2 -10 -2q-17 0 -17 54zM412 403q0 34 4.5 49.5t11.5 23t29.5 32t46.5 59.5l59 84q31 3 170 209q3 10 53 10h29q21 -40 21 -88q0 -82 -76 -112 q-7 -2 -34 -20t-50 -35l-23 -17q0 -6 -47.5 -85.5t-52.5 -84.5l-43 -59q5 -15 26 -25.5t41 -14.5t21 -5q4 -4 35 -32t57 -54.5t56.5 -61.5t48.5 -69.5t18 -61.5q0 -57 -51 -57q-10 0 -14 4q4 0 -11.5 22t-46.5 64t-43 59q-9 13 -32 26t-27 19q-61 76 -150 170q-2 -2 -10 -2 q-16 0 -16 53z" />
<glyph unicode="&#xac;" horiz-adv-x="1118" d="M0 825q6 37 14 52q-1 0 11 0.5t35 1.5t55 2t73.5 2.5t87 3t98.5 2.5t105.5 2t110.5 1.5t112 0.5q69 0 109 -2t52.5 -4t13.5 -2q27 0 53 20q12 -2 19.5 -20.5t10.5 -53.5t4 -68t1.5 -82.5t1.5 -78.5q0 -98 -56 -98q-37 0 -52 17.5t-15 66.5q0 16 5 71t5 72q0 76 -47 76 q-11 0 -26.5 -3.5t-25.5 -7t-32.5 -12t-28.5 -10.5q-23 0 -41 7t-32.5 17t-16.5 11q-19 -31 -133 -31q-24 0 -108.5 4t-86.5 4l-67 -6q-62 -4 -68 -4q-83 0 -141 49z" />
<glyph unicode="&#xad;" horiz-adv-x="1132" d="M2 399q7 38 14 50q24 8 342 8q361 -2 361 -11q26 0 53 21q31 -51 31 -76q0 -29 -41 -29q-28 0 -60 13q-17 -8 -31.5 -15.5t-20.5 -10.5t-7 -3q2 0 2 2q0 17 -45 17q-14 0 -22 -3.5t-19.5 -12.5t-21.5 -15q-23 0 -41.5 7t-33 17t-16.5 11v4q0 6 -16 6q-39 0 -141 -14.5 t-148 -14.5q-81 0 -139 49z" />
<glyph unicode="&#xae;" d="M-4 621q6 41 6 94v39q12 36 18 96l11 96q0 1 18.5 34.5t18.5 45.5q10 15 40 61.5t43.5 66t42.5 58.5t51 60t54 48t67 45t74 30q26 0 126 27.5t120 27.5q32 0 51 -8q8 8 39 8l41 -6l123 -19q103 -18 149.5 -39t129.5 -92l108 -90q10 -7 22 -22.5t31 -44.5t35 -50 q84 -122 84 -321q0 -178 -61 -340q-46 -115 -104 -183t-154 -141q3 0 -6 -6q-51 -35 -140 -69q-56 -23 -90 -25q-1 0 -14 -9.5t-28 -17.5t-25 -8q-12 0 -41 13q-4 0 -13 -1.5t-14 -1.5q-29 0 -119 5.5t-110 5.5l-43 28h-25l-42 12q-43 12 -84.5 31t-72.5 47q-96 23 -143 101 l-86 133v6q0 15 -27.5 73.5t-27.5 82.5q0 3 1 7t1 7q-6 6 -14 30.5t-14 48.5t-7 26zM88 698q0 -126 35 -153q27 -142 57 -195q59 -94 66 -112q128 -96 137 -93l96 -26q133 -80 330 -80q72 0 150.5 16t148 54.5t84.5 91.5q149 105 176 241q18 13 35.5 125.5t17.5 208.5 q0 44 -36.5 171t-61.5 159q-220 278 -561 278q-186 0 -346 -93.5t-236 -250.5q-37 -20 -64.5 -122.5t-27.5 -219.5zM391 406q0 19 18 29t39.5 11.5t40.5 8.5t21 20q0 1 -0.5 5.5t-1.5 15t-2 22.5v17q0 9 1 37t1 49q0 22 -2 90.5t-2 107.5q0 100 8 152q0 12 -12 19.5t-27 10 t-27 9t-12 18.5q0 25 33 31t107 6h22q105 0 168 -4t122 -18t86.5 -43t31.5 -76l8 -37v-17q0 -12 -4 -24q-3 -7 -38.5 -38.5t-69.5 -60.5t-34 -30q3 -37 125 -152l39 -37q40 -40 47 -49q14 -20 32 -27.5t29.5 -6t20 -4.5t8.5 -23q0 -3 -1 -6t-1 -6l-32 -13q-46 -16 -74 -16 q-70 0 -152 82q-3 16 -30 51l-43 49q-11 6 -17 16t-8 19l-2 8q-40 49 -92 86q-2 -2 -13 -2q-14 0 -18 2q-16 -4 -27 -11t-16.5 -13.5t-8 -19t-3 -21t-0.5 -27.5v-10q0 -58 12 -129l9 -2q103 -25 104 -45q0 -10 -21 -25q-59 6 -119 6q-92 0 -172 -14q-4 1 -9 2l-7.5 1.5 t-3.5 0.5q-3 0 -19 -4q-12 15 -12 29zM631 987q8 -21 8 -113q0 -67 -2 -92q0 -16 0.5 -23t1.5 -15t4.5 -10.5t9.5 -2.5l68 4q52 4 104 47.5t52 77.5q0 54 -17 68q-27 82 -160 82q-26 0 -47 -6z" />
<glyph unicode="&#xaf;" horiz-adv-x="829" d="M33 1247q0 40 24 63t60 23q13 0 53 -6q24 12 43 12q7 0 35 -9t43 -9q18 0 24 2l156 -18q7 0 72 9t80 9q59 0 59 -43q0 -25 -15.5 -55.5t-37.5 -30.5q-54 0 -54 2h3q-42 -10 -50 -10t-32 12.5t-43 15.5l-23 -8q-37 -8 -74 -8q-4 0 -12 1t-12 1h-185q-114 0 -114 47z" />
<glyph unicode="&#xb0;" horiz-adv-x="1028" d="M193 1094q0 12 15 82t15 88v8q2 2 16 23.5t18 27t17 22t21.5 24t21.5 17.5t27 17q77 39 176 39q131 0 218 -77.5t87 -199.5q0 -98 -4 -118q-17 -38 -28.5 -57t-46.5 -53t-99 -79q-11 -7 -69.5 -17t-59.5 -10q-131 24 -192 58q-43 25 -88 86.5t-45 118.5zM352 1110 q0 -32 19.5 -57t50.5 -45.5t35 -24.5q114 2 158 29.5t44 109.5q0 89 -34 135l-29 17q-73 41 -109 39q-59 0 -97 -51t-38 -152z" />
<glyph unicode="&#xb1;" horiz-adv-x="1245" d="M90 70l12 49q27 8 344 8q146 0 236 -3t108 -6l17 -3q25 0 51 20q33 -44 33 -74q0 -28 -41 -28q-28 0 -62 12q-56 -29 -57 -29q2 0 2 2q0 17 -45 17q-14 0 -22 -3.5t-19.5 -12.5t-21.5 -15q-23 0 -41 7t-32.5 17t-16.5 11v2q0 6 -17 6q-28 0 -80 -8l-73 -10q-8 0 -63 -4.5 t-73 -4.5q-80 0 -139 50zM96 496l13 39q21 7 329 10l6 76q1 11 2 23t2 19t1 9q-7 80 -7 98q0 64 41 111q27 -4 36.5 -16.5t11.5 -43.5t1 -111q-2 -96 -2 -163h119q41 0 73 -0.5t49 -1.5t27.5 -2t15 -1.5t5.5 -0.5q14 0 43 16q27 -34 27 -55q0 -23 -33 -23q-30 0 -51 8 q-39 -20 -47 -20l2 2q0 10 -39 10q-11 0 -17 -2t-15.5 -8.5t-18.5 -11.5q-17 0 -33.5 6t-27.5 13t-13 7q-14 -17 -66 -20q0 -108 -6 -207q-1 -7 -1.5 -16t-1 -14.5t-1.5 -8.5q0 -15 17 -39q-42 -22 -60 -22q-26 0 -26 28q0 23 12 47q-23 44 -23 45q0 -2 2 -2q13 0 13 35 q0 11 -2 16.5t-9.5 14.5t-11.5 16q0 14 4.5 27t8.5 19t11 14l7 8q-15 9 -21 39q-22 0 -50 1t-38 1q-22 0 -30 2q-12 0 -56 -4t-55 -4q-71 0 -117 37z" />
<glyph unicode="&#xb2;" horiz-adv-x="933" d="M127 1397q0 18 21 36.5t51 36.5t39 27q4 0 39.5 26.5t62.5 26.5q8 0 19.5 1t15.5 1q72 0 110 -32l125 -95q11 -46 11 -61q0 -83 -82 -162t-82 -117q0 -45 108 -45q35 0 72.5 16.5t60.5 33.5l23 16q10 0 15 -7t5 -14q-5 -34 -43 -77q-23 -29 -41 -56.5t-25.5 -43 t-14 -27.5t-12 -16.5t-13.5 -4.5q-1 0 -22 3t-35 3q-10 0 -43.5 -4t-65.5 -4q-13 0 -47 1t-51 1q-36 0 -76.5 -7t-52.5 -7q-64 0 -64 45t148 110q18 5 95 93.5t77 105.5q0 64 -21 105q-94 49 -131 49q-2 0 -22 -5t-51.5 -9.5t-63.5 -4.5q-21 0 -30 12t-9 50z" />
<glyph unicode="&#xb3;" horiz-adv-x="1089" d="M242 680q0 76 100 76q31 0 78 -13q24 -30 65 -51l41 -20q71 18 120.5 66t49.5 104t-55 108q-3 11 -8 19t-18 16t-21 11.5t-33.5 13.5t-38.5 16h2q0 -4 -110 -4q-72 0 -72 39q0 16 16 45l25 16q135 15 139 19q37 12 70 50.5t33 84.5q0 42 -31 74t-74 32q-29 0 -103.5 -44 t-111.5 -44q-53 0 -53 52q0 60 42.5 105t158.5 101q9 -1 41 -1.5t58.5 -2.5t64 -7.5t66 -18.5t55 -32t41 -51.5t14.5 -74.5q0 -31 -43 -99.5t-43 -78.5q0 -19 13.5 -38.5t57.5 -53.5q53 -42 69.5 -80.5t16.5 -106.5q0 -35 -6 -82q0 -2 -8 -24t-8 -35q0 -6 2 -8 q-21 -40 -49 -56l-74 -32q-1 0 -1.5 0.5t-2 1t-4.5 0.5q-8 0 -29 -15q-49 -41 -121.5 -59t-126.5 -18q-1 0 -27.5 3t-41.5 3q-13 0 -25.5 -1.5t-17.5 -2.5t-5 0h3l-33 36q-47 15 -47 62z" />
<glyph unicode="&#xb4;" horiz-adv-x="888" d="M236 1094q7 0 8.5 10t1.5 25t11.5 40.5t35.5 49.5q30 30 42.5 52t14 36t17.5 45t49 73q25 31 42.5 50t28 29.5t26 14.5t21 4.5t27.5 0.5q51 0 51 -45q0 -48 -59 -101q-5 -31 -51 -65q-80 -64 -98 -79.5t-74 -72.5l-27 -53q-19 -37 -39 -37q-7 0 -17.5 7.5t-10.5 17.5v-2z " />
<glyph unicode="&#xb5;" horiz-adv-x="845" d="M-121 -393q0 32 27 59q146 122 155 195q29 97 45 180q-1 10 -2 37.5t-2 40.5l-6 12l2 108v111q0 74 -10 139q0 10 5 40.5t5 37.5q0 25 -20 45q-20 17 -38.5 30.5t-24 17.5t-8.5 9.5t-3 14.5q0 33 105 33q75 0 96.5 -10t21.5 -50q0 -14 -4 -43t-4 -30q0 -8 1 -26.5 t1 -27.5q0 -24 -5 -162t-5 -163q0 -33 4 -49.5t14 -30.5t37 -19t63.5 -7.5t104.5 -2.5q8 8 70 78q-6 52 -6 127q0 101 2.5 165t5 86t2.5 23q0 25 -27 46l-49 28q-6 -2 -18 -2q-16 0 -23.5 12t-7.5 23q0 29 68 29q7 -1 28 -1.5t38 -1t18 -1.5q55 8 77 8h6l27 -25 q-1 -15 -2 -57t-2 -62v-24q0 -33 -5 -164t-5 -150q0 -116 22 -116q8 0 36 8t30 8q16 -6 16 -24q0 -33 -37 -70q-5 0 -55 -17.5t-74 -17.5q-20 -2 -41.5 4.5t-31.5 22.5l-23 32q-7 7 -14 7q-9 0 -70 -31t-94 -31q-11 0 -53 3t-58 3q-6 -70 -23 -176.5t-32 -140.5 q-17 -42 -70.5 -101t-99.5 -59q-33 0 -56.5 20.5t-23.5 49.5z" />
<glyph unicode="&#xb6;" horiz-adv-x="1044" d="M6 967q0 58 23 145l22 33q6 11 30 42t40 56l164 80q100 47 231 47q20 0 76.5 -6t95.5 -6q23 0 101.5 6t93.5 6q116 0 116 -49q0 -35 -59 -35q-6 0 -67 5t-80 5h-17v-41q0 -151 -20 -282q14 -14 14 -45q0 -52 -31 -125q9 -82 9 -137q0 -3 -5.5 -61t-5.5 -113q0 -40 6 -86 v-33q0 -42 9.5 -259t9.5 -245v-25q-4 -46 -4 -63q0 -30 9 -81.5t9 -55.5q0 -33 -35 -74q-35 6 -51 14q-12 78 -12 781q0 399 12 440q2 2 2 16q0 27 -20 53q4 70 4 140v69q18 15 18 56q0 13 -7 28.5t-7 18.5q0 5 3 11t3 11q0 3 -10 29.5t-10 36.5l-58 35l-63 -39q2 -14 2 -51 q0 -83 -23 -254q21 -21 21 -78q0 -58 -15 -92q7 -7 19 -37l-25 -51v-89q4 -32 4 -45q0 -12 -10 -67t-10 -88q0 -17 20 -99v-79q0 -28 -16 -74q25 -16 25 -98q0 -23 -4.5 -83.5t-9.5 -112t-5 -52.5q0 -23 13.5 -88t13.5 -78q0 -49 -37 -92q-36 6 -49 14q0 -3 -2 45.5 t-4.5 131t-4.5 181t-4 215t-2 213.5q0 115 4 275h-8h-22q-98 0 -177.5 27.5t-129.5 74t-76.5 105t-26.5 123.5z" />
<glyph unicode="&#xb7;" horiz-adv-x="454" d="M57 371q0 46 34 102.5t65 56.5h86q17 0 29 -1t21.5 -4.5t15.5 -6t10.5 -10.5t7 -12.5t4 -18t2 -21.5t1 -27.5t1.5 -31.5q0 -70 -35 -107.5t-94 -37.5q-54 0 -101 37.5t-47 81.5z" />
<glyph unicode="&#xb8;" horiz-adv-x="933" d="M152 -317q0 24 27 47.5t54 23.5q35 0 35 -65q0 -14 -4 -28t-4 -17q0 -27 19 -27q44 0 69 25.5t25 68.5t-21 96l-18 31q109 130 190 211q30 6 49 6q27 0 27 -16q0 -21 -139 -186l6 -58q16 -40 16 -69q0 -69 -72 -124t-155 -55q-100 0 -100 78q0 3 4 31q-8 8 -8 27z" />
<glyph unicode="&#xb9;" horiz-adv-x="1011" d="M201 1475q0 31 13.5 43t55.5 12q88 0 105 -10q69 16 114 16q22 0 59.5 -7t57.5 -7q9 0 42.5 3t41.5 3q53 0 53 -41q0 -23 -12 -53l-47 -11q-67 -15 -76 -57l-8 -106q-14 -41 -14 -66l4 -27q4 -32 4 -69v-31q0 -14 1.5 -29.5t6.5 -37.5t17 -36t30 -14q9 0 41.5 9.5 t40.5 9.5q45 -51 45 -62q0 -20 -45 -65q-16 0 -56 17.5t-52 17.5h-158q-13 0 -84 -25t-88 -25q-37 0 -57 33q8 55 10 66q20 3 57 28l53 41q10 7 17 16t11.5 22t7.5 21t4 26.5t1 24v28v24.5q-14 32 -14 55q0 10 9 28t9 24q0 21 -24 66.5t-62 60.5q-114 0 -114 84z" />
<glyph unicode="&#xba;" horiz-adv-x="700" d="M31 877q0 75 39 131l4 12l76 92l81 31q18 6 52 6h44q71 1 92 -8q19 -8 69 -54l26 -24q30 -59 53 -164q0 -4 1 -11.5t1 -10.5q0 -55 -34 -113q-1 -1 -7.5 -14t-14.5 -26.5t-21.5 -32.5t-31 -35t-39.5 -30.5t-51.5 -23t-62.5 -8.5q-32 0 -53 8l-68 19l-67 43q-1 1 -17.5 25 t-30.5 47.5t-27 63t-13 77.5zM37 473q0 38 39 41l102 4q36 19 64 19q4 0 11.5 -1t10.5 -1q13 0 41 4l96 -7q6 0 52 4.5t65 4.5q94 0 94 -58q0 -24 -11.5 -50.5t-27.5 -26.5q-3 0 -28.5 14t-38.5 14h-4l-62 -18q-9 0 -45 8q-2 -1 -6.5 -2.5l-9 -3t-8.5 -2.5q-21 -8 -66 -8 q-8 0 -23.5 1t-23.5 1q-18 0 -79 -7.5t-66 -7.5q-42 0 -59 19.5t-17 58.5zM166 860q0 -137 92 -158l4 -6q19 -8 49 -8q75 0 100 44.5t25 180.5q2 2 2 13q0 57 -50 99t-91 42q-54 0 -92.5 -63t-38.5 -144z" />
<glyph unicode="&#xbb;" horiz-adv-x="985" d="M94 784q0 88 39 88q46 0 55 -12q126 -202 154 -205q36 -56 69 -98.5t44 -56t17.5 -33.5t6.5 -57q0 -54 -16 -54q-6 0 -8 2q-29 -25 -136 -168q-21 -9 -41 -30.5t-73 -91.5q-25 -66 -31 -66q-4 -4 -12 -4q-47 0 -47 57q0 67 110 185l84 90q2 3 38 14.5t42 30.5l-39 59 q-6 3 -48 82t-42 84q-12 12 -59.5 41t-77 63t-29.5 80zM469 788q0 89 45 89q40 0 47 -11q127 -204 156 -207q33 -49 53 -84q21 -35 40.5 -59t27 -31.5t12 -23t4.5 -47.5q0 -54 -16 -54q-4 0 -9 5q-39 -39 -135 -170q-19 -6 -41.5 -30.5t-72.5 -92.5l-17 -35q-13 -29 -14 -29 q-4 -4 -12 -4q-50 0 -50 57q0 70 113 183l84 92q1 1 19.5 5.5t37 14.5t23.5 25l-39 57q-5 5 -47.5 83t-42.5 85q-10 9 -60.5 40t-78 64t-27.5 78z" />
<glyph unicode="&#xbf;" horiz-adv-x="909" d="M25 233q0 63 38.5 114.5t96.5 58.5h14q36 0 100 12q11 8 32 40.5t39 59.5t24 27q10 0 23.5 -16t13.5 -27q0 -12 6 -55t6 -56q0 -52 -41 -76q-61 -61 -101 -61q-14 0 -33 4t-33.5 8t-16.5 4q-14 0 -23.5 -14.5t-13.5 -37t-5 -37t-1 -27.5q0 -48 23 -78t55 -42t64.5 -20 t55.5 -21.5t23 -37.5q0 -37 -33 -68.5t-74 -31.5q-78 0 -112 120q-127 109 -127 258zM166 854q0 107 104 107q88 0 107 -19q37 -40 37 -86q0 -51 -39 -91t-96 -44q-49 0 -81 39t-32 94z" />
<glyph unicode="&#xc0;" horiz-adv-x="1560" d="M-2 49q0 17 41.5 38.5t85 38.5t45.5 21q30 7 76.5 122.5t58.5 207.5q17 17 29 80t55.5 163t77.5 206q28 85 55.5 143.5t39 78t11.5 28.5q0 5 -3 27.5t-3 27.5q0 18 4.5 29.5t18 20t21.5 11.5t30 11q1 5 3.5 13.5t11.5 30t18.5 37.5t25 29.5t31.5 13.5l31 -18l59 -119 q29 -57 33 -127q9 -9 25 -47.5t24 -46.5q0 -81 37 -113q20 -157 90 -266q43 -98 180 -483l29 -35q3 -23 27 -39t50.5 -23.5t48 -25.5t21.5 -45v-14q-58 -25 -88 -25q-3 0 -20.5 2t-52.5 4t-82 2q-69 0 -156 -2t-92 -2q-39 0 -39 33q0 14 8 22q2 2 45.5 18t82 38.5t38.5 44.5 q0 36 -49 100q-21 177 -63 213q0 45 -4.5 59t-18.5 25q-45 -10 -88 -10q-21 0 -109 8t-108 8q-5 0 -23.5 1t-26 0t-22.5 -5t-29.5 -13.5t-31.5 -25.5q-1 -1 -60 -184t-59 -186l24 -27q16 -6 42.5 -18.5t31.5 -14.5q31 -14 53.5 -30.5t22.5 -26.5q0 -18 -31 -37h-235 q-55 0 -93 -6t-55 -11.5t-22 -5.5q-25 0 -51.5 24t-26.5 52zM504 690q12 -54 78 -63q116 -16 126 -23h19q46 0 85.5 23.5t39.5 54.5q0 3 -4 23q-107 307 -129 358q-26 61 -41 67v5q0 16 -29 22q-29 -19 -48.5 -82t-29.5 -130t-12 -71zM600 1839q0 43 51 43q39 0 92 -27 q1 -3 21 -29.5t54 -79.5t67 -118q35 -71 48 -89t32 -21q8 -3 10.5 -14.5t11.5 -20.5v8l-2 2q-3 0 -6 -41q-15 -18 -29 -18q-4 0 -8 2.5t-8.5 9t-7 10.5t-7.5 13.5t-6 11.5l-135 133l-12 10q-11 9 -28 23.5t-34.5 30.5t-30 32.5t-14.5 26.5q-59 53 -59 102z" />
<glyph unicode="&#xc1;" horiz-adv-x="1560" d="M-2 49q0 17 41.5 38.5t85 38.5t45.5 21q30 7 76.5 122.5t58.5 207.5q17 17 29 80t55.5 163t77.5 206q28 85 55.5 143.5t39 78t11.5 28.5q0 5 -3 27.5t-3 27.5q0 18 4.5 29.5t18 20t21.5 11.5t30 11q1 5 3.5 13.5t11.5 30t18.5 37.5t25 29.5t31.5 13.5l31 -18l59 -119 q29 -57 33 -127q9 -9 25 -47.5t24 -46.5q0 -81 37 -113q20 -157 90 -266q43 -98 180 -483l29 -35q3 -23 27 -39t50.5 -23.5t48 -25.5t21.5 -45v-14q-58 -25 -88 -25q-3 0 -20.5 2t-52.5 4t-82 2q-69 0 -156 -2t-92 -2q-39 0 -39 33q0 14 8 22q2 2 45.5 18t82 38.5t38.5 44.5 q0 36 -49 100q-21 177 -63 213q0 45 -4.5 59t-18.5 25q-45 -10 -88 -10q-21 0 -109 8t-108 8q-5 0 -23.5 1t-26 0t-22.5 -5t-29.5 -13.5t-31.5 -25.5q-1 -1 -60 -184t-59 -186l24 -27q16 -6 42.5 -18.5t31.5 -14.5q31 -14 53.5 -30.5t22.5 -26.5q0 -18 -31 -37h-235 q-55 0 -93 -6t-55 -11.5t-22 -5.5q-25 0 -51.5 24t-26.5 52zM494 1462q3 0 24 74q10 29 35 51l43 45q11 14 19 44t20 38q3 22 20.5 50.5t36 50.5t19.5 24q62 33 106 33q49 0 49 -39q0 -35 -53 -88q-7 -27 -53 -64l-68 -57q-66 -56 -102 -94l-29 -55q-21 -37 -39 -37 q-7 0 -17.5 8t-10.5 18v-2zM504 690q12 -54 78 -63q116 -16 126 -23h19q46 0 85.5 23.5t39.5 54.5q0 3 -4 23q-107 307 -129 358q-26 61 -41 67v5q0 16 -29 22q-29 -19 -48.5 -82t-29.5 -130t-12 -71z" />
<glyph unicode="&#xc2;" horiz-adv-x="1560" d="M-2 49q0 17 41.5 38.5t85 38.5t45.5 21q30 7 76.5 122.5t58.5 207.5q17 17 29 80t55.5 163t77.5 206q28 85 55.5 143.5t39 78t11.5 28.5q0 5 -3 27.5t-3 27.5q0 18 4.5 29.5t18 20t21.5 11.5t30 11q1 5 3.5 13.5t11.5 30t18.5 37.5t25 29.5t31.5 13.5l31 -18l59 -119 q29 -57 33 -127q9 -9 25 -47.5t24 -46.5q0 -81 37 -113q20 -157 90 -266q43 -98 180 -483l29 -35q3 -23 27 -39t50.5 -23.5t48 -25.5t21.5 -45v-14q-58 -25 -88 -25q-3 0 -20.5 2t-52.5 4t-82 2q-69 0 -156 -2t-92 -2q-39 0 -39 33q0 14 8 22q2 2 45.5 18t82 38.5t38.5 44.5 q0 36 -49 100q-21 177 -63 213q0 45 -4.5 59t-18.5 25q-45 -10 -88 -10q-21 0 -109 8t-108 8q-5 0 -23.5 1t-26 0t-22.5 -5t-29.5 -13.5t-31.5 -25.5q-1 -1 -60 -184t-59 -186l24 -27q16 -6 42.5 -18.5t31.5 -14.5q31 -14 53.5 -30.5t22.5 -26.5q0 -18 -31 -37h-235 q-55 0 -93 -6t-55 -11.5t-22 -5.5q-25 0 -51.5 24t-26.5 52zM373 1507q160 230 215.5 296t111.5 77q66 -34 131 -139l99 -164v-21q0 -48 16 -67q-19 -19 -47 -19q-18 0 -39 9l-86 149q0 58 -69 58q-62 0 -87 -48q-26 -47 -50 -80.5t-39.5 -50t-32.5 -25t-24 -9.5t-20 0.5 t-14 1.5q-48 0 -65 32zM504 690q12 -54 78 -63q120 -16 127 -23h20q45 0 84 23.5t39 54.5q0 3 -4 23q-107 307 -129 358q-26 61 -41 67v5q0 16 -29 22q-29 -19 -48.5 -82t-29.5 -130t-12 -71z" />
<glyph unicode="&#xc3;" horiz-adv-x="1560" d="M-2 49q0 17 41.5 38.5t85 38.5t45.5 21q30 7 76.5 122.5t58.5 207.5q17 17 29 80t55.5 163t77.5 206q28 85 55.5 143.5t39 78t11.5 28.5q0 5 -3 27.5t-3 27.5q0 18 4.5 29.5t18 20t21.5 11.5t30 11q1 5 3.5 13.5t11.5 30t18.5 37.5t25 29.5t31.5 13.5l31 -18l59 -119 q29 -57 33 -127q9 -9 25 -47.5t24 -46.5q0 -81 37 -113q20 -157 90 -266q43 -98 180 -483l29 -35q3 -23 27 -39t50.5 -23.5t48 -25.5t21.5 -45v-14q-58 -25 -88 -25q-3 0 -20.5 2t-52.5 4t-82 2q-69 0 -156 -2t-92 -2q-39 0 -39 33q0 14 8 22q2 2 45.5 18t82 38.5t38.5 44.5 q0 36 -49 100q-21 177 -63 213q0 45 -4.5 59t-18.5 25q-45 -10 -88 -10q-21 0 -109 8t-108 8q-5 0 -23.5 1t-26 0t-22.5 -5t-29.5 -13.5t-31.5 -25.5q-1 -1 -60 -184t-59 -186l24 -27q16 -6 42.5 -18.5t31.5 -14.5q31 -14 53.5 -30.5t22.5 -26.5q0 -18 -31 -37h-235 q-55 0 -93 -6t-55 -11.5t-22 -5.5q-25 0 -51.5 24t-26.5 52zM395 1608q0 49 35 84t80 49t90 14q26 0 141 -33q22 -28 39 -28q10 0 37.5 32t59.5 64.5t53 32.5q16 0 39 -13q47 -18 47 -81q0 -58 -47.5 -106t-130.5 -48q-5 0 -23 -1t-28 0t-28 4.5t-38 14t-45 27.5 q-61 35 -72.5 40t-34.5 5q-22 0 -43 -16.5t-33.5 -36.5t-27 -36.5t-25.5 -16.5q-45 0 -45 49zM504 690q12 -54 78 -63q116 -16 126 -23h19q46 0 85.5 23.5t39.5 54.5q0 3 -4 23q-107 307 -129 358q-26 61 -41 67v5q0 16 -29 22q-29 -19 -48.5 -82t-29.5 -130t-12 -71z" />
<glyph unicode="&#xc4;" horiz-adv-x="1560" d="M-2 49q0 17 41.5 38.5t85 38.5t45.5 21q30 7 76.5 122.5t58.5 207.5q17 17 29 80t55.5 163t77.5 206q28 85 55.5 143.5t39 78t11.5 28.5q0 5 -3 27.5t-3 27.5q0 18 4.5 29.5t18 20t21.5 11.5t30 11q1 5 3.5 13.5t11.5 30t18.5 37.5t25 29.5t31.5 13.5l31 -18l59 -119 q29 -57 33 -127q9 -9 25 -47.5t24 -46.5q0 -81 37 -113q20 -157 90 -266q43 -98 180 -483l29 -35q3 -23 27 -39t50.5 -23.5t48 -25.5t21.5 -45v-14q-58 -25 -88 -25q-3 0 -20.5 2t-52.5 4t-82 2q-69 0 -156 -2t-92 -2q-39 0 -39 33q0 14 8 22q2 2 45.5 18t82 38.5t38.5 44.5 q0 36 -49 100q-21 177 -63 213q0 45 -4.5 59t-18.5 25q-45 -10 -88 -10q-21 0 -109 8t-108 8q-5 0 -23.5 1t-26 0t-22.5 -5t-29.5 -13.5t-31.5 -25.5q-1 -1 -60 -184t-59 -186l24 -27q16 -6 42.5 -18.5t31.5 -14.5q31 -14 53.5 -30.5t22.5 -26.5q0 -18 -31 -37h-235 q-55 0 -93 -6t-55 -11.5t-22 -5.5q-25 0 -51.5 24t-26.5 52zM504 690q12 -54 78 -63q116 -16 126 -23h19q46 0 85.5 23.5t39.5 54.5q0 3 -4 23q-107 307 -129 358q-26 61 -41 67v5q0 16 -29 22q-29 -19 -48.5 -82t-29.5 -130t-12 -71zM524 1661q0 28 45.5 56t73.5 28 q55 0 55 -78q0 -80 -57 -80q-3 0 -23 4l-55 31q-23 12 -31.5 20t-7.5 19zM752 1677q0 78 79 78q34 0 57 -27t23 -63q0 -65 -65 -74q-3 0 -7.5 -1t-7.5 -1q-36 0 -57.5 25.5t-21.5 62.5z" />
<glyph unicode="&#xc5;" horiz-adv-x="1560" d="M-2 49q0 17 41.5 38.5t85 38.5t45.5 21q30 7 76.5 122.5t58.5 207.5q17 17 29 80t55.5 163t77.5 206q28 85 55.5 143.5t39 78t11.5 28.5q0 5 -3 27.5t-3 27.5q0 18 4.5 29.5t18 20t21.5 11.5t30 11l9 25q10 25 24.5 53.5t25.5 35.5q-93 21 -133 45q-32 21 -62 66t-30 92 q0 11 10.5 63t10.5 66v8q77 131 206 131q94 0 155 -58t61 -155q0 -49 -2.5 -75.5t-4 -34t-12.5 -24t-16 -25.5q-3 -3 -25 -20.5t-40.5 -34t-35 -39.5t-16.5 -42q0 -20 44 -110.5t44 -106.5q9 -9 25 -47.5t24 -46.5q0 -81 37 -113q20 -157 90 -266q43 -98 180 -483l29 -35 q3 -23 27 -39t50.5 -23.5t48 -25.5t21.5 -45q0 -21 -34 -30t-54 -9q-3 0 -20.5 2t-52.5 4t-82 2q-69 0 -156 -2t-92 -2q-39 0 -39 33q0 14 8 22q2 2 45.5 18t82 38.5t38.5 44.5q0 36 -49 100q-21 177 -63 213q0 45 -4.5 59t-18.5 25q-45 -10 -88 -10q-21 0 -109 8t-108 8 q-5 0 -23.5 1t-26 0t-22.5 -5t-29.5 -13.5t-31.5 -25.5q-1 -1 -60 -184t-59 -186l24 -27q16 -6 42.5 -18.5t31.5 -14.5q31 -14 53.5 -30.5t22.5 -26.5q0 -18 -31 -37h-235q-55 0 -93 -6t-55 -11.5t-22 -5.5q-25 0 -51.5 24t-26.5 52zM504 690q12 -54 78 -63q120 -16 127 -23 h20q45 0 84 23.5t39 54.5q0 3 -4 23q-107 307 -129 358q-26 61 -41 67v5q0 16 -29 22q-29 -19 -48.5 -82t-29.5 -130t-12 -71zM582 1640q0 -26 15.5 -47t36.5 -37.5t25 -21.5q25 0 40 1t37.5 6.5t35 16.5t22 32.5t9.5 51.5q0 70 -27 105l-20 12q-44 29 -76 29q-38 0 -68 -42 t-30 -106z" />
<glyph unicode="&#xc6;" horiz-adv-x="1939" d="M-25 55q0 17 44 40.5t90.5 41.5t48.5 21q30 4 91 121t87 210q16 13 40 68t30 64q20 28 134.5 251t131.5 240q37 31 57.5 71.5t22.5 65.5q3 16 13.5 26.5t18.5 29.5q-13 3 -44.5 9t-49.5 10.5t-40.5 12t-33 19t-10.5 26.5q0 7 1 11t5 9.5t13 8t24 2.5q17 0 71 -10.5 t116 -13.5q14 14 38 14l29 -19q41 -4 66 -16q43 14 207 29q11 -11 114 -11q204 0 285 11q37 -12 37 -160q0 -137 -31 -137t-57 63l-37 82q-7 19 -37.5 51.5t-56.5 32.5q-19 0 -31 -18q-90 20 -135 20q-39 0 -60 -8q-24 12 -45 12q-15 0 -23.5 -8.5t-13.5 -36.5t-6.5 -70.5 t-1.5 -121.5q0 -172 2 -256q0 -8 -1 -18t-1 -13q0 -47 15 -65.5t53 -18.5h125q27 0 40 0.5t27.5 5t19.5 10t17.5 21t20.5 31t28.5 48t42.5 64.5l23 4q22 -28 22 -59q0 -29 -12 -59v-154q0 -5 4 -31t4 -33q0 -55 -45 -55q-28 0 -49 62q-14 40 -26 59t-19 23.5t-28 9.5t-37 12 h-154q-68 -9 -68 -82q0 -24 6 -59q-22 -49 -22 -99q0 -76 3 -126.5t12 -93t23.5 -66.5t40 -41t59 -23t81.5 -6q10 0 143 10q167 12 197 131q21 140 62 140q24 0 40.5 -55.5t16.5 -141.5q0 -68 -8 -131q-10 -3 -37.5 -15t-42.5 -18q-12 4 -64 4q-37 0 -55 -2 q-67 -6 -103.5 -8.5t-48.5 -2.5t-34 0.5t-41 0.5q-85 0 -146 6q-4 0 -47 9.5t-59 9.5q-124 0 -371 -25q-20 14 -20 37q0 26 30 47q41 -8 80 -8q58 0 72 39l33 119q-4 4 -4 51q0 49 2 88l8 284l-170 -4q-111 -3 -166 -16q-3 3 -18 -34.5t-30.5 -76.5t-17.5 -39 q-1 0 -40.5 -79.5t-78.5 -161t-38 -86.5l18 -29l36 -15q103 -49 103 -71q0 -19 -36 -39h-199q-68 -3 -116 -9.5t-68.5 -11.5t-24.5 -5q-26 0 -46 23t-20 50zM555 774q6 -51 74 -51q21 0 49 1t37 1q33 0 52 -5t28 -5q43 0 92 30q-4 35 -8 205v15q0 18 -5 30l-14 45 q-2 23 -2 76q-4 11 -9.5 16.5t-10.5 8t-7 4.5q-4 0 -19.5 -3t-20.5 -3h-3q-51 -33 -86 -121l-67 -172q-11 -17 -41.5 -34.5t-38.5 -37.5z" />
<glyph unicode="&#xc7;" horiz-adv-x="1527" d="M-14 680l1 12q17 219 44 283q10 6 19.5 22t16 32.5t9.5 19.5l135 165q151 157 377 197q70 49 200 49q129 0 416 -65q27 12 51 12q95 0 95 -195q0 -143 -25 -165q-29 12 -76 90t-55 84q-16 42 -29 61q0 11 -94 78q-65 12 -221 12q-172 0 -213 -18q-11 -11 -41 -28.5 t-79.5 -54t-106.5 -93.5q-23 -10 -37.5 -30.5t-21 -38.5t-7.5 -19q-123 -164 -123 -338q0 -192 168 -463q37 -34 80 -92q151 -154 455 -154q133 0 223 33q37 12 110 131q58 94 78 94q9 0 16 -18.5t7 -28.5v-49q4 -46 4 -51q0 -98 -98 -144h-17q-38 0 -53 -4 q-14 -33 -133 -170l4 -55q18 -34 18 -70q0 -69 -74.5 -123.5t-152.5 -54.5q-100 0 -100 78q0 3 4 31q-8 8 -8 24q0 26 27.5 50t54.5 24q12 0 19 -7t9 -15.5t6 -30.5q0 -32 -10 -49q0 -35 21 -35q44 0 69 25.5t25 68.5t-21 96l-18 31q8 9 92 102q-3 45 -33 45 q-7 0 -39.5 -8.5t-44.5 -9.5q-104 13 -274 16q-8 8 -108.5 36t-129.5 28h-6q-33 38 -117 102l-127 94q-7 6 -31.5 45.5t-39.5 49.5l-45 114q-25 180 -25 199v4q-20 23 -20 39z" />
<glyph unicode="&#xc8;" horiz-adv-x="1314" d="M-8 18q0 28 31 50q47 -9 79 -9q58 0 72 39l33 117q-12 12 -12 252q0 57 0.5 111t1.5 97.5t2 83t2.5 70.5t3 57t2.5 44t2 31t1 19l1 7q0 22 -4 31l-14 45v192q0 28 -26.5 49.5t-57.5 33.5t-57.5 28t-26.5 33q0 33 18 33q12 0 16 -2l31 -13q2 -1 93.5 -9t121.5 -22 q58 18 207 29q8 -8 127 -8q245 0 319 10q48 -15 48 -168q0 -80 -29 -80q-27 0 -47 39l-33 58q-6 96 -41 96q-11 0 -22 -14q-55 10 -166 10q-124 0 -162 -15q-29 13 -45 13q-18 0 -27.5 -14t-15.5 -64.5t-6 -149.5v-243q0 -5 -1 -15.5t-1 -15.5q0 -48 13 -65t54 -17h125 q43 0 69.5 4t44 8.5t33 22t24.5 31.5t30.5 49.5t40.5 64.5l22 2q23 -30 23 -59q0 -27 -12 -57v-154q0 -7 3 -31.5t3 -31.5q0 -24 -11.5 -40t-31.5 -16q-28 0 -52 64q-14 38 -25 56t-17.5 23t-29 11t-38.5 12q-16 0 -47.5 1t-51.5 1.5t-48 -1t-46 -7.5t-35 -16.5t-25.5 -28.5 t-8.5 -43q0 -15 4 -47q-12 -21 -12 -74q0 -19 9 -84.5t9 -112.5q0 -33 -4 -73.5t-4 -42.5q0 -72 49 -102.5t170 -30.5q29 0 162 10q27 -12 59 -12q56 0 101 40t63 103q-2 18 -2 49q0 80 35 80q26 0 46.5 -48.5t20.5 -123.5q0 -61 -16 -143l-80 -33q-46 4 -68 4q-8 0 -25 -1 t-26 -1q-148 -13 -188 -12h-23q-139 0 -207 8q-8 0 -49.5 8t-56.5 8q-123 0 -371 -22q-20 14 -20 34zM283 1841q0 45 53 45q38 0 92 -28l8 -10q9 -11 22.5 -29.5t27 -38.5t23.5 -40t11 -32q22 -22 47 -76q54 -106 68 -106h-2l8 4q1 -2 8 -21q11 -34 13 -32q0 -6 -13 -9 q-15 -18 -26 -18q-6 0 -25.5 20t-63 69t-71.5 79l-68 55q-44 35 -53 66q-59 56 -59 102z" />
<glyph unicode="&#xc9;" horiz-adv-x="1314" d="M-8 18q0 28 31 50q47 -9 79 -9q58 0 72 39l33 117q-12 12 -12 252q0 57 0.5 111t1.5 97.5t2 83t2.5 70.5t3 57t2.5 44t2 31t1 19l1 7q0 22 -4 31l-14 45v192q0 28 -26.5 49.5t-57.5 33.5t-57.5 28t-26.5 33q0 33 18 33q12 0 16 -2l31 -13q2 -1 93.5 -9t121.5 -22 q58 18 207 29q8 -8 127 -8q245 0 319 10q48 -15 48 -168q0 -80 -29 -80q-27 0 -47 39l-33 58q-6 96 -41 96q-11 0 -22 -14q-55 10 -166 10q-124 0 -162 -15q-29 13 -45 13q-18 0 -27.5 -14t-15.5 -64.5t-6 -149.5v-243q0 -5 -1 -15.5t-1 -15.5q0 -48 13 -65t54 -17h125 q43 0 69.5 4t44 8.5t33 22t24.5 31.5t30.5 49.5t40.5 64.5l22 2q23 -30 23 -59q0 -27 -12 -57v-154q0 -7 3 -31.5t3 -31.5q0 -24 -11.5 -40t-31.5 -16q-28 0 -52 64q-14 38 -25 56t-17.5 23t-29 11t-38.5 12q-16 0 -47.5 1t-51.5 1.5t-48 -1t-46 -7.5t-35 -16.5t-25.5 -28.5 t-8.5 -43q0 -15 4 -47q-12 -21 -12 -74q0 -19 9 -84.5t9 -112.5q0 -33 -4 -73.5t-4 -42.5q0 -72 49 -102.5t170 -30.5q29 0 162 10q27 -12 59 -12q56 0 101 40t63 103q-2 18 -2 49q0 80 35 80q26 0 46.5 -48.5t20.5 -123.5q0 -61 -16 -143l-80 -33q-46 4 -68 4q-8 0 -25 -1 t-26 -1q-148 -13 -188 -12h-23q-139 0 -207 8q-8 0 -49.5 8t-56.5 8q-123 0 -371 -22q-20 14 -20 34zM444 1477q8 0 8 15t9.5 47t40.5 63q33 31 46.5 56.5t18 42.5t17.5 28q5 31 16 49l33 43q51 26 90 26q53 0 53 -45q0 -47 -59 -100q-6 -27 -29 -37q-30 -10 -61 -37 t-86 -84l-29 -55q-18 -35 -39 -35q-7 0 -18 8t-11 17v-2z" />
<glyph unicode="&#xca;" horiz-adv-x="1314" d="M-8 18q0 28 31 50q47 -9 79 -9q58 0 72 39l33 117q-12 12 -12 252q0 57 0.5 111t1.5 97.5t2 83t2.5 70.5t3 57t2.5 44t2 31t1 19l1 7q0 22 -4 31l-14 45v192q0 28 -26.5 49.5t-57.5 33.5t-57.5 28t-26.5 33q0 33 18 33q12 0 16 -2l31 -13q2 -1 93.5 -9t121.5 -22 q58 18 207 29q8 -8 127 -8q245 0 319 10q48 -15 48 -168q0 -80 -29 -80q-27 0 -47 39l-33 58q-6 96 -41 96q-11 0 -22 -14q-55 10 -166 10q-124 0 -162 -15q-29 13 -45 13q-18 0 -27.5 -14t-15.5 -64.5t-6 -149.5v-243q0 -5 -1 -15.5t-1 -15.5q0 -48 13 -65t54 -17h125 q43 0 69.5 4t44 8.5t33 22t24.5 31.5t30.5 49.5t40.5 64.5l22 2q23 -30 23 -59q0 -27 -12 -57v-154q0 -7 3 -31.5t3 -31.5q0 -24 -11.5 -40t-31.5 -16q-28 0 -52 64q-14 38 -25 56t-17.5 23t-29 11t-38.5 12q-16 0 -47.5 1t-51.5 1.5t-48 -1t-46 -7.5t-35 -16.5t-25.5 -28.5 t-8.5 -43q0 -15 4 -47q-12 -21 -12 -74q0 -19 9 -84.5t9 -112.5q0 -33 -4 -73.5t-4 -42.5q0 -72 49 -102.5t170 -30.5q29 0 162 10q27 -12 59 -12q56 0 101 40t63 103q-2 18 -2 49q0 80 35 80q26 0 46.5 -48.5t20.5 -123.5q0 -61 -16 -143l-80 -33q-46 4 -68 4q-8 0 -25 -1 t-26 -1q-148 -13 -188 -12h-23q-139 0 -207 8q-8 0 -49.5 8t-56.5 8q-123 0 -371 -22q-20 14 -20 34zM250 1507q159 229 215.5 295.5t112.5 77.5q66 -34 131 -139l98 -164v-21q0 -48 16 -67q-19 -19 -47 -19q-18 0 -39 9l-86 149q0 58 -69 58q-61 0 -86 -48 q-26 -47 -50 -80.5t-39.5 -50t-33 -25t-24.5 -9.5t-20 0.5t-14 1.5q-48 0 -65 32z" />
<glyph unicode="&#xcb;" horiz-adv-x="1314" d="M-8 18q0 28 31 50q47 -9 79 -9q58 0 72 39l33 117q-12 12 -12 252q0 57 0.5 111t1.5 97.5t2 83t2.5 70.5t3 57t2.5 44t2 31t1 19l1 7q0 22 -4 31l-14 45v192q0 28 -26.5 49.5t-57.5 33.5t-57.5 28t-26.5 33q0 33 18 33q12 0 16 -2l31 -13q2 -1 93.5 -9t121.5 -22 q58 18 207 29q8 -8 127 -8q245 0 319 10q48 -15 48 -168q0 -80 -29 -80q-27 0 -47 39l-33 58q-6 96 -41 96q-11 0 -22 -14q-55 10 -166 10q-124 0 -162 -15q-29 13 -45 13q-18 0 -27.5 -14t-15.5 -64.5t-6 -149.5v-243q0 -5 -1 -15.5t-1 -15.5q0 -48 13 -65t54 -17h125 q43 0 69.5 4t44 8.5t33 22t24.5 31.5t30.5 49.5t40.5 64.5l22 2q23 -30 23 -59q0 -27 -12 -57v-154q0 -7 3 -31.5t3 -31.5q0 -24 -11.5 -40t-31.5 -16q-28 0 -52 64q-14 38 -25 56t-17.5 23t-29 11t-38.5 12q-16 0 -47.5 1t-51.5 1.5t-48 -1t-46 -7.5t-35 -16.5t-25.5 -28.5 t-8.5 -43q0 -15 4 -47q-12 -21 -12 -74q0 -19 9 -84.5t9 -112.5q0 -33 -4 -73.5t-4 -42.5q0 -72 49 -102.5t170 -30.5q29 0 162 10q27 -12 59 -12q56 0 101 40t63 103q-2 18 -2 49q0 80 35 80q26 0 46.5 -48.5t20.5 -123.5q0 -61 -16 -143l-80 -33q-46 4 -68 4q-8 0 -25 -1 t-26 -1q-148 -13 -188 -12h-23q-139 0 -207 8q-8 0 -49.5 8t-56.5 8q-123 0 -371 -22q-20 14 -20 34zM369 1661q0 28 45 56t73 28q56 0 56 -78q0 -80 -60 -80h-5t-2.5 -0.5t-2 0t-2 0.5t-3 1.5t-4.5 3t-7.5 4t-11.5 6t-15.5 9t-21.5 11.5q-39 17 -39 39zM596 1677 q0 78 78 78q34 0 57 -27t23 -63q0 -65 -66 -74q-3 0 -6 -1t-6 -1q-36 0 -58 26t-22 62z" />
<glyph unicode="&#xcc;" horiz-adv-x="659" d="M-18 27q0 56 49 71q20 -4 24 -4q119 0 119 383l2 101q0 62 4 90q-14 35 -14 120q0 163 41 234q4 4 4 10l-19 30q-20 30 -20 58q0 12 6 58t6 59q0 39 -23 59t-52 22.5t-61 6.5t-44 14q0 24 109 68q2 2 14 2q9 0 33 -11t30 -12h23q8 0 30 2t36 3q26 1 83.5 3.5t83.5 2.5 q150 0 150 -27q0 -17 -53 -42t-76 -25h-6q-47 -59 -47 -123q0 -34 8 -70l-14 -23q-7 -89 -7 -227q0 -35 1 -125t1 -143q0 -90 -8 -217t-8 -166q0 -53 25.5 -88t62.5 -35q7 0 27 4q49 -52 49 -80q0 -12 -2 -14q-20 -1 -40.5 -2.5t-36 -2.5l-31 -2t-27 -1.5t-21.5 -1t-16.5 -1 t-11.5 -1t-7 -0.5h-2q-43 0 -73.5 7t-32.5 7q-26 0 -41 -6h-19q-70 0 -110 -21l-82 -4q-16 29 -16 60zM94 1837q0 45 51 45q37 0 93 -29l8 -9q8 -10 21.5 -28t26.5 -37t24 -40t14 -35q9 -9 17 -45t20 -51q18 -24 43 -47q19 -19 30 -42.5t14 -37t5 -13.5v5q0 -8 -8 -11 q-16 -16 -27 -16q-4 0 -7.5 1.5t-7.5 5.5l-7.5 7.5t-7.5 9.5l-7 10.5t-7.5 12t-6.5 10.5l-103 111l-67 55q-44 33 -51 66q-60 57 -60 102z" />
<glyph unicode="&#xcd;" horiz-adv-x="659" d="M-18 27q0 56 49 71q20 -4 24 -4q119 0 119 383l2 101q0 62 4 90q-14 35 -14 120q0 163 41 234q4 4 4 10l-19 30q-20 30 -20 58q0 12 6 58t6 59q0 84 -88 84h-22q-49 0 -70 18q0 24 109 68q2 2 14 2q9 0 33 -11t30 -12h23q8 0 30 2t36 3q26 1 83.5 3.5t83.5 2.5 q150 0 150 -27q0 -17 -53 -42t-76 -25h-6q-47 -59 -47 -123q0 -34 8 -70l-14 -23q-7 -89 -7 -227q0 -35 1 -125t1 -143q0 -90 -8 -217t-8 -166q0 -53 25.5 -88t62.5 -35q7 0 27 4q49 -52 49 -80q0 -12 -2 -14q-20 -1 -40.5 -2.5t-36 -2.5l-31 -2t-27 -1.5t-21.5 -1t-16.5 -1 t-11.5 -1t-7 -0.5h-2q-43 0 -73.5 7t-32.5 7q-26 0 -41 -6h-19q-70 0 -110 -21l-82 -4q-16 29 -16 60zM152 1464q8 0 7 16t8 48.5t42 62.5q43 40 60 75t25.5 65.5t27.5 52.5q50 61 79 76.5t72 15.5q51 0 51 -39t-55 -88q-7 -33 -51 -66l-68 -55q-56 -47 -102 -96l-29 -53 q-21 -37 -39 -37q-7 0 -17.5 7.5t-10.5 16.5v-2z" />
<glyph unicode="&#xce;" horiz-adv-x="659" d="M-18 27q0 56 49 71q20 -4 24 -4q119 0 119 383l2 101q0 62 4 90q-14 35 -14 120q0 163 41 234q4 4 4 10l-19 30q-20 30 -20 58q0 12 6 58t6 59q0 84 -88 84h-22q-49 0 -70 18q0 24 109 68q2 2 14 2q9 0 33 -11t30 -12h23q8 0 30 2t36 3q26 1 83.5 3.5t83.5 2.5 q150 0 150 -27q0 -17 -53 -42t-76 -25h-6q-47 -59 -47 -123q0 -34 8 -70l-14 -23q-7 -89 -7 -227q0 -35 1 -125t1 -143q0 -90 -8 -217t-8 -166q0 -53 25.5 -88t62.5 -35q7 0 27 4q49 -52 49 -80q0 -12 -2 -14q-20 -1 -40.5 -2.5t-36 -2.5l-31 -2t-27 -1.5t-21.5 -1t-16.5 -1 t-11.5 -1t-7 -0.5h-2q-43 0 -73.5 7t-32.5 7q-26 0 -41 -6h-19q-70 0 -110 -21l-82 -4q-16 29 -16 60zM25 1507q124 205 181.5 277.5t104.5 79.5q62 -36 113 -133l86 -156v-16q0 -48 14 -68q-18 -18 -43 -18q-12 0 -22 7t-20 22.5t-18 31.5l-21.5 43t-24.5 47 q0 30 -13.5 42.5t-48.5 12.5q-53 0 -73 -45l-50 -82q-18 -27 -32 -44t-25.5 -23t-17.5 -7.5t-17 0t-14 1.5q-43 0 -59 28z" />
<glyph unicode="&#xcf;" horiz-adv-x="659" d="M-18 27q0 56 49 71q20 -4 24 -4q119 0 119 383l2 101q0 62 4 90q-14 35 -14 120q0 163 41 234q4 4 4 10l-19 30q-20 30 -20 58q0 12 6 58t6 59q0 39 -23 59t-52 22.5t-61 6.5t-44 14q0 24 109 68q2 2 14 2q9 0 33 -11t30 -12h23q8 0 30 2t36 3q26 1 83.5 3.5t83.5 2.5 q150 0 150 -27q0 -17 -53 -42t-76 -25h-6q-47 -59 -47 -123q0 -34 8 -70l-14 -23q-7 -89 -7 -227q0 -35 1 -125t1 -143q0 -90 -8 -217t-8 -166q0 -53 25.5 -88t62.5 -35q7 0 27 4q49 -52 49 -80q0 -12 -2 -14q-20 -1 -40.5 -2.5t-36 -2.5l-31 -2t-27 -1.5t-21.5 -1t-16.5 -1 t-11.5 -1t-7 -0.5h-2q-43 0 -73.5 7t-32.5 7q-26 0 -41 -6h-19q-70 0 -110 -21l-82 -4q-16 29 -16 60zM100 1661q0 28 44.5 56t72.5 28q57 0 57 -78q0 -80 -59 -80q-3 0 -7 -0.5t-14 5.5q-24 14 -55 30q-39 17 -39 39zM328 1677q0 78 78 78q34 0 56.5 -27t22.5 -63 q0 -65 -65 -74q-3 0 -6 -1t-6 -1q-36 0 -58 26t-22 62z" />
<glyph unicode="&#xd0;" horiz-adv-x="1695" d="M-10 41q0 54 39 68q6 -3 18 -3q150 0 150 240q0 21 -3 59t-8.5 105t-9.5 127q-32 13 -70 16q-7 0 -34.5 -5t-34.5 -5q-22 0 -31.5 18t-9.5 37q0 21 46.5 36t85 19.5t50.5 4.5q-2 10 -2 26q0 17 8.5 33.5t18 27.5t10.5 13q-35 27 -35 74q0 8 2 36t2 36q0 32 -12 53 q6 53 6 94q0 97 -31 139l-82 25q-43 6 -58 15.5t-15 33.5q0 49 116 49q66 0 148 -10q88 0 358 22h39q65 0 88 -4q48 -7 99.5 -11.5t75 -7t62 -13t89.5 -31.5l190 -92q15 -27 86 -95q100 -96 135 -176t35 -225q0 -159 -50.5 -310t-127.5 -212q-8 -32 -104 -107t-131 -75 l-43 -37q-199 -56 -273 -56q-27 0 -45 4t-33.5 8.5t-77 8.5t-165.5 4q-90 0 -111 -6q-105 10 -166 10q-34 0 -88 -4q-38 -23 -63 -23q-43 0 -43 66zM387 1292q0 -7 4 -57q3 -24 5.5 -45.5t3.5 -30.5t1 -10q-4 -164 -4 -369q21 -24 95 -24q60 0 86 -7t31 -19t5 -44 q0 -45 -45 -45q-3 0 -57 9t-68 9h-8l-39 -18l6 -63q-14 -20 -14 -136q0 -199 25 -247v-5q0 -33 57 -68t132 -56t132 -21q11 0 28.5 4t39.5 9.5t33 7.5q91 8 184 66t156 142t71 164l2 11q17 56 17 90v12q32 43 32 149q0 105 -41 236q-20 57 -39.5 87.5t-51.5 62t-46 49.5 q0 29 -49 63l-76 49q-104 85 -264 105q-12 1 -45.5 2t-105 3.5t-138.5 4.5l-32 -12l-21 -39q-2 -2 -2 -19z" />
<glyph unicode="&#xd1;" horiz-adv-x="1691" d="M-10 1399q0 49 47 49l323 -27q51 -39 60 -61q15 -36 28 -52.5t32.5 -32.5t35.5 -36q12 -11 59.5 -78t65.5 -76q5 -3 9.5 -6t8 -5.5t8 -7.5t7 -8t7.5 -10l7.5 -10.5t9 -13.5t9 -15t10.5 -18.5t12 -19.5q28 -25 70.5 -70.5t125.5 -139t148 -165.5l98 -109q77 -83 115 -86 q41 0 41 316q0 49 -6 250t-6 235l-45 103q-38 65 -127 92l-10 33q3 10 34 10q11 0 73 -11.5t108 -11.5q27 0 98 7.5t84 7.5h14q15 -12 15 -33q0 -19 -17 -43h-10q-46 0 -87.5 -46.5t-41.5 -92.5q0 -4 1 -40t1 -69t-8 -430.5t-8 -464.5q0 -69 2.5 -115t5 -66t2.5 -26 q0 -69 -37 -69q-5 0 -10 3t-11 9.5t-11 13t-12 18t-12 20t-13.5 24t-14.5 24.5q-21 11 -41 49q0 -1 -10 13t-28 38.5t-41 54.5t-51 63t-55.5 62.5t-56.5 54.5t-53 38q-26 53 -233 283q-199 221 -252 258q-39 108 -92 108q-22 0 -32.5 -45.5t-10.5 -101.5q0 -18 6 -101 t6 -102q0 -55 -8 -82l1 -6q1 -6 1 -12q0 -10 -4 -64q14 -54 14 -162q0 -91 -2 -137.5t-5 -50t-5 -8.5t-2 -23q0 -32 42.5 -68t85 -62t42.5 -32q0 -15 -21 -30l-141 -9q-42 -3 -98 -3t-66 -1h-22h-44t-35.5 2t-31.5 6t-21.5 11t-15.5 19t-4 28q0 53 47 53q13 0 55 -10l51 -17 q30 17 58 62t33 82q6 63 6 362q0 663 -17 723q-15 64 -168 64q-9 0 -27.5 -1t-27.5 -1q-14 20 -14 45zM473 1597q0 46 33.5 80.5t78 50t89.5 15.5q31 0 145 -31q23 -29 39 -29q9 0 36.5 31.5t60 63.5t53.5 32q12 0 39 -10q49 -21 49 -82q0 -57 -47 -105t-129 -48 q-5 0 -23.5 -1t-29 0t-29 4.5t-39 14t-45.5 27.5q-16 10 -27.5 16.5t-20.5 12t-16 8.5t-10.5 5t-8.5 2.5t-6.5 0.5h-7.5h-8q-22 0 -43 -17t-34 -37.5t-27 -37.5t-25 -17q-23 0 -35 14.5t-12 36.5z" />
<glyph unicode="&#xd2;" d="M-4 621q6 41 6 94v39q12 36 18 96l11 96q0 1 18.5 34.5t18.5 45.5q10 15 40 61.5t43.5 66t42.5 58.5t51 60t54 48t67 45t74 30q26 0 126 27.5t120 27.5q32 0 51 -8q8 8 39 8l41 -6l123 -19q103 -18 149.5 -39t129.5 -92l108 -90q25 -25 50 -60t55 -90.5t48.5 -131 t18.5 -156.5q0 -178 -61 -340q-46 -115 -104 -183t-154 -141q3 0 -6 -6q-51 -35 -140 -69q-56 -23 -90 -25q-1 0 -14 -9.5t-28 -17.5t-25 -8q-12 0 -41 13q-4 0 -13 -1.5t-14 -1.5q-29 0 -119 5.5t-110 5.5l-43 28h-25l-42 12q-43 12 -84.5 31t-72.5 47q-96 23 -143 101 l-86 133v6q0 15 -27.5 73.5t-27.5 82.5q0 3 1 7t1 7q-6 6 -14 30.5t-14 48.5t-7 26zM229 721q0 -149 27 -176q11 -69 32 -125.5t40 -86t39 -58.5t26 -42q81 -81 103 -81l41 -33q101 -77 262 -80q92 0 185 43t116 119q116 110 139 241q25 22 25 267q0 62 -24.5 216.5 t-37.5 180.5q-168 268 -477 268q-109 0 -205 -39t-157 -108.5t-66 -153.5q-29 -20 -48.5 -125.5t-19.5 -226.5zM635 1845q0 45 51 45q38 0 92 -28q86 -101 94 -150q12 -10 20 -42.5t20 -58t36 -28.5l4 -6q5 -6 13 -16t15.5 -21t13 -21t5.5 -14q0 -3 -6 -6q-13 -16 -28 -16 q-24 0 -68 65q-9 14 -43.5 41t-40.5 33l-68 57q-49 39 -51 64q-59 56 -59 102z" />
<glyph unicode="&#xd3;" d="M-4 621q6 41 6 94v39q12 36 18 96l11 96q0 1 18.5 34.5t18.5 45.5q10 15 40 61.5t43.5 66t42.5 58.5t51 60t54 48t67 45t74 30q26 0 126 27.5t120 27.5q32 0 51 -8q8 8 39 8l41 -6l123 -19q103 -18 149.5 -39t129.5 -92l108 -90q25 -25 50 -60t55 -90.5t48.5 -131 t18.5 -156.5q0 -178 -61 -340q-46 -115 -104 -183t-154 -141q3 0 -6 -6q-51 -35 -140 -69q-56 -23 -90 -25q-1 0 -14 -9.5t-28 -17.5t-25 -8q-12 0 -41 13q-4 0 -13 -1.5t-14 -1.5q-29 0 -119 5.5t-110 5.5l-43 28h-25l-42 12q-43 12 -84.5 31t-72.5 47q-96 23 -143 101 l-86 133v6q0 15 -27.5 73.5t-27.5 82.5q0 3 1 7t1 7q-6 6 -14 30.5t-14 48.5t-7 26zM229 721q0 -149 27 -176q11 -69 32 -125.5t40 -86t39 -58.5t26 -42q81 -81 103 -81l41 -33q101 -77 262 -80q92 0 185 43t116 119q116 110 139 241q25 22 25 267q0 62 -24.5 216.5 t-37.5 180.5q-168 268 -477 268q-109 0 -205 -39t-157 -108.5t-66 -153.5q-29 -20 -48.5 -125.5t-19.5 -226.5zM578 1477q3 0 24 75q10 30 35 52l43 45q11 15 19 44t20 38q0 9 8.5 32t24.5 53t47.5 52t70.5 22q54 0 54 -45t-60 -102q-6 -26 -35 -55l-53 -48q-6 -6 -26 -23 t-39 -34.5t-37 -38.5l-29 -53q-21 -37 -39 -37q-7 0 -17.5 8t-10.5 17v-2z" />
<glyph unicode="&#xd4;" d="M-4 621q6 41 6 94v39q12 36 18 96l11 96q0 1 18.5 34.5t18.5 45.5q10 15 40 61.5t43.5 66t42.5 58.5t51 60t54 48t67 45t74 30q26 0 126 27.5t120 27.5q32 0 51 -8q8 8 39 8l41 -6l123 -19q103 -18 149.5 -39t129.5 -92l108 -90q25 -25 50 -60t55 -90.5t48.5 -131 t18.5 -156.5q0 -178 -61 -340q-46 -115 -104 -183t-154 -141q3 0 -6 -6q-51 -35 -140 -69q-56 -23 -90 -25q-1 0 -14 -9.5t-28 -17.5t-25 -8q-12 0 -41 13q-4 0 -13 -1.5t-14 -1.5q-29 0 -119 5.5t-110 5.5l-43 28h-25l-42 12q-43 12 -84.5 31t-72.5 47q-96 23 -143 101 l-86 133v6q0 15 -27.5 73.5t-27.5 82.5q0 3 1 7t1 7q-6 6 -14 30.5t-14 48.5t-7 26zM229 721q0 -149 27 -176q11 -69 32 -125.5t40 -86t39 -58.5t26 -42q81 -81 103 -81l41 -33q101 -77 262 -80q92 0 185 43t116 119q116 110 139 241q25 22 25 267q0 62 -24.5 216.5 t-37.5 180.5q-168 268 -477 268q-109 0 -205 -39t-157 -108.5t-66 -153.5q-29 -20 -48.5 -125.5t-19.5 -226.5zM455 1507q160 230 215.5 296t111.5 77q66 -34 131 -139l99 -164v-21q0 -48 16 -67q-19 -19 -47 -19q-18 0 -39 9l-86 149q0 58 -70 58q-61 0 -86 -48 q-26 -47 -50 -80.5t-39.5 -50t-32.5 -25t-24 -9.5t-20 0.5t-14 1.5q-48 0 -65 32z" />
<glyph unicode="&#xd5;" d="M-4 621q6 41 6 94v39q12 36 18 96l11 96q0 1 18.5 34.5t18.5 45.5q10 15 40 61.5t43.5 66t42.5 58.5t51 60t54 48t67 45t74 30q26 0 126 27.5t120 27.5q32 0 51 -8q8 8 39 8l41 -6l123 -19q103 -18 149.5 -39t129.5 -92l108 -90q25 -25 50 -60t55 -90.5t48.5 -131 t18.5 -156.5q0 -178 -61 -340q-46 -115 -104 -183t-154 -141q3 0 -6 -6q-51 -35 -140 -69q-56 -23 -90 -25q-1 0 -14 -9.5t-28 -17.5t-25 -8q-12 0 -41 13q-4 0 -13 -1.5t-14 -1.5q-29 0 -119 5.5t-110 5.5l-43 28h-25l-42 12q-43 12 -84.5 31t-72.5 47q-96 23 -143 101 l-86 133v6q0 15 -27.5 73.5t-27.5 82.5q0 3 1 7t1 7q-6 6 -14 30.5t-14 48.5t-7 26zM229 721q0 -149 27 -176q11 -69 32 -125.5t40 -86t39 -58.5t26 -42q81 -81 103 -81l41 -33q101 -77 262 -80q92 0 185 43t116 119q116 110 139 241q25 22 25 267q0 62 -24.5 216.5 t-37.5 180.5q-168 268 -477 268q-109 0 -205 -39t-157 -108.5t-66 -153.5q-29 -20 -48.5 -125.5t-19.5 -226.5zM385 1620q0 66 59.5 105.5t133.5 39.5q56 0 151 -32q21 -27 41 -27q9 0 36.5 32t59.5 63.5t52 31.5q13 0 40 -10q48 -22 48 -82q0 -58 -47 -106t-130 -48 q-5 0 -23.5 -1t-28.5 0t-28.5 4.5t-39 14t-45.5 27.5q-36 23 -56 33t-27 11t-22 1q-21 0 -41.5 -17t-33.5 -37t-28 -37t-26 -17q-45 0 -45 51z" />
<glyph unicode="&#xd6;" d="M-4 621q6 41 6 94v39q12 36 18 96l11 96q0 1 18.5 34.5t18.5 45.5q10 15 40 61.5t43.5 66t42.5 58.5t51 60t54 48t67 45t74 30q26 0 126 27.5t120 27.5q32 0 51 -8q8 8 39 8l41 -6l123 -19q103 -18 149.5 -39t129.5 -92l108 -90q25 -25 50 -60t55 -90.5t48.5 -131 t18.5 -156.5q0 -178 -61 -340q-46 -115 -104 -183t-154 -141q3 0 -6 -6q-51 -35 -140 -69q-56 -23 -90 -25q-1 0 -14 -9.5t-28 -17.5t-25 -8q-12 0 -41 13q-4 0 -13 -1.5t-14 -1.5q-29 0 -119 5.5t-110 5.5l-43 28h-25l-42 12q-43 12 -84.5 31t-72.5 47q-96 23 -143 101 l-86 133v6q0 15 -27.5 73.5t-27.5 82.5q0 3 1 7t1 7q-6 6 -14 30.5t-14 48.5t-7 26zM229 721q0 -149 27 -176q11 -69 32 -125.5t40 -86t39 -58.5t26 -42q81 -81 103 -81l41 -33q101 -77 262 -80q92 0 185 43t116 119q116 110 139 241q25 22 25 267q0 62 -24.5 216.5 t-37.5 180.5q-168 268 -477 268q-109 0 -205 -39t-157 -108.5t-66 -153.5q-29 -20 -48.5 -125.5t-19.5 -226.5zM569 1661q0 28 45.5 56t73.5 28q55 0 55 -78q0 -80 -59 -80l-20 4l-56 31q-23 12 -31.5 20t-7.5 19zM797 1677q0 78 77 78q35 0 58.5 -27t23.5 -63 q0 -65 -65 -74q-3 0 -7 -1t-7 -1q-36 0 -58 26t-22 62z" />
<glyph unicode="&#xd7;" horiz-adv-x="1245" d="M180 45q0 17 20 33.5t50 27.5q21 59 24 62l-2 -2q0 -4 7 -4q18 0 57 41q12 60 49 69l49 11v6q0 20 21 47l-95 106q-72 56 -114.5 110.5t-46.5 117.5l45 26q31 -24 286 -282l76 63q29 25 71.5 67t68 66t65 45t80.5 25l22 -45q-20 -33 -303 -301q218 -226 226 -244 q16 -28 61 -37q-18 -82 -53 -82q-16 0 -33.5 20t-28.5 48q-58 21 -61 24q0 -2 2 -2q4 0 4 7q0 21 -41 55q-20 4 -32 8t-23 14t-15 27l-12 49l-2 -1q-2 -1 -6 -1q-23 0 -68 39q-208 -196 -229 -205q-30 -13 -39 -61q-80 23 -80 53z" />
<glyph unicode="&#xd8;" d="M-4 621q6 41 6 94v39q12 36 18 96l11 96q0 1 18.5 34.5t18.5 45.5q10 15 40 61.5t43.5 66t42.5 58.5t51 60t54 48t67 45t74 30q26 0 126 27.5t120 27.5q32 0 51 -8q8 8 39 8l41 -6l123 -19l39 -6q3 1 45 55t55 54q29 0 29 -27q0 -22 -41 -106q58 -22 152 -101l108 -90 q25 -25 50 -60t55 -90.5t48.5 -131t18.5 -156.5q0 -178 -61 -340q-46 -115 -104 -183t-154 -141q3 0 -6 -6q-51 -35 -140 -69q-56 -23 -90 -25q-1 0 -14 -9.5t-28 -17.5t-25 -8q-12 0 -41 13q-4 0 -13 -1.5t-14 -1.5q-29 0 -119 5.5t-110 5.5l-43 28h-25q-39 17 -88 31 q-41 -93 -117 -123l-39 35q2 10 62 135l-17 12q-96 23 -143 101l-86 133v6q0 15 -27.5 73.5t-27.5 82.5q0 3 1 7t1 7q-6 6 -14 30.5t-14 48.5t-7 26zM229 721q0 -149 27 -176q7 -63 55.5 -172t81.5 -142q240 497 391 793q35 69 35 80q0 16 -2 22q26 41 94 187q20 3 29 18 q-101 43 -215 43q-109 0 -205 -39t-157 -108.5t-66 -153.5q-29 -20 -48.5 -125.5t-19.5 -226.5zM471 162q17 -10 23 -10h2l41 -33q101 -82 260 -82q91 0 185.5 43.5t117.5 120.5q116 110 139 241q25 22 25 267q0 62 -24.5 216.5t-37.5 180.5q-70 115 -192 190 q-48 -79 -74 -118q2 -4 2 -19q0 -30 -23 -73t-49 -64q0 -46 -41 -130t-85.5 -155t-45.5 -73q4 -6 8 -46q-63 -127 -106 -163q4 -16 4 -23q0 -61 -129 -270z" />
<glyph unicode="&#xd9;" horiz-adv-x="1837" d="M-20 1427q15 15 36 15q18 0 37 -8q100 36 111 36q1 0 8 -2q59 -41 115 -41q5 0 26 3h29q27 0 59 -7q45 10 125 13q38 1 85.5 11.5t56.5 10.5q24 0 41.5 -21t17.5 -48q0 -26 -16.5 -40t-63.5 -14h-18l-84 8q-44 -17 -47 -18q-11 -9 -11 -47v-33q0 -5 -2.5 -39t-5 -85 t-2.5 -97q0 -60 8.5 -161.5t8.5 -147.5q0 -83 -11 -187l6 -18v-14q0 -24 11 -35q4 -15 12 -48t14 -52t16.5 -45t26 -46t37.5 -37q19 -68 97 -123t186 -55q44 0 65 8q6 -2 29 -2q41 0 88.5 17.5t97 56t90 92t66 133t25.5 170.5q0 16 -2 78t-2 78v162q0 181 -5 201 q9 18 15 127q-16 10 -19 69q-4 89 -25 112t-89 23q-30 0 -43 -8q-34 0 -67.5 15t-33.5 38q0 9 11.5 24t29.5 15q13 0 25 -4l37 -12q36 -4 190 -4h230q0 2 -31 2q162 -3 176 -23q-3 -54 -94 -57q-121 -3 -176 -39q0 -23 3 -139t3 -146q0 -48 -13 -141q1 -15 15 -295 q0 -35 -2 -41q-5 -44 -10 -93.5t-5.5 -60t-8 -36.5t-15.5 -40.5t-31 -55.5q0 -61 -104 -140v-6q0 -15 -23 -35q-45 -33 -45 -35q-6 -8 -35 -22l-28 -14q-95 -77 -205 -80q-145 -3 -195 -23l-30 10l-97 13q-4 -4 -10 -4q-27 0 -93 37.5t-93 60.5l-103 102l-73 107 q-70 113 -70 217q0 11 5 258t5 317q0 205 -16 287q-2 1 -43 33q-151 0 -166 12zM584 1843q0 45 51 45q38 0 92 -28l8 -10q8 -9 21.5 -27t26.5 -37.5t24 -40.5t14 -35q16 -20 47 -78q49 -104 64 -104q2 0 2 2q2 -2 8 -23q18 -73 23 -73v2q0 -10 -7 -13q-9 -12 -22 -12 q-19 0 -37 37l-29 53l-108 117q-16 11 -57 47q-52 45 -62 76q-59 56 -59 102z" />
<glyph unicode="&#xda;" horiz-adv-x="1837" d="M-20 1427q15 15 36 15q18 0 37 -8q100 36 111 36q1 0 8 -2q59 -41 115 -41q5 0 26 3h29q27 0 59 -7q45 10 125 13q38 1 85.5 11.5t56.5 10.5q24 0 41.5 -21t17.5 -48q0 -26 -16.5 -40t-63.5 -14h-18l-84 8q-44 -17 -47 -18q-11 -9 -11 -47v-33q0 -5 -2.5 -39t-5 -85 t-2.5 -97q0 -60 8.5 -161.5t8.5 -147.5q0 -83 -11 -187l6 -18v-14q0 -24 11 -35q4 -15 12 -48t14 -52t16.5 -45t26 -46t37.5 -37q19 -68 97 -123t186 -55q44 0 65 8q6 -2 29 -2q41 0 88.5 17.5t97 56t90 92t66 133t25.5 170.5q0 16 -2 78t-2 78v162q0 181 -5 201 q9 18 15 127q-16 10 -19 69q-4 89 -25 112t-89 23q-30 0 -43 -8q-34 0 -67.5 15t-33.5 38q0 9 11.5 24t29.5 15q13 0 25 -4l37 -12q36 -4 190 -4h230q0 2 -31 2q162 -3 176 -23q-3 -54 -94 -57q-121 -3 -176 -39q0 -23 3 -139t3 -146q0 -48 -13 -141q1 -15 15 -295 q0 -35 -2 -41q-5 -44 -10 -93.5t-5.5 -60t-8 -36.5t-15.5 -40.5t-31 -55.5q0 -61 -104 -140v-6q0 -15 -23 -35q-45 -33 -45 -35q-6 -8 -35 -22l-28 -14q-95 -77 -205 -80q-145 -3 -195 -23l-30 10l-97 13q-4 -4 -10 -4q-27 0 -93 37.5t-93 60.5l-103 102l-73 107 q-70 113 -70 217q0 11 5 258t5 317q0 205 -16 287q-2 1 -43 33q-151 0 -166 12zM793 1473q3 0 24 73q10 29 35 51l43 45q11 14 19 44t20 38q5 28 29 68l45 61q44 21 84 21q65 0 65 -43q0 -35 -45 -74q-9 -35 -53 -65q-73 -59 -91.5 -75.5t-78.5 -76.5l-29 -55 q-21 -37 -39 -37q-6 0 -17 9t-11 18v-2z" />
<glyph unicode="&#xdb;" horiz-adv-x="1837" d="M-20 1427q15 15 36 15q18 0 37 -8q100 36 111 36q1 0 8 -2q59 -41 115 -41q5 0 26 3h29q27 0 59 -7q45 10 125 13q38 1 85.5 11.5t56.5 10.5q24 0 41.5 -21t17.5 -48q0 -26 -16.5 -40t-63.5 -14h-18l-84 8q-44 -17 -47 -18q-11 -9 -11 -47v-33q0 -5 -2.5 -39t-5 -85 t-2.5 -97q0 -60 8.5 -161.5t8.5 -147.5q0 -83 -11 -187l6 -18v-14q0 -24 11 -35q4 -15 12 -48t14 -52t16.5 -45t26 -46t37.5 -37q19 -68 97 -123t186 -55q44 0 65 8q6 -2 29 -2q41 0 88.5 17.5t97 56t90 92t66 133t25.5 170.5q0 16 -2 78t-2 78v162q0 181 -5 201 q9 18 15 127q-16 10 -19 69q-4 89 -25 112t-89 23q-30 0 -43 -8q-34 0 -67.5 15t-33.5 38q0 9 11.5 24t29.5 15q13 0 25 -4l37 -12q36 -4 190 -4h230q0 2 -31 2q162 -3 176 -23q-3 -54 -94 -57q-121 -3 -176 -39q0 -23 3 -139t3 -146q0 -48 -13 -141q1 -15 15 -295 q0 -35 -2 -41q-5 -44 -10 -93.5t-5.5 -60t-8 -36.5t-15.5 -40.5t-31 -55.5q0 -61 -104 -140v-6q0 -15 -23 -35q-45 -33 -45 -35q-6 -8 -35 -22l-28 -14q-95 -77 -205 -80q-145 -3 -195 -23l-30 10l-97 13q-4 -4 -10 -4q-27 0 -93 37.5t-93 60.5l-103 102l-73 107 q-70 113 -70 217q0 11 5 258t5 317q0 205 -16 287q-2 1 -43 33q-151 0 -166 12zM578 1507q160 230 215.5 296t111.5 77q66 -34 131 -139l99 -164v-2q0 -10 37 -37l36 -27q-20 -20 -90 -20q-15 0 -27.5 5.5t-26 20t-23.5 27t-29 39.5t-33 45q-44 109 -80 109q-23 0 -76 -99 q-26 -47 -50 -80.5t-39.5 -50t-32.5 -25t-24 -9.5t-20 0.5t-14 1.5q-48 0 -65 32z" />
<glyph unicode="&#xdc;" horiz-adv-x="1869" d="M16 1376q0 54 95 54q32 0 65 -11q6 2 29 2q14 0 45 -3t37 -3q8 0 51.5 6t77.5 6q170 0 170 -38q0 -29 -123 -70l-4 -4q-3 -20 -8.5 -59.5t-8.5 -53.5q-4 -28 -4 -37q0 -19 4 -47q-6 -18 -6 -346q0 -134 8 -147q-12 -79 -12 -154q0 -52 10 -117q10 -3 25 -43 q11 -31 21.5 -48t17.5 -21.5t19.5 -9.5t21.5 -11l14 -28q97 -54 238 -54q163 0 284 68q99 55 127.5 126.5t28.5 221.5q0 25 -1 89.5t-1 105.5q0 27 10 179.5t10 182.5q0 88 -16 131q6 12 6 25q0 31 -35.5 65t-68.5 39q-24 3 -27 55q20 39 60 39q20 0 34 -14h127 q67 33 136 33q110 0 110 -78q0 -61 -90 -82l-10.5 -24.5t-10.5 -26t-6.5 -22t-3.5 -25.5q0 -3 1 -9.5t1 -19.5q0 -5 -1 -53t-1 -90q0 -73 13 -80q-25 -59 -25 -264q0 -38 4 -87t4 -77q0 -31 -5 -96t-5 -80q0 -4 1 -12t1 -11l31 -88q15 -41 53 -41q12 0 16 2q5 -3 16.5 -8 t18.5 -9t15 -9t12 -11.5t4 -13.5q0 -34 -62.5 -78t-130.5 -59q-76 -113 -120 -113q-24 0 -56 61.5t-59.5 123t-42.5 61.5q-17 0 -62 -45l-69 -68q-24 -16 -116.5 -45.5t-106.5 -38.5q-72 0 -127 2l-35 -18q-256 70 -328 166q-34 43 -66 163t-32 263q0 88 28 139 q-18 124 -18 184q0 46 3 199t3 176l-5 10q-6 10 -11.5 19.5t-14.5 22t-16.5 22t-17 16t-17.5 6.5t-38.5 -6t-37.5 -6q-45 0 -45 49zM614 1661q0 28 45.5 56t73.5 28q55 0 55 -78q0 -80 -59 -80q-3 0 -7 -0.5t-14 5.5q-24 14 -55 30q-39 17 -39 39zM842 1677q0 78 78 78 q34 0 56.5 -27t22.5 -63q0 -65 -65 -74q-3 0 -6 -1t-6 -1q-36 0 -58 26t-22 62z" />
<glyph unicode="&#xdd;" horiz-adv-x="1300" d="M2 1368q0 33 63.5 48.5t135.5 15.5q41 0 57 -19l227 19h4q11 0 11 -17q0 -49 -33 -69h-27q-30 0 -46 -11.5t-22 -24.5t-10 -14l-2 -4q14 -73 93 -227l112 -223l10 -8q0 -30 17.5 -61.5t56.5 -31.5q34 0 78 144l68 180q47 125 47 164v6q20 9 20 27t-22 33.5t-48.5 25.5 t-48.5 27t-22 38q0 39 59 39q13 0 62 -9t55 -9q15 0 61.5 9t77.5 9h142q43 0 43 -53q0 -40 -41 -61q-4 0 -36.5 11t-41.5 11q-48 -11 -84.5 -45t-61 -83.5t-42 -98.5t-38 -107t-38.5 -92q-31 -62 -27 -63q8 -1 -123 -258l6 -277q0 -14 -3 -57.5t-3 -54.5q0 -44 23.5 -77.5 t64.5 -33.5q12 0 41.5 7t36.5 7q27 0 44 -14t17 -39q0 -59 -51 -59h-88q-43 26 -291 26q-11 0 -74 -16t-75 -16q-51 0 -51 43q0 26 15 44.5t38.5 27.5t44 12.5t39.5 3.5h29q15 0 20 7.5t9 41t8 100.5q0 16 1 25q13 3 13 20q0 5 -6.5 31t-6.5 33q0 3 1.5 8t1.5 10 q0 13 -4.5 43t-4.5 33t1 5t1 3l-6 117q-39 86 -61 137v8q0 17 -8 33l-27 10q-10 21 -28 58.5t-44.5 104.5t-29.5 95l-27 35q-5 15 -27 51q-3 4 -8 11t-18.5 25.5t-23.5 33.5t-18 31t-7 22q0 1 1 3t1 3q0 9 -2 11q-6 2 -11 13.5t-17.5 22t-37.5 13.5q-11 5 -29 11.5t-25 9.5 t-15.5 8.5t-11.5 12t-3 15.5zM563 1434q4 0 25 73q10 30 35 52q37 37 46 61.5t21 58.5t53 86l56 72q56 29 90 29q53 0 53 -45q0 -47 -59 -103q-9 -29 -54 -65q-74 -59 -91.5 -75t-78.5 -77l-28 -53q-21 -37 -39 -37q-7 0 -18 8t-11 17v-2z" />
<glyph unicode="&#xde;" horiz-adv-x="1116" d="M-6 39q21 37 104 61q58 17 72 48t14 133v301v2v7t0.5 13.5t0.5 19.5t1 25v553q15 27 15 45q0 39 -68 39h-100q-27 12 -27 47q0 56 37 56q7 0 26 -6.5t27 -6.5q13 0 15 2l49 11q19 0 49 -9.5t51 -9.5q22 0 103 7t112 7q111 0 111 -63v-10q-7 -11 -15 -11 q-103 0 -136.5 -14t-33.5 -57q1 -3 2.5 -26.5t4.5 -43.5l12 -74q34 -30 133 -30h131q58 -14 125 -51l115 -76q34 -22 50.5 -39t27.5 -50t13.5 -74.5t2.5 -121.5q0 -12 -39 -68l-70 -108l-32 -29q-19 -3 -72 -35q-85 -53 -158 -70.5t-205 -17.5q-1 0 -8.5 -8t-15.5 -17l-8 -9 q1 -13 1.5 -28.5t1 -26t1.5 -17.5q0 -17 2 -23q-4 -16 -4 -20q0 -27 18 -49.5t41 -22.5q8 0 10 2q6 -12 17 -12q2 0 22 6t31 6q20 0 30.5 -12t10.5 -31q0 -41 -49 -63h-111q-70 0 -108 4t-48 4q-2 0 -22 0.5t-36 0t-40.5 -1t-43 -2t-37 -4.5t-29 -8t-11.5 -12l-47 6z M403 719q0 -3 2.5 -4t2.5 -4l-2 -222l4 -12q2 -8 10 -24q3 -6 8.5 -20.5t7.5 -18.5l105 -33q20 -4 28 -4q30 0 72 19t85.5 54t74 96t30.5 134q-6 74 -18 123q-12 55 -99 124.5t-145 69.5q-3 0 -9 -1t-9 -1q-2 0 -10.5 4.5t-22.5 8.5t-29 4q-13 0 -37 -4t-30 -4l-14 -82 q-5 -45 -5 -107v-96z" />
<glyph unicode="&#xdf;" horiz-adv-x="1107" d="M-6 727q0 11 22 47l76 21q72 25 72 73q0 8 -6 42t-6 46q0 113 62 234t164.5 203t207.5 82q133 0 266 -121q6 -24 6 -41q45 -74 45 -148q0 -42 -36.5 -112t-72.5 -127.5t-36 -67.5v-5v-5.5t0.5 -6t2.5 -7t4.5 -8t7.5 -10t11 -11.5t15 -14.5t20 -16.5q59 -52 83 -114.5 t24 -182.5q0 -25 -2 -39q0 -3 -23.5 -39t-23.5 -45v-2q-35 -83 -109 -127q-2 2 -6 2q-11 0 -27 -16l-24 -25q-99 -51 -168 -51q-40 8 -49 8q-10 0 -19 -1.5t-12.5 -2.5t-3.5 0h2q-13 21 -30 36t-24.5 27t-7.5 36q0 75 76 75q26 0 43 -9.5t36 -28t32 -27.5l30 -21 q62 21 118.5 97t56.5 147q0 53 -33 92q-3 16 -37 60t-51 51l-56 28l-53 7q-33 6 -33 36q0 19 19 62l18 16q54 7 100 59.5t68.5 110.5t22.5 99q0 12 -14 53.5t-36 90.5t-55 86.5t-65 37.5h-10q-111 0 -131.5 -9t-36.5 -65q-3 -10 -5 -16q-45 -39 -51 -109q-10 -17 -10 -1063 q20 -26 47 -26q5 0 21 2t20 2q45 0 45 -39q0 -20 -19 -37.5t-40 -17.5q-15 0 -25 10q-18 -2 -69 -2q-43 0 -85.5 1t-73 2t-54.5 2t-38.5 2t-15.5 1q-2 3 -9.5 4.5t-20 15.5t-27.5 48q19 32 41 32q46 0 73.5 27.5t36.5 74t11 93.5t3.5 99.5t8.5 78.5q-25 67 -25 111 q0 9 3.5 24t3.5 23q0 39 -25 57t-55 18.5t-55 4.5t-25 18z" />
<glyph unicode="&#xe0;" horiz-adv-x="833" d="M-23 141q0 92 97 189q7 0 125 37l141 43q4 0 7 -1l3 -1q36 0 58 58t22 146q0 100 -38 141.5t-111 41.5q-27 0 -45 -9q-16 -6 -52 -56t-75.5 -97.5t-65.5 -50.5q-23 23 -23 57q0 51 39 96q20 8 54 45q51 56 113.5 82.5t111.5 26.5q59 0 172 -39q88 -107 88 -283 q0 -16 -11.5 -158t-11.5 -196q0 -32 15 -52t28 -20q8 0 29 30t29 30l22 -8q21 -49 21 -93q0 -81 -94 -96l-138 -8l-10 7q-83 65 -102 65q-1 0 -3 -1t-5 -2t-5 -2q-82 -55 -151 -55h-25q-10 2 -26 2q-37 0 -74 -6q-109 44 -109 137zM166 215q0 -38 39.5 -74.5t79.5 -36.5 q3 0 6 1t6 1q20 -4 27 -4q37 0 64.5 37t27.5 80v14q10 23 10 35q0 36 -28 60t-70 24q-46 0 -104 -38.5t-58 -98.5zM170 1532q0 45 53 45q39 0 92 -27q87 -100 95 -151q11 -9 15 -20t5 -22t15 -33t42 -48q31 -31 40.5 -63t9.5 -47t8 -15v2q0 -9 -6 -12q-10 -13 -23 -13 q-19 0 -37 37l-28 54q-7 9 -51.5 47t-47.5 41l-14 10q-13 10 -29.5 24t-34 30t-30 33t-13.5 28q-61 52 -61 100z" />
<glyph unicode="&#xe1;" horiz-adv-x="833" d="M-23 141q0 92 97 189q7 0 125 37l141 43q4 0 7 -1l3 -1q36 0 58 58t22 146q0 100 -38 141.5t-111 41.5q-27 0 -45 -9q-16 -6 -52 -56t-75.5 -97.5t-65.5 -50.5q-23 23 -23 57q0 51 39 96q20 8 54 45q51 56 113.5 82.5t111.5 26.5q59 0 172 -39q88 -107 88 -283 q0 -16 -11.5 -158t-11.5 -196q0 -32 15 -52t28 -20q8 0 29 30t29 30l22 -8q21 -49 21 -93q0 -81 -94 -96l-138 -8l-10 7q-83 65 -102 65q-1 0 -3 -1t-5 -2t-5 -2q-82 -55 -151 -55h-25q-10 2 -26 2q-37 0 -74 -6q-109 44 -109 137zM166 215q0 -38 39.5 -74.5t79.5 -36.5 q3 0 6 1t6 1q20 -4 27 -4q37 0 64.5 37t27.5 80v14q10 23 10 35q0 36 -28 60t-70 24q-46 0 -104 -38.5t-58 -98.5zM236 1094q7 0 8.5 10t1.5 25t11.5 40.5t35.5 49.5q30 30 42.5 52t14 36t17.5 45t49 73q25 31 42.5 50t28 29.5t26 14.5t21 4.5t27.5 0.5q51 0 51 -45 q0 -48 -59 -101q-5 -31 -51 -65q-80 -64 -98 -79.5t-74 -72.5l-27 -53q-19 -37 -39 -37q-7 0 -17.5 7.5t-10.5 17.5v-2z" />
<glyph unicode="&#xe2;" horiz-adv-x="833" d="M-23 141q0 92 97 189q7 0 125 37l141 43q4 0 7 -1l3 -1q36 0 58 58t22 146q0 100 -38 141.5t-111 41.5q-27 0 -45 -9q-16 -6 -52 -56t-75.5 -97.5t-65.5 -50.5q-23 23 -23 57q0 51 39 96q20 8 54 45q51 56 113.5 82.5t111.5 26.5q59 0 172 -39q88 -107 88 -283 q0 -16 -11.5 -158t-11.5 -196q0 -32 15 -52t28 -20q8 0 29 30t29 30l22 -8q21 -49 21 -93q0 -81 -94 -96l-138 -8l-10 7q-83 65 -102 65q-1 0 -3 -1t-5 -2t-5 -2q-82 -55 -151 -55h-25q-10 2 -26 2q-37 0 -74 -6q-109 44 -109 137zM70 1102q140 282 184 356t92 90 q54 -41 111 -168l84 -194v-19q0 -63 14 -88q-19 -22 -43 -22q-20 0 -34 22t-34 79.5t-34 88.5q0 68 -60 68q-53 0 -74 -55q-20 -57 -40 -97t-33 -60t-28 -30.5t-21 -11.5t-17 0.5t-12 1.5q-41 0 -55 39zM166 215q0 -38 39.5 -74.5t79.5 -36.5q3 0 6 1t6 1q20 -4 27 -4 q37 0 64.5 37t27.5 80v14q10 23 10 35q0 36 -28 60t-70 24q-46 0 -104 -38.5t-58 -98.5z" />
<glyph unicode="&#xe3;" horiz-adv-x="833" d="M-23 141q0 92 97 189q7 0 125 37l141 43q4 0 7 -1l3 -1q36 0 58 58t22 146q0 100 -38 141.5t-111 41.5q-27 0 -45 -9q-16 -6 -52 -56t-75.5 -97.5t-65.5 -50.5q-23 23 -23 57q0 51 39 96q20 8 54 45q51 56 113.5 82.5t111.5 26.5q59 0 172 -39q88 -107 88 -283 q0 -16 -11.5 -158t-11.5 -196q0 -32 15 -52t28 -20q8 0 29 30t29 30l22 -8q21 -49 21 -93q0 -81 -94 -96l-138 -8l-10 7q-83 65 -102 65q-1 0 -3 -1t-5 -2t-5 -2q-82 -55 -151 -55h-25q-10 2 -26 2q-37 0 -74 -6q-109 44 -109 137zM27 1194q0 70 60 108.5t144 38.5 q30 0 142 -32q23 -29 39 -29q10 0 37 32t59 64.5t53 32.5q18 0 39 -12q47 -18 47 -82q0 -58 -47.5 -106t-130.5 -48q-5 0 -23 -1t-28 0t-28 4.5t-38 14t-45 27.5q-20 13 -34.5 21.5t-22.5 13.5t-17 7.5t-11 3t-10.5 0t-10.5 -0.5q-22 0 -43 -16.5t-33.5 -36.5t-27 -36.5 t-25.5 -16.5q-45 0 -45 49zM166 215q0 -38 39.5 -74.5t79.5 -36.5q3 0 6 1t6 1q20 -4 27 -4q37 0 64.5 37t27.5 80v14q10 23 10 35q0 36 -28 60t-70 24q-46 0 -104 -38.5t-58 -98.5z" />
<glyph unicode="&#xe4;" horiz-adv-x="833" d="M-23 141q0 92 97 189q7 0 125 37l141 43q4 0 7 -1l3 -1q36 0 58 58t22 146q0 100 -38 141.5t-111 41.5q-27 0 -45 -9q-16 -6 -52 -56t-75.5 -97.5t-65.5 -50.5q-23 23 -23 57q0 51 39 96q20 8 54 45q51 56 113.5 82.5t111.5 26.5q59 0 172 -39q88 -107 88 -283 q0 -16 -11.5 -158t-11.5 -196q0 -32 15 -52t28 -20q8 0 29 30t29 30l22 -8q21 -49 21 -93q0 -81 -94 -96l-138 -8l-10 7q-83 65 -102 65q-1 0 -3 -1t-5 -2t-5 -2q-82 -55 -151 -55h-25q-10 2 -26 2q-37 0 -74 -6q-109 44 -109 137zM145 1192q0 28 43 61t70 33 q28 0 44.5 -24.5t16.5 -61.5q0 -74 -55 -74q-3 0 -7 1t-7 1l-66 25q-36 16 -39 39zM166 215q0 -38 39.5 -74.5t79.5 -36.5q3 0 6 1t6 1q20 -4 27 -4q37 0 64.5 37t27.5 80v14q10 23 10 35q0 36 -28 60t-70 24q-46 0 -104 -38.5t-58 -98.5zM369 1245q0 32 24 55t56 23 t56.5 -28t24.5 -64q0 -74 -79 -74q-34 0 -58 27t-24 61z" />
<glyph unicode="&#xe5;" horiz-adv-x="833" d="M-23 141q0 92 97 189q7 0 125 37l141 43q4 0 7 -1l3 -1q36 0 58 58t22 146q0 100 -38 141.5t-111 41.5q-27 0 -45 -9q-16 -6 -52 -56t-75.5 -97.5t-65.5 -50.5q-23 23 -23 57q0 51 39 96q20 8 54 45q51 56 113.5 82.5t111.5 26.5q59 0 172 -39q88 -107 88 -283 q0 -16 -11.5 -158t-11.5 -196q0 -32 15 -52t28 -20q8 0 29 30t29 30l22 -8q21 -49 21 -93q0 -81 -94 -96l-138 -8l-10 7q-83 65 -102 65q-1 0 -3 -1t-5 -2t-5 -2q-82 -55 -151 -55h-25q-10 2 -26 2q-37 0 -74 -6q-109 44 -109 137zM139 1284q0 11 10.5 63t10.5 66v8 q43 69 90.5 100t118.5 31q90 0 151.5 -58.5t61.5 -154.5q0 -42 -0.5 -62t-3.5 -35.5t-5 -19.5t-10 -17.5t-14 -24.5l-92 -78q-5 -5 -46.5 -12.5t-43.5 -8.5q-95 22 -134 45q-31 22 -62.5 68t-31.5 90zM166 215q0 -38 39.5 -74.5t79.5 -36.5q3 0 6 1t6 1q20 -4 27 -4 q37 0 64.5 37t27.5 80v14q10 23 10 35q0 36 -28 60t-70 24q-46 0 -104 -38.5t-58 -98.5zM246 1305q0 -26 15.5 -47.5t37 -38t25.5 -21.5q27 0 39.5 0.5t36 6t35.5 16t22 32.5t10 54q0 69 -27 104l-20 12q-44 29 -76 29q-38 0 -68 -41.5t-30 -105.5z" />
<glyph unicode="&#xe6;" horiz-adv-x="1249" d="M-18 137q10 13 12 29t1.5 28t15.5 31.5t52 42.5l74 47q82 9 131 45q52 0 111 35t84 80q0 188 -41 209q-9 91 -135 100l-17 -8q-27 -3 -55.5 -33.5t-48.5 -64.5t-48.5 -62t-56.5 -28q-30 21 -30 59q0 67 92 150q11 2 58.5 30.5t103 55t88.5 26.5q41 0 112 -41 q41 -24 61.5 -51t22.5 -44.5t8 -29.5t23 -12q8 0 14.5 6.5t9.5 13t8 19.5t7 18q12 24 79 64.5t116 56.5q14 -2 40 -2q18 0 36.5 0.5t32.5 1t25.5 1t17.5 0.5l7 1q65 0 85 -39.5t20 -154.5q0 -34 -55 -66t-109.5 -51t-54.5 -20q4 0 -6 -4q-8 -3 -36 -12q-126 -43 -137 -58 q-24 -8 -31 -9.5t-19 -10.5t-13 -12t-5 -21t-3.5 -30t0.5 -46v-88q0 -80 67.5 -134.5t161.5 -54.5q151 0 160 117q22 31 43 31q37 0 37 -64q0 -59 -60 -109.5t-139 -77t-147 -26.5q-184 0 -252 135h-31q-136 -136 -346 -151q-87 62 -112 93.5t-29 88.5zM184 168 q0 -66 90 -66q34 0 97 17l37 46q36 40 43 40q0 17 2 33v43q0 69 -35 69l-3 -1q-3 -1 -7 -1q-102 -28 -163 -79.5t-61 -100.5zM610 612q0 -51 72 -51q27 0 33 19q21 17 77.5 38.5t97 42.5t40.5 44q0 30 -42.5 66t-74.5 36q-62 0 -132.5 -68.5t-70.5 -126.5z" />
<glyph unicode="&#xe7;" horiz-adv-x="933" d="M-2 354q0 49 16 111q-4 28 -4 39q0 61 38.5 131.5t96.5 127t131 94.5t138 38q14 0 91.5 -9.5t144.5 -17t65 -4.5q73 -67 73 -112q0 -18 -6 -31t-15 -19.5t-24.5 -10t-27.5 -4t-32.5 -1.5t-31.5 -2q-32 10 -76 36t-63 56q-4 5 -7 9t-5.5 7.5t-6.5 5.5t-6.5 4t-8.5 3 l-9 1.5t-11.5 0.5h-13h-17h-19.5h-52q-174 -146 -174 -340q0 -69 29 -227q74 -91 130 -122.5t148 -31.5q22 0 41 16q6 -2 31 -2q58 0 80 60l25 94q16 31 47 31q26 0 47.5 -19.5t21.5 -44.5q0 -30 -40.5 -73.5t-80 -72.5t-61.5 -40q-5 -24 -139 -182l6 -58q16 -40 16 -69 q0 -69 -72 -124t-155 -55q-100 0 -100 78q0 3 4 31q-8 8 -8 27q0 24 27 47.5t54 23.5q35 0 35 -65q0 -14 -4 -28t-4 -17q0 -27 19 -27q44 0 69 25.5t25 68.5t-21 96l-18 31q13 14 59 67t78 87q-27 -6 -55 -6q-172 0 -295 104t-123 264z" />
<glyph unicode="&#xe8;" horiz-adv-x="888" d="M-6 406q0 17 2 36t4 34.5t7.5 39.5t8.5 37t11 41.5t11 38.5t13 42t12 40q24 24 107 90q52 36 145.5 64t159.5 28q56 0 94 -23q13 0 36.5 -9t52.5 -29.5t54.5 -48t42.5 -69t17 -87.5q0 -24 -24 -33l-95 -25q-75 19 -188 19q-46 0 -93.5 -1t-78 -2t-33.5 -1q-5 8 -18 8 q-23 0 -66 -29q-8 -145 -8 -170q0 -78 21.5 -134.5t60 -86.5t82 -43.5t96.5 -13.5q77 0 133 39q23 0 96 65.5t88 65.5q48 0 48 -62q0 -14 -11 -32q-45 -56 -73 -85t-73 -62t-99 -46.5t-125 -13.5q-14 0 -49.5 1t-65 2t-31.5 1q-214 102 -241 215q0 18 -19 67q-12 76 -12 132 zM170 1532q0 45 53 45q42 0 57 -8q29 -15 89 -90q17 -20 26 -34t13 -24t20.5 -38.5t42.5 -69.5l64 -99q9 -9 29.5 -45t35 -69t8.5 -33q0 -11 -8 -14q-9 -9 -18 -9q-37 0 -76.5 47t-132.5 184q-15 22 -23 34l-12 9q-11 10 -28 24.5t-34.5 30.5t-30 32.5t-14.5 26.5 q-61 52 -61 100zM246 702q0 -25 16.5 -44t44.5 -19q113 0 194 24t81 54q0 11 -17 35q-59 65 -104 65q-31 -4 -70 -22q-28 -15 -70.5 -27t-58.5 -24t-16 -42z" />
<glyph unicode="&#xe9;" horiz-adv-x="901" d="M2 379q0 53 14 94v14q0 97 55 188t143 151t185 73q22 -11 60 -14h61q88 0 166 -94v-5q0 -20 43 -57q0 -8 5 -45t5 -49q0 -55 -41 -76q-38 14 -118 14q-22 0 -132 -6t-135 -6q-49 0 -86 6l-28 -20q-15 -50 -15 -103l4 -41l13 -122q102 -193 272 -193q56 0 96 16.5t59 41 t31 49.5t20 45t17 24l25 -4q27 -27 27 -67q0 -89 -125 -187l-54 -10q-29 -9 -45 -25h-20q-27 0 -96.5 -7t-79.5 -7q-85 0 -162 68t-120.5 165.5t-43.5 188.5zM201 637l26 -29q28 -4 80 -4q246 0 246 66q0 2 -4 18q2 6 2 23q0 84 -125 84q-92 0 -158.5 -47.5t-66.5 -110.5z M236 1094q7 0 8.5 10t1.5 25t11.5 40.5t35.5 49.5q30 30 42.5 52t14 36t17.5 45t49 73q25 31 42.5 50t28 29.5t26 14.5t21 4.5t27.5 0.5q51 0 51 -45q0 -48 -59 -101q-5 -31 -51 -65q-80 -64 -98 -79.5t-74 -72.5l-27 -53q-19 -37 -39 -37q-7 0 -17.5 7.5t-10.5 17.5v-2z " />
<glyph unicode="&#xea;" horiz-adv-x="901" d="M2 379q0 53 14 94v14q0 97 55 188t143 151t185 73q22 -11 60 -14h61q88 0 166 -94v-5q0 -20 43 -57q0 -8 5 -45t5 -49q0 -55 -41 -76q-38 14 -118 14q-22 0 -132 -6t-135 -6q-49 0 -86 6l-28 -20q-15 -50 -15 -103l4 -41l13 -122q102 -193 272 -193q56 0 96 16.5t59 41 t31 49.5t20 45t17 24l25 -4q27 -27 27 -67q0 -89 -125 -187l-54 -10q-29 -9 -45 -25h-20q-27 0 -96.5 -7t-79.5 -7q-85 0 -162 68t-120.5 165.5t-43.5 188.5zM137 1102q123 260 176.5 347t100.5 99q59 -45 110 -168l82 -194v-19q0 -61 15 -88q-19 -22 -41 -22q-12 0 -23 9 t-21.5 30.5t-17.5 39.5t-20 54t-21 57q0 36 -13.5 52t-47.5 16q-51 0 -72 -55q-18 -48 -35 -85t-31 -57.5t-25 -34t-21.5 -17.5t-16.5 -5t-13.5 0.5t-8.5 1.5q-42 0 -56 39zM201 637l26 -29q28 -4 80 -4q246 0 246 66q0 2 -4 18q2 6 2 23q0 84 -125 84q-92 0 -158.5 -47.5 t-66.5 -110.5z" />
<glyph unicode="&#xeb;" horiz-adv-x="901" d="M2 379q0 53 14 94v14q0 97 55 188t143 151t185 73q22 -11 60 -14h61q88 0 166 -94v-5q0 -20 43 -57q0 -8 5 -45t5 -49q0 -55 -41 -76q-38 14 -118 14q-22 0 -132 -6t-135 -6q-49 0 -86 6l-28 -20q-15 -50 -15 -103l4 -41l13 -122q102 -193 272 -193q56 0 96 16.5t59 41 t31 49.5t20 45t17 24l25 -4q27 -27 27 -67q0 -89 -125 -187l-54 -10q-29 -9 -45 -25h-20q-27 0 -96.5 -7t-79.5 -7q-85 0 -162 68t-120.5 165.5t-43.5 188.5zM201 637l26 -29q28 -4 80 -4q246 0 246 66q0 2 -4 18q2 6 2 23q0 84 -125 84q-92 0 -158.5 -47.5t-66.5 -110.5z M254 1237q0 24 44 48t77 24q55 0 55 -70q0 -36 -18.5 -62t-44.5 -26q-14 0 -29 6q-84 55 -84 80zM481 1210q0 82 76 82q82 0 82 -88q0 -78 -76 -78q-82 0 -82 84z" />
<glyph unicode="&#xec;" horiz-adv-x="583" d="M27 1499q0 45 53 45q41 0 92 -26q0 2 26 -36t52 -80t26 -48q-2 -2 -2 -6v-2v2q0 -6 13 -25l45 -47q27 -30 37.5 -62t11.5 -47.5t8 -15.5v2q0 -9 -8 -12q-10 -13 -21 -13q-20 0 -38 37l-29 54q-8 14 -43.5 31.5t-40.5 23.5l-13 10q-14 10 -30.5 24t-34 30t-30 33t-13.5 28 q-61 52 -61 100zM39 47q0 9 7.5 15t26 10.5t27.5 6t35 5.5q39 45 39 272q0 28 -12 338l-53 27q-37 23 -37 59q0 46 90 58q109 15 131 34q32 -6 45 -28q0 -2 -1 -8.5t-1 -12.5q0 -27 6 -88q-10 -30 -10 -514q0 -30 -0.5 -40t2 -29.5t1.5 -22.5t5 -16l7 -13l13 -10 q12 -10 15 -11.5t22 -12.5h13q39 0 39 -46q0 -38 -27 -38q-7 0 -35 11t-35 11q-82 4 -112 4q-118 0 -177 -24q-24 9 -24 63z" />
<glyph unicode="&#xed;" horiz-adv-x="583" d="M35 1094q7 0 8.5 10.5t1 26t11 40.5t36.5 48q37 34 46.5 60t21.5 61.5t53 84.5q39 49 62.5 70.5t36 25t37.5 3.5h9q54 0 54 -45q0 -47 -60 -101q-5 -31 -51 -65q-33 -25 -50.5 -38.5t-35 -29t-23 -20.5t-28 -28t-35.5 -36l-29 -53q-21 -37 -37 -37q-8 0 -18 7.5t-10 17.5 v-2zM39 47q0 9 7.5 15t26 10.5t27.5 6t35 5.5q39 45 39 272q0 28 -12 338l-53 27q-37 23 -37 59q0 46 90 58q109 15 131 34q32 -6 45 -28q0 -2 -1 -8.5t-1 -12.5q0 -27 6 -88q-10 -30 -10 -514q0 -30 -0.5 -40t2 -29.5t1.5 -22.5t5 -16l7 -13l13 -10q12 -10 15 -11.5 t22 -12.5h13q39 0 39 -46q0 -38 -27 -38q-7 0 -35 11t-35 11q-82 4 -112 4q-118 0 -177 -24q-24 9 -24 63z" />
<glyph unicode="&#xee;" horiz-adv-x="583" d="M35 1104q103 279 135.5 350.5t69.5 85.5q43 -43 82 -164l61 -190q0 -76 12 -103q-16 -22 -33 -22q-9 0 -17 9t-15.5 30.5t-13 39t-14.5 52t-15 53.5q0 68 -45 68q-39 0 -54 -56q-11 -42 -22.5 -75t-20.5 -53t-17.5 -34t-16 -20.5t-13 -9t-10.5 -2.5t-8 1t-4 1 q-29 0 -41 39zM39 47q0 9 7.5 15t26 10.5t27.5 6t35 5.5q39 45 39 272q0 28 -12 338l-53 27q-37 23 -37 59q0 46 90 58q109 15 131 34q32 -6 45 -28q0 -2 -1 -8.5t-1 -12.5q0 -27 6 -88q-10 -30 -10 -514q0 -30 -0.5 -40t2 -29.5t1.5 -22.5t5 -16l7 -13l13 -10 q12 -10 15 -11.5t22 -12.5h13q39 0 39 -46q0 -38 -27 -38q-7 0 -35 11t-35 11q-82 4 -112 4q-118 0 -177 -24q-24 9 -24 63z" />
<glyph unicode="&#xef;" horiz-adv-x="583" d="M33 1212q0 27 46 56.5t73 29.5q55 0 55 -77q0 -80 -60 -80q-14 0 -18 2l-57 31q-39 20 -39 38zM39 47q0 9 7.5 15t26 10.5t27.5 6t35 5.5q39 45 39 272q0 28 -12 338l-53 27q-37 23 -37 59q0 46 90 58q109 15 131 34q32 -6 45 -28q0 -2 -1 -8.5t-1 -12.5q0 -27 6 -88 q-10 -30 -10 -514q0 -30 -0.5 -40t2 -29.5t1.5 -22.5t5 -16l7 -13l13 -10q12 -10 15 -11.5t22 -12.5h13q39 0 39 -46q0 -38 -27 -38q-7 0 -35 11t-35 11q-82 4 -112 4q-118 0 -177 -24q-24 9 -24 63zM260 1229q0 36 21 57t61 21q34 0 55 -25.5t21 -62.5q0 -67 -66 -76h-10 q-36 0 -59 25t-23 61z" />
<glyph unicode="&#xf0;" horiz-adv-x="1017" d="M0 1376q0 66 61 66q16 0 31 -6q4 2 21 2q43 0 102 -27q12 -6 27 -6t32 2.5t28 5t13 2.5q12 -2 66 -26l72 -37q53 18 102 41t76 35t45 12q45 0 45 -51q0 -34 -41.5 -57.5t-90 -36.5t-52.5 -17q42 -27 71.5 -67.5t77 -120t96.5 -146.5q23 -72 57.5 -235.5t34.5 -192.5 q0 -157 -69 -287q-36 -70 -57 -103.5t-59 -63.5t-83 -47t-131 -40l-26 7q-44 -7 -72 -7q-168 0 -307 189q-9 3 -24 40t-15 48q0 15 -12.5 60.5t-12.5 58.5q0 41 31 180q18 18 67 108q27 51 62 95t55 62t23 18q27 0 174 32l219 -45q-47 216 -221 387q-163 -80 -211 -80 q-37 0 -37 21q0 15 42.5 45.5t72.5 38.5q27 27 51 43l-39 22q-9 15 -45 21q-30 3 -67 22t-64 19q-2 0 -14 -7t-30.5 -14.5t-35.5 -7.5q-39 0 -39 45zM152 506q0 -81 17 -154.5t42 -120t51 -73.5t45 -27q3 -3 24 -21t28.5 -24t23.5 -17.5t28 -15.5t23 -4q32 0 139 43 q3 12 50 81t59 81q3 32 7 99.5t7 99.5q-5 35 -10 88l-4 28q-14 54 -57.5 99.5t-96.5 71t-100.5 39.5t-77.5 14q-93 0 -145.5 -78t-52.5 -209z" />
<glyph unicode="&#xf1;" horiz-adv-x="1103" d="M6 0q0 27 21 70q2 -2 12 -2q51 0 76 63q0 -4 6 104t12 240t6 187q0 31 -6.5 50t-16.5 26t-19.5 11.5t-16 11.5t-6.5 21t46 42t90.5 49.5t47.5 21.5l64 16q26 -14 26 -39q0 -8 -6 -31t-6 -28q0 -22 20 -33q143 82 297 82q61 0 88.5 -11t87.5 -54q13 -10 21 -15 q31 -68 31 -221v-235q0 -3 1 -10t1 -11q0 -19 -3 -57.5t-3 -44.5q0 -125 65 -125q17 0 23 2l24 -10q6 -15 6 -39q0 -19 -2 -33q-49 -14 -125 -14q-16 0 -118 8t-136 8h-26q-4 28 -4 35q0 33 32 39q68 12 81.5 24.5t13.5 61.5q0 1 0.5 15.5t1 40t1 59t1 83.5t0.5 103 q0 69 -4 155q-5 56 -70.5 109t-132.5 53q-16 0 -28 -2t-29 -9t-26.5 -12t-39 -21.5t-47.5 -26.5q-45 -26 -45 -367q0 -193 16 -231q7 -20 28 -29t40.5 -12t37.5 -22.5t21 -57.5q-40 0 -117 -6q-30 10 -47 10q-16 0 -59 -15q-197 0 -207 23zM160 1194q0 66 62 106.5t145 40.5 q27 0 139 -32q23 -29 39 -29q10 0 37 32t59 64.5t53 32.5q20 0 41 -12q47 -18 47 -82q0 -58 -48 -106t-132 -48q-5 0 -22.5 -1t-27.5 0t-28 4.5t-38.5 14t-45.5 27.5q-18 13 -33 22t-23.5 13.5t-17.5 7t-11.5 3t-10 0t-8.5 -0.5q-22 0 -43 -16.5t-34 -36.5t-27 -36.5 t-25 -16.5q-47 0 -47 49z" />
<glyph unicode="&#xf2;" horiz-adv-x="1032" d="M-6 418q0 119 63 211l4 20q41 43 127 150l121 45q50 16 97 16q87 0 158 -10t93 -19q21 -9 142 -112q16 -28 71 -148q0 -35 19 -116q2 -14 2 -37q0 -84 -29.5 -138t-167.5 -235q-7 -2 -57.5 -25.5t-102.5 -42t-83 -18.5q-29 0 -60 4t-55 10.5t-43 12.5t-30.5 10t-12.5 4 q-7 9 -31 24.5t-50 30t-30 17.5q-2 4 -27 35.5t-46.5 69.5t-24.5 71q-47 77 -47 170zM170 381q0 -124 46.5 -206t133.5 -105l10 -15q46 -18 93 -18q113 0 181 83t68 212q0 45 -1.5 85t-2.5 55t0 15q4 16 4 27q0 59 -51 133q-98 148 -223 148q-71 0 -131 -59.5t-93.5 -154.5 t-33.5 -200zM170 1532q0 45 53 45q42 0 57 -8q29 -15 89 -90q19 -26 27 -41t22 -44t39 -71q28 -66 38.5 -81t53.5 -54q24 -24 35.5 -49.5t11.5 -40.5t1.5 -25t8.5 -10v2q0 -9 -6 -12q-13 -13 -22 -13q-19 0 -37 37l-29 53l-162 179l-12 9q-11 10 -28 24.5t-34.5 30.5 t-30 32.5t-14.5 26.5q-61 52 -61 100z" />
<glyph unicode="&#xf3;" horiz-adv-x="1032" d="M-6 418q0 119 63 211l4 20q41 43 127 150l121 45q50 16 97 16q87 0 158 -10t93 -19q21 -9 142 -112q16 -28 71 -148q0 -35 19 -116q2 -14 2 -37q0 -84 -29.5 -138t-167.5 -235q-7 -2 -57.5 -25.5t-102.5 -42t-83 -18.5q-29 0 -60 4t-55 10.5t-43 12.5t-30.5 10t-12.5 4 q-7 9 -31 24.5t-50 30t-30 17.5q-2 4 -27 35.5t-46.5 69.5t-24.5 71q-47 77 -47 170zM170 381q0 -124 46.5 -206t133.5 -105l10 -15q46 -18 93 -18q113 0 181 83t68 212q0 45 -1.5 85t-2.5 55t0 15q4 16 4 27q0 59 -51 133q-98 148 -223 148q-71 0 -131 -59.5t-93.5 -154.5 t-33.5 -200zM236 1094q7 0 8.5 10t1.5 25t11.5 40.5t35.5 49.5q30 30 42.5 52t14 36t17.5 45t49 73q25 31 42.5 50t28 29.5t26 14.5t21 4.5t27.5 0.5q51 0 51 -45q0 -48 -59 -101q-5 -31 -51 -65q-80 -64 -98 -79.5t-74 -72.5l-27 -53q-19 -37 -39 -37q-7 0 -17.5 7.5 t-10.5 17.5v-2z" />
<glyph unicode="&#xf4;" horiz-adv-x="1032" d="M-6 418q0 119 63 211l4 20q41 43 127 150l121 45q50 16 97 16q87 0 158 -10t93 -19q21 -9 142 -112q16 -28 71 -148q0 -35 19 -116q2 -14 2 -37q0 -84 -29.5 -138t-167.5 -235q-7 -2 -57.5 -25.5t-102.5 -42t-83 -18.5q-29 0 -60 4t-55 10.5t-43 12.5t-30.5 10t-12.5 4 q-7 9 -31 24.5t-50 30t-30 17.5q-2 4 -27 35.5t-46.5 69.5t-24.5 71q-47 77 -47 170zM170 381q0 -124 46.5 -206t133.5 -105l10 -15q46 -18 93 -18q113 0 181 83t68 212q0 45 -1.5 85t-2.5 55t0 15q4 16 4 27q0 59 -51 133q-98 148 -223 148q-71 0 -131 -59.5t-93.5 -154.5 t-33.5 -200zM182 1102q131 273 179.5 354t97.5 92q59 -45 110 -168l82 -194v-19q0 -61 15 -88q-19 -22 -41 -22q-13 0 -23.5 9.5t-20 29.5t-17.5 40.5t-20.5 53t-23.5 57.5q0 37 -12.5 52.5t-46.5 15.5q-51 0 -72 -55q-18 -48 -35 -85t-31 -57.5t-25 -34t-21.5 -17.5 t-16.5 -5t-13.5 0.5t-8.5 1.5q-42 0 -56 39z" />
<glyph unicode="&#xf5;" horiz-adv-x="1032" d="M-6 418q0 119 63 211l4 20q41 43 127 150l121 45q50 16 97 16q87 0 158 -10t93 -19q21 -9 142 -112q16 -28 71 -148q0 -35 19 -116q2 -14 2 -37q0 -84 -29.5 -138t-167.5 -235q-7 -2 -57.5 -25.5t-102.5 -42t-83 -18.5q-29 0 -60 4t-55 10.5t-43 12.5t-30.5 10t-12.5 4 q-7 9 -31 24.5t-50 30t-30 17.5q-2 4 -27 35.5t-46.5 69.5t-24.5 71q-47 77 -47 170zM94 1194q0 70 60.5 108.5t144.5 38.5q27 0 139 -32q23 -29 41 -29q9 0 36.5 32t59.5 64.5t52 32.5t41 -12q47 -18 47 -82q0 -58 -48 -106t-132 -48q-4 0 -22 -1t-28.5 0t-29 4.5t-39 14 t-43.5 27.5q-36 23 -55.5 32.5t-26.5 11t-23 1.5q-22 0 -43 -16.5t-33.5 -36.5t-27 -36.5t-25.5 -16.5q-22 0 -33.5 13.5t-11.5 35.5zM170 381q0 -124 46.5 -206t133.5 -105l10 -15q46 -18 93 -18q113 0 181 83t68 212q0 45 -1.5 85t-2.5 55t0 15q4 16 4 27q0 59 -51 133 q-98 148 -223 148q-71 0 -131 -59.5t-93.5 -154.5t-33.5 -200z" />
<glyph unicode="&#xf6;" horiz-adv-x="1032" d="M-6 418q0 119 63 211l4 20q41 43 127 150l121 45q50 16 97 16q87 0 158 -10t93 -19q21 -9 142 -112q16 -28 71 -148q0 -35 19 -116q2 -14 2 -37q0 -84 -29.5 -138t-167.5 -235q-7 -2 -57.5 -25.5t-102.5 -42t-83 -18.5q-29 0 -60 4t-55 10.5t-43 12.5t-30.5 10t-12.5 4 q-7 9 -31 24.5t-50 30t-30 17.5q-2 4 -27 35.5t-46.5 69.5t-24.5 71q-47 77 -47 170zM170 381q0 -124 46.5 -206t133.5 -105l10 -15q46 -18 93 -18q113 0 181 83t68 212q0 45 -1.5 85t-2.5 55t0 15q4 16 4 27q0 59 -51 133q-98 148 -223 148q-71 0 -131 -59.5t-93.5 -154.5 t-33.5 -200zM256 1212q0 27 46 56.5t73 29.5q55 0 55 -77q0 -80 -57 -80q-17 0 -23 2l-55 31q-39 20 -39 38zM483 1229q0 36 21 57t61 21q34 0 56 -26t22 -62q0 -67 -65 -76h-11q-37 0 -60.5 25t-23.5 61z" />
<glyph unicode="&#xf7;" horiz-adv-x="1132" d="M2 399q7 38 14 50q24 8 342 8q361 -2 361 -11q26 0 53 21q31 -51 31 -76q0 -29 -41 -29q-28 0 -60 13q-17 -8 -31.5 -15.5t-20.5 -10.5t-7 -3q2 0 2 2q0 17 -45 17q-14 0 -22 -3.5t-19.5 -12.5t-21.5 -15q-23 0 -41.5 7t-33 17t-16.5 11v4q0 6 -16 6q-39 0 -141 -14.5 t-148 -14.5q-81 0 -139 49zM279 154q2 -1 2.5 1t0.5 7v12t3 17t8 20t15.5 22t25.5 23l2 -1q2 -1 6 -1q17 0 34.5 14.5t31.5 14.5q17 0 33.5 -10.5t23.5 -19.5t22 -32t17 -26v-5q0 -5 -6 -26l-15 -43q-6 -35 -49 -35q-5 0 -33 -9t-43 -9q-11 0 -20.5 4.5t-18 15t-13.5 18.5 t-14 24.5t-13 23.5zM309 641q0 24 2.5 38t12 32.5t33.5 27.5t63 9q32 0 49 -17q37 -43 37 -100q0 -73 -70 -88h-14.5t-30 5t-39 14t-29.5 29.5t-14 49.5z" />
<glyph unicode="&#xf8;" horiz-adv-x="1032" d="M-6 418q0 119 63 211l4 20q41 43 127 150l121 45q50 16 97 16q54 0 174 -10q13 26 23.5 42.5t15 20.5t6.5 11t2 22q0 17 -2 23q14 2 34 2q62 0 62 -31q0 -35 -45 -74q0 -15 -4 -43q19 -9 127 -104q2 -3 19 -31.5t25.5 -47.5t22 -53.5t19.5 -77t6 -91.5q0 -84 -29.5 -138 t-167.5 -235q-7 -2 -56.5 -25.5t-101 -42t-83.5 -18.5q-22 0 -48 4.5t-39 7.5t-46 13t-39 12q-21 -63 -101 -98l-39 34q10 31 47 109q-32 14 -49 31q-2 4 -27 35.5t-46.5 69.5t-24.5 71q-47 77 -47 170zM170 381q0 -149 68 -238q210 445 299 621q-57 31 -109 31 q-71 0 -131 -59.5t-93.5 -154.5t-33.5 -200zM315 82q15 -9 35 -12l10 -15q46 -18 93 -18q113 0 181 83t68 212q0 45 -1.5 85t-2.5 55t0 15q4 16 4 27q0 77 -92 186q-23 -30 -73 -118q7 -35 8 -47q-64 -125 -109 -164q6 -9 6 -21q0 -8 -2 -17.5t-7 -22.5t-10 -25t-13.5 -29.5 t-15.5 -30.5t-18.5 -34t-19 -34.5t-21 -37.5t-20.5 -37z" />
<glyph unicode="&#xf9;" horiz-adv-x="1042" d="M20 821q0 17 25 45h88q7 0 45.5 12.5t46.5 12.5q39 0 39 -68q0 -31 -7 -195.5t-7 -205.5q0 -175 35 -297q134 -35 135 -35q25 0 98 8l23 17q74 53 82 96l4 127q10 127 10 186q0 273 -100 273h-7l-36 28q15 56 77 56q15 0 60 -7.5t53 -7.5q1 0 23.5 4t42.5 4q19 0 32 -8 l23 -30q0 -42 -12.5 -267t-12.5 -270q0 -199 35 -199q8 0 35 13.5t35 13.5q49 0 49 -49q0 -22 -25.5 -35.5t-59 -22.5t-42.5 -18q-71 -18 -117 -18q-26 0 -48 11t-34 23.5t-26 23.5t-27 11q-17 0 -41 -6l-94 -31q-59 -18 -98 -18q-29 0 -50 6q-20 -4 -28 -4q-46 0 -91 32.5 t-63 76.5l9 455l1 95q0 22 -0.5 43t-1 33t-0.5 13q-1 3 -39.5 30.5t-38.5 42.5zM170 1532q0 45 53 45q42 0 57 -8q29 -15 89 -90q19 -26 27 -41t22 -44t39 -71q28 -66 38.5 -81t53.5 -54q24 -24 35.5 -49.5t11.5 -40.5t1.5 -25t8.5 -10v2q0 -9 -6 -12q-13 -13 -22 -13 q-19 0 -37 37l-29 53l-162 179l-12 9q-11 10 -28 24.5t-34.5 30.5t-30 32.5t-14.5 26.5q-61 52 -61 100z" />
<glyph unicode="&#xfa;" horiz-adv-x="1042" d="M20 821q0 17 25 45h88q7 0 45.5 12.5t46.5 12.5q39 0 39 -68q0 -31 -7 -195.5t-7 -205.5q0 -175 35 -297q134 -35 135 -35q25 0 98 8l23 17q74 53 82 96l4 127q10 127 10 186q0 273 -100 273h-7l-36 28q15 56 77 56q15 0 60 -7.5t53 -7.5q1 0 23.5 4t42.5 4q19 0 32 -8 l23 -30q0 -42 -12.5 -267t-12.5 -270q0 -199 35 -199q8 0 35 13.5t35 13.5q49 0 49 -49q0 -22 -25.5 -35.5t-59 -22.5t-42.5 -18q-71 -18 -117 -18q-26 0 -48 11t-34 23.5t-26 23.5t-27 11q-17 0 -41 -6l-94 -31q-59 -18 -98 -18q-29 0 -50 6q-20 -4 -28 -4q-46 0 -91 32.5 t-63 76.5l9 455l1 95q0 22 -0.5 43t-1 33t-0.5 13q-1 3 -39.5 30.5t-38.5 42.5zM326 1094q7 0 8.5 10.5t1 26t11 40.5t36.5 48q37 34 46.5 60t21.5 61.5t53 84.5q39 49 62.5 70.5t36.5 25t39 3.5h9q51 0 51 -45q0 -48 -59 -101q-5 -31 -51 -65q-33 -25 -50.5 -38.5t-35 -29 t-23 -20.5t-28 -28t-35.5 -36l-29 -53q-21 -37 -37 -37q-8 0 -18 7.5t-10 17.5v-2z" />
<glyph unicode="&#xfb;" horiz-adv-x="1042" d="M20 821q0 17 25 45h88q7 0 45.5 12.5t46.5 12.5q39 0 39 -68q0 -31 -7 -195.5t-7 -205.5q0 -175 35 -297q134 -35 135 -35q25 0 98 8l23 17q74 53 82 96l4 127q10 127 10 186q0 273 -100 273h-7l-36 28q15 56 77 56q15 0 60 -7.5t53 -7.5q1 0 23.5 4t42.5 4q19 0 32 -8 l23 -30q0 -42 -12.5 -267t-12.5 -270q0 -199 35 -199q8 0 35 13.5t35 13.5q49 0 49 -49q0 -22 -25.5 -35.5t-59 -22.5t-42.5 -18q-71 -18 -117 -18q-26 0 -48 11t-34 23.5t-26 23.5t-27 11q-17 0 -41 -6l-94 -31q-59 -18 -98 -18q-29 0 -50 6q-20 -4 -28 -4q-46 0 -91 32.5 t-63 76.5l9 455l1 95q0 22 -0.5 43t-1 33t-0.5 13q-1 3 -39.5 30.5t-38.5 42.5zM182 1102q131 273 179.5 354t97.5 92q59 -45 110 -168l82 -194v-19q0 -61 15 -88q-19 -22 -41 -22q-13 0 -23.5 9.5t-20 29.5t-17.5 40.5t-20.5 53t-23.5 57.5q0 37 -12.5 52.5t-46.5 15.5 q-51 0 -72 -55q-18 -48 -35 -85t-31 -57.5t-25 -34t-21.5 -17.5t-16.5 -5t-13.5 0.5t-8.5 1.5q-42 0 -56 39z" />
<glyph unicode="&#xfc;" horiz-adv-x="1042" d="M20 821q0 17 25 45h88q7 0 45.5 12.5t46.5 12.5q39 0 39 -68q0 -31 -7 -195.5t-7 -205.5q0 -175 35 -297q134 -35 135 -35q25 0 98 8l23 17q74 53 82 96l4 127q10 127 10 186q0 273 -100 273h-7l-36 28q15 56 77 56q15 0 60 -7.5t53 -7.5q1 0 23.5 4t42.5 4q19 0 32 -8 l23 -30q0 -42 -12.5 -267t-12.5 -270q0 -199 35 -199q8 0 35 13.5t35 13.5q49 0 49 -49q0 -22 -25.5 -35.5t-59 -22.5t-42.5 -18q-71 -18 -117 -18q-26 0 -48 11t-34 23.5t-26 23.5t-27 11q-17 0 -41 -6l-94 -31q-59 -18 -98 -18q-29 0 -50 6q-20 -4 -28 -4q-46 0 -91 32.5 t-63 76.5l9 455l1 95q0 22 -0.5 43t-1 33t-0.5 13q-1 3 -39.5 30.5t-38.5 42.5zM256 1212q0 27 46 56.5t73 29.5q55 0 55 -77q0 -80 -57 -80q-17 0 -23 2l-55 31q-39 20 -39 38zM483 1229q0 36 21 57t61 21q34 0 56 -26t22 -62q0 -67 -65 -76h-11q-37 0 -60.5 25t-23.5 61z " />
<glyph unicode="&#xfd;" horiz-adv-x="1017" d="M2 838q22 16 47 16q1 0 11.5 -3.5t29.5 -7t41 -3.5q13 0 85 8t85 8q68 0 68 -31q0 -28 -23 -28q-11 0 -20.5 1.5t-15.5 3.5l-5 1q-23 0 -39 -31q12 -88 39 -178q15 -11 146 -326l24 -12q17 12 26.5 35t12.5 46l4 23q112 190 138 248q34 75 34 119q0 31 -10.5 47.5 t-27 20.5t-33 5.5t-30.5 8t-18 22.5q12 12 134 21l166 12h1q33 0 33 -35q0 -24 -12.5 -40.5t-32.5 -16.5h-8v-2q0 -11 -27 -35q-21 -19 -36.5 -39t-23.5 -34t-26 -49t-32 -60q-8 -15 -21 -66t-20 -61q-25 -40 -43.5 -71.5t-32 -54t-25 -44.5t-17.5 -32.5t-14.5 -30 t-11 -25.5t-11.5 -29.5t-13 -32.5q0 -13 -29 -93.5t-60 -160.5t-32 -83q-55 -67 -78 -150q-7 -26 -15.5 -45t-17.5 -33.5t-24.5 -23.5t-30 -15t-40.5 -9.5t-49 -5.5t-63 -3q-32 22 -32 70q0 88 102 88q20 0 66 -11q27 33 69 107q3 33 15 92q1 2 6.5 8.5t7 8t5.5 7.5t5.5 9 l5 10t5.5 13.5t5.5 16t6.5 20.5t6.5 25.5t7.5 31.5l27 43q12 21 12 34q0 6 -5.5 14.5t-16 23t-17.5 28.5q0 6 -53 138.5t-66 154.5q-4 35 -60.5 179.5t-74.5 172.5q-2 2 -24.5 14t-41 26.5t-18.5 29.5zM463 1094q7 0 8.5 10t1.5 25t11.5 40.5t35.5 49.5q30 30 42.5 52t14 36 t17.5 45t49 73q25 31 42.5 50t28 29.5t26 14.5t21 4.5t27.5 0.5q52 0 52 -45q0 -47 -60 -101q-5 -31 -51 -65q-80 -64 -97.5 -79.5t-74.5 -72.5l-27 -53q-19 -37 -38 -37q-7 0 -18 8t-11 17v-2z" />
<glyph unicode="&#xfe;" horiz-adv-x="1052" d="M-57 -600q26 8 56.5 15.5t44.5 10.5t30 10t22 13.5t12 20t7.5 31t1.5 46.5q0 71 -5.5 336.5t-5.5 302.5q0 85 1 327.5t2.5 445t1.5 190.5q0 65 -21 86v-1q-14 2 -52 29q-36 27 -36 46q0 30 51 47.5t78 17.5q1 0 43 29t53 29t19 -4t16.5 -18t13.5 -40t8 -73t3 -113 q0 -78 -11 -314l3 -4v-71q0 -76 -6.5 -240t-6.5 -176q0 -328 144 -328q8 0 36 4q20 -4 33 -4q81 0 125 33q25 19 42.5 35.5t30 30t19.5 33t11.5 32.5t5.5 42.5t1 47.5t-0.5 62.5t-0.5 74.5q0 139 -15 154q-72 90 -106 104q-43 58 -154 58q-39 0 -92 -17l-8 7q-10 17 -10 24 q0 53 225 53q96 0 192 -77.5t121 -174.5q-2 -16 -2 -47q0 -22 6.5 -80t6.5 -73q0 -65 -27 -133q-39 -36 -51 -82q-27 -24 -45 -45q-108 -129 -234 -129q-2 0 -73.5 4t-108.5 4t-50.5 -45t-13.5 -180q0 -183 6.5 -250t28.5 -74l125 -12q43 -3 43 -45q0 -31 -14.5 -42.5 t-46.5 -11.5t-130.5 9.5t-115.5 9.5q-16 0 -72 -10.5t-73 -10.5q-45 0 -82 37v33z" />
<glyph unicode="&#xff;" horiz-adv-x="1017" d="M2 838q22 16 47 16q1 0 11.5 -3.5t29.5 -7t41 -3.5q13 0 85 8t85 8q68 0 68 -31q0 -28 -23 -28q-11 0 -20.5 1.5t-15.5 3.5l-5 1q-23 0 -39 -31q12 -88 39 -178q15 -11 146 -326l24 -12q17 12 26.5 35t12.5 46l4 23q112 190 138 248q34 75 34 119q0 31 -10.5 47.5 t-27 20.5t-33 5.5t-30.5 8t-18 22.5q12 12 134 21l166 12h1q33 0 33 -35q0 -24 -12.5 -40.5t-32.5 -16.5h-8v-2q0 -11 -27 -35q-21 -19 -36.5 -39t-23.5 -34t-26 -49t-32 -60q-8 -15 -21 -66t-20 -61q-25 -40 -43.5 -71.5t-32 -54t-25 -44.5t-17.5 -32.5t-14.5 -30 t-11 -25.5t-11.5 -29.5t-13 -32.5q0 -13 -29 -93.5t-60 -160.5t-32 -83q-55 -67 -78 -150q-7 -26 -15.5 -45t-17.5 -33.5t-24.5 -23.5t-30 -15t-40.5 -9.5t-49 -5.5t-63 -3q-32 22 -32 70q0 88 102 88q20 0 66 -11q27 33 69 107q3 33 15 92q1 2 6.5 8.5t7 8t5.5 7.5t5.5 9 l5 10t5.5 13.5t5.5 16t6.5 20.5t6.5 25.5t7.5 31.5l27 43q12 21 12 34q0 6 -5.5 14.5t-16 23t-17.5 28.5q0 6 -53 138.5t-66 154.5q-4 35 -60.5 179.5t-74.5 172.5q-2 2 -24.5 14t-41 26.5t-18.5 29.5zM256 1212q0 27 46 56.5t73 29.5q55 0 55 -77q0 -80 -57 -80 q-17 0 -23 2l-55 31q-39 20 -39 38zM483 1229q0 36 21 57t61 21q34 0 56 -26t22 -62q0 -67 -65 -76h-11q-37 0 -60.5 25t-23.5 61z" />
<glyph unicode="&#x152;" horiz-adv-x="2117" d="M-2 614q6 40 6 93v38q4 17 10.5 58.5t12 85t6.5 49.5t18 36.5t17 43.5l149 219q82 101 223 152q29 0 103.5 28.5t91.5 28.5q22 0 43 -6q12 6 41 6l41 -6l123 -19h4l2 6q3 3 10 3q9 0 37.5 -10.5t52.5 -10.5q13 0 54.5 4t52.5 4q38 0 65 -12q38 10 82 10q32 0 69.5 -2 t41.5 -2t8.5 1t7.5 1q9 -6 49 -6q104 0 412 33q20 -7 36.5 -74t16.5 -129q0 -43 -4.5 -56.5t-21.5 -13.5q-27 0 -48 37l-32 58q-6 98 -41 98q-9 0 -23 -17q-61 11 -176 11q-136 0 -174 -15q-15 0 -84 6.5t-94 6.5q-86 0 -86 -29q0 -18 26 -41l97 -78q21 -17 41 -57.5 t51 -120.5l45 -121q15 -43 29 -137h94q42 0 68.5 4t44 9t33 22.5t24.5 31.5t30.5 50t40.5 65l23 2q22 -28 22 -59q0 -29 -12 -59v-154q0 -4 4 -29.5t4 -34.5q0 -24 -12.5 -39.5t-32.5 -15.5q-15 0 -34 33.5t-32.5 67.5t-15.5 34q-21 5 -100 33q-81 0 -147 -2 q-27 -239 -48 -309q-45 -145 -172 -281q0 -3 -1 -6t-1 -4q0 -72 201 -72q4 0 35 2.5t104 8.5t148 12q27 -15 55 -15q84 0 125 144q50 133 86 133q27 0 27 -90q0 -87 -31 -230l-80 -32q-12 4 -55 4q-27 0 -41 -2q-102 -13 -187 -13q-132 0 -208 9q-4 0 -47.5 9t-59.5 9 q-134 0 -371 -24q-3 1 -4.5 2.5t-2 3t-1.5 2.5l-86 -13q-29 0 -98 3.5t-96 3.5l-43 28l-27 -2q-3 2 -42.5 14t-83.5 32t-73 46q-30 7 -58.5 25t-46.5 33.5t-43.5 50.5t-34.5 49.5t-35 57.5q-7 12 -11 18v6q0 15 -27.5 73.5t-27.5 82.5q0 3 1 7t1 7q-4 6 -11.5 29.5t-14 47.5 t-7.5 27zM190 682q0 -93 23 -123q11 -72 32.5 -132.5t41 -91.5t38 -60t23.5 -44q114 -102 119 -100l88 -49q58 -43 168 -43q168 0 266 98q70 70 114 144t64 184q11 11 21 41q0 219 8 364q-44 163 -76 222q-169 266 -448 266q-100 0 -189.5 -38.5t-146.5 -110t-62 -158.5 q-32 -20 -58 -137.5t-26 -231.5z" />
<glyph unicode="&#x153;" horiz-adv-x="1468" d="M-12 385q0 78 22 197q13 18 47 88q51 108 151 164.5t202 56.5q127 0 264 -82q34 -55 61 -64q0 -1 -1 -4t-1 -4q0 -14 11 -23t28 -9q8 0 18.5 13t35 42t57.5 57q4 4 15.5 5.5t23 1.5t14.5 1q50 21 100 21q16 0 79 -10.5t85 -10.5l88 -63q70 -52 70 -88q0 -8 -10 -25 q20 -11 20 -35q0 -44 -53 -82q-33 11 -35 11q-6 0 -6 -4l-300 10h-13q-158 0 -170 -21q-3 -3 -3 -215q0 -69 62 -142t133 -73q21 0 27 2q33 -20 73 -20q72 0 158 57l37 -20q-6 -66 -72 -84q-146 -51 -202 -51q-14 0 -30 3t-36 10t-35 13t-39.5 18t-36.5 18.5t-39.5 21 t-35.5 18.5q-21 37 -50 37q-26 0 -67 -41l-60 -60q-22 -22 -98 -22h-110l-33 -6q-346 34 -346 393zM123 618q0 -21 10 -51q0 -246 64 -377t192 -131q11 0 39 4q4 -2 21 -2q64 0 109 35.5t66.5 97t30.5 123.5t9 136q0 122 -35 229l-8 10q-8 10 -19 23t-27 29.5t-36 32 t-42 28.5t-49 21t-53 8q-95 0 -183.5 -66.5t-88.5 -149.5zM846 635q0 -10 0.5 -13.5t4.5 -10t14 -9t28 -2.5q21 0 27 2q6 0 11.5 0.5t9.5 1t6.5 0.5h4.5h2q2 0 24.5 -1t57.5 -2t68 -1q29 0 43 2q37 27 37 55q0 38 -69 74.5t-126 36.5q-41 0 -92 -44t-51 -89z" />
<glyph unicode="&#x178;" horiz-adv-x="1300" d="M2 1368q0 33 63.5 48.5t135.5 15.5q41 0 57 -19l227 19h4q11 0 11 -17q0 -49 -33 -69h-27q-30 0 -46 -11.5t-22 -24.5t-10 -14l-2 -4q14 -73 93 -227l112 -223l10 -8q0 -30 17.5 -61.5t56.5 -31.5q34 0 78 144l68 180q47 125 47 164v6q20 9 20 27t-22 33.5t-48.5 25.5 t-48.5 27t-22 38q0 39 59 39q13 0 62 -9t55 -9q15 0 61.5 9t77.5 9h142q43 0 43 -53q0 -40 -41 -61q-4 0 -36.5 11t-41.5 11q-48 -11 -84.5 -45t-61 -83.5t-42 -98.5t-38 -107t-38.5 -92q-31 -62 -27 -63q8 -1 -123 -258l6 -277q0 -14 -3 -57.5t-3 -54.5q0 -44 23.5 -77.5 t64.5 -33.5q12 0 41.5 7t36.5 7q27 0 44 -14t17 -39q0 -59 -51 -59h-88q-43 26 -291 26q-11 0 -74 -16t-75 -16q-51 0 -51 43q0 26 15 44.5t38.5 27.5t44 12.5t39.5 3.5h29q15 0 20 7.5t9 41t8 100.5q0 16 1 25q13 3 13 20q0 5 -6.5 31t-6.5 33q0 3 1.5 8t1.5 10 q0 13 -4.5 43t-4.5 33t1 5t1 3l-6 117q-39 86 -61 137v8q0 17 -8 33l-27 10q-10 21 -28 58.5t-44.5 104.5t-29.5 95l-27 35q-5 15 -27 51q-3 4 -8 11t-18.5 25.5t-23.5 33.5t-18 31t-7 22q0 1 1 3t1 3q0 9 -2 11q-6 2 -11 13.5t-17.5 22t-37.5 13.5q-11 5 -29 11.5t-25 9.5 t-15.5 8.5t-11.5 12t-3 15.5zM414 1661q0 28 44.5 56t71.5 28q58 0 58 -78q0 -80 -60 -80h-5t-2.5 -0.5t-2 0t-2 0.5t-3 1.5t-4.5 3t-7.5 4t-11.5 6t-15.5 9t-21.5 11.5q-39 17 -39 39zM641 1677q0 78 78 78q34 0 57 -27t23 -63q0 -65 -66 -74q-3 0 -6 -1t-6 -1 q-36 0 -58 26t-22 62z" />
<glyph unicode="&#x2c6;" horiz-adv-x="907" d="M182 1102q131 273 179.5 354t97.5 92q59 -45 110 -168l82 -194v-19q0 -61 15 -88q-19 -22 -41 -22q-13 0 -23.5 9.5t-20 29.5t-17.5 40.5t-20.5 53t-23.5 57.5q0 37 -12.5 52.5t-46.5 15.5q-51 0 -72 -55q-18 -48 -35 -85t-31 -57.5t-25 -34t-21.5 -17.5t-16.5 -5 t-13.5 0.5t-8.5 1.5q-42 0 -56 39z" />
<glyph unicode="&#x2dc;" horiz-adv-x="698" d="M27 1194q0 70 60 108.5t144 38.5q30 0 142 -32q23 -29 39 -29q10 0 37 32t59 64.5t53 32.5q18 0 39 -12q47 -18 47 -82q0 -58 -47.5 -106t-130.5 -48q-5 0 -23 -1t-28 0t-28 4.5t-38 14t-45 27.5q-20 13 -34.5 21.5t-22.5 13.5t-17 7.5t-11 3t-10.5 0t-10.5 -0.5 q-22 0 -43 -16.5t-33.5 -36.5t-27 -36.5t-25.5 -16.5q-45 0 -45 49z" />
<glyph unicode="&#x2000;" horiz-adv-x="945" />
<glyph unicode="&#x2001;" horiz-adv-x="1890" />
<glyph unicode="&#x2002;" horiz-adv-x="945" />
<glyph unicode="&#x2003;" horiz-adv-x="1890" />
<glyph unicode="&#x2004;" horiz-adv-x="630" />
<glyph unicode="&#x2005;" horiz-adv-x="472" />
<glyph unicode="&#x2006;" horiz-adv-x="315" />
<glyph unicode="&#x2007;" horiz-adv-x="315" />
<glyph unicode="&#x2008;" horiz-adv-x="236" />
<glyph unicode="&#x2009;" horiz-adv-x="378" />
<glyph unicode="&#x200a;" horiz-adv-x="105" />
<glyph unicode="&#x2010;" horiz-adv-x="829" d="M-31 354q0 18 33 31.5t86 13.5q23 0 37 -2q45 20 108 29q108 12 113 12q49 -7 64 -8h51q94 0 135 -18.5t41 -59.5q0 -29 -15 -58.5t-38 -29.5q-54 0 -54 2h2q-27 -8 -49 -8q-9 0 -33 12.5t-42 16.5q-2 -1 -9 -4t-12 -4q-21 -9 -65 -9q-21 0 -35 2l-158 4q-72 4 -116 26 t-44 52z" />
<glyph unicode="&#x2011;" horiz-adv-x="829" d="M-31 354q0 18 33 31.5t86 13.5q23 0 37 -2q45 20 108 29q108 12 113 12q49 -7 64 -8h51q94 0 135 -18.5t41 -59.5q0 -29 -15 -58.5t-38 -29.5q-54 0 -54 2h2q-27 -8 -49 -8q-9 0 -33 12.5t-42 16.5q-2 -1 -9 -4t-12 -4q-21 -9 -65 -9q-21 0 -35 2l-158 4q-72 4 -116 26 t-44 52z" />
<glyph unicode="&#x2012;" horiz-adv-x="829" d="M-31 354q0 18 33 31.5t86 13.5q23 0 37 -2q45 20 108 29q108 12 113 12q49 -7 64 -8h51q94 0 135 -18.5t41 -59.5q0 -29 -15 -58.5t-38 -29.5q-54 0 -54 2h2q-27 -8 -49 -8q-9 0 -33 12.5t-42 16.5q-2 -1 -9 -4t-12 -4q-21 -9 -65 -9q-21 0 -35 2l-158 4q-72 4 -116 26 t-44 52z" />
<glyph unicode="&#x2013;" horiz-adv-x="1118" d="M14 360l13 52q-1 0 19.5 1t58 2.5t87.5 3t113 3t129 3t140.5 2.5t142.5 1q43 0 75.5 -1t48.5 -2t26 -2t14.5 -2t7.5 -1q27 0 53 20q31 -48 31 -73q0 -31 -41 -31q-35 0 -60 14q-16 -8 -31 -15t-21 -10t-7 -3q4 0 4 2q0 14 -49 14q-10 0 -18 -2.5t-13 -5.5t-14.5 -10 t-15.5 -11q-17 0 -33.5 5.5t-27 11.5t-19 12t-9.5 6q-19 -31 -135 -31q-24 0 -106.5 4.5t-87.5 4.5q-13 0 -66 -5.5t-69 -5.5q-82 0 -140 49z" />
<glyph unicode="&#x2014;" horiz-adv-x="1693" d="M14 360l13 52l54 -1q86 1 461 10q572 13 705 13q50 0 86 -0.5t52.5 -1.5t25.5 -2t13 -1.5t6 -0.5q26 0 53 21q30 -46 30 -74q0 -31 -38 -31q-37 0 -62 14q-54 -28 -166 -28q-16 0 -159.5 11t-196.5 11q-16 0 -27.5 -2.5t-16 -4.5t-16.5 -10.5t-18 -12.5q-137 0 -195 22 q-19 -31 -135 -31q-24 0 -106.5 4.5t-87.5 4.5q-13 0 -66 -5.5t-69 -5.5q-82 0 -140 49z" />
<glyph unicode="&#x2018;" horiz-adv-x="581" d="M2 920q0 32 6 114q2 3 21.5 35.5t34 54t42.5 51t56 46.5l137 71q2 -2 12 -2q7 0 31 8.5t29 8.5q35 0 35 -43q0 -38 -123 -115q-121 -77 -121 -137q0 -18 6 -33q-2 -4 -2 -16q0 -32 36.5 -65.5t71.5 -33.5q12 0 27.5 -15t24.5 -29l10 -15q0 -14 0.5 -27t1 -15t-1.5 -10 t-4 -10.5t-9.5 -18.5t-15.5 -32l-37 -22l-82 -13q-1 0 -4 -1t-4 -1q-6 0 -11.5 2t-10 4t-11 6.5t-9 7t-9.5 8.5t-8 7q-119 73 -119 230z" />
<glyph unicode="&#x2019;" horiz-adv-x="692" d="M139 688q0 37 115 117t115 139q0 22 -9 37q0 3 1 7t1 7q0 36 -32 59t-71.5 36.5t-45.5 21.5l-29 37q-2 14 -2 37q0 8 -1 13q0 2 1 5q9 16 25 58l35 24q3 0 35 8.5t55 8.5q8 0 16.5 -3t13.5 -6t15.5 -10t15.5 -10q76 -44 102.5 -102.5t26.5 -180.5v-57l-86 -148 q-7 -1 -18.5 -10.5t-23.5 -22t-15 -14.5l-133 -77q-1 0 -4 1t-4 1q-13 0 -37.5 -9.5t-26.5 -9.5q-35 0 -35 43z" />
<glyph unicode="&#x201a;" horiz-adv-x="692" d="M139 25q0 36 115 116t115 140q0 21 -9 36q0 3 1 7.5t1 7.5q0 35 -31.5 58t-71 36.5t-46.5 22.5l-29 34q-2 16 -2 39q0 7 -1 12q0 3 2 6q9 18 24 56l35 25q3 0 36 9t56 9q6 0 11.5 -1.5t9.5 -3t10.5 -6t9 -6t9.5 -7.5t9 -7q76 -42 102.5 -99t26.5 -181v-58l-86 -147 q-9 -1 -32 -23.5t-25 -23.5l-133 -78h-6q-13 0 -38.5 -9t-27.5 -9q-35 0 -35 45z" />
<glyph unicode="&#x201c;" horiz-adv-x="1009" d="M33 920q0 32 6 114q2 3 21.5 35.5t34 54t42.5 51t56 46.5l137 71q2 -2 12 -2q8 0 31 8.5t28 8.5q33 0 33 -43q0 -38 -121 -115q-120 -77 -120 -137q0 -18 6 -33q-2 -4 -2 -16q0 -37 30.5 -61t68.5 -38.5t44 -23.5l27 -37q0 -9 0.5 -17.5t0.5 -13t0.5 -8.5t-0.5 -8 t-1.5 -6.5t-3.5 -8.5t-5.5 -10.5t-8.5 -16.5l-11 -22l-37 -22l-82 -13q-1 0 -4 -1t-4 -1q-6 0 -11.5 2t-10 4t-11 6.5t-9 7t-9.5 8.5t-8 7q-119 73 -119 230zM428 920q0 32 6 114q4 6 22.5 37t33.5 53t42.5 51t55.5 46l137 71q2 -2 12 -2q8 0 32 8.5t28 8.5q34 0 34 -43 q0 -39 -122 -115q-121 -77 -121 -137q0 -18 6 -33q-2 -4 -2 -16q0 -32 36.5 -65.5t71.5 -33.5q12 0 27.5 -15t24.5 -29l10 -15q0 -14 0.5 -25.5t0.5 -15v-7t-2 -7.5t-5 -9.5t-9.5 -18.5t-13.5 -30l-35 -22l-84 -13q-1 0 -4 -1t-4 -1q-10 0 -19 5.5t-20.5 15t-19.5 14.5 q-119 73 -119 230z" />
<glyph unicode="&#x201d;" horiz-adv-x="1234" d="M170 688q0 37 115 117q116 82 116 139q0 14 -10 37q2 4 2 16q0 29 -20.5 49t-45.5 27.5t-50.5 17.5t-32.5 21l-29 37q0 4 -1 12.5t-1 12.5q0 7 -0.5 12.5t-0.5 7.5v4t2 6.5t4.5 10t8 18.5t11.5 29l34 24q3 0 35 8.5t55 8.5q8 0 16.5 -3t14 -6t16 -10t15.5 -10 q77 -45 104 -102t27 -181v-57q-28 -52 -88 -148q-6 -1 -14.5 -7.5t-15.5 -13.5t-15.5 -16t-9.5 -10l-133 -77q-2 2 -13 2q-14 0 -37 -9.5t-24 -9.5q-35 0 -35 43zM668 707q0 39 114 118q115 80 115 140q0 23 -8 36q0 3 1 7.5t1 7.5q0 27 -20.5 48t-45.5 30.5t-51 20 t-33 18.5l-28 34q-2 16 -2 39q0 8 -1 13q0 2 2 7q9 19 23 54l35 25q2 0 34.5 8t55.5 8q8 0 16.5 -3t14 -6t16 -10t15.5 -10q76 -42 102.5 -99t26.5 -181v-58q-2 -3 -15 -29t-23.5 -44t-27 -43.5t-37 -45.5t-41.5 -32l-133 -78h-6q-13 0 -37.5 -9t-30.5 -9q-32 0 -32 43z" />
<glyph unicode="&#x201e;" horiz-adv-x="1234" d="M170 25q0 36 115 116q116 79 116 140q0 13 -10 36q2 4 2 17q0 34 -30 55t-69.5 35t-49.5 25l-29 34q0 5 -1 14t-1 11v12.5t-0.5 7.5t0 5.5t0.5 4.5t2.5 6.5t4.5 10.5t7.5 16.5t10.5 24.5l34 25q3 0 36.5 9t56.5 9q6 0 11.5 -1.5t9.5 -3t10.5 -6t9 -6t9.5 -7.5t9 -7 q76 -42 103.5 -100t27.5 -180v-58q-2 -4 -19.5 -36.5t-30.5 -53t-39 -51.5t-54 -53l-133 -78h-9q-14 0 -39 -9t-26 -9q-35 0 -35 45zM668 43q0 37 114 117q115 80 115 139q0 24 -8 37q0 3 1 7t1 7q0 36 -32.5 59t-72 36.5t-45.5 21.5l-28 37q-2 16 -2 39v7t-0.5 4t-0.5 2.5 v2t0.5 2.5t1.5 4t3 6.5t4.5 9.5t6.5 14.5t9 20.5l35 25q2 0 34.5 8t55.5 8q8 0 17 -3t13.5 -5.5t16 -10t15.5 -9.5q76 -44 102.5 -102.5t26.5 -180.5v-57q-2 -3 -15.5 -28.5t-22.5 -40t-25.5 -39.5t-37 -46.5t-43.5 -40.5l-133 -78q-1 0 -4 1t-4 1q-13 0 -36.5 -9t-29.5 -9 q-32 0 -32 43z" />
<glyph unicode="&#x2022;" horiz-adv-x="937" d="M-16 406q0 17 37 56t49 60q-7 24 -7 45q0 114 78 138q23 25 49.5 42.5t44.5 24.5t47.5 16.5t43.5 14.5q16 6 26 14q33 14 47 14q92 -6 169.5 -55t176.5 -151q2 -26 15 -88q49 -40 49 -111q0 -66 -43 -109l-21 -90q-114 -111 -188.5 -143.5t-204.5 -32.5q-14 0 -36 5 t-40.5 10.5t-52 16.5t-53.5 17l-23 17q-12 18 -71 71q-26 10 -37 39t-18.5 61.5t-22.5 45.5q-14 43 -14 72z" />
<glyph unicode="&#x202f;" horiz-adv-x="378" />
<glyph unicode="&#x2039;" horiz-adv-x="559" d="M16 403q0 27 0.5 35.5t1.5 19t5.5 12.5t10.5 9.5t18.5 18t27 28t38 50t50.5 75.5q31 3 170 209q3 10 53 10h29q20 -39 20 -88q0 -83 -75 -112q-7 -2 -34 -20t-50 -35l-23 -17q0 -7 -47 -87t-53 -83l-43 -59q5 -15 26 -25.5t41 -14.5t21 -5q4 -4 35 -32.5t57.5 -55 t57.5 -61.5t49 -69.5t18 -60.5q0 -57 -53 -57q-11 0 -15 4q4 0 -12 23t-46 64t-42 58q-9 13 -32 26t-27 19q-56 70 -148 170q-2 -2 -10 -2q-19 0 -19 53z" />
<glyph unicode="&#x203a;" horiz-adv-x="622" d="M94 784q0 88 39 88q46 0 55 -12q126 -202 154 -205q36 -56 69 -98.5t44 -56t17.5 -33.5t6.5 -57q0 -54 -16 -54q-6 0 -8 2q-29 -25 -136 -168q-21 -9 -41 -30.5t-73 -91.5q-25 -66 -31 -66q-4 -4 -12 -4q-47 0 -47 57q0 67 110 185l84 90q2 3 38 14.5t42 30.5l-39 59 q-6 3 -48 82t-42 84q-12 12 -59.5 41t-77 63t-29.5 80z" />
<glyph unicode="&#x205f;" horiz-adv-x="472" />
<glyph unicode="&#x20ac;" horiz-adv-x="1345" d="M-2 752q0 26 33 26q14 0 20 -2q16 4 72 4q15 106 76 181l131 145q186 176 426 176q142 0 245 -29q29 13 48 13q79 0 79 -150q0 -51 -10 -106t-18 -60q-20 6 -43.5 38.5t-44.5 69t-29 44.5q-9 35 -22 53q0 8 -80 70q-88 16 -101 16q-65 0 -138.5 -42t-90.5 -66 q-24 -32 -40.5 -49.5t-22.5 -20t-11.5 -7.5t-11.5 -16l-23 -43q-91 -117 -127 -215q344 0 385 -14q2 0 25.5 5t32.5 5q11 0 28 -10q-20 -48 -38 -57l-50 -17q-38 -14 -65 -14q-5 0 -33 4t-47 4q-7 0 -26 -2t-31 -2q-2 0 -15 5t-18 5q-9 0 -26.5 -5t-26.5 -5q-17 0 -33 8v4 q0 3 -8 6q-5 0 -9 -0.5t-8.5 -1.5t-19.5 -2.5t-37 -3.5q-6 -34 -6 -63q0 -49 12 -99q78 -2 139 -4t92.5 -3.5t51 -3t26.5 -2.5t8 -1q13 0 42 3t32 3h8q-18 -86 -65 -86q-21 0 -37 8h2q-15 2 -43 -2q-59 -13 -98 -36q-30 0 -47 10l-43 24q-12 -21 -31 -24q14 -30 32 -61 t47 -77t48 -77q134 -93 178 -113t113 -20q47 0 121 22q37 9 108 115q57 84 74 84q9 0 13.5 -15t4.5 -26q-2 -14 -2 -33q0 -8 -2 -10v-23q0 -63 -20 -94.5t-74 -54.5q-11 4 -43 4q-41 0 -76.5 -21t-62.5 -24q-40 9 -156 12q-10 10 -101.5 33.5t-113.5 23.5q-33 41 -100 91 l-107 84q-6 6 -26 39t-33 42l-33 101q-2 2 -2 12q-4 0 -13.5 -1t-13.5 -1q-49 0 -96 8q0 36 8 80q15 6 107 12q-4 61 -11.5 78.5t-7.5 24.5v4l11 51q-6 -2 -37 -2q-3 0 -16.5 -1.5t-21 -0.5t-17.5 6.5t-14.5 21t-4.5 40.5z" />
<glyph unicode="&#x2122;" horiz-adv-x="1576" d="M2 1034q0 24 14 79.5t27 55.5q3 0 83 -8t148 -8q128 0 289 14q25 31 43 31q41 0 41 -121v-30l-14 -21q-15 -6 -27 -6q-32 0 -47 70q-1 0 -4 -1.5t-6 -1.5q-6 0 -52 3.5t-59 3.5q-47 0 -47 -17v-2q-4 -12 -4 -16q0 -5 1 -17t1 -20q0 -19 -6 -25l-2 -28q14 -22 14 -47 q0 -15 -10 -45q4 -28 4 -68q0 -11 -1 -38t-1 -38q0 -35 4 -47l21 -10q6 -14 24 -14h33q31 -3 31 -46q0 -41 -35 -41q-6 0 -39 6.5t-47 6.5q-23 0 -100 -10.5t-86 -10.5q-16 0 -24.5 11.5t-8.5 25.5q0 47 49 53q6 1 13 2t10 1t7 1t5.5 1t4 2t3.5 2.5t2.5 3.5l2.5 5t3 7 q6 18 6 293v44q1 53 -2 66t-18 13h-17q-59 -6 -89 -13.5t-38 -13t-21 -24t-26 -31.5l-14 2l-10.5 1.5t-7 0.5t-6 1t-4 1.5t-3.5 2.5l-3.5 3.5t-4.5 5.5zM664 1135q19 22 61 22q37 0 92 -14q13 8 29 8q30 0 57 -53l37 -68l6 -12q6 -13 16.5 -35t23.5 -49t27.5 -56t28 -55.5 t25.5 -49t20 -34.5q7 33 64 123q19 33 33 59.5t18 36t13 34.5t10 28q5 3 11 35.5t21 61t43 28.5h13q3 0 47.5 5t60.5 5q47 0 47 -33q0 -18 -30 -30l-47 -19q0 -375 20 -405h14q58 0 58 -45q0 -22 -18 -30.5t-56 -8.5q-33 0 -71 2t-40 2q-53 -6 -53 -8q-35 9 -35 34 q0 45 52 45q12 0 16 -2q6 43 6 107v197h-2q-5 -5 -99.5 -199.5t-111.5 -204.5q-45 23 -86 168l-20 16l-2 17q-10 21 -48 65q-13 40 -53 127q-10 -39 -10 -76q0 -34 10 -57q-6 -50 -6 -82q0 -33 8.5 -54t21 -28.5t25 -11.5t21 -9.5t8.5 -15.5q0 -30 -68 -30q-9 0 -48 2t-48 2 q-36 0 -49 -8l-29 8q-14 14 -14 31q0 26 84 47q12 80 12 227q0 70 -2 111q-2 32 -19.5 52.5t-37.5 27.5t-37.5 19.5t-19.5 29.5z" />
<glyph unicode="&#x25fc;" horiz-adv-x="870" d="M0 0v870h870v-870h-870z" />
</font>
</defs>
</svg>
