<?xml version="1.0" standalone="no"?>
<!DOCTYPE svg PUBLIC "-//W3C//DTD SVG 1.1//EN" "http://www.w3.org/Graphics/SVG/1.1/DTD/svg11.dtd" >
<svg xmlns="http://www.w3.org/2000/svg" xmlns:xlink="http://www.w3.org/1999/xlink" version="1.1">
<metadata></metadata>
<defs>
<font id="frutigerlight" horiz-adv-x="1138" >
<font-face units-per-em="2048" ascent="1638" descent="-410" />
<missing-glyph horiz-adv-x="569" />
<glyph horiz-adv-x="0" />
<glyph unicode="&#xd;" horiz-adv-x="0" />
<glyph unicode=" "  horiz-adv-x="569" />
<glyph unicode="&#x09;" horiz-adv-x="569" />
<glyph unicode="&#xa0;" horiz-adv-x="569" />
<glyph unicode="!" horiz-adv-x="796" d="M315 0v173h166v-173h-166zM315 1422h166l-24 -1066h-118z" />
<glyph unicode="&#x22;" horiz-adv-x="1139" d="M344 1422h134l-20 -578h-94zM661 1422h134l-19 -578h-95z" />
<glyph unicode="#" horiz-adv-x="1139" d="M25 543h237l62 335h-215l-1 113h237l80 431h129l-80 -431h261l80 431h129l-80 -431h216v-113h-237l-62 -335h216v-112h-236l-80 -431h-129l80 431h-262l-80 -431h-129l80 431h-215zM391 543h262l62 335h-262z" />
<glyph unicode="$" d="M164 1076q0 76 36 152t109.5 123.5t198.5 70.5v180h97v-185q197 -6 308 -52l-14 -123q-69 28 -122 38q-70 15 -145 15q-10 0 -27 -1v-498q234 -122 308 -214t74 -211q0 -81 -34.5 -151t-88.5 -118t-117 -75t-147 -39v-178h-95v178q-76 0 -153 15t-171 49l11 140 q59 -31 144 -52t169 -21v564q-341 151 -341 393zM306 1090q0 -63 47.5 -130t154.5 -119v453q-55 -4 -104 -34.5t-73.5 -77t-24.5 -92.5zM600 119q112 11 178 80.5t66 160.5q0 164 -244 285v-526z" />
<glyph unicode="%" horiz-adv-x="2048" d="M175 1075q0 192 91.5 292t243.5 100q85 0 157 -38.5t114.5 -122.5t42.5 -206q0 -188 -93 -290t-238 -102q-144 0 -231 94.5t-87 272.5zM305 1073q0 -138 50.5 -199t136.5 -61q89 0 144.5 66.5t55.5 221.5q0 134 -52 197t-130 63q-92 0 -148.5 -67.5t-56.5 -220.5z M510 -64l813 1583h114l-808 -1583h-119zM1143 353q0 192 91.5 293t236.5 101q81 0 157.5 -37t120 -121t43.5 -209q0 -123 -40.5 -214t-117.5 -135.5t-173 -44.5q-133 0 -225.5 87.5t-92.5 279.5zM1273 343q0 -143 55.5 -198t137.5 -55q86 0 139 66.5t53 228.5 q0 98 -22.5 150.5t-64.5 78.5t-99 26q-105 0 -161 -91q-38 -62 -38 -206z" />
<glyph unicode="&#x26;" horiz-adv-x="1365" d="M104 374q0 80 29.5 151t76.5 119.5t109 85.5q45 26 125 57q-107 115 -147 196t-40 154q0 123 102.5 213.5t272.5 90.5q162 0 254 -84.5t92 -210.5q0 -74 -34 -141.5t-104 -120.5t-207 -118l377 -418q59 87 84 171q33 116 33 231q0 10 -1 30h133q-1 -135 -45 -273 q-44 -139 -121 -242l247 -265h-180l-152 161q-78 -83 -189.5 -132t-248.5 -49q-217 0 -341.5 114.5t-124.5 279.5zM249 377q0 -78 40.5 -144.5t119 -103.5t173.5 -37q104 0 201.5 45.5t146.5 111.5l-415 460q-129 -51 -197.5 -141.5t-68.5 -190.5zM393 1123 q0 -58 32.5 -118.5t134.5 -165.5q175 81 229.5 145.5t54.5 154.5q0 84 -57.5 138t-158.5 54q-109 0 -172 -60t-63 -148z" />
<glyph unicode="'" horiz-adv-x="569" d="M217 1422h134l-21 -578h-93z" />
<glyph unicode="(" horiz-adv-x="569" d="M76 641q0 142 39 290q39 149 118 310q63 127 178 307h106q-157 -253 -236 -507q-70 -223 -70 -394q0 -127 42 -295q43 -169 118 -336q59 -131 158 -293h-111q-134 216 -202 354q-68 139 -104 283.5t-36 280.5z" />
<glyph unicode=")" horiz-adv-x="569" d="M40 1548h111q135 -216 202 -355q68 -139 104 -283.5t36 -280.5q0 -142 -39 -291t-118 -309q-63 -127 -177 -306h-107q158 255 237 509q69 222 69 392q0 126 -42 294q-42 169 -118 336q-58 131 -158 294z" />
<glyph unicode="*" d="M180 1218l36 117l293 -112l-11 313h123l-14 -313l298 114l38 -119l-303 -85l199 -244l-102 -78l-175 268l-173 -266l-100 74l194 246z" />
<glyph unicode="+" horiz-adv-x="1229" d="M101 441v123h447v441h135v-441h446v-123h-446v-441h-135v441h-447z" />
<glyph unicode="," horiz-adv-x="569" d="M111 -277l121 450h168l-159 -450h-130z" />
<glyph unicode="-" horiz-adv-x="683" d="M85 488v124h512v-124h-512z" />
<glyph unicode="." horiz-adv-x="569" d="M201 0v173h166v-173h-166z" />
<glyph unicode="/" horiz-adv-x="569" d="M-50 0l548 1422h120l-545 -1422h-123z" />
<glyph unicode="0" d="M100 711q0 359 124.5 540t351.5 181q100 0 173 -32t124 -85t89 -136q27 -58 43 -131q34 -152 34 -320q0 -171 -28 -314t-90.5 -237.5t-150.5 -141.5t-210 -47q-101 0 -167.5 25t-121 81.5t-95.5 151.5q-25 55 -40 125q-36 160 -36 340zM242 700q0 -214 43 -355 q44 -142 126 -200q60 -43 151 -43q108 0 180 63.5t112 208t40 306.5q0 139 -19 270t-59 211q-41 81 -101 118t-145 37q-99 0 -174.5 -57t-114.5 -207q-39 -151 -39 -352z" />
<glyph unicode="1" d="M251 1150l325 272h123v-1422h-137v1259l-233 -199z" />
<glyph unicode="2" d="M102 0v116l358 389q101 110 183 229q83 120 112 198q21 57 21 120q0 114 -71.5 182t-200.5 68q-73 0 -160 -27t-166 -76l-24 138q81 41 180 68q100 27 190 27q203 0 302 -106.5t99 -249.5q0 -106 -51 -222t-195 -293q-172 -211 -399 -438h680v-123h-858z" />
<glyph unicode="3" d="M102 47l17 136q53 -26 152 -48.5t175 -22.5q182 0 282.5 86.5t100.5 205.5q0 80 -41.5 144t-116 96t-232.5 32h-131v120h64q119 0 227 26q71 17 119.5 52t76.5 82t28 105q0 89 -63 155q-87 90 -262 90q-152 0 -315 -73l-12 132q67 30 165 48q98 19 194 19q172 0 279 -72 q157 -107 157 -277q0 -72 -27 -133.5t-67.5 -102.5t-87 -64t-118.5 -39q99 -16 167 -59t106 -121.5t38 -167.5q0 -109 -57.5 -202.5t-185.5 -149.5t-297 -56q-88 0 -185 18.5t-150 40.5z" />
<glyph unicode="4" d="M47 334v131l647 957h173v-967h213v-121h-213v-334h-133v334h-687zM184 455h550v825z" />
<glyph unicode="5" d="M175 43l2 142q49 -30 131 -52t165 -22q131 0 214 42.5t129 122.5t46 185q0 134 -92 217.5t-270 83.5q-77 0 -173 -15t-138 -31l14 706h735v-121h-602l-14 -452q90 34 220 34q221 0 344.5 -118.5t123.5 -311.5q0 -207 -137 -335t-395 -128q-157 0 -303 53z" />
<glyph unicode="6" d="M114 624q0 202 31 342t112 246.5t194 163.5t287 57q123 0 249 -37l-12 -125q-126 45 -240 45q-125 0 -216.5 -48t-152.5 -130.5t-93 -212.5q-23 -89 -30 -226q38 83 134.5 142.5t231.5 59.5q195 0 312.5 -119.5t117.5 -324.5q0 -239 -152 -367q-126 -104 -305 -104 q-100 0 -177 32.5t-129 83.5t-91 127q-24 48 -39 110q-32 137 -32 285zM271 459q0 -164 87.5 -257t236.5 -93q71 0 144 36.5t116 117.5t43 197q0 160 -84 240t-221 80q-150 0 -236 -84.5t-86 -236.5z" />
<glyph unicode="7" d="M119 1299v123h872v-125l-552 -1297h-156l568 1299h-732z" />
<glyph unicode="8" d="M85 375q0 115 71 204t255 159q-147 79 -213 163.5t-66 191.5q0 135 120 237t332 102q196 0 301.5 -93t105.5 -227q0 -74 -31.5 -138t-104.5 -126q-51 -44 -153 -106q136 -53 204 -102t101.5 -119t33.5 -151q0 -105 -55 -196t-164.5 -138.5t-256.5 -47.5q-226 0 -353 113 t-127 274zM233 378q0 -71 39.5 -136.5t117 -101.5t176.5 -36q96 0 175 33.5t116 93t37 133.5q0 72 -35 129t-119 108q-62 38 -194 88q-128 -53 -178 -86q-71 -48 -103 -104t-32 -121zM277 1084q0 -84 59.5 -153t227.5 -146q148 63 217 147.5t69 164.5q0 90 -73 154.5 t-207 64.5q-140 0 -216.5 -67.5t-76.5 -164.5z" />
<glyph unicode="9" d="M85 960q0 240 153 368q126 104 305 104q99 0 176 -32.5t129.5 -83.5t90.5 -128q25 -47 39 -109q33 -137 33 -286q0 -203 -31.5 -342.5t-112.5 -246t-194 -163t-287 -56.5q-123 0 -249 36l12 126q125 -46 240 -46q125 0 217 48t153 131t92 211q23 89 30 227 q-37 -83 -134 -142t-232 -59q-195 0 -312.5 119.5t-117.5 323.5zM226 957q0 -160 84.5 -240t220.5 -80q150 0 236 85t86 236q0 164 -87.5 257.5t-235.5 93.5q-72 0 -145 -37.5t-116 -118.5t-43 -196z" />
<glyph unicode=":" horiz-adv-x="569" d="M201 0v173h166v-173h-166zM201 860v173h166v-173h-166z" />
<glyph unicode=";" horiz-adv-x="569" d="M95 -277l123 450h169l-162 -450h-130zM202 860v173h166v-173h-166z" />
<glyph unicode="&#x3c;" horiz-adv-x="1229" d="M101 435v134l1028 409v-137l-867 -339l867 -338v-137z" />
<glyph unicode="=" horiz-adv-x="1229" d="M100 246v123h1028v-123h-1028zM100 636v123h1028v-123h-1028z" />
<glyph unicode="&#x3e;" horiz-adv-x="1229" d="M101 27v137l866 338l-866 339v137l1028 -409v-134z" />
<glyph unicode="?" horiz-adv-x="1024" d="M175 1380q55 21 147 36q92 16 160 16q110 0 199.5 -42.5t136 -122.5t46.5 -179q0 -67 -20 -126.5t-58 -118.5q-16 -25 -109 -135q-93 -111 -104 -127q-26 -38 -41.5 -84t-15.5 -98q0 -23 3 -48h-124q0 113 17 176q12 43 40 86q17 25 84 96q67 72 124 166q45 72 60 118 q10 32 10 72q0 67 -33.5 126t-91.5 88.5t-151 29.5q-115 0 -272 -57zM374 0v178h166v-178h-166z" />
<glyph unicode="@" horiz-adv-x="1638" d="M85 692q0 199 101.5 377t292 278.5t410.5 100.5q192 0 347 -76t236.5 -212.5t81.5 -297.5q0 -99 -29 -188q-30 -90 -75 -153t-94 -101q-50 -38 -103 -57q-54 -19 -104 -19q-70 0 -112 39.5t-42 98.5q0 26 11 66q-31 -62 -57 -93q-44 -51 -101.5 -81t-128.5 -30 q-116 0 -191 80t-75 219q0 120 58.5 236t147.5 176.5t188 60.5q96 0 158 -47t80 -130l44 149h116l-118 -392q-40 -132 -40 -185q0 -39 24.5 -62t68.5 -23q58 0 128.5 51.5t118.5 160.5t48 227q0 140 -71.5 258.5t-208 183t-307.5 64.5q-203 0 -372 -90.5t-260.5 -252.5 t-91.5 -339q0 -237 154 -410q196 -222 541 -222q152 0 282 44t277 146l44 -58q-153 -110 -296 -159q-143 -50 -310 -50q-229 0 -402 92.5t-271 257.5t-98 362zM588 637q0 -103 46.5 -157t117.5 -54q49 0 93 26t84.5 84t72 151.5t31.5 166.5q0 85 -45.5 133t-115.5 48 q-65 0 -128.5 -48t-109.5 -151.5t-46 -198.5z" />
<glyph unicode="A" horiz-adv-x="1365" d="M26 0l585 1422h162l566 -1422h-147l-154 382h-720l-155 -382h-137zM370 505h621l-308 789z" />
<glyph unicode="B" d="M166 0v1422h315q224 0 331 -75q140 -98 140 -279q0 -89 -35.5 -157.5t-97.5 -110.5q-46 -31 -124 -51q145 -27 222.5 -119t77.5 -233q0 -109 -47 -192.5t-121 -130.5q-49 -31 -146 -52.5t-250 -21.5h-265zM299 126h130q221 0 302 53q115 76 115 221q0 86 -41.5 152.5 t-124.5 98t-279 31.5q-15 0 -102 -2v-554zM299 801h161q178 0 263.5 68t85.5 195q0 130 -104 196q-65 41 -210 41h-196v-500z" />
<glyph unicode="C" horiz-adv-x="1365" d="M116 711q0 148 45.5 277t123 216.5t164.5 134.5t194.5 72.5t227.5 25.5q78 0 162 -16q84 -17 143 -39l-10 -121q-164 55 -312 55q-167 0 -306 -71.5t-212 -212t-73 -329.5q0 -183 70 -314t212.5 -201.5t308.5 -70.5q165 0 307 61l5 -135q-89 -30 -160 -42t-159 -12 q-160 0 -294 46.5t-224 133t-140 196.5q-73 157 -73 346z" />
<glyph unicode="D" horiz-adv-x="1365" d="M185 0v1422h268q212 0 317 -22t186.5 -74.5t151 -143.5t108 -211.5t38.5 -261.5q0 -162 -54 -295q-41 -101 -106.5 -176.5t-131.5 -119.5q-92 -61 -211 -89q-120 -29 -355 -29h-211zM320 123h152q147 0 260 34q113 35 179 90q88 73 141.5 189t53.5 278q0 125 -30.5 224 t-81.5 167.5t-114 110.5t-153 62q-91 21 -241 21h-166v-1176z" />
<glyph unicode="E" horiz-adv-x="1024" d="M175 0v1420h697v-123h-560v-503h531v-123h-531v-548h584v-123h-721z" />
<glyph unicode="F" horiz-adv-x="910" d="M161 0v1420h676v-123h-539v-498h515v-126h-515v-673h-137z" />
<glyph unicode="G" horiz-adv-x="1479" d="M133 731q0 321 200.5 513.5t543.5 192.5q194 0 358 -67l-16 -130q-140 76 -345 76q-270 0 -431.5 -160.5t-161.5 -427.5q0 -181 72.5 -323.5t213 -217.5t308.5 -75q148 0 280 49v484h-332v125h469v-694q-98 -42 -228 -65t-235 -23q-260 0 -449 161q-247 212 -247 582z " />
<glyph unicode="H" horiz-adv-x="1365" d="M180 0v1422h142v-618h723v618h140v-1422h-140v680h-723v-680h-142z" />
<glyph unicode="I" horiz-adv-x="455" d="M159 0v1422h137v-1422h-137z" />
<glyph unicode="J" horiz-adv-x="683" d="M28 10v122q70 -29 134 -29q94 0 151 69t57 233v1017h137v-923q-1 -220 -26 -307q-26 -88 -107.5 -147.5t-203.5 -59.5q-80 0 -142 25z" />
<glyph unicode="K" horiz-adv-x="1252" d="M199 0v1422h137v-637l650 637h182l-692 -671l752 -751h-195l-697 711v-711h-137z" />
<glyph unicode="L" horiz-adv-x="910" d="M166 0v1422h137v-1299h576v-123h-713z" />
<glyph unicode="M" horiz-adv-x="1820" d="M171 0v1422h211l517 -1251l533 1251h202v-1422h-136v1289l-545 -1289h-121l-533 1289v-1289h-128z" />
<glyph unicode="N" horiz-adv-x="1365" d="M166 0v1422h173l725 -1251v1251h131v-1422h-171l-730 1252v-1252h-128z" />
<glyph unicode="O" horiz-adv-x="1479" d="M107 709q0 181 60 340q44 117 120 203t165 131q128 64 284 64q145 0 262.5 -48.5t197.5 -140.5t121 -204q57 -153 57 -336q0 -219 -78 -391.5t-227 -259.5t-338 -87q-162 0 -276.5 59.5t-182.5 146.5t-106 184q-59 157 -59 339zM249 710q0 -266 128.5 -437.5 t356.5 -171.5q123 0 220 49q75 37 136 110.5t94 167.5q45 129 45 277q0 166 -53 306q-30 79 -81 148t-137 115t-208 46q-149 0 -264 -75t-176 -217.5t-61 -317.5z" />
<glyph unicode="P" horiz-adv-x="1024" d="M180 0v1422h320q169 0 267.5 -43.5t153.5 -139t55 -213.5q0 -114 -50 -205.5t-121 -136.5t-178 -64q-61 -11 -186 -11h-124v-609h-137zM317 730h140q92 0 140 10q80 16 128 50.5t76.5 93.5t28.5 142q0 98 -40 161t-107 87.5t-164 24.5h-202v-569z" />
<glyph unicode="Q" horiz-adv-x="1479" d="M107 709q0 208 75.5 378.5t219 265t340.5 94.5q193 0 339.5 -92.5t219.5 -260.5t73 -376q0 -152 -42 -296q-43 -145 -126.5 -241t-203.5 -148l307 -303h-185l-283 258q-57 -8 -108 -8q-187 0 -328.5 87.5t-219.5 259.5t-78 382zM249 710q0 -266 128.5 -437.5 t356.5 -171.5q123 0 220 49q75 37 136 110.5t94 167.5q45 129 45 277q0 166 -53 306q-30 79 -81 148t-137 115t-208 46q-149 0 -264 -75t-176 -217.5t-61 -317.5z" />
<glyph unicode="R" d="M180 0v1422h322q117 0 175 -11q94 -18 158 -63t100.5 -119t36.5 -171q0 -146 -90.5 -235.5t-229.5 -113.5q53 -9 86.5 -32t55.5 -58q11 -18 55 -114l229 -505h-154l-227 512q-36 80 -89 111t-163 31h-130v-654h-135zM315 777h121q105 0 168.5 14.5t96.5 34.5 q57 36 91 95.5t34 135.5q0 92 -46 150.5t-108 74.5q-63 17 -236 17h-121v-522z" />
<glyph unicode="S" horiz-adv-x="1024" d="M119 1075q0 148 118.5 255.5t319.5 107.5q149 0 297 -49l-21 -128q-132 52 -276 52q-136 0 -213.5 -68.5t-77.5 -162.5q0 -61 27 -103.5t97 -84.5l343 -209q99 -60 144 -131q46 -72 46 -174q0 -109 -57.5 -203.5t-168 -145t-246.5 -50.5q-82 0 -173 18t-151 46l14 145 q77 -43 161 -62t162 -19q89 0 161.5 33.5t110.5 95.5t38 135q0 56 -19 95t-55 71q-20 18 -90 61l-306 187q-89 55 -137 125t-48 163z" />
<glyph unicode="T" horiz-adv-x="1024" d="M21 1299v123h981v-123h-422v-1299h-137v1299h-422z" />
<glyph unicode="U" horiz-adv-x="1365" d="M168 507v915h137v-919q0 -124 47 -210.5t132.5 -139t192.5 -52.5q103 0 187.5 46.5t132.5 118.5q27 40 47 118t20 197v841h130v-874q0 -273 -140.5 -420.5t-373.5 -147.5q-110 0 -190 30.5t-142.5 80.5t-96.5 102t-58.5 131.5t-24.5 182.5z" />
<glyph unicode="V" horiz-adv-x="1252" d="M9 1422h149l460 -1273l477 1273h139l-542 -1422h-152z" />
<glyph unicode="W" horiz-adv-x="1934" d="M14 1422h145l353 -1275l367 1275h171l363 -1275l360 1275h135l-413 -1422h-168l-365 1275l-370 -1275h-170z" />
<glyph unicode="X" horiz-adv-x="1252" d="M7 0l531 747l-479 675h166l401 -583l407 583h159l-483 -675l521 -747h-171l-438 647l-453 -647h-161z" />
<glyph unicode="Y" horiz-adv-x="1252" d="M21 1422h164l436 -694l448 694h154l-536 -820v-602h-137v602z" />
<glyph unicode="Z" horiz-adv-x="1024" d="M43 0v123l747 1176h-728v123h877v-123l-742 -1176h766v-123h-920z" />
<glyph unicode="[" horiz-adv-x="569" d="M156 -277v1825h318v-95h-197v-1636h197v-94h-318z" />
<glyph unicode="\" horiz-adv-x="569" d="M-52 1505h126l547 -1546h-126z" />
<glyph unicode="]" horiz-adv-x="569" d="M81 -183h197v1636h-197v95h318v-1825h-318v94z" />
<glyph unicode="^" horiz-adv-x="1229" d="M204 568l347 854h128l346 -854h-140l-273 692l-267 -692h-141z" />
<glyph unicode="_" horiz-adv-x="1024" d="M0 -154h1024v-102h-1024v102z" />
<glyph unicode="`" horiz-adv-x="455" d="M-9 1465h164l189 -294h-95z" />
<glyph unicode="a" horiz-adv-x="1024" d="M78 286q0 96 52.5 174t173 123t321.5 45q29 0 117 -2v6q0 175 -56 237q-56 63 -188 63q-82 0 -162 -26t-136 -65v136q54 28 145 49q91 22 171 22q118 0 186.5 -33.5t112.5 -95.5q33 -46 45 -125q8 -49 8 -194v-415q0 -63 10 -185h-124v180q-43 -82 -138 -138.5 t-217 -56.5q-149 0 -235 84t-86 217zM216 284q0 -85 56.5 -137t162.5 -52q65 0 120 21.5t91.5 55.5t54.5 69.5t26 85t15 194.5q-45 3 -74 3q-129 0 -208 -15q-80 -15 -133 -45t-82 -74t-29 -106z" />
<glyph unicode="b" d="M156 0v1536h130v-690q37 88 127.5 147.5t209.5 59.5q107 0 184.5 -43t126.5 -110t78.5 -168t29.5 -210q0 -149 -55 -279.5t-146 -194t-233 -63.5q-114 0 -189.5 47t-141.5 160l5 -192h-126zM283 525q0 -139 45 -240t118 -145.5t159 -44.5q135 0 218 100.5t83 346.5 q0 99 -33 197.5t-101.5 149t-157.5 50.5q-84 0 -164 -47t-123.5 -141.5t-43.5 -225.5z" />
<glyph unicode="c" horiz-adv-x="910" d="M90 520q0 158 64.5 279.5t186.5 187t263 65.5q117 0 252 -42l-10 -133q-115 50 -227 50q-174 0 -283 -109.5t-109 -290.5q0 -120 46.5 -219t135.5 -152.5t205 -53.5q119 0 230 47l12 -125q-116 -40 -261 -40q-222 0 -363.5 146.5t-141.5 389.5z" />
<glyph unicode="d" d="M92 529q0 141 48 266.5t138.5 191.5t227.5 66q122 0 212.5 -58.5t129.5 -148.5v690h130v-1536h-125l4 192q-63 -111 -139.5 -159t-192.5 -48q-142 0 -234 65.5t-145.5 195.5t-53.5 283zM228 519q0 -91 19 -173t53 -133.5t91 -84.5t138 -33q88 0 162 46.5t117 147.5 t43 236q0 198 -94.5 306t-226.5 108t-217 -102.5t-85 -317.5z" />
<glyph unicode="e" horiz-adv-x="1024" d="M81 523q0 248 131.5 390t328.5 142q199 0 301.5 -138t102.5 -368q0 -20 -1 -58h-730q2 -126 51 -216t132 -134t178 -44q62 0 146 22q85 23 132 52l13 -128q-71 -26 -161 -43t-159 -17q-128 0 -238.5 63t-168.5 187t-58 290zM219 593h595q-3 169 -83 259.5t-195 90.5 q-73 0 -144.5 -38t-118.5 -118.5t-54 -193.5z" />
<glyph unicode="f" horiz-adv-x="683" d="M38 924v109h216v143q0 148 31 222t98.5 113t140.5 39q52 0 130 -21l-9 -121q-47 24 -100 24q-72 0 -116.5 -53t-44.5 -184v-162h242v-109h-242v-924h-130v924h-216z" />
<glyph unicode="g" d="M81 531q0 119 29.5 214.5t87.5 162t121 97.5q88 43 213 43q242 0 319 -178l-4 163h123l-1 -824q0 -237 -25 -343q-26 -106 -87 -170t-160 -101.5t-206 -37.5q-66 0 -150.5 14t-169.5 47l10 135q70 -36 158 -58t163 -22q93 0 160.5 32.5t109 91.5t58.5 152q13 71 21 269 q-42 -95 -126 -155.5t-203 -60.5q-192 0 -316.5 137t-124.5 392zM218 544q0 -187 67 -291q87 -133 238 -133q138 0 231 107.5t93 319.5q0 206 -86.5 298t-219.5 92q-138 0 -230.5 -102t-92.5 -291z" />
<glyph unicode="h" d="M161 0v1536h123v-702q59 103 130 153q94 65 216 65q77 0 140 -25t102.5 -62t62.5 -80.5t36 -122.5q8 -45 8 -162v-600h-131v623q0 119 -25 180.5t-82.5 97t-131.5 35.5q-71 0 -135 -33t-108 -89q-29 -38 -52 -105.5t-23 -141.5v-567h-130z" />
<glyph unicode="i" horiz-adv-x="455" d="M152 1327v176h149v-176h-149zM161 0v1033h131v-1033h-131z" />
<glyph unicode="j" horiz-adv-x="455" d="M-64 -422l5 114q53 -12 84 -12q39 0 72 18.5t47.5 56.5t14.5 124l2 1154h131v-1182q0 -151 -63 -217.5t-188 -66.5q-56 0 -105 11zM152 1327v176h149v-176h-149z" />
<glyph unicode="k" horiz-adv-x="1024" d="M166 0v1536h130v-920l474 417h166l-516 -452l578 -581h-178l-524 533v-533h-130z" />
<glyph unicode="l" horiz-adv-x="455" d="M161 0v1536h130v-1536h-130z" />
<glyph unicode="m" horiz-adv-x="1707" d="M152 1033h126l-5 -203q55 105 142.5 162.5t188.5 57.5q117 0 190 -59.5t93 -170.5q61 118 142 174t200 56q87 0 152.5 -33t102.5 -92.5t55 -158.5q9 -49 9 -166v-600h-130v600q0 167 -37 234q-55 100 -171 100q-125 0 -216 -117q-72 -92 -72 -277v-540h-130v666 q0 136 -57 202t-149 66q-87 0 -162 -54t-102 -136q-35 -106 -35 -230v-514h-130v830q0 29 -5 203z" />
<glyph unicode="n" d="M154 1033h126l-3 -203q60 101 132 153q97 69 221 69q76 0 140 -25t103.5 -62.5t62.5 -82t36 -122.5q7 -44 7 -160v-600h-130v619q0 122 -23 183q-24 61 -81.5 97.5t-133.5 36.5q-75 0 -139 -34t-106 -89q-29 -37 -52 -105t-23 -141v-567h-130v801q0 113 -7 232z" />
<glyph unicode="o" d="M85 514q0 142 50 268.5t163 202t277 75.5q115 0 201 -35.5t141 -98.5t85 -133q51 -123 51 -272q0 -159 -60.5 -285t-177.5 -193t-253 -67q-205 0 -341 144.5t-136 393.5zM218 511q0 -119 45 -219t129 -153.5t175 -53.5q130 0 226 93q124 119 124 345q0 208 -98 319.5 t-247 111.5q-152 0 -253 -113.5t-101 -329.5z" />
<glyph unicode="p" d="M147 -434v1467h126l-5 -192q62 109 139.5 158t194.5 49q147 0 239.5 -70t142 -199.5t49.5 -273.5q0 -141 -47.5 -266.5t-138.5 -191.5t-228 -66q-123 0 -213 58.5t-129 147.5v-621h-130zM274 509q0 -132 44 -226.5t123.5 -141t161.5 -46.5q124 0 209 102.5t85 320.5 q0 147 -39 243.5t-105 137t-151 40.5q-157 0 -242.5 -118.5t-85.5 -311.5z" />
<glyph unicode="q" d="M95 506q0 98 24 191t66 163t92 112.5t109.5 64t133.5 21.5q85 0 149 -28.5t113 -79.5q37 -38 78 -109l-4 192h125v-1467h-130v621q-37 -88 -127 -147t-215 -59q-145 0 -235.5 72t-134.5 195.5t-44 257.5zM231 511q0 -135 39 -231t107 -140.5t148 -44.5q82 0 162 46.5 t123.5 141t43.5 225.5q0 139 -44.5 240t-118 146t-159.5 45t-156 -43t-107.5 -142t-37.5 -243z" />
<glyph unicode="r" horiz-adv-x="683" d="M159 1029h126l-5 -237q41 124 128 194q64 52 161 52q39 0 83 -9v-135q-38 12 -85 12q-59 0 -99 -16t-74.5 -52.5t-56.5 -82.5q-14 -31 -27 -84q-18 -81 -18 -154v-517h-126v853q0 74 -7 176z" />
<glyph unicode="s" horiz-adv-x="796" d="M62 36l14 128q140 -67 266 -67q106 0 172 57t66 126q0 38 -17 70.5t-55 60.5q-22 16 -97 53q-229 110 -282 169q-53 60 -53 150q0 128 97.5 199t236.5 71q66 0 140 -13t126 -35l-12 -118q-115 52 -248 52q-99 0 -153 -45t-54 -105q0 -37 23 -70.5t82 -69.5 q28 -17 167 -80q139 -64 190 -128q51 -65 51 -156q0 -131 -89 -207q-113 -96 -303 -96q-118 0 -268 54z" />
<glyph unicode="t" horiz-adv-x="683" d="M36 924v109h209v259l130 45v-304h244v-109h-244v-647q0 -96 36 -135.5t106 -39.5q47 0 116 24l7 -112q-69 -29 -161 -29q-109 0 -171.5 65.5t-62.5 198.5v675h-209z" />
<glyph unicode="u" d="M156 434v599h130v-647q0 -99 30 -162t89.5 -95t123.5 -32q79 0 155.5 52.5t114 142.5t37.5 175v566h131v-801q0 -110 7 -232h-126l2 204q-56 -110 -149 -166.5t-204 -56.5q-92 0 -165.5 40.5t-113 103t-54.5 145.5q-8 41 -8 164z" />
<glyph unicode="v" horiz-adv-x="910" d="M19 1033h140l291 -900l304 900h135l-365 -1033h-152z" />
<glyph unicode="w" horiz-adv-x="1593" d="M16 1033h142l274 -898l286 898h157l284 -903l287 903h131l-342 -1033h-156l-292 903l-282 -903h-154z" />
<glyph unicode="x" horiz-adv-x="910" d="M12 0l363 545l-327 488h158l252 -391l253 391h152l-332 -488l360 -545h-158l-285 450l-287 -450h-149z" />
<glyph unicode="y" horiz-adv-x="910" d="M21 1033h140l294 -881l301 881h135l-386 -1099q-80 -227 -130 -286q-71 -85 -188 -85q-64 0 -121 17l12 114q32 -17 83 -17q52 0 87 23t63 74q29 52 77 190z" />
<glyph unicode="z" horiz-adv-x="910" d="M62 0v109l628 815h-604v109h753v-109l-628 -815h631v-109h-780z" />
<glyph unicode="{" horiz-adv-x="569" d="M-47 593v84q41 1 113 23q35 10 67.5 30.5t54 49.5t30.5 67q10 38 10 131v96q0 159 17 230t65 126t118 83t189 35v-84q-70 -5 -111 -22q-54 -21 -90.5 -63t-47.5 -96q-12 -54 -12 -166v-87q0 -141 -19 -211q-19 -71 -78 -120.5t-157 -63.5q96 -13 155 -59t79 -115 q20 -70 20 -221l1 -105q0 -126 18 -174q18 -49 53.5 -83.5t79.5 -50.5t109 -20v-84q-122 7 -193 36t-114.5 81.5t-62.5 116.5t-19 219v117q0 102 -18 155t-69 87q-66 45 -188 58z" />
<glyph unicode="|" horiz-adv-x="455" d="M161 -439v2048h134v-2048h-134z" />
<glyph unicode="}" horiz-adv-x="569" d="M-47 -193q74 5 120.5 25.5t79.5 58t46 82.5q14 46 14 162l1 105q0 136 13 194t39.5 94.5t75.5 65.5t126 41q-54 9 -93 26t-72 46.5t-52.5 67.5t-27.5 91q-9 54 -9 164v87q0 134 -17 184q-23 72 -81.5 114t-162.5 49v84q158 -9 241 -61t120 -147q28 -73 28 -266v-96 q0 -102 13 -144t43 -73t82.5 -53t136.5 -31v-84q-126 -14 -192 -62q-48 -35 -68 -95q-15 -46 -15 -143v-117q0 -181 -35 -263q-35 -83 -117.5 -132t-236.5 -58v84z" />
<glyph unicode="~" horiz-adv-x="1229" d="M77 355q13 89 33 134q29 64 86.5 107t133.5 43q40 0 78 -7q39 -8 123 -36l222 -73q69 -22 96 -27q28 -5 52 -5q58 0 101.5 38.5t60.5 120.5h89q-15 -141 -85.5 -211t-167.5 -70q-45 0 -99 13q-81 19 -290 91q-90 32 -121 39t-58 7q-59 0 -105 -43.5t-57 -120.5h-92z" />
<glyph unicode="&#xa0;" />
<glyph unicode="&#xa1;" horiz-adv-x="796" d="M318 -434l24 1067h118l24 -1067h-166zM318 815v173h166v-173h-166z" />
<glyph unicode="&#xa2;" d="M166 524q0 241 152.5 377t360.5 136q17 0 51 -1l74 239h95l-76 -249q77 -17 99 -26v-132q-18 9 -63.5 21.5t-75.5 15.5l-240 -768q78 -28 151 -28q52 0 116.5 16t111.5 41l15 -128q-42 -18 -111 -33.5t-144 -15.5q-99 0 -174 30l-88 -280h-95l97 308q-71 43 -120 100 q-70 80 -103 172.5t-33 204.5zM304 522q0 -110 47.5 -204.5t113.5 -137.5l228 737q-126 -6 -214 -58.5t-131.5 -143t-43.5 -193.5z" />
<glyph unicode="&#xa3;" d="M137 0v123h213v579h-189v106h189q0 196 13 275q18 114 74.5 191.5t149.5 117.5t205 40q119 0 234 -43l-19 -128q-101 50 -206 50q-89 0 -155 -33.5t-99.5 -86t-45.5 -137.5q-12 -86 -11 -246h339v-106h-341v-579h505v-123h-856z" />
<glyph unicode="&#xa4;" d="M93 1103l82 82l131 -131q63 45 117 64q70 24 147 24q71 0 131.5 -20.5t129.5 -67.5l131 131l82 -82l-131 -132q88 -120 88 -262q0 -136 -89 -260l132 -132l-82 -82l-133 132q-120 -90 -260 -90q-64 0 -133 22t-128 68l-132 -132l-82 82l131 131q-42 57 -61 108 q-28 75 -28 154q0 144 88 262zM261 710q0 -80 40.5 -153.5t114 -114.5t153.5 -41t153 41t114 114.5t41 152.5q0 81 -41.5 155t-115.5 114t-151 40q-78 0 -152 -40t-115 -114t-41 -154z" />
<glyph unicode="&#xa5;" d="M36 1422h157l293 -530l81 -149l69 121l309 558h148l-402 -715h246v-99h-301v-167h301v-98h-301v-343h-134v343h-302v98h302v167h-302v99h246z" />
<glyph unicode="&#xa6;" horiz-adv-x="455" d="M161 -183v512h134v-512h-134zM161 841v512h134v-512h-134z" />
<glyph unicode="&#xa7;" d="M183 611q0 68 35 128t145 155q-83 44 -125 101.5t-42 137.5q0 79 45.5 149t133.5 110t213 40q117 0 276 -45l-15 -119q-141 52 -254 52q-121 0 -188.5 -55t-67.5 -125q0 -40 20.5 -76t67.5 -66q36 -23 146 -68q181 -75 247 -120q66 -46 99 -108t33 -125q0 -66 -29.5 -123 t-125.5 -151q162 -94 162 -252q0 -76 -35 -136.5t-93.5 -101t-143 -63.5t-176.5 -23q-67 0 -135 12q-69 12 -181 48l14 128q145 -69 320 -69q137 0 212 62.5t75 143.5q0 48 -24.5 85.5t-78.5 67.5q-36 20 -159 69q-163 66 -229 104q-67 38 -104.5 98t-37.5 135zM313 626 q0 -60 53 -110q79 -76 332 -163q121 107 121 209q0 41 -18 76t-45 56q-36 29 -128 74l-165 76q-69 -44 -109.5 -105t-40.5 -113z" />
<glyph unicode="&#xa8;" horiz-adv-x="455" d="M-33 1228v180h152v-180h-152zM320 1228v180h152v-180h-152z" />
<glyph unicode="&#xa9;" horiz-adv-x="1638" d="M85 714q0 190 98.5 366.5t274.5 271.5t361 95q186 0 361.5 -95t274.5 -271.5t99 -366.5q0 -123 -38 -234q-39 -111 -103 -199q-65 -88 -156 -156.5t-205 -106.5t-233 -38q-121 0 -231 37q-111 38 -199 102t-157 154q-69 91 -108 205.5t-39 235.5zM162 714 q0 -107 34 -209.5t96 -183.5t141 -139t178 -91q100 -34 208 -34q150 0 285 64q98 47 180 127.5t137.5 201t55.5 264.5q0 170 -88.5 328t-245.5 243t-324 85q-165 0 -323 -84.5t-246 -242.5t-88 -329zM441 719q0 118 50 219.5t139 155t194 53.5q144 0 241 -85.5t106 -207.5 h-104q-17 92 -81.5 145.5t-155.5 53.5q-113 0 -191 -88t-78 -242q0 -100 36 -179.5t102.5 -120.5t141.5 -41q89 0 151 49.5t80 135.5h104q-15 -118 -108.5 -198t-226.5 -80q-107 0 -200.5 53.5t-146.5 154.5t-53 222z" />
<glyph unicode="&#xaa;" horiz-adv-x="666" d="M57 983q0 87 61 139q87 75 278 75l60 -1q-4 89 -32.5 118t-99.5 29q-100 0 -194 -66v116q40 21 97 34t108 13q74 0 118.5 -21t72.5 -59q22 -29 30 -77q5 -30 5 -118v-240q0 -38 7 -123h-105v73q-47 -43 -92 -62t-106 -19q-96 0 -152 53.5t-56 135.5zM170 982 q0 -42 29.5 -68.5t86.5 -26.5q55 0 96.5 26t54.5 60t18 132q-14 1 -31 1q-149 0 -213 -43q-41 -28 -41 -81z" />
<glyph unicode="&#xab;" d="M190 526l275 417h121l-261 -417l261 -419h-121zM546 526l277 422h121l-263 -422l263 -419h-121z" />
<glyph unicode="&#xac;" horiz-adv-x="1229" d="M101 636v123h1028v-513h-126v390h-902z" />
<glyph unicode="&#xad;" horiz-adv-x="683" d="M85 488v124h512v-124h-512z" />
<glyph unicode="&#xae;" horiz-adv-x="770" d="M20 1081q0 95 49.5 183t137 135.5t177.5 47.5q93 0 180.5 -47.5t137 -135.5t49.5 -183t-48.5 -182.5t-135.5 -136t-182 -48.5q-94 0 -181 48.5t-135.5 135.5t-48.5 183zM77 1080q0 -80 41 -153.5t114.5 -114.5t152.5 -41q80 0 153.5 41t114.5 114.5t41 153.5t-41.5 155 t-115.5 115t-153 40q-77 0 -150.5 -40t-115 -115t-41.5 -155zM241 895v376h140q84 0 121 -23q50 -31 50 -87q0 -32 -17 -55t-52 -36q32 -14 48 -41.5t16 -78.5q0 -23 1.5 -32t8.5 -23h-71q-8 19 -9 43q-1 51 -9.5 69t-28.5 26q-21 9 -76 9h-52v-147h-70zM311 1098h67 q61 0 82.5 17t21.5 44q0 26 -20 41t-86 15h-65v-117z" />
<glyph unicode="&#xaf;" horiz-adv-x="455" d="M-24 1256v119h503v-119h-503z" />
<glyph unicode="&#xb0;" horiz-adv-x="819" d="M100 1122q0 80 41.5 154.5t116 115t152.5 40.5t152.5 -40.5t116 -115t41.5 -154.5q0 -81 -41 -154.5t-114.5 -115t-154.5 -41.5q-80 0 -154 41.5t-115 115t-41 154.5zM216 1122q0 -81 57 -138t137 -57q81 0 137.5 57t56.5 138q0 80 -56.5 137t-137.5 57t-137.5 -57 t-56.5 -137z" />
<glyph unicode="&#xb1;" horiz-adv-x="1229" d="M101 -20v123h1028v-123h-1028zM101 546v123h447v356h135v-356h446v-123h-446v-354h-135v354h-447z" />
<glyph unicode="&#xb2;" horiz-adv-x="739" d="M74 569v88l219 230q94 99 149 192q36 62 36 115q0 60 -38 95t-109 35q-95 0 -207 -68l-21 112q123 62 240 62q120 0 187.5 -63t67.5 -159q0 -43 -12 -83q-16 -53 -48 -105q-33 -53 -108 -139q-95 -111 -197 -210h386v-102h-545z" />
<glyph unicode="&#xb3;" horiz-adv-x="739" d="M73 602l14 110q44 -21 103 -34q60 -14 106 -14q103 0 159 46t56 108q0 64 -48 103.5t-172 39.5h-93v100h54q72 0 133.5 14.5t91.5 49.5t30 74q0 52 -45 89.5t-135 37.5q-91 0 -202 -49l-10 109q101 44 232 44q129 0 202.5 -65t73.5 -153q0 -48 -20 -89t-52 -69 q-21 -18 -62 -37q62 -25 93 -64q48 -58 48 -139q0 -66 -35.5 -123.5t-115.5 -93t-188 -35.5q-55 0 -116 11t-102 29z" />
<glyph unicode="&#xb4;" horiz-adv-x="455" d="M109 1171l190 294h163l-258 -294h-95z" />
<glyph unicode="&#xb5;" horiz-adv-x="1139" d="M137 -425v1405h132v-463q0 -174 27 -253q27 -80 93 -126t152 -46t159.5 48.5t108 134t34.5 249.5v455h132v-979h-127v151q-64 -89 -137.5 -131.5t-175.5 -42.5q-69 0 -119.5 19.5t-87.5 52.5q-26 23 -59 71v-545h-132z" />
<glyph unicode="&#xb6;" horiz-adv-x="1229" d="M76 946q0 127 49.5 225t137.5 162q56 41 141.5 65t197.5 24h516v-107h-110v-1710h-130v1710h-251v-1710h-130v890q-220 14 -330 158q-91 117 -91 293z" />
<glyph unicode="&#xb8;" horiz-adv-x="455" d="M14 -337l14 64q43 -24 95 -40q53 -17 100 -17q52 0 76 22t24 59q0 38 -22 59.5t-64 21.5q-32 0 -83 -7l59 175h52l-33 -111q19 1 30 1q91 0 132.5 -36t41.5 -93q0 -62 -50 -102.5t-159 -40.5q-100 0 -213 45z" />
<glyph unicode="&#xb9;" horiz-adv-x="739" d="M157 1253l211 171h95v-855h-113v713l-126 -104z" />
<glyph unicode="&#xba;" horiz-adv-x="739" d="M64 1116q0 155 84.5 243t224.5 88q159 0 230.5 -98t71.5 -230q0 -95 -37.5 -171.5t-111.5 -118t-160 -41.5q-131 0 -216.5 89t-85.5 239zM174 1114q0 -106 57.5 -169t137.5 -63q81 0 137.5 62.5t56.5 176.5q0 113 -53.5 173.5t-138.5 60.5q-86 0 -141.5 -61.5 t-55.5 -179.5z" />
<glyph unicode="&#xbb;" d="M194 107l263 419l-263 422h121l277 -422l-277 -419h-121zM552 107l261 419l-261 417h121l275 -417l-275 -419h-121z" />
<glyph unicode="&#xbc;" horiz-adv-x="1708" d="M10 1253l211 171h95v-855h-113v713l-126 -104zM255 -62l908 1584h119l-908 -1584h-119zM979 194v95l396 566h126v-561h128v-100h-128v-194h-110v194h-412zM1105 294h286v415z" />
<glyph unicode="&#xbd;" horiz-adv-x="1708" d="M37 1253l211 171h95v-855h-113v713l-126 -104zM282 -62l908 1584h119l-908 -1584h-119zM1039 0v89l219 229q94 99 148 192q37 62 37 115q0 60 -38 95t-110 35q-95 0 -207 -68l-20 112q122 62 239 62q121 0 188.5 -63t67.5 -159q0 -43 -12 -82q-16 -53 -48 -106 q-33 -53 -108 -139q-95 -111 -197 -210h386v-102h-545z" />
<glyph unicode="&#xbe;" horiz-adv-x="1708" d="M-6 602l14 110q43 -21 103 -34q60 -14 106 -14q103 0 159 46t56 108q0 64 -48 103.5t-172 39.5h-93v100h54q71 0 132.5 14.5t92 49.5t30.5 74q0 52 -45 90t-135 38q-92 0 -202 -50l-10 109q102 44 232 44q129 0 202.5 -65t73.5 -153q0 -48 -20.5 -89t-51.5 -69 q-21 -18 -62 -37q61 -25 93 -63q48 -59 48 -140q0 -66 -35.5 -123.5t-115.5 -93t-188 -35.5q-55 0 -116 11t-102 29zM323 -62l908 1584h119l-908 -1584h-119zM1047 194v95l396 566h127v-561h128v-100h-128v-194h-110v194h-413zM1174 294h286v415z" />
<glyph unicode="&#xbf;" horiz-adv-x="1024" d="M154 -102q0 67 20 126.5t59 118.5q16 25 109 136t104 126q26 39 41.5 84.5t15.5 100.5q0 21 -3 45h123q0 -113 -17 -176q-11 -43 -40 -85q-17 -26 -83 -97q-67 -72 -125 -165q-44 -72 -59 -119q-10 -32 -10 -72q0 -67 33.5 -126t91 -88.5t151.5 -29.5q115 0 271 58 l7 -128q-56 -23 -147 -38q-92 -15 -160 -15q-109 0 -198.5 42.5t-136.5 122.5t-47 179zM478 808v178h166v-178h-166z" />
<glyph unicode="&#xc0;" horiz-adv-x="1365" d="M26 0l585 1422h162l566 -1422h-147l-154 382h-720l-155 -382h-137zM370 505h621l-308 789zM454 1779h164l189 -294h-95z" />
<glyph unicode="&#xc1;" horiz-adv-x="1365" d="M26 0l585 1422h162l566 -1422h-147l-154 382h-720l-155 -382h-137zM370 505h621l-308 789zM554 1485l190 294h163l-258 -294h-95z" />
<glyph unicode="&#xc2;" horiz-adv-x="1365" d="M26 0l585 1422h162l566 -1422h-147l-154 382h-720l-155 -382h-137zM370 505h621l-308 789zM408 1497l206 294h150l196 -294h-95l-177 213l-185 -213h-95z" />
<glyph unicode="&#xc3;" horiz-adv-x="1365" d="M26 0l585 1422h162l566 -1422h-147l-154 382h-720l-155 -382h-137zM370 505h621l-308 789zM425 1549q15 86 63 131t112 45q22 0 44 -5q23 -5 84 -26q62 -22 83 -22q28 0 55 17.5t43 53.5h75q-4 -72 -54.5 -122.5t-127.5 -50.5q-44 0 -151 36q-41 14 -68 14 q-28 0 -50 -17.5t-32 -53.5h-76z" />
<glyph unicode="&#xc4;" horiz-adv-x="1365" d="M26 0l585 1422h162l566 -1422h-147l-154 382h-720l-155 -382h-137zM370 505h621l-308 789zM448 1554v180h152v-180h-152zM801 1554v180h152v-180h-152z" />
<glyph unicode="&#xc5;" horiz-adv-x="1365" d="M26 0l585 1422h162l566 -1422h-147l-154 382h-720l-155 -382h-137zM370 505h621l-308 789zM505 1653q0 79 55.5 134.5t134.5 55.5q78 0 133.5 -55.5t55.5 -134.5q0 -78 -55.5 -133.5t-133.5 -55.5q-79 0 -134.5 55.5t-55.5 133.5zM574 1653q0 -50 35.5 -85t85.5 -35 t85.5 35t35.5 85t-35.5 85.5t-85.5 35.5q-51 0 -86 -35.5t-35 -85.5z" />
<glyph unicode="&#xc6;" horiz-adv-x="1820" d="M0 0l894 1422h779v-123h-559v-507h531v-124h-531v-545h583v-123h-718v379h-590l-233 -379h-156zM469 507h510v813z" />
<glyph unicode="&#xc7;" horiz-adv-x="1365" d="M116 711q0 148 45.5 277t122.5 216.5t164.5 134.5t195 72.5t227.5 25.5q78 0 162 -16q84 -17 143 -39l-10 -121q-164 55 -312 55q-167 0 -306 -71.5t-212 -212t-73 -329.5q0 -177 67 -308t206 -203t311 -72q156 0 314 58l5 -135q-134 -56 -320 -56q-20 0 -46 1l-30 -99 q20 1 30 1q91 0 132.5 -36t41.5 -93q0 -62 -50 -102.5t-159 -40.5q-99 0 -213 45l15 64q42 -24 95 -40q53 -17 99 -17q52 0 76 22t24 59q0 38 -22 59.5t-63 21.5q-33 0 -84 -7l57 167q-199 20 -344 117t-217 257.5t-72 344.5z" />
<glyph unicode="&#xc8;" horiz-adv-x="1024" d="M175 0v1420h697v-123h-560v-503h531v-123h-531v-548h584v-123h-721zM255 1780h164l189 -294h-95z" />
<glyph unicode="&#xc9;" horiz-adv-x="1024" d="M175 0v1420h697v-123h-560v-503h531v-123h-531v-548h584v-123h-721zM400 1486l190 294h163l-258 -294h-95z" />
<glyph unicode="&#xca;" horiz-adv-x="1024" d="M175 0v1420h697v-123h-560v-503h531v-123h-531v-548h584v-123h-721zM234 1498l206 294h150l196 -294h-95l-177 213l-185 -213h-95z" />
<glyph unicode="&#xcb;" horiz-adv-x="1024" d="M175 0v1420h697v-123h-560v-503h531v-123h-531v-548h584v-123h-721zM267 1555v180h152v-180h-152zM620 1555v180h152v-180h-152z" />
<glyph unicode="&#xcc;" horiz-adv-x="455" d="M-7 1779h164l189 -294h-95zM159 0v1422h137v-1422h-137z" />
<glyph unicode="&#xcd;" horiz-adv-x="455" d="M100 1485l190 294h163l-258 -294h-95zM159 0v1422h137v-1422h-137z" />
<glyph unicode="&#xce;" horiz-adv-x="455" d="M-56 1497l206 294h150l196 -294h-95l-177 213l-185 -213h-95zM159 0v1422h137v-1422h-137z" />
<glyph unicode="&#xcf;" horiz-adv-x="455" d="M-33 1554v180h152v-180h-152zM159 0v1422h137v-1422h-137zM320 1554v180h152v-180h-152z" />
<glyph unicode="&#xd0;" horiz-adv-x="1365" d="M28 724v114h156v584h268q184 0 266 -12q131 -21 226.5 -76t168 -155.5t106.5 -217.5t34 -249q0 -163 -47.5 -282.5t-124 -204.5t-150.5 -127t-189 -70t-347 -28h-211v724h-156zM320 123h151q315 0 474.5 156.5t159.5 434.5q0 131 -36 245q-25 76 -71 140t-105 107.5 t-151 67.5q-92 25 -257 25h-165v-461h500v-114h-500v-601z" />
<glyph unicode="&#xd1;" horiz-adv-x="1365" d="M166 0v1422h173l725 -1251v1251h131v-1422h-171l-730 1252v-1252h-128zM417 1549q15 86 63 131t112 45q22 0 44 -5q23 -5 84 -26q62 -22 83 -22q28 0 55 17.5t43 53.5h75q-4 -72 -54.5 -122.5t-127.5 -50.5q-44 0 -151 36q-41 14 -68 14q-28 0 -50 -17.5t-32 -53.5h-76z " />
<glyph unicode="&#xd2;" horiz-adv-x="1479" d="M107 709q0 181 60 340q44 117 120 203t165 131q128 64 284 64q145 0 262.5 -48.5t197.5 -140.5t121 -204q57 -153 57 -336q0 -219 -78 -391.5t-227 -259.5t-338 -87q-162 0 -276.5 59.5t-182.5 146.5t-106 184q-59 157 -59 339zM249 710q0 -266 128.5 -437.5 t356.5 -171.5q123 0 220 49q75 37 136 110.5t94 167.5q45 129 45 277q0 166 -53 306q-30 79 -81 148t-137 115t-208 46q-149 0 -264 -75t-176 -217.5t-61 -317.5zM499 1781h164l189 -294h-95z" />
<glyph unicode="&#xd3;" horiz-adv-x="1479" d="M107 709q0 181 60 340q44 117 120 203t165 131q128 64 284 64q145 0 262.5 -48.5t197.5 -140.5t121 -204q57 -153 57 -336q0 -219 -78 -391.5t-227 -259.5t-338 -87q-162 0 -276.5 59.5t-182.5 146.5t-106 184q-59 157 -59 339zM249 710q0 -266 128.5 -437.5 t356.5 -171.5q123 0 220 49q75 37 136 110.5t94 167.5q45 129 45 277q0 166 -53 306q-30 79 -81 148t-137 115t-208 46q-149 0 -264 -75t-176 -217.5t-61 -317.5zM606 1487l190 294h163l-258 -294h-95z" />
<glyph unicode="&#xd4;" horiz-adv-x="1479" d="M107 709q0 181 60 340q44 117 120 203t165 131q128 64 284 64q145 0 262.5 -48.5t197.5 -140.5t121 -204q57 -153 57 -336q0 -219 -78 -391.5t-227 -259.5t-338 -87q-162 0 -276.5 59.5t-182.5 146.5t-106 184q-59 157 -59 339zM249 710q0 -266 128.5 -437.5 t356.5 -171.5q123 0 220 49q75 37 136 110.5t94 167.5q45 129 45 277q0 166 -53 306q-30 79 -81 148t-137 115t-208 46q-149 0 -264 -75t-176 -217.5t-61 -317.5zM468 1499l206 294h150l196 -294h-95l-177 213l-185 -213h-95z" />
<glyph unicode="&#xd5;" horiz-adv-x="1479" d="M107 709q0 181 60 340q44 117 120 203t165 131q128 64 284 64q145 0 262.5 -48.5t197.5 -140.5t121 -204q57 -153 57 -336q0 -219 -78 -391.5t-227 -259.5t-338 -87q-162 0 -276.5 59.5t-182.5 146.5t-106 184q-59 157 -59 339zM249 710q0 -266 128.5 -437.5 t356.5 -171.5q123 0 220 49q75 37 136 110.5t94 167.5q45 129 45 277q0 166 -53 306q-30 79 -81 148t-137 115t-208 46q-149 0 -264 -75t-176 -217.5t-61 -317.5zM468 1551q15 86 63 131t112 45q22 0 44 -5q23 -5 84 -26q62 -22 83 -22q28 0 55 17.5t43 53.5h75 q-4 -72 -54.5 -122.5t-127.5 -50.5q-44 0 -151 36q-41 14 -68 14q-28 0 -50 -17.5t-32 -53.5h-76z" />
<glyph unicode="&#xd6;" horiz-adv-x="1479" d="M107 709q0 181 60 340q44 117 120 203t165 131q128 64 284 64q145 0 262.5 -48.5t197.5 -140.5t121 -204q57 -153 57 -336q0 -219 -78 -391.5t-227 -259.5t-338 -87q-162 0 -276.5 59.5t-182.5 146.5t-106 184q-59 157 -59 339zM249 710q0 -266 128.5 -437.5 t356.5 -171.5q123 0 220 49q75 37 136 110.5t94 167.5q45 129 45 277q0 166 -53 306q-30 79 -81 148t-137 115t-208 46q-149 0 -264 -75t-176 -217.5t-61 -317.5zM492 1556v180h152v-180h-152zM845 1556v180h152v-180h-152z" />
<glyph unicode="&#xd7;" horiz-adv-x="1229" d="M125 108l394 394l-394 395l93 92l393 -395l395 395l93 -92l-395 -394l394 -395l-92 -92l-394 395l-394 -395z" />
<glyph unicode="&#xd8;" horiz-adv-x="1479" d="M47 19l188 216q-61 88 -95 214t-34 262q0 209 76.5 378.5t219.5 263.5t336 94q119 0 229 -38t192 -115l170 195l79 -67l-182 -207q147 -208 147 -500q0 -211 -78 -385.5t-222.5 -262t-334.5 -87.5q-125 0 -239 42.5t-198 131.5l-176 -201zM248 710q0 -207 83 -366 l737 845q-128 132 -324 132q-143 0 -258 -74.5t-176.5 -217.5t-61.5 -319zM389 255q60 -73 149 -113.5t194 -40.5q141 0 256.5 72t177 212.5t61.5 320.5q0 232 -97 399z" />
<glyph unicode="&#xd9;" horiz-adv-x="1365" d="M168 507v915h137v-919q0 -124 47 -210.5t132.5 -139t192.5 -52.5q103 0 187.5 46.5t132.5 118.5q27 40 47 118t20 197v841h130v-874q0 -273 -140.5 -420.5t-373.5 -147.5q-110 0 -190 30.5t-142.5 80.5t-96.5 102t-58.5 131.5t-24.5 182.5zM438 1780h164l189 -294h-95z " />
<glyph unicode="&#xda;" horiz-adv-x="1365" d="M168 507v915h137v-919q0 -124 47 -210.5t132.5 -139t192.5 -52.5q103 0 187.5 46.5t132.5 118.5q27 40 47 118t20 197v841h130v-874q0 -273 -140.5 -420.5t-373.5 -147.5q-110 0 -190 30.5t-142.5 80.5t-96.5 102t-58.5 131.5t-24.5 182.5zM568 1486l190 294h163 l-258 -294h-95z" />
<glyph unicode="&#xdb;" horiz-adv-x="1365" d="M168 507v915h137v-919q0 -124 47 -210.5t132.5 -139t192.5 -52.5q103 0 187.5 46.5t132.5 118.5q27 40 47 118t20 197v841h130v-874q0 -273 -140.5 -420.5t-373.5 -147.5q-110 0 -190 30.5t-142.5 80.5t-96.5 102t-58.5 131.5t-24.5 182.5zM412 1497l206 294h150 l196 -294h-95l-177 213l-185 -213h-95z" />
<glyph unicode="&#xdc;" horiz-adv-x="1365" d="M168 507v915h137v-919q0 -124 47 -210.5t132.5 -139t192.5 -52.5q103 0 187.5 46.5t132.5 118.5q27 40 47 118t20 197v841h130v-874q0 -273 -140.5 -420.5t-373.5 -147.5q-110 0 -190 30.5t-142.5 80.5t-96.5 102t-58.5 131.5t-24.5 182.5zM421 1554v180h152v-180h-152z M774 1554v180h152v-180h-152z" />
<glyph unicode="&#xdd;" horiz-adv-x="1252" d="M21 1422h164l436 -694l448 694h154l-536 -820v-602h-137v602zM509 1445l190 294h163l-258 -294h-95z" />
<glyph unicode="&#xde;" horiz-adv-x="1024" d="M128 0v1420h137v-225h214q150 0 226 -15q100 -21 170 -70.5t115.5 -131t45.5 -190.5t-50 -196t-121 -132t-166 -63q-54 -10 -180 -10h-254v-387h-137zM265 505h214q112 0 154 7q71 11 110.5 32t73 54.5t54 79.5t20.5 106q0 77 -35 137.5t-91.5 95.5t-132.5 46 q-40 7 -153 7h-214v-565z" />
<glyph unicode="&#xdf;" d="M166 0v1086q0 89 21.5 169.5t60 135.5t92 91.5t113.5 54.5t131 18q113 0 202 -46t135.5 -135t46.5 -196q0 -97 -37.5 -172t-104.5 -122q-48 -34 -131 -57q45 0 108 -21q84 -28 138 -80t80 -125.5t26 -163.5q0 -205 -121 -326t-335 -121q-50 0 -95.5 8t-66.5 19l7 123 q72 -34 160 -34q144 0 226.5 87t82.5 246q0 117 -45 182.5t-130.5 96.5t-181.5 31q-19 0 -55 -2v123h48q76 0 147.5 38.5t109 111.5t37.5 156q0 117 -71.5 190t-180.5 73q-82 0 -152.5 -49t-97.5 -122q-37 -97 -37 -239v-1029h-130z" />
<glyph unicode="&#xe0;" horiz-adv-x="1024" d="M78 286q0 96 52.5 174t173 123t321.5 45q29 0 117 -2q1 180 -55.5 243t-188.5 63q-82 0 -162 -26t-136 -65v136q54 28 145 49q91 22 171 22q118 0 186.5 -33.5t112.5 -95.5q33 -46 45 -125q8 -49 8 -194v-415q0 -63 10 -185h-124v180q-43 -82 -138 -138.5t-217 -56.5 q-149 0 -235 84t-86 217zM216 284q0 -85 56.5 -137t162.5 -52q65 0 120 21.5t91.5 55.5t54.5 69.5t26 85t15 194.5q-45 3 -74 3q-129 0 -208 -15q-80 -15 -133 -45t-82 -74t-29 -106zM257 1423h164l189 -294h-95z" />
<glyph unicode="&#xe1;" horiz-adv-x="1024" d="M78 286q0 96 52.5 174t173 123t321.5 45q29 0 117 -2q1 180 -55.5 243t-188.5 63q-82 0 -162 -26t-136 -65v136q54 28 145 49q91 22 171 22q118 0 186.5 -33.5t112.5 -95.5q33 -46 45 -125q8 -49 8 -194v-415q0 -63 10 -185h-124v180q-43 -82 -138 -138.5t-217 -56.5 q-149 0 -235 84t-86 217zM216 284q0 -85 56.5 -137t162.5 -52q65 0 120 21.5t91.5 55.5t54.5 69.5t26 85t15 194.5q-45 3 -74 3q-129 0 -208 -15q-80 -15 -133 -45t-82 -74t-29 -106zM392 1129l190 294h163l-258 -294h-95z" />
<glyph unicode="&#xe2;" horiz-adv-x="1024" d="M78 286q0 96 52.5 174t173 123t321.5 45q29 0 117 -2q1 180 -55.5 243t-188.5 63q-82 0 -162 -26t-136 -65v136q54 28 145 49q91 22 171 22q118 0 186.5 -33.5t112.5 -95.5q33 -46 45 -125q8 -49 8 -194v-415q0 -63 10 -185h-124v180q-43 -82 -138 -138.5t-217 -56.5 q-149 0 -235 84t-86 217zM216 284q0 -85 56.5 -137t162.5 -52q65 0 120 21.5t91.5 55.5t54.5 69.5t26 85t15 194.5q-45 3 -74 3q-129 0 -208 -15q-80 -15 -133 -45t-82 -74t-29 -106zM228 1140l206 294h150l196 -294h-95l-177 213l-185 -213h-95z" />
<glyph unicode="&#xe3;" horiz-adv-x="1024" d="M78 286q0 96 52.5 174t173 123t321.5 45q29 0 117 -2q1 180 -55.5 243t-188.5 63q-82 0 -162 -26t-136 -65v136q54 28 145 49q91 22 171 22q118 0 186.5 -33.5t112.5 -95.5q33 -46 45 -125q8 -49 8 -194v-415q0 -63 10 -185h-124v180q-43 -82 -138 -138.5t-217 -56.5 q-149 0 -235 84t-86 217zM216 284q0 -85 56.5 -137t162.5 -52q65 0 120 21.5t91.5 55.5t54.5 69.5t26 85t15 194.5q-45 3 -74 3q-129 0 -208 -15q-80 -15 -133 -45t-82 -74t-29 -106zM237 1189q15 86 63 131t112 45q22 0 44 -5q23 -5 84 -26q62 -22 83 -22q28 0 55 17.5 t43 53.5h75q-4 -72 -54.5 -122.5t-127.5 -50.5q-44 0 -151 36q-41 14 -68 14q-28 0 -50 -17.5t-32 -53.5h-76z" />
<glyph unicode="&#xe4;" horiz-adv-x="1024" d="M78 286q0 96 52.5 174t173 123t321.5 45q29 0 117 -2q1 180 -55.5 243t-188.5 63q-82 0 -162 -26t-136 -65v136q54 28 145 49q91 22 171 22q118 0 186.5 -33.5t112.5 -95.5q33 -46 45 -125q8 -49 8 -194v-415q0 -63 10 -185h-124v180q-43 -82 -138 -138.5t-217 -56.5 q-149 0 -235 84t-86 217zM216 284q0 -85 56.5 -137t162.5 -52q65 0 120 21.5t91.5 55.5t54.5 69.5t26 85t15 194.5q-45 3 -74 3q-129 0 -208 -15q-80 -15 -133 -45t-82 -74t-29 -106zM259 1193v180h152v-180h-152zM612 1193v180h152v-180h-152z" />
<glyph unicode="&#xe5;" horiz-adv-x="1024" d="M78 286q0 96 52.5 174t173 123t321.5 45q29 0 117 -2q1 180 -55.5 243t-188.5 63q-82 0 -162 -26t-136 -65v136q54 28 145 49q91 22 171 22q118 0 186.5 -33.5t112.5 -95.5q33 -46 45 -125q8 -49 8 -194v-415q0 -63 10 -185h-124v180q-43 -82 -138 -138.5t-217 -56.5 q-149 0 -235 84t-86 217zM216 284q0 -85 56.5 -137t162.5 -52q65 0 120 21.5t91.5 55.5t54.5 69.5t26 85t15 194.5q-45 3 -74 3q-129 0 -208 -15q-80 -15 -133 -45t-82 -74t-29 -106zM328 1298q0 79 55.5 134.5t134.5 55.5q78 0 133.5 -55.5t55.5 -134.5q0 -78 -55.5 -133.5 t-133.5 -55.5q-79 0 -134.5 55.5t-55.5 133.5zM397 1298q0 -50 35.5 -85t85.5 -35t85.5 35t35.5 85t-35.5 85.5t-85.5 35.5q-51 0 -86 -35.5t-35 -85.5z" />
<glyph unicode="&#xe6;" horiz-adv-x="1707" d="M95 267q0 73 27.5 135t68.5 101.5t101 66.5q39 18 86 27q120 24 266 24q32 0 115 -2q-1 127 -15 179.5t-70 94t-158 41.5q-73 0 -156.5 -25.5t-136.5 -59.5v142q166 61 309 61q82 0 146.5 -20.5t102.5 -55.5t73 -99q62 89 142 132t201 43q106 0 185 -34t130 -97 t75 -160.5t25 -253.5h-721q3 -199 77 -299q94 -128 265 -128q70 0 151 20q82 21 143 54v-133q-59 -24 -143 -39q-85 -16 -156 -16q-100 0 -182.5 28.5t-134 75t-95.5 129.5q-29 -61 -69 -102q-63 -64 -142 -97t-177 -33q-105 0 -181 37t-114 108.5t-38 154.5zM230 263 q0 -81 58 -136.5t147 -55.5q62 0 120.5 23.5t98 59.5t59 72t28.5 88t13 193q-67 5 -94 5q-88 0 -175 -11.5t-132 -36.5q-59 -31 -91 -83t-32 -118zM891 612h588q-9 115 -35.5 182.5t-87 109.5t-157.5 42q-66 0 -115.5 -21t-92 -63.5t-65.5 -96t-35 -153.5z" />
<glyph unicode="&#xe7;" horiz-adv-x="910" d="M90 520q0 158 64.5 279.5t186.5 187t263 65.5q117 0 252 -42l-10 -133q-115 50 -227 50q-174 0 -283 -109.5t-109 -290.5q0 -120 46.5 -219t135.5 -152.5t205 -53.5q119 0 230 47l12 -125q-58 -20 -140.5 -31.5t-133.5 -9.5l-28 -94q19 1 30 1q91 0 132.5 -36t41.5 -93 q0 -62 -50 -102.5t-159 -40.5q-100 0 -213 45l14 64q43 -24 96 -40q53 -17 99 -17q52 0 76 22t24 59q0 38 -22 59.5t-64 21.5q-32 0 -83 -7l54 161q-196 23 -318 166t-122 368z" />
<glyph unicode="&#xe8;" horiz-adv-x="1024" d="M81 523q0 248 131.5 390t328.5 142q199 0 301.5 -138t102.5 -368q0 -20 -1 -58h-730q2 -126 51 -216t132 -134t178 -44q62 0 146 22q85 23 132 52l13 -128q-71 -26 -161 -43t-159 -17q-128 0 -238.5 63t-168.5 187t-58 290zM219 593h595q-3 169 -83 259.5t-195 90.5 q-73 0 -144.5 -38t-118.5 -118.5t-54 -193.5zM281 1437h164l189 -294h-95z" />
<glyph unicode="&#xe9;" horiz-adv-x="1024" d="M81 523q0 248 131.5 390t328.5 142q199 0 301.5 -138t102.5 -368q0 -20 -1 -58h-730q2 -126 51 -216t132 -134t178 -44q62 0 146 22q85 23 132 52l13 -128q-71 -26 -161 -43t-159 -17q-128 0 -238.5 63t-168.5 187t-58 290zM219 593h595q-3 169 -83 259.5t-195 90.5 q-73 0 -144.5 -38t-118.5 -118.5t-54 -193.5zM382 1143l190 294h163l-258 -294h-95z" />
<glyph unicode="&#xea;" horiz-adv-x="1024" d="M81 523q0 248 131.5 390t328.5 142q199 0 301.5 -138t102.5 -368q0 -20 -1 -58h-730q2 -126 51 -216t132 -134t178 -44q62 0 146 22q85 23 132 52l13 -128q-71 -26 -161 -43t-159 -17q-128 0 -238.5 63t-168.5 187t-58 290zM219 593h595q-3 169 -83 259.5t-195 90.5 q-73 0 -144.5 -38t-118.5 -118.5t-54 -193.5zM233 1154l206 294h150l196 -294h-95l-177 213l-185 -213h-95z" />
<glyph unicode="&#xeb;" horiz-adv-x="1024" d="M81 523q0 248 131.5 390t328.5 142q199 0 301.5 -138t102.5 -368q0 -20 -1 -58h-730q2 -126 51 -216t132 -134t178 -44q62 0 146 22q85 23 132 52l13 -128q-71 -26 -161 -43t-159 -17q-128 0 -238.5 63t-168.5 187t-58 290zM219 593h595q-3 169 -83 259.5t-195 90.5 q-73 0 -144.5 -38t-118.5 -118.5t-54 -193.5zM283 1209v180h152v-180h-152zM636 1209v180h152v-180h-152z" />
<glyph unicode="&#xec;" horiz-adv-x="455" d="M-7 1453h164l189 -294h-95zM161 0v1033h130v-1033h-130z" />
<glyph unicode="&#xed;" horiz-adv-x="455" d="M100 1159l190 294h163l-258 -294h-95zM161 0v1033h130v-1033h-130z" />
<glyph unicode="&#xee;" horiz-adv-x="455" d="M-57 1171l206 294h150l196 -294h-95l-177 213l-185 -213h-95zM161 0v1033h130v-1033h-130z" />
<glyph unicode="&#xef;" horiz-adv-x="455" d="M-33 1228v180h152v-180h-152zM161 0v1033h130v-1033h-130zM320 1228v180h152v-180h-152z" />
<glyph unicode="&#xf0;" d="M83 514q0 155 61 281t172.5 191.5t238.5 65.5q105 0 193 -45t139 -120q-20 121 -85.5 236.5t-180.5 201.5l-194 -142l-81 66l187 131q-94 50 -230 64l24 113q75 -5 164 -33q89 -29 151 -66l204 144l74 -68l-195 -138q88 -72 140 -147q76 -110 127 -274t51 -364 q0 -309 -129 -468.5t-347 -159.5q-135 0 -249 66t-174.5 190t-60.5 275zM216 517q0 -189 105 -305.5t250 -116.5q138 0 240 115.5t102 318.5q0 199 -97 308t-244 109q-168 0 -262 -126.5t-94 -302.5z" />
<glyph unicode="&#xf1;" d="M154 1033h126l-3 -203q60 101 132 153q97 69 221 69q76 0 140 -25t103.5 -62.5t62.5 -82t36 -122.5q7 -44 7 -160v-600h-130v619q0 122 -23 183q-24 61 -81.5 97.5t-133.5 36.5q-75 0 -139 -34t-106 -89q-29 -37 -52 -105t-23 -141v-567h-130v801q0 113 -7 232zM284 1223 q15 86 63 131t112 45q22 0 44 -5q23 -5 84 -26q62 -22 83 -22q28 0 55 17.5t43 53.5h75q-4 -72 -54.5 -122.5t-127.5 -50.5q-44 0 -151 36q-41 14 -68 14q-28 0 -50 -17.5t-32 -53.5h-76z" />
<glyph unicode="&#xf2;" d="M85 514q0 142 50 268.5t163 202t277 75.5q115 0 201 -35.5t141 -98.5t85 -133q51 -123 51 -272q0 -159 -60.5 -285t-177.5 -193t-253 -67q-205 0 -341 144.5t-136 393.5zM218 511q0 -119 45 -219t129 -153.5t175 -53.5q130 0 226 93q124 119 124 345q0 208 -98 319.5 t-247 111.5q-152 0 -253 -113.5t-101 -329.5zM327 1434h164l189 -294h-95z" />
<glyph unicode="&#xf3;" d="M85 514q0 142 50 268.5t163 202t277 75.5q115 0 201 -35.5t141 -98.5t85 -133q51 -123 51 -272q0 -159 -60.5 -285t-177.5 -193t-253 -67q-205 0 -341 144.5t-136 393.5zM218 511q0 -119 45 -219t129 -153.5t175 -53.5q130 0 226 93q124 119 124 345q0 208 -98 319.5 t-247 111.5q-152 0 -253 -113.5t-101 -329.5zM436 1140l190 294h163l-258 -294h-95z" />
<glyph unicode="&#xf4;" d="M85 514q0 142 50 268.5t163 202t277 75.5q115 0 201 -35.5t141 -98.5t85 -133q51 -123 51 -272q0 -159 -60.5 -285t-177.5 -193t-253 -67q-205 0 -341 144.5t-136 393.5zM218 511q0 -119 45 -219t129 -153.5t175 -53.5q130 0 226 93q124 119 124 345q0 208 -98 319.5 t-247 111.5q-152 0 -253 -113.5t-101 -329.5zM283 1151l206 294h150l196 -294h-95l-177 213l-185 -213h-95z" />
<glyph unicode="&#xf5;" d="M85 514q0 142 50 268.5t163 202t277 75.5q115 0 201 -35.5t141 -98.5t85 -133q51 -123 51 -272q0 -159 -60.5 -285t-177.5 -193t-253 -67q-205 0 -341 144.5t-136 393.5zM218 511q0 -119 45 -219t129 -153.5t175 -53.5q130 0 226 93q124 119 124 345q0 208 -98 319.5 t-247 111.5q-152 0 -253 -113.5t-101 -329.5zM300 1203q15 86 63 131t112 45q22 0 44 -5q23 -5 84 -26q62 -22 83 -22q28 0 55 17.5t43 53.5h75q-4 -72 -54.5 -122.5t-127.5 -50.5q-44 0 -151 36q-41 14 -68 14q-28 0 -50 -17.5t-32 -53.5h-76z" />
<glyph unicode="&#xf6;" d="M85 514q0 142 50 268.5t163 202t277 75.5q115 0 201 -35.5t141 -98.5t85 -133q51 -123 51 -272q0 -159 -60.5 -285t-177.5 -193t-253 -67q-205 0 -341 144.5t-136 393.5zM218 511q0 -119 45 -219t129 -153.5t175 -53.5q130 0 226 93q124 119 124 345q0 208 -98 319.5 t-247 111.5q-152 0 -253 -113.5t-101 -329.5zM320 1207v180h152v-180h-152zM673 1207v180h152v-180h-152z" />
<glyph unicode="&#xf7;" horiz-adv-x="1229" d="M101 441v123h1028v-123h-1028zM531 26v220h168v-220h-168zM531 759v220h168v-220h-168z" />
<glyph unicode="&#xf8;" d="M38 -24l154 179q-53 69 -80 162.5t-27 195.5q0 153 57 281t169 197t265 69q96 0 168 -26t137 -80l141 162l73 -59l-149 -173q107 -142 107 -359q0 -127 -38 -236t-94.5 -169t-152 -102t-206.5 -42q-175 0 -305 110l-146 -169zM218 520q0 -153 63 -262l521 604 q-43 44 -103 68t-129 24q-102 0 -184 -53.5t-125 -154.5t-43 -226zM340 181q99 -96 223 -96q133 0 231 95q123 119 123 344q0 148 -58 260z" />
<glyph unicode="&#xf9;" d="M156 434v599h130v-647q0 -99 30 -162t89.5 -95t123.5 -32q79 0 155.5 52.5t114 142.5t37.5 175v566h131v-801q0 -110 7 -232h-126l2 204q-56 -110 -149 -166.5t-204 -56.5q-92 0 -165.5 40.5t-113 103t-54.5 145.5q-8 41 -8 164zM314 1453h164l189 -294h-95z" />
<glyph unicode="&#xfa;" d="M156 434v599h130v-647q0 -99 30 -162t89.5 -95t123.5 -32q79 0 155.5 52.5t114 142.5t37.5 175v566h131v-801q0 -110 7 -232h-126l2 204q-56 -110 -149 -166.5t-204 -56.5q-92 0 -165.5 40.5t-113 103t-54.5 145.5q-8 41 -8 164zM440 1159l190 294h163l-258 -294h-95z " />
<glyph unicode="&#xfb;" d="M156 434v599h130v-647q0 -99 30 -162t89.5 -95t123.5 -32q79 0 155.5 52.5t114 142.5t37.5 175v566h131v-801q0 -110 7 -232h-126l2 204q-56 -110 -149 -166.5t-204 -56.5q-92 0 -165.5 40.5t-113 103t-54.5 145.5q-8 41 -8 164zM284 1171l206 294h150l196 -294h-95 l-177 213l-185 -213h-95z" />
<glyph unicode="&#xfc;" d="M156 434v599h130v-647q0 -99 30 -162t89.5 -95t123.5 -32q79 0 155.5 52.5t114 142.5t37.5 175v566h131v-801q0 -110 7 -232h-126l2 204q-56 -110 -149 -166.5t-204 -56.5q-92 0 -165.5 40.5t-113 103t-54.5 145.5q-8 41 -8 164zM307 1228v180h152v-180h-152zM660 1228 v180h152v-180h-152z" />
<glyph unicode="&#xfd;" horiz-adv-x="910" d="M21 1033h140l294 -881l301 881h135l-386 -1099q-80 -227 -130 -286q-71 -85 -188 -85q-64 0 -121 17l12 114q32 -17 83 -17q52 0 87 23t63 74q29 52 77 190zM375 1155l190 294h163l-258 -294h-95z" />
<glyph unicode="&#xfe;" d="M161 -434v1958h130v-668q106 192 333 192q117 0 191.5 -38.5t126.5 -116t79 -178.5t27 -208q0 -144 -47.5 -269t-139.5 -191t-228 -66q-122 0 -212 57t-130 149v-621h-130zM288 509q0 -132 44 -226.5t123.5 -141t161.5 -46.5q124 0 209 102.5t85 320.5q0 147 -39 243.5 t-105 137t-151 40.5q-157 0 -242.5 -118.5t-85.5 -311.5z" />
<glyph unicode="&#xff;" horiz-adv-x="910" d="M21 1033h140l294 -881l301 881h135l-386 -1099q-80 -227 -130 -286q-71 -85 -188 -85q-64 0 -121 17l12 114q32 -17 83 -17q52 0 87 23t63 74q29 52 77 190zM206 1226v180h152v-180h-152zM559 1226v180h152v-180h-152z" />
<glyph unicode="&#x152;" horiz-adv-x="1820" d="M111 718q0 203 69 371t207.5 258t358.5 90q38 0 277 -10q107 -4 281 -5h369v-123h-554v-505h526v-121h-526v-550h578v-123h-645l-374 -12q-138 0 -246 56t-179 155t-106.5 240t-35.5 279zM260 706q0 -157 41 -286q24 -74 64.5 -134.5t87.5 -95.5t123 -55q77 -21 232 -21 q54 0 168 9v1176q-111 10 -214 10q-151 0 -236 -34.5t-144 -111t-90.5 -202.5t-31.5 -255z" />
<glyph unicode="&#x153;" horiz-adv-x="1820" d="M73 523q0 256 133 397.5t348 141.5q122 0 207.5 -38.5t135.5 -91.5q32 -34 58 -91q55 110 141.5 166t223.5 56q148 0 243 -64.5t139 -184.5t42 -330h-720q0 -163 63 -256q96 -139 268 -139q69 0 153 19q85 19 153 56l5 -128q-62 -27 -147 -41q-86 -15 -170 -15 q-129 0 -224.5 53t-169.5 154q-134 -206 -403 -206q-220 0 -349.5 140.5t-129.5 401.5zM208 520q0 -137 46.5 -239t118.5 -149t176 -47q101 0 181 47.5t118 132.5t38 246q0 238 -87 341t-241 103q-108 0 -188.5 -50.5t-121 -154.5t-40.5 -230zM1028 588h583q0 183 -90 290 q-66 77 -199 77q-126 0 -202.5 -84t-91.5 -283z" />
<glyph unicode="&#x178;" horiz-adv-x="1252" d="M21 1422h164l436 -694l448 694h154l-536 -820v-602h-137v602zM386 1514v180h152v-180h-152zM739 1514v180h152v-180h-152z" />
<glyph unicode="&#x2c6;" horiz-adv-x="455" d="M-59 1171l206 294h150l196 -294h-95l-177 213l-185 -213h-95z" />
<glyph unicode="&#x2dc;" horiz-adv-x="455" d="M-57 1223q15 86 63 131t112 45q22 0 44 -5q23 -5 84 -26q62 -22 83 -22q28 0 55 17.5t43 53.5h75q-4 -72 -54.5 -122.5t-127.5 -50.5q-44 0 -151 36q-41 14 -68 14q-28 0 -50 -17.5t-32 -53.5h-76z" />
<glyph unicode="&#x2000;" horiz-adv-x="921" />
<glyph unicode="&#x2001;" horiz-adv-x="1843" />
<glyph unicode="&#x2002;" horiz-adv-x="921" />
<glyph unicode="&#x2003;" horiz-adv-x="1843" />
<glyph unicode="&#x2004;" horiz-adv-x="614" />
<glyph unicode="&#x2005;" horiz-adv-x="460" />
<glyph unicode="&#x2006;" horiz-adv-x="307" />
<glyph unicode="&#x2007;" horiz-adv-x="307" />
<glyph unicode="&#x2008;" horiz-adv-x="230" />
<glyph unicode="&#x2009;" horiz-adv-x="368" />
<glyph unicode="&#x200a;" horiz-adv-x="102" />
<glyph unicode="&#x2010;" horiz-adv-x="683" d="M85 488v124h512v-124h-512z" />
<glyph unicode="&#x2011;" horiz-adv-x="683" d="M85 488v124h512v-124h-512z" />
<glyph unicode="&#x2012;" horiz-adv-x="683" d="M85 488v124h512v-124h-512z" />
<glyph unicode="&#x2013;" d="M57 493v114h1024v-114h-1024z" />
<glyph unicode="&#x2014;" horiz-adv-x="2048" d="M265 493v114h1517v-114h-1517z" />
<glyph unicode="&#x2018;" horiz-adv-x="569" d="M149 1086l159 450h130l-121 -450h-168z" />
<glyph unicode="&#x2019;" horiz-adv-x="569" d="M111 1086l121 450h168l-159 -450h-130z" />
<glyph unicode="&#x201a;" horiz-adv-x="569" d="M126 -277l121 450h168l-159 -450h-130z" />
<glyph unicode="&#x201c;" d="M235 1086l159 450h130l-121 -450h-168zM593 1086l159 450h130l-121 -450h-168z" />
<glyph unicode="&#x201d;" d="M244 1086l121 450h168l-159 -450h-130zM602 1086l121 450h168l-159 -450h-130z" />
<glyph unicode="&#x201e;" d="M244 -277l121 450h168l-159 -450h-130zM602 -277l121 450h168l-159 -450h-130z" />
<glyph unicode="&#x2022;" horiz-adv-x="1024" d="M157 711q0 93 48 178.5t133 131.5t175 46q89 0 174.5 -46t133 -131.5t47.5 -178.5q0 -92 -47 -176.5t-131.5 -131.5t-176.5 -47q-93 0 -177.5 47t-131.5 131.5t-47 176.5z" />
<glyph unicode="&#x2026;" horiz-adv-x="2048" d="M257 0v220h168v-220h-168zM939 0v220h168v-220h-168zM1622 0v220h168v-220h-168z" />
<glyph unicode="&#x202f;" horiz-adv-x="368" />
<glyph unicode="&#x2039;" horiz-adv-x="569" d="M66 526l287 417h121l-273 -417l273 -419h-121z" />
<glyph unicode="&#x203a;" horiz-adv-x="569" d="M90 107l273 419l-273 417h121l287 -417l-287 -419h-121z" />
<glyph unicode="&#x205f;" horiz-adv-x="460" />
<glyph unicode="&#x2122;" horiz-adv-x="2028" d="M221 1337v85h600v-85h-250v-644h-100v644h-250zM952 693v729h149l220 -580l220 580h144v-729h-89v633l-237 -633h-81l-237 633v-633h-89z" />
<glyph unicode="&#x25fc;" horiz-adv-x="1035" d="M0 0v1035h1035v-1035h-1035z" />
<glyph unicode="&#xfb01;" d="M38 924v109h216v143q0 148 31 222t98.5 113t140.5 39q52 0 130 -21l-9 -121q-47 24 -100 24q-72 0 -116.5 -53t-44.5 -184v-162h242v-109h-242v-924h-130v924h-216zM834 1327v176h150v-176h-150zM837 0v1033h130v-1033h-130z" />
<glyph unicode="&#xfb02;" d="M38 924v109h216v143q0 148 31 222t98.5 113t140.5 39q52 0 130 -21l-9 -121q-47 24 -100 24q-72 0 -116.5 -53t-44.5 -184v-162h242v-109h-242v-924h-130v924h-216zM837 0v1527h130v-1527h-130z" />
</font>
</defs>
</svg>
