<?xml version="1.0" standalone="no"?>
<!DOCTYPE svg PUBLIC "-//W3C//DTD SVG 1.1//EN" "http://www.w3.org/Graphics/SVG/1.1/DTD/svg11.dtd" >
<svg xmlns="http://www.w3.org/2000/svg" xmlns:xlink="http://www.w3.org/1999/xlink" version="1.1">
<metadata></metadata>
<defs>
<font id="futura_lt_btlight_italic" horiz-adv-x="1147" >
<font-face units-per-em="2048" ascent="1556" descent="-492" />
<missing-glyph horiz-adv-x="573" />
<glyph horiz-adv-x="0" />
<glyph unicode="&#xd;" horiz-adv-x="573" />
<glyph unicode=" "  horiz-adv-x="573" />
<glyph unicode="&#x09;" horiz-adv-x="573" />
<glyph unicode="&#xa0;" horiz-adv-x="573" />
<glyph unicode="!" horiz-adv-x="621" d="M121 63q0 43 29.5 73t72.5 30t73 -30t30 -73t-30 -72.5t-73 -29.5t-72.5 29.5t-29.5 72.5zM193 291l157 1206h121l-160 -1206h-118z" />
<glyph unicode="&#x22;" horiz-adv-x="551" d="M100 881v553h86v-553h-86zM365 881v553h86v-553h-86z" />
<glyph unicode="#" horiz-adv-x="1575" d="M129 494l31 90h336l100 282h-360l28 90h365l176 498h110l-174 -498h271l176 498h110l-174 -498h322l-31 -90h-323l-101 -282h348l-30 -90h-351l-174 -494h-112l176 494h-270l-179 -494h-110l174 494h-334zM610 584h269l100 282h-270z" />
<glyph unicode="$" d="M72 258l86 84q54 -116 124.5 -179.5t163.5 -80.5l82 618q-154 76 -222 169t-68 227q0 161 106.5 264.5t284.5 114.5l20 147h78l-20 -152q91 -10 164.5 -61.5t136.5 -148.5l-80 -72q-50 80 -110.5 123.5t-125.5 45.5l-74 -564q164 -73 238 -171t74 -239 q0 -186 -114 -299.5t-308 -122.5l-23 -172h-77l24 178q-118 15 -205 85t-155 206zM358 1092q0 -88 42 -147.5t145 -115.5l69 533q-117 -10 -186.5 -83.5t-69.5 -186.5zM524 78q134 11 206.5 90.5t72.5 214.5q0 95 -49 162t-154 117z" />
<glyph unicode="%" horiz-adv-x="1466" d="M86 1014q0 201 91.5 332t228.5 131q126 0 189.5 -77t63.5 -229q0 -197 -91.5 -328.5t-223.5 -131.5q-128 0 -193 76.5t-65 226.5zM188 1001q0 -104 37 -158.5t109 -54.5q96 0 158.5 113t62.5 293q0 108 -34 157.5t-109 49.5q-94 0 -159 -114t-65 -286zM274 -39l824 1518 h86l-824 -1518h-86zM809 272q0 201 91.5 332t227.5 131q126 0 190 -77.5t64 -229.5q0 -197 -91.5 -328t-223.5 -131q-128 0 -193 76.5t-65 226.5zM913 260q0 -107 36 -160t108 -53q95 0 158 113.5t63 292.5q0 108 -34 157t-107 49q-95 0 -159.5 -113t-64.5 -286z" />
<glyph unicode="&#x26;" horiz-adv-x="1233" d="M29 365q0 142 99 260t321 237q-63 102 -91 176t-28 136q0 135 89.5 222t227.5 87q131 0 214 -76t83 -195q0 -106 -81 -197.5t-261 -185.5l322 -452q47 44 97.5 97t104.5 116l76 -84q-41 -46 -153 -166l-56 -59l201 -281h-139l-148 201q-132 -126 -247.5 -184t-233.5 -58 q-169 0 -283 117t-114 289zM147 360q0 -123 78 -203.5t199 -80.5q99 0 198.5 52t219.5 169l-336 473q-192 -105 -275.5 -201t-83.5 -209zM444 1169q0 -52 25.5 -114t77.5 -137q146 76 214 145.5t68 142.5q0 75 -52.5 124.5t-133.5 49.5q-89 0 -144 -58t-55 -153z" />
<glyph unicode="'" horiz-adv-x="285" d="M100 881v553h86v-553h-86z" />
<glyph unicode="(" horiz-adv-x="635" d="M160 352q0 321 102 621t297 555l76 -72q-183 -238 -278 -525t-95 -601q0 -169 37 -335t115 -341l-92 -51q-82 184 -122 370t-40 379z" />
<glyph unicode=")" horiz-adv-x="635" d="M-47 -328q182 239 277.5 527t95.5 602q0 169 -37.5 335t-114.5 341l92 51q82 -185 122 -370.5t40 -379.5q0 -320 -102 -620.5t-297 -554.5z" />
<glyph unicode="*" horiz-adv-x="854" d="M154 1040l245 95l-217 155l54 74l208 -174l27 274l86 -10l-39 -272l244 114l33 -79l-248 -101l217 -149l-55 -72l-209 166l-25 -266l-84 12l39 260l-244 -109z" />
<glyph unicode="+" horiz-adv-x="1706" d="M254 569v82h559v570h80v-570h559v-82h-559v-569h-80v569h-559z" />
<glyph unicode="," horiz-adv-x="573" d="M-59 -229l266 508l135 -80l-324 -478z" />
<glyph unicode="-" horiz-adv-x="616" d="M41 385l14 111h437l-15 -111h-436z" />
<glyph unicode="." horiz-adv-x="573" d="M98 84q0 43 30 72.5t73 29.5t72.5 -29.5t29.5 -72.5t-29.5 -72.5t-72.5 -29.5t-73 29.5t-30 72.5z" />
<glyph unicode="/" horiz-adv-x="887" d="M0 -190l782 1687h105l-783 -1687h-104z" />
<glyph unicode="0" d="M86 539q0 203 45 385.5t127 314.5q75 121 174.5 180.5t229.5 59.5q188 0 294.5 -153.5t106.5 -426.5q0 -200 -46 -382.5t-128 -315.5q-73 -118 -174.5 -180t-220.5 -62q-195 0 -301.5 151t-106.5 429zM213 512q0 -217 70.5 -328.5t208.5 -111.5q190 0 314 239.5 t124 622.5q0 217 -68.5 324.5t-208.5 107.5q-86 0 -160.5 -48t-125.5 -138q-71 -124 -112.5 -302.5t-41.5 -365.5z" />
<glyph unicode="1" d="M346 1341l51 109h351l-191 -1450h-125l178 1341h-264z" />
<glyph unicode="2" d="M2 0l526 483q254 233 332 355t78 245q0 137 -84.5 212t-239.5 75q-147 0 -242.5 -97t-101.5 -255h-120q9 219 134.5 341t342.5 122q205 0 320.5 -104t115.5 -287q0 -282 -489 -722l-35 -32l-246 -221h643l-14 -115h-920z" />
<glyph unicode="3" d="M60 369h118q12 -142 95.5 -219.5t222.5 -77.5q161 0 259.5 93.5t98.5 246.5q0 136 -94 208t-273 72h-22l16 114q9 0 21.5 -0.5t34.5 -0.5q184 0 285.5 81t101.5 228q0 116 -81 186t-216 70q-126 0 -209.5 -68.5t-95.5 -181.5h-132q23 161 144.5 260t294.5 99 q187 0 302.5 -99.5t115.5 -259.5q0 -143 -84 -242t-240 -139q124 -32 191 -117.5t67 -211.5q0 -199 -133 -324t-348 -125q-201 0 -316 106.5t-124 301.5z" />
<glyph unicode="4" d="M4 358l944 1141l-135 -1030h156l-15 -111h-155l-49 -358h-121l49 358h-674zM219 469h471l103 705z" />
<glyph unicode="5" d="M37 178l84 96q70 -103 155 -152.5t195 -49.5q171 0 289.5 116t118.5 281q0 169 -98.5 267t-268.5 98q-85 0 -163.5 -26.5t-137.5 -74.5l-43 31l254 686h594l-15 -119h-495l-166 -432q50 21 96.5 31t93.5 10q219 0 349.5 -125t130.5 -334q0 -221 -151 -371.5t-374 -150.5 q-148 0 -255.5 52.5t-192.5 166.5z" />
<glyph unicode="6" d="M82 389q0 150 81 302.5t296 385.5l385 420l88 -84l-549 -602q61 30 120.5 44.5t117.5 14.5q174 0 278.5 -113t104.5 -302q0 -212 -142 -353t-356 -141q-194 0 -309 116.5t-115 311.5zM205 393q0 -144 84.5 -229.5t226.5 -85.5q160 0 262.5 105.5t102.5 271.5 q0 151 -84.5 234t-237.5 83q-150 0 -252 -109.5t-102 -269.5z" />
<glyph unicode="7" d="M170 10l739 1317h-702l18 123h893l-839 -1503z" />
<glyph unicode="8" d="M84 383q0 161 84.5 266.5t247.5 147.5q-102 56 -150.5 131.5t-48.5 177.5q0 160 115.5 266.5t290.5 106.5q181 0 285 -92t104 -252q0 -142 -74 -235t-205 -118q129 -38 192.5 -126.5t63.5 -231.5q0 -202 -133.5 -332.5t-343.5 -130.5q-198 0 -313 113.5t-115 308.5z M205 371q0 -132 84 -213.5t221 -81.5q159 0 258.5 99.5t99.5 258.5q0 131 -86.5 210t-230.5 79q-151 0 -248.5 -99.5t-97.5 -252.5zM338 1094q0 -114 70.5 -180t193.5 -66q132 0 212.5 72.5t80.5 191.5q0 122 -70.5 190t-195.5 68q-130 0 -210.5 -77t-80.5 -199z" />
<glyph unicode="9" d="M133 985q0 211 141.5 352.5t356.5 141.5q193 0 308.5 -116.5t115.5 -311.5q0 -151 -82 -305t-295 -386l-385 -417l-88 84l549 602q-61 -30 -120.5 -45t-117.5 -15q-174 0 -278.5 113t-104.5 303zM256 985q0 -151 84.5 -234t237.5 -83q151 0 253.5 108.5t102.5 267.5 q0 144 -86 231t-227 87q-160 0 -262.5 -105.5t-102.5 -271.5z" />
<glyph unicode=":" horiz-adv-x="621" d="M127 90q0 43 29.5 73t72.5 30t73 -30t30 -73t-30 -72.5t-73 -29.5t-72.5 29.5t-29.5 72.5zM211 760q0 43 29.5 72.5t72.5 29.5t73 -29.5t30 -72.5t-30 -73t-73 -30t-72.5 30t-29.5 73z" />
<glyph unicode=";" horiz-adv-x="621" d="M-33 -229l266 508l136 -80l-324 -478zM211 760q0 43 29.5 72.5t72.5 29.5t73 -29.5t30 -72.5t-30 -73t-73 -30t-72.5 30t-29.5 73z" />
<glyph unicode="&#x3c;" horiz-adv-x="1706" d="M264 580v61l1178 483v-90l-1045 -424l1045 -424v-88z" />
<glyph unicode="=" horiz-adv-x="1706" d="M254 387v82h1198v-82h-1198zM254 752v79h1198v-79h-1198z" />
<glyph unicode="&#x3e;" horiz-adv-x="1706" d="M264 98v88l1045 424l-1045 424v90l1178 -483v-61z" />
<glyph unicode="?" horiz-adv-x="1014" d="M170 578q0 97 58 170t171 116q275 103 342.5 164.5t67.5 153.5q0 95 -65.5 153t-174.5 58q-104 0 -172.5 -60.5t-101.5 -181.5l-115 33q42 155 145 236t259 81q155 0 251.5 -92t96.5 -242q0 -104 -71.5 -190t-198.5 -135q-23 -9 -68 -26q-305 -119 -305 -241 q0 -71 51 -115t135 -44q83 0 133.5 42.5t73.5 131.5l117 -27q-34 -127 -113.5 -189.5t-210.5 -62.5q-137 0 -221 73.5t-84 193.5zM309 63q0 43 30 73t73 30q42 0 71 -29.5t29 -73.5q0 -43 -29 -72.5t-71 -29.5q-43 0 -73 29.5t-30 72.5z" />
<glyph unicode="@" horiz-adv-x="2048" d="M121 522q0 162 50.5 307t147.5 265q144 175 345.5 265.5t449.5 90.5q160 0 304.5 -44t248.5 -124q128 -98 194 -226.5t66 -277.5q0 -169 -63 -308t-181 -232q-67 -54 -145.5 -82.5t-159.5 -28.5q-95 0 -143.5 36.5t-48.5 108.5q0 12 3 34q1 3 1 5q-49 -88 -125 -136 t-166 -48q-154 0 -233.5 83t-79.5 243q0 228 134.5 386t326.5 158q95 0 160 -43t96 -127l61 129h80l-137 -553q-10 -36 -15.5 -64.5t-5.5 -43.5q0 -44 30.5 -68t86.5 -24q48 0 100 19.5t103 56.5q101 74 162 207t61 282q0 273 -199.5 439.5t-525.5 166.5q-168 0 -310.5 -48 t-258.5 -144q-154 -128 -232 -297t-78 -375q0 -327 221.5 -522t591.5 -195q161 0 324 50.5t299 142.5l29 -45q-146 -110 -308.5 -165t-339.5 -55q-187 0 -343 46.5t-277 138.5q-152 115 -226.5 267.5t-74.5 348.5zM690 446q0 -115 57.5 -180t159.5 -65q111 0 196 72.5 t116 193.5l63 254q-22 99 -81.5 151t-151.5 52q-152 0 -255.5 -138t-103.5 -340z" />
<glyph unicode="A" horiz-adv-x="1176" d="M-147 0l864 1499l452 -1499h-137l-139 479h-631l-270 -479h-139zM326 586h536l-182 641z" />
<glyph unicode="B" horiz-adv-x="1104" d="M82 0l192 1464h230q162 0 235 -19t123 -65q52 -47 79.5 -113t27.5 -145q0 -132 -61 -217t-181 -119q129 -38 195.5 -128t66.5 -226q0 -103 -47.5 -196.5t-130.5 -151.5q-65 -46 -162 -65t-336 -19h-231zM221 115h182q123 0 183 9.5t106 31.5q77 36 120.5 112.5 t43.5 175.5q0 79 -30.5 139.5t-88.5 94.5q-41 25 -101.5 35t-223.5 10h-111zM315 834h131q113 0 166.5 8t92.5 26q64 31 101.5 98t37.5 152q0 65 -26 115t-75 82q-32 21 -76.5 30t-140.5 9h-55h-88z" />
<glyph unicode="C" horiz-adv-x="1421" d="M106 676q0 177 63.5 333t180.5 269q112 107 259.5 163t318.5 56q146 0 266.5 -40t220.5 -122l-35 -135q-85 94 -199 140t-257 46q-142 0 -262.5 -48t-210.5 -140q-102 -103 -156.5 -239.5t-54.5 -286.5q0 -273 165.5 -434.5t446.5 -161.5q93 0 199.5 33.5t228.5 101.5 l-35 -154q-120 -49 -224 -72.5t-202 -23.5q-321 0 -517 197t-196 518z" />
<glyph unicode="D" horiz-adv-x="1403" d="M82 0l192 1464h195q262 0 375 -29t205 -98q120 -90 184.5 -234t64.5 -323q0 -157 -49 -296.5t-141 -243.5q-67 -75 -148.5 -126.5t-177.5 -78.5q-64 -18 -136.5 -26.5t-178.5 -8.5h-141h-244zM221 109h92q285 0 402.5 27t202.5 91q116 89 180.5 234t64.5 319 q0 151 -51 270t-149 197q-74 59 -174 84t-302 25h-102z" />
<glyph unicode="E" horiz-adv-x="1042" d="M82 0l192 1464h721l-14 -112h-596l-63 -480h579l-14 -110h-580l-84 -647h611l-17 -115h-735z" />
<glyph unicode="F" horiz-adv-x="1014" d="M82 0l192 1464h721l-14 -112h-596l-63 -480h579l-14 -110h-580l-100 -762h-125z" />
<glyph unicode="G" horiz-adv-x="1669" d="M106 674q0 179 63.5 336t180.5 268q114 109 261 165t319 56q204 0 354.5 -72.5t267.5 -228.5l-88 -82q-102 138 -235 205.5t-303 67.5q-137 0 -259 -50t-216 -145q-102 -101 -156.5 -237t-54.5 -285q0 -267 161 -431.5t424 -164.5q253 0 416 147t174 385h-493l14 109h620 v-4q0 -349 -196.5 -550.5t-536.5 -201.5q-322 0 -519.5 196.5t-197.5 516.5z" />
<glyph unicode="H" horiz-adv-x="1411" d="M82 0l192 1464h125l-80 -604h803l80 604h125l-192 -1464h-125l98 752h-803l-98 -752h-125z" />
<glyph unicode="I" horiz-adv-x="494" d="M86 0l195 1464h125l-193 -1464h-127z" />
<glyph unicode="J" horiz-adv-x="770" d="M-68 117l105 76q35 -55 80 -82t102 -27q176 0 248 560q10 84 16 130l90 690h129l-114 -870q-3 -21 -8 -60q-45 -359 -107 -454q-38 -57 -106.5 -88t-157.5 -31q-96 0 -162.5 37.5t-114.5 118.5z" />
<glyph unicode="K" horiz-adv-x="1128" d="M82 0l192 1464h125l-92 -700l697 700h161l-716 -712l608 -752h-166l-588 735l-96 -735h-125z" />
<glyph unicode="L" horiz-adv-x="844" d="M82 0l192 1464h125l-178 -1349h565l-14 -115h-690z" />
<glyph unicode="M" horiz-adv-x="1706" d="M2 0l449 1503l352 -1261l676 1261l63 -1503h-123l-39 1106l-618 -1153l-320 1155l-307 -1108h-133z" />
<glyph unicode="N" horiz-adv-x="1516" d="M82 0l199 1503l876 -1224l156 1185h121l-199 -1503l-875 1223l-155 -1184h-123z" />
<glyph unicode="O" horiz-adv-x="1761" d="M106 674q0 179 63.5 336t180.5 268q110 106 260 162.5t318 56.5q331 0 529 -194t198 -519q0 -175 -64 -329.5t-184 -268.5q-113 -108 -266 -166.5t-324 -58.5q-318 0 -514.5 197.5t-196.5 515.5zM240 672q0 -268 163.5 -432t430.5 -164q138 0 261 49.5t218 144.5 q100 101 154.5 235.5t54.5 282.5q0 268 -165 433t-433 165q-136 0 -258.5 -49.5t-214.5 -142.5q-103 -104 -157 -238.5t-54 -283.5z" />
<glyph unicode="P" horiz-adv-x="1034" d="M82 0l192 1464h209q185 0 260.5 -18.5t133.5 -63.5q62 -49 95.5 -121t33.5 -159q0 -107 -38.5 -190t-113.5 -140q-64 -47 -150 -67.5t-274 -20.5h-47h-86l-90 -684h-125zM311 793h154q110 0 163.5 8.5t94.5 27.5q72 35 113 105t41 162q0 72 -28.5 127t-80.5 86 q-36 21 -85.5 31t-141.5 10h-74h-82z" />
<glyph unicode="Q" horiz-adv-x="1761" d="M106 676q0 178 63 333.5t181 268.5q112 107 259.5 163t318.5 56q329 0 527 -192.5t198 -511.5q0 -220 -93 -399.5t-268 -295.5l211 -245h-147l-164 192q-100 -41 -191 -61.5t-176 -20.5q-324 0 -521.5 196t-197.5 517zM240 672q0 -270 164.5 -433t439.5 -163 q63 0 129 14.5t137 44.5l-295 346h148l249 -291q148 100 229 257.5t81 345.5q0 264 -165 428.5t-431 164.5q-138 0 -260 -49t-215 -143q-102 -101 -156.5 -237t-54.5 -285z" />
<glyph unicode="R" horiz-adv-x="1081" d="M82 0l192 1464h209q185 0 260.5 -18.5t133.5 -63.5q62 -49 95.5 -121t33.5 -159q0 -197 -124.5 -306.5t-348.5 -111.5l452 -684h-145l-447 684h-96l-90 -684h-125zM311 793h154q110 0 163.5 8.5t94.5 27.5q72 35 113 105t41 162q0 72 -28.5 127t-80.5 86q-36 21 -85.5 31 t-141.5 10h-74h-82z" />
<glyph unicode="S" horiz-adv-x="1020" d="M4 264l86 84q64 -137 149.5 -202.5t200.5 -65.5q138 0 219.5 84t81.5 225q0 100 -47 164.5t-198 144.5q-200 107 -262 193.5t-62 220.5q0 168 115.5 276.5t296.5 108.5q117 0 205.5 -52t160.5 -165l-84 -74q-54 90 -125 135t-159 45q-127 0 -209 -78t-82 -198 q0 -91 46 -152t214 -151q196 -106 257.5 -193.5t61.5 -222.5q0 -190 -120 -309t-312 -119q-150 0 -257.5 74.5t-176.5 226.5z" />
<glyph unicode="T" horiz-adv-x="995" d="M86 1348l16 116h930l-16 -116h-385l-176 -1348h-127l178 1348h-420z" />
<glyph unicode="U" horiz-adv-x="1384" d="M133 391q0 52 7 125.5t24 198.5l98 749h125l-119 -901q-5 -37 -7.5 -71t-2.5 -68q0 -167 90.5 -259.5t253.5 -92.5q118 0 207.5 41.5t148.5 124.5q79 107 118 405q4 25 5 36l103 785h125l-109 -823q-2 -19 -7 -58q-38 -300 -128 -417q-76 -101 -197.5 -155t-273.5 -54 q-219 0 -340 114t-121 320z" />
<glyph unicode="V" horiz-adv-x="1157" d="M61 1464h132l294 -1192l600 1192h134l-775 -1503z" />
<glyph unicode="W" horiz-adv-x="1849" d="M76 1464h129l258 -1149l506 1192l272 -1194l496 1151h133l-662 -1515l-272 1208l-514 -1208z" />
<glyph unicode="X" horiz-adv-x="1053" d="M-86 0l539 756l-342 708h139l291 -620l430 620h147l-520 -735l369 -729h-142l-315 639l-438 -639h-158z" />
<glyph unicode="Y" horiz-adv-x="1014" d="M41 1464h137l330 -661l455 661h141l-541 -786l-90 -678h-127l90 684z" />
<glyph unicode="Z" horiz-adv-x="1139" d="M-43 0l969 1348h-729l16 116h940l-969 -1347h787l-15 -117h-999z" />
<glyph unicode="[" horiz-adv-x="635" d="M123 -369l246 1866h274l-12 -102h-170l-217 -1659h168l-15 -105h-274z" />
<glyph unicode="\" horiz-adv-x="887" d="M162 1497h104l459 -1687h-104z" />
<glyph unicode="]" horiz-adv-x="635" d="M-49 -369l14 105h168l219 1659h-170l15 102h274l-246 -1866h-274z" />
<glyph unicode="^" horiz-adv-x="2048" d="M424 901l539 557h118l541 -557h-125l-473 469l-475 -469h-125z" />
<glyph unicode="_" horiz-adv-x="1024" d="M0 -403h1024v-80h-1024v80z" />
<glyph unicode="`" horiz-adv-x="1024" d="M299 1380h147l224 -350h-90z" />
<glyph unicode="a" horiz-adv-x="1096" d="M53 412q0 218 126 363t317 145q114 0 190 -51.5t121 -159.5l24 178h119l-116 -887h-119l18 133q-55 -86 -132.5 -129t-176.5 -43q-163 0 -267 126t-104 325zM178 406q0 -157 76 -250t203 -93q137 0 229 118t92 298q0 153 -75.5 246.5t-198.5 93.5q-140 0 -233 -116.5 t-93 -296.5z" />
<glyph unicode="b" horiz-adv-x="1096" d="M66 0l204 1550h119l-104 -798q62 85 136.5 125.5t170.5 40.5q164 0 268.5 -125t104.5 -324q0 -218 -127 -363t-316 -145q-114 0 -192 53t-121 160l-23 -174h-120zM240 403q0 -153 75.5 -246.5t198.5 -93.5q140 0 233 117.5t93 296.5q0 155 -77.5 248.5t-203.5 93.5 q-137 0 -228 -117.5t-91 -298.5z" />
<glyph unicode="c" horiz-adv-x="909" d="M45 408q0 221 145 366.5t367 145.5q85 0 158 -22.5t139 -68.5l-31 -112q-67 49 -134 72.5t-138 23.5q-165 0 -272 -112.5t-107 -286.5q0 -154 91 -249t239 -95q66 0 129.5 24.5t134.5 77.5l-25 -145q-63 -33 -123 -49.5t-120 -16.5q-205 0 -329 123t-124 324z" />
<glyph unicode="d" horiz-adv-x="1096" d="M53 414q0 219 126.5 363.5t318.5 144.5q114 0 189 -52t120 -161l113 841h118l-202 -1550h-121l18 133q-57 -87 -133 -129.5t-174 -42.5q-163 0 -268 127t-105 326zM178 408q0 -157 76.5 -251t202.5 -94q137 0 229 118.5t92 299.5q0 153 -75.5 246.5t-198.5 93.5 q-140 0 -233 -116.5t-93 -296.5z" />
<glyph unicode="e" horiz-adv-x="1047" d="M47 387q0 236 134.5 384.5t346.5 148.5q188 0 291 -106t103 -298q0 -18 -2 -41.5t-5 -48.5h-743v-23q0 -160 81.5 -248.5t229.5 -88.5q91 0 163.5 41.5t129.5 125.5l82 -79q-73 -99 -164.5 -146t-212.5 -47q-196 0 -315 117t-119 309zM184 526h619q0 139 -68.5 215 t-193.5 76q-138 0 -228 -73.5t-129 -217.5z" />
<glyph unicode="f" horiz-adv-x="545" d="M45 782l14 105h160l53 399q23 164 74 224.5t158 60.5q40 0 75.5 -7.5t65.5 -21.5l-16 -106q-37 14 -62.5 20t-44.5 6q-60 0 -88.5 -39t-42.5 -147l-51 -389h211l-14 -105h-211l-103 -782h-121l105 782h-162z" />
<glyph unicode="g" horiz-adv-x="1096" d="M16 -105l123 1v-5q0 -103 72.5 -167t189.5 -64q144 0 216 85t102 300l14 102q-56 -85 -132 -127.5t-175 -42.5q-163 0 -268 124t-105 319q0 215 126 357.5t317 142.5q115 0 190.5 -51t120.5 -158l24 176h119l-112 -856q-34 -253 -140 -365t-305 -112q-160 0 -263.5 93.5 t-113.5 247.5zM178 416q0 -154 76 -246t203 -92q137 0 229 116.5t92 292.5q0 151 -75.5 242.5t-198.5 91.5q-140 0 -233 -114t-93 -291z" />
<glyph unicode="h" horiz-adv-x="1055" d="M66 0l204 1550h119l-110 -807q69 90 150 133.5t179 43.5q127 0 201 -69t74 -189q0 -21 -2 -46t-7 -53l-73 -563h-121l74 556q3 22 4.5 42.5t1.5 42.5q0 85 -52 129.5t-151 44.5q-132 0 -210.5 -93.5t-102.5 -279.5l-58 -442h-120z" />
<glyph unicode="i" horiz-adv-x="461" d="M76 0l117 887h120l-116 -887h-121zM201 1214q0 39 25.5 65t64.5 26q38 0 64 -26t26 -65q0 -38 -26 -64t-64 -26q-39 0 -64.5 26t-25.5 64z" />
<glyph unicode="j" horiz-adv-x="461" d="M16 -446l177 1333h120l-176 -1333h-121zM201 1214q0 39 25.5 65t64.5 26q38 0 64 -26t26 -65q0 -38 -26 -64t-64 -26q-39 0 -64.5 26t-25.5 64z" />
<glyph unicode="k" horiz-adv-x="924" d="M66 0l204 1550h119l-137 -1052l489 389h187l-531 -410l432 -477h-147l-434 471l-62 -471h-120z" />
<glyph unicode="l" horiz-adv-x="461" d="M76 0l205 1550h118l-204 -1550h-119z" />
<glyph unicode="m" horiz-adv-x="1583" d="M66 0l114 887h113l-23 -139q67 89 143.5 132.5t168.5 43.5q100 0 165 -50t87 -143q66 97 145 145t174 48q118 0 186 -69t68 -189q0 -19 -2 -44t-6 -55l-72 -567h-117l72 559q1 7 2 21q4 41 4 65q0 84 -48.5 129t-139.5 45q-122 0 -193 -92t-94 -281l-57 -446h-119l74 560 q3 22 4.5 41t1.5 38q0 88 -48.5 134t-140.5 46q-122 0 -192.5 -91.5t-93.5 -281.5l-58 -446h-118z" />
<glyph unicode="n" horiz-adv-x="1055" d="M66 0l116 887h117l-20 -144q69 90 150 133.5t179 43.5q127 0 201 -69t74 -189q0 -21 -2 -46t-7 -53l-73 -563h-121l74 556q3 22 4.5 42.5t1.5 42.5q0 85 -52 129.5t-151 44.5q-132 0 -210.5 -93.5t-102.5 -279.5l-58 -442h-120z" />
<glyph unicode="o" horiz-adv-x="1118" d="M45 406q0 221 143.5 367.5t360.5 146.5q199 0 324.5 -123.5t125.5 -317.5q0 -225 -141.5 -371.5t-359.5 -146.5q-204 0 -328.5 122.5t-124.5 322.5zM172 412q0 -152 91 -247t237 -95q159 0 264.5 114t105.5 285q0 150 -92 246t-235 96q-161 0 -266 -113t-105 -286z" />
<glyph unicode="p" horiz-adv-x="1096" d="M6 -446l176 1333h117l-18 -137q65 88 139 129t170 41q164 0 269.5 -126t105.5 -325q0 -220 -126 -365t-317 -145q-113 0 -191 53t-122 160l-82 -618h-121zM240 403q0 -153 75.5 -247.5t198.5 -94.5q139 0 232.5 118.5t93.5 297.5q0 156 -77 249t-204 93 q-137 0 -228 -117.5t-91 -298.5z" />
<glyph unicode="q" horiz-adv-x="1096" d="M53 412q0 219 126 363.5t317 144.5q115 0 190 -51t121 -160l24 178h121l-176 -1333h-121l78 575q-60 -86 -135 -127t-172 -41q-163 0 -268 126t-105 325zM178 406q0 -157 76.5 -251t202.5 -94q137 0 229 118.5t92 299.5q0 153 -75.5 246.5t-198.5 93.5 q-140 0 -233 -116.5t-93 -296.5z" />
<glyph unicode="r" horiz-adv-x="627" d="M66 0l116 887h117l-23 -150q63 91 131 138t138 47q28 0 54.5 -5t49.5 -14l-28 -121q-40 14 -61.5 19.5t-35.5 5.5q-118 0 -187.5 -88t-92.5 -268l-58 -451h-120z" />
<glyph unicode="s" horiz-adv-x="807" d="M-8 135l78 76q59 -77 127 -113.5t151 -36.5q87 0 144 46.5t57 115.5q0 57 -31.5 92t-148.5 82q-156 63 -207 117.5t-51 138.5q0 121 82 195t217 74q75 0 147.5 -33t140.5 -98l-71 -80q-53 56 -110.5 85t-119.5 29q-77 0 -125.5 -45t-48.5 -116q0 -86 166 -152 q36 -14 55 -23q121 -52 172.5 -110.5t51.5 -140.5q0 -126 -88.5 -201.5t-237.5 -75.5q-113 0 -198 42.5t-152 131.5z" />
<glyph unicode="t" horiz-adv-x="498" d="M37 782l12 105h150l47 364h119l-48 -364h181l-15 -105h-180l-102 -782h-119l102 782h-147z" />
<glyph unicode="u" horiz-adv-x="1053" d="M100 250q0 41 5 93.5t18 145.5l53 398h119l-49 -377q-14 -104 -19.5 -157t-5.5 -89q0 -90 59.5 -141t163.5 -51q132 0 199 86t96 303l58 426h118l-57 -436q-24 -177 -50.5 -253t-72.5 -126q-49 -54 -124.5 -82.5t-170.5 -28.5q-157 0 -248.5 77.5t-91.5 211.5z" />
<glyph unicode="v" horiz-adv-x="891" d="M2 887h127l215 -694l397 694h136l-566 -942z" />
<glyph unicode="w" horiz-adv-x="1327" d="M8 887h129l191 -664l342 729l168 -727l372 662h133l-548 -942l-166 710l-328 -710z" />
<glyph unicode="x" horiz-adv-x="825" d="M-63 0l376 455l-270 432h135l215 -363l291 363h156l-387 -447l268 -440h-137l-209 365l-283 -365h-155z" />
<glyph unicode="y" horiz-adv-x="891" d="M-45 -446l309 516l-258 817h131l207 -701l404 701h135l-797 -1333h-131z" />
<glyph unicode="z" horiz-adv-x="815" d="M-59 0l643 782h-518l14 105h725l-637 -781h545l-15 -106h-757z" />
<glyph unicode="{" horiz-adv-x="1024" d="M176 485v90q10 -1 20.5 -1.5t28.5 -0.5q139 0 196.5 64.5t57.5 222.5v240q0 227 68.5 302t257.5 75h43v-88h-37q-135 0 -182 -51.5t-47 -213.5v-241q0 -175 -43 -248t-152 -105q109 -32 152 -104t43 -248v-241q0 -162 46.5 -212.5t180.5 -50.5h39v-88h-43 q-189 0 -257.5 74.5t-68.5 300.5v240q0 158 -58 222t-200 64q-7 0 -21.5 -1t-23.5 -1z" />
<glyph unicode="|" horiz-adv-x="1024" d="M467 -483v2048h90v-2048h-90z" />
<glyph unicode="}" horiz-adv-x="1024" d="M176 -326h39q134 0 180.5 50.5t46.5 212.5v241q0 174 43.5 247t153.5 105q-110 32 -153.5 105t-43.5 248v241q0 162 -47 213.5t-182 51.5h-37v88h43q189 0 257.5 -75t68.5 -302v-240q0 -158 58 -222.5t200 -64.5q7 0 21.5 1t23.5 1v-90q-9 0 -23.5 1t-21.5 1 q-142 0 -200 -64t-58 -222v-240q0 -226 -68.5 -300.5t-257.5 -74.5h-43v88z" />
<glyph unicode="~" horiz-adv-x="1706" d="M178 481v92q105 74 201 110t186 36q100 0 271 -61q12 -5 19 -7q8 -3 27 -10q168 -61 261 -61q83 0 175 37.5t212 121.5v-92q-106 -74 -202 -110.5t-185 -36.5q-99 0 -266 61q-16 6 -22 8q-12 4 -33 12q-167 60 -257 60q-83 0 -175 -37.5t-212 -122.5z" />
<glyph unicode="&#xa0;" />
<glyph unicode="&#xa1;" horiz-adv-x="621" d="M141 -39l158 1208h119l-158 -1208h-119zM285 1395q0 43 29.5 72.5t72.5 29.5t72.5 -29.5t29.5 -72.5t-29.5 -73t-72.5 -30t-72.5 30t-29.5 73z" />
<glyph unicode="&#xa2;" d="M141 434q0 215 128 357.5t339 162.5l23 170h78l-23 -169q75 -5 141.5 -27.5t124.5 -63.5l-30 -112q-64 46 -126 70.5t-124 27.5l-99 -744q6 0 16 -1t15 -1q65 0 129 26t131 79l-24 -146q-66 -33 -129 -49t-129 -16h-23l-27 -203h-75l26 213q-156 32 -249 148t-93 278z M272 451q0 -125 58.5 -210t169.5 -122l94 727q-149 -28 -235.5 -133.5t-86.5 -261.5z" />
<glyph unicode="&#xa3;" d="M57 66q18 26 52.5 53t97.5 63q63 78 90 147t27 152q0 29 -7 105q-1 9 -2 14h-252l11 84h221q-45 111 -62.5 183.5t-17.5 140.5q0 198 137.5 333.5t337.5 135.5q194 0 305 -110t111 -302q0 -25 -0.5 -37.5t-1.5 -23.5h-123v28q0 158 -76 245t-213 87q-146 0 -248 -106.5 t-102 -258.5q0 -74 56 -252q13 -41 20 -63h405l-10 -84h-374q2 -22 3.5 -43.5t1.5 -42.5q0 -98 -33.5 -177t-106.5 -154q14 2 29.5 3.5t31.5 1.5q30 0 62.5 -5.5t68.5 -16.5q26 -9 119.5 -50.5t152.5 -41.5q49 0 96 23t127 91l76 -77q-75 -77 -149.5 -113.5t-155.5 -36.5 q-63 0 -182 45l-6 2q-15 6 -42 17q-134 55 -213 55q-52 0 -105.5 -25.5t-111.5 -79.5z" />
<glyph unicode="&#xa4;" d="M-20 549l45 98h144q2 38 6 78t11 84h-161l47 98h133q70 291 212.5 431.5t366.5 140.5q91 0 176.5 -35.5t153.5 -100.5l-29 -135q-60 77 -139 117.5t-170 40.5q-169 0 -278.5 -113t-163.5 -346h667l-55 -98h-633q-6 -44 -10.5 -85t-5.5 -76l559 -1l-55 -98h-506v-35 q0 -200 77 -321t201 -121q98 0 191.5 29t181.5 87l-31 -153q-84 -41 -160.5 -58.5t-179.5 -17.5q-194 0 -300.5 147.5t-106.5 403.5v39h-188z" />
<glyph unicode="&#xa5;" d="M2 623l10 94h475l-90 176h-360l12 96h297l-235 463h129l335 -676l467 676h132l-318 -463h297l-12 -96h-353l-126 -176h456l-12 -94h-479l-82 -623h-127l82 623h-498z" />
<glyph unicode="&#xa6;" horiz-adv-x="1024" d="M467 -350v758h90v-758h-90zM467 674v758h90v-758h-90z" />
<glyph unicode="&#xa7;" horiz-adv-x="1042" d="M45 -25h117v-24q0 -125 59 -189.5t172 -64.5q107 0 171.5 64.5t64.5 170.5q0 90 -52 148t-194 119q-161 68 -224 145t-63 197q0 148 85 247t235 125q-90 43 -136.5 109t-46.5 152q0 141 98.5 234t248.5 93q154 0 241.5 -89.5t87.5 -248.5v-30h-108v18q0 119 -58.5 183.5 t-167.5 64.5q-100 0 -164.5 -59.5t-64.5 -151.5q0 -83 51.5 -138t194.5 -114q161 -67 225 -147t64 -205q0 -148 -82.5 -239.5t-243.5 -125.5q95 -41 142.5 -111t47.5 -167q0 -151 -98 -249t-252 -98q-169 0 -259.5 92.5t-90.5 266.5v22zM213 551q0 -117 70 -185.5t188 -68.5 q129 0 208 78.5t79 208.5q0 116 -70.5 188t-185.5 72q-128 0 -208.5 -81.5t-80.5 -211.5z" />
<glyph unicode="&#xa8;" horiz-adv-x="1024" d="M326 1190q0 32 27 59t61 27q35 0 60.5 -25.5t25.5 -60.5q0 -38 -24.5 -63t-61.5 -25q-36 0 -62 26t-26 62zM647 1190q0 32 27.5 59t60.5 27q36 0 61 -25.5t25 -60.5q0 -38 -24.5 -63t-61.5 -25q-36 0 -62 26t-26 62z" />
<glyph unicode="&#xa9;" horiz-adv-x="1706" d="M123 721q0 145 56 279t161 241q101 103 232 157t280 54t282.5 -55t237.5 -160q103 -102 157 -235t54 -281q0 -150 -53.5 -280t-157.5 -232q-107 -106 -241.5 -162.5t-278.5 -56.5q-145 0 -277 55.5t-237 161.5q-105 104 -160 236t-55 278zM195 721q0 -130 50 -249.5 t144 -213.5t213.5 -144.5t249.5 -50.5t251.5 51t217.5 146q93 92 141.5 209.5t48.5 251.5q0 133 -49 252.5t-141 212.5q-95 95 -215 144.5t-254 49.5q-133 0 -251.5 -49t-209.5 -141q-95 -97 -145.5 -218t-50.5 -251zM471 725q0 205 107 328t282 123q132 0 222.5 -72 t103.5 -186h-105q-20 81 -79.5 126.5t-147.5 45.5q-126 0 -196 -97.5t-70 -273.5q0 -169 71.5 -267t194.5 -98q91 0 156 52.5t84 140.5h102q-11 -123 -108 -201t-240 -78q-173 0 -275 123.5t-102 333.5z" />
<glyph unicode="&#xaa;" horiz-adv-x="821" d="M41 1133q0 152 94.5 253t237.5 101q85 0 142 -36t91 -112l19 125h88l-88 -620h-88l14 94q-41 -61 -99 -91t-135 -30q-122 0 -199 87.5t-77 228.5zM133 1128q0 -109 57 -174t152 -65q104 0 173 82t69 209q0 107 -56.5 172t-148.5 65q-106 0 -176 -81.5t-70 -207.5z" />
<glyph unicode="&#xab;" horiz-adv-x="915" d="M45 446l365 416l69 -67l-311 -363l217 -352l-80 -55zM391 442l365 418l69 -67l-311 -365l217 -350l-80 -55z" />
<glyph unicode="&#xac;" horiz-adv-x="1706" d="M254 774v82h1198v-502h-78v420h-1120z" />
<glyph unicode="&#xad;" horiz-adv-x="616" d="M41 385l14 111h437l-15 -111h-436z" />
<glyph unicode="&#xae;" horiz-adv-x="1706" d="M123 721q0 145 56 279t161 241q101 103 232 157t280 54t282.5 -55t237.5 -160q103 -102 157 -235t54 -281q0 -150 -53.5 -280t-157.5 -232q-107 -106 -241.5 -162.5t-278.5 -56.5q-145 0 -277 55.5t-237 161.5q-105 104 -160 236t-55 278zM195 721q0 -130 50 -249.5 t144 -213.5t213.5 -144.5t249.5 -50.5t251.5 51t217.5 146q93 92 141.5 209.5t48.5 251.5q0 133 -49 252.5t-141 212.5q-95 95 -215 144.5t-254 49.5q-133 0 -251.5 -49t-209.5 -141q-95 -97 -145.5 -218t-50.5 -251zM569 309v846h305q180 0 264.5 -56.5t84.5 -176.5 q0 -89 -55.5 -149t-147.5 -71l190 -393h-131l-182 377h-213v-377h-115zM684 764h168q145 0 199.5 36t54.5 126q0 78 -61.5 114.5t-192.5 36.5h-168v-313z" />
<glyph unicode="&#xaf;" horiz-adv-x="1024" d="M313 1130l15 117h512l-15 -117h-512z" />
<glyph unicode="&#xb0;" horiz-adv-x="674" d="M63 1176q0 114 80.5 194t194.5 80q112 0 192 -80.5t80 -193.5q0 -114 -80 -193.5t-194 -79.5q-115 0 -194 79t-79 194zM125 1176q0 -89 62.5 -151t150.5 -62t150.5 62t62.5 151q0 87 -63 150t-150 63q-89 0 -151 -62t-62 -151z" />
<glyph unicode="&#xb1;" horiz-adv-x="1706" d="M254 59v82h1198v-82h-1198zM254 727v80h559v354h80v-354h559v-80h-559v-352h-80v352h-559z" />
<glyph unicode="&#xb2;" horiz-adv-x="758" d="M2 575l346 291q166 139 218 212t52 147q0 83 -55 127.5t-157 44.5q-98 0 -160.5 -58t-67.5 -153h-80q7 131 90 204.5t226 73.5q135 0 211.5 -62.5t76.5 -172.5q0 -169 -320 -432l-26 -21l-163 -131h425l-10 -70h-606z" />
<glyph unicode="&#xb3;" horiz-adv-x="758" d="M39 797l78 -1q9 -84 64 -131t147 -47q106 0 170.5 56.5t64.5 148.5q0 81 -62.5 124.5t-178.5 43.5h-15l10 68h37q122 0 189 48.5t67 135.5q0 70 -53.5 112t-142.5 42q-83 0 -138 -41t-63 -109h-88q15 96 95.5 155.5t195.5 59.5q123 0 198.5 -59.5t75.5 -155.5 q0 -86 -55 -145t-158 -82q82 -20 126 -72t44 -127q0 -119 -88 -193.5t-229 -74.5q-133 0 -209 63.5t-82 180.5z" />
<glyph unicode="&#xb4;" horiz-adv-x="1024" d="M422 1030l244 350h147l-299 -350h-92z" />
<glyph unicode="&#xb5;" horiz-adv-x="1094" d="M-111 -424l316 1487h121l-123 -590q-9 -43 -13 -77t-4 -64q0 -126 60 -192t174 -66q127 0 219.5 109t136.5 313l125 567h121l-166 -786q-2 -9 -5 -24q-20 -92 -20 -112q0 -31 17.5 -47t50.5 -16q9 0 18.5 0.5t20.5 1.5l-18 -96q-3 -1 -8 -2q-49 -11 -68 -11 q-68 0 -100.5 31.5t-32.5 95.5q0 7 0.5 16t3.5 29q-43 -83 -123.5 -127.5t-188.5 -44.5q-97 0 -169.5 45.5t-104.5 126.5l-119 -567h-121z" />
<glyph unicode="&#xb6;" horiz-adv-x="1024" d="M90 1130q0 157 108.5 253t286.5 96h447v-64h-129v-1415h-70v1415h-192v-1415h-70v782q-175 8 -278 102.5t-103 245.5z" />
<glyph unicode="&#xb7;" horiz-adv-x="573" d="M184 719q0 43 30 72.5t73 29.5t72.5 -29.5t29.5 -72.5t-29.5 -73t-72.5 -30t-73 30t-30 73z" />
<glyph unicode="&#xb8;" horiz-adv-x="1024" d="M160 -416l26 78q67 -19 120 -29t91 -10q68 0 105 29t37 82q0 47 -39.5 67.5t-130.5 20.5h-31l59 178h66l-37 -111h20q101 0 153 -39.5t52 -115.5q0 -92 -62.5 -143.5t-174.5 -51.5q-55 0 -116.5 11t-137.5 34z" />
<glyph unicode="&#xb9;" horiz-adv-x="758" d="M229 1380l33 66h232l-125 -871h-84l118 805h-174z" />
<glyph unicode="&#xba;" horiz-adv-x="840" d="M35 1128q0 155 107 257t270 102q149 0 243.5 -86t94.5 -221q0 -159 -106.5 -261t-270.5 -102q-153 0 -245.5 85.5t-92.5 225.5zM129 1133q0 -107 68 -173.5t178 -66.5q119 0 198.5 79.5t79.5 198.5q0 105 -69 172.5t-176 67.5q-121 0 -200 -78.5t-79 -199.5z" />
<glyph unicode="&#xbb;" horiz-adv-x="915" d="M16 88l310 365l-217 352l79 55l261 -422l-363 -415zM362 86l310 365l-217 350l80 57l260 -422l-363 -416z" />
<glyph unicode="&#xbc;" horiz-adv-x="1788" d="M219 1384l31 60h221l-121 -811h-78l113 751h-166zM381 -39l930 1518h94l-930 -1518h-94zM1067 201l596 639l-86 -578h98l-8 -61h-98l-31 -201h-78l33 201h-426zM1202 262h297l66 395z" />
<glyph unicode="&#xbd;" horiz-adv-x="1788" d="M219 1384l31 60h221l-121 -811h-78l113 751h-166zM381 -39l930 1518h94l-930 -1518h-94zM1067 0l332 270q162 136 210 202.5t48 133.5q0 77 -53.5 119.5t-151.5 42.5q-92 0 -152 -54.5t-65 -143.5l-76 -1q6 124 85 192t216 68q129 0 202 -58t73 -161q0 -158 -309 -404 l-21 -18l-156 -125h406l-8 -63h-580z" />
<glyph unicode="&#xbe;" horiz-adv-x="1788" d="M37 840h76q7 -79 59 -122.5t139 -43.5q103 0 165.5 52t62.5 138q0 76 -59.5 116t-172.5 40h-14l10 65q7 -1 14 -1.5t21 -0.5q116 0 180 46t64 128q0 66 -51 105t-136 39q-80 0 -132 -38.5t-60 -102.5h-82q14 89 90 144.5t184 55.5q119 0 191.5 -55.5t72.5 -144.5 q0 -81 -52.5 -136t-151.5 -77q79 -19 121 -67t42 -118q0 -111 -83.5 -181.5t-219.5 -70.5q-127 0 -199.5 60t-78.5 170zM381 -39l930 1518h94l-930 -1518h-94zM1067 201l596 639l-86 -578h98l-8 -61h-98l-31 -201h-78l33 201h-426zM1202 262h297l66 395z" />
<glyph unicode="&#xbf;" horiz-adv-x="1014" d="M84 293q0 104 71 190t200 136q23 9 66 26q306 118 306 240q0 72 -51 115.5t-135 43.5q-83 0 -133.5 -42t-73.5 -132l-117 27q34 128 113.5 190t210.5 62q137 0 221 -73.5t84 -192.5q0 -97 -59 -170t-173 -117q-274 -103 -341.5 -164.5t-67.5 -152.5q0 -95 66 -153 t175 -58q105 0 173 59.5t100 179.5l117 -31q-42 -155 -145 -236t-259 -81t-252 92t-96 242zM502 1395q0 43 29.5 72.5t72.5 29.5t73 -29.5t30 -72.5t-30 -73t-73 -30t-72.5 30t-29.5 73z" />
<glyph unicode="&#xc0;" horiz-adv-x="1176" d="M-147 0l864 1499l452 -1499h-137l-139 479h-631l-270 -479h-139zM326 586h536l-182 641zM469 1958h147l224 -350h-90z" />
<glyph unicode="&#xc1;" horiz-adv-x="1176" d="M-147 0l864 1499l452 -1499h-137l-139 479h-631l-270 -479h-139zM326 586h536l-182 641zM592 1608l244 350h147l-299 -350h-92z" />
<glyph unicode="&#xc2;" horiz-adv-x="1176" d="M-147 0l864 1499l452 -1499h-137l-139 479h-631l-270 -479h-139zM326 586h536l-182 641zM440 1608l267 350h133l153 -350h-82l-145 248l-234 -248h-92z" />
<glyph unicode="&#xc3;" horiz-adv-x="1176" d="M-147 0l864 1499l452 -1499h-137l-139 479h-631l-270 -479h-139zM326 586h536l-182 641zM461 1659q38 103 81 145t107 42q16 0 29.5 -2t26.5 -6l91 -29q4 -1 11 -3q33 -9 47 -9q34 0 56 17t36 54h80q-33 -96 -77 -138t-111 -42q-15 0 -32 2.5t-35 7.5l-95 29q-4 1 -10 3 q-22 7 -35 7q-30 0 -53 -20t-37 -58h-80z" />
<glyph unicode="&#xc4;" horiz-adv-x="1176" d="M-147 0l864 1499l452 -1499h-137l-139 479h-631l-270 -479h-139zM326 586h536l-182 641zM496 1768q0 32 27 59t61 27q35 0 60.5 -25.5t25.5 -60.5q0 -38 -24.5 -63t-61.5 -25q-36 0 -62 26t-26 62zM817 1768q0 32 27.5 59t60.5 27q36 0 61 -25.5t25 -60.5 q0 -38 -24.5 -63t-61.5 -25q-36 0 -62 26t-26 62z" />
<glyph unicode="&#xc5;" horiz-adv-x="1176" d="M-147 0l841 1464h31l444 -1464h-137l-139 479h-631l-270 -479h-139zM326 586h536l-182 641zM487 1739q0 97 67.5 164t164.5 67t165 -67.5t68 -163.5q0 -97 -68 -164.5t-165 -67.5q-95 0 -163.5 68.5t-68.5 163.5zM571 1739q0 -60 44 -104t104 -44q62 0 105.5 43.5 t43.5 104.5t-43.5 104t-105.5 43t-105 -43t-43 -104z" />
<glyph unicode="&#xc6;" horiz-adv-x="1757" d="M-94 0l817 1464h688l23 -112h-627l123 -480h614l29 -110h-615l164 -647h615l28 -115h-741l-133 520h-551l-295 -520h-139zM399 633h465l-141 602z" />
<glyph unicode="&#xc7;" horiz-adv-x="1421" d="M106 676q0 177 63.5 333t180.5 269q112 107 259.5 163t318.5 56q146 0 266.5 -40t220.5 -122l-35 -135q-85 94 -199 140t-257 46q-142 0 -262.5 -48t-210.5 -140q-102 -103 -156.5 -239.5t-54.5 -286.5q0 -273 165.5 -434.5t446.5 -161.5q93 0 199.5 33.5t228.5 101.5 l-35 -154q-120 -49 -224 -72.5t-202 -23.5q-321 0 -517 197t-196 518zM533 -416l26 78q67 -19 120 -29t91 -10q68 0 105 29t37 82q0 47 -39.5 67.5t-130.5 20.5h-31l59 178h66l-37 -111h20q101 0 153 -39.5t52 -115.5q0 -92 -62.5 -143.5t-174.5 -51.5q-55 0 -116.5 11 t-137.5 34z" />
<glyph unicode="&#xc8;" horiz-adv-x="1042" d="M82 0l192 1464h721l-14 -112h-596l-63 -480h579l-14 -110h-580l-84 -647h611l-17 -115h-735zM399 1958h147l224 -350h-90z" />
<glyph unicode="&#xc9;" horiz-adv-x="1042" d="M82 0l192 1464h721l-14 -112h-596l-63 -480h579l-14 -110h-580l-84 -647h611l-17 -115h-735zM522 1608l244 350h147l-299 -350h-92z" />
<glyph unicode="&#xca;" horiz-adv-x="1042" d="M82 0l192 1464h721l-14 -112h-596l-63 -480h579l-14 -110h-580l-84 -647h611l-17 -115h-735zM370 1608l267 350h133l153 -350h-82l-145 248l-234 -248h-92z" />
<glyph unicode="&#xcb;" horiz-adv-x="1042" d="M82 0l192 1464h721l-14 -112h-596l-63 -480h579l-14 -110h-580l-84 -647h611l-17 -115h-735zM426 1768q0 32 27 59t61 27q35 0 60.5 -25.5t25.5 -60.5q0 -38 -24.5 -63t-61.5 -25q-36 0 -62 26t-26 62zM747 1768q0 32 27.5 59t60.5 27q36 0 61 -25.5t25 -60.5 q0 -38 -24.5 -63t-61.5 -25q-36 0 -62 26t-26 62z" />
<glyph unicode="&#xcc;" horiz-adv-x="494" d="M86 0l195 1464h125l-193 -1464h-127zM92 1958h147l224 -350h-90z" />
<glyph unicode="&#xcd;" horiz-adv-x="494" d="M86 0l195 1464h125l-193 -1464h-127zM215 1608l244 350h147l-299 -350h-92z" />
<glyph unicode="&#xce;" horiz-adv-x="494" d="M63 1608l267 350h133l153 -350h-82l-145 248l-234 -248h-92zM86 0l195 1464h125l-193 -1464h-127z" />
<glyph unicode="&#xcf;" horiz-adv-x="494" d="M86 0l195 1464h125l-193 -1464h-127zM119 1768q0 32 27 59t61 27q35 0 60.5 -25.5t25.5 -60.5q0 -38 -24.5 -63t-61.5 -25q-36 0 -62 26t-26 62zM440 1768q0 32 27.5 59t60.5 27q36 0 61 -25.5t25 -60.5q0 -38 -24.5 -63t-61.5 -25q-36 0 -62 26t-26 62z" />
<glyph unicode="&#xd0;" horiz-adv-x="1413" d="M-6 758l12 100h199l80 606h194q262 0 375 -29t205 -98q120 -90 184 -234t64 -323q0 -158 -48.5 -297.5t-140.5 -242.5q-67 -75 -148.5 -126.5t-176.5 -78.5q-65 -18 -137.5 -26.5t-180.5 -8.5h-141h-242l101 758h-199zM229 109h95q284 0 401.5 27t202.5 91 q116 89 181 234t65 319q0 151 -51.5 270t-149.5 197q-74 59 -174 84t-301 25h-103l-65 -498h438l-12 -100h-441z" />
<glyph unicode="&#xd1;" horiz-adv-x="1516" d="M82 0l199 1503l876 -1224l156 1185h121l-199 -1503l-875 1223l-155 -1184h-123zM594 1659q38 103 81 145t107 42q16 0 29.5 -2t26.5 -6l91 -29q4 -1 11 -3q33 -9 47 -9q34 0 56 17t36 54h80q-33 -96 -77 -138t-111 -42q-15 0 -32 2.5t-35 7.5l-95 29q-4 1 -10 3 q-22 7 -35 7q-30 0 -53 -20t-37 -58h-80z" />
<glyph unicode="&#xd2;" horiz-adv-x="1761" d="M106 674q0 179 63.5 336t180.5 268q110 106 260 162.5t318 56.5q331 0 529 -194t198 -519q0 -175 -64 -329.5t-184 -268.5q-113 -108 -266 -166.5t-324 -58.5q-318 0 -514.5 197.5t-196.5 515.5zM240 672q0 -268 163.5 -432t430.5 -164q138 0 261 49.5t218 144.5 q100 101 154.5 235.5t54.5 282.5q0 268 -165 433t-433 165q-136 0 -258.5 -49.5t-214.5 -142.5q-103 -104 -157 -238.5t-54 -283.5zM688 1958h147l224 -350h-90z" />
<glyph unicode="&#xd3;" horiz-adv-x="1761" d="M106 674q0 179 63.5 336t180.5 268q110 106 260 162.5t318 56.5q331 0 529 -194t198 -519q0 -175 -64 -329.5t-184 -268.5q-113 -108 -266 -166.5t-324 -58.5q-318 0 -514.5 197.5t-196.5 515.5zM240 672q0 -268 163.5 -432t430.5 -164q138 0 261 49.5t218 144.5 q100 101 154.5 235.5t54.5 282.5q0 268 -165 433t-433 165q-136 0 -258.5 -49.5t-214.5 -142.5q-103 -104 -157 -238.5t-54 -283.5zM811 1608l244 350h147l-299 -350h-92z" />
<glyph unicode="&#xd4;" horiz-adv-x="1761" d="M106 674q0 179 63.5 336t180.5 268q110 106 260 162.5t318 56.5q331 0 529 -194t198 -519q0 -175 -64 -329.5t-184 -268.5q-113 -108 -266 -166.5t-324 -58.5q-318 0 -514.5 197.5t-196.5 515.5zM240 672q0 -268 163.5 -432t430.5 -164q138 0 261 49.5t218 144.5 q100 101 154.5 235.5t54.5 282.5q0 268 -165 433t-433 165q-136 0 -258.5 -49.5t-214.5 -142.5q-103 -104 -157 -238.5t-54 -283.5zM659 1608l267 350h133l153 -350h-82l-145 248l-234 -248h-92z" />
<glyph unicode="&#xd5;" horiz-adv-x="1761" d="M106 674q0 179 63.5 336t180.5 268q110 106 260 162.5t318 56.5q331 0 529 -194t198 -519q0 -175 -64 -329.5t-184 -268.5q-113 -108 -266 -166.5t-324 -58.5q-318 0 -514.5 197.5t-196.5 515.5zM240 672q0 -268 163.5 -432t430.5 -164q138 0 261 49.5t218 144.5 q100 101 154.5 235.5t54.5 282.5q0 268 -165 433t-433 165q-136 0 -258.5 -49.5t-214.5 -142.5q-103 -104 -157 -238.5t-54 -283.5zM680 1659q38 103 81 145t107 42q16 0 29.5 -2t26.5 -6l91 -29q4 -1 11 -3q33 -9 47 -9q34 0 56 17t36 54h80q-33 -96 -77 -138t-111 -42 q-15 0 -32 2.5t-35 7.5l-95 29q-4 1 -10 3q-22 7 -35 7q-30 0 -53 -20t-37 -58h-80z" />
<glyph unicode="&#xd6;" horiz-adv-x="1761" d="M106 674q0 179 63.5 336t180.5 268q110 106 260 162.5t318 56.5q331 0 529 -194t198 -519q0 -175 -64 -329.5t-184 -268.5q-113 -108 -266 -166.5t-324 -58.5q-318 0 -514.5 197.5t-196.5 515.5zM240 672q0 -268 163.5 -432t430.5 -164q138 0 261 49.5t218 144.5 q100 101 154.5 235.5t54.5 282.5q0 268 -165 433t-433 165q-136 0 -258.5 -49.5t-214.5 -142.5q-103 -104 -157 -238.5t-54 -283.5zM715 1768q0 32 27 59t61 27q35 0 60.5 -25.5t25.5 -60.5q0 -38 -24.5 -63t-61.5 -25q-36 0 -62 26t-26 62zM1036 1768q0 32 27.5 59t60.5 27 q36 0 61 -25.5t25 -60.5q0 -38 -24.5 -63t-61.5 -25q-36 0 -62 26t-26 62z" />
<glyph unicode="&#xd7;" horiz-adv-x="1706" d="M309 123l488 487l-488 488l58 57l487 -487l487 487l58 -57l-488 -488l488 -487l-58 -57l-487 487l-487 -487z" />
<glyph unicode="&#xd8;" horiz-adv-x="1761" d="M66 12l196 191q-80 81 -119 194.5t-39 264.5q0 186 63.5 345t184.5 277q114 109 262 166t318 57q155 0 281.5 -44.5t220.5 -131.5l170 164l55 -63l-168 -160q81 -98 121.5 -220t40.5 -268q0 -178 -63 -332.5t-183 -269.5q-112 -108 -263 -165.5t-325 -57.5 q-156 0 -281.5 46t-218.5 136l-198 -190zM242 653q0 -107 28.5 -196.5t85.5 -163.5l985 950q-76 75 -181.5 113.5t-233.5 38.5q-139 0 -260.5 -50t-214.5 -145q-105 -106 -157 -242.5t-52 -304.5zM412 229q75 -76 183 -115.5t243 -39.5q138 0 259.5 49.5t215.5 144.5 q100 101 154.5 236.5t54.5 288.5q0 111 -31.5 208.5t-93.5 180.5z" />
<glyph unicode="&#xd9;" horiz-adv-x="1384" d="M133 391q0 52 7 125.5t24 198.5l98 749h125l-119 -901q-5 -37 -7.5 -71t-2.5 -68q0 -167 90.5 -259.5t253.5 -92.5q118 0 207.5 41.5t148.5 124.5q79 107 118 405q4 25 5 36l103 785h125l-109 -823q-2 -19 -7 -58q-38 -300 -128 -417q-76 -101 -197.5 -155t-273.5 -54 q-219 0 -340 114t-121 320zM537 1958h147l224 -350h-90z" />
<glyph unicode="&#xda;" horiz-adv-x="1384" d="M133 391q0 52 7 125.5t24 198.5l98 749h125l-119 -901q-5 -37 -7.5 -71t-2.5 -68q0 -167 90.5 -259.5t253.5 -92.5q118 0 207.5 41.5t148.5 124.5q79 107 118 405q4 25 5 36l103 785h125l-109 -823q-2 -19 -7 -58q-38 -300 -128 -417q-76 -101 -197.5 -155t-273.5 -54 q-219 0 -340 114t-121 320zM660 1608l244 350h147l-299 -350h-92z" />
<glyph unicode="&#xdb;" horiz-adv-x="1384" d="M133 391q0 52 7 125.5t24 198.5l98 749h125l-119 -901q-5 -37 -7.5 -71t-2.5 -68q0 -167 90.5 -259.5t253.5 -92.5q118 0 207.5 41.5t148.5 124.5q79 107 118 405q4 25 5 36l103 785h125l-109 -823q-2 -19 -7 -58q-38 -300 -128 -417q-76 -101 -197.5 -155t-273.5 -54 q-219 0 -340 114t-121 320zM508 1608l267 350h133l153 -350h-82l-145 248l-234 -248h-92z" />
<glyph unicode="&#xdc;" horiz-adv-x="1384" d="M133 391q0 52 7 125.5t24 198.5l98 749h125l-119 -901q-5 -37 -7.5 -71t-2.5 -68q0 -167 90.5 -259.5t253.5 -92.5q118 0 207.5 41.5t148.5 124.5q79 107 118 405q4 25 5 36l103 785h125l-109 -823q-2 -19 -7 -58q-38 -300 -128 -417q-76 -101 -197.5 -155t-273.5 -54 q-219 0 -340 114t-121 320zM564 1768q0 32 27 59t61 27q35 0 60.5 -25.5t25.5 -60.5q0 -38 -24.5 -63t-61.5 -25q-36 0 -62 26t-26 62zM885 1768q0 32 27.5 59t60.5 27q36 0 61 -25.5t25 -60.5q0 -38 -24.5 -63t-61.5 -25q-36 0 -62 26t-26 62z" />
<glyph unicode="&#xdd;" horiz-adv-x="1014" d="M41 1464h137l330 -661l455 661h141l-541 -786l-90 -678h-127l90 684zM475 1608l244 350h147l-299 -350h-92z" />
<glyph unicode="&#xde;" horiz-adv-x="1034" d="M82 0l192 1464h125l-43 -313h80q179 0 256 -19.5t135 -64.5q64 -50 97.5 -122t33.5 -159q0 -104 -38 -186.5t-113 -140.5q-61 -48 -144 -68t-262 -20h-65h-84l-45 -371h-125zM268 479h150q112 0 165 8.5t93 28.5q72 34 111.5 104t39.5 162q0 73 -27 127t-79 84 q-37 23 -88 33t-160 10h-55h-76z" />
<glyph unicode="&#xdf;" horiz-adv-x="1065" d="M25 778l14 103h149l29 225l1 9q36 265 114 347q48 53 114 80t148 27q167 0 259.5 -100.5t92.5 -280.5q0 -135 -77 -233t-207 -128q141 -38 208.5 -130.5t67.5 -247.5q0 -218 -106.5 -353t-278.5 -135q-36 0 -80 8t-104 25l6 115q36 -19 73 -28t72 -9q132 0 213.5 98.5 t81.5 259.5q0 171 -87 257.5t-259 86.5h-25l15 109h35q158 0 241.5 80t83.5 233q0 130 -57.5 198t-167.5 68q-119 0 -175 -77.5t-91 -348.5l-135 -1036h-121l102 778h-149z" />
<glyph unicode="&#xe0;" horiz-adv-x="1096" d="M53 412q0 218 126 363t317 145q114 0 190 -51.5t121 -159.5l24 178h119l-116 -887h-119l18 133q-55 -86 -132.5 -129t-176.5 -43q-163 0 -267 126t-104 325zM178 406q0 -157 76 -250t203 -93q137 0 229 118t92 298q0 153 -75.5 246.5t-198.5 93.5q-140 0 -233 -116.5 t-93 -296.5zM311 1380h147l224 -350h-90z" />
<glyph unicode="&#xe1;" horiz-adv-x="1096" d="M53 412q0 218 126 363t317 145q114 0 190 -51.5t121 -159.5l24 178h119l-116 -887h-119l18 133q-55 -86 -132.5 -129t-176.5 -43q-163 0 -267 126t-104 325zM178 406q0 -157 76 -250t203 -93q137 0 229 118t92 298q0 153 -75.5 246.5t-198.5 93.5q-140 0 -233 -116.5 t-93 -296.5zM434 1030l244 350h147l-299 -350h-92z" />
<glyph unicode="&#xe2;" horiz-adv-x="1096" d="M53 412q0 218 126 363t317 145q114 0 190 -51.5t121 -159.5l24 178h119l-116 -887h-119l18 133q-55 -86 -132.5 -129t-176.5 -43q-163 0 -267 126t-104 325zM178 406q0 -157 76 -250t203 -93q137 0 229 118t92 298q0 153 -75.5 246.5t-198.5 93.5q-140 0 -233 -116.5 t-93 -296.5zM282 1030l267 350h133l153 -350h-82l-145 248l-234 -248h-92z" />
<glyph unicode="&#xe3;" horiz-adv-x="1096" d="M53 412q0 218 126 363t317 145q114 0 190 -51.5t121 -159.5l24 178h119l-116 -887h-119l18 133q-55 -86 -132.5 -129t-176.5 -43q-163 0 -267 126t-104 325zM178 406q0 -157 76 -250t203 -93q137 0 229 118t92 298q0 153 -75.5 246.5t-198.5 93.5q-140 0 -233 -116.5 t-93 -296.5zM303 1081q38 103 81 145t107 42q16 0 29.5 -2t26.5 -6l91 -29q4 -1 11 -3q33 -9 47 -9q34 0 56 17t36 54h80q-33 -96 -77 -138t-111 -42q-15 0 -32 2.5t-35 7.5l-95 29q-4 1 -10 3q-22 7 -35 7q-30 0 -53 -20t-37 -58h-80z" />
<glyph unicode="&#xe4;" horiz-adv-x="1096" d="M53 412q0 218 126 363t317 145q114 0 190 -51.5t121 -159.5l24 178h119l-116 -887h-119l18 133q-55 -86 -132.5 -129t-176.5 -43q-163 0 -267 126t-104 325zM178 406q0 -157 76 -250t203 -93q137 0 229 118t92 298q0 153 -75.5 246.5t-198.5 93.5q-140 0 -233 -116.5 t-93 -296.5zM338 1190q0 32 27 59t61 27q35 0 60.5 -25.5t25.5 -60.5q0 -38 -24.5 -63t-61.5 -25q-36 0 -62 26t-26 62zM659 1190q0 32 27.5 59t60.5 27q36 0 61 -25.5t25 -60.5q0 -38 -24.5 -63t-61.5 -25q-36 0 -62 26t-26 62z" />
<glyph unicode="&#xe5;" horiz-adv-x="1096" d="M53 412q0 218 126 363t317 145q114 0 190 -51.5t121 -159.5l24 178h119l-116 -887h-119l18 133q-55 -86 -132.5 -129t-176.5 -43q-163 0 -267 126t-104 325zM178 406q0 -157 76 -250t203 -93q137 0 229 118t92 298q0 153 -75.5 246.5t-198.5 93.5q-140 0 -233 -116.5 t-93 -296.5zM340 1217q0 96 68 163.5t165 67.5t164.5 -67.5t67.5 -163.5q0 -98 -67.5 -166t-164.5 -68q-95 0 -164 69t-69 165zM424 1217q0 -60 43.5 -104t103.5 -44q62 0 106 43t44 105q0 61 -44 104t-106 43q-61 0 -104 -43t-43 -104z" />
<glyph unicode="&#xe6;" horiz-adv-x="1622" d="M20 246q0 123 96 204.5t242 81.5q102 0 171 -22t118 -70l8 92q1 7 2 18q7 71 7 101q0 85 -55 127.5t-163 42.5q-68 0 -139.5 -17.5t-150.5 -53.5l10 108q75 31 141.5 46.5t124.5 15.5q144 0 222.5 -48t90.5 -143q68 97 155.5 144t201.5 47q186 0 287.5 -106t101.5 -298 q0 -18 -1.5 -41t-5.5 -49h-728v-18q0 -163 80 -252.5t225 -89.5q88 0 158.5 41t128.5 126l79 -79q-74 -101 -165 -148t-211 -47q-114 0 -202 46.5t-151 139.5q-60 -94 -146.5 -140t-203.5 -46q-149 0 -238.5 78.5t-89.5 208.5zM139 244q0 -83 65.5 -134t172.5 -51 q116 0 196 60.5t80 146.5q0 84 -71.5 130t-200.5 46q-108 0 -175 -55t-67 -143zM768 526h608q0 141 -69 216t-197 75t-217.5 -76t-124.5 -215z" />
<glyph unicode="&#xe7;" horiz-adv-x="909" d="M45 408q0 221 145 366.5t367 145.5q85 0 158 -22.5t139 -68.5l-31 -112q-67 49 -134 72.5t-138 23.5q-165 0 -272 -112.5t-107 -286.5q0 -154 91 -249t239 -95q66 0 129.5 24.5t134.5 77.5l-25 -145q-63 -33 -123 -49.5t-120 -16.5q-205 0 -329 123t-124 324zM203 -416 l26 78q67 -19 120 -29t91 -10q68 0 105 29t37 82q0 47 -39.5 67.5t-130.5 20.5h-31l59 178h66l-37 -111h20q101 0 153 -39.5t52 -115.5q0 -92 -62.5 -143.5t-174.5 -51.5q-55 0 -116.5 11t-137.5 34z" />
<glyph unicode="&#xe8;" horiz-adv-x="1047" d="M47 387q0 236 134.5 384.5t346.5 148.5q188 0 291 -106t103 -298q0 -18 -2 -41.5t-5 -48.5h-743v-23q0 -160 81.5 -248.5t229.5 -88.5q91 0 163.5 41.5t129.5 125.5l82 -79q-73 -99 -164.5 -146t-212.5 -47q-196 0 -315 117t-119 309zM184 526h619q0 139 -68.5 215 t-193.5 76q-138 0 -228 -73.5t-129 -217.5zM295 1380h147l224 -350h-90z" />
<glyph unicode="&#xe9;" horiz-adv-x="1047" d="M47 387q0 236 134.5 384.5t346.5 148.5q188 0 291 -106t103 -298q0 -18 -2 -41.5t-5 -48.5h-743v-23q0 -160 81.5 -248.5t229.5 -88.5q91 0 163.5 41.5t129.5 125.5l82 -79q-73 -99 -164.5 -146t-212.5 -47q-196 0 -315 117t-119 309zM184 526h619q0 139 -68.5 215 t-193.5 76q-138 0 -228 -73.5t-129 -217.5zM418 1030l244 350h147l-299 -350h-92z" />
<glyph unicode="&#xea;" horiz-adv-x="1047" d="M47 387q0 236 134.5 384.5t346.5 148.5q188 0 291 -106t103 -298q0 -18 -2 -41.5t-5 -48.5h-743v-23q0 -160 81.5 -248.5t229.5 -88.5q91 0 163.5 41.5t129.5 125.5l82 -79q-73 -99 -164.5 -146t-212.5 -47q-196 0 -315 117t-119 309zM184 526h619q0 139 -68.5 215 t-193.5 76q-138 0 -228 -73.5t-129 -217.5zM266 1030l267 350h133l153 -350h-82l-145 248l-234 -248h-92z" />
<glyph unicode="&#xeb;" horiz-adv-x="1047" d="M47 387q0 236 134.5 384.5t346.5 148.5q188 0 291 -106t103 -298q0 -18 -2 -41.5t-5 -48.5h-743v-23q0 -160 81.5 -248.5t229.5 -88.5q91 0 163.5 41.5t129.5 125.5l82 -79q-73 -99 -164.5 -146t-212.5 -47q-196 0 -315 117t-119 309zM184 526h619q0 139 -68.5 215 t-193.5 76q-138 0 -228 -73.5t-129 -217.5zM322 1190q0 32 27 59t61 27q35 0 60.5 -25.5t25.5 -60.5q0 -38 -24.5 -63t-61.5 -25q-36 0 -62 26t-26 62zM643 1190q0 32 27.5 59t60.5 27q36 0 61 -25.5t25 -60.5q0 -38 -24.5 -63t-61.5 -25q-36 0 -62 26t-26 62z" />
<glyph unicode="&#xec;" horiz-adv-x="461" d="M18 1380h147l224 -350h-90zM76 0l117 887h120l-116 -887h-121z" />
<glyph unicode="&#xed;" horiz-adv-x="461" d="M76 0l117 887h120l-116 -887h-121zM141 1030l244 350h147l-299 -350h-92z" />
<glyph unicode="&#xee;" horiz-adv-x="461" d="M-11 1030l267 350h133l153 -350h-82l-145 248l-234 -248h-92zM76 0l117 887h120l-116 -887h-121z" />
<glyph unicode="&#xef;" horiz-adv-x="461" d="M45 1190q0 32 27 59t61 27q35 0 60.5 -25.5t25.5 -60.5q0 -38 -24.5 -63t-61.5 -25q-36 0 -62 26t-26 62zM76 0l117 887h120l-116 -887h-121zM366 1190q0 32 27.5 59t60.5 27q36 0 61 -25.5t25 -60.5q0 -38 -24.5 -63t-61.5 -25q-36 0 -62 26t-26 62z" />
<glyph unicode="&#xf0;" horiz-adv-x="1118" d="M45 399q0 209 140.5 348.5t351.5 139.5q127 0 218 -51t146 -154v12q0 149 -33.5 278.5t-101.5 239.5l-299 -69l-29 90l269 65q-25 35 -65 74t-105 90l65 84q66 -45 123.5 -100t108.5 -121l249 57l31 -88l-223 -55q65 -119 97 -259t32 -304q0 -345 -133.5 -531 t-380.5 -186q-209 0 -335 120.5t-126 319.5zM174 401q0 -151 91 -243t241 -92q154 0 256 108t102 270q0 153 -91.5 246.5t-240.5 93.5q-153 0 -255.5 -109t-102.5 -274z" />
<glyph unicode="&#xf1;" horiz-adv-x="1055" d="M66 0l116 887h117l-20 -144q69 90 150 133.5t179 43.5q127 0 201 -69t74 -189q0 -21 -2 -46t-7 -53l-73 -563h-121l74 556q3 22 4.5 42.5t1.5 42.5q0 85 -52 129.5t-151 44.5q-132 0 -210.5 -93.5t-102.5 -279.5l-58 -442h-120zM299 1081q38 103 81 145t107 42 q16 0 29.5 -2t26.5 -6l91 -29q4 -1 11 -3q33 -9 47 -9q34 0 56 17t36 54h80q-33 -96 -77 -138t-111 -42q-15 0 -32 2.5t-35 7.5l-95 29q-4 1 -10 3q-22 7 -35 7q-30 0 -53 -20t-37 -58h-80z" />
<glyph unicode="&#xf2;" horiz-adv-x="1118" d="M45 406q0 221 143.5 367.5t360.5 146.5q199 0 324.5 -123.5t125.5 -317.5q0 -225 -141.5 -371.5t-359.5 -146.5q-204 0 -328.5 122.5t-124.5 322.5zM172 412q0 -152 91 -247t237 -95q159 0 264.5 114t105.5 285q0 150 -92 246t-235 96q-161 0 -266 -113t-105 -286z M311 1380h147l224 -350h-90z" />
<glyph unicode="&#xf3;" horiz-adv-x="1118" d="M45 406q0 221 143.5 367.5t360.5 146.5q199 0 324.5 -123.5t125.5 -317.5q0 -225 -141.5 -371.5t-359.5 -146.5q-204 0 -328.5 122.5t-124.5 322.5zM172 412q0 -152 91 -247t237 -95q159 0 264.5 114t105.5 285q0 150 -92 246t-235 96q-161 0 -266 -113t-105 -286z M434 1030l244 350h147l-299 -350h-92z" />
<glyph unicode="&#xf4;" horiz-adv-x="1118" d="M45 406q0 221 143.5 367.5t360.5 146.5q199 0 324.5 -123.5t125.5 -317.5q0 -225 -141.5 -371.5t-359.5 -146.5q-204 0 -328.5 122.5t-124.5 322.5zM172 412q0 -152 91 -247t237 -95q159 0 264.5 114t105.5 285q0 150 -92 246t-235 96q-161 0 -266 -113t-105 -286z M282 1030l267 350h133l153 -350h-82l-145 248l-234 -248h-92z" />
<glyph unicode="&#xf5;" horiz-adv-x="1118" d="M45 406q0 221 143.5 367.5t360.5 146.5q199 0 324.5 -123.5t125.5 -317.5q0 -225 -141.5 -371.5t-359.5 -146.5q-204 0 -328.5 122.5t-124.5 322.5zM172 412q0 -152 91 -247t237 -95q159 0 264.5 114t105.5 285q0 150 -92 246t-235 96q-161 0 -266 -113t-105 -286z M303 1081q38 103 81 145t107 42q16 0 29.5 -2t26.5 -6l91 -29q4 -1 11 -3q33 -9 47 -9q34 0 56 17t36 54h80q-33 -96 -77 -138t-111 -42q-15 0 -32 2.5t-35 7.5l-95 29q-4 1 -10 3q-22 7 -35 7q-30 0 -53 -20t-37 -58h-80z" />
<glyph unicode="&#xf6;" horiz-adv-x="1118" d="M45 406q0 221 143.5 367.5t360.5 146.5q199 0 324.5 -123.5t125.5 -317.5q0 -225 -141.5 -371.5t-359.5 -146.5q-204 0 -328.5 122.5t-124.5 322.5zM172 412q0 -152 91 -247t237 -95q159 0 264.5 114t105.5 285q0 150 -92 246t-235 96q-161 0 -266 -113t-105 -286z M338 1190q0 32 27 59t61 27q35 0 60.5 -25.5t25.5 -60.5q0 -38 -24.5 -63t-61.5 -25q-36 0 -62 26t-26 62zM659 1190q0 32 27.5 59t60.5 27q36 0 61 -25.5t25 -60.5q0 -38 -24.5 -63t-61.5 -25q-36 0 -62 26t-26 62z" />
<glyph unicode="&#xf7;" horiz-adv-x="1706" d="M254 569v82h1198v-82h-1198zM756 264q0 41 29 71t69 30q41 0 69.5 -29.5t28.5 -71.5q0 -40 -28.5 -69t-69.5 -29t-69.5 28.5t-28.5 69.5zM756 956q0 41 28.5 70t69.5 29t69.5 -28.5t28.5 -70.5q0 -40 -28.5 -70t-69.5 -30t-69.5 29.5t-28.5 70.5z" />
<glyph unicode="&#xf8;" horiz-adv-x="1118" d="M-20 10l143 127q-40 60 -60 127.5t-20 141.5q0 221 145 367.5t363 146.5q94 0 171 -28t140 -85l135 121l52 -58l-136 -122q44 -63 65 -130t21 -145q0 -222 -141 -366t-360 -144q-104 0 -181.5 28t-144.5 89l-141 -125zM172 422q0 -60 11.5 -108t35.5 -89l551 498 q-42 44 -98.5 66t-126.5 22q-160 0 -266.5 -111.5t-106.5 -277.5zM264 166q47 -49 105 -72.5t129 -23.5q159 0 265.5 112t106.5 277q0 52 -13 102t-40 101z" />
<glyph unicode="&#xf9;" horiz-adv-x="1053" d="M100 250q0 41 5 93.5t18 145.5l53 398h119l-49 -377q-14 -104 -19.5 -157t-5.5 -89q0 -90 59.5 -141t163.5 -51q132 0 199 86t96 303l58 426h118l-57 -436q-24 -177 -50.5 -253t-72.5 -126q-49 -54 -124.5 -82.5t-170.5 -28.5q-157 0 -248.5 77.5t-91.5 211.5zM313 1380 h147l224 -350h-90z" />
<glyph unicode="&#xfa;" horiz-adv-x="1053" d="M100 250q0 41 5 93.5t18 145.5l53 398h119l-49 -377q-14 -104 -19.5 -157t-5.5 -89q0 -90 59.5 -141t163.5 -51q132 0 199 86t96 303l58 426h118l-57 -436q-24 -177 -50.5 -253t-72.5 -126q-49 -54 -124.5 -82.5t-170.5 -28.5q-157 0 -248.5 77.5t-91.5 211.5zM436 1030 l244 350h147l-299 -350h-92z" />
<glyph unicode="&#xfb;" horiz-adv-x="1053" d="M100 250q0 41 5 93.5t18 145.5l53 398h119l-49 -377q-14 -104 -19.5 -157t-5.5 -89q0 -90 59.5 -141t163.5 -51q132 0 199 86t96 303l58 426h118l-57 -436q-24 -177 -50.5 -253t-72.5 -126q-49 -54 -124.5 -82.5t-170.5 -28.5q-157 0 -248.5 77.5t-91.5 211.5zM284 1030 l267 350h133l153 -350h-82l-145 248l-234 -248h-92z" />
<glyph unicode="&#xfc;" horiz-adv-x="1053" d="M100 250q0 41 5 93.5t18 145.5l53 398h119l-49 -377q-14 -104 -19.5 -157t-5.5 -89q0 -90 59.5 -141t163.5 -51q132 0 199 86t96 303l58 426h118l-57 -436q-24 -177 -50.5 -253t-72.5 -126q-49 -54 -124.5 -82.5t-170.5 -28.5q-157 0 -248.5 77.5t-91.5 211.5zM340 1190 q0 32 27 59t61 27q35 0 60.5 -25.5t25.5 -60.5q0 -38 -24.5 -63t-61.5 -25q-36 0 -62 26t-26 62zM661 1190q0 32 27.5 59t60.5 27q36 0 61 -25.5t25 -60.5q0 -38 -24.5 -63t-61.5 -25q-36 0 -62 26t-26 62z" />
<glyph unicode="&#xfd;" horiz-adv-x="891" d="M-45 -446l309 516l-258 817h131l207 -701l404 701h135l-797 -1333h-131zM356 1030l244 350h147l-299 -350h-92z" />
<glyph unicode="&#xfe;" horiz-adv-x="1096" d="M6 -446l264 1996h117l-106 -800q54 87 128 129.5t175 42.5q168 0 274.5 -126t106.5 -327q0 -220 -126 -365t-317 -145q-113 0 -191 53t-122 160l-82 -618h-121zM240 401q0 -153 75 -246.5t199 -93.5q139 0 232.5 118.5t93.5 297.5q0 156 -77 249t-204 93 q-137 0 -228 -118t-91 -300z" />
<glyph unicode="&#xff;" horiz-adv-x="891" d="M-45 -446l309 516l-258 817h131l207 -701l404 701h135l-797 -1333h-131zM260 1190q0 32 27 59t61 27q35 0 60.5 -25.5t25.5 -60.5q0 -38 -24.5 -63t-61.5 -25q-36 0 -62 26t-26 62zM581 1190q0 32 27.5 59t60.5 27q36 0 61 -25.5t25 -60.5q0 -38 -24.5 -63t-61.5 -25 q-36 0 -62 26t-26 62z" />
<glyph unicode="&#x152;" horiz-adv-x="2347" d="M113 674q0 180 61.5 339t175.5 271q111 109 254.5 165t310.5 56q230 0 385 -91t242 -277l45 327h719l-14 -112h-596l-64 -480h580l-14 -110h-580l-84 -647h610l-16 -115h-735l34 244q-109 -140 -265.5 -212.5t-350.5 -72.5q-315 0 -506.5 196t-191.5 519zM242 674 q0 -272 160 -437t423 -165q135 0 255 50.5t212 145.5q100 103 153.5 238.5t53.5 284.5q0 272 -161 438t-427 166q-133 0 -253.5 -51t-208.5 -144q-100 -103 -153.5 -239.5t-53.5 -286.5z" />
<glyph unicode="&#x153;" horiz-adv-x="1837" d="M47 410q0 217 142 363.5t354 146.5q130 0 228.5 -56.5t154.5 -163.5q67 107 170 163.5t231 56.5q183 0 286 -106t103 -294q0 -19 -1.5 -43t-4.5 -51h-743v-23q0 -160 81 -247.5t230 -87.5q91 0 163.5 41t129.5 124l82 -79q-76 -100 -167 -146.5t-212 -46.5 q-136 0 -231.5 54t-147.5 159q-70 -104 -173 -158.5t-228 -54.5q-204 0 -325.5 122.5t-121.5 326.5zM174 414q0 -154 89.5 -250t232.5 -96q154 0 257 114t103 287q0 151 -89 246.5t-230 95.5q-157 0 -260 -112.5t-103 -284.5zM979 526h620q0 140 -69.5 215.5t-200.5 75.5 q-132 0 -223 -75.5t-127 -215.5z" />
<glyph unicode="&#x178;" horiz-adv-x="1014" d="M41 1464h137l330 -661l455 661h141l-541 -786l-90 -678h-127l90 684zM379 1768q0 32 27 59t61 27q35 0 60.5 -25.5t25.5 -60.5q0 -38 -24.5 -63t-61.5 -25q-36 0 -62 26t-26 62zM700 1768q0 32 27.5 59t60.5 27q36 0 61 -25.5t25 -60.5q0 -38 -24.5 -63t-61.5 -25 q-36 0 -62 26t-26 62z" />
<glyph unicode="&#x2c6;" horiz-adv-x="1024" d="M270 1030l267 350h133l153 -350h-82l-145 248l-234 -248h-92z" />
<glyph unicode="&#x2dc;" horiz-adv-x="1024" d="M291 1081q38 103 81 145t107 42q16 0 29.5 -2t26.5 -6l91 -29q4 -1 11 -3q33 -9 47 -9q34 0 56 17t36 54h80q-33 -96 -77 -138t-111 -42q-15 0 -32 2.5t-35 7.5l-95 29q-4 1 -10 3q-22 7 -35 7q-30 0 -53 -20t-37 -58h-80z" />
<glyph unicode="&#x2000;" horiz-adv-x="985" />
<glyph unicode="&#x2001;" horiz-adv-x="1970" />
<glyph unicode="&#x2002;" horiz-adv-x="985" />
<glyph unicode="&#x2003;" horiz-adv-x="1970" />
<glyph unicode="&#x2004;" horiz-adv-x="656" />
<glyph unicode="&#x2005;" horiz-adv-x="492" />
<glyph unicode="&#x2006;" horiz-adv-x="328" />
<glyph unicode="&#x2007;" horiz-adv-x="328" />
<glyph unicode="&#x2008;" horiz-adv-x="246" />
<glyph unicode="&#x2009;" horiz-adv-x="394" />
<glyph unicode="&#x200a;" horiz-adv-x="109" />
<glyph unicode="&#x2010;" horiz-adv-x="616" d="M41 385l14 111h437l-15 -111h-436z" />
<glyph unicode="&#x2011;" horiz-adv-x="616" d="M41 385l14 111h437l-15 -111h-436z" />
<glyph unicode="&#x2012;" horiz-adv-x="616" d="M41 385l14 111h437l-15 -111h-436z" />
<glyph unicode="&#x2013;" horiz-adv-x="1024" d="M-45 401l10 80h1024l-10 -80h-1024z" />
<glyph unicode="&#x2014;" horiz-adv-x="2048" d="M-45 401l10 80h2048l-10 -80h-2048z" />
<glyph unicode="&#x2018;" horiz-adv-x="573" d="M154 1020l323 477l80 -47l-268 -508z" />
<glyph unicode="&#x2019;" horiz-adv-x="573" d="M150 989l266 508l135 -78l-324 -477z" />
<glyph unicode="&#x201a;" horiz-adv-x="573" d="M-59 -229l266 508l135 -80l-324 -478z" />
<glyph unicode="&#x201c;" horiz-adv-x="930" d="M160 1020l323 477l80 -47l-268 -508zM489 1020l326 477l78 -47l-266 -508z" />
<glyph unicode="&#x201d;" horiz-adv-x="930" d="M156 989l266 508l137 -78l-326 -477zM485 989l269 508l135 -78l-324 -477z" />
<glyph unicode="&#x201e;" horiz-adv-x="930" d="M-43 -229l266 508l137 -80l-325 -478zM287 -229l268 508l135 -80l-323 -478z" />
<glyph unicode="&#x2022;" horiz-adv-x="1208" d="M307 762q0 123 87 209t210 86q122 0 208.5 -86.5t86.5 -208.5t-87.5 -209.5t-209.5 -87.5q-123 0 -209 87t-86 210z" />
<glyph unicode="&#x2026;" horiz-adv-x="2048" d="M153 84q0 43 30 72.5t73 29.5t72.5 -29.5t29.5 -72.5t-29.5 -72.5t-72.5 -29.5t-73 29.5t-30 72.5zM835 84q0 43 30 72.5t73 29.5t72.5 -29.5t29.5 -72.5t-29.5 -72.5t-72.5 -29.5t-73 29.5t-30 72.5zM1519 84q0 43 30 72.5t73 29.5t72.5 -29.5t29.5 -72.5t-29.5 -72.5 t-72.5 -29.5t-73 29.5t-30 72.5z" />
<glyph unicode="&#x202f;" horiz-adv-x="394" />
<glyph unicode="&#x2039;" horiz-adv-x="569" d="M45 442l365 418l69 -67l-311 -365l217 -350l-80 -55z" />
<glyph unicode="&#x203a;" horiz-adv-x="569" d="M14 88l312 365l-217 352l79 55l261 -422l-365 -415z" />
<glyph unicode="&#x205f;" horiz-adv-x="492" />
<glyph unicode="&#x20ac;" d="M-20 549l45 98h144q2 38 6 78t11 84h-161l47 98h133q70 291 212.5 431.5t366.5 140.5q91 0 176.5 -35.5t153.5 -100.5l-29 -135q-60 77 -139 117.5t-170 40.5q-169 0 -278.5 -113t-163.5 -346h667l-55 -98h-633q-6 -44 -10.5 -85t-5.5 -76l559 -1l-55 -98h-506v-35 q0 -200 77 -321t201 -121q98 0 191.5 29t181.5 87l-31 -153q-84 -41 -160.5 -58.5t-179.5 -17.5q-194 0 -300.5 147.5t-106.5 403.5v39h-188z" />
<glyph unicode="&#x2122;" horiz-adv-x="1706" d="M274 1403v51h420v-51h-174v-479h-67v479h-179zM825 924v530h101l174 -440l162 440h102v-530h-59v479l-181 -479h-49l-190 479v-479h-60z" />
<glyph unicode="&#x25fc;" horiz-adv-x="885" d="M0 0v885h885v-885h-885z" />
</font>
</defs>
</svg>
