<?xml version="1.0" standalone="no"?>
<!DOCTYPE svg PUBLIC "-//W3C//DTD SVG 1.1//EN" "http://www.w3.org/Graphics/SVG/1.1/DTD/svg11.dtd" >
<svg xmlns="http://www.w3.org/2000/svg" xmlns:xlink="http://www.w3.org/1999/xlink" version="1.1">
<metadata></metadata>
<defs>
<font id="gatteway_signatureregular" horiz-adv-x="1325" >
<font-face units-per-em="2048" ascent="1638" descent="-410" />
<missing-glyph horiz-adv-x="508" />
<glyph horiz-adv-x="0" />
<glyph horiz-adv-x="0" />
<glyph unicode="&#xd;" horiz-adv-x="508" />
<glyph unicode=" "  horiz-adv-x="508" />
<glyph unicode="&#x09;" horiz-adv-x="508" />
<glyph unicode="&#xa0;" horiz-adv-x="508" />
<glyph unicode="!" horiz-adv-x="901" />
<glyph unicode="&#x22;" horiz-adv-x="610" />
<glyph unicode="#" horiz-adv-x="1883" />
<glyph unicode="$" horiz-adv-x="1287" />
<glyph unicode="%" horiz-adv-x="1513" />
<glyph unicode="&#x26;" horiz-adv-x="1279" />
<glyph unicode="'" horiz-adv-x="516" />
<glyph unicode="(" horiz-adv-x="903" />
<glyph unicode=")" horiz-adv-x="1093" />
<glyph unicode="*" horiz-adv-x="789" />
<glyph unicode="+" horiz-adv-x="1431" />
<glyph unicode="," horiz-adv-x="374" />
<glyph unicode="-" horiz-adv-x="1038" />
<glyph unicode="." horiz-adv-x="369" />
<glyph unicode="/" />
<glyph unicode="0" horiz-adv-x="1229" d="M30 242q0 598 390 1208q222 281 413 281q205 0 327 -312q39 -141 39 -312q0 -630 -428 -1247q-204 -226 -367 -226q-210 0 -335 320q-31 132 -39 288zM147 164q25 -429 164 -429h23q251 0 546 577q202 462 202 865v39q0 334 -140 406l-39 7q-271 0 -577 -631 q-179 -459 -179 -834z" />
<glyph unicode="1" horiz-adv-x="676" d="M30 -273q429 1709 429 1731l-257 -265h-8q-41 0 -93 70v23q394 419 444 460h8q59 0 93 -85q-501 -2007 -506 -2019h-16q-60 0 -94 85z" />
<glyph unicode="2" horiz-adv-x="1596" d="M30 -280q0 42 866 982q553 659 553 881v39l-39 7h-109q-455 0 -756 -421q-109 -175 -109 -311v-55q0 -110 109 -203v-15l-16 -8h-23q-187 115 -187 312v8q0 291 280 553q292 242 616 242h94q257 -41 257 -219q0 -330 -1161 -1558l-187 -211v-8q756 86 865 86q47 0 85 -86 q-13 -15 -1036 -117q-102 46 -102 102z" />
<glyph unicode="3" horiz-adv-x="1533" d="M30 -85q0 155 32 155q56 0 93 -85l-16 -164q0 -117 63 -117q310 0 904 639q125 170 125 273v39q0 27 -156 31q-110 0 -390 -62q-21 0 -78 70v16q780 586 780 849q0 78 -156 78q-347 0 -694 -366q-94 -139 -94 -242v-8q0 -96 86 -194v-8q0 -16 -15 -16q-103 0 -180 242 q-7 29 -7 54q0 263 397 507q234 132 429 132q237 0 343 -210l7 -55q0 -211 -576 -693l39 8q382 0 382 -250q0 -253 -647 -756q-260 -179 -421 -179q-163 0 -242 202q-8 34 -8 63v47z" />
<glyph unicode="4" horiz-adv-x="1191" d="M30 616v8q155 394 546 1114h16q41 0 85 -62v-15q0 -18 -483 -975l-15 -54q307 98 592 226q234 850 273 896q47 0 93 -70v-16l-210 -748q117 55 140 55q58 0 94 -94q-275 -112 -297 -140q-305 -1091 -335 -1123h-8q-51 0 -93 71l288 1005q-435 -179 -576 -179 q-110 35 -110 101z" />
<glyph unicode="5" horiz-adv-x="1549" d="M30 -296q1084 619 1084 1021q0 70 -156 70q-231 0 -608 -202h-16q-93 73 -93 85l249 788q-54 29 -62 78q101 33 101 46q31 80 31 94h16q46 0 101 -70q444 93 756 93q50 -19 86 -70v-15q0 -16 -15 -16q-349 0 -873 -125l-219 -709q274 125 476 125q285 0 343 -250v-23 q0 -384 -1107 -1013q-94 34 -94 93z" />
<glyph unicode="6" horiz-adv-x="1448" d="M30 86v55q0 484 445 1145q391 445 686 445q183 0 257 -242v-93q0 -41 -24 -47q-51 0 -93 70v125q0 85 -55 85h-8q-268 0 -654 -428q-218 -313 -343 -655h8q235 100 381 101q298 0 414 -312q7 -49 7 -85v-24q0 -378 -405 -576q-112 -24 -179 -24h-8q-317 0 -421 359 q-8 54 -8 101zM139 47q0 -230 125 -304q84 -16 133 -16q374 0 530 460q0 18 15 117q0 242 -226 242t-530 -187q-47 -199 -47 -312z" />
<glyph unicode="7" horiz-adv-x="1089" d="M30 1528q247 47 631 171q80 16 102 16q137 0 171 -187q0 -154 -171 -624q47 16 210 39q86 -41 86 -93q-313 -62 -351 -78q-229 -583 -506 -1138h-8q-94 36 -94 93q304 645 452 1022h-8l-249 -39q-86 44 -86 93l398 78q210 528 210 725h-8q-44 0 -514 -140 q-126 -32 -179 -32q-86 44 -86 94z" />
<glyph unicode="8" horiz-adv-x="1401" d="M30 -54q0 296 523 958q-94 279 -94 382v47q0 329 437 452q43 8 93 8h24q358 -46 358 -343q0 -250 -584 -998q70 -276 70 -436v-39q0 -238 -203 -327q-94 -39 -218 -39q-292 0 -398 226l-8 78v31zM140 -140q0 -148 187 -148h39q382 0 382 366q0 173 -102 499l-39 156 q-218 -260 -366 -538q-97 -222 -101 -335zM568 1247q0 -103 164 -631h8q514 676 514 912v16q0 132 -86 132q0 14 -78 16h-15q-352 0 -491 -343z" />
<glyph unicode="9" horiz-adv-x="1113" d="M30 788v46q0 326 297 780q143 156 265 156q115 0 265 -164q31 70 101 132h16q73 0 109 -116q0 -422 -289 -1364q-237 -624 -483 -624q-109 0 -195 93v16q0 16 24 16l85 -24q376 0 686 1489l39 265v8h-8q-535 -904 -732 -904h-24q-118 0 -156 195zM140 741l7 -47 q161 77 390 421q121 185 273 429q-61 124 -148 124q-240 0 -476 -654q-31 -120 -46 -273z" />
<glyph unicode=":" horiz-adv-x="577" />
<glyph unicode=";" horiz-adv-x="608" />
<glyph unicode="&#x3c;" horiz-adv-x="1121" />
<glyph unicode="=" horiz-adv-x="1075" />
<glyph unicode="&#x3e;" horiz-adv-x="1144" />
<glyph unicode="?" horiz-adv-x="1265" />
<glyph unicode="@" horiz-adv-x="1184" />
<glyph unicode="A" horiz-adv-x="1989" d="M0 271q0 208 728 364q300 728 704 1463q152 245 213 245q138 0 166 -292q17 -87 24 -451q0 -312 -39 -894h8q276 0 276 -103l-15 -8q-66 0 -277 16q-81 -814 -214 -814q-87 41 -87 94q107 65 174 720h-8q-445 0 -830 -87q-340 -833 -340 -1060q16 -1 16 -15v-8 q0 -16 -16 -16h-24q-95 59 -95 134q0 187 301 933h-8q-538 -136 -538 -284v-32q40 -40 40 -71l-16 -8q-98 0 -143 174zM886 659q349 55 744 55h39q48 438 48 981q0 305 -32 514h-8q-379 -580 -791 -1550z" />
<glyph unicode="B" horiz-adv-x="2131" d="M0 -140q13 176 48 190h24q79 -49 79 -87q-32 -87 -32 -166v-8q0 -159 142 -159h72q80 651 261 1195q241 692 529 1178l16 8q48 0 95 -71v-8q0 -17 -134 -261q-163 -317 -301 -688q1027 905 1028 1218q0 47 -150 47q-425 0 -957 -411q-245 -230 -245 -411q0 -46 39 -103 v-16q0 -16 -23 -16q-135 79 -135 214q0 314 625 672q357 174 617 174t340 -182q0 -34 8 -47q0 -298 -981 -1187q360 95 562 95q361 0 466 -284q8 -59 8 -87q0 -447 -972 -965q-387 -166 -586 -166v-8q-8 -149 -8 -166q-16 -8 -23 -8q-45 0 -95 95v87q-317 83 -317 332z M459 -362q445 89 941 435q483 373 483 649v24q0 158 -119 158q0 13 -166 23q-316 0 -894 -213q-158 -472 -237 -981q0 -36 -8 -95z" />
<glyph unicode="C" horiz-adv-x="1652" d="M0 10v127q0 606 404 1455q101 219 395 522q251 213 427 213h55q232 0 341 -292q15 -71 15 -135q0 -291 -253 -704h-31q-79 46 -79 95q245 389 245 680v24q0 230 -151 230h-55q-324 0 -735 -609q-467 -892 -467 -1614q0 -407 182 -466q43 -8 47 -8q343 0 1345 1178l16 8 q95 -39 95 -95q-1006 -1194 -1377 -1194q-242 0 -379 332q-40 124 -40 253z" />
<glyph unicode="D" horiz-adv-x="1954" d="M0 34q11 111 39 118q55 0 103 -79q-24 -70 -24 -118q0 -222 206 -222h47q80 0 80 16q19 385 450 1843q122 371 143 387q60 0 102 -87q-275 -769 -529 -1890q-32 -197 -32 -221q836 369 1344 1510q119 345 119 522v95q0 340 -356 340q-719 0 -1281 -664 q-221 -302 -221 -506v-24q0 -94 63 -166v-8q0 -16 -16 -16h-24q-142 94 -142 277q0 386 561 862q477 348 973 348q393 0 530 -356q32 -72 32 -198v-39q0 -570 -649 -1424q-415 -490 -838 -648q-7 -10 -119 -48q-21 -213 -39 -213h-8q-52 0 -95 79l16 126h-40 q-256 0 -387 317q-8 75 -8 87z" />
<glyph unicode="E" horiz-adv-x="1616" d="M0 769q0 259 427 752q494 497 838 672q211 126 348 126q145 0 214 -189v-32q0 -302 -404 -862q-136 -166 -205 -166h-8q-83 0 -134 126l15 8h24q29 -23 55 -23q194 168 380 506q158 316 158 490v24q0 16 -24 16q-324 -37 -980 -617q-585 -586 -585 -918v-8q1 -15 15 -15 h24q106 0 593 118h16q111 -37 111 -103v-15q-439 -412 -475 -514q-229 -343 -229 -554v-40q302 0 1044 657q266 263 435 490q68 0 103 -87q-61 -151 -594 -640q-633 -522 -893 -522q-214 36 -214 213q0 331 483 878q14 0 103 87h-8q-267 -71 -396 -71q-237 46 -237 213z" />
<glyph unicode="F" horiz-adv-x="1500" d="M0 1695q0 223 965 411q83 296 103 308q60 0 102 -87q-55 -171 -55 -197q711 118 1194 118h48q61 0 95 -87l-24 -16h-32q-554 0 -1321 -142q-248 -881 -332 -1234h8q185 47 585 103q95 -36 95 -95l-617 -111q-118 -25 -118 -63q-62 -233 -79 -348q126 -141 126 -348 q0 -258 -197 -458q-44 -32 -72 -32h-8q-110 38 -110 111v39q0 202 134 736q-245 129 -245 221v8q0 98 348 206q197 748 340 1241q-815 -173 -815 -363q16 -49 16 -64l-16 -8q-81 0 -118 151zM364 445q55 -18 142 -79l47 221h-7q-167 -65 -182 -110v-32zM474 -417 q151 166 151 403v16q-10 150 -40 158q-87 -404 -111 -577z" />
<glyph unicode="G" horiz-adv-x="1796" d="M0 -61q0 450 379 1257q197 394 649 847q377 308 593 308q200 0 285 -229q16 -31 16 -87v-56q0 -328 -333 -980h-15q-60 0 -95 87q332 672 332 980q0 182 -103 182h-8q-299 0 -799 -545q-534 -584 -759 -1606q-24 -139 -24 -237q0 -237 119 -237h55q431 0 1021 893v8 l-333 -119q-94 31 -94 95q424 182 680 182h47q103 -27 103 -95l-16 -8h-47q-166 0 -166 -47q-206 -735 -206 -1099l-16 -8q-95 36 -95 95v71q0 187 87 585q-513 -656 -878 -656h-71q-166 0 -277 229q-24 77 -31 190z" />
<glyph unicode="H" horiz-adv-x="1958" d="M0 192v55q0 222 609 396q221 1013 221 1400v87q-31 34 -31 55l15 8h8q114 0 127 -190v-8q0 -355 -198 -1329h8q320 64 735 64q107 -8 119 -8q206 1174 206 1479q-8 77 -24 134l16 8q118 -30 118 -174v-39q0 -374 -189 -1416q308 0 308 -119l-16 -8q-258 32 -308 32 q-173 -945 -245 -1218q-18 -8 -24 -8q-45 0 -87 87q139 635 221 1147h-8q-869 -32 -869 -111q-135 -643 -269 -878l-32 -23q-103 27 -103 95q76 0 269 790q-467 -140 -467 -355l32 -111l-16 -8q-92 0 -126 166z" />
<glyph unicode="I" horiz-adv-x="842" d="M0 1544v40q0 413 499 720q120 55 221 55q237 -49 237 -237q0 -296 -672 -2713l-16 -8q-60 0 -102 87q672 2380 672 2721q-8 47 -24 47h-24q-266 0 -569 -395q-103 -184 -103 -348q0 -58 32 -206q-18 -8 -24 -8q-88 0 -127 245z" />
<glyph unicode="J" horiz-adv-x="1758" d="M0 1188v80q0 458 593 877q330 198 617 198h39q341 0 459 -277q48 -129 48 -261v-79q0 -386 -253 -1036q16 8 23 8q36 0 198 8q111 0 134 -95q-15 -1 -15 -16l-32 8q-388 0 -388 -71q-190 -471 -609 -902q-193 -166 -340 -166h-31q-238 0 -332 277v48q0 374 703 719 q197 96 522 166q309 692 309 1155q-29 396 -158 396q-80 15 -158 15h-32q-465 0 -910 -450q-268 -313 -268 -586v-55q0 -128 102 -293v-16h-15q-123 0 -206 348zM229 -267v-47q0 -119 143 -119h15q373 0 886 965h-16q-91 0 -545 -221q-483 -315 -483 -578z" />
<glyph unicode="K" horiz-adv-x="1750" d="M0 -472q280 1318 680 2649q51 119 64 119q68 0 102 -87q-174 -437 -348 -1179q887 878 1408 1345q103 -30 103 -95q-709 -636 -1487 -1440q-134 -142 -134 -229q0 -174 237 -261q82 -24 166 -24h63q352 0 926 348h23q71 -39 71 -87q-194 -150 -522 -276 q-237 -87 -411 -87h-79q-291 0 -506 245h-8q-212 -933 -245 -1020h-16q-39 0 -87 79z" />
<glyph unicode="L" horiz-adv-x="1262" d="M0 -101q0 624 442 2049q120 353 182 395q103 -27 103 -95q-125 -133 -427 -1281q-182 -748 -182 -1163q0 -237 79 -237q402 0 1068 1076q23 71 40 71h7q60 0 95 -87q-112 -279 -569 -815q-332 -348 -562 -348q-234 0 -269 348q-7 50 -7 87z" />
<glyph unicode="M" horiz-adv-x="2154" d="M0 -425q576 2734 601 2792h16q52 -21 87 -71v-8q0 -32 -356 -1701v-8h8q509 1463 704 1756q0 12 24 24q137 0 158 -261q8 -198 8 -277q0 -403 -24 -1147v-8h8q534 1160 783 1479q61 48 87 48q127 -45 127 -142v-40q0 -176 -364 -1613q-71 -346 -71 -451q8 -78 31 -103 v-16q0 -16 -24 -16q-118 61 -118 166v48q0 267 379 1732q48 221 48 269q-213 -267 -672 -1242q-172 -387 -214 -387q-111 46 -111 134v95q16 1065 16 1226v158q0 44 -8 158h-8q-326 -720 -1004 -2673h-8q-58 0 -103 79z" />
<glyph unicode="N" horiz-adv-x="2008" d="M0 -457q404 1768 728 2500q91 153 134 166h32q143 0 166 -293v-158l-64 -1534v-40q0 -513 111 -648h8q478 0 838 2791q0 32 32 32q42 0 87 -87q-349 -2839 -886 -2839q-131 0 -237 229q-71 237 -71 625q0 120 71 1582q0 43 -16 213q-88 -58 -269 -577 q-272 -839 -553 -2049l-16 -7q-95 36 -95 94z" />
<glyph unicode="O" horiz-adv-x="1758" d="M0 743q0 503 411 1123q373 451 712 451q385 0 537 -570q40 -210 40 -419q0 -777 -395 -1487q-290 -419 -594 -419h-39q-461 0 -578 538q0 70 -7 150q8 183 31 301q-118 102 -118 332zM118 664q0 -45 16 -142h8q95 534 467 1154q67 87 79 87h8q52 0 94 -71v-16 q-150 -156 -379 -704q-112 -304 -158 -545h8q50 3 253 126q52 -21 87 -71v-24q-161 -134 -293 -134h-24l-55 8q-24 -195 -24 -317q0 -344 198 -458q114 -32 198 -32h23q478 0 815 957q142 486 142 917v16q0 615 -253 775l-118 24q-270 0 -594 -324q-498 -632 -498 -1226z " />
<glyph unicode="P" horiz-adv-x="1446" d="M0 1186v47q0 609 917 981q315 95 538 95h55q300 0 404 -309q8 -58 8 -87q0 -536 -831 -1328q-298 -241 -530 -380q-126 -547 -126 -727q16 -55 16 -64v-8h-16q-96 0 -119 143q4 401 546 2270h16q52 -21 87 -72v-15q-279 -1014 -348 -1329q833 571 1131 1305 q55 138 55 269v16q0 205 -166 205q0 8 -56 8h-39q-589 0 -1131 -443q-293 -290 -293 -577v-48q0 -122 72 -300q0 -16 -24 -16q-108 0 -166 364z" />
<glyph unicode="Q" horiz-adv-x="1952" d="M0 -499q0 23 704 127v8q-332 144 -332 545v48q0 126 32 300q-95 86 -95 238v71q0 494 443 1099q350 380 648 380q301 0 459 -404q63 -204 63 -466q0 -675 -340 -1345q-88 -180 -316 -387q-38 -21 -40 -32l40 8h47q82 0 143 8q371 -20 371 -174q0 -41 -55 -87 q-54 0 -103 79v16l32 39v8l-150 16q-366 0 -1479 -182h-8q-64 55 -64 64v23zM420 735q8 -75 8 -87h7q161 637 475 1084q56 71 71 71q95 -36 95 -95q-310 -384 -522 -1092q0 -35 -16 -71h8q54 0 214 111h16q52 0 94 -71v-16q-169 -134 -284 -134q-29 7 -64 7h-7v-7 q-24 -155 -24 -246v-102q0 -396 356 -396q460 0 799 902q158 500 158 893v56q0 449 -174 625q-33 30 -143 47q-303 0 -648 -395q-419 -593 -419 -1084z" />
<glyph unicode="R" horiz-adv-x="1896" d="M0 1107v31q0 534 704 942q449 229 846 229h48q348 0 443 -309q8 -45 8 -71q0 -508 -926 -1305l-419 -300q195 -71 356 -71h87q301 0 696 189q95 -44 95 -94q-380 -198 -704 -198h-79q-250 0 -514 126q-150 -600 -150 -806l15 -56l-15 -8q-93 0 -119 143q0 367 585 2412 h16q73 -29 95 -87q-219 -753 -372 -1384q926 625 1195 1305q39 89 39 205v16q0 190 -237 190h-56q-601 0 -1170 -459q-348 -325 -348 -672v-31q0 -161 79 -341l-16 -7h-8q-128 0 -174 411z" />
<glyph unicode="S" horiz-adv-x="1773" d="M0 806v32q0 360 435 862q328 328 577 443q346 150 554 150q292 -46 292 -285q0 -284 -395 -901h-16q-52 21 -87 71v8q0 16 166 300q214 391 214 586v8q0 110 -72 110h-31q-344 0 -831 -340q-330 -286 -427 -443q-269 -401 -269 -648q22 -214 103 -214q0 -16 95 -16 l609 40h40q165 0 269 -63q383 166 561 166q87 -40 87 -95q-140 -4 -474 -142l-64 -32q32 -53 32 -119v-31q0 -247 -380 -609q-323 -253 -530 -253h-71q-208 0 -261 221q0 270 989 830q16 8 24 8v8l-56 8h-79l-633 -39q-265 0 -363 308q-8 30 -8 71zM245 -467v-16 q7 -24 47 -24h79q257 0 625 356q261 295 261 514q-294 -130 -783 -506q-229 -205 -229 -324z" />
<glyph unicode="T" horiz-adv-x="1300" d="M0 1558v15q0 317 1297 594q11 110 31 110h8q95 -23 95 -87q568 87 917 87h159q316 0 316 -71q16 0 16 -39q-8 0 -8 -8q-128 15 -253 15h-158q-397 0 -1021 -110q-342 -1665 -640 -2602q-41 -56 -48 -56h-15q-60 0 -95 87q98 107 300 973q132 508 364 1566h-8 q-585 -111 -973 -324q-174 -110 -174 -245h-31q-79 46 -79 95z" />
<glyph unicode="U" horiz-adv-x="1797" d="M0 221v16q0 699 388 1850l15 8q95 -36 95 -95q-379 -1155 -379 -1795v-118q0 -408 197 -554q80 -40 151 -40h55q790 0 1131 2025q54 352 103 870h8q54 0 103 -79q0 -357 -190 -1376q-372 -1542 -1068 -1542h-55q-315 0 -483 371q-71 183 -71 459z" />
<glyph unicode="V" horiz-adv-x="1292" d="M0 1929q16 8 23 8q38 0 87 -79q47 -1792 127 -2230q5 0 32 -143q209 264 442 736q531 1008 1068 2159h16q42 0 95 -71v-8q-441 -971 -1107 -2254q-260 -485 -412 -664l-31 -24h-32q-159 0 -206 506q-102 987 -102 2064z" />
<glyph unicode="W" horiz-adv-x="2493" d="M0 102q0 543 482 1764l16 8h8q60 0 95 -87q-483 -1199 -483 -1756v-24q0 -245 103 -245h47q286 0 696 1036q66 206 80 206h7q61 0 95 -79q-79 -405 -79 -680v-135q0 -482 238 -585l102 -16q625 0 791 1368q64 448 64 1005v332q0 34 -8 119l15 8q51 0 103 -72 q8 -213 8 -316q0 -1991 -561 -2444q-154 -103 -325 -103q-374 0 -514 491q-31 164 -31 324v166h-8q-335 -728 -586 -728h-55q-186 0 -285 277q-15 110 -15 166z" />
<glyph unicode="X" horiz-adv-x="2235" d="M0 -562q266 408 870 1186q-258 590 -293 926q-12 0 -23 134l16 8q110 0 126 -261q105 -437 221 -728h8q746 951 1329 1622h32q39 -19 71 -64v-7q0 -40 -253 -317q-739 -894 -1107 -1384v-8q210 -411 490 -411h16q326 0 759 538h8q95 -23 95 -87v-8q-433 -546 -775 -546 h-32q-314 0 -617 451q-472 -603 -838 -1139h-8q-95 24 -95 87v8z" />
<glyph unicode="Y" horiz-adv-x="1373" d="M0 1004v111q0 345 150 854h32q24 0 79 -79q-150 -558 -150 -902q0 -403 189 -403h8q565 0 1036 1771h8q68 0 103 -87q-180 -968 -395 -1684q207 87 332 87q87 -40 87 -95q-499 -103 -499 -237q-309 -934 -624 -934q-206 51 -206 198q-8 0 -8 24q0 283 562 751 q189 121 189 135q61 167 182 624v8h-8q-316 -664 -680 -664q-246 0 -363 324q-24 110 -24 198zM261 -451v-24q0 -16 24 -16q252 0 529 775q-553 -447 -553 -735z" />
<glyph unicode="Z" horiz-adv-x="1816" d="M0 -388q39 228 855 1194v8q-217 -39 -285 -39h-8q-38 18 -71 63v32q506 78 506 102q933 1102 933 1202h-16q-537 -47 -1447 -664q-285 -230 -285 -387h-8q-102 27 -102 95v15q0 229 735 657q643 360 1020 387h40q130 0 182 -142v-24q0 -126 -625 -838q-17 -32 -229 -285 h8q197 32 253 32q71 -56 71 -95q-439 -71 -467 -87q-840 -1001 -941 -1281h8q425 102 1724 1123h8q103 -27 103 -95q-1464 -1139 -1811 -1139q-151 49 -151 134v32z" />
<glyph unicode="[" horiz-adv-x="884" />
<glyph unicode="\" />
<glyph unicode="]" horiz-adv-x="1091" />
<glyph unicode="^" horiz-adv-x="914" />
<glyph unicode="_" horiz-adv-x="1287" />
<glyph unicode="`" horiz-adv-x="502" />
<glyph unicode="a" horiz-adv-x="1157" d="M-71 219v48q0 325 261 640q100 90 206 103q89 0 205 -95q24 111 48 111q95 -24 95 -79q-135 -439 -135 -617v-79q0 -16 24 -16q99 0 546 475q64 0 102 -95q-433 -483 -585 -483h-16q-148 0 -189 222v31h-8q-230 -371 -388 -387q-128 0 -166 221zM48 109q203 136 348 403 q174 268 174 340v8q-38 47 -87 47q-224 0 -404 -490q-31 -118 -31 -182v-126z" />
<glyph unicode="b" horiz-adv-x="989" d="M26 211v246q0 932 443 1581q90 95 174 95q158 -59 158 -174v-16q-30 -258 -624 -1130q-32 -169 -32 -325v-8h8q298 562 466 562q127 0 167 -214q0 -45 7 -55q-4 -15 -15 -119q142 48 221 48h8q95 -23 95 -87q-30 -17 -198 -48q-182 -65 -182 -118q-171 -467 -356 -467 q-174 42 -174 150q0 154 348 404q111 50 111 134q24 137 24 206l-8 55q-156 -111 -269 -300q-261 -451 -261 -522h-16q-95 39 -95 102zM240 1168h8q412 656 435 831v24q-134 -56 -293 -396q-59 -116 -150 -451v-8zM327 93q135 82 205 261q-205 -166 -205 -261z" />
<glyph unicode="c" horiz-adv-x="817" d="M-36 322q0 349 300 688q126 87 222 87h15q167 -56 167 -166v-16q0 -151 -64 -182q-87 41 -87 95q32 102 32 151v15q-182 0 -372 -355q-95 -228 -95 -404q14 -158 64 -158q234 0 719 656h16q53 0 95 -71v-16q-491 -672 -743 -672q-155 0 -246 214q-16 41 -23 134z" />
<glyph unicode="d" horiz-adv-x="1040" d="M-91 219v32q0 366 317 712q94 55 158 55q65 0 174 -79q131 490 300 830q169 318 285 341q166 -52 166 -167v-7q-56 -392 -656 -1155q-33 -209 -40 -340q12 -174 48 -174q166 0 427 435h8q95 -23 95 -87q-247 -451 -443 -451q-245 56 -245 301h-8q-243 -419 -420 -467 q-128 0 -166 221zM28 117q111 65 269 292q203 301 237 459q-29 47 -71 47q-221 0 -403 -522q-32 -114 -32 -221v-55zM771 1184q365 510 420 799h-8q-201 -201 -340 -609q-30 -45 -72 -190z" />
<glyph unicode="e" horiz-adv-x="837" d="M-32 362q0 324 245 617q115 95 221 95q190 -49 190 -174q0 -149 -245 -301q-141 -55 -253 -55q-40 -159 -40 -261q0 -190 111 -190q293 0 672 601q0 10 24 24q53 -14 95 -72v-15q-66 -191 -435 -538q-144 -96 -269 -103q-206 0 -300 253zM181 670h8q105 0 269 174 q48 86 48 127h-8q-170 0 -317 -301z" />
<glyph unicode="f" horiz-adv-x="658" d="M-55 -10q0 653 269 1186q434 941 657 941q142 -66 142 -181v-48q0 -376 -878 -1313l-24 -95q300 0 586 238h8q52 0 94 -72v-15q-273 -261 -664 -261q182 -266 182 -633q-19 -348 -111 -348h-8q-172 0 -237 324q-16 109 -16 245v32zM64 -42v-102q0 -236 55 -364 q79 57 79 324q0 311 -118 498q-16 -218 -16 -356zM262 931q640 713 640 1060l-16 8q-228 -215 -442 -665q-101 -182 -182 -403z" />
<glyph unicode="g" horiz-adv-x="1024" d="M-237 -920q0 220 728 1044l71 325q-304 -435 -451 -435h-16q-121 0 -166 205q0 30 -8 64q0 332 293 648q112 87 205 87q108 0 238 -118q15 150 39 150q95 -36 95 -95q0 -32 -119 -633q382 396 404 396q95 -36 95 -95q-565 -560 -578 -617q-181 -718 -363 -1005 q-105 -158 -246 -158q-148 0 -221 174v63zM-126 -1046l15 -8h8q211 0 364 451q135 339 135 395q-522 -597 -522 -838zM40 204q8 -75 8 -87q146 51 411 435q150 256 150 300q-35 63 -111 63q-229 0 -411 -458q-47 -138 -47 -253zM1376 346h8v16h-8v-16z" />
<glyph unicode="h" horiz-adv-x="979" d="M-78 -121q0 554 332 1661q211 562 379 562q206 -53 206 -206q0 -271 -664 -1131q-71 -376 -71 -387v-8h7q263 609 451 609h8q78 0 143 -119q9 -14 15 -79q-63 -473 -63 -522q217 156 340 443l16 8h8q95 -23 95 -87q-252 -475 -404 -475h-23q-130 0 -151 182 q64 484 64 538q-133 -72 -238 -285q-141 -231 -340 -783h-31q-24 0 -79 79zM278 1145h7q435 607 435 838l-7 16q-169 0 -412 -759l-23 -87v-8z" />
<glyph unicode="i" horiz-adv-x="596" d="M-65 188v8q0 248 206 822h15q53 0 95 -71q-197 -603 -197 -807v-55q245 147 577 601l24 16q47 0 95 -71v-24q-483 -633 -641 -633q-174 39 -174 214zM204 1224q74 140 95 150h24q79 -49 79 -87q-77 -140 -95 -150h-24q-79 49 -79 87z" />
<glyph unicode="j" horiz-adv-x="593" d="M-849 -943q0 377 680 1107q127 96 127 142q33 103 142 712h8q55 0 103 -79q-43 -285 -95 -530q365 262 514 301q87 -40 87 -95q-331 -150 -656 -443q-301 -1345 -719 -1345h-1q-93 0 -174 135q-16 28 -16 63v32zM-738 -1030q8 -14 8 -40q332 0 617 1084 q-434 -474 -514 -704q-111 -216 -111 -340zM124 1208q54 190 71 190h8q52 0 95 -79q-54 -198 -79 -198q-53 0 -95 87z" />
<glyph unicode="k" horiz-adv-x="866" d="M-32 37v87q0 601 363 1574q195 412 348 412h8q214 -55 214 -206q0 -271 -704 -1068q-40 -184 -40 -205q232 387 340 387h32q94 0 135 -158v-8q0 -221 -261 -395q-76 -40 -167 -40q0 -34 111 -55h40q207 0 522 348q103 -27 103 -95q-317 -356 -538 -356h-56 q-84 0 -229 111q-78 -186 -119 -420h-8q-94 24 -94 87zM284 552h8q154 68 237 276q16 58 16 72q-185 -162 -261 -348zM292 1168q490 574 490 823v16h-8q-227 0 -482 -839z" />
<glyph unicode="l" horiz-adv-x="710" d="M10 338v8q0 548 396 1479q157 285 277 285q132 0 189 -206v-8q0 -319 -704 -1242q-39 -206 -39 -340v-87q0 -73 32 -158q221 0 593 641h8q94 -34 94 -95v-8q-372 -641 -608 -641q-131 0 -214 198q-24 60 -24 174zM263 1026h8q483 679 483 965v8q-200 0 -491 -965v-8z" />
<glyph unicode="m" horiz-adv-x="1612" d="M-146 -65q183 792 268 1083h16q52 -21 87 -71q0 -47 -118 -522v-8h8q326 593 458 593q143 -51 143 -174v-47q0 -104 -16 -143v-7h8q167 278 277 300h23q127 -39 127 -142q-63 -371 -63 -435v-48h7q133 12 578 388q95 -39 95 -95q-436 -396 -617 -396q-131 0 -182 190v32 q0 71 55 364q-189 -201 -403 -601q0 -31 -32 -48q-95 35 -95 95q119 438 119 601v32q-199 -214 -459 -688q-140 -287 -190 -340q-52 0 -94 87z" />
<glyph unicode="n" horiz-adv-x="1079" d="M-143 -57q205 881 261 1075h8q56 0 103 -87l-103 -419v-8h8q271 514 419 514q134 -41 134 -150v-40q-47 -459 -47 -530v-7h8q92 0 482 411h8q65 0 95 -95q-390 -420 -514 -427h-16q-152 0 -182 229q0 62 56 475h-8q-183 -174 -403 -601q-174 -376 -206 -420 q-53 0 -103 80z" />
<glyph unicode="o" horiz-adv-x="956" d="M-45 283v15q0 330 253 665q46 60 95 63q179 0 276 -237q24 -59 24 -158v-72q194 0 396 151q102 -28 102 -95q-208 -158 -403 -158q-68 0 -111 15q-51 -276 -182 -419q-89 -87 -158 -87h-31q-142 0 -238 190q-23 52 -23 127zM73 196q0 -127 63 -127h32q156 0 293 411l8 40 q-165 104 -222 237h-8q-166 -278 -166 -506v-55zM318 836q0 -144 159 -245l7 16v126q0 190 -94 190q-58 0 -72 -87z" />
<glyph unicode="p" horiz-adv-x="915" d="M-305 -1086q87 683 222 1282q95 398 237 830l16 8h24q71 -41 71 -87l-71 -237q213 308 348 308h31q143 -39 158 -174v-39q0 -48 -23 -151q183 56 261 56q20 0 79 -71v-16q-4 -12 -261 -71q-149 -56 -158 -87q-231 -491 -467 -491q-65 0 -134 71q-95 -304 -206 -1131 q0 -79 -24 -79q-54 0 -103 79zM146 93h16q129 70 245 253v8q-149 -95 -261 -253v-8zM162 346q151 122 380 253q79 194 79 308q-8 0 -8 8q-166 -33 -419 -490q-32 -75 -32 -79z" />
<glyph unicode="q" horiz-adv-x="910" d="M-88 196v47q0 344 308 688q91 79 158 79h40q70 0 158 -79h8q37 115 55 119h8q53 0 95 -71v-8q-185 -492 -269 -760h8q255 190 419 435q34 63 56 72q95 -36 95 -95q-224 -378 -609 -601q166 -178 166 -435q0 -361 -301 -681q-79 -67 -126 -71q-67 0 -135 119q-9 24 -16 79 q0 266 301 1194q-178 -205 -269 -205q-106 0 -150 174zM30 140q193 155 364 419q158 278 158 309q-32 39 -39 39h-48q-195 0 -395 -506q-40 -117 -40 -221v-40zM149 -1038q212 126 332 569q8 56 8 103v63q0 126 -87 285h-8q-245 -774 -245 -1020z" />
<glyph unicode="r" horiz-adv-x="719" d="M-75 93q0 222 182 917l16 8q58 0 103 -79q-42 -164 -56 -198v-8h8q123 285 206 285q158 -33 158 -269q0 -22 24 -118h8q70 0 182 87h7q70 0 103 -95q-128 -95 -221 -95q-144 0 -206 221q-18 119 -31 119q-159 -244 -372 -854q-18 -8 -24 -8q-45 0 -87 87z" />
<glyph unicode="s" horiz-adv-x="806" d="M-136 -318q0 137 332 498q-158 354 -158 459q0 211 237 363q68 16 95 16q205 -52 205 -190v-23q0 -101 -63 -174q-68 0 -103 87q52 105 56 174q-8 23 -16 23q-200 0 -293 -316v-32q0 -130 111 -316q443 431 585 467q87 -40 87 -95q-229 -127 -625 -522q24 -85 24 -143 v-55q0 -305 -229 -411q-14 -8 -40 -8h-23q-182 42 -182 174v24zM-26 -413h16q138 0 222 284q15 92 15 127q-253 -278 -253 -411z" />
<glyph unicode="t" horiz-adv-x="728" d="M-499 1485v31q797 98 822 111q117 348 143 348q42 0 95 -71q0 -23 -87 -269q272 24 450 24h87q340 -15 340 -135l-15 -8q-108 40 -230 40h-95q-593 -20 -593 -55q-340 -1039 -340 -1432q18 -206 48 -206q122 34 363 388l277 475h8q95 -38 95 -95q-466 -870 -680 -870h-8 q-198 71 -198 237q-13 0 -16 119v55q0 369 309 1329h-8l-680 -87q-52 21 -87 71z" />
<glyph unicode="u" horiz-adv-x="1138" d="M-58 164v55q0 248 158 696h8q56 0 103 -87q-150 -433 -150 -680v-24l8 -79q157 54 348 396q209 481 245 546h8q87 0 118 -103q-55 -488 -55 -586h16q125 68 411 412h8q95 -23 95 -87v-8q-328 -412 -475 -435q-139 0 -174 221q8 88 8 135v8h-8q-271 -601 -482 -601 q-131 0 -190 221zM622 552h8v15h-8v-15z" />
<glyph unicode="v" horiz-adv-x="1095" d="M16 860l16 8q84 0 103 -127q32 -336 63 -569h8q312 586 435 886h16q102 -40 102 -151q0 -178 127 -245q36 0 47 -8q63 7 182 48h8q61 0 95 -87q-108 -63 -206 -63q-203 0 -324 253q-12 -3 -158 -317q-246 -479 -301 -522h-7q-127 49 -127 206q-40 200 -79 688z" />
<glyph unicode="w" horiz-adv-x="1228" d="M0 385q0 225 127 515h15q42 0 95 -72v-8q-118 -291 -118 -522q0 -110 23 -110q140 112 261 411q54 142 95 142q54 -28 95 -79v-31l-55 -475v-63q1 -16 16 -16h8q211 0 245 514v71q0 191 -56 356l16 8q77 0 182 -237q100 -127 206 -127q38 0 134 40q95 -41 95 -95 q-74 -48 -158 -48q-130 3 -308 167q7 -104 7 -143q0 -497 -221 -601q-46 -8 -71 -8h-8q-165 0 -206 230v23q0 29 8 87v8h-8q-113 -245 -237 -245q-93 0 -166 166q-16 115 -16 142z" />
<glyph unicode="x" horiz-adv-x="985" d="M-62 -224q145 362 245 530q-90 170 -198 578q0 16 24 16q86 0 158 -325q50 -115 56 -158h16q173 347 450 744q15 7 24 7q52 -21 87 -71v-8q0 -23 -261 -411l-237 -435q57 -124 126 -166q196 37 601 625h8q95 -24 95 -87v-8q-414 -616 -632 -633q-116 22 -238 182h-8 q-184 -422 -213 -459q-55 0 -103 79z" />
<glyph unicode="y" horiz-adv-x="1034" d="M-191 -951q0 313 735 1139l71 277q-282 -396 -443 -396h-8q-119 0 -181 174q0 12 -8 87q0 199 118 601l16 8h24q71 -41 71 -87q-111 -400 -111 -617q8 -59 8 -63q257 68 593 728q30 92 64 126q54 0 102 -79q0 -17 -126 -562q142 135 348 317h8q42 0 95 -71v-16 q-530 -504 -530 -530q-278 -1003 -498 -1202q-68 -48 -151 -48q-197 68 -197 206v8zM-73 -1022v-24q3 -16 16 -16q236 0 498 910q-514 -614 -514 -870z" />
<glyph unicode="z" horiz-adv-x="1164" d="M-149 -991q0 321 553 1028l246 261v32q0 16 -16 16q-75 0 -380 -190h-32q-62 31 -87 79v8q0 54 388 530q63 83 63 119q-195 -81 -482 -293h-16q-87 41 -87 95q438 324 609 324q85 0 134 -118q0 -98 -316 -483h8q78 32 127 32q71 0 158 -87q260 230 490 356 q103 -27 103 -95q-235 -127 -546 -412v-39q0 -374 -411 -1060q-205 -277 -332 -277h-8q-131 0 -166 174zM-31 -1054h8q168 70 356 403q126 197 269 601l24 111q-417 -450 -554 -799q-103 -196 -103 -316z" />
<glyph unicode="{" horiz-adv-x="861" />
<glyph unicode="|" horiz-adv-x="797" />
<glyph unicode="}" horiz-adv-x="1127" />
<glyph unicode="~" horiz-adv-x="1264" />
<glyph unicode="&#xa1;" horiz-adv-x="796" />
<glyph unicode="&#xa2;" horiz-adv-x="1083" />
<glyph unicode="&#xa3;" horiz-adv-x="2041" />
<glyph unicode="&#xa4;" horiz-adv-x="1627" />
<glyph unicode="&#xa5;" horiz-adv-x="1642" />
<glyph unicode="&#xa6;" horiz-adv-x="796" />
<glyph unicode="&#xa9;" horiz-adv-x="1491" />
<glyph unicode="&#xab;" />
<glyph unicode="&#xae;" horiz-adv-x="1219" />
<glyph unicode="&#xb1;" horiz-adv-x="1498" />
<glyph unicode="&#xb4;" horiz-adv-x="502" />
<glyph unicode="&#xb6;" horiz-adv-x="1687" />
<glyph unicode="&#xbb;" />
<glyph unicode="&#xbf;" horiz-adv-x="1265" />
<glyph unicode="&#xc0;" horiz-adv-x="2010" />
<glyph unicode="&#xc1;" horiz-adv-x="2003" />
<glyph unicode="&#xc2;" horiz-adv-x="2010" />
<glyph unicode="&#xc3;" horiz-adv-x="2002" />
<glyph unicode="&#xc4;" horiz-adv-x="2011" />
<glyph unicode="&#xc5;" horiz-adv-x="2010" />
<glyph unicode="&#xc6;" horiz-adv-x="3336" />
<glyph unicode="&#xc7;" horiz-adv-x="1679" />
<glyph unicode="&#xc8;" horiz-adv-x="1635" />
<glyph unicode="&#xc9;" horiz-adv-x="1810" />
<glyph unicode="&#xca;" horiz-adv-x="1659" />
<glyph unicode="&#xcb;" horiz-adv-x="1659" />
<glyph unicode="&#xcc;" horiz-adv-x="844" />
<glyph unicode="&#xcd;" horiz-adv-x="1027" />
<glyph unicode="&#xce;" horiz-adv-x="932" />
<glyph unicode="&#xcf;" horiz-adv-x="956" />
<glyph unicode="&#xd0;" horiz-adv-x="1977" />
<glyph unicode="&#xd1;" horiz-adv-x="2030" />
<glyph unicode="&#xd2;" horiz-adv-x="1768" />
<glyph unicode="&#xd3;" horiz-adv-x="1768" />
<glyph unicode="&#xd4;" horiz-adv-x="1768" />
<glyph unicode="&#xd5;" horiz-adv-x="1768" />
<glyph unicode="&#xd6;" horiz-adv-x="1776" />
<glyph unicode="&#xd7;" horiz-adv-x="1151" />
<glyph unicode="&#xd8;" horiz-adv-x="1841" />
<glyph unicode="&#xd9;" horiz-adv-x="1816" />
<glyph unicode="&#xda;" horiz-adv-x="1816" />
<glyph unicode="&#xdb;" horiz-adv-x="1807" />
<glyph unicode="&#xdc;" horiz-adv-x="1816" />
<glyph unicode="&#xdd;" horiz-adv-x="1396" />
<glyph unicode="&#xde;" horiz-adv-x="1988" />
<glyph unicode="&#xdf;" horiz-adv-x="1620" />
<glyph unicode="&#xe0;" horiz-adv-x="1163" />
<glyph unicode="&#xe1;" horiz-adv-x="1172" />
<glyph unicode="&#xe2;" horiz-adv-x="1163" />
<glyph unicode="&#xe3;" horiz-adv-x="1171" />
<glyph unicode="&#xe4;" horiz-adv-x="1164" />
<glyph unicode="&#xe5;" horiz-adv-x="1171" />
<glyph unicode="&#xe6;" horiz-adv-x="1999" />
<glyph unicode="&#xe7;" horiz-adv-x="820" />
<glyph unicode="&#xe8;" horiz-adv-x="848" />
<glyph unicode="&#xe9;" horiz-adv-x="847" />
<glyph unicode="&#xea;" horiz-adv-x="848" />
<glyph unicode="&#xeb;" horiz-adv-x="848" />
<glyph unicode="&#xec;" horiz-adv-x="604" />
<glyph unicode="&#xed;" horiz-adv-x="612" />
<glyph unicode="&#xee;" horiz-adv-x="604" />
<glyph unicode="&#xef;" horiz-adv-x="604" />
<glyph unicode="&#xf0;" horiz-adv-x="803" />
<glyph unicode="&#xf1;" horiz-adv-x="1094" />
<glyph unicode="&#xf2;" horiz-adv-x="960" />
<glyph unicode="&#xf3;" horiz-adv-x="969" />
<glyph unicode="&#xf4;" horiz-adv-x="960" />
<glyph unicode="&#xf5;" horiz-adv-x="969" />
<glyph unicode="&#xf6;" horiz-adv-x="968" />
<glyph unicode="&#xf7;" horiz-adv-x="1174" />
<glyph unicode="&#xf8;" horiz-adv-x="1032" />
<glyph unicode="&#xf9;" horiz-adv-x="1159" />
<glyph unicode="&#xfa;" horiz-adv-x="1152" />
<glyph unicode="&#xfb;" horiz-adv-x="1151" />
<glyph unicode="&#xfc;" horiz-adv-x="1151" />
<glyph unicode="&#xfd;" horiz-adv-x="1048" />
<glyph unicode="&#xfe;" horiz-adv-x="1139" />
<glyph unicode="&#xff;" horiz-adv-x="1048" />
<glyph unicode="&#x2018;" horiz-adv-x="411" />
<glyph unicode="&#x2019;" horiz-adv-x="464" />
<glyph unicode="&#x201a;" horiz-adv-x="464" />
<glyph unicode="&#x201c;" horiz-adv-x="600" />
<glyph unicode="&#x201d;" horiz-adv-x="653" />
<glyph unicode="&#x201e;" horiz-adv-x="645" />
<glyph unicode="&#x20ac;" horiz-adv-x="1876" />
<glyph unicode="&#x25fc;" horiz-adv-x="1170" d="M0 0v1170h1170v-1170h-1170z" />
</font>
</defs>
</svg>
